  0
SECTION
  2
HEADER
  9
$ACADVER
  1
AC1009
  9
$INSBASE
 10
0
 20
0
  9
$EXTMIN
 10
-164.2501408353131
 20
-78.5820153571656
  9
$EXTMAX
 10
-6.560088945069911
 20
6.800000000000001
  9
$LIMMIN
 10
-164.2501408353131
 20
-78.5820153571656
  9
$LIMMAX
 10
-6.560088945069911
 20
6.800000000000001
  9
$VIEWCTR
 10
10
 20
10
  9
$VIEWSIZE
 40
10
  9
$SNAPMODE
 70
0
  9
$SNAPUNIT
 10
1
 20
1
  9
$SNAPBASE
 10
0
 20
0
  9
$SNAPANG
 50
0
  9
$SNAPSTYLE
 70
0
  9
$SNAPISOPAIR
 70
0
  9
$GRIDMODE
 70
0
  9
$GRIDUNIT
 10
0
 20
0
  9
$ORTHOMODE
 70
0
  9
$REGENMODE
 70
1
  9
$FILLMODE
 70
1
  9
$QTEXTMODE
 70
0
  9
$DRAGMODE
 70
2
  9
$LTSCALE
 40
1
  9
$OSMODE
 70
0
  9
$ATTMODE
 70
1
  9
$TEXTSIZE
 40
3.5
  9
$TRACEWID
 40
0.5
  9
$TEXTSTYLE
  7
STANDARD
  9
$CLAYER
  8
0
  9
$CELTYPE
  6
BYLAYER
  9
$CECOLOR
 62
256
  9
$DIMSCALE
 40
1
  9
$DIMASZ
 40
0.18
  9
$DIMEXO
 40
0.0625
  9
$DIMDLI
 40
0.38
  9
$DIMRND
 40
0
  9
$DIMDLE
 40
0
  9
$DIMEXE
 40
0.18
  9
$DIMTP
 40
0
  9
$DIMTM
 40
0
  9
$DIMTXT
 40
0.18
  9
$DIMCEN
 40
0.09
  9
$DIMTSZ
 40
0
  9
$DIMTOL
 70
0
  9
$DIMLIM
 70
0
  9
$DIMTIH
 70
1
  9
$DIMTOH
 70
1
  9
$DIMSE1
 70
0
  9
$DIMSE2
 70
0
  9
$DIMTAD
 70
0
  9
$DIMZIN
 70
0
  9
$DIMBLK
  1

  9
$DIMASO
 70
1
  9
$DIMSHO
 70
1
  9
$DIMPOST
  1

  9
$DIMAPOST
  1

  9
$DIMALT
 70
0
  9
$DIMALTD
 70
2
  9
$DIMALTF
 40
25.4
  9
$DIMLFAC
 40
1
  9
$DIMTOFL
 70
0
  9
$DIMTVP
 40
0
  9
$DIMTIX
 70
0
  9
$DIMSOXD
 70
0
  9
$DIMSAH
 70
0
  9
$DIMBLK1
  1

  9
$DIMBLK2
  1

  9
$DIMSTYLE
  2
*UNNAMED
  9
$DIMCLRD
 70
0
  9
$DIMCLRE
 70
0
  9
$DIMCLRT
 70
0
  9
$DIMTFAC
 40
1
  9
$DIMGAP
 40
0.09
  9
$LUNITS
 70
2
  9
$LUPREC
 70
4
  9
$AXISMODE
 70
0
  9
$AXISUNIT
 10
0
 20
0
  9
$SKETCHINC
 40
0.1
  9
$FILLETRAD
 40
2
  9
$AUNITS
 70
0
  9
$AUPREC
 70
0
  9
$MENU
  1
ACAD
  9
$ELEVATION
 40
0
  9
$THICKNESS
 40
0
  9
$VIEWDIR
 10
0
 20
0
 30
1
  9
$LIMCHECK
 70
0
  9
$BLIPMODE
 70
1
  9
$CHAMFERA
 40
0
  9
$CHAMFERB
 40
0
  9
$FASTZOOM
 70
1
  9
$SKPOLY
 70
0
  9
$ANGBASE
 50
0
  9
$ANGDIR
 70
0
  9
$PDMODE
 70
0
  9
$PDSIZE
 40
0
  9
$PLINEWID
 40
0
  9
$COORDS
 70
2
  0
ENDSEC
  0
SECTION
  2
TABLES
  0
TABLE
  2
DIMSTYLE
 70
6
  0
DIMSTYLE
  2
DMST_1
 70
0
  3

  4

  5

  6

  7

 40
1
 41
3.2
 42
1
 43
7
 44
1.5
 45
0
 46
0
 47
0
 48
0
140
3.2
141
0
142
0
143
25.4
144
1
145
0
146
1
147
0.09
 71
0
 72
0
 73
0
 74
0
 75
0
 76
0
 77
1
 78
9
170
0
171
2
172
0
173
0
174
0
175
0
176
2
177
2
178
2
  0
DIMSTYLE
  2
DMST_2
 70
0
  3

  4

  5

  6

  7

 40
1
 41
3.2
 42
1
 43
7
 44
1.5
 45
0
 46
0
 47
0
 48
0.05
140
3.2
141
0
142
0
143
25.4
144
1
145
0
146
0.6
147
0.09
 71
1
 72
0
 73
0
 74
0
 75
0
 76
0
 77
1
 78
9
170
0
171
2
172
0
173
0
174
0
175
0
176
2
177
2
178
2
  0
DIMSTYLE
  2
DMST_3
 70
0
  3

  4

  5

  6

  7

 40
1
 41
3.2
 42
1
 43
7
 44
1.5
 45
0
 46
0
 47
0
 48
0.02
140
3.2
141
0
142
0
143
25.4
144
1
145
0
146
0.6
147
0.09
 71
1
 72
0
 73
0
 74
0
 75
0
 76
0
 77
1
 78
9
170
0
171
2
172
0
173
0
174
0
175
0
176
2
177
2
178
2
  0
DIMSTYLE
  2
DMST_4
 70
0
  3
±0.2
  4

  5

  6

  7

 40
1
 41
3.2
 42
1
 43
7
 44
1.5
 45
0
 46
0
 47
0
 48
0
140
3.2
141
0
142
0
143
25.4
144
1
145
0
146
1
147
0.09
 71
0
 72
0
 73
0
 74
0
 75
0
 76
0
 77
1
 78
9
170
0
171
2
172
0
173
0
174
0
175
0
176
2
177
2
178
2
  0
DIMSTYLE
  2
DMST_5
 70
0
  3

  4

  5

  6

  7

 40
1
 41
3.2
 42
1
 43
7
 44
1.5
 45
0
 46
0
 47
0
 48
1
140
3.2
141
0
142
0
143
25.4
144
1
145
0
146
0.6
147
0.09
 71
1
 72
0
 73
0
 74
0
 75
0
 76
0
 77
1
 78
9
170
0
171
2
172
0
173
0
174
0
175
0
176
2
177
2
178
2
  0
DIMSTYLE
  2
DMST_6
 70
0
  3
±1
  4

  5

  6

  7

 40
1
 41
3.2
 42
1
 43
7
 44
1.5
 45
0
 46
0
 47
0
 48
0
140
3.2
141
0
142
0
143
25.4
144
1
145
0
146
1
147
0.09
 71
0
 72
0
 73
0
 74
0
 75
0
 76
0
 77
1
 78
9
170
0
171
2
172
0
173
0
174
0
175
0
176
2
177
2
178
2
  0
ENDTAB
  0
TABLE
  2
LTYPE
 70
9
  0
LTYPE
  2
CONTINUOUS
 70
64
  3
Solid line
 72
65
 73
0
 40
0
  0
LTYPE
  2
BORDER
 70
64
  3
__ __ . __ __ .
 72
65
 73
6
 40
7.262041863366462
 49
2.074869103818989
 49
-1.037434551909495
 49
2.074869103818989
 49
-1.037434551909495
 49
0
 49
-1.037434551909495
  0
LTYPE
  2
CENTER
 70
64
  3
____ _ ____ _
 72
65
 73
4
 40
8.299476415275956
 49
5.187172759547472
 49
-1.037434551909495
 49
1.037434551909495
 49
-1.037434551909495
  0
LTYPE
  2
DASHDOT
 70
64
  3
__ . __ . __ .
 72
65
 73
4
 40
4.149738207637978
 49
2.074869103818989
 49
-1.037434551909495
 49
0
 49
-1.037434551909495
  0
LTYPE
  2
DASHED
 70
64
  3
__ __ __ __ __
 72
65
 73
2
 40
3.112303655728484
 49
2.074869103818989
 49
-1.037434551909495
  0
LTYPE
  2
DIVIDE
 70
64
  3
__ . . __ . . 
 72
65
 73
6
 40
5.187172759547472
 49
2.074869103818989
 49
-1.037434551909495
 49
0
 49
-1.037434551909495
 49
0
 49
-1.037434551909495
  0
LTYPE
  2
DOT
 70
64
  3
..............
 72
65
 73
4
 40
2.074869103818989
 49
0
 49
-1.037434551909495
 49
0
 49
-1.037434551909495
  0
LTYPE
  2
HIDDEN
 70
64
  3
_ _ _ _ _ _ _
 72
65
 73
2
 40
1.556151827864242
 49
1.037434551909495
 49
-0.5187172759547473
  0
LTYPE
  2
PHANTOM
 70
64
  3
_____ _ _ _____ _ _ 
 72
65
 73
6
 40
10.37434551909495
 49
5.187172759547472
 49
-1.037434551909495
 49
1.037434551909495
 49
-1.037434551909495
 49
1.037434551909495
 49
-1.037434551909495
  0
ENDTAB
  0
TABLE
  2
LAYER
 70
3
  0
LAYER
  2
1
 70
0
 62
7
  6
CONTINUOUS
  0
LAYER
  2
0
 70
0
 62
7
  6
CONTINUOUS
  0
ENDTAB
  0
TABLE
  2
STYLE
 70
4
  0
STYLE
  2
STANDARD
 70
0
 40
0
 41
1
 50
0
 71
0
 42
3.5
  3
txt
  4

  0
STYLE
  2
SIMPLEX
 70
0
 40
0
 41
1
 50
0
 71
0
 42
3.5
  3
simplex
  4

  0
STYLE
  2
COMPLEX
 70
0
 40
0
 41
1
 50
0
 71
0
 42
3.5
  3
complex
  4

  0
STYLE
  2
ITALIC
 70
0
 40
0
 41
1
 50
0
 71
0
 42
3.5
  3
italic
  4

  0
ENDTAB
  0
TABLE
  2
VIEW
 70
0
  0
ENDTAB
  0
ENDSEC
  0
SECTION
  2
BLOCKS
  0
BLOCK
  8
1
  2
*X0
 70
1
 10
0
 20
0
 30
0
  0
LINE
  8
1
 62
7
 10
-138.7631078002809
 20
-39.73098474424115
 30
0
 11
-138.7631078002809
 21
-39.47585454634348
 31
0
  0
LINE
  8
1
 62
7
 10
-138.6631078002809
 20
-39.75869010534102
 30
0
 11
-138.6631078002809
 21
-39.24010441197924
 31
0
  0
LINE
  8
1
 62
7
 10
-138.5631078002809
 20
-39.78639546644089
 30
0
 11
-138.5631078002809
 21
-39.004354277615
 31
0
  0
LINE
  8
1
 62
7
 10
-138.4631078002809
 20
-39.81410082754076
 30
0
 11
-138.4631078002809
 21
-38.76860414325076
 31
0
  0
LINE
  8
1
 62
7
 10
-138.3631078002809
 20
-39.16905407174883
 30
0
 11
-138.3631078002809
 21
-38.53285400888652
 31
0
  0
LINE
  8
1
 62
7
 10
-138.2631078002809
 20
-38.45621578905829
 30
0
 11
-138.2631078002809
 21
-38.29710387452229
 31
0
  0
ENDBLK
  8
0
  0
BLOCK
  8
1
  2
*X1
 70
1
 10
0
 20
0
 30
0
  0
LINE
  8
1
 62
7
 10
-94.09432365217369
 20
-37.85109136708402
 30
0
 11
-94.09432365217366
 21
-37.79404955640065
 31
0
  0
LINE
  8
1
 62
7
 10
-93.99432365217369
 20
-37.88499311358043
 30
0
 11
-93.99432365217366
 21
-37.59106921347999
 31
0
  0
LINE
  8
1
 62
7
 10
-93.8943236521737
 20
-37.91889486007684
 30
0
 11
-93.89432365217367
 21
-37.38808887055933
 31
0
  0
LINE
  8
1
 62
7
 10
-93.7943236521737
 20
-37.95279660657325
 30
0
 11
-93.79432365217367
 21
-37.18510852763867
 31
0
  0
LINE
  8
1
 62
7
 10
-93.69432365217368
 20
-37.85176037104623
 30
0
 11
-93.69432365217368
 21
-36.98212818471801
 31
0
  0
LINE
  8
1
 62
7
 10
-93.59432365217369
 20
-37.34799519354149
 30
0
 11
-93.59432365217369
 21
-36.77914784179735
 31
0
  0
LINE
  8
1
 62
7
 10
-93.49432365217369
 20
-36.84423001603675
 30
0
 11
-93.49432365217369
 21
-36.57616749887669
 31
0
  0
ENDBLK
  8
0
  0
BLOCK
  8
1
  2
*X2
 70
1
 10
0
 20
0
 30
0
  0
LINE
  8
1
 62
7
 10
-74.94551116883581
 20
-37.27104686908463
 30
0
 11
-74.94551116883578
 21
-37.25439578082423
 31
0
  0
LINE
  8
1
 62
7
 10
-74.84551116883581
 20
-37.90758278648791
 30
0
 11
-74.84551116883579
 21
-37.4797589569989
 31
0
  0
LINE
  8
1
 62
7
 10
-74.74551116883582
 20
-38.54411870389119
 30
0
 11
-74.74551116883579
 21
-37.70512213317357
 31
0
  0
LINE
  8
1
 62
7
 10
-74.6455111688358
 20
-38.82372043570948
 30
0
 11
-74.6455111688358
 21
-37.93048530934824
 31
0
  0
LINE
  8
1
 62
7
 10
-74.5455111688358
 20
-38.79423532309988
 30
0
 11
-74.5455111688358
 21
-38.1558484855229
 31
0
  0
LINE
  8
1
 62
7
 10
-74.44551116883581
 20
-38.76475021049027
 30
0
 11
-74.44551116883581
 21
-38.38121166169757
 31
0
  0
LINE
  8
1
 62
7
 10
-74.34551116883581
 20
-38.73526509788066
 30
0
 11
-74.34551116883581
 21
-38.60657483787224
 31
0
  0
ENDBLK
  8
0
  0
BLOCK
  8
1
  2
*X3
 70
1
 10
0
 20
0
 30
0
  0
LINE
  8
1
 62
7
 10
-57.65070696745914
 20
-34.24972124308624
 30
0
 11
-57.65070696745915
 21
-34.24776342984179
 31
0
  0
LINE
  8
1
 62
7
 10
-57.55070696745914
 20
-34.45625484715464
 30
0
 11
-57.55070696745915
 21
-34.3634696818846
 31
0
  0
LINE
  8
1
 62
7
 10
-57.45070696745914
 20
-34.66278845122304
 30
0
 11
-57.45070696745915
 21
-34.4791759339274
 31
0
  0
LINE
  8
1
 62
7
 10
-57.35070696745914
 20
-34.86932205529145
 30
0
 11
-57.35070696745915
 21
-34.59488218597021
 31
0
  0
LINE
  8
1
 62
7
 10
-57.25070696745914
 20
-35.07585565935985
 30
0
 11
-57.25070696745915
 21
-34.71058843801301
 31
0
  0
LINE
  8
1
 62
7
 10
-57.15070696745914
 20
-35.28238926342826
 30
0
 11
-57.15070696745914
 21
-34.82629469005582
 31
0
  0
LINE
  8
1
 62
7
 10
-57.05070696745914
 20
-35.48892286749666
 30
0
 11
-57.05070696745914
 21
-34.94200094209862
 31
0
  0
LINE
  8
1
 62
7
 10
-56.95070696745913
 20
-35.69545647156507
 30
0
 11
-56.95070696745914
 21
-35.05770719414143
 31
0
  0
LINE
  8
1
 62
7
 10
-56.85070696745914
 20
-35.63273633825508
 30
0
 11
-56.85070696745914
 21
-35.17341344618423
 31
0
  0
LINE
  8
1
 62
7
 10
-56.75070696745914
 20
-35.5669599782786
 30
0
 11
-56.75070696745914
 21
-35.28911969822704
 31
0
  0
LINE
  8
1
 62
7
 10
-56.65070696745914
 20
-35.50118361830212
 30
0
 11
-56.65070696745914
 21
-35.40482595026985
 31
0
  0
ENDBLK
  8
0
  0
BLOCK
  8
1
  2
*X4
 70
1
 10
0
 20
0
 30
0
  0
LINE
  8
1
 62
7
 10
-79.5530460333004
 20
-56.13686107077359
 30
0
 11
-79.5530460333004
 21
-56.1116533679326
 31
0
  0
LINE
  8
1
 62
7
 10
-79.45304603330041
 20
-56.15002632053233
 30
0
 11
-79.45304603330041
 21
-56.09848811817386
 31
0
  0
LINE
  8
1
 62
7
 10
-79.35304603330042
 20
-56.16319157029108
 30
0
 11
-79.35304603330042
 21
-56.08532286841512
 31
0
  0
LINE
  8
1
 62
7
 10
-79.25304603330042
 20
-56.17635682004982
 30
0
 11
-79.25304603330042
 21
-56.07215761865638
 31
0
  0
LINE
  8
1
 62
7
 10
-79.15304603330043
 20
-56.18952206980856
 30
0
 11
-79.15304603330043
 21
-56.05899236889763
 31
0
  0
LINE
  8
1
 62
7
 10
-79.05304603330043
 20
-56.2026873195673
 30
0
 11
-79.05304603330043
 21
-56.04582711913889
 31
0
  0
LINE
  8
1
 62
7
 10
-78.95304603330044
 20
-56.21585256932605
 30
0
 11
-78.95304603330044
 21
-56.03266186938015
 31
0
  0
LINE
  8
1
 62
7
 10
-78.85304603330044
 20
-56.22901781908479
 30
0
 11
-78.85304603330044
 21
-56.01949661962141
 31
0
  0
LINE
  8
1
 62
7
 10
-78.75304603330045
 20
-56.24218306884353
 30
0
 11
-78.75304603330045
 21
-56.00633136986266
 31
0
  0
LINE
  8
1
 62
7
 10
-78.65304603330046
 20
-56.25534831860227
 30
0
 11
-78.65304603330046
 21
-55.99316612010392
 31
0
  0
LINE
  8
1
 62
7
 10
-78.55304603330046
 20
-56.26851356836102
 30
0
 11
-78.55304603330046
 21
-55.98000087034518
 31
0
  0
LINE
  8
1
 62
7
 10
-78.45304603330047
 20
-56.28167881811976
 30
0
 11
-78.45304603330047
 21
-55.96683562058644
 31
0
  0
LINE
  8
1
 62
7
 10
-78.35304603330047
 20
-56.2948440678785
 30
0
 11
-78.35304603330047
 21
-55.9536703708277
 31
0
  0
LINE
  8
1
 62
7
 10
-78.25304603330048
 20
-56.30800931763724
 30
0
 11
-78.25304603330048
 21
-55.94050512106895
 31
0
  0
LINE
  8
1
 62
7
 10
-78.15304603330048
 20
-56.32117456739599
 30
0
 11
-78.15304603330048
 21
-55.92733987131021
 31
0
  0
LINE
  8
1
 62
7
 10
-78.05304603330049
 20
-56.33433981715473
 30
0
 11
-78.05304603330049
 21
-55.91417462155147
 31
0
  0
ENDBLK
  8
0
  0
BLOCK
  8
1
  2
*D0
 70
1
 10
0
 20
0
 30
0
  0
LINE
  8
1
 62
2
 10
-110
 20
-40.24526934378
 30
0
 11
-110
 21
-28.24526934378
 31
0
  0
LINE
  8
1
 62
2
 10
-90.64878178956423
 20
-28.24526934378
 30
0
 11
-111.5
 21
-28.24526934378
 31
0
  0
LINE
  8
1
 62
2
 10
-90.64878178956423
 20
-40.24526934378
 30
0
 11
-111.5
 21
-40.24526934378
 31
0
  0
SOLID
  8
1
 62
2
 10
-110
 20
-28.24526934378
 30
0
 11
-109.584
 21
-31.44526934378
 31
0
 12
-110.416
 22
-31.44526934378
 32
0
 13
-110.416
 23
-31.44526934378
 33
0
  0
SOLID
  8
1
 62
2
 10
-110
 20
-40.24526934378
 30
0
 11
-110.416
 21
-37.04526934378
 31
0
 12
-109.584
 22
-37.04526934378
 32
0
 13
-109.584
 23
-37.04526934378
 33
0
  0
TEXT
  8
1
 62
2
 10
-112.8533333333334
 20
-34.8964705882353
 30
0
 40
3.2
  1
12
 50
90
 41
0.9
  0
TEXT
  8
1
 62
2
 10
-112.8533333333334
 20
-38.94352941176471
 30
0
 40
3.2
  1
φ
 50
90
 41
0.9
  0
ENDBLK
  8
0
  0
BLOCK
  8
1
  2
*D1
 70
1
 10
0
 20
0
 30
0
  0
LINE
  8
1
 62
2
 10
-29.95287445973
 20
-30.67526934378
 30
0
 11
-29.95287445973
 21
-7.699689893209392
 31
0
  0
LINE
  8
1
 62
2
 10
-29.95287445973
 20
-37.81526934377999
 30
0
 11
-29.95287445973
 21
-30.67526934378
 31
0
  0
LINE
  8
1
 62
2
 10
-29.95287445973
 20
-44.21526934377999
 30
0
 11
-29.95287445973
 21
-37.81526934377999
 31
0
  0
LINE
  8
1
 62
2
 10
-77.1487817895642
 20
-30.67526934378
 30
0
 11
-28.45287445973
 21
-30.67526934378
 31
0
  0
LINE
  8
1
 62
2
 10
-77.1487817895642
 20
-37.81526934377999
 30
0
 11
-28.45287445973
 21
-37.81526934377999
 31
0
  0
SOLID
  8
1
 62
2
 10
-29.95287445973
 20
-37.81526934377999
 30
0
 11
-29.53687445973
 21
-41.01526934377999
 31
0
 12
-30.36887445973
 22
-41.01526934377999
 32
0
 13
-30.36887445973
 23
-41.01526934377999
 33
0
  0
SOLID
  8
1
 62
2
 10
-29.95287445973
 20
-30.67526934378
 30
0
 11
-30.36887445973
 21
-27.47526934378
 31
0
 12
-29.53687445973
 22
-27.47526934378
 32
0
 13
-29.53687445973
 23
-27.47526934378
 33
0
  0
TEXT
  8
1
 62
2
 10
-32.80620779306334
 20
-24.0836898932094
 30
0
 40
3.2
  1
7.14
 50
90
 41
0.9
  0
TEXT
  8
1
 62
2
 10
-34.88620779306334
 20
-14.5636898932094
 30
0
 40
1.92
  1
 0
 50
90
 41
0.9
  0
TEXT
  8
1
 62
2
 10
-32.00620779306333
 20
-14.5636898932094
 30
0
 40
1.92
  1
-0.05
 50
90
 41
0.9
  0
TEXT
  8
1
 62
2
 10
-32.80620779306334
 20
-28.13074871673881
 30
0
 40
3.2
  1
φ
 50
90
 41
0.9
  0
ENDBLK
  8
0
  0
BLOCK
  8
1
  2
*D2
 70
1
 10
0
 20
0
 30
0
  0
LINE
  8
1
 62
2
 10
-40.0558374642333
 20
-32.74526934378
 30
0
 11
-40.0558374642333
 21
-9.766897085635893
 31
0
  0
LINE
  8
1
 62
2
 10
-40.0558374642333
 20
-35.74526934378
 30
0
 11
-40.0558374642333
 21
-32.74526934378
 31
0
  0
LINE
  8
1
 62
2
 10
-40.0558374642333
 20
-42.14526934378
 30
0
 11
-40.0558374642333
 21
-35.74526934378
 31
0
  0
LINE
  8
1
 62
2
 10
-56.8487817895642
 20
-32.74526934378
 30
0
 11
-38.5558374642333
 21
-32.74526934378
 31
0
  0
LINE
  8
1
 62
2
 10
-56.8487817895642
 20
-35.74526934378
 30
0
 11
-38.5558374642333
 21
-35.74526934378
 31
0
  0
SOLID
  8
1
 62
2
 10
-40.0558374642333
 20
-32.74526934378
 30
0
 11
-40.4718374642333
 21
-29.54526934378
 31
0
 12
-39.6398374642333
 22
-29.54526934378
 32
0
 13
-39.6398374642333
 23
-29.54526934378
 33
0
  0
SOLID
  8
1
 62
2
 10
-40.0558374642333
 20
-35.74526934378
 30
0
 11
-39.6398374642333
 21
-38.94526934378
 31
0
 12
-40.4718374642333
 22
-38.94526934378
 32
0
 13
-40.4718374642333
 23
-38.94526934378
 33
0
  0
TEXT
  8
1
 62
2
 10
-42.90917079756664
 20
-20.15089708563589
 30
0
 40
3.2
  1
3
 50
90
 41
0.9
  0
TEXT
  8
1
 62
2
 10
-44.98917079756664
 20
-16.63089708563589
 30
0
 40
1.92
  1
 0
 50
90
 41
0.9
  0
TEXT
  8
1
 62
2
 10
-42.10917079756663
 20
-16.63089708563589
 30
0
 40
1.92
  1
-0.02
 50
90
 41
0.9
  0
TEXT
  8
1
 62
2
 10
-42.90917079756664
 20
-24.19795590916531
 30
0
 40
3.2
  1
φ
 50
90
 41
0.9
  0
ENDBLK
  8
0
  0
BLOCK
  8
1
  2
*D3
 70
1
 10
0
 20
0
 30
0
  0
LINE
  8
1
 62
2
 10
-72.6487817895642
 20
-10
 30
0
 11
-66.24878178956419
 21
-10
 31
0
  0
LINE
  8
1
 62
2
 10
-79.6487817895642
 20
-10
 30
0
 11
-86.0487817895642
 21
-10
 31
0
  0
LINE
  8
1
 62
2
 10
-79.6487817895642
 20
-10
 30
0
 11
-72.6487817895642
 21
-10
 31
0
  0
LINE
  8
1
 62
2
 10
-72.6487817895642
 20
-30.74526934378
 30
0
 11
-72.6487817895642
 21
-8.5
 31
0
  0
LINE
  8
1
 62
2
 10
-79.6487817895642
 20
-27.44526934378
 30
0
 11
-79.6487817895642
 21
-8.5
 31
0
  0
SOLID
  8
1
 62
2
 10
-79.6487817895642
 20
-10
 30
0
 11
-82.8487817895642
 21
-10.416
 31
0
 12
-82.8487817895642
 22
-9.584
 32
0
 13
-82.8487817895642
 23
-9.584
 33
0
  0
SOLID
  8
1
 62
2
 10
-72.6487817895642
 20
-10
 30
0
 11
-69.44878178956419
 21
-9.584
 31
0
 12
-69.44878178956419
 22
-10.416
 32
0
 13
-69.44878178956419
 23
-10.416
 33
0
  0
TEXT
  8
1
 62
2
 10
-75.95999999999999
 20
-8
 30
0
 40
3.2
  1
7
 41
0.9
  0
ENDBLK
  8
0
  0
BLOCK
  8
1
  2
*D4
 70
1
 10
0
 20
0
 30
0
  0
LINE
  8
1
 62
2
 10
-79.6487817895642
 20
-20
 30
0
 11
-118.2023529411765
 21
-20
 31
0
  0
LINE
  8
1
 62
2
 10
-79.6487817895642
 20
-20
 30
0
 11
-78.1487817895642
 21
-20
 31
0
  0
LINE
  8
1
 62
2
 10
-71.74878178956419
 20
-20
 30
0
 11
-78.1487817895642
 21
-20
 31
0
  0
LINE
  8
1
 62
2
 10
-78.1487817895642
 20
-29.67526934378001
 30
0
 11
-78.1487817895642
 21
-18.5
 31
0
  0
LINE
  8
1
 62
2
 10
-79.6487817895642
 20
-27.44526934378
 30
0
 11
-79.6487817895642
 21
-18.5
 31
0
  0
SOLID
  8
1
 62
2
 10
-79.6487817895642
 20
-20
 30
0
 11
-82.8487817895642
 21
-20.416
 31
0
 12
-82.8487817895642
 22
-19.584
 32
0
 13
-82.8487817895642
 23
-19.584
 33
0
  0
SOLID
  8
1
 62
2
 10
-78.1487817895642
 20
-20
 30
0
 11
-74.94878178956419
 21
-19.584
 31
0
 12
-74.94878178956419
 22
-20.416
 32
0
 13
-74.94878178956419
 23
-20.416
 33
0
  0
TEXT
  8
1
 62
2
 10
-118.2023529411765
 20
-18
 30
0
 40
3.2
  1
1.5
 41
0.9
  0
TEXT
  8
1
 62
2
 10
-111.5623529411765
 20
-18
 30
0
 40
3.2
  1
±0.2
 41
0.9
  0
ENDBLK
  8
0
  0
BLOCK
  8
1
  2
*D5
 70
1
 10
0
 20
0
 30
0
  0
LINE
  8
1
 62
2
 10
-79.6487817895642
 20
0
 30
0
 11
-57.6487817895642
 21
0
 31
0
  0
LINE
  8
1
 62
2
 10
-57.6487817895642
 20
-31.94526934378
 30
0
 11
-57.6487817895642
 21
1.5
 31
0
  0
LINE
  8
1
 62
2
 10
-79.6487817895642
 20
-27.44526934378
 30
0
 11
-79.6487817895642
 21
1.5
 31
0
  0
SOLID
  8
1
 62
2
 10
-79.6487817895642
 20
0
 30
0
 11
-76.44878178956419
 21
0.4160000000000001
 31
0
 12
-76.44878178956419
 22
-0.4160000000000001
 32
0
 13
-76.44878178956419
 23
-0.4160000000000001
 33
0
  0
SOLID
  8
1
 62
2
 10
-57.6487817895642
 20
0
 30
0
 11
-60.8487817895642
 21
-0.4159999999999994
 31
0
 12
-60.8487817895642
 22
0.4160000000000002
 32
0
 13
-60.8487817895642
 23
0.4160000000000002
 33
0
  0
TEXT
  8
1
 62
2
 10
-74.544
 20
2.8
 30
0
 40
3.2
  1
22
 41
0.9
  0
TEXT
  8
1
 62
2
 10
-68.14400000000001
 20
4.880000000000001
 30
0
 40
1.92
  1
 0
 41
0.9
  0
TEXT
  8
1
 62
2
 10
-68.14400000000001
 20
2
 30
0
 40
1.92
  1
-1
 41
0.9
  0
ENDBLK
  8
0
  0
BLOCK
  8
1
  2
*D6
 70
1
 10
0
 20
0
 30
0
  0
LINE
  8
1
 62
2
 10
-89.6487817895642
 20
0
 30
0
 11
-79.6487817895642
 21
0
 31
0
  0
LINE
  8
1
 62
2
 10
-79.6487817895642
 20
-27.44526934378
 30
0
 11
-79.6487817895642
 21
1.5
 31
0
  0
LINE
  8
1
 62
2
 10
-89.6487817895642
 20
-27.24526934378
 30
0
 11
-89.6487817895642
 21
1.5
 31
0
  0
SOLID
  8
1
 62
2
 10
-89.6487817895642
 20
0
 30
0
 11
-86.44878178956419
 21
0.4160000000000001
 31
0
 12
-86.44878178956419
 22
-0.4160000000000001
 32
0
 13
-86.44878178956419
 23
-0.4160000000000001
 33
0
  0
SOLID
  8
1
 62
2
 10
-79.6487817895642
 20
0
 30
0
 11
-82.8487817895642
 21
-0.4159999999999994
 31
0
 12
-82.8487817895642
 22
0.4160000000000002
 32
0
 13
-82.8487817895642
 23
0.4160000000000002
 33
0
  0
TEXT
  8
1
 62
2
 10
-90.08235294117647
 20
2
 30
0
 40
3.2
  1
10
 41
0.9
  0
TEXT
  8
1
 62
2
 10
-84.64235294117647
 20
2
 30
0
 40
3.2
  1
±1
 41
0.9
  0
ENDBLK
  8
0
  0
BLOCK
  8
1
  2
*D7
 70
1
 10
0
 20
0
 30
0
  0
LINE
  8
1
 62
2
 10
-99.6487817895642
 20
0
 30
0
 11
-113.6267787352465
 21
0
 31
0
  0
LINE
  8
1
 62
2
 10
-99.6487817895642
 20
0
 30
0
 11
-89.6487817895642
 21
0
 31
0
  0
LINE
  8
1
 62
2
 10
-89.6487817895642
 20
-27.24526934378
 30
0
 11
-89.6487817895642
 21
1.5
 31
0
  0
LINE
  8
1
 62
2
 10
-99.6487817895642
 20
-31.09526934378
 30
0
 11
-99.6487817895642
 21
1.5
 31
0
  0
SOLID
  8
1
 62
2
 10
-99.6487817895642
 20
0
 30
0
 11
-96.44878178956419
 21
0.4160000000000001
 31
0
 12
-96.44878178956419
 22
-0.4160000000000001
 32
0
 13
-96.44878178956419
 23
-0.4160000000000001
 33
0
  0
SOLID
  8
1
 62
2
 10
-89.6487817895642
 20
0
 30
0
 11
-92.8487817895642
 21
-0.4159999999999994
 31
0
 12
-92.8487817895642
 22
0.4160000000000002
 32
0
 13
-92.8487817895642
 23
0.4160000000000002
 33
0
  0
TEXT
  8
1
 62
2
 10
-113.6267787352465
 20
1.41516773445859
 30
0
 40
3.2
  1
10
 41
0.9
  0
TEXT
  8
1
 62
2
 10
-108.1867787352465
 20
1.41516773445859
 30
0
 40
3.2
  1
±1
 41
0.9
  0
ENDBLK
  8
0
  0
BLOCK
  8
1
  2
*D8
 70
1
 10
0
 20
0
 30
0
  0
LINE
  8
1
 62
2
 10
-159.0501408353131
 20
-32.44526934378
 30
0
 11
-159.0501408353131
 21
-26.04526934378
 31
0
  0
LINE
  8
1
 62
2
 10
-159.0501408353131
 20
-36.04526934377999
 30
0
 11
-159.0501408353131
 21
-42.44526934377999
 31
0
  0
LINE
  8
1
 62
2
 10
-159.0501408353131
 20
-36.04526934377999
 30
0
 11
-159.0501408353131
 21
-32.44526934378
 31
0
  0
LINE
  8
1
 62
2
 10
-133.85
 20
-32.44526934378
 30
0
 11
-160.5501408353131
 21
-32.44526934378
 31
0
  0
LINE
  8
1
 62
2
 10
-138.255
 20
-36.04526934377999
 30
0
 11
-160.5501408353131
 21
-36.04526934377999
 31
0
  0
SOLID
  8
1
 62
2
 10
-159.0501408353131
 20
-36.04526934377999
 30
0
 11
-158.6341408353131
 21
-39.24526934378
 31
0
 12
-159.4661408353131
 22
-39.24526934378
 32
0
 13
-159.4661408353131
 23
-39.24526934378
 33
0
  0
SOLID
  8
1
 62
2
 10
-159.0501408353131
 20
-32.44526934378
 30
0
 11
-159.4661408353131
 21
-29.24526934378
 31
0
 12
-158.6341408353131
 22
-29.24526934378
 32
0
 13
-158.6341408353131
 23
-29.24526934378
 33
0
  0
TEXT
  8
1
 62
2
 10
-161.0501408353131
 20
-38
 30
0
 40
3.2
  1
3.6
 50
90
 41
0.9
  0
ENDBLK
  8
0
  0
BLOCK
  8
1
  2
*D9
 70
1
 10
0
 20
0
 30
0
  0
LINE
  8
1
 62
2
 10
-149.0501408353131
 20
-36.04526934377999
 30
0
 11
-149.0501408353131
 21
-42.52
 31
0
  0
LINE
  8
1
 62
2
 10
-149.0501408353131
 20
-36.04526934377999
 30
0
 11
-149.0501408353131
 21
-34.24526934378
 31
0
  0
LINE
  8
1
 62
2
 10
-149.0501408353131
 20
-27.84526934378
 30
0
 11
-149.0501408353131
 21
-34.24526934378
 31
0
  0
LINE
  8
1
 62
2
 10
-143.8
 20
-34.24526934378
 30
0
 11
-150.5501408353131
 21
-34.24526934378
 31
0
  0
LINE
  8
1
 62
2
 10
-138.255
 20
-36.04526934377999
 30
0
 11
-150.5501408353131
 21
-36.04526934377999
 31
0
  0
SOLID
  8
1
 62
2
 10
-149.0501408353131
 20
-34.24526934378
 30
0
 11
-149.4661408353131
 21
-31.04526934378
 31
0
 12
-148.6341408353131
 22
-31.04526934378
 32
0
 13
-148.6341408353131
 23
-31.04526934378
 33
0
  0
SOLID
  8
1
 62
2
 10
-149.0501408353131
 20
-36.04526934377999
 30
0
 11
-148.6341408353131
 21
-39.24526934378
 31
0
 12
-149.4661408353131
 22
-39.24526934378
 32
0
 13
-149.4661408353131
 23
-39.24526934378
 33
0
  0
TEXT
  8
1
 62
2
 10
-151.0501408353131
 20
-42.52
 30
0
 40
3.2
  1
1.8
 50
90
 41
0.9
  0
ENDBLK
  8
0
  0
BLOCK
  8
1
  2
*D10
 70
1
 10
0
 20
0
 30
0
  0
LINE
  8
1
 62
2
 10
-133.2
 20
-10.0352074036488
 30
0
 11
-126.8
 21
-10.0352074036488
 31
0
  0
LINE
  8
1
 62
2
 10
-136.8
 20
-10.0352074036488
 30
0
 11
-143.2
 21
-10.0352074036488
 31
0
  0
LINE
  8
1
 62
2
 10
-136.8
 20
-10.0352074036488
 30
0
 11
-133.2
 21
-10.0352074036488
 31
0
  0
LINE
  8
1
 62
2
 10
-133.2
 20
-30.99026934377999
 30
0
 11
-133.2
 21
-8.5352074036488
 31
0
  0
LINE
  8
1
 62
2
 10
-136.8
 20
-34.59026934378
 30
0
 11
-136.8
 21
-8.5352074036488
 31
0
  0
SOLID
  8
1
 62
2
 10
-133.2
 20
-10.0352074036488
 30
0
 11
-130
 21
-9.619207403648799
 31
0
 12
-130
 22
-10.4512074036488
 32
0
 13
-130
 23
-10.4512074036488
 33
0
  0
SOLID
  8
1
 62
2
 10
-136.8
 20
-10.0352074036488
 30
0
 11
-140
 21
-10.4512074036488
 31
0
 12
-140
 22
-9.619207403648799
 32
0
 13
-140
 23
-9.619207403648799
 33
0
  0
TEXT
  8
1
 62
2
 10
-138.8808283188101
 20
-8.0352074036488
 30
0
 40
3.2
  1
3.6
 41
0.9
  0
ENDBLK
  8
0
  0
BLOCK
  8
1
  2
*D11
 70
1
 10
0
 20
0
 30
0
  0
LINE
  8
1
 62
2
 10
-133.2
 20
-20.0848554500759
 30
0
 11
-124.9698600470361
 21
-20.0848554500759
 31
0
  0
LINE
  8
1
 62
2
 10
-135
 20
-20.0848554500759
 30
0
 11
-133.2
 21
-20.0848554500759
 31
0
  0
LINE
  8
1
 62
2
 10
-141.4
 20
-20.0848554500759
 30
0
 11
-135
 21
-20.0848554500759
 31
0
  0
LINE
  8
1
 62
2
 10
-133.2
 20
-30.99026934377999
 30
0
 11
-133.2
 21
-18.5848554500759
 31
0
  0
LINE
  8
1
 62
2
 10
-135
 20
-25.44526934378001
 30
0
 11
-135
 21
-18.5848554500759
 31
0
  0
SOLID
  8
1
 62
2
 10
-133.2
 20
-20.0848554500759
 30
0
 11
-130
 21
-19.6688554500759
 31
0
 12
-130
 22
-20.5008554500759
 32
0
 13
-130
 23
-20.5008554500759
 33
0
  0
SOLID
  8
1
 62
2
 10
-135
 20
-20.0848554500759
 30
0
 11
-138.2
 21
-20.5008554500759
 31
0
 12
-138.2
 22
-19.6688554500759
 32
0
 13
-138.2
 23
-19.6688554500759
 33
0
  0
TEXT
  8
1
 62
2
 10
-130.0098600470361
 20
-18.0848554500759
 30
0
 40
3.2
  1
1.8
 41
0.9
  0
ENDBLK
  8
0
  0
ENDSEC
  0
SECTION
  2
ENTITIES
  0
INSERT
  8
1
  2
*X0
 10
0
 20
0
 30
0
  0
INSERT
  8
1
  2
*X1
 10
0
 20
0
 30
0
  0
INSERT
  8
1
  2
*X2
 10
0
 20
0
 30
0
  0
INSERT
  8
1
  2
*X3
 10
0
 20
0
 30
0
  0
INSERT
  8
1
  2
*X4
 10
0
 20
0
 30
0
  0
LINE
  8
1
 62
2
 10
-135
 20
-26.44526934378
 30
0
 11
-135
 21
-42.04526934378
 31
0
  0
LINE
  8
1
 62
2
 10
-127.2
 20
-34.24526934378
 30
0
 11
-142.8
 21
-34.24526934378
 31
0
  0
LINE
  8
1
 62
2
 10
-136.8
 20
-35.59026934378
 30
0
 11
-136.8
 21
-36.50026934377998
 31
0
  0
LINE
  8
1
 62
2
 10
-136.345
 20
-36.04526934377999
 30
0
 11
-137.255
 21
-36.04526934377999
 31
0
  0
LINE
  8
1
 62
2
 10
-133.2
 20
-35.59026934377998
 30
0
 11
-133.2
 21
-36.50026934378001
 31
0
  0
LINE
  8
1
 62
2
 10
-132.745
 20
-36.04526934377999
 30
0
 11
-133.655
 21
-36.04526934377999
 31
0
  0
LINE
  8
1
 62
2
 10
-133.2
 20
-31.99026934377999
 30
0
 11
-133.2
 21
-32.90026934378001
 31
0
  0
LINE
  8
1
 62
2
 10
-132.745
 20
-32.44526934378
 30
0
 11
-133.655
 21
-32.44526934378
 31
0
  0
LINE
  8
1
 62
2
 10
-21.16562545684761
 20
-34.24526934378
 30
0
 11
-6.560088945069911
 21
-34.24526934378
 31
0
  0
LINE
  8
1
 62
2
 10
-13.7630683123147
 20
-27.1391047811396
 30
0
 11
-13.7630683123147
 21
-41.3118846555313
 31
0
  0
LINE
  8
1
 62
2
 10
-111.7366335726995
 20
-48.72519098922611
 30
0
 11
-108.9618343175022
 21
-48.72519098922611
 31
0
  0
LINE
  8
1
 62
2
 10
-141.2102605966131
 20
-48.97633779763423
 30
0
 11
-138.2297571678885
 21
-38.21847971384589
 31
0
  0
LINE
  8
1
 62
2
 10
-151.1053126906881
 20
-48.97633779763423
 30
0
 11
-141.2102605966131
 21
-48.97633779763423
 31
0
  0
LINE
  8
1
 62
2
 10
-97.58526141009918
 20
-48.72519098922611
 30
0
 11
-93.40520263065319
 21
-36.39526934377999
 31
0
  0
LINE
  8
1
 62
2
 10
-108.9618343175022
 20
-48.72519098922611
 30
0
 11
-97.58526141009918
 21
-48.72519098922611
 31
0
  0
LINE
  8
1
 62
2
 10
-71.5646930018052
 20
-48.72519098922611
 30
0
 11
-74.94956082645919
 21
-37.24526934378
 31
0
  0
LINE
  8
1
 62
2
 10
-50.89539373211079
 20
-48.72519098922611
 30
0
 11
-71.5646930018052
 21
-48.72519098922611
 31
0
  0
LINE
  8
1
 62
2
 10
-43.81318787615079
 20
-52.6966917583799
 30
0
 11
-57.6528625001272
 21
-34.24526934378
 31
0
  0
LINE
  8
1
 62
2
 10
-26.70103092913878
 20
-52.6966917583799
 30
0
 11
-43.81318787615079
 21
-52.6966917583799
 31
0
  0
LINE
  8
1
 62
2
 10
-67.86094957651829
 20
-56.1242572193531
 30
0
 11
-79.6487817895642
 21
-56.1242572193531
 31
0
  0
LINE
  8
1
 62
2
 10
-89.6487817895642
 20
-28.24526934378
 30
0
 11
-89.6487817895642
 21
-40.24526934378
 31
0
  0
LINE
  8
1
 62
2
 10
-89.6487817895642
 20
-40.24526934378
 30
0
 11
-79.84878178956419
 21
-40.24526934378
 31
0
  0
LINE
  8
1
 62
2
 10
-79.6487817895642
 20
-40.04526934377999
 30
0
 11
-79.6487817895642
 21
-28.44526934378
 31
0
  0
LINE
  8
1
 62
2
 10
-79.84878178956419
 20
-28.24526934378
 30
0
 11
-89.6487817895642
 21
-28.24526934378
 31
0
  0
LINE
  8
1
 62
2
 10
-57.6487817895642
 20
-32.94526934378
 30
0
 11
-57.6487817895642
 21
-33.84526934377999
 31
0
  0
LINE
  8
1
 62
2
 10
-57.8487817895642
 20
-35.74526934378
 30
0
 11
-71.6487817895642
 21
-35.74526934378
 31
0
  0
LINE
  8
1
 62
2
 10
-72.6487817895642
 20
-35.74526934378
 30
0
 11
-72.6487817895642
 21
-32.74526934378
 31
0
  0
LINE
  8
1
 62
2
 10
-79.6487817895642
 20
-30.67526934378001
 30
0
 11
-78.1487817895642
 21
-30.67526934378001
 31
0
  0
LINE
  8
1
 62
2
 10
-78.1487817895642
 20
-30.67526934378001
 30
0
 11
-78.1487817895642
 21
-37.81526934377999
 31
0
  0
LINE
  8
1
 62
2
 10
-78.1487817895642
 20
-37.81526934377999
 30
0
 11
-79.6487817895642
 21
-37.81526934377999
 31
0
  0
LINE
  8
1
 62
2
 10
-78.1487817895642
 20
-31.69526934378
 30
0
 11
-77.1487817895642
 21
-31.69526934378
 31
0
  0
LINE
  8
1
 62
2
 10
-78.1487817895642
 20
-36.79526934377999
 30
0
 11
-77.1487817895642
 21
-36.79526934377999
 31
0
  0
LINE
  8
1
 62
2
 10
-77.1487817895642
 20
-31.24526934378
 30
0
 11
-73.1487817895642
 21
-31.24526934378
 31
0
  0
LINE
  8
1
 62
2
 10
-77.1487817895642
 20
-37.24526934378
 30
0
 11
-73.1487817895642
 21
-37.24526934378
 31
0
  0
LINE
  8
1
 62
2
 10
-77.1487817895642
 20
-31.24526934378
 30
0
 11
-77.1487817895642
 21
-37.24526934378
 31
0
  0
LINE
  8
1
 62
2
 10
-72.6487817895642
 20
-31.74526934378
 30
0
 11
-72.6487817895642
 21
-36.74526934378
 31
0
  0
LINE
  8
1
 62
2
 10
-72.6487817895642
 20
-31.74526934378
 30
0
 11
-73.1487817895642
 21
-31.24526934378
 31
0
  0
LINE
  8
1
 62
2
 10
-72.6487817895642
 20
-36.74526934378
 30
0
 11
-73.1487817895642
 21
-37.24526934378
 31
0
  0
LINE
  8
1
 62
2
 10
-57.6487817895642
 20
-32.94526934378
 30
0
 11
-57.8487817895642
 21
-32.74526934378
 31
0
  0
LINE
  8
1
 62
2
 10
-57.8487817895642
 20
-35.74526934378
 30
0
 11
-57.6487817895642
 21
-35.54526934377999
 31
0
  0
LINE
  8
1
 62
2
 10
-98.4021628373272
 20
-34.24526934378
 30
0
 11
-52.57021082008049
 21
-34.24526934378
 31
0
  0
LINE
  8
1
 62
2
 10
-89.6487817895642
 20
-32.09526934378
 30
0
 11
-99.6487817895642
 21
-32.09526934378
 31
0
  0
LINE
  8
1
 62
2
 10
-99.6487817895642
 20
-32.79526934377999
 30
0
 11
-89.6487817895642
 21
-32.79526934377999
 31
0
  0
LINE
  8
1
 62
2
 10
-99.6487817895642
 20
-35.69526934378
 30
0
 11
-89.6487817895642
 21
-35.69526934378
 31
0
  0
LINE
  8
1
 62
2
 10
-99.6487817895642
 20
-36.39526934377999
 30
0
 11
-89.6487817895642
 21
-36.39526934377999
 31
0
  0
LINE
  8
1
 62
2
 10
-99.6487817895642
 20
-32.09526934378
 30
0
 11
-99.6487817895642
 21
-32.79526934377999
 31
0
  0
LINE
  8
1
 62
2
 10
-99.6487817895642
 20
-35.69526934378
 30
0
 11
-99.6487817895642
 21
-36.39526934377999
 31
0
  0
LINE
  8
1
 62
2
 10
-12.45244615525256
 20
-36.11703176498034
 30
0
 11
-12.90270365778813
 21
-35.47399741021349
 31
0
  0
LINE
  8
1
 62
2
 10
-12.29429862418095
 20
-32.49485779125313
 30
0
 11
-12.79888689778489
 21
-33.09620267910152
 31
0
  0
LINE
  8
1
 62
2
 10
-71.6487817895642
 20
-32.74526934378
 30
0
 11
-57.8487817895642
 21
-32.74526934378
 31
0
  0
LINE
  8
1
 62
2
 10
-72.6487817895642
 20
-31.96026934378
 30
0
 11
-72.24878178956419
 21
-31.96026934378
 31
0
  0
LINE
  8
1
 62
2
 10
-72.6487817895642
 20
-36.53026934377999
 30
0
 11
-72.24878178956419
 21
-36.53026934377999
 31
0
  0
LINE
  8
1
 62
2
 10
-72.24878178956419
 20
-31.96026934378
 30
0
 11
-72.24878178956419
 21
-36.53026934377999
 31
0
  0
LINE
  8
1
 62
2
 10
-71.6487817895642
 20
-32.74526934378
 30
0
 11
-72.24878178956419
 21
-32.74526934378
 31
0
  0
LINE
  8
1
 62
2
 10
-71.6487817895642
 20
-35.74526934378
 30
0
 11
-72.24878178956419
 21
-35.74526934378
 31
0
  0
LINE
  8
1
 62
2
 10
-58.6487817895642
 20
-33.84526934377999
 30
0
 11
-57.6487817895642
 21
-33.84526934377999
 31
0
  0
LINE
  8
1
 62
2
 10
-58.6487817895642
 20
-34.64526934378
 30
0
 11
-57.6487817895642
 21
-34.64526934378
 31
0
  0
LINE
  8
1
 62
2
 10
-58.6487817895642
 20
-33.84526934377999
 30
0
 11
-58.6487817895642
 21
-34.64526934378
 31
0
  0
LINE
  8
1
 62
2
 10
-57.6487817895642
 20
-34.64526934378
 30
0
 11
-57.6487817895642
 21
-35.54526934377999
 31
0
  0
LINE
  8
1
 62
2
 10
-57.8487817895642
 20
-32.74526934378
 30
0
 11
-57.8487817895642
 21
-33.84526934377999
 31
0
  0
LINE
  8
1
 62
2
 10
-57.8487817895642
 20
-34.64526934378
 30
0
 11
-57.8487817895642
 21
-35.74526934378
 31
0
  0
LINE
  8
1
 62
2
 10
-72.6487817895642
 20
-31.74526934378
 30
0
 11
-77.1487817895642
 21
-31.74526934378
 31
0
  0
LINE
  8
1
 62
2
 10
-72.6487817895642
 20
-36.74526934378
 30
0
 11
-77.1487817895642
 21
-36.74526934378
 31
0
  0
LINE
  8
1
 62
2
 10
-15.20875154179479
 20
-33.84526934377999
 30
0
 11
-12.3173850828346
 21
-33.84526934377999
 31
0
  0
LINE
  8
1
 62
2
 10
-15.20875154179479
 20
-34.64526934378
 30
0
 11
-12.3173850828346
 21
-34.64526934378
 31
0
  0
LINE
  8
1
 62
2
 10
-79.6487817895642
 20
-40.6885166059992
 30
0
 11
-79.6487817895642
 21
-57.0374513473661
 31
0
  0
LINE
  8
1
 62
2
 10
-79.84878178956419
 20
-28.24526934378
 30
0
 11
-79.6487817895642
 21
-28.44526934378
 31
0
  0
LINE
  8
1
 62
2
 10
-79.6487817895642
 20
-40.04526934377999
 30
0
 11
-79.84878178956419
 21
-40.24526934378
 31
0
  0
LINE
  8
1
 62
2
 10
-79.84878178956419
 20
-28.24526934378
 30
0
 11
-79.84878178956419
 21
-40.24526934378
 31
0
  0
ARC
  8
1
 62
2
 10
-13.7630683123147
 20
-34.24526934378
 30
0
 40
2.28500000000001
 50
49.99999999999992
 51
305.0000000000002
  0
ARC
  8
1
 62
2
 10
-13.7630683123147
 20
-34.24526934378
 30
0
 40
1.300000000000001
 50
197.9202131393922
 51
342.0797868606077
  0
ARC
  8
1
 62
2
 10
-13.7630683123147
 20
-34.24526934378
 30
0
 40
1.300000000000007
 50
17.92021313939279
 51
162.0797868606072
  0
CIRCLE
  8
1
 62
2
 10
-138.0523814418095
 20
-37.26772338658037
 30
0
 40
1.03405982449209
  0
CIRCLE
  8
1
 62
2
 10
-132.2347231432215
 20
-37.48053009679718
 30
0
 40
1.03405982449209
  0
CIRCLE
  8
1
 62
2
 10
-132.0137036815736
 20
-31.39062248273445
 30
0
 40
1.034059824492175
  0
CIRCLE
  8
1
 62
2
 10
-136.8
 20
-36.04526934377999
 30
0
 40
0.3500000000000227
  0
CIRCLE
  8
1
 62
2
 10
-133.2
 20
-36.04526934377999
 30
0
 40
0.3499999999999943
  0
CIRCLE
  8
1
 62
2
 10
-133.2
 20
-32.44526934378
 30
0
 40
0.3499999999999943
  0
CIRCLE
  8
1
 62
2
 10
-135
 20
-34.24526934378
 30
0
 40
5.5
  0
CIRCLE
  8
1
 62
2
 10
-135
 20
-34.24526934378
 30
0
 40
6
  0
CIRCLE
  8
1
 62
2
 10
-13.7630683123147
 20
-34.24526934378
 30
0
 40
3
  0
CIRCLE
  8
1
 62
2
 10
-13.7630683123147
 20
-34.24526934378
 30
0
 40
6
  0
CIRCLE
  8
1
 62
2
 10
-13.7630683123147
 20
-34.24526934378
 30
0
 40
1.5
  0
CIRCLE
  8
1
 62
2
 10
-13.7630683123147
 20
-34.24526934378
 30
0
 40
3.569999999999991
  0
CIRCLE
  8
1
 62
2
 10
-13.7630683123147
 20
-34.24526934378
 30
0
 40
2.5
  0
TEXT
  8
1
 62
2
 10
-88.3414359700745
 20
-78.5820153571656
 30
0
 40
4
  1
VP12
 41
0.9
  0
TEXT
  8
1
 62
2
 10
-132.4133231719773
 20
-32.19094963209656
 30
0
 40
1.5
  1
1
 41
0.8910000000000001
  0
TEXT
  8
1
 62
2
 10
-138.5066621832163
 20
-38.00481313018435
 30
0
 40
1.5
  1
2
 41
0.8910000000000001
  0
TEXT
  8
1
 62
2
 10
-132.6558189755778
 20
-38.25848670627886
 30
0
 40
1.5
  1
3
 41
0.8910000000000001
  0
TEXT
  8
1
 62
2
 10
-150.0148146513803
 20
-48.4718221175105
 30
0
 40
2
  1
端子番号
 41
0.891
  0
TEXT
  8
1
 62
2
 10
-111.4828590206937
 20
-47.81641752539291
 30
0
 40
2
  1
φ０．７ピン
 41
0.891
  0
TEXT
  8
1
 62
2
 10
-69.96167278291517
 20
-48.00500634568211
 30
0
 40
2
  1
Ｍ６×0.75-2
 41
0.891
  0
TEXT
  8
1
 62
2
 10
-76.4743579132972
 20
-55.5411292533571
 30
0
 40
2
  1
取付面
 41
0.891
  0
TEXT
  8
1
 62
2
 10
-43.080783836018
 20
-52.2884182925433
 30
0
 40
2
  1
幅0.8深サ1溝
 41
0.891
  0
DIMENSION
  8
1
  6
CONTINUOUS
 62
2
  2
*D0
  3
DMST_1
 10
-110
 20
-40.24526934378
 30
0
 11
-114.0266666666667
 21
-35
 31
0
 12
0
 22
0
 32
0
 70
1
  1
φ<>
 13
-89.6487817895642
 23
-28.24526934378
 33
0
 14
-89.6487817895642
 24
-40.24526934378
 34
0
 53
0
  0
DIMENSION
  8
1
  6
CONTINUOUS
 62
2
  2
*D1
  3
DMST_2
 10
-29.95287445973
 20
-30.67526934378
 30
0
 11
-34.37954112639667
 21
-17.9152193049741
 31
0
 12
0
 22
0
 32
0
 70
1
  1
φ<>
 13
-78.1487817895642
 23
-37.81526934377999
 33
0
 14
-78.1487817895642
 24
-30.67526934378001
 34
0
 53
0
  0
DIMENSION
  8
1
  6
CONTINUOUS
 62
2
  2
*D2
  3
DMST_3
 10
-40.0558374642333
 20
-32.74526934378
 30
0
 11
-44.48250413089997
 21
-16.9824264974006
 31
0
 12
0
 22
0
 32
0
 70
1
  1
φ<>
 13
-57.8487817895642
 23
-35.74526934378
 33
0
 14
-57.8487817895642
 24
-32.74526934378
 34
0
 53
0
  0
DIMENSION
  8
1
  6
CONTINUOUS
 62
2
  2
*D3
  3
DMST_1
 10
-72.6487817895642
 20
-10
 30
0
 11
-75
 21
-6.4
 31
0
 12
0
 22
0
 32
0
 70
0
 13
-79.6487817895642
 23
-28.44526934378
 33
0
 14
-72.6487817895642
 24
-31.74526934378
 34
0
 53
0
  0
DIMENSION
  8
1
  6
CONTINUOUS
 62
2
  2
*D4
  3
DMST_4
 10
-79.6487817895642
 20
-20
 30
0
 11
-110
 21
-16.4
 31
0
 12
0
 22
0
 32
0
 70
0
 13
-78.1487817895642
 23
-30.67526934378001
 33
0
 14
-79.6487817895642
 24
-28.44526934378
 34
0
 53
0
  0
DIMENSION
  8
1
  6
CONTINUOUS
 62
2
  2
*D5
  3
DMST_5
 10
-79.6487817895642
 20
0
 30
0
 11
-70
 21
4.4
 31
0
 12
0
 22
0
 32
0
 70
0
 13
-57.6487817895642
 23
-32.94526934378
 33
0
 14
-79.6487817895642
 24
-28.44526934378
 34
0
 53
0
  0
DIMENSION
  8
1
  6
CONTINUOUS
 62
2
  2
*D6
  3
DMST_6
 10
-89.6487817895642
 20
0
 30
0
 11
-85
 21
3.6
 31
0
 12
0
 22
0
 32
0
 70
0
 13
-79.6487817895642
 23
-28.44526934378
 33
0
 14
-89.6487817895642
 24
-28.24526934378
 34
0
 53
0
  0
DIMENSION
  8
1
  6
CONTINUOUS
 62
2
  2
*D7
  3
DMST_6
 10
-99.6487817895642
 20
0
 30
0
 11
-108.54442579407
 21
3.01516773445859
 31
0
 12
0
 22
0
 32
0
 70
0
 13
-89.6487817895642
 23
-28.24526934378
 33
0
 14
-99.6487817895642
 24
-32.09526934378
 34
0
 53
0
  0
DIMENSION
  8
1
  6
CONTINUOUS
 62
2
  2
*D8
  3
DMST_1
 10
-159.0501408353131
 20
-36.04526934377999
 30
0
 11
-162.6501408353131
 21
-35
 31
0
 12
0
 22
0
 32
0
 70
0
 13
-132.85
 23
-32.44526934378
 33
0
 14
-137.255
 24
-36.04526934377999
 34
0
 50
90
 53
0
  0
DIMENSION
  8
1
  6
CONTINUOUS
 62
2
  2
*D9
  3
DMST_1
 10
-149.0501408353131
 20
-36.04526934377999
 30
0
 11
-152.6501408353131
 21
-40
 31
0
 12
0
 22
0
 32
0
 70
0
 13
-142.8
 23
-34.24526934378
 33
0
 14
-137.255
 24
-36.04526934377999
 34
0
 50
90
 53
0
  0
DIMENSION
  8
1
  6
CONTINUOUS
 62
2
  2
*D10
  3
DMST_1
 10
-136.8
 20
-10.0352074036488
 30
0
 11
-135.8808283188101
 21
-6.4352074036488
 31
0
 12
0
 22
0
 32
0
 70
0
 13
-133.2
 23
-31.99026934377999
 33
0
 14
-136.8
 24
-35.59026934378
 34
0
 53
0
  0
DIMENSION
  8
1
  6
CONTINUOUS
 62
2
  2
*D11
  3
DMST_1
 10
-133.2
 20
-20.0848554500759
 30
0
 11
-127.4898600470361
 21
-16.4848554500759
 31
0
 12
0
 22
0
 32
0
 70
0
 13
-135
 23
-26.44526934378
 33
0
 14
-133.2
 24
-31.99026934377999
 34
0
 53
0
  0
ENDSEC
  0
EOF
