  0
SECTION
  2
HEADER
  9
$ACADVER
  1
AC1009
  9
$INSBASE
 10
0
 20
0
  9
$EXTMIN
 10
-28.86671481638808
 20
-133.9299944660486
  9
$EXTMAX
 10
226.75
 20
77.4096096489226
  9
$LIMMIN
 10
-28.86671481638808
 20
-133.9299944660486
  9
$LIMMAX
 10
226.75
 20
77.4096096489226
  9
$VIEWCTR
 10
10
 20
10
  9
$VIEWSIZE
 40
10
  9
$SNAPMODE
 70
0
  9
$SNAPUNIT
 10
1
 20
1
  9
$SNAPBASE
 10
0
 20
0
  9
$SNAPANG
 50
0
  9
$SNAPSTYLE
 70
0
  9
$SNAPISOPAIR
 70
0
  9
$GRIDMODE
 70
0
  9
$GRIDUNIT
 10
0
 20
0
  9
$ORTHOMODE
 70
0
  9
$REGENMODE
 70
1
  9
$FILLMODE
 70
1
  9
$QTEXTMODE
 70
0
  9
$DRAGMODE
 70
2
  9
$LTSCALE
 40
1
  9
$OSMODE
 70
0
  9
$ATTMODE
 70
1
  9
$TEXTSIZE
 40
3.5
  9
$TRACEWID
 40
0.5
  9
$TEXTSTYLE
  7
STANDARD
  9
$CLAYER
  8
0
  9
$CELTYPE
  6
BYLAYER
  9
$CECOLOR
 62
256
  9
$DIMSCALE
 40
1
  9
$DIMASZ
 40
0.18
  9
$DIMEXO
 40
0.0625
  9
$DIMDLI
 40
0.38
  9
$DIMRND
 40
0
  9
$DIMDLE
 40
0
  9
$DIMEXE
 40
0.18
  9
$DIMTP
 40
0
  9
$DIMTM
 40
0
  9
$DIMTXT
 40
0.18
  9
$DIMCEN
 40
0.09
  9
$DIMTSZ
 40
0
  9
$DIMTOL
 70
0
  9
$DIMLIM
 70
0
  9
$DIMTIH
 70
1
  9
$DIMTOH
 70
1
  9
$DIMSE1
 70
0
  9
$DIMSE2
 70
0
  9
$DIMTAD
 70
0
  9
$DIMZIN
 70
0
  9
$DIMBLK
  1

  9
$DIMASO
 70
1
  9
$DIMSHO
 70
1
  9
$DIMPOST
  1

  9
$DIMAPOST
  1

  9
$DIMALT
 70
0
  9
$DIMALTD
 70
2
  9
$DIMALTF
 40
25.4
  9
$DIMLFAC
 40
1
  9
$DIMTOFL
 70
0
  9
$DIMTVP
 40
0
  9
$DIMTIX
 70
0
  9
$DIMSOXD
 70
0
  9
$DIMSAH
 70
0
  9
$DIMBLK1
  1

  9
$DIMBLK2
  1

  9
$DIMSTYLE
  2
*UNNAMED
  9
$DIMCLRD
 70
0
  9
$DIMCLRE
 70
0
  9
$DIMCLRT
 70
0
  9
$DIMTFAC
 40
1
  9
$DIMGAP
 40
0.09
  9
$LUNITS
 70
2
  9
$LUPREC
 70
4
  9
$AXISMODE
 70
0
  9
$AXISUNIT
 10
0
 20
0
  9
$SKETCHINC
 40
0.1
  9
$FILLETRAD
 40
2
  9
$AUNITS
 70
0
  9
$AUPREC
 70
0
  9
$MENU
  1
ACAD
  9
$ELEVATION
 40
0
  9
$THICKNESS
 40
0
  9
$VIEWDIR
 10
0
 20
0
 30
1
  9
$LIMCHECK
 70
0
  9
$BLIPMODE
 70
1
  9
$CHAMFERA
 40
0
  9
$CHAMFERB
 40
0
  9
$FASTZOOM
 70
1
  9
$SKPOLY
 70
0
  9
$ANGBASE
 50
0
  9
$ANGDIR
 70
0
  9
$PDMODE
 70
0
  9
$PDSIZE
 40
0
  9
$PLINEWID
 40
0
  9
$COORDS
 70
2
  0
ENDSEC
  0
SECTION
  2
TABLES
  0
TABLE
  2
DIMSTYLE
 70
11
  0
DIMSTYLE
  2
DMST_1
 70
0
  3

  4

  5

  6

  7

 40
1
 41
3.2
 42
1
 43
7
 44
1
 45
0
 46
0
 47
40
 48
0
140
3.2
141
0
142
0
143
25.4
144
1
145
0
146
0.6
147
0.09
 71
1
 72
0
 73
0
 74
0
 75
0
 76
0
 77
1
 78
9
170
0
171
2
172
0
173
0
174
0
175
0
176
2
177
2
178
2
  0
DIMSTYLE
  2
DMST_2
 70
0
  3
ü}1
  4

  5

  6

  7

 40
1
 41
3.2
 42
1
 43
7
 44
1
 45
0
 46
0
 47
0
 48
0
140
3.2
141
0
142
0
143
25.4
144
1
145
0
146
1
147
0.09
 71
0
 72
0
 73
0
 74
0
 75
0
 76
0
 77
1
 78
9
170
0
171
2
172
0
173
0
174
0
175
0
176
2
177
2
178
2
  0
DIMSTYLE
  2
DMST_3
 70
0
  3
)
  4

  5

  6

  7

 40
1
 41
3.5
 42
1
 43
7
 44
1
 45
0
 46
0
 47
0
 48
0
140
3.5
141
0
142
0
143
25.4
144
1
145
0
146
1
147
0.09
 71
0
 72
0
 73
0
 74
0
 75
0
 76
0
 77
1
 78
9
170
0
171
2
172
0
173
0
174
0
175
0
176
2
177
2
178
2
  0
DIMSTYLE
  2
DMST_4
 70
0
  3

  4

  5

  6

  7

 40
1
 41
3.5
 42
1
 43
7
 44
1
 45
0
 46
0
 47
0
 48
0
140
3.5
141
0
142
0
143
25.4
144
1
145
0
146
1
147
0.09
 71
0
 72
0
 73
0
 74
0
 75
0
 76
0
 77
1
 78
9
170
0
171
2
172
0
173
0
174
0
175
0
176
2
177
2
178
2
  0
DIMSTYLE
  2
DMST_5
 70
0
  3

  4

  5

  6

  7

 40
1
 41
3.2
 42
1
 43
7
 44
1
 45
0
 46
0
 47
0
 48
0
140
3.2
141
0
142
0
143
25.4
144
1
145
0
146
1
147
0.09
 71
0
 72
0
 73
1
 74
1
 75
0
 76
0
 77
1
 78
9
170
0
171
2
172
0
173
0
174
0
175
0
176
2
177
2
178
2
  0
DIMSTYLE
  2
DMST_6
 70
0
  3

  4

  5

  6

  7

 40
1
 41
3.2
 42
1
 43
7
 44
1
 45
0
 46
0
 47
0
 48
0
140
3.2
141
0
142
0
143
25.4
144
1
145
0
146
1
147
0.09
 71
0
 72
0
 73
0
 74
0
 75
0
 76
0
 77
1
 78
9
170
0
171
2
172
0
173
0
174
0
175
0
176
2
177
2
178
2
  0
DIMSTYLE
  2
DMST_7
 70
0
  3
MAX.
  4

  5

  6

  7

 40
1
 41
3.2
 42
1
 43
7
 44
1
 45
0
 46
0
 47
0
 48
0
140
3.2
141
0
142
0
143
25.4
144
1
145
0
146
1
147
0.09
 71
0
 72
0
 73
0
 74
0
 75
0
 76
0
 77
1
 78
9
170
0
171
2
172
0
173
0
174
0
175
0
176
2
177
2
178
2
  0
DIMSTYLE
  2
DMST_8
 70
0
  3

  4

  5

  6

  7
DOT
 40
1
 41
3.2
 42
1
 43
7
 44
1
 45
0
 46
0
 47
0
 48
0
140
3.2
141
0
142
0
143
25.4
144
1
145
0
146
1
147
0.09
 71
0
 72
0
 73
0
 74
0
 75
0
 76
0
 77
1
 78
9
170
0
171
2
172
0
173
1
174
0
175
0
176
2
177
2
178
2
  0
DIMSTYLE
  2
DMST_9
 70
0
  3

  4

  5

  6

  7

 40
1
 41
3.2
 42
1
 43
7
 44
1
 45
0
 46
0
 47
0
 48
0.03
140
3.2
141
0
142
0
143
25.4
144
1
145
0
146
0.6
147
0.09
 71
1
 72
0
 73
0
 74
0
 75
0
 76
0
 77
1
 78
9
170
0
171
2
172
0
173
0
174
0
175
0
176
2
177
2
178
2
  0
DIMSTYLE
  2
DMST_10
 70
0
  3

  4

  5

  6

  7

 40
1
 41
3.2
 42
1
 43
7
 44
1
 45
0
 46
0
 47
0
 48
0
140
3.2
141
0
142
0
143
25.4
144
1
145
0
146
1
147
0.09
 71
0
 72
0
 73
0
 74
0
 75
0
 76
0
 77
1
 78
9
170
0
171
2
172
0
173
0
174
1
175
0
176
2
177
2
178
2
  0
DIMSTYLE
  2
DMST_11
 70
0
  3
îè
  4

  5

  6

  7

 40
1
 41
3.2
 42
1
 43
7
 44
1
 45
0
 46
0
 47
0
 48
0
140
3.2
141
0
142
0
143
25.4
144
1
145
0
146
1
147
0.09
 71
0
 72
0
 73
1
 74
1
 75
0
 76
0
 77
1
 78
9
170
0
171
2
172
1
173
0
174
0
175
0
176
2
177
2
178
2
  0
ENDTAB
  0
TABLE
  2
LTYPE
 70
9
  0
LTYPE
  2
CONTINUOUS
 70
64
  3
Solid line
 72
65
 73
0
 40
0
  0
LTYPE
  2
BORDER
 70
64
  3
__ __ . __ __ .
 72
65
 73
6
 40
11.77182239285998
 49
3.363377826531422
 49
-1.681688913265711
 49
3.363377826531422
 49
-1.681688913265711
 49
0
 49
-1.681688913265711
  0
LTYPE
  2
CENTER
 70
64
  3
____ _ ____ _
 72
65
 73
4
 40
13.45351130612569
 49
8.408444566328555
 49
-1.681688913265711
 49
1.681688913265711
 49
-1.681688913265711
  0
LTYPE
  2
DASHDOT
 70
64
  3
__ . __ . __ .
 72
65
 73
4
 40
6.726755653062845
 49
3.363377826531422
 49
-1.681688913265711
 49
0
 49
-1.681688913265711
  0
LTYPE
  2
DASHED
 70
64
  3
__ __ __ __ __
 72
65
 73
2
 40
5.045066739797133
 49
3.363377826531422
 49
-1.681688913265711
  0
LTYPE
  2
DIVIDE
 70
64
  3
__ . . __ . . 
 72
65
 73
6
 40
8.408444566328555
 49
3.363377826531422
 49
-1.681688913265711
 49
0
 49
-1.681688913265711
 49
0
 49
-1.681688913265711
  0
LTYPE
  2
DOT
 70
64
  3
..............
 72
65
 73
4
 40
3.363377826531422
 49
0
 49
-1.681688913265711
 49
0
 49
-1.681688913265711
  0
LTYPE
  2
HIDDEN
 70
64
  3
_ _ _ _ _ _ _
 72
65
 73
2
 40
2.522533369898567
 49
1.681688913265711
 49
-0.8408444566328556
  0
LTYPE
  2
PHANTOM
 70
64
  3
_____ _ _ _____ _ _ 
 72
65
 73
6
 40
16.81688913265711
 49
8.408444566328555
 49
-1.681688913265711
 49
1.681688913265711
 49
-1.681688913265711
 49
1.681688913265711
 49
-1.681688913265711
  0
ENDTAB
  0
TABLE
  2
LAYER
 70
3
  0
LAYER
  2
1
 70
0
 62
7
  6
CONTINUOUS
  0
LAYER
  2
0
 70
0
 62
7
  6
CONTINUOUS
  0
ENDTAB
  0
TABLE
  2
STYLE
 70
4
  0
STYLE
  2
STANDARD
 70
0
 40
0
 41
1
 50
0
 71
0
 42
3.5
  3
txt
  4

  0
STYLE
  2
SIMPLEX
 70
0
 40
0
 41
1
 50
0
 71
0
 42
3.5
  3
simplex
  4

  0
STYLE
  2
COMPLEX
 70
0
 40
0
 41
1
 50
0
 71
0
 42
3.5
  3
complex
  4

  0
STYLE
  2
ITALIC
 70
0
 40
0
 41
1
 50
0
 71
0
 42
3.5
  3
italic
  4

  0
ENDTAB
  0
TABLE
  2
VIEW
 70
0
  0
ENDTAB
  0
ENDSEC
  0
SECTION
  2
BLOCKS
  0
BLOCK
  8
1
  2
*D0
 70
1
 10
0
 20
0
 30
0
  0
LINE
  8
1
 62
2
 10
225.75
 20
-108.5312592470521
 30
0
 11
225.75
 21
-44.56246926604889
 31
0
  0
LINE
  8
1
 62
2
 10
197.8926164733342
 20
-44.56246926604889
 30
0
 11
226.75
 21
-44.56246926604889
 31
0
  0
LINE
  8
1
 62
2
 10
195.0176164733342
 20
-108.5312592470521
 30
0
 11
226.75
 21
-108.5312592470521
 31
0
  0
SOLID
  8
1
 62
2
 10
225.75
 20
-108.5312592470521
 30
0
 11
225.334
 21
-105.3312592470521
 31
0
 12
226.166
 22
-105.3312592470521
 32
0
 13
226.166
 23
-105.3312592470521
 33
0
  0
SOLID
  8
1
 62
2
 10
225.75
 20
-44.56246926604889
 30
0
 11
226.166
 21
-47.7624692660489
 31
0
 12
225.334
 22
-47.7624692660489
 32
0
 13
225.334
 23
-47.7624692660489
 33
0
  0
TEXT
  8
1
 62
2
 10
223.95
 20
-83.39486425655051
 30
0
 40
3.2
  1
200
 50
90
 41
0.9
  0
TEXT
  8
1
 62
2
 10
221.87
 20
-74.1148642565505
 30
0
 40
1.92
  1
+40
 50
90
 41
0.9
  0
TEXT
  8
1
 62
2
 10
224.75
 20
-74.1148642565505
 30
0
 40
1.92
  1
 0
 50
90
 41
0.9
  0
ENDBLK
  8
0
  0
BLOCK
  8
1
  2
*D1
 70
1
 10
0
 20
0
 30
0
  0
LINE
  8
1
 62
2
 10
215.75
 20
-108.5312592470521
 30
0
 11
215.75
 21
-98.53125924705211
 31
0
  0
LINE
  8
1
 62
2
 10
215.75
 20
-98.53125924705211
 30
0
 11
215.75
 21
-86.62763041415253
 31
0
  0
LINE
  8
1
 62
2
 10
195.0176164733342
 20
-108.5312592470521
 30
0
 11
216.75
 21
-108.5312592470521
 31
0
  0
LINE
  8
1
 62
2
 10
195.6426164733342
 20
-98.53125924705211
 30
0
 11
216.75
 21
-98.53125924705211
 31
0
  0
SOLID
  8
1
 62
2
 10
215.75
 20
-98.53125924705211
 30
0
 11
216.166
 21
-101.7312592470521
 31
0
 12
215.334
 22
-101.7312592470521
 32
0
 13
215.334
 23
-101.7312592470521
 33
0
  0
SOLID
  8
1
 62
2
 10
215.75
 20
-108.5312592470521
 30
0
 11
215.334
 21
-105.3312592470521
 31
0
 12
216.166
 22
-105.3312592470521
 32
0
 13
216.166
 23
-105.3312592470521
 33
0
  0
TEXT
  8
1
 62
2
 10
214.75
 20
-96.79233629650547
 30
0
 40
3.2
  1
10
 50
90
 41
0.9
  0
TEXT
  8
1
 62
2
 10
214.75
 20
-91.35233629650547
 30
0
 40
3.2
  1
ü}1
 50
90
 41
0.9
  0
ENDBLK
  8
0
  0
BLOCK
  8
1
  2
*D2
 70
1
 10
0
 20
0
 30
0
  0
LINE
  8
1
 62
2
 10
217.4926164733342
 20
42.5375307339511
 30
0
 11
210.4926164733342
 21
42.5375307339511
 31
0
  0
LINE
  8
1
 62
2
 10
208.9926164733342
 20
42.5375307339511
 30
0
 11
210.4926164733342
 21
42.5375307339511
 31
0
  0
LINE
  8
1
 62
2
 10
208.9926164733342
 20
42.5375307339511
 30
0
 11
195.0225539536952
 21
42.5375307339511
 31
0
  0
LINE
  8
1
 62
2
 10
208.9926164733342
 20
16.2375307339511
 30
0
 11
208.9926164733342
 21
43.5375307339511
 31
0
  0
LINE
  8
1
 62
2
 10
210.4926164733342
 20
-7.962469266048899
 30
0
 11
210.4926164733342
 21
43.5375307339511
 31
0
  0
SOLID
  8
1
 62
2
 10
208.9926164733342
 20
42.5375307339511
 30
0
 11
205.4926164733342
 21
42.0825307339511
 31
0
 12
205.4926164733342
 22
42.9925307339511
 32
0
 13
205.4926164733342
 23
42.9925307339511
 33
0
  0
SOLID
  8
1
 62
2
 10
210.4926164733342
 20
42.5375307339511
 30
0
 11
213.9926164733342
 21
42.9925307339511
 31
0
 12
213.9926164733342
 22
42.0825307339511
 32
0
 13
213.9926164733342
 23
42.0825307339511
 33
0
  0
TEXT
  8
1
 62
2
 10
197.2975539536952
 20
44.5375307339511
 30
0
 40
3.5
  1
1.5
 41
0.9
  0
TEXT
  8
1
 62
2
 10
195.0225539536952
 20
44.5375307339511
 30
0
 40
3.5
  1
(
 41
0.9
  0
TEXT
  8
1
 62
2
 10
204.3850539536952
 20
44.5375307339511
 30
0
 40
3.5
  1
)
 41
0.9
  0
ENDBLK
  8
0
  0
BLOCK
  8
1
  2
*D3
 70
1
 10
0
 20
0
 30
0
  0
LINE
  8
1
 62
2
 10
225.75
 20
-41.5624692660489
 30
0
 11
225.75
 21
17.6375307339511
 31
0
  0
LINE
  8
1
 62
2
 10
207.5926164733342
 20
-41.5624692660489
 30
0
 11
226.75
 21
-41.5624692660489
 31
0
  0
LINE
  8
1
 62
2
 10
207.5926164733342
 20
17.6375307339511
 30
0
 11
226.75
 21
17.6375307339511
 31
0
  0
SOLID
  8
1
 62
2
 10
225.75
 20
17.6375307339511
 30
0
 11
226.205
 21
14.1375307339511
 31
0
 12
225.295
 22
14.1375307339511
 32
0
 13
225.295
 23
14.1375307339511
 33
0
  0
SOLID
  8
1
 62
2
 10
225.75
 20
-41.5624692660489
 30
0
 11
225.295
 21
-38.0624692660489
 31
0
 12
226.205
 22
-38.0624692660489
 32
0
 13
226.205
 23
-38.0624692660489
 33
0
  0
TEXT
  8
1
 62
2
 10
223.75
 20
-14.6312192660489
 30
0
 40
3.5
  1
59.2
 50
90
 41
0.9
  0
TEXT
  8
1
 62
2
 10
223.75
 20
-18.8312192660489
 30
0
 40
3.5
  1
%%c
 50
90
 41
0.9
  0
ENDBLK
  8
0
  0
BLOCK
  8
1
  2
*D4
 70
1
 10
0
 20
0
 30
0
  0
LINE
  8
1
 62
2
 10
-20.333173139933
 20
42.5375307339511
 30
0
 11
58.66682686006701
 21
42.5375307339511
 31
0
  0
LINE
  8
1
 62
2
 10
58.66682686006701
 20
24.0375307339511
 30
0
 11
58.66682686006701
 21
43.5375307339511
 31
0
  0
LINE
  8
1
 62
2
 10
-20.333173139933
 20
24.0375307339511
 30
0
 11
-20.333173139933
 21
43.5375307339511
 31
0
  0
SOLID
  8
1
 62
2
 10
-20.333173139933
 20
42.5375307339511
 30
0
 11
-17.133173139933
 21
42.9535307339511
 31
0
 12
-17.133173139933
 22
42.1215307339511
 32
0
 13
-17.133173139933
 23
42.1215307339511
 33
0
  0
SOLID
  8
1
 62
2
 10
58.66682686006701
 20
42.5375307339511
 30
0
 11
55.466826860067
 21
42.1215307339511
 31
0
 12
55.466826860067
 22
42.9535307339511
 32
0
 13
55.466826860067
 23
42.9535307339511
 33
0
  0
TEXT
  8
1
 62
2
 10
18.73912957727212
 20
44.5375307339511
 30
0
 40
3.2
  1
79
 41
0.9
  0
TEXT
  8
1
 62
2
 10
14.59795310668388
 20
44.5375307339511
 30
0
 40
3.2
  1
üá
 41
0.9
  0
ENDBLK
  8
0
  0
BLOCK
  8
1
  2
*D5
 70
1
 10
0
 20
0
 30
0
  0
LINE
  8
1
 62
2
 10
147.2926164733342
 20
52.5375307339511
 30
0
 11
159.2926164733342
 21
52.5375307339511
 31
0
  0
LINE
  8
1
 62
2
 10
147.2926164733342
 20
-7.962469266048906
 30
0
 11
147.2926164733342
 21
53.5375307339511
 31
0
  0
LINE
  8
1
 62
2
 10
159.2926164733342
 20
28.5375307339511
 30
0
 11
159.2926164733342
 21
53.5375307339511
 31
0
  0
SOLID
  8
1
 62
2
 10
147.2926164733342
 20
52.5375307339511
 30
0
 11
150.4926164733342
 21
52.9535307339511
 31
0
 12
150.4926164733342
 22
52.1215307339511
 32
0
 13
150.4926164733342
 23
52.1215307339511
 33
0
  0
SOLID
  8
1
 62
2
 10
159.2926164733342
 20
52.5375307339511
 30
0
 11
156.0926164733342
 21
52.1215307339511
 31
0
 12
156.0926164733342
 22
52.9535307339511
 32
0
 13
156.0926164733342
 23
52.9535307339511
 33
0
  0
TEXT
  8
1
 62
2
 10
152.142167917952
 20
54.5375307339511
 30
0
 40
3.2
  1
12
 41
0.9
  0
ENDBLK
  8
0
  0
BLOCK
  8
1
  2
*D6
 70
1
 10
0
 20
0
 30
0
  0
LINE
  8
1
 62
2
 10
159.2926164733342
 20
52.5375307339511
 30
0
 11
210.4926164733342
 21
52.5375307339511
 31
0
  0
LINE
  8
1
 62
2
 10
159.2926164733342
 20
28.5375307339511
 30
0
 11
159.2926164733342
 21
53.5375307339511
 31
0
  0
LINE
  8
1
 62
2
 10
210.4926164733342
 20
-7.962469266048906
 30
0
 11
210.4926164733342
 21
53.5375307339511
 31
0
  0
SOLID
  8
1
 62
2
 10
159.2926164733342
 20
52.5375307339511
 30
0
 11
162.4926164733342
 21
52.9535307339511
 31
0
 12
162.4926164733342
 22
52.1215307339511
 32
0
 13
162.4926164733342
 23
52.1215307339511
 33
0
  0
SOLID
  8
1
 62
2
 10
210.4926164733342
 20
52.5375307339511
 30
0
 11
207.2926164733342
 21
52.1215307339511
 31
0
 12
207.2926164733342
 22
52.9535307339511
 32
0
 13
207.2926164733342
 23
52.9535307339511
 33
0
  0
TEXT
  8
1
 62
2
 10
176.2542569374935
 20
54.5375307339511
 30
0
 40
3.2
  1
50
 41
0.9
  0
TEXT
  8
1
 62
2
 10
182.6542569374935
 20
54.5375307339511
 30
0
 40
3.2
  1
MAX.
 41
0.9
  0
ENDBLK
  8
0
  0
BLOCK
  8
1
  2
*D7
 70
1
 10
0
 20
0
 30
0
  0
LINE
  8
1
 62
2
 10
157.2926164733343
 20
42.5375307339511
 30
0
 11
159.2926164733342
 21
42.5375307339511
 31
0
  0
LINE
  8
1
 62
2
 10
157.2926164733343
 20
42.5375307339511
 30
0
 11
150.8926164733342
 21
42.5375307339511
 31
0
  0
LINE
  8
1
 62
2
 10
157.2926164733343
 20
25.23753073395109
 30
0
 11
157.2926164733343
 21
43.5375307339511
 31
0
  0
LINE
  8
1
 62
2
 10
159.2926164733342
 20
28.5375307339511
 30
0
 11
159.2926164733342
 21
43.5375307339511
 31
0
  0
SOLID
  8
1
 62
2
 10
157.2926164733343
 20
42.5375307339511
 30
0
 11
154.0926164733343
 21
42.1215307339511
 31
0
 12
154.0926164733343
 22
42.9535307339511
 32
0
 13
154.0926164733343
 23
42.9535307339511
 33
0
  0
CIRCLE
  8
1
 62
2
 10
159.2926164733342
 20
42.5375307339511
 30
0
 40
0.8
  0
TEXT
  8
1
 62
2
 10
151.7491495249519
 20
44.5375307339511
 30
0
 40
3.2
  1
2
 41
0.9
  0
ENDBLK
  8
0
  0
BLOCK
  8
1
  2
*D8
 70
1
 10
0
 20
0
 30
0
  0
LINE
  8
1
 62
2
 10
132.2926164733342
 20
-48.4624692660489
 30
0
 11
132.2926164733342
 21
24.5375307339511
 31
0
  0
LINE
  8
1
 62
2
 10
156.5926164733342
 20
-48.4624692660489
 30
0
 11
131.2926164733342
 21
-48.4624692660489
 31
0
  0
LINE
  8
1
 62
2
 10
156.5926164733342
 20
24.5375307339511
 30
0
 11
131.2926164733342
 21
24.5375307339511
 31
0
  0
SOLID
  8
1
 62
2
 10
132.2926164733342
 20
24.5375307339511
 30
0
 11
132.7086164733342
 21
21.3375307339511
 31
0
 12
131.8766164733342
 22
21.3375307339511
 32
0
 13
131.8766164733342
 23
21.3375307339511
 33
0
  0
SOLID
  8
1
 62
2
 10
132.2926164733342
 20
-48.4624692660489
 30
0
 11
131.8766164733342
 21
-45.2624692660489
 31
0
 12
132.7086164733342
 22
-45.2624692660489
 32
0
 13
132.7086164733342
 23
-45.2624692660489
 33
0
  0
TEXT
  8
1
 62
2
 10
129.4926164733342
 20
-19.2481888193467
 30
0
 40
3.2
  1
73h7
 50
90
 41
0.9
  0
TEXT
  8
1
 62
2
 10
127.4126164733342
 20
-7.088188819346701
 30
0
 40
1.92
  1
 0
 50
90
 41
0.9
  0
TEXT
  8
1
 62
2
 10
130.2926164733342
 20
-7.088188819346701
 30
0
 40
1.92
  1
-0.03
 50
90
 41
0.9
  0
TEXT
  8
1
 62
2
 10
129.4926164733342
 20
-23.0881888193467
 30
0
 40
3.2
  1
%%c
 50
90
 41
0.9
  0
ENDBLK
  8
0
  0
BLOCK
  8
1
  2
*D9
 70
1
 10
0
 20
0
 30
0
  0
LINE
  8
1
 62
2
 10
-23.00894085380446
 20
-32.70384380453011
 30
0
 11
42.94234053917899
 21
-0.2700482197082486
 31
0
  0
SOLID
  8
1
 62
2
 10
-23.00894085380446
 20
-32.70384380453011
 30
0
 11
-20.32098245217934
 21
-30.91836470044265
 31
0
 12
-19.9538159922641
 22
-31.66496552465416
 32
0
 13
-19.9538159922641
 23
-31.66496552465416
 33
0
  0
TEXT
  8
1
 62
2
 10
37.91393662384655
 20
-0.922039941391275
 30
0
 40
3.2
  1
94
 50
26.18722866280635
 41
0.9
  0
TEXT
  8
1
 62
2
 10
34.46808666594726
 20
-2.616654371769315
 30
0
 40
3.2
  1
%%c
 50
26.18722866280635
 41
0.9
  0
ENDBLK
  8
0
  0
BLOCK
  8
1
  2
*D10
 70
1
 10
0
 20
0
 30
0
  0
LINE
  8
1
 62
2
 10
-11.19148901448419
 20
-38.21559741047694
 30
0
 11
-28.86671481638808
 21
-81.1229574402818
 31
0
  0
LINE
  8
1
 62
2
 10
-28.86671481638808
 20
-81.1229574402818
 30
0
 11
-4.191159260832521
 21
-81.1229574402818
 31
0
  0
SOLID
  8
1
 62
2
 10
-15.11463328793192
 20
-47.73919646806617
 30
0
 11
-15.94883177988101
 21
-50.85643384690498
 31
0
 12
-16.71811667462996
 22
-50.53953520268085
 32
0
 13
-16.71811667462996
 23
-50.53953520268085
 33
0
  0
SOLID
  8
1
 62
2
 10
-13.01975042346954
 20
-42.65377949556706
 30
0
 11
-12.18555193152045
 21
-39.53654211672824
 31
0
 12
-11.4162670367715
 22
-39.85344076095237
 32
0
 13
-11.4162670367715
 23
-39.85344076095237
 33
0
  0
TEXT
  8
1
 62
2
 10
-14.54776056802206
 20
-79.1229574402818
 30
0
 40
3.2
  1
5.5
 41
0.9
  0
TEXT
  8
1
 62
2
 10
-23.82776056802207
 20
-79.1229574402818
 30
0
 40
3.2
  1
4-%%c
 41
0.9
  0
TEXT
  8
1
 62
2
 10
-6.947760568022062
 20
-79.1229574402818
 30
0
 40
3.2
  1
îè
 41
0.9
  0
ENDBLK
  8
0
  0
ENDSEC
  0
SECTION
  2
ENTITIES
  0
LINE
  8
1
 62
7
 10
182.767616473334
 20
-98.53125924705211
 30
0
 11
182.767616473334
 21
-108.5312592470521
 31
0
  0
LINE
  8
1
 62
7
 10
184.017616473334
 20
-108.5312592470521
 30
0
 11
184.017616473334
 21
-98.53125924705211
 31
0
  0
LINE
  8
1
 62
7
 10
194.0176164733342
 20
-108.5312592470521
 30
0
 11
194.0176164733342
 21
-98.53125924705211
 31
0
  0
LINE
  8
1
 62
7
 10
192.7676164733342
 20
-98.53125924705211
 30
0
 11
192.7676164733342
 21
-108.5312592470521
 31
0
  0
LINE
  8
1
 62
7
 10
194.6426164733342
 20
-98.53125924705211
 30
0
 11
194.6426164733342
 21
-65.27740697945443
 31
0
  0
LINE
  8
1
 62
7
 10
192.1426164733341
 20
-98.53125924705211
 30
0
 11
194.6426164733342
 21
-98.53125924705211
 31
0
  0
LINE
  8
1
 62
7
 10
192.1426164733341
 20
-64.69618748625045
 30
0
 11
192.1426164733341
 21
-98.53125924705211
 31
0
  0
LINE
  8
1
 62
7
 10
184.642616473334
 20
-98.53125924705211
 30
0
 11
184.642616473334
 21
-65.16761432706143
 31
0
  0
LINE
  8
1
 62
7
 10
182.1426164733341
 20
-98.53125924705211
 30
0
 11
184.642616473334
 21
-98.53125924705211
 31
0
  0
LINE
  8
1
 62
7
 10
182.1426164733341
 20
-64.67056453453292
 30
0
 11
182.1426164733341
 21
-98.53125924705211
 31
0
  0
LINE
  8
1
 62
7
 10
19.166826860067
 20
-51.4624692660489
 30
0
 11
54.166826860067
 21
-51.4624692660489
 31
0
  0
LINE
  8
1
 62
3
 10
19.166826860067
 20
-51.4624692660489
 30
0
 11
19.166826860067
 21
-62.9624692660489
 31
0
  0
LINE
  8
1
 62
7
 10
19.16682686006698
 20
-67.07049970984389
 30
0
 11
19.166826860067
 21
-51.4624692660489
 31
0
  0
LINE
  8
1
 62
7
 10
21.16682686006698
 20
-51.4624692660489
 30
0
 11
21.16682686006698
 21
-67.55809752565169
 31
0
  0
LINE
  8
1
 62
7
 10
17.16682686006692
 20
-51.4624692660489
 30
0
 11
17.16682686006692
 21
-66.8806909083916
 31
0
  0
LINE
  8
1
 62
7
 10
182.1426164733342
 20
-44.5624692660489
 30
0
 11
182.1426164733341
 21
-61.13561406045969
 31
0
  0
LINE
  8
1
 62
7
 10
185.6426164733342
 20
-44.5624692660489
 30
0
 11
185.6426164733342
 21
-61.74245650538119
 31
0
  0
LINE
  8
1
 62
7
 10
184.6426164733342
 20
-44.5624692660489
 30
0
 11
184.642616473334
 21
-61.6326638529882
 31
0
  0
LINE
  8
1
 62
7
 10
191.1426164733341
 20
-44.5624692660489
 30
0
 11
191.1426164733341
 21
-61.13561406045969
 31
0
  0
LINE
  8
1
 62
7
 10
192.1426164733342
 20
-44.5624692660489
 30
0
 11
192.1426164733341
 21
-61.16123701217729
 31
0
  0
LINE
  8
1
 62
7
 10
194.6426164733342
 20
-44.5624692660489
 30
0
 11
194.6426164733342
 21
-61.74245650538129
 31
0
  0
LINE
  8
1
 62
3
 10
173.4919451593292
 20
12.78626807548026
 30
0
 11
156.3635893579622
 21
12.78626807548026
 31
0
  0
LINE
  8
1
 62
3
 10
174.5155429592452
 20
-36.71120660757806
 30
0
 11
156.4583824648692
 21
-36.71120660757803
 31
0
  0
LINE
  8
1
 62
2
 10
165.7926164733342
 20
42.5231929972649
 30
0
 11
165.7926164733342
 21
43.4609374521103
 31
0
  0
LINE
  8
1
 62
2
 10
160.097139505335
 20
42.5231929972649
 30
0
 11
165.7926164733342
 21
42.5231929972649
 31
0
  0
LINE
  8
1
 62
2
 10
165.7926164733342
 20
28.4073925584135
 30
0
 11
165.7926164733342
 21
42.5231929972649
 31
0
  0
LINE
  8
1
 62
7
 10
209.6926164733342
 20
-8.962469266048901
 30
0
 11
209.6926164733342
 21
-14.9624692660489
 31
0
  0
LINE
  8
1
 62
7
 10
210.4926164733342
 20
-8.962469266048901
 30
0
 11
209.6926164733342
 21
-8.962469266048901
 31
0
  0
LINE
  8
1
 62
7
 10
210.4926164733342
 20
-14.9624692660489
 30
0
 11
210.4926164733342
 21
-8.962469266048901
 31
0
  0
LINE
  8
1
 62
7
 10
209.6926164733342
 20
-14.9624692660489
 30
0
 11
209.6926164733342
 21
-18.3124692660489
 31
0
  0
LINE
  8
1
 62
7
 10
209.6926164733342
 20
-14.9624692660489
 30
0
 11
210.4926164733342
 21
-14.9624692660489
 31
0
  0
LINE
  8
1
 62
7
 10
208.9926164733342
 20
-18.3124692660489
 30
0
 11
208.9926164733342
 21
-39.16246926604891
 31
0
  0
LINE
  8
1
 62
7
 10
209.6926164733342
 20
-18.3124692660489
 30
0
 11
208.9926164733342
 21
-18.3124692660489
 31
0
  0
LINE
  8
1
 62
7
 10
209.6926164733342
 20
-5.612469266048901
 30
0
 11
209.6926164733342
 21
-8.962469266048901
 31
0
  0
LINE
  8
1
 62
7
 10
208.9926164733342
 20
-5.612469266048901
 30
0
 11
208.9926164733342
 21
-18.3124692660489
 31
0
  0
LINE
  8
1
 62
7
 10
208.9926164733342
 20
-5.612469266048901
 30
0
 11
209.6926164733342
 21
-5.612469266048901
 31
0
  0
LINE
  8
1
 62
7
 10
206.5926164733342
 20
-41.5624692660489
 30
0
 11
196.8926164733342
 21
-41.5624692660489
 31
0
  0
LINE
  8
1
 62
7
 10
208.9926164733342
 20
15.2375307339511
 30
0
 11
208.9926164733342
 21
-5.612469266048901
 31
0
  0
LINE
  8
1
 62
7
 10
167.3926164733342
 20
16.28626807548026
 30
0
 11
167.3926164733342
 21
17.6375307339511
 31
0
  0
LINE
  8
1
 62
7
 10
167.3926164733342
 20
-40.21120660757806
 30
0
 11
167.3926164733342
 21
-41.5624692660489
 31
0
  0
LINE
  8
1
 62
7
 10
167.3926164733342
 20
9.28626807548026
 30
0
 11
167.3926164733342
 21
-33.21120660757806
 31
0
  0
LINE
  8
1
 62
7
 10
169.0926164733342
 20
9.28626807548026
 30
0
 11
167.3926164733342
 21
9.28626807548026
 31
0
  0
LINE
  8
1
 62
7
 10
170.0926164733342
 20
15.28626807548026
 30
0
 11
170.0926164733342
 21
10.28626807548026
 31
0
  0
LINE
  8
1
 62
7
 10
167.3926164733342
 20
16.28626807548026
 30
0
 11
167.3926164733342
 21
9.28626807548026
 31
0
  0
LINE
  8
1
 62
7
 10
167.3926164733342
 20
16.28626807548026
 30
0
 11
169.0926164733342
 21
16.28626807548026
 31
0
  0
LINE
  8
1
 62
7
 10
169.0926164733342
 20
-40.21120660757806
 30
0
 11
167.3926164733342
 21
-40.21120660757806
 31
0
  0
LINE
  8
1
 62
7
 10
170.0926164733342
 20
-34.21120660757806
 30
0
 11
170.0926164733342
 21
-39.21120660757806
 31
0
  0
LINE
  8
1
 62
7
 10
167.3926164733342
 20
-33.21120660757806
 30
0
 11
167.3926164733342
 21
-40.21120660757806
 31
0
  0
LINE
  8
1
 62
7
 10
167.3926164733342
 20
-33.21120660757806
 30
0
 11
169.0926164733342
 21
-33.21120660757806
 31
0
  0
LINE
  8
1
 62
7
 10
165.7926164733342
 20
27.5375307339511
 30
0
 11
165.7926164733342
 21
-51.4624692660489
 31
0
  0
LINE
  8
1
 62
7
 10
179.8926164733342
 20
-41.5624692660489
 30
0
 11
179.8926164733342
 21
-44.5624692660489
 31
0
  0
LINE
  8
1
 62
7
 10
179.8926164733342
 20
-41.5624692660489
 30
0
 11
167.3926164733342
 21
-41.5624692660489
 31
0
  0
LINE
  8
1
 62
7
 10
186.8926164733342
 20
-44.5624692660489
 30
0
 11
186.8926164733342
 21
-41.5624692660489
 31
0
  0
LINE
  8
1
 62
7
 10
186.8926164733342
 20
-41.5624692660489
 30
0
 11
179.8926164733342
 21
-41.5624692660489
 31
0
  0
LINE
  8
1
 62
7
 10
189.8926164733342
 20
-41.5624692660489
 30
0
 11
189.8926164733342
 21
-44.5624692660489
 31
0
  0
LINE
  8
1
 62
7
 10
189.8926164733342
 20
-41.5624692660489
 30
0
 11
186.8926164733342
 21
-41.5624692660489
 31
0
  0
LINE
  8
1
 62
7
 10
189.8926164733342
 20
-44.5624692660489
 30
0
 11
196.8926164733342
 21
-44.5624692660489
 31
0
  0
LINE
  8
1
 62
7
 10
196.8926164733342
 20
-44.5624692660489
 30
0
 11
196.8926164733342
 21
-41.5624692660489
 31
0
  0
LINE
  8
1
 62
7
 10
196.8926164733342
 20
-41.5624692660489
 30
0
 11
189.8926164733342
 21
-41.5624692660489
 31
0
  0
LINE
  8
1
 62
7
 10
186.8926164733342
 20
-44.5624692660489
 30
0
 11
179.8926164733342
 21
-44.5624692660489
 31
0
  0
LINE
  8
1
 62
7
 10
178.1798600445207
 20
17.6375307339511
 30
0
 11
178.1798600445207
 21
12.6375307339511
 31
0
  0
LINE
  8
1
 62
7
 10
178.1798600445207
 20
17.6375307339511
 30
0
 11
198.1798600445207
 21
17.6375307339511
 31
0
  0
LINE
  8
1
 62
7
 10
178.1798600445207
 20
12.6375307339511
 30
0
 11
198.1798600445207
 21
12.6375307339511
 31
0
  0
LINE
  8
1
 62
7
 10
198.1798600445207
 20
12.6375307339511
 30
0
 11
198.1798600445207
 21
17.6375307339511
 31
0
  0
LINE
  8
1
 62
7
 10
198.1798600445207
 20
17.6375307339511
 30
0
 11
206.5926164733342
 21
17.6375307339511
 31
0
  0
LINE
  8
1
 62
7
 10
-15.833173139933
 20
-51.4624692660489
 30
0
 11
19.166826860067
 21
-51.4624692660489
 31
0
  0
LINE
  8
1
 62
7
 10
58.666826860067
 20
-46.9624692660489
 30
0
 11
58.666826860067
 21
23.0375307339511
 31
0
  0
LINE
  8
1
 62
7
 10
54.166826860067
 20
27.5375307339511
 30
0
 11
-15.833173139933
 21
27.5375307339511
 31
0
  0
LINE
  8
1
 62
7
 10
-20.333173139933
 20
23.0375307339511
 30
0
 11
-20.333173139933
 21
-46.9624692660489
 31
0
  0
LINE
  8
1
 62
3
 10
-25.83659059524319
 20
-11.9624692660489
 30
0
 11
21.816826860067
 21
-11.9624692660489
 31
0
  0
LINE
  8
1
 62
3
 10
19.166826860067
 20
35.0375307339511
 30
0
 11
19.166826860067
 21
-51.4624692660489
 31
0
  0
LINE
  8
1
 62
3
 10
-18.48070205686255
 20
25.68505965088066
 30
0
 11
-0.4793350747385006
 21
7.68369266875659
 31
0
  0
LINE
  8
1
 62
3
 10
56.72297827962541
 20
25.5936821535095
 30
0
 11
38.58454505144451
 21
7.455248925328602
 31
0
  0
LINE
  8
1
 62
3
 10
56.49453453619739
 20
-49.29017694217929
 30
0
 11
37.4423263343046
 21
-30.23796874028649
 31
0
  0
LINE
  8
1
 62
3
 10
-18.06950331869219
 20
-49.1987994448081
 30
0
 11
0.3887511502878596
 21
-30.74054497582806
 31
0
  0
LINE
  8
1
 62
7
 10
165.7926164733342
 20
-51.4624692660489
 30
0
 11
159.2926164733342
 21
-51.4624692660489
 31
0
  0
LINE
  8
1
 62
7
 10
159.2926164733342
 20
-48.4624692660489
 30
0
 11
157.5926164733342
 21
-48.4624692660489
 31
0
  0
LINE
  8
1
 62
7
 10
165.7926164733342
 20
27.5375307339511
 30
0
 11
159.2926164733342
 21
27.5375307339511
 31
0
  0
LINE
  8
1
 62
7
 10
159.2926164733342
 20
24.5375307339511
 30
0
 11
157.5926164733342
 21
24.5375307339511
 31
0
  0
LINE
  8
1
 62
7
 10
157.2926164733342
 20
15.30924243557645
 30
0
 11
157.2926164733342
 21
24.23753073395109
 31
0
  0
LINE
  8
1
 62
7
 10
157.2926164733342
 20
15.30924243557645
 30
0
 11
159.2926164733342
 21
15.30924243557645
 31
0
  0
LINE
  8
1
 62
7
 10
157.2926164733342
 20
-39.23490574468097
 30
0
 11
157.2926164733342
 21
-48.16246926604889
 31
0
  0
LINE
  8
1
 62
7
 10
157.2926164733342
 20
-39.23490574468097
 30
0
 11
159.2926164733342
 21
-39.23490574468097
 31
0
  0
LINE
  8
1
 62
7
 10
159.2926164733342
 20
-39.23490574468097
 30
0
 11
159.2926164733342
 21
-33.38637953248825
 31
0
  0
LINE
  8
1
 62
7
 10
159.2926164733342
 20
15.30924243557645
 30
0
 11
159.2926164733342
 21
9.469061741176985
 31
0
  0
LINE
  8
1
 62
7
 10
159.2926164733342
 20
-33.38637953248825
 30
0
 11
157.2926164733342
 21
-33.38637953248825
 31
0
  0
LINE
  8
1
 62
7
 10
159.2926164733342
 20
9.469061741176985
 30
0
 11
157.2926164733342
 21
9.469061741176985
 31
0
  0
LINE
  8
1
 62
7
 10
157.2926164733342
 20
9.469061741176985
 30
0
 11
157.2926164733342
 21
-8.962469266048901
 31
0
  0
LINE
  8
1
 62
7
 10
157.2926164733342
 20
-48.16246926604889
 30
0
 11
157.5926164733342
 21
-48.4624692660489
 31
0
  0
LINE
  8
1
 62
7
 10
157.2926164733342
 20
24.23753073395109
 30
0
 11
157.5926164733342
 21
24.5375307339511
 31
0
  0
LINE
  8
1
 62
3
 10
22.166826860067
 20
-11.9624692660489
 30
0
 11
63.98748932063481
 21
-11.9624692660489
 31
0
  0
LINE
  8
1
 62
2
  6
CENTER
 10
21.816826860067
 20
-11.9624692660489
 30
0
 11
22.166826860067
 21
-11.9624692660489
 31
0
  0
LINE
  8
1
 62
7
 10
159.2926164733342
 20
27.5375307339511
 30
0
 11
159.2926164733342
 21
-51.4624692660489
 31
0
  0
LINE
  8
1
 62
7
 10
157.2926164733342
 20
-8.962469266048901
 30
0
 11
147.2926164733342
 21
-8.962469266048901
 31
0
  0
LINE
  8
1
 62
7
 10
157.2926164733342
 20
-8.962469266048901
 30
0
 11
157.2926164733342
 21
-14.9624692660489
 31
0
  0
LINE
  8
1
 62
7
 10
147.2926164733342
 20
-8.962469266048901
 30
0
 11
147.2926164733342
 21
-14.9624692660489
 31
0
  0
LINE
  8
1
 62
7
 10
147.2926164733342
 20
-14.9624692660489
 30
0
 11
157.2926164733342
 21
-14.9624692660489
 31
0
  0
LINE
  8
1
 62
7
 10
157.2926164733342
 20
-14.9624692660489
 30
0
 11
157.2926164733342
 21
-33.38637953248825
 31
0
  0
LINE
  8
1
 62
3
  6
CENTER
 10
145.80231686568
 20
-9.362469266048901
 30
0
 11
156.5067124007682
 21
-9.362469266048901
 31
0
  0
LINE
  8
1
 62
3
  6
CENTER
 10
145.7580838262788
 20
-14.5624692660489
 30
0
 11
156.8605767159777
 21
-14.5624692660489
 31
0
  0
LINE
  8
1
 62
3
 10
143.9224126911294
 20
-11.9624692660489
 30
0
 11
215.3570804774752
 21
-11.9624692660489
 31
0
  0
LINE
  8
1
 62
2
 10
88.05562482692801
 20
77.4096096489226
 30
0
 11
123.3607637361119
 21
77.4096096489226
 31
0
  0
LINE
  8
1
 62
2
 10
88.05562482692801
 20
49.4096096489226
 30
0
 11
123.3607637361119
 21
49.4096096489226
 31
0
  0
LINE
  8
1
 62
2
 10
123.3607637361119
 20
56.4096096489226
 30
0
 11
88.05562482692801
 21
56.4096096489226
 31
0
  0
LINE
  8
1
 62
2
 10
88.05562482692801
 20
63.4096096489226
 30
0
 11
123.3607637361119
 21
63.4096096489226
 31
0
  0
LINE
  8
1
 62
2
 10
123.3607637361119
 20
42.4096096489226
 30
0
 11
123.3607637361119
 21
77.4096096489226
 31
0
  0
LINE
  8
1
 62
2
 10
88.05562482692801
 20
77.4096096489226
 30
0
 11
88.05562482692801
 21
42.4096096489226
 31
0
  0
LINE
  8
1
 62
2
 10
106.8406232653994
 20
70.4096096489226
 30
0
 11
106.8406232653994
 21
42.4096096489226
 31
0
  0
LINE
  8
1
 62
2
 10
88.05562482692801
 20
70.4096096489226
 30
0
 11
123.3607637361119
 21
70.4096096489226
 31
0
  0
LINE
  8
1
 62
2
 10
88.05562482692801
 20
42.4096096489226
 30
0
 11
123.3607637361119
 21
42.4096096489226
 31
0
  0
LINE
  8
1
 62
7
 10
165.7926164733342
 20
17.6375307339511
 30
0
 11
167.3926164733342
 21
17.6375307339511
 31
0
  0
LINE
  8
1
 62
7
 10
167.3926164733342
 20
17.6375307339511
 30
0
 11
178.1798600445207
 21
17.6375307339511
 31
0
  0
LINE
  8
1
 62
7
 10
167.3926164733342
 20
-41.5624692660489
 30
0
 11
165.7926164733342
 21
-41.56246926604889
 31
0
  0
ARC
  8
1
 62
7
 10
43.91556420159617
 20
-36.71120660757803
 30
0
 40
4.999999999999965
 50
58.2280588234752
 51
211.7719411765248
  0
ARC
  8
1
 62
7
 10
43.91556420159617
 20
12.78626807548026
 30
0
 40
5.000000000000005
 50
148.2280588234755
 51
301.7719411765247
  0
ARC
  8
1
 62
7
 10
-5.58191048146216
 20
12.78626807548026
 30
0
 40
4.999999999999989
 50
238.2280588234755
 51
31.77194117652448
  0
ARC
  8
1
 62
7
 10
-5.58191048146216
 20
-36.71120660757803
 30
0
 40
5.000000000000023
 50
328.2280588234752
 51
121.7719411765249
  0
ARC
  8
1
 62
7
 10
-0.7647054309897641
 20
-40.73283632193748
 30
0
 40
1.499999999999947
 50
55.28656061147411
 51
235.2865606114763
  0
ARC
  8
1
 62
7
 10
19.166826860067
 20
-11.9624692660489
 30
0
 40
36.50000000000002
 50
235.286560611475
 51
304.713439388525
  0
ARC
  8
1
 62
7
 10
39.09835915112379
 20
-40.73283632193754
 30
0
 40
1.499999999999994
 50
304.7134393885247
 51
124.713439388525
  0
ARC
  8
1
 62
7
 10
19.166826860067
 20
-11.9624692660489
 30
0
 40
33.50000000000001
 50
235.2865606114749
 51
304.7134393885251
  0
ARC
  8
1
 62
7
 10
-9.603540195821616
 20
-31.89400155710568
 30
0
 40
1.500000000000011
 50
214.713439388525
 51
34.71343938852495
  0
ARC
  8
1
 62
7
 10
19.166826860067
 20
-11.9624692660489
 30
0
 40
33.49999999999999
 50
145.2865606114749
 51
214.7134393885251
  0
ARC
  8
1
 62
7
 10
-9.603540195821608
 20
7.969063025007882
 30
0
 40
1.500000000000002
 50
325.2865606114749
 51
145.2865606114753
  0
ARC
  8
1
 62
7
 10
19.166826860067
 20
-11.9624692660489
 30
0
 40
36.50000000000001
 50
145.2865606114749
 51
214.7134393885251
  0
ARC
  8
1
 62
7
 10
-0.7647054309897783
 20
16.80789778983971
 30
0
 40
1.499999999999997
 50
124.7134393885246
 51
304.7134393885252
  0
ARC
  8
1
 62
7
 10
19.166826860067
 20
-11.9624692660489
 30
0
 40
36.5
 50
55.28656061147494
 51
124.7134393885251
  0
ARC
  8
1
 62
7
 10
39.09835915112377
 20
16.80789778983971
 30
0
 40
1.49999999999999
 50
235.2865606114752
 51
55.28656061147498
  0
ARC
  8
1
 62
7
 10
19.166826860067
 20
-11.9624692660489
 30
0
 40
33.50000000000001
 50
55.28656061147493
 51
124.7134393885251
  0
ARC
  8
1
 62
7
 10
47.93719391595562
 20
7.969063025007882
 30
0
 40
1.500000000000014
 50
34.7134393885248
 51
214.7134393885251
  0
ARC
  8
1
 62
7
 10
19.166826860067
 20
-11.9624692660489
 30
0
 40
36.50000000000002
 50
325.2865606114749
 51
34.71343938852507
  0
ARC
  8
1
 62
7
 10
47.93719391595562
 20
-31.89400155710568
 30
0
 40
1.500000000000002
 50
145.2865606114749
 51
325.2865606114751
  0
ARC
  8
1
 62
7
 10
19.166826860067
 20
-11.9624692660489
 30
0
 40
33.5
 50
325.2865606114749
 51
34.71343938852508
  0
ARC
  8
1
 62
3
 10
19.166826860067
 20
-11.9624692660489
 30
0
 40
35
 50
308.6246790251915
 51
321.2583573888672
  0
ARC
  8
1
 62
3
 10
19.166826860067
 20
-11.9624692660489
 30
0
 40
34.99999999999999
 50
37.20007441209244
 51
51.28152314106828
  0
ARC
  8
1
 62
3
 10
19.166826860067
 20
-11.9624692660489
 30
0
 40
35.00000000000001
 50
129.0465401031581
 51
140.9534598968419
  0
ARC
  8
1
 62
3
  6
CENTER
 10
19.166826860067
 20
-11.9624692660489
 30
0
 40
34.99999999999998
 50
218.4382299142393
 51
231.2583573888672
  0
ARC
  8
1
 62
3
 10
19.166826860067
 20
-11.9624692660489
 30
0
 40
47.00000000000001
 50
126.3914239136621
 51
143.7401989216616
  0
ARC
  8
1
 62
3
 10
19.166826860067
 20
-11.9624692660489
 30
0
 40
46.99999999999998
 50
305.2943578844166
 51
323.0083614566908
  0
ARC
  8
1
 62
3
 10
19.166826860067
 20
-11.9624692660489
 30
0
 40
47
 50
204.8751996741554
 51
231.4469731773847
  0
ARC
  8
1
 62
3
 10
19.166826860067
 20
-11.9624692660489
 30
0
 40
47.00000000000001
 50
25.03967609953827
 51
54.28161173427033
  0
CIRCLE
  8
1
 62
7
 10
19.166826860067
 20
-11.9624692660489
 30
0
 40
9.5
  0
CIRCLE
  8
1
 62
7
 10
19.166826860067
 20
-11.9624692660489
 30
0
 40
12.5
  0
CIRCLE
  8
1
 62
7
 10
-5.58191048146216
 20
-36.71120660757803
 30
0
 40
1.835000000000008
  0
CIRCLE
  8
1
 62
7
 10
43.91556420159617
 20
-36.71120660757803
 30
0
 40
1.834999999999994
  0
CIRCLE
  8
1
 62
7
 10
43.91556420159617
 20
12.78626807548026
 30
0
 40
1.835000000000008
  0
CIRCLE
  8
1
 62
7
 10
-5.58191048146216
 20
12.78626807548026
 30
0
 40
1.834999999999994
  0
CIRCLE
  8
1
 62
7
 10
-14.06719185570073
 20
-45.19648798181662
 30
0
 40
2.750000000000002
  0
CIRCLE
  8
1
 62
7
 10
52.40084557583474
 20
-45.19648798181662
 30
0
 40
2.75
  0
CIRCLE
  8
1
 62
7
 10
52.40084557583475
 20
21.27154944971882
 30
0
 40
2.75
  0
CIRCLE
  8
1
 62
7
 10
-14.06719185570073
 20
21.27154944971885
 30
0
 40
2.750000000000002
  0
CIRCLE
  8
1
 62
7
 10
19.166826860067
 20
-11.9624692660489
 30
0
 40
3
  0
CIRCLE
  8
1
 62
2
  6
CENTER
 10
19.166826860067
 20
-11.9624692660489
 30
0
 40
2.649999999999999
  0
POLYLINE
  8
1
 62
2
 66
1
  0
VERTEX
  8
1
 10
181.2109810522375
 20
-65.17263029754832
 30
0
 42
-0.05566190048858032
  0
VERTEX
  8
1
 10
181.6679172140045
 20
-64.84899141060241
 30
0
 42
-0.06295822212503852
  0
VERTEX
  8
1
 10
182.118330436207
 20
-64.67619054488377
 30
0
 42
-0.05872434221014747
  0
VERTEX
  8
1
 10
182.5635804860079
 20
-64.62549987141
 30
0
 42
-0.04454383398460329
  0
VERTEX
  8
1
 10
183.0050271305697
 20
-64.66819156119868
 30
0
 42
-0.02739308965895521
  0
VERTEX
  8
1
 10
183.4440301370553
 20
-64.77553778526742
 30
0
 42
-0.01122505936936919
  0
VERTEX
  8
1
 10
183.8819492726274
 20
-64.91881071463378
 30
0
 42
0.003821151985112906
  0
VERTEX
  8
1
 10
184.3201443044486
 20
-65.06928252031534
 30
0
 42
0.01905454522344107
  0
VERTEX
  8
1
 10
184.7599749996817
 20
-65.19822537332973
 30
0
 42
0.03553333715124234
  0
VERTEX
  8
1
 10
185.2028011254895
 20
-65.27691144469449
 30
0
 42
0.05221538657034443
  0
VERTEX
  8
1
 10
185.6499824490345
 20
-65.27661290542724
 30
0
 42
0.06393436437291356
  0
VERTEX
  8
1
 10
186.1028787374796
 20
-65.16860192654555
 30
0
 42
0.06434829735609816
  0
VERTEX
  8
1
 10
186.5628497579875
 20
-64.92415067906703
 30
0
  0
SEQEND
  8
1
  0
POLYLINE
  8
1
 62
2
 66
1
  0
VERTEX
  8
1
 10
190.2109810522375
 20
-65.17263029754832
 30
0
 42
-0.05566190048854952
  0
VERTEX
  8
1
 10
190.6679172140045
 20
-64.84899141060241
 30
0
 42
-0.06295822212506488
  0
VERTEX
  8
1
 10
191.118330436207
 20
-64.67619054488377
 30
0
 42
-0.05872434221014747
  0
VERTEX
  8
1
 10
191.5635804860079
 20
-64.62549987141
 30
0
 42
-0.04454383398460945
  0
VERTEX
  8
1
 10
192.0050271305697
 20
-64.66819156119868
 30
0
 42
-0.02739308965895521
  0
VERTEX
  8
1
 10
192.4440301370553
 20
-64.77553778526742
 30
0
 42
-0.01122505936938718
  0
VERTEX
  8
1
 10
192.8819492726274
 20
-64.91881071463378
 30
0
 42
0.003821151985112906
  0
VERTEX
  8
1
 10
193.3201443044486
 20
-65.06928252031534
 30
0
 42
0.01905454522344107
  0
VERTEX
  8
1
 10
193.7599749996817
 20
-65.19822537332973
 30
0
 42
0.03553333715124234
  0
VERTEX
  8
1
 10
194.2028011254895
 20
-65.27691144469449
 30
0
 42
0.05221538657033788
  0
VERTEX
  8
1
 10
194.6499824490345
 20
-65.27661290542724
 30
0
 42
0.06393436437289271
  0
VERTEX
  8
1
 10
195.1028787374796
 20
-65.16860192654555
 30
0
 42
0.06434829735609816
  0
VERTEX
  8
1
 10
195.5628497579875
 20
-64.92415067906703
 30
0
  0
SEQEND
  8
1
  0
POLYLINE
  8
1
 62
2
 66
1
  0
VERTEX
  8
1
 10
19.16682686006698
 20
-67.07049970984389
 30
0
 42
-0.001023221903845308
  0
VERTEX
  8
1
 10
19.49872804953581
 20
-67.20164774732994
 30
0
 42
0.006994457869078819
  0
VERTEX
  8
1
 10
19.83207551825936
 20
-67.32879061701634
 30
0
 42
0.01531085785022947
  0
VERTEX
  8
1
 10
20.16738094879872
 20
-67.43984020943179
 30
0
 42
0.02425224176116692
  0
VERTEX
  8
1
 10
20.50515602371494
 20
-67.52270841510502
 30
0
 42
0.03365405511925262
  0
VERTEX
  8
1
 10
20.8459124255691
 20
-67.56530712456468
 30
0
 42
0.04240401053440564
  0
VERTEX
  8
1
 10
21.19016183692227
 20
-67.55554822833953
 30
0
 42
0.04832798665500236
  0
VERTEX
  8
1
 10
21.53841594033551
 20
-67.48134361695821
 30
0
 42
0.04935028005129099
  0
VERTEX
  8
1
 10
21.8911864183699
 20
-67.33060518094948
 30
0
 42
0.04541701507417086
  0
VERTEX
  8
1
 10
22.2489849535865
 20
-67.09124481084199
 30
0
  0
SEQEND
  8
1
  0
POLYLINE
  8
1
 62
2
 66
1
  0
VERTEX
  8
1
 10
16.41024856359155
 20
-67.41865058972019
 30
0
 42
-0.0362259033624654
  0
VERTEX
  8
1
 10
16.72237752186637
 20
-67.14006920866657
 30
0
 42
-0.04227366201924326
  0
VERTEX
  8
1
 10
17.03211947945231
 20
-66.94334734567693
 30
0
 42
-0.04583108156688154
  0
VERTEX
  8
1
 10
17.3398714565494
 20
-66.81910570193344
 30
0
 42
-0.04510886684025841
  0
VERTEX
  8
1
 10
17.64603047335765
 20
-66.75796497861829
 30
0
 42
-0.04002588997107948
  0
VERTEX
  8
1
 10
17.95099355007709
 20
-66.75054587691366
 30
0
 42
-0.03225941781404149
  0
VERTEX
  8
1
 10
18.25515770690772
 20
-66.78746909800172
 30
0
 42
-0.02374922451804596
  0
VERTEX
  8
1
 10
18.55891996404957
 20
-66.85935534306468
 30
0
 42
-0.01562191534408352
  0
VERTEX
  8
1
 10
18.86267734170265
 20
-66.95682531328467
 30
0
 42
-0.008173877235354597
  0
VERTEX
  8
1
 10
19.16682686006698
 20
-67.07049970984389
 30
0
  0
SEQEND
  8
1
  0
POLYLINE
  8
1
 62
2
 66
1
  0
VERTEX
  8
1
 10
181.2109810522375
 20
-61.63767982347509
 30
0
 42
-0.05566190048858894
  0
VERTEX
  8
1
 10
181.6679172140045
 20
-61.31404093652917
 30
0
 42
-0.06295822212507807
  0
VERTEX
  8
1
 10
182.118330436207
 20
-61.14124007081053
 30
0
 42
-0.05872434221014747
  0
VERTEX
  8
1
 10
182.5635804860079
 20
-61.09054939733677
 30
0
 42
-0.04454383398457119
  0
VERTEX
  8
1
 10
183.0050271305697
 20
-61.13324108712546
 30
0
 42
-0.02739308965904818
  0
VERTEX
  8
1
 10
183.4440301370553
 20
-61.24058731119418
 30
0
 42
-0.01122505936935431
  0
VERTEX
  8
1
 10
183.8819492726274
 20
-61.38386024056055
 30
0
 42
0.003821151985127459
  0
VERTEX
  8
1
 10
184.3201443044486
 20
-61.53433204624211
 30
0
 42
0.01905454522348507
  0
VERTEX
  8
1
 10
184.7599749996817
 20
-61.66327489925651
 30
0
 42
0.03553333715121125
  0
VERTEX
  8
1
 10
185.2028011254895
 20
-61.74196097062128
 30
0
 42
0.05221538657031276
  0
VERTEX
  8
1
 10
185.6499824490345
 20
-61.74166243135402
 30
0
 42
0.06393436437294396
  0
VERTEX
  8
1
 10
186.1028787374796
 20
-61.63365145247232
 30
0
 42
0.06434829735611013
  0
VERTEX
  8
1
 10
186.5628497579875
 20
-61.38920020499379
 30
0
  0
SEQEND
  8
1
  0
POLYLINE
  8
1
 62
2
 66
1
  0
VERTEX
  8
1
 10
190.2109810522375
 20
-61.63767982347509
 30
0
 42
-0.05566190048855806
  0
VERTEX
  8
1
 10
190.6679172140045
 20
-61.31404093652917
 30
0
 42
-0.06295822212510441
  0
VERTEX
  8
1
 10
191.118330436207
 20
-61.14124007081053
 30
0
 42
-0.05872434221014747
  0
VERTEX
  8
1
 10
191.5635804860079
 20
-61.09054939733677
 30
0
 42
-0.04454383398457735
  0
VERTEX
  8
1
 10
192.0050271305697
 20
-61.13324108712546
 30
0
 42
-0.02739308965904818
  0
VERTEX
  8
1
 10
192.4440301370553
 20
-61.24058731119418
 30
0
 42
-0.0112250593693723
  0
VERTEX
  8
1
 10
192.8819492726274
 20
-61.38386024056055
 30
0
 42
0.003821151985127459
  0
VERTEX
  8
1
 10
193.3201443044486
 20
-61.53433204624211
 30
0
 42
0.01905454522348507
  0
VERTEX
  8
1
 10
193.7599749996817
 20
-61.66327489925651
 30
0
 42
0.03553333715121125
  0
VERTEX
  8
1
 10
194.2028011254895
 20
-61.74196097062128
 30
0
 42
0.05221538657030623
  0
VERTEX
  8
1
 10
194.6499824490345
 20
-61.74166243135402
 30
0
 42
0.06393436437292313
  0
VERTEX
  8
1
 10
195.1028787374796
 20
-61.63365145247232
 30
0
 42
0.06434829735611013
  0
VERTEX
  8
1
 10
195.5628497579875
 20
-61.38920020499379
 30
0
  0
SEQEND
  8
1
  0
ARC
  8
1
 62
7
 10
206.5926164733342
 20
15.2375307339511
 30
0
 40
2.400000000000006
 50
0
 51
90
  0
ARC
  8
1
 62
7
 10
206.5926164733342
 20
-39.16246926604891
 30
0
 40
2.399999999999992
 50
270
 51
0
  0
ARC
  8
1
 62
7
 10
169.0926164733342
 20
-39.21120660757806
 30
0
 40
1
 50
270
 51
0
  0
ARC
  8
1
 62
7
 10
169.0926164733342
 20
-34.21120660757806
 30
0
 40
1
 50
0
 51
90
  0
ARC
  8
1
 62
7
 10
169.0926164733342
 20
15.28626807548026
 30
0
 40
1
 50
0
 51
90
  0
ARC
  8
1
 62
7
 10
169.0926164733342
 20
10.28626807548026
 30
0
 40
1
 50
270
 51
0
  0
ARC
  8
1
 62
7
 10
-15.833173139933
 20
-46.9624692660489
 30
0
 40
4.499999999999998
 50
180
 51
270
  0
ARC
  8
1
 62
7
 10
-15.833173139933
 20
23.0375307339511
 30
0
 40
4.5
 50
90
 51
180
  0
ARC
  8
1
 62
7
 10
54.166826860067
 20
23.0375307339511
 30
0
 40
4.5
 50
0
 51
90
  0
ARC
  8
1
 62
7
 10
54.166826860067
 20
-46.9624692660489
 30
0
 40
4.5
 50
270
 51
0
  0
LINE
  8
1
 62
2
 10
176.545058122645
 20
42.5231929972649
 30
0
 11
165.7926164733342
 21
42.5231929972649
 31
0
  0
SOLID
  8
1
 62
2
 10
169.2926164733342
 20
42.98397673882079
 30
0
 11
169.2926164733342
 21
42.06240925570901
 31
0
 12
165.7926164733342
 22
42.5231929972649
 32
0
 13
165.7926164733342
 23
42.5231929972649
 33
0
  0
LINE
  8
1
 62
2
 10
1.676811527498642
 20
-20.56378261687216
 30
0
 11
61.34259377644305
 21
8.778906894069397
 31
0
  0
SOLID
  8
1
 62
2
 10
58.40519174888478
 20
6.820848931449598
 30
0
 11
57.99849860369
 21
7.647823726458817
 31
0
 12
61.34259377644305
 22
8.778906894069397
 32
0
 13
61.34259377644305
 23
8.778906894069397
 33
0
  0
LINE
  8
1
 62
2
 10
123.3607637361119
 20
42.4096096489226
 30
0
 11
152.680023274076
 21
-8.962469266048901
 31
0
  0
SOLID
  8
1
 62
2
 10
150.5449588235834
 20
-6.151095678507618
 30
0
 11
151.3453464079074
 21
-5.694295568186979
 31
0
 12
152.680023274076
 22
-8.962469266048901
 32
0
 13
152.680023274076
 23
-8.962469266048901
 33
0
  0
TEXT
  8
1
 62
2
 10
166.953978393302
 20
43.9874659804576
 30
0
 40
3.5
  1
6.5
 41
0.9
 72
1
 73
2
 11
171.678978393302
 21
45.7374659804576
 31
0
  0
TEXT
  8
1
 62
2
 10
87.80739632611939
 20
72.38996394876089
 30
0
 40
3.5
  1
âsâjâIâôÄdùl
 41
0.9
 72
1
 73
2
 11
106.7073963261194
 21
74.13996394876089
 31
0
  0
TEXT
  8
1
 62
2
 10
81.63151057652371
 20
65.06248228836419
 30
0
 40
3.5
  1
âéâWâàü[âï
 41
0.9
 72
1
 73
2
 11
97.38151057652371
 21
66.81248228836419
 31
0
  0
TEXT
  8
1
 62
2
 10
86.46601424444442
 20
58.1346814458074
 30
0
 40
3.5
  1
ê%%dù═èp
 41
0.9
 72
1
 73
2
 11
95.91601424444443
 21
59.8846814458074
 31
0
  0
TEXT
  8
1
 62
2
 10
87.77456036588451
 20
51.34010754253049
 30
0
 40
3.5
  1
Äò Éö
 41
0.9
 72
1
 73
2
 11
95.64956036588451
 21
53.09010754253049
 31
0
  0
TEXT
  8
1
 62
2
 10
87.90778730516442
 20
44.0126258821338
 30
0
 40
3.5
  1
èO îa
 41
0.9
 72
1
 73
2
 11
95.78278730516442
 21
45.7626258821338
 31
0
  0
TEXT
  8
1
 62
2
 10
110.7753743185954
 20
65.3289361669241
 30
0
 40
3.5
  1
0.4
 41
0.9
 72
1
 73
2
 11
115.5003743185954
 21
67.0789361669241
 31
0
  0
TEXT
  8
1
 62
2
 10
107.6253743185954
 20
58.800816142207
 30
0
 40
3.5
  1
20%%d
 41
0.9
 72
1
 73
2
 11
115.5003743185954
 21
60.550816142207
 31
0
  0
TEXT
  8
1
 62
2
 10
111.8174665614757
 20
51.4733344818104
 30
0
 40
3.5
  1
13
 41
0.9
 72
1
 73
2
 11
114.9674665614757
 21
53.2233344818104
 31
0
  0
TEXT
  8
1
 62
2
 10
109.3336012578754
 20
44.2790797606937
 30
0
 40
3.5
  1
â%%déU
 41
0.9
 72
1
 73
2
 11
115.6336012578754
 21
46.0290797606937
 31
0
  0
TEXT
  8
1
 62
2
 10
85.19839457407613
 20
-133.9299944660486
 30
0
 40
4.5
  1
SR60-8HP
 41
0.9
  0
DIMENSION
  8
1
  6
CONTINUOUS
 62
2
  2
*D0
  3
DMST_1
 10
225.75
 20
-108.5312592470521
 30
0
 11
222.35
 21
-76.54686425655051
 31
0
 12
0
 22
0
 32
0
 70
0
  1
200
 13
196.8926164733342
 23
-44.5624692660489
 33
0
 14
194.0176164733342
 24
-108.5312592470521
 34
0
 50
90
 53
0
  0
DIMENSION
  8
1
  6
CONTINUOUS
 62
2
  2
*D1
  3
DMST_2
 10
215.75
 20
-98.53125924705211
 30
0
 11
213.15
 21
-91.709983355329
 31
0
 12
0
 22
0
 32
0
 70
0
 13
194.0176164733342
 23
-108.5312592470521
 33
0
 14
194.6426164733342
 24
-98.53125924705211
 34
0
 50
90
 53
0
  0
DIMENSION
  8
1
  6
CONTINUOUS
 62
2
  2
*D2
  3
DMST_3
 10
208.9926164733342
 20
42.5375307339511
 30
0
 11
199.9663039536952
 21
46.2875307339511
 31
0
 12
0
 22
0
 32
0
 70
0
  1
(<>
 13
210.4926164733342
 23
-8.962469266048901
 33
0
 14
208.9926164733342
 24
15.2375307339511
 34
0
 53
0
  0
DIMENSION
  8
1
  6
CONTINUOUS
 62
2
  2
*D3
  3
DMST_4
 10
225.75
 20
-41.5624692660489
 30
0
 11
222
 21
-11.9624692660489
 31
0
 12
0
 22
0
 32
0
 70
0
  1
%%c<>
 13
206.5926164733342
 23
17.6375307339511
 33
0
 14
206.5926164733342
 24
-41.5624692660489
 34
0
 50
90
 53
0
  0
DIMENSION
  8
1
  6
CONTINUOUS
 62
2
  2
*D4
  3
DMST_5
 10
-20.333173139933
 20
42.5375307339511
 30
0
 11
19.068541341978
 21
46.1375307339511
 31
0
 12
0
 22
0
 32
0
 70
0
  1
üá<>
 13
58.666826860067
 23
23.0375307339511
 33
0
 14
-20.333173139933
 24
23.0375307339511
 34
0
 53
0
  0
DIMENSION
  8
1
  6
CONTINUOUS
 62
2
  2
*D5
  3
DMST_6
 10
159.2926164733342
 20
52.5375307339511
 30
0
 11
154.062167917952
 21
56.1375307339511
 31
0
 12
0
 22
0
 32
0
 70
0
 13
147.2926164733342
 23
-8.962469266048901
 33
0
 14
159.2926164733342
 24
27.5375307339511
 34
0
 53
0
  0
DIMENSION
  8
1
  6
CONTINUOUS
 62
2
  2
*D6
  3
DMST_7
 10
159.2926164733342
 20
52.5375307339511
 30
0
 11
184.4542569374935
 21
56.1375307339511
 31
0
 12
0
 22
0
 32
0
 70
0
  1
50
 13
210.4926164733342
 23
-8.962469266048901
 33
0
 14
159.2926164733342
 24
27.5375307339511
 34
0
 53
0
  0
DIMENSION
  8
1
  6
CONTINUOUS
 62
2
  2
*D7
  3
DMST_8
 10
157.2926164733343
 20
42.5375307339511
 30
0
 11
152.7091495249519
 21
46.1375307339511
 31
0
 12
0
 22
0
 32
0
 70
0
 13
159.2926164733342
 23
27.5375307339511
 33
0
 14
157.2926164733342
 24
24.23753073395109
 34
0
 53
0
  0
DIMENSION
  8
1
  6
CONTINUOUS
 62
2
  2
*D8
  3
DMST_9
 10
132.2926164733342
 20
24.5375307339511
 30
0
 11
127.8926164733342
 21
-11.7041888193467
 31
0
 12
0
 22
0
 32
0
 70
0
  1
73h7
 13
157.5926164733342
 23
-48.4624692660489
 33
0
 14
157.5926164733342
 24
24.5375307339511
 34
0
 50
90
 53
0
  0
DIMENSION
  8
1
  6
CONTINUOUS
 62
2
  2
*D9
  3
DMST_10
 10
-23.00894085380447
 20
-32.70384380453012
 30
0
 11
37.63857852259311
 21
0.725557678197349
 31
0
 12
0
 22
0
 32
0
 70
3
 15
61.34259457393848
 25
8.778905272432326
 35
0
 40
0
 53
0
  0
DIMENSION
  8
1
  6
CONTINUOUS
 62
2
  2
*D10
  3
DMST_11
 10
-13.01975042346954
 20
-42.65377949556707
 30
0
 11
-13.9289370386103
 21
-77.5229574402818
 31
0
 12
0
 22
0
 32
0
 70
3
  1
4-%%c<>
 15
-15.11463328793192
 25
-47.73919646806617
 35
0
 40
0
 53
0
  0
ENDSEC
  0
EOF
