  0
SECTION
  2
HEADER
  9
$ACADVER
  1
AC1009
  9
$INSBASE
 10
0
 20
0
  9
$EXTMIN
 10
21.20572190522626
 20
102.240563061942
  9
$EXTMAX
 10
246
 20
227.1999999999998
  9
$LIMMIN
 10
21.20572190522626
 20
102.240563061942
  9
$LIMMAX
 10
246
 20
227.1999999999998
  9
$VIEWCTR
 10
10
 20
10
  9
$VIEWSIZE
 40
10
  9
$SNAPMODE
 70
0
  9
$SNAPUNIT
 10
1
 20
1
  9
$SNAPBASE
 10
0
 20
0
  9
$SNAPANG
 50
0
  9
$SNAPSTYLE
 70
0
  9
$SNAPISOPAIR
 70
0
  9
$GRIDMODE
 70
0
  9
$GRIDUNIT
 10
0
 20
0
  9
$ORTHOMODE
 70
0
  9
$REGENMODE
 70
1
  9
$FILLMODE
 70
1
  9
$QTEXTMODE
 70
0
  9
$DRAGMODE
 70
2
  9
$LTSCALE
 40
1
  9
$OSMODE
 70
0
  9
$ATTMODE
 70
1
  9
$TEXTSIZE
 40
3.5
  9
$TRACEWID
 40
0.5
  9
$TEXTSTYLE
  7
STANDARD
  9
$CLAYER
  8
0
  9
$CELTYPE
  6
BYLAYER
  9
$CECOLOR
 62
256
  9
$DIMSCALE
 40
1
  9
$DIMASZ
 40
0.18
  9
$DIMEXO
 40
0.0625
  9
$DIMDLI
 40
0.38
  9
$DIMRND
 40
0
  9
$DIMDLE
 40
0
  9
$DIMEXE
 40
0.18
  9
$DIMTP
 40
0
  9
$DIMTM
 40
0
  9
$DIMTXT
 40
0.18
  9
$DIMCEN
 40
0.09
  9
$DIMTSZ
 40
0
  9
$DIMTOL
 70
0
  9
$DIMLIM
 70
0
  9
$DIMTIH
 70
1
  9
$DIMTOH
 70
1
  9
$DIMSE1
 70
0
  9
$DIMSE2
 70
0
  9
$DIMTAD
 70
0
  9
$DIMZIN
 70
0
  9
$DIMBLK
  1

  9
$DIMASO
 70
1
  9
$DIMSHO
 70
1
  9
$DIMPOST
  1

  9
$DIMAPOST
  1

  9
$DIMALT
 70
0
  9
$DIMALTD
 70
2
  9
$DIMALTF
 40
25.4
  9
$DIMLFAC
 40
1
  9
$DIMTOFL
 70
0
  9
$DIMTVP
 40
0
  9
$DIMTIX
 70
0
  9
$DIMSOXD
 70
0
  9
$DIMSAH
 70
0
  9
$DIMBLK1
  1

  9
$DIMBLK2
  1

  9
$DIMSTYLE
  2
*UNNAMED
  9
$DIMCLRD
 70
0
  9
$DIMCLRE
 70
0
  9
$DIMCLRT
 70
0
  9
$DIMTFAC
 40
1
  9
$DIMGAP
 40
0.09
  9
$LUNITS
 70
2
  9
$LUPREC
 70
4
  9
$AXISMODE
 70
0
  9
$AXISUNIT
 10
0
 20
0
  9
$SKETCHINC
 40
0.1
  9
$FILLETRAD
 40
2
  9
$AUNITS
 70
0
  9
$AUPREC
 70
0
  9
$MENU
  1
ACAD
  9
$ELEVATION
 40
0
  9
$THICKNESS
 40
0
  9
$VIEWDIR
 10
0
 20
0
 30
1
  9
$LIMCHECK
 70
0
  9
$BLIPMODE
 70
1
  9
$CHAMFERA
 40
0
  9
$CHAMFERB
 40
0
  9
$FASTZOOM
 70
1
  9
$SKPOLY
 70
0
  9
$ANGBASE
 50
0
  9
$ANGDIR
 70
0
  9
$PDMODE
 70
0
  9
$PDSIZE
 40
0
  9
$PLINEWID
 40
0
  9
$COORDS
 70
2
  0
ENDSEC
  0
SECTION
  2
TABLES
  0
TABLE
  2
DIMSTYLE
 70
10
  0
DIMSTYLE
  2
DMST_1
 70
0
  3

  4

  5

  6

  7

 40
1
 41
3.2
 42
1
 43
7
 44
1
 45
0
 46
0
 47
0
 48
0
140
3.2
141
0
142
0
143
25.4
144
1
145
0
146
1
147
0.09
 71
0
 72
0
 73
0
 74
0
 75
0
 76
0
 77
1
 78
9
170
0
171
2
172
0
173
0
174
0
175
0
176
3
177
3
178
2
  0
DIMSTYLE
  2
DMST_2
 70
0
  3
ü}0.2
  4

  5

  6

  7

 40
1
 41
3.2
 42
1
 43
7
 44
1
 45
0
 46
0
 47
0
 48
0
140
3.2
141
0
142
0
143
25.4
144
1
145
0
146
1
147
0.09
 71
0
 72
0
 73
0
 74
0
 75
0
 76
0
 77
1
 78
9
170
0
171
2
172
0
173
0
174
0
175
0
176
3
177
3
178
2
  0
DIMSTYLE
  2
DMST_3
 70
0
  3
ê╚ë║
  4

  5

  6

  7

 40
1
 41
3.2
 42
1
 43
7
 44
1
 45
0
 46
0
 47
0
 48
0
140
3.2
141
0
142
0
143
25.4
144
1
145
0
146
1
147
0.09
 71
0
 72
0
 73
0
 74
0
 75
0
 76
0
 77
1
 78
9
170
0
171
2
172
0
173
0
174
0
175
0
176
3
177
3
178
2
  0
DIMSTYLE
  2
DMST_4
 70
0
  3

  4

  5

  6
DOT
  7

 40
1
 41
1.6
 42
1
 43
7
 44
1
 45
0
 46
0
 47
0
 48
0
140
3.2
141
0
142
0
143
25.4
144
1
145
0
146
1
147
0.09
 71
0
 72
0
 73
0
 74
0
 75
0
 76
0
 77
1
 78
9
170
0
171
2
172
0
173
1
174
0
175
0
176
3
177
3
178
2
  0
DIMSTYLE
  2
DMST_5
 70
0
  3
ü}0.1
  4

  5

  6

  7

 40
1
 41
3.2
 42
1
 43
7
 44
1
 45
0
 46
0
 47
0
 48
0
140
3.2
141
0
142
0
143
25.4
144
1
145
0
146
1
147
0.09
 71
0
 72
0
 73
0
 74
0
 75
0
 76
0
 77
1
 78
9
170
0
171
2
172
0
173
0
174
0
175
0
176
3
177
3
178
2
  0
DIMSTYLE
  2
DMST_6
 70
0
  3

  4

  5

  6

  7

 40
1
 41
3.2
 42
1
 43
7
 44
1
 45
0
 46
0
 47
0
 48
0.02
140
3.2
141
0
142
0
143
25.4
144
1
145
0
146
0.6
147
0.09
 71
1
 72
0
 73
0
 74
0
 75
0
 76
0
 77
1
 78
9
170
0
171
2
172
0
173
0
174
0
175
0
176
3
177
3
178
2
  0
DIMSTYLE
  2
DMST_7
 70
0
  3

  4

  5

  6

  7

 40
1
 41
3.2
 42
1
 43
7
 44
1
 45
0
 46
0
 47
0
 48
0.05
140
3.2
141
0
142
0
143
25.4
144
1
145
0
146
0.6
147
0.09
 71
1
 72
0
 73
0
 74
0
 75
0
 76
0
 77
1
 78
9
170
0
171
2
172
0
173
0
174
0
175
0
176
3
177
3
178
2
  0
DIMSTYLE
  2
DMST_8
 70
0
  3

  4

  5

  6

  7

 40
1
 41
3.2
 42
1
 43
7
 44
1.5
 45
0
 46
0
 47
0
 48
0
140
3.2
141
0
142
0
143
25.4
144
1
145
0
146
1
147
0.09
 71
0
 72
0
 73
0
 74
0
 75
0
 76
0
 77
1
 78
9
170
0
171
2
172
0
173
0
174
0
175
0
176
3
177
3
178
2
  0
DIMSTYLE
  2
DMST_9
 70
0
  3
ê╚ë║
  4

  5

  6

  7

 40
1
 41
3.2
 42
1
 43
7
 44
1.5
 45
0
 46
0
 47
0
 48
0
140
3.2
141
0
142
0
143
25.4
144
1
145
0
146
1
147
0.09
 71
0
 72
0
 73
1
 74
1
 75
0
 76
0
 77
1
 78
9
170
0
171
2
172
1
173
0
174
0
175
0
176
3
177
3
178
2
  0
DIMSTYLE
  2
DMST_10
 70
0
  3
ü}0.1îè
  4

  5

  6

  7

 40
1
 41
3.2
 42
1
 43
7
 44
1
 45
0
 46
0
 47
0
 48
0
140
3.2
141
0
142
0
143
25.4
144
1
145
0
146
1
147
0.09
 71
0
 72
0
 73
1
 74
1
 75
0
 76
0
 77
1
 78
9
170
0
171
2
172
0
173
0
174
0
175
0
176
3
177
3
178
2
  0
ENDTAB
  0
TABLE
  2
LTYPE
 70
9
  0
LTYPE
  2
CONTINUOUS
 70
64
  3
Solid line
 72
65
 73
0
 40
0
  0
LTYPE
  2
BORDER
 70
64
  3
__ __ . __ __ .
 72
65
 73
6
 40
10.35236807015405
 49
2.957819448615444
 49
-1.478909724307722
 49
2.957819448615444
 49
-1.478909724307722
 49
0
 49
-1.478909724307722
  0
LTYPE
  2
CENTER
 70
64
  3
____ _ ____ _
 72
65
 73
4
 40
11.83127779446178
 49
7.39454862153861
 49
-1.478909724307722
 49
1.478909724307722
 49
-1.478909724307722
  0
LTYPE
  2
DASHDOT
 70
64
  3
__ . __ . __ .
 72
65
 73
4
 40
5.915638897230888
 49
2.957819448615444
 49
-1.478909724307722
 49
0
 49
-1.478909724307722
  0
LTYPE
  2
DASHED
 70
64
  3
__ __ __ __ __
 72
65
 73
2
 40
4.436729172923166
 49
2.957819448615444
 49
-1.478909724307722
  0
LTYPE
  2
DIVIDE
 70
64
  3
__ . . __ . . 
 72
65
 73
6
 40
7.39454862153861
 49
2.957819448615444
 49
-1.478909724307722
 49
0
 49
-1.478909724307722
 49
0
 49
-1.478909724307722
  0
LTYPE
  2
DOT
 70
64
  3
..............
 72
65
 73
4
 40
2.957819448615444
 49
0
 49
-1.478909724307722
 49
0
 49
-1.478909724307722
  0
LTYPE
  2
HIDDEN
 70
64
  3
_ _ _ _ _ _ _
 72
65
 73
2
 40
2.218364586461583
 49
1.478909724307722
 49
-0.739454862153861
  0
LTYPE
  2
PHANTOM
 70
64
  3
_____ _ _ _____ _ _ 
 72
65
 73
6
 40
14.78909724307722
 49
7.39454862153861
 49
-1.478909724307722
 49
1.478909724307722
 49
-1.478909724307722
 49
1.478909724307722
 49
-1.478909724307722
  0
ENDTAB
  0
TABLE
  2
LAYER
 70
3
  0
LAYER
  2
1
 70
0
 62
7
  6
CONTINUOUS
  0
LAYER
  2
0
 70
0
 62
7
  6
CONTINUOUS
  0
ENDTAB
  0
TABLE
  2
STYLE
 70
4
  0
STYLE
  2
STANDARD
 70
0
 40
0
 41
1
 50
0
 71
0
 42
3.5
  3
txt
  4

  0
STYLE
  2
SIMPLEX
 70
0
 40
0
 41
1
 50
0
 71
0
 42
3.5
  3
simplex
  4

  0
STYLE
  2
COMPLEX
 70
0
 40
0
 41
1
 50
0
 71
0
 42
3.5
  3
complex
  4

  0
STYLE
  2
ITALIC
 70
0
 40
0
 41
1
 50
0
 71
0
 42
3.5
  3
italic
  4

  0
ENDTAB
  0
TABLE
  2
VIEW
 70
0
  0
ENDTAB
  0
ENDSEC
  0
SECTION
  2
BLOCKS
  0
BLOCK
  8
1
  2
*D0
 70
1
 10
0
 20
0
 30
0
  0
LINE
  8
1
 62
3
 10
118.660322433404
 20
175.9999999999998
 30
0
 11
118.660322433404
 21
185.9999999999998
 31
0
  0
LINE
  8
1
 62
3
 10
118.660322433404
 20
185.9999999999998
 30
0
 11
118.660322433404
 21
204.3743686014125
 31
0
  0
LINE
  8
1
 62
3
 10
112.7679856115111
 20
175.9999999999998
 30
0
 11
119.660322433404
 21
175.9999999999998
 31
0
  0
LINE
  8
1
 62
3
 10
93.58630456086709
 20
185.9999999999998
 30
0
 11
119.660322433404
 21
185.9999999999998
 31
0
  0
SOLID
  8
1
 62
3
 10
118.660322433404
 20
175.9999999999998
 30
0
 11
118.244322433404
 21
179.1999999999998
 31
0
 12
119.076322433404
 22
179.1999999999998
 32
0
 13
119.076322433404
 23
179.1999999999998
 33
0
  0
SOLID
  8
1
 62
3
 10
118.660322433404
 20
185.9999999999998
 30
0
 11
119.076322433404
 21
182.7999999999998
 31
0
 12
118.244322433404
 22
182.7999999999998
 32
0
 13
118.244322433404
 23
182.7999999999998
 33
0
  0
TEXT
  8
1
 62
2
 10
117.660322433404
 20
189.1696627190595
 30
0
 40
3.2
  1
10
 50
90
 41
0.9
  0
TEXT
  8
1
 62
2
 10
117.660322433404
 20
194.6096627190595
 30
0
 40
3.2
  1
ü}0.2
 50
90
 41
0.9
  0
ENDBLK
  8
0
  0
BLOCK
  8
1
  2
*D1
 70
1
 10
0
 20
0
 30
0
  0
LINE
  8
1
 62
3
 10
229
 20
120.9999999999998
 30
0
 11
229
 21
127.3999999999998
 31
0
  0
LINE
  8
1
 62
3
 10
229
 20
113.9999999999998
 30
0
 11
229
 21
107.5999999999998
 31
0
  0
LINE
  8
1
 62
3
 10
229
 20
113.9999999999998
 30
0
 11
229
 21
120.9999999999998
 31
0
  0
LINE
  8
1
 62
3
 10
223.5
 20
120.9999999999998
 30
0
 11
230
 21
120.9999999999998
 31
0
  0
LINE
  8
1
 62
3
 10
214.75
 20
113.9999999999998
 30
0
 11
230
 21
113.9999999999998
 31
0
  0
SOLID
  8
1
 62
3
 10
229
 20
113.9999999999998
 30
0
 11
229.416
 21
110.7999999999998
 31
0
 12
228.584
 22
110.7999999999998
 32
0
 13
228.584
 23
110.7999999999998
 33
0
  0
SOLID
  8
1
 62
3
 10
229
 20
120.9999999999998
 30
0
 11
228.584
 21
124.1999999999998
 31
0
 12
229.416
 22
124.1999999999998
 32
0
 13
229.416
 23
124.1999999999998
 33
0
  0
TEXT
  8
1
 62
2
 10
228
 20
116.668170841143
 30
0
 40
3.2
  1
7
 50
90
 41
0.9
  0
TEXT
  8
1
 62
2
 10
228
 20
114.588170841143
 30
0
 40
3.2
  1
(
 50
90
 41
0.9
  0
TEXT
  8
1
 62
2
 10
228
 20
120.188170841143
 30
0
 40
3.2
  1
)
 50
90
 41
0.9
  0
ENDBLK
  8
0
  0
BLOCK
  8
1
  2
*D2
 70
1
 10
0
 20
0
 30
0
  0
LINE
  8
1
 62
3
 10
237
 20
113.9999999999998
 30
0
 11
237
 21
158.9999999999998
 31
0
  0
LINE
  8
1
 62
3
 10
221.75
 20
158.9999999999998
 30
0
 11
238
 21
158.9999999999998
 31
0
  0
LINE
  8
1
 62
3
 10
214.75
 20
113.9999999999998
 30
0
 11
238
 21
113.9999999999998
 31
0
  0
SOLID
  8
1
 62
3
 10
237
 20
113.9999999999998
 30
0
 11
236.584
 21
117.1999999999998
 31
0
 12
237.416
 22
117.1999999999998
 32
0
 13
237.416
 23
117.1999999999998
 33
0
  0
SOLID
  8
1
 62
3
 10
237
 20
158.9999999999998
 30
0
 11
237.416
 21
155.7999999999998
 31
0
 12
236.584
 22
155.7999999999998
 32
0
 13
236.584
 23
155.7999999999998
 33
0
  0
TEXT
  8
1
 62
2
 10
235.2
 20
127.1519999999998
 30
0
 40
3.2
  1
300
 50
90
 41
0.9
  0
TEXT
  8
1
 62
2
 10
233.12
 20
136.4319999999998
 30
0
 40
1.92
  1
+40
 50
90
 41
0.9
  0
TEXT
  8
1
 62
2
 10
236
 20
136.4319999999998
 30
0
 40
1.92
  1
 0
 50
90
 41
0.9
  0
ENDBLK
  8
0
  0
BLOCK
  8
1
  2
*D3
 70
1
 10
0
 20
0
 30
0
  0
LINE
  8
1
 62
3
 10
64.5000000000001
 20
221.9999999999998
 30
0
 11
107.5000000000001
 21
221.9999999999998
 31
0
  0
LINE
  8
1
 62
3
 10
107.5000000000001
 20
194.9999999999998
 30
0
 11
107.5000000000001
 21
222.9999999999998
 31
0
  0
LINE
  8
1
 62
3
 10
64.5000000000001
 20
194.9999999999998
 30
0
 11
64.5000000000001
 21
222.9999999999998
 31
0
  0
SOLID
  8
1
 62
3
 10
64.5000000000001
 20
221.9999999999998
 30
0
 11
67.7000000000001
 21
222.4159999999998
 31
0
 12
67.7000000000001
 22
221.5839999999998
 32
0
 13
67.7000000000001
 23
221.5839999999998
 33
0
  0
SOLID
  8
1
 62
3
 10
107.5000000000001
 20
221.9999999999998
 30
0
 11
104.3000000000001
 21
221.5839999999998
 31
0
 12
104.3000000000001
 22
222.4159999999998
 32
0
 13
104.3000000000001
 23
222.4159999999998
 33
0
  0
TEXT
  8
1
 62
2
 10
83.60000000000009
 20
223.9999999999998
 30
0
 40
3.2
  1
43
 41
0.9
  0
ENDBLK
  8
0
  0
BLOCK
  8
1
  2
*D4
 70
1
 10
0
 20
0
 30
0
  0
LINE
  8
1
 62
3
 10
68.0000000000001
 20
213.9999999999998
 30
0
 11
104.0000000000001
 21
213.9999999999998
 31
0
  0
LINE
  8
1
 62
3
 10
68.0000000000001
 20
196.7499999999998
 30
0
 11
68.0000000000001
 21
214.9999999999998
 31
0
  0
LINE
  8
1
 62
3
 10
104.0000000000001
 20
196.7499999999998
 30
0
 11
104.0000000000001
 21
214.9999999999998
 31
0
  0
SOLID
  8
1
 62
3
 10
104.0000000000001
 20
213.9999999999998
 30
0
 11
100.8000000000001
 21
213.5839999999998
 31
0
 12
100.8000000000001
 22
214.4159999999998
 32
0
 13
100.8000000000001
 23
214.4159999999998
 33
0
  0
SOLID
  8
1
 62
3
 10
68.0000000000001
 20
213.9999999999998
 30
0
 11
71.2000000000001
 21
214.4159999999998
 31
0
 12
71.2000000000001
 22
213.5839999999998
 32
0
 13
71.2000000000001
 23
213.5839999999998
 33
0
  0
TEXT
  8
1
 62
2
 10
77.91764705882363
 20
215.9999999999998
 30
0
 40
3.2
  1
36
 41
0.9
  0
TEXT
  8
1
 62
2
 10
84.31764705882362
 20
215.9999999999998
 30
0
 40
3.2
  1
ü}0.2
 41
0.9
  0
ENDBLK
  8
0
  0
BLOCK
  8
1
  2
*D5
 70
1
 10
0
 20
0
 30
0
  0
LINE
  8
1
 62
3
 10
48.50000000000012
 20
157.9999999999998
 30
0
 11
48.50000000000012
 21
193.9999999999998
 31
0
  0
LINE
  8
1
 62
3
 10
65.2500000000001
 20
157.9999999999998
 30
0
 11
47.50000000000012
 21
157.9999999999998
 31
0
  0
LINE
  8
1
 62
3
 10
65.2500000000001
 20
193.9999999999998
 30
0
 11
47.50000000000012
 21
193.9999999999998
 31
0
  0
SOLID
  8
1
 62
3
 10
48.50000000000012
 20
193.9999999999998
 30
0
 11
48.91600000000012
 21
190.7999999999998
 31
0
 12
48.08400000000012
 22
190.7999999999998
 32
0
 13
48.08400000000012
 23
190.7999999999998
 33
0
  0
SOLID
  8
1
 62
3
 10
48.50000000000012
 20
157.9999999999998
 30
0
 11
48.08400000000012
 21
161.1999999999998
 31
0
 12
48.91600000000012
 22
161.1999999999998
 32
0
 13
48.91600000000012
 23
161.1999999999998
 33
0
  0
TEXT
  8
1
 62
2
 10
46.50000000000012
 20
167.9176470588233
 30
0
 40
3.2
  1
36
 50
90
 41
0.9
  0
TEXT
  8
1
 62
2
 10
46.50000000000012
 20
174.3176470588233
 30
0
 40
3.2
  1
ü}0.2
 50
90
 41
0.9
  0
ENDBLK
  8
0
  0
BLOCK
  8
1
  2
*D6
 70
1
 10
0
 20
0
 30
0
  0
LINE
  8
1
 62
3
 10
40.50000000000011
 20
154.4999999999998
 30
0
 11
40.50000000000011
 21
197.4999999999998
 31
0
  0
LINE
  8
1
 62
3
 10
67.00000000000011
 20
197.4999999999998
 30
0
 11
39.50000000000011
 21
197.4999999999998
 31
0
  0
LINE
  8
1
 62
3
 10
67.00000000000011
 20
154.4999999999998
 30
0
 11
39.50000000000011
 21
154.4999999999998
 31
0
  0
SOLID
  8
1
 62
3
 10
40.50000000000011
 20
197.4999999999998
 30
0
 11
40.91600000000011
 21
194.2999999999998
 31
0
 12
40.08400000000012
 22
194.2999999999998
 32
0
 13
40.08400000000012
 23
194.2999999999998
 33
0
  0
SOLID
  8
1
 62
3
 10
40.50000000000011
 20
154.4999999999998
 30
0
 11
40.08400000000011
 21
157.6999999999998
 31
0
 12
40.91600000000011
 22
157.6999999999998
 32
0
 13
40.91600000000011
 23
157.6999999999998
 33
0
  0
TEXT
  8
1
 62
2
 10
38.50000000000012
 20
173.5999999999998
 30
0
 40
3.2
  1
43
 50
90
 41
0.9
  0
ENDBLK
  8
0
  0
BLOCK
  8
1
  2
*D7
 70
1
 10
0
 20
0
 30
0
  0
LINE
  8
1
 62
3
 10
193.0000000000001
 20
221.9999999999998
 30
0
 11
228
 21
221.9999999999998
 31
0
  0
LINE
  8
1
 62
3
 10
228
 20
194.9999999999998
 30
0
 11
228
 21
222.9999999999998
 31
0
  0
LINE
  8
1
 62
3
 10
193.0000000000001
 20
198.9999999999998
 30
0
 11
193.0000000000001
 21
222.9999999999998
 31
0
  0
SOLID
  8
1
 62
3
 10
193.0000000000001
 20
221.9999999999998
 30
0
 11
196.2000000000001
 21
222.4159999999998
 31
0
 12
196.2000000000001
 22
221.5839999999998
 32
0
 13
196.2000000000001
 23
221.5839999999998
 33
0
  0
SOLID
  8
1
 62
3
 10
228
 20
221.9999999999998
 30
0
 11
224.8
 21
221.5839999999998
 31
0
 12
224.8
 22
222.4159999999998
 32
0
 13
224.8
 23
222.4159999999998
 33
0
  0
TEXT
  8
1
 62
2
 10
205.1279591906058
 20
223.9999999999998
 30
0
 40
3.2
  1
35
 41
0.9
  0
TEXT
  8
1
 62
2
 10
211.5279591906057
 20
223.9999999999998
 30
0
 40
3.2
  1
ê╚ë║
 41
0.9
  0
ENDBLK
  8
0
  0
BLOCK
  8
1
  2
*D8
 70
1
 10
0
 20
0
 30
0
  0
LINE
  8
1
 62
3
 10
198
 20
213.9999999999998
 30
0
 11
204.4
 21
213.9999999999998
 31
0
  0
LINE
  8
1
 62
3
 10
193
 20
213.9999999999998
 30
0
 11
198
 21
213.9999999999998
 31
0
  0
LINE
  8
1
 62
3
 10
198
 20
198.9999999999998
 30
0
 11
198
 21
214.9999999999998
 31
0
  0
LINE
  8
1
 62
3
 10
193
 20
198.9999999999998
 30
0
 11
193
 21
214.9999999999998
 31
0
  0
CIRCLE
  8
1
 62
3
 10
193
 20
213.9999999999998
 30
0
 40
0.8
  0
SOLID
  8
1
 62
3
 10
198
 20
213.9999999999998
 30
0
 11
201.2
 21
214.4159999999998
 31
0
 12
201.2
 22
213.5839999999998
 32
0
 13
201.2
 23
213.5839999999998
 33
0
  0
TEXT
  8
1
 62
2
 10
194.831943363105
 20
215.9999999999998
 30
0
 40
3.2
  1
5
 41
0.9
  0
ENDBLK
  8
0
  0
BLOCK
  8
1
  2
*D9
 70
1
 10
0
 20
0
 30
0
  0
LINE
  8
1
 62
3
 10
191.0000000000001
 20
213.9999999999998
 30
0
 11
184.6000000000001
 21
213.9999999999998
 31
0
  0
LINE
  8
1
 62
3
 10
191.0000000000001
 20
213.9999999999998
 30
0
 11
193.0000000000001
 21
213.9999999999998
 31
0
  0
LINE
  8
1
 62
3
 10
193.0000000000001
 20
213.9999999999998
 30
0
 11
193.0000000000001
 21
213.9999999999998
 31
0
  0
LINE
  8
1
 62
3
 10
193.0000000000001
 20
198.9999999999998
 30
0
 11
193.0000000000001
 21
214.9999999999998
 31
0
  0
LINE
  8
1
 62
3
 10
191.0000000000001
 20
191.9999999999998
 30
0
 11
191.0000000000001
 21
214.9999999999998
 31
0
  0
SOLID
  8
1
 62
3
 10
191.0000000000001
 20
213.9999999999998
 30
0
 11
187.8000000000001
 21
213.5839999999998
 31
0
 12
187.8000000000001
 22
214.4159999999998
 32
0
 13
187.8000000000001
 23
214.4159999999998
 33
0
  0
TEXT
  8
1
 62
2
 10
185.14685606127
 20
215.9999999999998
 30
0
 40
3.2
  1
2
 41
0.9
  0
ENDBLK
  8
0
  0
BLOCK
  8
1
  2
*D10
 70
1
 10
0
 20
0
 30
0
  0
LINE
  8
1
 62
3
 10
178.4000000000001
 20
221.9999999999998
 30
0
 11
193.0000000000001
 21
221.9999999999998
 31
0
  0
LINE
  8
1
 62
3
 10
193.0000000000001
 20
198.9999999999998
 30
0
 11
193.0000000000001
 21
222.9999999999998
 31
0
  0
LINE
  8
1
 62
3
 10
178.4000000000001
 20
187.9999999999998
 30
0
 11
178.4000000000001
 21
222.9999999999998
 31
0
  0
SOLID
  8
1
 62
3
 10
193.0000000000001
 20
221.9999999999998
 30
0
 11
189.8000000000001
 21
221.5839999999998
 31
0
 12
189.8000000000001
 22
222.4159999999998
 32
0
 13
189.8000000000001
 23
222.4159999999998
 33
0
  0
SOLID
  8
1
 62
3
 10
178.4000000000001
 20
221.9999999999998
 30
0
 11
181.6000000000001
 21
222.4159999999998
 31
0
 12
181.6000000000001
 22
221.5839999999998
 32
0
 13
181.6000000000001
 23
221.5839999999998
 33
0
  0
TEXT
  8
1
 62
2
 10
182.22685606127
 20
223.9999999999998
 30
0
 40
3.2
  1
14.6
 41
0.9
  0
ENDBLK
  8
0
  0
BLOCK
  8
1
  2
*D11
 70
1
 10
0
 20
0
 30
0
  0
LINE
  8
1
 62
3
 10
170.4000000000001
 20
178.0999999999998
 30
0
 11
170.4000000000001
 21
184.4999999999998
 31
0
  0
LINE
  8
1
 62
3
 10
170.4000000000001
 20
184.4999999999998
 30
0
 11
170.4000000000001
 21
186.9999999999998
 31
0
  0
LINE
  8
1
 62
3
 10
170.4000000000001
 20
186.9999999999998
 30
0
 11
170.4000000000001
 21
207.1886396718855
 31
0
  0
LINE
  8
1
 62
3
 10
177.4000000000001
 20
184.4999999999998
 30
0
 11
169.4000000000001
 21
184.4999999999998
 31
0
  0
LINE
  8
1
 62
3
 10
177.4000000000001
 20
186.9999999999998
 30
0
 11
169.4000000000001
 21
186.9999999999998
 31
0
  0
SOLID
  8
1
 62
3
 10
170.4000000000001
 20
186.9999999999998
 30
0
 11
169.9840000000001
 21
190.1999999999998
 31
0
 12
170.8160000000001
 22
190.1999999999998
 32
0
 13
170.8160000000001
 23
190.1999999999998
 33
0
  0
SOLID
  8
1
 62
3
 10
170.4000000000001
 20
184.4999999999998
 30
0
 11
170.8160000000001
 21
181.2999999999998
 31
0
 12
169.9840000000001
 22
181.2999999999998
 32
0
 13
169.9840000000001
 23
181.2999999999998
 33
0
  0
TEXT
  8
1
 62
2
 10
168.4000000000001
 20
190.7839337895325
 30
0
 40
3.2
  1
2.5
 50
90
 41
0.9
  0
TEXT
  8
1
 62
2
 10
168.4000000000001
 20
198.3839337895325
 30
0
 40
3.2
  1
ü}0.1
 50
90
 41
0.9
  0
ENDBLK
  8
0
  0
BLOCK
  8
1
  2
*D12
 70
1
 10
0
 20
0
 30
0
  0
LINE
  8
1
 62
3
 10
162.4000000000001
 20
187.4999999999998
 30
0
 11
162.4000000000001
 21
207.0601843197147
 31
0
  0
LINE
  8
1
 62
3
 10
162.4000000000001
 20
184.4999999999998
 30
0
 11
162.4000000000001
 21
187.4999999999998
 31
0
  0
LINE
  8
1
 62
3
 10
162.4000000000001
 20
178.0999999999998
 30
0
 11
162.4000000000001
 21
184.4999999999998
 31
0
  0
LINE
  8
1
 62
3
 10
187.4000000000001
 20
187.4999999999998
 30
0
 11
161.4000000000001
 21
187.4999999999998
 31
0
  0
LINE
  8
1
 62
3
 10
177.4000000000001
 20
184.4999999999998
 30
0
 11
161.4000000000001
 21
184.4999999999998
 31
0
  0
SOLID
  8
1
 62
3
 10
162.4000000000001
 20
187.4999999999998
 30
0
 11
161.9840000000001
 21
190.6999999999998
 31
0
 12
162.8160000000001
 22
190.6999999999998
 32
0
 13
162.8160000000001
 23
190.6999999999998
 33
0
  0
SOLID
  8
1
 62
3
 10
162.4000000000001
 20
184.4999999999998
 30
0
 11
162.8160000000001
 21
181.2999999999998
 31
0
 12
161.9840000000001
 22
181.2999999999998
 32
0
 13
161.9840000000001
 23
181.2999999999998
 33
0
  0
TEXT
  8
1
 62
2
 10
159.5466666666667
 20
196.7721843197147
 30
0
 40
3.2
  1
3
 50
90
 41
0.9
  0
TEXT
  8
1
 62
2
 10
157.4666666666667
 20
200.2921843197147
 30
0
 40
1.92
  1
 0
 50
90
 41
0.9
  0
TEXT
  8
1
 62
2
 10
160.3466666666667
 20
200.2921843197147
 30
0
 40
1.92
  1
-0.02
 50
90
 41
0.9
  0
TEXT
  8
1
 62
2
 10
159.5466666666667
 20
192.7251254961853
 30
0
 40
3.2
  1
âË
 50
90
 41
0.9
  0
ENDBLK
  8
0
  0
BLOCK
  8
1
  2
*D13
 70
1
 10
0
 20
0
 30
0
  0
LINE
  8
1
 62
3
 10
154.4000000000001
 20
180.9999999999998
 30
0
 11
154.4000000000001
 21
190.9999999999998
 31
0
  0
LINE
  8
1
 62
3
 10
190
 20
190.9999999999998
 30
0
 11
153.4000000000001
 21
190.9999999999998
 31
0
  0
LINE
  8
1
 62
3
 10
190
 20
180.9999999999998
 30
0
 11
153.4000000000001
 21
180.9999999999998
 31
0
  0
SOLID
  8
1
 62
3
 10
154.4000000000001
 20
190.9999999999998
 30
0
 11
154.8160000000001
 21
187.7999999999998
 31
0
 12
153.9840000000001
 22
187.7999999999998
 32
0
 13
153.9840000000001
 23
187.7999999999998
 33
0
  0
SOLID
  8
1
 62
3
 10
154.4000000000001
 20
180.9999999999998
 30
0
 11
153.9840000000001
 21
184.1999999999998
 31
0
 12
154.8160000000001
 22
184.1999999999998
 32
0
 13
154.8160000000001
 23
184.1999999999998
 33
0
  0
TEXT
  8
1
 62
2
 10
151.5466666666667
 20
182.9195294117645
 30
0
 40
3.2
  1
10
 50
90
 41
0.9
  0
TEXT
  8
1
 62
2
 10
149.4666666666667
 20
188.3595294117645
 30
0
 40
1.92
  1
 0
 50
90
 41
0.9
  0
TEXT
  8
1
 62
2
 10
152.3466666666667
 20
188.3595294117645
 30
0
 40
1.92
  1
-0.05
 50
90
 41
0.9
  0
TEXT
  8
1
 62
2
 10
151.5466666666667
 20
178.8724705882351
 30
0
 40
3.2
  1
âË
 50
90
 41
0.9
  0
ENDBLK
  8
0
  0
BLOCK
  8
1
  2
*D14
 70
1
 10
0
 20
0
 30
0
  0
LINE
  8
1
 62
3
 10
245
 20
153.9999999999998
 30
0
 11
245
 21
197.9999999999998
 31
0
  0
LINE
  8
1
 62
3
 10
211.5
 20
197.9999999999998
 30
0
 11
246
 21
197.9999999999998
 31
0
  0
LINE
  8
1
 62
3
 10
211.5
 20
153.9999999999998
 30
0
 11
246
 21
153.9999999999998
 31
0
  0
SOLID
  8
1
 62
3
 10
245
 20
197.9999999999998
 30
0
 11
245.416
 21
194.7999999999998
 31
0
 12
244.584
 22
194.7999999999998
 32
0
 13
244.584
 23
194.7999999999998
 33
0
  0
SOLID
  8
1
 62
3
 10
245
 20
153.9999999999998
 30
0
 11
244.584
 21
157.1999999999998
 31
0
 12
245.416
 22
157.1999999999998
 32
0
 13
245.416
 23
157.1999999999998
 33
0
  0
TEXT
  8
1
 62
2
 10
242.1466666666667
 20
175.6235294117645
 30
0
 40
3.2
  1
44
 50
90
 41
0.9
  0
TEXT
  8
1
 62
2
 10
242.1466666666667
 20
171.5764705882351
 30
0
 40
3.2
  1
âË
 50
90
 41
0.9
  0
ENDBLK
  8
0
  0
BLOCK
  8
1
  2
*D15
 70
1
 10
0
 20
0
 30
0
  0
LINE
  8
1
 62
3
 10
178.4000000000001
 20
205.9999999999998
 30
0
 11
188.4000000000001
 21
205.9999999999998
 31
0
  0
LINE
  8
1
 62
3
 10
188.4000000000001
 20
188.4999999999998
 30
0
 11
188.4000000000001
 21
207.4999999999998
 31
0
  0
LINE
  8
1
 62
3
 10
178.4000000000001
 20
187.9999999999998
 30
0
 11
178.4000000000001
 21
207.4999999999998
 31
0
  0
SOLID
  8
1
 62
3
 10
178.4000000000001
 20
205.9999999999998
 30
0
 11
181.6000000000001
 21
206.4159999999998
 31
0
 12
181.6000000000001
 22
205.5839999999998
 32
0
 13
181.6000000000001
 23
205.5839999999998
 33
0
  0
SOLID
  8
1
 62
3
 10
188.4000000000001
 20
205.9999999999998
 30
0
 11
185.2000000000001
 21
205.5839999999998
 31
0
 12
185.2000000000001
 22
206.4159999999998
 32
0
 13
185.2000000000001
 23
206.4159999999998
 33
0
  0
TEXT
  8
1
 62
2
 10
181.487733370595
 20
207.9999999999998
 30
0
 40
3.2
  1
10
 41
0.9
  0
ENDBLK
  8
0
  0
BLOCK
  8
1
  2
*D16
 70
1
 10
0
 20
0
 30
0
  0
LINE
  8
1
 62
3
 10
168.5811764705883
 20
213.9999999999998
 30
0
 11
145.4188235294119
 21
213.9999999999998
 31
0
  0
LINE
  8
1
 62
3
 10
188.1945453337021
 20
187.0959665281261
 30
0
 11
168.5811764705883
 21
213.9999999999998
 31
0
  0
SOLID
  8
1
 62
3
 10
188.1945453337021
 20
187.0959665281261
 30
0
 11
185.9732993494101
 21
189.4367190304779
 31
0
 12
186.645611046608
 22
189.9268424657581
 32
0
 13
186.645611046608
 23
189.9268424657581
 33
0
  0
TEXT
  8
1
 62
2
 10
149.2588235294119
 20
215.9999999999998
 30
0
 40
3.2
  1
0.5
 41
0.9
  0
TEXT
  8
1
 62
2
 10
145.4188235294119
 20
215.9999999999998
 30
0
 40
3.2
  1
R
 41
0.9
  0
TEXT
  8
1
 62
2
 10
156.6988235294119
 20
215.9999999999998
 30
0
 40
3.2
  1
ê╚ë║
 41
0.9
  0
ENDBLK
  8
0
  0
BLOCK
  8
1
  2
*D17
 70
1
 10
0
 20
0
 30
0
  0
LINE
  8
1
 62
3
 10
67.10935055617404
 20
195.50640086571
 30
0
 11
56.17513366993215
 21
213.9999999999997
 31
0
  0
LINE
  8
1
 62
3
 10
56.17513366993215
 20
213.9999999999997
 30
0
 11
21.20572190522626
 21
213.9999999999997
 31
0
  0
SOLID
  8
1
 62
3
 10
67.10935055617404
 20
195.50640086571
 30
0
 11
65.12264142452899
 21
198.0492423523619
 31
0
 12
65.83882743611234
 22
198.4726825450838
 32
0
 13
65.83882743611234
 23
198.4726825450838
 33
0
  0
TEXT
  8
1
 62
2
 10
30.69278072875567
 20
215.853333333333
 30
0
 40
3.2
  1
3.5
 41
0.9
  0
TEXT
  8
1
 62
2
 10
21.20572190522626
 20
215.853333333333
 30
0
 40
3.2
  1
4-âË
 41
0.9
  0
TEXT
  8
1
 62
2
 10
38.29278072875567
 20
215.853333333333
 30
0
 40
3.2
  1
ü}0.1îè
 41
0.9
  0
ENDBLK
  8
0
  0
BLOCK
  8
1
  2
*D18
 70
1
 10
0
 20
0
 30
0
  0
LINE
  8
1
 62
3
 10
86.00000000000016
 20
132.6468359029312
 30
0
 11
86.00000000000016
 21
131.6468359029312
 31
0
  0
LINE
  8
1
 62
3
 10
107.6765820485344
 20
138.4550585575029
 30
0
 11
108.1765820485344
 21
137.5890331537185
 31
0
  0
LINE
  8
1
 62
3
 10
86.00000000000016
 20
149.6636895265441
 30
0
 11
86.00000000000016
 21
132.6468359029312
 31
0
  0
LINE
  8
1
 62
3
 10
104.3810132407376
 20
144.1631511724463
 30
0
 11
107.6765820485344
 21
138.4550585575029
 31
0
  0
ARC
  8
1
 62
3
 10
86.00000000000016
 20
175.9999999999997
 30
0
 40
43.35316409706846
 50
270
 51
300.0000000000001
  0
SOLID
  8
1
 62
3
 10
86.00000000000016
 20
132.6468359029312
 30
0
 11
89.18247145176497
 21
133.1806256168655
 31
0
 12
89.21317042959292
 22
132.349192172289
 32
0
 13
89.21317042959292
 23
132.349192172289
 33
0
  0
SOLID
  8
1
 62
3
 10
107.6765820485344
 20
138.4550585575029
 30
0
 11
105.0427166951392
 21
136.5907063106932
 31
0
 12
104.6535860675202
 22
137.3260982841664
 32
0
 13
104.6535860675202
 23
137.3260982841664
 33
0
  0
TEXT
  8
1
 62
2
 10
92.17847730325354
 20
134.811261259268
 30
0
 40
3.2
  1
(30%%d)
 50
15.37051518952688
 41
0.9
  0
ENDBLK
  8
0
  0
ENDSEC
  0
SECTION
  2
ENTITIES
  0
LINE
  8
1
 62
2
 10
221.25
 20
120.9999999999998
 30
0
 11
221.25
 21
113.9999999999998
 31
0
  0
LINE
  8
1
 62
2
 10
221.75
 20
120.9999999999998
 30
0
 11
221.75
 21
113.9999999999998
 31
0
  0
LINE
  8
1
 62
2
 10
222.25
 20
120.9999999999998
 30
0
 11
222.25
 21
113.9999999999998
 31
0
  0
LINE
  8
1
 62
2
 10
218.75
 20
120.9999999999998
 30
0
 11
218.75
 21
113.9999999999998
 31
0
  0
LINE
  8
1
 62
2
 10
219.25
 20
120.9999999999998
 30
0
 11
219.25
 21
113.9999999999998
 31
0
  0
LINE
  8
1
 62
2
 10
219.75
 20
120.9999999999998
 30
0
 11
219.75
 21
113.9999999999998
 31
0
  0
LINE
  8
1
 62
2
 10
216.25
 20
120.9999999999998
 30
0
 11
216.25
 21
113.9999999999998
 31
0
  0
LINE
  8
1
 62
2
 10
216.75
 20
120.9999999999998
 30
0
 11
216.75
 21
113.9999999999998
 31
0
  0
LINE
  8
1
 62
2
 10
217.25
 20
120.9999999999998
 30
0
 11
217.25
 21
113.9999999999998
 31
0
  0
LINE
  8
1
 62
2
 10
213.75
 20
120.9999999999998
 30
0
 11
213.75
 21
113.9999999999998
 31
0
  0
LINE
  8
1
 62
2
 10
214.75
 20
120.9999999999998
 30
0
 11
214.75
 21
113.9999999999998
 31
0
  0
LINE
  8
1
 62
2
 10
214.25
 20
120.9999999999998
 30
0
 11
214.25
 21
113.9999999999998
 31
0
  0
LINE
  8
1
 62
7
 10
221
 20
120.9999999999998
 30
0
 11
222.5
 21
120.9999999999998
 31
0
  0
LINE
  8
1
 62
7
 10
218.5
 20
120.9999999999998
 30
0
 11
220
 21
120.9999999999998
 31
0
  0
LINE
  8
1
 62
7
 10
216
 20
120.9999999999998
 30
0
 11
217.5
 21
120.9999999999998
 31
0
  0
LINE
  8
1
 62
7
 10
213.5
 20
120.9999999999998
 30
0
 11
215
 21
120.9999999999998
 31
0
  0
LINE
  8
1
 62
7
 10
221
 20
120.9999999999998
 30
0
 11
221
 21
142.9999999999998
 31
0
  0
LINE
  8
1
 62
7
 10
218.5
 20
120.9999999999998
 30
0
 11
218.5
 21
142.9999999999998
 31
0
  0
LINE
  8
1
 62
7
 10
217.5
 20
120.9999999999998
 30
0
 11
217.5
 21
142.9999999999998
 31
0
  0
LINE
  8
1
 62
7
 10
215
 20
120.9999999999998
 30
0
 11
215
 21
142.9999999999998
 31
0
  0
LINE
  8
1
 62
7
 10
213.5
 20
142.9999999999998
 30
0
 11
213.5
 21
120.9999999999998
 31
0
  0
LINE
  8
1
 62
7
 10
215
 20
143.9999999999998
 30
0
 11
215
 21
148.9047190820502
 31
0
  0
LINE
  8
1
 62
7
 10
216
 20
142.9999999999998
 30
0
 11
216
 21
120.9999999999998
 31
0
  0
LINE
  8
1
 62
7
 10
217.5
 20
143.9999999999998
 30
0
 11
217.5
 21
148.761797705126
 31
0
  0
LINE
  8
1
 62
7
 10
218.5
 20
143.9999999999998
 30
0
 11
218.5
 21
148.761797705126
 31
0
  0
LINE
  8
1
 62
7
 10
220
 20
142.9999999999998
 30
0
 11
220
 21
120.9999999999998
 31
0
  0
LINE
  8
1
 62
7
 10
221
 20
143.9999999999998
 30
0
 11
221
 21
148.9047190820501
 31
0
  0
LINE
  8
1
 62
7
 10
222.5
 20
142.9999999999998
 30
0
 11
222.5
 21
120.9999999999998
 31
0
  0
LINE
  8
1
 62
2
 10
223.5
 20
142.9999999999998
 30
0
 11
212.5
 21
142.9999999999998
 31
0
  0
LINE
  8
1
 62
2
 10
212.5
 20
143.9999999999998
 30
0
 11
223.5
 21
143.9999999999998
 31
0
  0
LINE
  8
1
 62
7
 10
222.5
 20
148.9047190820501
 30
0
 11
222.5
 21
143.9999999999998
 31
0
  0
LINE
  8
1
 62
7
 10
221.2774848801777
 20
155.4999999999998
 30
0
 11
222.4550161174516
 21
149.3768375661754
 31
0
  0
LINE
  8
1
 62
7
 10
220.5137424400889
 20
151.5285393115377
 30
0
 11
220.9820064469807
 21
149.0935664757003
 31
0
  0
LINE
  8
1
 62
7
 10
213.5
 20
148.9047190820501
 30
0
 11
213.5
 21
143.9999999999998
 31
0
  0
LINE
  8
1
 62
7
 10
213.5449838825484
 20
149.3768375661754
 30
0
 11
214.7225151198223
 21
155.4999999999998
 31
0
  0
LINE
  8
1
 62
7
 10
215.0179935530193
 20
149.0935664757003
 30
0
 11
215.4862575599111
 21
151.5285393115377
 31
0
  0
LINE
  8
1
 62
7
 10
219.75
 20
155.4999999999998
 30
0
 11
219.75
 21
158.4999999999998
 31
0
  0
LINE
  8
1
 62
7
 10
216
 20
148.7617977051263
 30
0
 11
216
 21
143.9999999999998
 31
0
  0
LINE
  8
1
 62
7
 10
220
 20
148.7617977051263
 30
0
 11
220
 21
143.9999999999998
 31
0
  0
LINE
  8
1
 62
7
 10
220.0179935530194
 20
148.9506450987764
 30
0
 11
221.25
 21
155.3570786230756
 31
0
  0
LINE
  8
1
 62
7
 10
214.75
 20
155.3570786230756
 30
0
 11
215.9820064469806
 21
148.9506450987764
 31
0
  0
LINE
  8
1
 62
7
 10
218.5449838825484
 20
149.2339161892513
 30
0
 11
219.75
 21
155.4999999999998
 31
0
  0
LINE
  8
1
 62
7
 10
216.25
 20
155.4999999999998
 30
0
 11
217.4550161174516
 21
149.2339161892513
 31
0
  0
LINE
  8
1
 62
2
 10
199.0000000000001
 20
198.9999999999998
 30
0
 11
208.5000000000001
 21
198.9999999999998
 31
0
  0
LINE
  8
1
 62
2
 10
84.8819660112502
 20
186.9999999999998
 30
0
 11
87.11803398875
 21
186.9999999999998
 31
0
  0
LINE
  8
1
 62
7
 10
68.0000000000001
 20
197.4999999999998
 30
0
 11
81.3363104734557
 21
197.4999999999998
 31
0
  0
LINE
  8
1
 62
7
 10
68.0000000000001
 20
154.4999999999998
 30
0
 11
81.3363104734557
 21
154.4999999999998
 31
0
  0
LINE
  8
1
 62
7
 10
107.5000000000001
 20
193.9999999999998
 30
0
 11
107.5000000000001
 21
180.6636895265442
 31
0
  0
LINE
  8
1
 62
7
 10
64.50000000000011
 20
193.9999999999998
 30
0
 11
64.50000000000011
 21
180.6636895265442
 31
0
  0
LINE
  8
1
 62
7
 10
107.5000000000001
 20
171.3363104734553
 30
0
 11
107.5000000000001
 21
157.9999999999998
 31
0
  0
LINE
  8
1
 62
7
 10
90.6636895265445
 20
154.4999999999998
 30
0
 11
104.0000000000001
 21
154.4999999999998
 31
0
  0
LINE
  8
1
 62
7
 10
64.50000000000011
 20
171.3363104734553
 30
0
 11
64.50000000000011
 21
157.9999999999998
 31
0
  0
LINE
  8
1
 62
7
 10
90.6636895265445
 20
197.4999999999998
 30
0
 11
104.0000000000001
 21
197.4999999999998
 31
0
  0
LINE
  8
1
 62
3
 10
58.01330935251809
 20
175.9999999999998
 30
0
 11
112.7679856115111
 21
175.9999999999998
 31
0
  0
LINE
  8
1
 62
3
 10
86.0000000000001
 20
204.1607913669062
 30
0
 11
86.0000000000001
 21
150.6636895265442
 31
0
  0
LINE
  8
1
 62
3
 10
101.5000000000001
 20
193.9999999999998
 30
0
 11
106.5000000000001
 21
193.9999999999998
 31
0
  0
LINE
  8
1
 62
3
 10
104.0000000000001
 20
196.4999999999998
 30
0
 11
104.0000000000001
 21
195.7499999999998
 31
0
  0
LINE
  8
1
 62
3
 10
68.0000000000001
 20
191.4999999999998
 30
0
 11
68.0000000000001
 21
195.7499999999998
 31
0
  0
LINE
  8
1
 62
3
 10
70.5000000000001
 20
157.9999999999998
 30
0
 11
66.2500000000001
 21
157.9999999999998
 31
0
  0
LINE
  8
1
 62
3
 10
104.0000000000001
 20
160.4999999999998
 30
0
 11
104.0000000000001
 21
155.4999999999998
 31
0
  0
LINE
  8
1
 62
3
 10
65.50000000000011
 20
193.9999999999998
 30
0
 11
66.2500000000001
 21
193.9999999999998
 31
0
  0
LINE
  8
1
 62
3
 10
68.0000000000001
 20
155.4999999999998
 30
0
 11
68.0000000000001
 21
160.4999999999998
 31
0
  0
LINE
  8
1
 62
3
 10
106.5000000000001
 20
157.9999999999998
 30
0
 11
101.5000000000001
 21
157.9999999999998
 31
0
  0
LINE
  8
1
 62
3
 10
104.0000000000001
 20
195.7499999999998
 30
0
 11
104.0000000000001
 21
191.4999999999998
 31
0
  0
LINE
  8
1
 62
3
 10
68.0000000000001
 20
195.7499999999998
 30
0
 11
68.0000000000001
 21
196.4999999999998
 31
0
  0
LINE
  8
1
 62
3
 10
78.2115060098411
 20
185.9999999999998
 30
0
 11
91.0000000000001
 21
185.9999999999998
 31
0
  0
LINE
  8
1
 62
3
 10
91.0000000000001
 20
185.9999999999998
 30
0
 11
93.58630456086711
 21
185.9999999999998
 31
0
  0
LINE
  8
1
 62
3
 10
66.2500000000001
 20
193.9999999999998
 30
0
 11
70.5000000000001
 21
193.9999999999998
 31
0
  0
LINE
  8
1
 62
3
 10
66.2500000000001
 20
157.9999999999998
 30
0
 11
65.50000000000011
 21
157.9999999999998
 31
0
  0
LINE
  8
1
 62
7
 10
96.6809799800082
 20
154.4999999999998
 30
0
 11
102.2597699479563
 21
144.837252330758
 31
0
  0
LINE
  8
1
 62
7
 10
100.1450815951459
 20
154.4999999999998
 30
0
 11
105.7238715630941
 21
144.837252330758
 31
0
  0
LINE
  8
1
 62
7
 10
193.0000000000001
 20
197.9999999999998
 30
0
 11
210.5
 21
197.9999999999998
 31
0
  0
LINE
  8
1
 62
7
 10
193.0000000000001
 20
153.9999999999998
 30
0
 11
210.5
 21
153.9999999999998
 31
0
  0
LINE
  8
1
 62
7
 10
193.0000000000001
 20
197.9999999999998
 30
0
 11
193.0000000000001
 21
153.9999999999998
 31
0
  0
LINE
  8
1
 62
7
 10
210.5
 20
197.9999999999998
 30
0
 11
210.5
 21
153.9999999999998
 31
0
  0
LINE
  8
1
 62
7
 10
213
 20
195.9999999999998
 30
0
 11
226
 21
195.9999999999998
 31
0
  0
LINE
  8
1
 62
7
 10
210.5
 20
197.9999999999998
 30
0
 11
213
 21
195.9999999999998
 31
0
  0
LINE
  8
1
 62
7
 10
213
 20
155.9999999999998
 30
0
 11
210.5
 21
153.9999999999998
 31
0
  0
LINE
  8
1
 62
7
 10
213
 20
195.9999999999998
 30
0
 11
213
 21
155.9999999999998
 31
0
  0
LINE
  8
1
 62
7
 10
228
 20
193.9999999999998
 30
0
 11
228
 21
157.9999999999998
 31
0
  0
LINE
  8
1
 62
3
 10
186.869686956195
 20
175.9999999999998
 30
0
 11
233.6133239152098
 21
175.9999999999998
 31
0
  0
LINE
  8
1
 62
7
 10
198.0000000000001
 20
197.9999999999998
 30
0
 11
198.0000000000001
 21
180.9999999999998
 31
0
  0
LINE
  8
1
 62
7
 10
198.0000000000001
 20
170.9999999999998
 30
0
 11
198.0000000000001
 21
153.9999999999998
 31
0
  0
LINE
  8
1
 62
3
 10
190.3753470651004
 20
157.9999999999998
 30
0
 11
199.025272169526
 21
157.9999999999998
 31
0
  0
LINE
  8
1
 62
3
 10
190.0688314129102
 20
193.9999999999998
 30
0
 11
199.025272169526
 21
193.9999999999998
 31
0
  0
LINE
  8
1
 62
7
 10
191.0000000000001
 20
190.9999999999998
 30
0
 11
193.0000000000001
 21
190.9999999999998
 31
0
  0
LINE
  8
1
 62
7
 10
191.0000000000001
 20
180.9999999999998
 30
0
 11
193.0000000000001
 21
180.9999999999998
 31
0
  0
LINE
  8
1
 62
7
 10
191.0000000000001
 20
190.9999999999998
 30
0
 11
191.0000000000001
 21
180.9999999999998
 31
0
  0
LINE
  8
1
 62
7
 10
178.4000000000001
 20
184.4999999999998
 30
0
 11
191.0000000000001
 21
184.4999999999998
 31
0
  0
LINE
  8
1
 62
7
 10
178.4000000000001
 20
186.9999999999998
 30
0
 11
187.9000000000001
 21
186.9999999999998
 31
0
  0
LINE
  8
1
 62
7
 10
188.4000000000001
 20
187.4999999999998
 30
0
 11
191.0000000000001
 21
187.4999999999998
 31
0
  0
LINE
  8
1
 62
7
 10
178.4000000000001
 20
186.9999999999998
 30
0
 11
178.4000000000001
 21
184.4999999999998
 31
0
  0
LINE
  8
1
 62
7
 10
223
 20
161.4999999999998
 30
0
 11
223
 21
155.4999999999998
 31
0
  0
LINE
  8
1
 62
7
 10
218
 20
161.4999999999998
 30
0
 11
218
 21
155.9999999999998
 31
0
  0
LINE
  8
1
 62
7
 10
219
 20
161.4999999999998
 30
0
 11
219
 21
155.9999999999998
 31
0
  0
LINE
  8
1
 62
7
 10
217
 20
161.4999999999998
 30
0
 11
217
 21
155.9999999999998
 31
0
  0
LINE
  8
1
 62
7
 10
213
 20
161.4999999999998
 30
0
 11
223
 21
161.4999999999998
 31
0
  0
LINE
  8
1
 62
7
 10
213
 20
155.9999999999998
 30
0
 11
213
 21
155.4999999999998
 31
0
  0
LINE
  8
1
 62
7
 10
217
 20
155.9999999999998
 30
0
 11
217
 21
155.4999999999998
 31
0
  0
LINE
  8
1
 62
7
 10
219
 20
155.9999999999998
 30
0
 11
219
 21
155.4999999999998
 31
0
  0
LINE
  8
1
 62
7
 10
219
 20
155.4999999999998
 30
0
 11
219.75
 21
155.4999999999998
 31
0
  0
LINE
  8
1
 62
7
 10
213
 20
155.4999999999998
 30
0
 11
214.75
 21
155.4999999999998
 31
0
  0
LINE
  8
1
 62
7
 10
223
 20
155.9999999999998
 30
0
 11
226
 21
155.9999999999998
 31
0
  0
LINE
  8
1
 62
7
 10
217
 20
155.9999999999998
 30
0
 11
219
 21
155.9999999999998
 31
0
  0
LINE
  8
1
 62
7
 10
214.75
 20
158.4999999999998
 30
0
 11
214.75
 21
155.3570786230756
 31
0
  0
LINE
  8
1
 62
7
 10
216.25
 20
158.4999999999998
 30
0
 11
216.25
 21
155.4999999999998
 31
0
  0
LINE
  8
1
 62
7
 10
221.25
 20
158.4999999999998
 30
0
 11
221.25
 21
155.3570786230756
 31
0
  0
LINE
  8
1
 62
7
 10
220.25
 20
158.9999999999998
 30
0
 11
220.75
 21
158.9999999999998
 31
0
  0
LINE
  8
1
 62
7
 10
215.25
 20
158.9999999999998
 30
0
 11
215.75
 21
158.9999999999998
 31
0
  0
LINE
  8
1
 62
3
 10
172.7031048281179
 20
185.9999999999998
 30
0
 11
195.3888723573442
 21
185.9999999999998
 31
0
  0
LINE
  8
1
 62
7
 10
221.25
 20
155.4999999999998
 30
0
 11
223
 21
155.4999999999998
 31
0
  0
LINE
  8
1
 62
7
 10
216.25
 20
155.4999999999998
 30
0
 11
217
 21
155.4999999999998
 31
0
  0
LINE
  8
1
 62
7
 10
103.8810132407375
 20
145.0291765762308
 30
0
 11
98.41303078757699
 21
154.4999999999998
 31
0
  0
LINE
  8
1
 62
2
 10
229
 20
194.152126839489
 30
0
 11
229
 21
157.9999999999998
 31
0
  0
ARC
  8
1
 62
7
 10
86.0000000000001
 20
175.9999999999998
 30
0
 40
22
 50
257.761244232058
 51
282.2387557679421
  0
ARC
  8
1
 62
7
 10
86.0000000000001
 20
175.9999999999998
 30
0
 40
21.99999999999999
 50
167.7612442320579
 51
180
  0
ARC
  8
1
 62
7
 10
86.0000000000001
 20
175.9999999999998
 30
0
 40
21.99999999999999
 50
180
 51
192.2387557679423
  0
ARC
  8
1
 62
7
 10
86.0000000000001
 20
175.9999999999998
 30
0
 40
22
 50
77.76124423205792
 51
102.2387557679421
  0
ARC
  8
1
 62
7
 10
86.0000000000001
 20
175.9999999999998
 30
0
 40
22.00000000000001
 50
347.7612442320577
 51
12.23875576794209
  0
CIRCLE
  8
1
 62
7
 10
86.0000000000001
 20
185.9999999999998
 30
0
 40
1.5
  0
CIRCLE
  8
1
 62
7
 10
86.0000000000001
 20
175.9999999999998
 30
0
 40
20.99999999999999
  0
CIRCLE
  8
1
 62
7
 10
104.0000000000001
 20
193.9999999999998
 30
0
 40
1.75
  0
CIRCLE
  8
1
 62
7
 10
68.0000000000001
 20
193.9999999999998
 30
0
 40
1.75
  0
CIRCLE
  8
1
 62
7
 10
68.0000000000001
 20
157.9999999999998
 30
0
 40
1.75
  0
CIRCLE
  8
1
 62
7
 10
104.0000000000001
 20
157.9999999999998
 30
0
 40
1.75
  0
CIRCLE
  8
1
 62
7
 10
86.0000000000001
 20
185.9999999999998
 30
0
 40
5
  0
CIRCLE
  8
1
 62
7
 10
86.0000000000001
 20
175.9999999999998
 30
0
 40
17.5
  0
POLYLINE
  8
1
 62
7
 66
1
  0
VERTEX
  8
1
 10
102.2597699479563
 20
144.837252330758
 30
0
 42
0.005533854412466668
  0
VERTEX
  8
1
 10
102.4686258065806
 20
144.7192917403121
 30
0
 42
0.01743043112222803
  0
VERTEX
  8
1
 10
102.675035538725
 20
144.6149081509427
 30
0
 42
0.03369927401469986
  0
VERTEX
  8
1
 10
102.8765530179096
 20
144.5376785637267
 30
0
 42
0.05646315584029391
  0
VERTEX
  8
1
 10
103.0707321176544
 20
144.5011799797405
 30
0
 42
0.08483952284240445
  0
VERTEX
  8
1
 10
103.2551267114795
 20
144.5189894000607
 30
0
 42
0.1095805290953551
  0
VERTEX
  8
1
 10
103.489855535254
 20
144.6423422316719
 30
0
 42
0.01997925765572891
  0
VERTEX
  8
1
 10
103.7097773836997
 20
144.8439957020567
 30
0
 42
0.02139182618180704
  0
VERTEX
  8
1
 10
103.9230504392869
 20
145.0747844441538
 30
0
 42
-0.02972196086869019
  0
VERTEX
  8
1
 10
104.1378328844858
 20
145.2855430909021
 30
0
 42
-0.08174216879911024
  0
VERTEX
  8
1
 10
104.3622829017667
 20
145.4271062752401
 30
0
 42
-0.1148765503135426
  0
VERTEX
  8
1
 10
104.6116305007237
 20
145.4616543614068
 30
0
 42
-0.0760213058971804
  0
VERTEX
  8
1
 10
104.8762915218864
 20
145.3945231975314
 30
0
 42
-0.04180924731577196
  0
VERTEX
  8
1
 10
105.1524376097032
 20
145.2511325961245
 30
0
 42
-0.02052408977317284
  0
VERTEX
  8
1
 10
105.436240408623
 20
145.0569023696965
 30
0
 42
-0.006175563625099281
  0
VERTEX
  8
1
 10
105.7238715630941
 20
144.837252330758
 30
0
  0
SEQEND
  8
1
  0
ARC
  8
1
 62
7
 10
220
 20
148.9047190820502
 30
0
 40
2.5
 50
0
 51
10.88552705465606
  0
ARC
  8
1
 62
7
 10
221
 20
148.7617977051263
 30
0
 40
2.499999999999927
 50
169.1144729453484
 51
180
  0
ARC
  8
1
 62
7
 10
215
 20
148.7617977051263
 30
0
 40
2.5
 50
0
 51
10.88552705465158
  0
ARC
  8
1
 62
7
 10
216
 20
148.9047190820502
 30
0
 40
2.499999999999965
 50
169.114472945344
 51
180
  0
ARC
  8
1
 62
7
 10
216
 20
148.9047190820502
 30
0
 40
1.000000000000051
 50
169.1144729453436
 51
180
  0
ARC
  8
1
 62
7
 10
215
 20
148.7617977051263
 30
0
 40
1
 50
0
 51
10.88552705465757
  0
ARC
  8
1
 62
7
 10
220
 20
148.9047190820502
 30
0
 40
1
 50
0
 51
10.88552705465634
  0
ARC
  8
1
 62
7
 10
221
 20
148.7617977051263
 30
0
 40
0.9999999999999392
 50
169.1144729453424
 51
180
  0
ARC
  8
1
 62
7
 10
187.9000000000001
 20
187.4999999999998
 30
0
 40
0.5
 50
270
 51
0
  0
ARC
  8
1
 62
7
 10
104.0000000000001
 20
193.9999999999998
 30
0
 40
3.5
 50
0
 51
90
  0
ARC
  8
1
 62
7
 10
104.0000000000001
 20
157.9999999999998
 30
0
 40
3.5
 50
270
 51
0
  0
ARC
  8
1
 62
7
 10
68.0000000000001
 20
157.9999999999998
 30
0
 40
3.499999999999986
 50
180
 51
270
  0
ARC
  8
1
 62
7
 10
68.0000000000001
 20
193.9999999999998
 30
0
 40
3.5
 50
90
 51
180
  0
ARC
  8
1
 62
7
 10
226
 20
193.9999999999998
 30
0
 40
2
 50
0
 51
90
  0
ARC
  8
1
 62
7
 10
226
 20
157.9999999999998
 30
0
 40
2
 50
270
 51
0
  0
ARC
  8
1
 62
7
 10
220.75
 20
158.4999999999998
 30
0
 40
0.5
 50
0
 51
90
  0
ARC
  8
1
 62
7
 10
220.25
 20
158.4999999999998
 30
0
 40
0.5
 50
90
 51
180
  0
ARC
  8
1
 62
7
 10
215.25
 20
158.4999999999998
 30
0
 40
0.5
 50
90
 51
180
  0
ARC
  8
1
 62
7
 10
215.75
 20
158.4999999999998
 30
0
 40
0.5
 50
0
 51
90
  0
TEXT
  8
1
 62
2
 10
134.483257209581
 20
102.240563061942
 30
0
 40
4
  1
SR1G
 41
0.9
  0
DIMENSION
  8
1
  6
CONTINUOUS
 62
3
  2
*D3
  3
DMST_1
 10
107.5000000000001
 20
221.9999999999998
 30
0
 11
86.0000000000001
 21
225.5999999999998
 31
0
 12
0
 22
0
 32
0
 70
0
 13
64.50000000000011
 23
193.9999999999998
 33
0
 14
107.5000000000001
 24
193.9999999999998
 34
0
 53
0
  0
DIMENSION
  8
1
  6
CONTINUOUS
 62
3
  2
*D4
  3
DMST_2
 10
68.0000000000001
 20
213.9999999999998
 30
0
 11
86.0000000000001
 21
217.5999999999998
 31
0
 12
0
 22
0
 32
0
 70
1
 13
104.0000000000001
 23
195.7499999999998
 33
0
 14
68.0000000000001
 24
195.7499999999998
 34
0
 53
0
  0
DIMENSION
  8
1
  6
CONTINUOUS
 62
3
  2
*D5
  3
DMST_2
 10
48.50000000000012
 20
157.9999999999998
 30
0
 11
44.90000000000012
 21
175.9999999999998
 31
0
 12
0
 22
0
 32
0
 70
0
 13
66.2500000000001
 23
193.9999999999998
 33
0
 14
66.2500000000001
 24
157.9999999999998
 34
0
 50
90
 53
0
  0
DIMENSION
  8
1
  6
CONTINUOUS
 62
3
  2
*D6
  3
DMST_1
 10
40.50000000000011
 20
197.4999999999998
 30
0
 11
36.90000000000012
 21
175.9999999999998
 31
0
 12
0
 22
0
 32
0
 70
0
 13
68.0000000000001
 23
154.4999999999998
 33
0
 14
68.0000000000001
 24
197.4999999999998
 34
0
 50
90
 53
0
  0
DIMENSION
  8
1
  6
CONTINUOUS
 62
3
  2
*D7
  3
DMST_3
 10
228
 20
221.9999999999998
 30
0
 11
211.669135661194
 21
225.5999999999998
 31
0
 12
0
 22
0
 32
0
 70
0
  1
35
 13
193.0000000000001
 23
197.9999999999998
 33
0
 14
228
 24
193.9999999999998
 34
0
 53
0
  0
DIMENSION
  8
1
  6
CONTINUOUS
 62
3
  2
*D8
  3
DMST_4
 10
198
 20
213.9999999999998
 30
0
 11
195.791943363105
 21
217.5999999999998
 31
0
 12
0
 22
0
 32
0
 70
0
 13
193.0000000000001
 23
197.9999999999998
 33
0
 14
198.0000000000001
 24
197.9999999999998
 34
0
 53
0
  0
DIMENSION
  8
1
  6
CONTINUOUS
 62
3
  2
*D10
  3
DMST_1
 10
193.0000000000001
 20
221.9999999999998
 30
0
 11
186.10685606127
 21
225.5999999999998
 31
0
 12
0
 22
0
 32
0
 70
0
 13
178.4000000000001
 23
186.9999999999998
 33
0
 14
193.0000000000001
 24
197.9999999999998
 34
0
 53
0
  0
DIMENSION
  8
1
  6
CONTINUOUS
 62
3
  2
*D11
  3
DMST_5
 10
170.4000000000001
 20
186.9999999999998
 30
0
 11
166.8000000000001
 21
198.986286730709
 31
0
 12
0
 22
0
 32
0
 70
0
 13
178.4000000000001
 23
184.4999999999998
 33
0
 14
178.4000000000001
 24
186.9999999999998
 34
0
 50
90
 53
0
  0
DIMENSION
  8
1
  6
CONTINUOUS
 62
3
  2
*D12
  3
DMST_6
 10
162.4000000000001
 20
187.4999999999998
 30
0
 11
157.9733333333334
 21
199.89265490795
 31
0
 12
0
 22
0
 32
0
 70
0
  1
âË<>
 13
178.4000000000001
 23
184.4999999999998
 33
0
 14
188.4000000000001
 24
187.4999999999998
 34
0
 50
90
 53
0
  0
DIMENSION
  8
1
  6
CONTINUOUS
 62
3
  2
*D13
  3
DMST_7
 10
154.4000000000001
 20
190.9999999999998
 30
0
 11
149.9733333333334
 21
186.9999999999998
 31
0
 12
0
 22
0
 32
0
 70
0
  1
âË<>
 13
191.0000000000001
 23
180.9999999999998
 33
0
 14
191.0000000000001
 24
190.9999999999998
 34
0
 50
90
 53
0
  0
DIMENSION
  8
1
  6
CONTINUOUS
 62
3
  2
*D14
  3
DMST_1
 10
245
 20
197.9999999999998
 30
0
 11
240.9733333333333
 21
175.9999999999998
 31
0
 12
0
 22
0
 32
0
 70
0
  1
âË<>
 13
210.5
 23
153.9999999999998
 33
0
 14
210.5
 24
197.9999999999998
 34
0
 50
90
 53
0
  0
DIMENSION
  8
1
  6
CONTINUOUS
 62
3
  2
*D15
  3
DMST_8
 10
188.4000000000001
 20
205.9999999999998
 30
0
 11
183.407733370595
 21
209.5999999999998
 31
0
 12
0
 22
0
 32
0
 70
0
 13
178.4000000000001
 23
186.9999999999998
 33
0
 14
188.4000000000001
 24
187.4999999999998
 34
0
 53
0
  0
DIMENSION
  8
1
  6
CONTINUOUS
 62
3
  2
*D16
  3
DMST_9
 10
187.9000000000001
 20
187.4999999999998
 30
0
 11
154.4000000000001
 21
217.5999999999998
 31
0
 12
0
 22
0
 32
0
 70
4
 15
188.1945453337021
 25
187.0959665281261
 35
0
 40
0
 53
0
  0
DIMENSION
  8
1
  6
CONTINUOUS
 62
3
  2
*D17
  3
DMST_10
 10
68.89064944382618
 20
192.4935991342896
 30
0
 11
36.0904277875792
 21
217.0266666666664
 31
0
 12
0
 22
0
 32
0
 70
3
  1
4-âË<>
 15
67.10935055617404
 25
195.50640086571
 35
0
 40
0
 53
0
  0
DIMENSION
  8
1
  6
CONTINUOUS
 62
3
  2
*D18
  3
DMST_1
 10
86.0000000000001
 20
204.1607913669062
 30
0
 11
96.53697177065291
 21
137.6687297153754
 31
0
 12
0
 22
0
 32
0
 70
2
  1
(300)
 13
103.8810132407375
 23
145.0291765762308
 33
0
 14
98.41303078757699
 24
154.4999999999998
 34
0
 15
86.0000000000001
 25
150.6636895265442
 35
0
 16
97.2206245337763
 26
134.1240591472933
 36
0
 53
0
  0
INSERT
  8
1
  2
*D0
 10
0
 20
0
 30
0
  0
INSERT
  8
1
  2
*D1
 10
0
 20
0
 30
0
  0
INSERT
  8
1
  2
*D2
 10
0
 20
0
 30
0
  0
INSERT
  8
1
  2
*D9
 10
0
 20
0
 30
0
  0
ENDSEC
  0
EOF
