  0
SECTION
  2
HEADER
  9
$ACADVER
  1
AC1009
  9
$INSBASE
 10
0
 20
0
  9
$EXTMIN
 10
173.7218311462135
 20
20.2217487363122
  9
$EXTMAX
 10
440.6679442904693
 20
203.5882245540219
  9
$LIMMIN
 10
173.7218311462135
 20
20.2217487363122
  9
$LIMMAX
 10
440.6679442904693
 20
203.5882245540219
  9
$VIEWCTR
 10
10
 20
10
  9
$VIEWSIZE
 40
10
  9
$SNAPMODE
 70
0
  9
$SNAPUNIT
 10
1
 20
1
  9
$SNAPBASE
 10
0
 20
0
  9
$SNAPANG
 50
0
  9
$SNAPSTYLE
 70
0
  9
$SNAPISOPAIR
 70
0
  9
$GRIDMODE
 70
0
  9
$GRIDUNIT
 10
0
 20
0
  9
$ORTHOMODE
 70
0
  9
$REGENMODE
 70
1
  9
$FILLMODE
 70
1
  9
$QTEXTMODE
 70
0
  9
$DRAGMODE
 70
2
  9
$LTSCALE
 40
1
  9
$OSMODE
 70
0
  9
$ATTMODE
 70
1
  9
$TEXTSIZE
 40
3.5
  9
$TRACEWID
 40
0.5
  9
$TEXTSTYLE
  7
STANDARD
  9
$CLAYER
  8
0
  9
$CELTYPE
  6
BYLAYER
  9
$CECOLOR
 62
256
  9
$DIMSCALE
 40
1
  9
$DIMASZ
 40
0.18
  9
$DIMEXO
 40
0.0625
  9
$DIMDLI
 40
0.38
  9
$DIMRND
 40
0
  9
$DIMDLE
 40
0
  9
$DIMEXE
 40
0.18
  9
$DIMTP
 40
0
  9
$DIMTM
 40
0
  9
$DIMTXT
 40
0.18
  9
$DIMCEN
 40
0.09
  9
$DIMTSZ
 40
0
  9
$DIMTOL
 70
0
  9
$DIMLIM
 70
0
  9
$DIMTIH
 70
1
  9
$DIMTOH
 70
1
  9
$DIMSE1
 70
0
  9
$DIMSE2
 70
0
  9
$DIMTAD
 70
0
  9
$DIMZIN
 70
0
  9
$DIMBLK
  1

  9
$DIMASO
 70
1
  9
$DIMSHO
 70
1
  9
$DIMPOST
  1

  9
$DIMAPOST
  1

  9
$DIMALT
 70
0
  9
$DIMALTD
 70
2
  9
$DIMALTF
 40
25.4
  9
$DIMLFAC
 40
1
  9
$DIMTOFL
 70
0
  9
$DIMTVP
 40
0
  9
$DIMTIX
 70
0
  9
$DIMSOXD
 70
0
  9
$DIMSAH
 70
0
  9
$DIMBLK1
  1

  9
$DIMBLK2
  1

  9
$DIMSTYLE
  2
*UNNAMED
  9
$DIMCLRD
 70
0
  9
$DIMCLRE
 70
0
  9
$DIMCLRT
 70
0
  9
$DIMTFAC
 40
1
  9
$DIMGAP
 40
0.09
  9
$LUNITS
 70
2
  9
$LUPREC
 70
4
  9
$AXISMODE
 70
0
  9
$AXISUNIT
 10
0
 20
0
  9
$SKETCHINC
 40
0.1
  9
$FILLETRAD
 40
2
  9
$AUNITS
 70
0
  9
$AUPREC
 70
0
  9
$MENU
  1
ACAD
  9
$ELEVATION
 40
0
  9
$THICKNESS
 40
0
  9
$VIEWDIR
 10
0
 20
0
 30
1
  9
$LIMCHECK
 70
0
  9
$BLIPMODE
 70
1
  9
$CHAMFERA
 40
0
  9
$CHAMFERB
 40
0
  9
$FASTZOOM
 70
1
  9
$SKPOLY
 70
0
  9
$ANGBASE
 50
0
  9
$ANGDIR
 70
0
  9
$PDMODE
 70
0
  9
$PDSIZE
 40
0
  9
$PLINEWID
 40
0
  9
$COORDS
 70
2
  0
ENDSEC
  0
SECTION
  2
TABLES
  0
TABLE
  2
DIMSTYLE
 70
6
  0
DIMSTYLE
  2
DMST_1
 70
0
  3

  4

  5

  6

  7

 40
1
 41
3.2
 42
1
 43
7
 44
2
 45
0
 46
0
 47
0
 48
0
140
3.2
141
0
142
0
143
25.4
144
1
145
0
146
1
147
0.09
 71
0
 72
0
 73
0
 74
0
 75
0
 76
0
 77
1
 78
9
170
0
171
2
172
0
173
0
174
0
175
0
176
7
177
7
178
7
  0
DIMSTYLE
  2
DMST_2
 70
0
  3

  4

  5

  6

  7

 40
1
 41
3.2
 42
1
 43
7
 44
2
 45
0
 46
0
 47
0
 48
0.02
140
3.2
141
0
142
0
143
25.4
144
1
145
0
146
0.6
147
0.09
 71
1
 72
0
 73
0
 74
0
 75
0
 76
0
 77
1
 78
9
170
0
171
2
172
0
173
0
174
0
175
0
176
7
177
7
178
7
  0
DIMSTYLE
  2
DMST_3
 70
0
  3
MAX
  4

  5

  6

  7

 40
1
 41
3.2
 42
1
 43
7
 44
2
 45
0
 46
0
 47
0
 48
0
140
3.2
141
0
142
0
143
25.4
144
1
145
0
146
1
147
0.09
 71
0
 72
0
 73
1
 74
1
 75
0
 76
0
 77
1
 78
9
170
0
171
2
172
1
173
0
174
0
175
0
176
7
177
7
178
7
  0
DIMSTYLE
  2
DMST_4
 70
0
  3

  4

  5

  6

  7

 40
1
 41
3.2
 42
1
 43
7
 44
2
 45
0
 46
0
 47
0
 48
0
140
3.2
141
0
142
0
143
25.4
144
1
145
0
146
1
147
0.09
 71
0
 72
0
 73
1
 74
1
 75
0
 76
0
 77
1
 78
9
170
0
171
2
172
1
173
0
174
0
175
0
176
7
177
7
178
7
  0
DIMSTYLE
  2
DMST_5
 70
0
  3

  4

  5

  6

  7

 40
1
 41
0
 42
1
 43
7
 44
2
 45
0
 46
0
 47
0
 48
0
140
3.2
141
0
142
0
143
25.4
144
1
145
0
146
1
147
0.09
 71
0
 72
0
 73
0
 74
0
 75
0
 76
0
 77
1
 78
9
170
0
171
2
172
0
173
0
174
0
175
0
176
7
177
7
178
7
  0
DIMSTYLE
  2
DMST_6
 70
0
  3
MAX
  4

  5

  6

  7

 40
1
 41
0
 42
1
 43
7
 44
2
 45
0
 46
0
 47
0
 48
0
140
3.2
141
0
142
0
143
25.4
144
1
145
0
146
1
147
0.09
 71
0
 72
0
 73
0
 74
0
 75
0
 76
0
 77
1
 78
9
170
0
171
2
172
0
173
0
174
0
175
0
176
7
177
7
178
7
  0
ENDTAB
  0
TABLE
  2
LTYPE
 70
9
  0
LTYPE
  2
CONTINUOUS
 70
64
  3
Solid line
 72
65
 73
0
 40
0
  0
LTYPE
  2
BORDER
 70
64
  3
__ __ . __ __ .
 72
65
 73
6
 40
12.29357100006441
 49
3.51244885716126
 49
-1.75622442858063
 49
3.51244885716126
 49
-1.75622442858063
 49
0
 49
-1.75622442858063
  0
LTYPE
  2
CENTER
 70
64
  3
____ _ ____ _
 72
65
 73
4
 40
14.04979542864504
 49
8.781122142903151
 49
-1.75622442858063
 49
1.75622442858063
 49
-1.75622442858063
  0
LTYPE
  2
DASHDOT
 70
64
  3
__ . __ . __ .
 72
65
 73
4
 40
7.02489771432252
 49
3.51244885716126
 49
-1.75622442858063
 49
0
 49
-1.75622442858063
  0
LTYPE
  2
DASHED
 70
64
  3
__ __ __ __ __
 72
65
 73
2
 40
5.26867328574189
 49
3.51244885716126
 49
-1.75622442858063
  0
LTYPE
  2
DIVIDE
 70
64
  3
__ . . __ . . 
 72
65
 73
6
 40
8.781122142903151
 49
3.51244885716126
 49
-1.75622442858063
 49
0
 49
-1.75622442858063
 49
0
 49
-1.75622442858063
  0
LTYPE
  2
DOT
 70
64
  3
..............
 72
65
 73
4
 40
3.51244885716126
 49
0
 49
-1.75622442858063
 49
0
 49
-1.75622442858063
  0
LTYPE
  2
HIDDEN
 70
64
  3
_ _ _ _ _ _ _
 72
65
 73
2
 40
2.634336642870945
 49
1.75622442858063
 49
-0.8781122142903151
  0
LTYPE
  2
PHANTOM
 70
64
  3
_____ _ _ _____ _ _ 
 72
65
 73
6
 40
17.5622442858063
 49
8.781122142903151
 49
-1.75622442858063
 49
1.75622442858063
 49
-1.75622442858063
 49
1.75622442858063
 49
-1.75622442858063
  0
ENDTAB
  0
TABLE
  2
LAYER
 70
3
  0
LAYER
  2
1
 70
0
 62
7
  6
CONTINUOUS
  0
LAYER
  2
0
 70
0
 62
7
  6
CONTINUOUS
  0
ENDTAB
  0
TABLE
  2
STYLE
 70
4
  0
STYLE
  2
STANDARD
 70
0
 40
0
 41
1
 50
0
 71
0
 42
3.5
  3
txt
  4

  0
STYLE
  2
SIMPLEX
 70
0
 40
0
 41
1
 50
0
 71
0
 42
3.5
  3
simplex
  4

  0
STYLE
  2
COMPLEX
 70
0
 40
0
 41
1
 50
0
 71
0
 42
3.5
  3
complex
  4

  0
STYLE
  2
ITALIC
 70
0
 40
0
 41
1
 50
0
 71
0
 42
3.5
  3
italic
  4

  0
ENDTAB
  0
TABLE
  2
VIEW
 70
0
  0
ENDTAB
  0
ENDSEC
  0
SECTION
  2
BLOCKS
  0
BLOCK
  8
1
  2
*X0
 70
1
 10
0
 20
0
 30
0
  0
LINE
  8
1
 62
2
 10
409.6410017085286
 20
135.2835706081481
 30
0
 11
410.0287663440082
 21
135.6713352436278
 31
0
  0
LINE
  8
1
 62
2
 10
412.3826760425839
 20
135.1968178174572
 30
0
 11
412.8571934687544
 21
135.6713352436278
 31
0
  0
LINE
  8
1
 62
2
 10
414.1856205935006
 20
134.1713352436278
 30
0
 11
415.6856205935006
 21
135.6713352436278
 31
0
  0
ENDBLK
  8
0
  0
BLOCK
  8
1
  2
*X1
 70
1
 10
0
 20
0
 30
0
  0
LINE
  8
1
 62
2
 10
411.371912094516
 20
142.6713352436279
 30
0
 11
412.871912094516
 21
144.1713352436278
 31
0
  0
LINE
  8
1
 62
2
 10
414.2003392192622
 20
142.6713352436279
 30
0
 11
415.5237780778047
 21
143.9947741021704
 31
0
  0
ENDBLK
  8
0
  0
BLOCK
  8
1
  2
*D0
 70
1
 10
0
 20
0
 30
0
  0
LINE
  8
1
 62
7
 10
326.8472169363473
 20
190.1066993147193
 30
0
 11
326.8472169363473
 21
190.1066993147193
 31
0
  0
LINE
  8
1
 62
7
 10
326.8472169363473
 20
190.1066993147193
 30
0
 11
328.8472169363473
 21
190.1066993147193
 31
0
  0
LINE
  8
1
 62
7
 10
328.8472169363473
 20
190.1066993147193
 30
0
 11
335.2472169363472
 21
190.1066993147193
 31
0
  0
LINE
  8
1
 62
7
 10
326.8472169363473
 20
165.8415416625658
 30
0
 11
326.8472169363473
 21
192.1066993147193
 31
0
  0
LINE
  8
1
 62
7
 10
328.8472169363473
 20
165.8415416625658
 30
0
 11
328.8472169363473
 21
192.1066993147193
 31
0
  0
SOLID
  8
1
 62
7
 10
328.8472169363473
 20
190.1066993147193
 30
0
 11
332.0472169363472
 21
190.5226993147193
 31
0
 12
332.0472169363472
 22
189.6906993147193
 32
0
 13
332.0472169363472
 23
189.6906993147193
 33
0
  0
TEXT
  8
1
 62
7
 10
331.7640797386722
 20
192.2174803012381
 30
0
 40
3.2
  1
2
 41
0.9
  0
ENDBLK
  8
0
  0
BLOCK
  8
1
  2
*D1
 70
1
 10
0
 20
0
 30
0
  0
LINE
  8
1
 62
7
 10
326.8472169363473
 20
190.1066993147193
 30
0
 11
326.8472169363473
 21
190.1066993147193
 31
0
  0
LINE
  8
1
 62
7
 10
324.8472169363473
 20
190.1066993147193
 30
0
 11
326.8472169363473
 21
190.1066993147193
 31
0
  0
LINE
  8
1
 62
7
 10
324.8472169363473
 20
190.1066993147193
 30
0
 11
315.6720351945222
 21
190.1066993147193
 31
0
  0
LINE
  8
1
 62
7
 10
324.8472169363473
 20
165.8415416625658
 30
0
 11
324.8472169363473
 21
192.1066993147193
 31
0
  0
LINE
  8
1
 62
7
 10
326.8472169363473
 20
165.8415416625658
 30
0
 11
326.8472169363473
 21
192.1066993147193
 31
0
  0
SOLID
  8
1
 62
7
 10
324.8472169363473
 20
190.1066993147193
 30
0
 11
321.6472169363473
 21
189.6906993147193
 31
0
 12
321.6472169363473
 22
190.5226993147193
 32
0
 13
321.6472169363473
 23
190.5226993147193
 33
0
  0
TEXT
  8
1
 62
7
 10
315.6720351945222
 20
191.8297201917405
 30
0
 40
3.2
  1
2
 41
0.9
  0
ENDBLK
  8
0
  0
BLOCK
  8
1
  2
*D2
 70
1
 10
0
 20
0
 30
0
  0
LINE
  8
1
 62
7
 10
405.4472169363471
 20
190.1066993147193
 30
0
 11
411.8472169363471
 21
190.1066993147193
 31
0
  0
LINE
  8
1
 62
7
 10
411.8472169363471
 20
190.1066993147193
 30
0
 11
415.8472169363472
 21
190.1066993147193
 31
0
  0
LINE
  8
1
 62
7
 10
415.8472169363472
 20
190.1066993147193
 30
0
 11
422.2472169363472
 21
190.1066993147193
 31
0
  0
LINE
  8
1
 62
7
 10
411.8472169363471
 20
133.2141470578563
 30
0
 11
411.8472169363471
 21
192.1066993147193
 31
0
  0
LINE
  8
1
 62
7
 10
415.8472169363472
 20
144.6713352436278
 30
0
 11
415.8472169363472
 21
192.1066993147193
 31
0
  0
SOLID
  8
1
 62
7
 10
411.8472169363471
 20
190.1066993147193
 30
0
 11
408.6472169363471
 21
189.6906993147193
 31
0
 12
408.6472169363471
 22
190.5226993147193
 32
0
 13
408.6472169363471
 23
190.5226993147193
 33
0
  0
SOLID
  8
1
 62
7
 10
415.8472169363472
 20
190.1066993147193
 30
0
 11
419.0472169363472
 21
190.5226993147193
 31
0
 12
419.0472169363472
 22
189.6906993147193
 32
0
 13
419.0472169363472
 23
189.6906993147193
 33
0
  0
TEXT
  8
1
 62
7
 10
418.9890907909633
 20
192.1066993147193
 30
0
 40
3.2
  1
4
 41
0.9
  0
ENDBLK
  8
0
  0
BLOCK
  8
1
  2
*D3
 70
1
 10
0
 20
0
 30
0
  0
LINE
  8
1
 62
7
 10
331.2472169363472
 20
198.1066993147193
 30
0
 11
324.8472169363473
 21
198.1066993147193
 31
0
  0
LINE
  8
1
 62
7
 10
321.8472169363473
 20
198.1066993147193
 30
0
 11
324.8472169363473
 21
198.1066993147193
 31
0
  0
LINE
  8
1
 62
7
 10
321.8472169363473
 20
198.1066993147193
 30
0
 11
315.4472169363472
 21
198.1066993147193
 31
0
  0
LINE
  8
1
 62
7
 10
321.8472169363473
 20
160.4415416625658
 30
0
 11
321.8472169363473
 21
200.1066993147193
 31
0
  0
LINE
  8
1
 62
7
 10
324.8472169363473
 20
165.8415416625658
 30
0
 11
324.8472169363473
 21
200.1066993147193
 31
0
  0
SOLID
  8
1
 62
7
 10
321.8472169363473
 20
198.1066993147193
 30
0
 11
318.6472169363473
 21
197.6906993147193
 31
0
 12
318.6472169363473
 22
198.5226993147193
 32
0
 13
318.6472169363473
 23
198.5226993147193
 33
0
  0
SOLID
  8
1
 62
7
 10
324.8472169363473
 20
198.1066993147193
 30
0
 11
328.0472169363472
 21
198.5226993147193
 31
0
 12
328.0472169363472
 22
197.6906993147193
 32
0
 13
328.0472169363472
 23
197.6906993147193
 33
0
  0
TEXT
  8
1
 62
7
 10
316.6216113317887
 20
200.1066993147193
 30
0
 40
3.2
  1
3
 41
0.9
  0
ENDBLK
  8
0
  0
BLOCK
  8
1
  2
*D4
 70
1
 10
0
 20
0
 30
0
  0
LINE
  8
1
 62
7
 10
406.8472169363472
 20
198.1066993147193
 30
0
 11
415.8472169363472
 21
198.1066993147193
 31
0
  0
LINE
  8
1
 62
7
 10
406.8472169363472
 20
164.1415416625658
 30
0
 11
406.8472169363472
 21
200.1066993147193
 31
0
  0
LINE
  8
1
 62
7
 10
415.8472169363472
 20
144.6713352436278
 30
0
 11
415.8472169363472
 21
200.1066993147193
 31
0
  0
SOLID
  8
1
 62
7
 10
406.8472169363472
 20
198.1066993147193
 30
0
 11
410.0472169363472
 21
198.5226993147193
 31
0
 12
410.0472169363472
 22
197.6906993147193
 32
0
 13
410.0472169363472
 23
197.6906993147193
 33
0
  0
SOLID
  8
1
 62
7
 10
415.8472169363472
 20
198.1066993147193
 30
0
 11
412.6472169363472
 21
197.6906993147193
 31
0
 12
412.6472169363472
 22
198.5226993147193
 32
0
 13
412.6472169363472
 23
198.5226993147193
 33
0
  0
TEXT
  8
1
 62
7
 10
410.3872169363472
 20
200.1066993147193
 30
0
 40
3.2
  1
9
 41
0.9
  0
ENDBLK
  8
0
  0
BLOCK
  8
1
  2
*D5
 70
1
 10
0
 20
0
 30
0
  0
LINE
  8
1
 62
7
 10
324.8472169363473
 20
198.1066993147193
 30
0
 11
406.8472169363472
 21
198.1066993147193
 31
0
  0
LINE
  8
1
 62
7
 10
324.8472169363473
 20
165.8415416625658
 30
0
 11
324.8472169363473
 21
200.1066993147193
 31
0
  0
LINE
  8
1
 62
7
 10
406.8472169363472
 20
164.1415416625658
 30
0
 11
406.8472169363472
 21
200.1066993147193
 31
0
  0
SOLID
  8
1
 62
7
 10
324.8472169363473
 20
198.1066993147193
 30
0
 11
328.0472169363472
 21
198.5226993147193
 31
0
 12
328.0472169363472
 22
197.6906993147193
 32
0
 13
328.0472169363472
 23
197.6906993147193
 33
0
  0
SOLID
  8
1
 62
7
 10
406.8472169363472
 20
198.1066993147193
 30
0
 11
403.6472169363472
 21
197.6906993147193
 31
0
 12
403.6472169363472
 22
198.5226993147193
 32
0
 13
403.6472169363472
 23
198.5226993147193
 33
0
  0
TEXT
  8
1
 62
7
 10
364.8872169363472
 20
200.1066993147193
 30
0
 40
3.2
  1
L
 41
0.9
  0
ENDBLK
  8
0
  0
BLOCK
  8
1
  2
*D6
 70
1
 10
0
 20
0
 30
0
  0
LINE
  8
1
 62
7
 10
438.6679442904693
 20
134.1713352436278
 30
0
 11
438.6679442904693
 21
144.1713352436278
 31
0
  0
LINE
  8
1
 62
7
 10
438.6679442904693
 20
144.1713352436278
 30
0
 11
438.6679442904693
 21
160.9198189338738
 31
0
  0
LINE
  8
1
 62
7
 10
416.3472169363473
 20
134.1713352436278
 30
0
 11
440.6679442904693
 21
134.1713352436278
 31
0
  0
LINE
  8
1
 62
7
 10
416.3472169363473
 20
144.1713352436278
 30
0
 11
440.6679442904693
 21
144.1713352436278
 31
0
  0
SOLID
  8
1
 62
7
 10
438.6679442904693
 20
134.1713352436278
 30
0
 11
438.2519442904693
 21
137.3713352436278
 31
0
 12
439.0839442904693
 22
137.3713352436278
 32
0
 13
439.0839442904693
 23
137.3713352436278
 33
0
  0
SOLID
  8
1
 62
7
 10
438.6679442904693
 20
144.1713352436278
 30
0
 11
439.0839442904693
 21
140.9713352436278
 31
0
 12
438.2519442904693
 22
140.9713352436278
 32
0
 13
438.2519442904693
 23
140.9713352436278
 33
0
  0
TEXT
  8
1
 62
7
 10
435.8412776238026
 20
148.8651261234163
 30
0
 40
3.2
  1
10
 50
90
 41
0.9
  0
TEXT
  8
1
 62
7
 10
433.7612776238026
 20
154.3051261234163
 30
0
 40
1.92
  1
 0
 50
90
 41
0.9
  0
TEXT
  8
1
 62
7
 10
436.6412776238026
 20
154.3051261234163
 30
0
 40
1.92
  1
-0.02
 50
90
 41
0.9
  0
TEXT
  8
1
 62
7
 10
435.8412776238026
 20
144.8180672998869
 30
0
 40
3.2
  1
φ
 50
90
 41
0.9
  0
ENDBLK
  8
0
  0
BLOCK
  8
1
  2
*D7
 70
1
 10
0
 20
0
 30
0
  0
LINE
  8
1
 62
7
 10
300.3321767796383
 20
116.9415416625659
 30
0
 11
300.3321767796383
 21
161.9213352436279
 31
0
  0
LINE
  8
1
 62
7
 10
325.8472169363473
 20
161.9213352436279
 30
0
 11
298.3321767796383
 21
161.9213352436279
 31
0
  0
LINE
  8
1
 62
7
 10
325.8472169363473
 20
116.9415416625659
 30
0
 11
298.3321767796383
 21
116.9415416625659
 31
0
  0
SOLID
  8
1
 62
7
 10
300.3321767796383
 20
161.9213352436279
 30
0
 11
300.7481767796383
 21
158.7213352436279
 31
0
 12
299.9161767796383
 22
158.7213352436279
 32
0
 13
299.9161767796383
 23
158.7213352436279
 33
0
  0
SOLID
  8
1
 62
7
 10
300.3321767796383
 20
116.9415416625659
 30
0
 11
299.9161767796383
 21
120.1415416625659
 31
0
 12
300.7481767796383
 22
120.1415416625659
 32
0
 13
300.7481767796383
 23
120.1415416625659
 33
0
  0
TEXT
  8
1
 62
7
 10
297.9055101129716
 20
136.6021731931996
 30
0
 40
3.2
  1
45.5
 50
90
 41
0.7200000000000001
  0
TEXT
  8
1
 62
7
 10
297.9055101129716
 20
133.044526134376
 30
0
 40
3.2
  1
φ
 50
90
 41
0.7200000000000001
  0
ENDBLK
  8
0
  0
BLOCK
  8
1
  2
*D8
 70
1
 10
0
 20
0
 30
0
  0
LINE
  8
1
 62
7
 10
291.1248752287586
 20
114.0415416625658
 30
0
 11
291.1248752287586
 21
164.8415416625658
 31
0
  0
LINE
  8
1
 62
7
 10
323.8472169363473
 20
164.8415416625658
 30
0
 11
289.1248752287586
 21
164.8415416625658
 31
0
  0
LINE
  8
1
 62
7
 10
323.8472169363473
 20
114.0415416625658
 30
0
 11
289.1248752287586
 21
114.0415416625658
 31
0
  0
SOLID
  8
1
 62
7
 10
291.1248752287586
 20
114.0415416625658
 30
0
 11
290.7088752287586
 21
117.2415416625658
 31
0
 12
291.5408752287586
 22
117.2415416625658
 32
0
 13
291.5408752287586
 23
117.2415416625658
 33
0
  0
SOLID
  8
1
 62
7
 10
291.1248752287586
 20
164.8415416625658
 30
0
 11
291.5408752287586
 21
161.6415416625658
 31
0
 12
290.7088752287586
 22
161.6415416625658
 32
0
 13
290.7088752287586
 23
161.6415416625658
 33
0
  0
TEXT
  8
1
 62
7
 10
288.2982085620919
 20
133.8465841929566
 30
0
 40
3.2
  1
50.8
 50
90
 41
0.7200000000000001
  0
TEXT
  8
1
 62
7
 10
286.218208562092
 20
142.5505841929566
 30
0
 40
1.92
  1
 0
 50
90
 41
0.7200000000000001
  0
TEXT
  8
1
 62
7
 10
289.0982085620919
 20
142.5505841929566
 30
0
 40
1.92
  1
-0.2
 50
90
 41
0.7200000000000001
  0
TEXT
  8
1
 62
7
 10
288.2982085620919
 20
130.2889371341331
 30
0
 40
3.2
  1
φ
 50
90
 41
0.7200000000000001
  0
ENDBLK
  8
0
  0
BLOCK
  8
1
  2
*D9
 70
1
 10
0
 20
0
 30
0
  0
LINE
  8
1
 62
7
 10
309.1248752287585
 20
119.4415416625658
 30
0
 11
309.1248752287585
 21
159.4415416625658
 31
0
  0
LINE
  8
1
 62
7
 10
320.8472169363473
 20
159.4415416625658
 30
0
 11
307.1248752287585
 21
159.4415416625658
 31
0
  0
LINE
  8
1
 62
7
 10
320.8472169363473
 20
119.4415416625658
 30
0
 11
307.1248752287585
 21
119.4415416625658
 31
0
  0
SOLID
  8
1
 62
7
 10
309.1248752287585
 20
119.4415416625658
 30
0
 11
308.7088752287585
 21
122.6415416625658
 31
0
 12
309.5408752287585
 22
122.6415416625658
 32
0
 13
309.5408752287585
 23
122.6415416625658
 33
0
  0
SOLID
  8
1
 62
7
 10
309.1248752287585
 20
159.4415416625658
 30
0
 11
309.5408752287585
 21
156.2415416625658
 31
0
 12
308.7088752287585
 22
156.2415416625658
 32
0
 13
308.7088752287585
 23
156.2415416625658
 33
0
  0
TEXT
  8
1
 62
7
 10
306.2982085620918
 20
134.0961841929566
 30
0
 40
3.2
  1
40
 50
90
 41
0.7200000000000001
  0
TEXT
  8
1
 62
7
 10
304.2182085620918
 20
139.5361841929566
 30
0
 40
1.92
  1
 0
 50
90
 41
0.7200000000000001
  0
TEXT
  8
1
 62
7
 10
307.0982085620918
 20
139.5361841929566
 30
0
 40
1.92
  1
-0.025
 50
90
 41
0.7200000000000001
  0
TEXT
  8
1
 62
7
 10
306.2982085620918
 20
130.538537134133
 30
0
 40
3.2
  1
φ
 50
90
 41
0.7200000000000001
  0
ENDBLK
  8
0
  0
BLOCK
  8
1
  2
*D10
 70
1
 10
0
 20
0
 30
0
  0
LINE
  8
1
 62
7
 10
194.9218311462135
 20
145.3540150601376
 30
0
 11
173.7218311462135
 21
145.3540150601376
 31
0
  0
LINE
  8
1
 62
7
 10
231.5024594983229
 20
139.1387162426488
 30
0
 11
194.9218311462135
 21
145.3540150601376
 31
0
  0
SOLID
  8
1
 62
7
 10
202.8143802479413
 20
144.0130170153046
 30
0
 11
199.58991040004
 21
144.1389145926258
 31
0
 12
199.7292755794702
 22
144.9591592797542
 32
0
 13
199.7292755794702
 23
144.9591592797542
 33
0
  0
TEXT
  8
1
 62
7
 10
177.1138311462135
 20
147.3540150601376
 30
0
 40
3.2
  1
32
 41
0.7200000000000001
  0
TEXT
  8
1
 62
7
 10
173.7218311462135
 20
147.3540150601376
 30
0
 40
3.2
  1
R
 41
0.7200000000000001
  0
TEXT
  8
1
 62
7
 10
182.5538311462135
 20
147.3540150601376
 30
0
 40
3.2
  1
MAX
 41
0.7200000000000001
  0
ENDBLK
  8
0
  0
BLOCK
  8
1
  2
*D11
 70
1
 10
0
 20
0
 30
0
  0
LINE
  8
1
 62
7
 10
261.7865284710505
 20
166.5874958998206
 30
0
 11
282.2185284710505
 21
166.5874958998206
 31
0
  0
LINE
  8
1
 62
7
 10
231.5024594983229
 20
139.1387162426487
 30
0
 11
261.7865284710505
 21
166.5874958998206
 31
0
  0
SOLID
  8
1
 62
7
 10
253.6680962681733
 20
159.2291367275725
 30
0
 11
255.7597312761971
 21
161.686395157858
 31
0
 12
256.3184783787667
 22
161.0699329324378
 32
0
 13
256.3184783787667
 23
161.0699329324378
 33
0
  0
TEXT
  8
1
 62
7
 10
270.3785284710505
 20
168.5874958998206
 30
0
 40
3.2
  1
31
 41
0.7200000000000001
  0
TEXT
  8
1
 62
7
 10
266.9865284710505
 20
168.5874958998206
 30
0
 40
3.2
  1
R
 41
0.7200000000000001
  0
TEXT
  8
1
 62
7
 10
275.0505284710505
 20
168.5874958998206
 30
0
 40
3.2
  1
MAX
 41
0.7200000000000001
  0
ENDBLK
  8
0
  0
BLOCK
  8
1
  2
*D12
 70
1
 10
0
 20
0
 30
0
  0
LINE
  8
1
 62
7
 10
213.9774033837053
 20
111.8902140904265
 30
0
 11
194.0298920262063
 21
111.8902140904265
 31
0
  0
LINE
  8
1
 62
7
 10
239.6164970773907
 20
151.7546741597263
 30
0
 11
213.9774033837053
 21
111.8902140904265
 31
0
  0
SOLID
  8
1
 62
7
 10
223.3884219192552
 20
126.5227583255712
 30
0
 11
224.769534036556
 21
129.4391919900739
 31
0
 12
225.4692991690233
 22
128.9891333723549
 32
0
 13
225.4692991690233
 23
128.9891333723549
 33
0
  0
SOLID
  8
1
 62
7
 10
239.6164970773907
 20
151.7546741597263
 30
0
 11
238.2353849600898
 21
148.8382404952236
 31
0
 12
237.5356198276226
 22
149.2882991129426
 32
0
 13
237.5356198276226
 23
149.2882991129426
 33
0
  0
TEXT
  8
1
 62
7
 10
197.5875390850298
 20
113.6099905743467
 30
0
 40
3.2
  1
30
 41
0.7200000000000001
  0
TEXT
  8
1
 62
7
 10
194.0298920262063
 20
113.6099905743467
 30
0
 40
3.2
  1
φ
 41
0.7200000000000001
  0
ENDBLK
  8
0
  0
BLOCK
  8
1
  2
*D13
 70
1
 10
0
 20
0
 30
0
  0
LINE
  8
1
 62
7
 10
231.5024594983219
 20
199.5626440604465
 30
0
 11
231.5024594983219
 21
201.5626440604465
 31
0
  0
LINE
  8
1
 62
7
 10
188.7762903924304
 20
181.8648853485394
 30
0
 11
187.3620768300572
 21
183.2790989109125
 31
0
  0
LINE
  8
1
 62
7
 10
231.5024594983219
 20
174.5218073298182
 30
0
 11
231.5024594983219
 21
199.5626440604465
 31
0
  0
LINE
  8
1
 62
7
 10
208.7924241400343
 20
161.8487516009362
 30
0
 11
188.7762903924304
 21
181.8648853485394
 31
0
  0
ARC
  8
1
 62
7
 10
231.5024594983219
 20
139.1387162426494
 30
0
 40
60.42392781779705
 50
90
 51
135.0000000000011
  0
TEXT
  8
1
 62
7
 10
204.2870645083506
 20
195.3881508686204
 30
0
 40
3.2
  1
45%%d
 50
23.23636720998987
 41
0.7200000000000001
  0
ENDBLK
  8
0
  0
BLOCK
  8
1
  2
*D14
 70
1
 10
0
 20
0
 30
0
  0
LINE
  8
1
 62
7
 10
247.1974612255603
 20
188.8680102304758
 30
0
 11
247.7994105710963
 21
190.7752744977992
 31
0
  0
LINE
  8
1
 62
7
 10
215.8568955551515
 20
188.8835862158019
 30
0
 11
215.2568422936225
 21
190.7914478678429
 31
0
  0
LINE
  8
1
 62
7
 10
239.448190859398
 20
164.3146045713178
 30
0
 11
247.1974612255603
 21
188.8680102304758
 31
0
  0
LINE
  8
1
 62
7
 10
223.5576761792492
 20
164.3149032636766
 30
0
 11
215.8568955551515
 21
188.8835862158019
 31
0
  0
ARC
  8
1
 62
7
 10
231.5024594983218
 20
139.138716242645
 30
0
 40
52.1472507400546
 50
72.48384637268656
 51
107.4592026356272
  0
TEXT
  8
1
 62
7
 10
232.5209708662671
 20
193.7530678116209
 30
0
 40
3.2
  1
45%%d
 50
351.3573759057583
 41
0.7200000000000001
  0
TEXT
  8
1
 62
7
 10
239.6708505191469
 20
192.6663088920183
 30
0
 40
3.2
  1
MAX
 50
351.3573759057583
 41
0.7200000000000001
  0
ENDBLK
  8
0
  0
ENDSEC
  0
SECTION
  2
ENTITIES
  0
INSERT
  8
1
  2
*X0
 10
0
 20
0
 30
0
  0
INSERT
  8
1
  2
*X1
 10
0
 20
0
 30
0
  0
LINE
  8
1
 62
7
 10
324.8472169363473
 20
112.4654779978179
 30
0
 11
324.8472169363473
 21
93.88891683626001
 31
0
  0
LINE
  8
1
 62
7
 10
319.1522618260197
 20
139.1713352436279
 30
0
 11
411.4220060295545
 21
139.1713352436279
 31
0
  0
LINE
  8
1
 62
7
 10
411.1987305879831
 20
142.1713352436279
 30
0
 11
410.0489864359875
 21
142.1713352436279
 31
0
  0
LINE
  8
1
 62
7
 10
409.6536326822836
 20
135.6713352436278
 30
0
 11
415.8472169363472
 21
135.6713352436278
 31
0
  0
LINE
  8
1
 62
7
 10
406.8472169363472
 20
134.1713352436278
 30
0
 11
415.3472169363472
 21
134.1713352436278
 31
0
  0
LINE
  8
1
 62
7
 10
406.8472169363472
 20
144.1713352436278
 30
0
 11
415.3472169363472
 21
144.1713352436278
 31
0
  0
LINE
  8
1
 62
7
 10
366.0472169363473
 20
115.7415416625658
 30
0
 11
366.5472169363473
 21
115.7415416625658
 31
0
  0
LINE
  8
1
 62
7
 10
366.0472169363473
 20
163.1415416625658
 30
0
 11
366.5472169363473
 21
163.1415416625658
 31
0
  0
LINE
  8
1
 62
7
 10
366.0472169363473
 20
163.6415416625658
 30
0
 11
366.0472169363473
 21
115.2415416625658
 31
0
  0
LINE
  8
1
 62
7
 10
415.8472169363471
 20
142.6713352436279
 30
0
 11
415.8472169363472
 21
142.1713352436279
 31
0
  0
LINE
  8
1
 62
7
 10
411.8472169363472
 20
135.5717503200472
 30
0
 11
413.8472169363472
 21
134.1713352436278
 31
0
  0
LINE
  8
1
 62
7
 10
409.8472169363472
 20
134.1713352436278
 30
0
 11
411.8472169363472
 21
135.5717503200472
 31
0
  0
LINE
  8
1
 62
7
 10
411.8472169363471
 20
136.4822089027637
 30
0
 11
411.8472169363471
 21
138.1674507353422
 31
0
  0
LINE
  8
1
 62
7
 10
395.5472169363472
 20
171.6659491534379
 30
0
 11
395.5472169363472
 21
162.866574013939
 31
0
  0
LINE
  8
1
 62
7
 10
397.5472169363472
 20
165.6533684157312
 30
0
 11
397.5472169363472
 21
164.8415416625658
 31
0
  0
LINE
  8
1
 62
7
 10
394.3472169363472
 20
167.0533684157312
 30
0
 11
394.3472169363472
 21
166.4533684157313
 31
0
  0
LINE
  8
1
 62
7
 10
394.3472169363472
 20
169.3533684157312
 30
0
 11
394.3472169363472
 21
168.7533684157312
 31
0
  0
LINE
  8
1
 62
7
 10
396.7472169363473
 20
167.0533684157312
 30
0
 11
396.7472169363473
 21
166.4533684157313
 31
0
  0
LINE
  8
1
 62
7
 10
396.7472169363473
 20
169.3533684157312
 30
0
 11
396.7472169363473
 21
168.7533684157312
 31
0
  0
LINE
  8
1
 62
7
 10
394.7972169363472
 20
166.4533684157313
 30
0
 11
394.7972169363472
 21
165.6533684157312
 31
0
  0
LINE
  8
1
 62
7
 10
396.2972169363472
 20
166.4533684157313
 30
0
 11
396.2972169363472
 21
165.6533684157312
 31
0
  0
LINE
  8
1
 62
7
 10
394.7972169363472
 20
168.7533684157312
 30
0
 11
394.7972169363472
 21
167.0533684157312
 31
0
  0
LINE
  8
1
 62
7
 10
396.2972169363472
 20
168.7533684157312
 30
0
 11
396.2972169363472
 21
167.0533684157312
 31
0
  0
LINE
  8
1
 62
7
 10
393.5472169363472
 20
165.6533684157312
 30
0
 11
397.5472169363472
 21
165.6533684157312
 31
0
  0
LINE
  8
1
 62
7
 10
394.3472169363472
 20
166.4533684157313
 30
0
 11
396.7472169363473
 21
166.4533684157313
 31
0
  0
LINE
  8
1
 62
7
 10
394.3472169363472
 20
167.0533684157312
 30
0
 11
396.7472169363473
 21
167.0533684157312
 31
0
  0
LINE
  8
1
 62
7
 10
394.3472169363472
 20
168.7533684157312
 30
0
 11
396.7472169363473
 21
168.7533684157312
 31
0
  0
LINE
  8
1
 62
7
 10
394.3472169363472
 20
169.3533684157312
 30
0
 11
396.7472169363473
 21
169.3533684157312
 31
0
  0
LINE
  8
1
 62
7
 10
392.0472169363472
 20
171.6659491534379
 30
0
 11
392.0472169363472
 21
162.866574013939
 31
0
  0
LINE
  8
1
 62
7
 10
390.0472169363472
 20
165.6533684157312
 30
0
 11
390.0472169363472
 21
164.8415416625658
 31
0
  0
LINE
  8
1
 62
7
 10
394.0472169363472
 20
165.6533684157312
 30
0
 11
394.0472169363472
 21
164.8415416625658
 31
0
  0
LINE
  8
1
 62
7
 10
390.8472169363472
 20
167.0533684157312
 30
0
 11
390.8472169363472
 21
166.4533684157313
 31
0
  0
LINE
  8
1
 62
7
 10
390.8472169363472
 20
169.3533684157312
 30
0
 11
390.8472169363472
 21
168.7533684157312
 31
0
  0
LINE
  8
1
 62
7
 10
393.2472169363473
 20
167.0533684157312
 30
0
 11
393.2472169363473
 21
166.4533684157313
 31
0
  0
LINE
  8
1
 62
7
 10
393.2472169363473
 20
169.3533684157312
 30
0
 11
393.2472169363473
 21
168.7533684157312
 31
0
  0
LINE
  8
1
 62
7
 10
391.2972169363472
 20
166.4533684157313
 30
0
 11
391.2972169363472
 21
165.6533684157312
 31
0
  0
LINE
  8
1
 62
7
 10
392.7972169363472
 20
166.4533684157313
 30
0
 11
392.7972169363472
 21
165.6533684157312
 31
0
  0
LINE
  8
1
 62
7
 10
391.2972169363472
 20
168.7533684157312
 30
0
 11
391.2972169363472
 21
167.0533684157312
 31
0
  0
LINE
  8
1
 62
7
 10
392.7972169363472
 20
168.7533684157312
 30
0
 11
392.7972169363472
 21
167.0533684157312
 31
0
  0
LINE
  8
1
 62
7
 10
390.0472169363472
 20
165.6533684157312
 30
0
 11
394.0472169363472
 21
165.6533684157312
 31
0
  0
LINE
  8
1
 62
7
 10
390.8472169363472
 20
166.4533684157313
 30
0
 11
393.2472169363473
 21
166.4533684157313
 31
0
  0
LINE
  8
1
 62
7
 10
390.8472169363472
 20
167.0533684157312
 30
0
 11
393.2472169363473
 21
167.0533684157312
 31
0
  0
LINE
  8
1
 62
7
 10
390.8472169363472
 20
168.7533684157312
 30
0
 11
393.2472169363473
 21
168.7533684157312
 31
0
  0
LINE
  8
1
 62
7
 10
390.8472169363472
 20
169.3533684157312
 30
0
 11
393.2472169363473
 21
169.3533684157312
 31
0
  0
LINE
  8
1
 62
7
 10
388.5472169363472
 20
171.6659491534379
 30
0
 11
388.5472169363472
 21
162.866574013939
 31
0
  0
LINE
  8
1
 62
7
 10
387.3472169363472
 20
167.0533684157312
 30
0
 11
387.3472169363472
 21
166.4533684157313
 31
0
  0
LINE
  8
1
 62
7
 10
387.3472169363472
 20
169.3533684157312
 30
0
 11
387.3472169363472
 21
168.7533684157312
 31
0
  0
LINE
  8
1
 62
7
 10
389.7472169363473
 20
167.0533684157312
 30
0
 11
389.7472169363473
 21
166.4533684157313
 31
0
  0
LINE
  8
1
 62
7
 10
389.7472169363473
 20
169.3533684157312
 30
0
 11
389.7472169363473
 21
168.7533684157312
 31
0
  0
LINE
  8
1
 62
7
 10
387.7972169363472
 20
166.4533684157313
 30
0
 11
387.7972169363472
 21
165.6533684157312
 31
0
  0
LINE
  8
1
 62
7
 10
389.2972169363472
 20
166.4533684157313
 30
0
 11
389.2972169363472
 21
165.6533684157312
 31
0
  0
LINE
  8
1
 62
7
 10
387.7972169363472
 20
168.7533684157312
 30
0
 11
387.7972169363472
 21
167.0533684157312
 31
0
  0
LINE
  8
1
 62
7
 10
389.2972169363472
 20
168.7533684157312
 30
0
 11
389.2972169363472
 21
167.0533684157312
 31
0
  0
LINE
  8
1
 62
7
 10
386.5472169363472
 20
165.6533684157312
 30
0
 11
390.5472169363472
 21
165.6533684157312
 31
0
  0
LINE
  8
1
 62
7
 10
387.3472169363472
 20
166.4533684157313
 30
0
 11
389.7472169363473
 21
166.4533684157313
 31
0
  0
LINE
  8
1
 62
7
 10
387.3472169363472
 20
167.0533684157312
 30
0
 11
389.7472169363473
 21
167.0533684157312
 31
0
  0
LINE
  8
1
 62
7
 10
387.3472169363472
 20
168.7533684157312
 30
0
 11
389.7472169363473
 21
168.7533684157312
 31
0
  0
LINE
  8
1
 62
7
 10
387.3472169363472
 20
169.3533684157312
 30
0
 11
389.7472169363473
 21
169.3533684157312
 31
0
  0
LINE
  8
1
 62
7
 10
385.0472169363472
 20
171.6659491534379
 30
0
 11
385.0472169363472
 21
162.866574013939
 31
0
  0
LINE
  8
1
 62
7
 10
383.0472169363472
 20
165.6533684157312
 30
0
 11
383.0472169363472
 21
164.8415416625658
 31
0
  0
LINE
  8
1
 62
7
 10
387.0472169363472
 20
165.6533684157312
 30
0
 11
387.0472169363472
 21
164.8415416625658
 31
0
  0
LINE
  8
1
 62
7
 10
383.8472169363472
 20
167.0533684157312
 30
0
 11
383.8472169363472
 21
166.4533684157313
 31
0
  0
LINE
  8
1
 62
7
 10
383.8472169363472
 20
169.3533684157312
 30
0
 11
383.8472169363472
 21
168.7533684157312
 31
0
  0
LINE
  8
1
 62
7
 10
386.2472169363473
 20
167.0533684157312
 30
0
 11
386.2472169363473
 21
166.4533684157313
 31
0
  0
LINE
  8
1
 62
7
 10
386.2472169363473
 20
169.3533684157312
 30
0
 11
386.2472169363473
 21
168.7533684157312
 31
0
  0
LINE
  8
1
 62
7
 10
384.2972169363472
 20
166.4533684157313
 30
0
 11
384.2972169363472
 21
165.6533684157312
 31
0
  0
LINE
  8
1
 62
7
 10
385.7972169363472
 20
166.4533684157313
 30
0
 11
385.7972169363472
 21
165.6533684157312
 31
0
  0
LINE
  8
1
 62
7
 10
384.2972169363472
 20
168.7533684157312
 30
0
 11
384.2972169363472
 21
167.0533684157312
 31
0
  0
LINE
  8
1
 62
7
 10
385.7972169363472
 20
168.7533684157312
 30
0
 11
385.7972169363472
 21
167.0533684157312
 31
0
  0
LINE
  8
1
 62
7
 10
383.0472169363472
 20
165.6533684157312
 30
0
 11
387.0472169363472
 21
165.6533684157312
 31
0
  0
LINE
  8
1
 62
7
 10
383.8472169363472
 20
166.4533684157313
 30
0
 11
386.2472169363473
 21
166.4533684157313
 31
0
  0
LINE
  8
1
 62
7
 10
383.8472169363472
 20
167.0533684157312
 30
0
 11
386.2472169363473
 21
167.0533684157312
 31
0
  0
LINE
  8
1
 62
7
 10
383.8472169363472
 20
168.7533684157312
 30
0
 11
386.2472169363473
 21
168.7533684157312
 31
0
  0
LINE
  8
1
 62
7
 10
383.8472169363472
 20
169.3533684157312
 30
0
 11
386.2472169363473
 21
169.3533684157312
 31
0
  0
LINE
  8
1
 62
7
 10
381.5472169363472
 20
171.6659491534379
 30
0
 11
381.5472169363472
 21
162.866574013939
 31
0
  0
LINE
  8
1
 62
7
 10
380.3472169363472
 20
167.0533684157312
 30
0
 11
380.3472169363472
 21
166.4533684157313
 31
0
  0
LINE
  8
1
 62
7
 10
380.3472169363472
 20
169.3533684157312
 30
0
 11
380.3472169363472
 21
168.7533684157312
 31
0
  0
LINE
  8
1
 62
7
 10
382.7472169363473
 20
167.0533684157312
 30
0
 11
382.7472169363473
 21
166.4533684157313
 31
0
  0
LINE
  8
1
 62
7
 10
382.7472169363473
 20
169.3533684157312
 30
0
 11
382.7472169363473
 21
168.7533684157312
 31
0
  0
LINE
  8
1
 62
7
 10
380.7972169363472
 20
166.4533684157313
 30
0
 11
380.7972169363472
 21
165.6533684157312
 31
0
  0
LINE
  8
1
 62
7
 10
382.2972169363472
 20
166.4533684157313
 30
0
 11
382.2972169363472
 21
165.6533684157312
 31
0
  0
LINE
  8
1
 62
7
 10
380.7972169363472
 20
168.7533684157312
 30
0
 11
380.7972169363472
 21
167.0533684157312
 31
0
  0
LINE
  8
1
 62
7
 10
382.2972169363472
 20
168.7533684157312
 30
0
 11
382.2972169363472
 21
167.0533684157312
 31
0
  0
LINE
  8
1
 62
7
 10
379.5472169363472
 20
165.6533684157312
 30
0
 11
383.5472169363472
 21
165.6533684157312
 31
0
  0
LINE
  8
1
 62
7
 10
380.3472169363472
 20
166.4533684157313
 30
0
 11
382.7472169363473
 21
166.4533684157313
 31
0
  0
LINE
  8
1
 62
7
 10
380.3472169363472
 20
167.0533684157312
 30
0
 11
382.7472169363473
 21
167.0533684157312
 31
0
  0
LINE
  8
1
 62
7
 10
380.3472169363472
 20
168.7533684157312
 30
0
 11
382.7472169363473
 21
168.7533684157312
 31
0
  0
LINE
  8
1
 62
7
 10
380.3472169363472
 20
169.3533684157312
 30
0
 11
382.7472169363473
 21
169.3533684157312
 31
0
  0
LINE
  8
1
 62
7
 10
378.0472169363472
 20
171.6659491534379
 30
0
 11
378.0472169363472
 21
162.866574013939
 31
0
  0
LINE
  8
1
 62
7
 10
376.0472169363472
 20
165.6533684157312
 30
0
 11
376.0472169363472
 21
164.8415416625658
 31
0
  0
LINE
  8
1
 62
7
 10
380.0472169363472
 20
165.6533684157312
 30
0
 11
380.0472169363472
 21
164.8415416625658
 31
0
  0
LINE
  8
1
 62
7
 10
376.8472169363472
 20
167.0533684157312
 30
0
 11
376.8472169363472
 21
166.4533684157313
 31
0
  0
LINE
  8
1
 62
7
 10
376.8472169363472
 20
169.3533684157312
 30
0
 11
376.8472169363472
 21
168.7533684157312
 31
0
  0
LINE
  8
1
 62
7
 10
379.2472169363473
 20
167.0533684157312
 30
0
 11
379.2472169363473
 21
166.4533684157313
 31
0
  0
LINE
  8
1
 62
7
 10
379.2472169363473
 20
169.3533684157312
 30
0
 11
379.2472169363473
 21
168.7533684157312
 31
0
  0
LINE
  8
1
 62
7
 10
377.2972169363472
 20
166.4533684157313
 30
0
 11
377.2972169363472
 21
165.6533684157312
 31
0
  0
LINE
  8
1
 62
7
 10
378.7972169363472
 20
166.4533684157313
 30
0
 11
378.7972169363472
 21
165.6533684157312
 31
0
  0
LINE
  8
1
 62
7
 10
377.2972169363472
 20
168.7533684157312
 30
0
 11
377.2972169363472
 21
167.0533684157312
 31
0
  0
LINE
  8
1
 62
7
 10
378.7972169363472
 20
168.7533684157312
 30
0
 11
378.7972169363472
 21
167.0533684157312
 31
0
  0
LINE
  8
1
 62
7
 10
376.0472169363472
 20
165.6533684157312
 30
0
 11
380.0472169363472
 21
165.6533684157312
 31
0
  0
LINE
  8
1
 62
7
 10
376.8472169363472
 20
166.4533684157313
 30
0
 11
379.2472169363473
 21
166.4533684157313
 31
0
  0
LINE
  8
1
 62
7
 10
376.8472169363472
 20
167.0533684157312
 30
0
 11
379.2472169363473
 21
167.0533684157312
 31
0
  0
LINE
  8
1
 62
7
 10
376.8472169363472
 20
168.7533684157312
 30
0
 11
379.2472169363473
 21
168.7533684157312
 31
0
  0
LINE
  8
1
 62
7
 10
376.8472169363472
 20
169.3533684157312
 30
0
 11
379.2472169363473
 21
169.3533684157312
 31
0
  0
LINE
  8
1
 62
7
 10
374.5472169363472
 20
171.6659491534379
 30
0
 11
374.5472169363472
 21
162.866574013939
 31
0
  0
LINE
  8
1
 62
7
 10
373.3472169363472
 20
167.0533684157312
 30
0
 11
373.3472169363472
 21
166.4533684157313
 31
0
  0
LINE
  8
1
 62
7
 10
373.3472169363472
 20
169.3533684157312
 30
0
 11
373.3472169363472
 21
168.7533684157312
 31
0
  0
LINE
  8
1
 62
7
 10
375.7472169363473
 20
167.0533684157312
 30
0
 11
375.7472169363473
 21
166.4533684157313
 31
0
  0
LINE
  8
1
 62
7
 10
375.7472169363473
 20
169.3533684157312
 30
0
 11
375.7472169363473
 21
168.7533684157312
 31
0
  0
LINE
  8
1
 62
7
 10
373.7972169363472
 20
166.4533684157313
 30
0
 11
373.7972169363472
 21
165.6533684157312
 31
0
  0
LINE
  8
1
 62
7
 10
375.2972169363472
 20
166.4533684157313
 30
0
 11
375.2972169363472
 21
165.6533684157312
 31
0
  0
LINE
  8
1
 62
7
 10
373.7972169363472
 20
168.7533684157312
 30
0
 11
373.7972169363472
 21
167.0533684157312
 31
0
  0
LINE
  8
1
 62
7
 10
375.2972169363472
 20
168.7533684157312
 30
0
 11
375.2972169363472
 21
167.0533684157312
 31
0
  0
LINE
  8
1
 62
7
 10
372.5472169363472
 20
165.6533684157312
 30
0
 11
376.5472169363472
 21
165.6533684157312
 31
0
  0
LINE
  8
1
 62
7
 10
373.3472169363472
 20
166.4533684157313
 30
0
 11
375.7472169363473
 21
166.4533684157313
 31
0
  0
LINE
  8
1
 62
7
 10
373.3472169363472
 20
167.0533684157312
 30
0
 11
375.7472169363473
 21
167.0533684157312
 31
0
  0
LINE
  8
1
 62
7
 10
373.3472169363472
 20
168.7533684157312
 30
0
 11
375.7472169363473
 21
168.7533684157312
 31
0
  0
LINE
  8
1
 62
7
 10
373.3472169363472
 20
169.3533684157312
 30
0
 11
375.7472169363473
 21
169.3533684157312
 31
0
  0
LINE
  8
1
 62
7
 10
371.0472169363473
 20
171.6659491534379
 30
0
 11
371.0472169363473
 21
162.866574013939
 31
0
  0
LINE
  8
1
 62
7
 10
369.0472169363473
 20
165.6533684157312
 30
0
 11
369.0472169363473
 21
164.8415416625658
 31
0
  0
LINE
  8
1
 62
7
 10
373.0472169363472
 20
165.6533684157312
 30
0
 11
373.0472169363472
 21
164.8415416625658
 31
0
  0
LINE
  8
1
 62
7
 10
369.8472169363472
 20
167.0533684157312
 30
0
 11
369.8472169363472
 21
166.4533684157313
 31
0
  0
LINE
  8
1
 62
7
 10
369.8472169363472
 20
169.3533684157312
 30
0
 11
369.8472169363472
 21
168.7533684157312
 31
0
  0
LINE
  8
1
 62
7
 10
372.2472169363473
 20
167.0533684157312
 30
0
 11
372.2472169363473
 21
166.4533684157313
 31
0
  0
LINE
  8
1
 62
7
 10
372.2472169363473
 20
169.3533684157312
 30
0
 11
372.2472169363473
 21
168.7533684157312
 31
0
  0
LINE
  8
1
 62
7
 10
370.2972169363473
 20
166.4533684157313
 30
0
 11
370.2972169363473
 21
165.6533684157312
 31
0
  0
LINE
  8
1
 62
7
 10
371.7972169363473
 20
166.4533684157313
 30
0
 11
371.7972169363473
 21
165.6533684157312
 31
0
  0
LINE
  8
1
 62
7
 10
370.2972169363473
 20
168.7533684157312
 30
0
 11
370.2972169363473
 21
167.0533684157312
 31
0
  0
LINE
  8
1
 62
7
 10
371.7972169363473
 20
168.7533684157312
 30
0
 11
371.7972169363473
 21
167.0533684157312
 31
0
  0
LINE
  8
1
 62
7
 10
369.0472169363473
 20
165.6533684157312
 30
0
 11
373.0472169363472
 21
165.6533684157312
 31
0
  0
LINE
  8
1
 62
7
 10
369.8472169363472
 20
166.4533684157313
 30
0
 11
372.2472169363473
 21
166.4533684157313
 31
0
  0
LINE
  8
1
 62
7
 10
369.8472169363472
 20
167.0533684157312
 30
0
 11
372.2472169363473
 21
167.0533684157312
 31
0
  0
LINE
  8
1
 62
7
 10
369.8472169363472
 20
168.7533684157312
 30
0
 11
372.2472169363473
 21
168.7533684157312
 31
0
  0
LINE
  8
1
 62
7
 10
369.8472169363472
 20
169.3533684157312
 30
0
 11
372.2472169363473
 21
169.3533684157312
 31
0
  0
LINE
  8
1
 62
7
 10
416.0585382945823
 20
139.1713352436279
 30
0
 11
425.7199531852094
 21
139.1713352436279
 31
0
  0
LINE
  8
1
 62
7
 10
427.7199531852094
 20
137.1713352436278
 30
0
 11
427.7199531852094
 21
116.3657210960028
 31
0
  0
LINE
  8
1
 62
7
 10
416.0585382945823
 20
139.1713352436279
 30
0
 11
425.7199531852094
 21
139.1713352436279
 31
0
  0
LINE
  8
1
 62
7
 10
425.7199531852094
 20
135.6713352436278
 30
0
 11
425.7199531852094
 21
117.1835860051232
 31
0
  0
LINE
  8
1
 62
7
 10
416.0585382945823
 20
137.1713352436278
 30
0
 11
424.2199531852093
 21
137.1713352436278
 31
0
  0
LINE
  8
1
 62
7
 10
426.7199531852094
 20
136.1713352436278
 30
0
 11
426.7199531852094
 21
117.0739294200865
 31
0
  0
LINE
  8
1
 62
7
 10
416.0585382945823
 20
138.1713352436279
 30
0
 11
424.7199531852094
 21
138.1713352436279
 31
0
  0
LINE
  8
1
 62
7
 10
428.7199531852094
 20
138.1713352436279
 30
0
 11
428.7199531852094
 21
115.7486331585065
 31
0
  0
LINE
  8
1
 62
7
 10
416.0585382945823
 20
140.1713352436279
 30
0
 11
426.7199531852094
 21
140.1713352436279
 31
0
  0
LINE
  8
1
 62
7
 10
429.7199531852094
 20
138.6713352436279
 30
0
 11
429.7199531852094
 21
115.7653233723458
 31
0
  0
LINE
  8
1
 62
7
 10
416.0585382945823
 20
141.1713352436279
 30
0
 11
427.2199531852093
 21
141.1713352436279
 31
0
  0
LINE
  8
1
 62
7
 10
424.7199531852094
 20
135.1713352436278
 30
0
 11
424.7199531852094
 21
116.6459539510655
 31
0
  0
LINE
  8
1
 62
7
 10
416.0585382945823
 20
136.1713352436278
 30
0
 11
423.7199531852094
 21
136.1713352436278
 31
0
  0
LINE
  8
1
 62
7
 10
430.7199531852094
 20
139.1713352436279
 30
0
 11
430.7199531852094
 21
116.2116272121902
 31
0
  0
LINE
  8
1
 62
7
 10
416.0585382945823
 20
142.1713352436279
 30
0
 11
427.7199531852094
 21
142.1713352436279
 31
0
  0
LINE
  8
1
 62
7
 10
411.8472169363471
 20
136.7628463157787
 30
0
 11
411.8472169363471
 21
132.2141470578563
 31
0
  0
LINE
  8
1
 62
7
 10
415.8472169363472
 20
134.6713352436278
 30
0
 11
415.3472169363472
 21
134.1713352436278
 31
0
  0
LINE
  8
1
 62
7
 10
415.8472169363472
 20
143.6713352436278
 30
0
 11
415.3472169363472
 21
144.1713352436278
 31
0
  0
LINE
  8
1
 62
7
 10
415.8472169363472
 20
143.6713352436278
 30
0
 11
415.8472169363471
 21
142.6713352436279
 31
0
  0
LINE
  8
1
 62
7
 10
402.7472169363473
 20
156.7093488748147
 30
0
 11
402.7472169363473
 21
114.5643437232223
 31
0
  0
LINE
  8
1
 62
7
 10
401.3472169363472
 20
156.7093488748147
 30
0
 11
401.3472169363472
 21
114.5643437232223
 31
0
  0
LINE
  8
1
 62
7
 10
403.7472169363473
 20
159.3881084262201
 30
0
 11
403.7472169363473
 21
163.6415416625658
 31
0
  0
LINE
  8
1
 62
7
 10
403.7472169363473
 20
157.3496308437254
 30
0
 11
403.7472169363473
 21
159.0307532524937
 31
0
  0
LINE
  8
1
 62
7
 10
403.7472169363473
 20
159.0307532524937
 30
0
 11
403.7472169363473
 21
159.3881084262201
 31
0
  0
LINE
  8
1
 62
7
 10
403.7472169363473
 20
115.7415416625658
 30
0
 11
404.0472169363472
 21
115.7415416625658
 31
0
  0
LINE
  8
1
 62
7
 10
400.0472169363472
 20
115.7415416625658
 30
0
 11
400.3472169363472
 21
115.7415416625658
 31
0
  0
LINE
  8
1
 62
7
 10
403.7472169363473
 20
163.1415416625658
 30
0
 11
404.0472169363472
 21
163.1415416625658
 31
0
  0
LINE
  8
1
 62
7
 10
400.0472169363472
 20
163.1415416625658
 30
0
 11
400.3472169363472
 21
163.1415416625658
 31
0
  0
LINE
  8
1
 62
7
 10
403.7472169363473
 20
115.2415416625658
 30
0
 11
403.7472169363473
 21
157.3496308437254
 31
0
  0
LINE
  8
1
 62
7
 10
402.7472169363473
 20
114.5643437232223
 30
0
 11
403.7472169363473
 21
115.2415416625658
 31
0
  0
LINE
  8
1
 62
7
 10
400.3472169363472
 20
115.2415416625658
 30
0
 11
400.3472169363472
 21
163.6415416625658
 31
0
  0
LINE
  8
1
 62
7
 10
401.3472169363472
 20
114.5643437232223
 30
0
 11
400.3472169363472
 21
115.2415416625658
 31
0
  0
LINE
  8
1
 62
7
 10
402.7472169363473
 20
114.5643437232223
 30
0
 11
401.3472169363472
 21
114.5643437232223
 31
0
  0
LINE
  8
1
 62
7
 10
400.0472169363472
 20
163.1415416625658
 30
0
 11
400.0472169363472
 21
115.7415416625658
 31
0
  0
LINE
  8
1
 62
7
 10
404.0472169363472
 20
115.7415416625658
 30
0
 11
406.8472169363472
 21
115.7415416625658
 31
0
  0
LINE
  8
1
 62
7
 10
404.0472169363472
 20
163.1415416625658
 30
0
 11
406.8472169363472
 21
163.1415416625658
 31
0
  0
LINE
  8
1
 62
7
 10
406.8472169363472
 20
163.1415416625658
 30
0
 11
406.8472169363472
 21
115.7415416625658
 31
0
  0
LINE
  8
1
 62
7
 10
400.0472169363472
 20
115.7415416625658
 30
0
 11
400.0472169363472
 21
114.0415416625658
 31
0
  0
LINE
  8
1
 62
7
 10
400.0472169363472
 20
164.8415416625658
 30
0
 11
400.0472169363472
 21
163.1415416625658
 31
0
  0
LINE
  8
1
 62
7
 10
366.5472169363473
 20
164.8415416625658
 30
0
 11
366.5472169363473
 21
161.9415416625658
 31
0
  0
LINE
  8
1
 62
7
 10
366.5472169363473
 20
116.9415416625659
 30
0
 11
366.5472169363473
 21
114.0415416625658
 31
0
  0
LINE
  8
1
 62
7
 10
366.5472169363473
 20
114.0415416625658
 30
0
 11
400.0472169363472
 21
114.0415416625658
 31
0
  0
LINE
  8
1
 62
7
 10
366.5472169363473
 20
161.9415416625658
 30
0
 11
366.5472169363473
 21
116.9415416625659
 31
0
  0
LINE
  8
1
 62
7
 10
366.5472169363473
 20
161.9415416625658
 30
0
 11
366.5472169363473
 21
119.4415416625659
 31
0
  0
LINE
  8
1
 62
7
 10
400.3472169363472
 20
163.6415416625658
 30
0
 11
401.3472169363472
 21
164.3187396019094
 31
0
  0
LINE
  8
1
 62
7
 10
401.3472169363472
 20
164.3187396019094
 30
0
 11
402.7472169363473
 21
164.3187396019094
 31
0
  0
LINE
  8
1
 62
7
 10
402.7472169363473
 20
164.3187396019094
 30
0
 11
403.7472169363473
 21
163.6415416625658
 31
0
  0
LINE
  8
1
 62
7
 10
402.7472169363473
 20
164.3187396019094
 30
0
 11
402.7472169363473
 21
156.7093488748147
 31
0
  0
LINE
  8
1
 62
7
 10
401.3472169363472
 20
164.3187396019094
 30
0
 11
401.3472169363472
 21
156.7093488748147
 31
0
  0
LINE
  8
1
 62
7
 10
366.5472169363473
 20
164.8415416625658
 30
0
 11
400.0472169363472
 21
164.8415416625658
 31
0
  0
LINE
  8
1
 62
7
 10
411.1001422092472
 20
142.6713352436279
 30
0
 11
415.8472169363471
 21
142.6713352436279
 31
0
  0
LINE
  8
1
 62
7
 10
411.1987305879831
 20
142.1713352436279
 30
0
 11
416.0585382945823
 21
142.1713352436279
 31
0
  0
LINE
  8
1
 62
7
 10
411.0726657205417
 20
141.1713352436279
 30
0
 11
416.0585382945823
 21
141.1713352436279
 31
0
  0
LINE
  8
1
 62
7
 10
411.3669921852035
 20
140.1713352436279
 30
0
 11
416.0585382945823
 21
140.1713352436279
 31
0
  0
LINE
  8
1
 62
7
 10
411.4220060295545
 20
139.1713352436279
 30
0
 11
416.0585382945823
 21
139.1713352436279
 31
0
  0
LINE
  8
1
 62
7
 10
410.8979513049566
 20
138.1713352436279
 30
0
 11
416.0585382945823
 21
138.1713352436279
 31
0
  0
LINE
  8
1
 62
7
 10
410.1416310542603
 20
137.1713352436278
 30
0
 11
416.0585382945823
 21
137.1713352436278
 31
0
  0
LINE
  8
1
 62
7
 10
409.6382000299536
 20
136.1713352436278
 30
0
 11
416.0585382945823
 21
136.1713352436278
 31
0
  0
LINE
  8
1
 62
7
 10
411.1001422092472
 20
142.6713352436279
 30
0
 11
410.1405656359497
 21
142.6713352436279
 31
0
  0
LINE
  8
1
 62
7
 10
411.0726657205417
 20
141.1713352436279
 30
0
 11
410.1690431435414
 21
141.1713352436279
 31
0
  0
LINE
  8
1
 62
7
 10
411.3669921852035
 20
140.1713352436279
 30
0
 11
410.6497584279007
 21
140.1713352436279
 31
0
  0
LINE
  8
1
 62
7
 10
410.8979513049566
 20
138.1713352436279
 30
0
 11
410.3735152179437
 21
138.1713352436279
 31
0
  0
LINE
  8
1
 62
7
 10
410.1416310542603
 20
137.1713352436278
 30
0
 11
409.7642469575227
 21
137.1713352436278
 31
0
  0
LINE
  8
1
 62
7
 10
415.8472169363472
 20
136.1713352436278
 30
0
 11
415.8472169363472
 21
135.6713352436278
 31
0
  0
LINE
  8
1
 62
7
 10
206.7262010535457
 20
152.6012661884401
 30
0
 11
215.5650358183776
 21
161.440100953272
 31
0
  0
LINE
  8
1
 62
7
 10
326.8472169363473
 20
161.9213352436278
 30
0
 11
328.8472169363473
 21
161.9213352436278
 31
0
  0
LINE
  8
1
 62
7
 10
326.8472169363473
 20
116.4213352436278
 30
0
 11
328.8472169363473
 21
116.4213352436278
 31
0
  0
LINE
  8
1
 62
7
 10
357.8472169363472
 20
171.6659491534379
 30
0
 11
357.8472169363472
 21
162.866574013939
 31
0
  0
LINE
  8
1
 62
7
 10
359.8472169363472
 20
165.6533684157312
 30
0
 11
359.8472169363472
 21
164.8415416625658
 31
0
  0
LINE
  8
1
 62
7
 10
356.6472169363473
 20
167.0533684157312
 30
0
 11
356.6472169363473
 21
166.4533684157313
 31
0
  0
LINE
  8
1
 62
7
 10
356.6472169363473
 20
169.3533684157312
 30
0
 11
356.6472169363473
 21
168.7533684157312
 31
0
  0
LINE
  8
1
 62
7
 10
359.0472169363473
 20
167.0533684157312
 30
0
 11
359.0472169363473
 21
166.4533684157313
 31
0
  0
LINE
  8
1
 62
7
 10
359.0472169363473
 20
169.3533684157312
 30
0
 11
359.0472169363473
 21
168.7533684157312
 31
0
  0
LINE
  8
1
 62
7
 10
357.0972169363472
 20
166.4533684157313
 30
0
 11
357.0972169363472
 21
165.6533684157312
 31
0
  0
LINE
  8
1
 62
7
 10
358.5972169363472
 20
166.4533684157313
 30
0
 11
358.5972169363472
 21
165.6533684157312
 31
0
  0
LINE
  8
1
 62
7
 10
357.0972169363472
 20
168.7533684157312
 30
0
 11
357.0972169363472
 21
167.0533684157312
 31
0
  0
LINE
  8
1
 62
7
 10
358.5972169363472
 20
168.7533684157312
 30
0
 11
358.5972169363472
 21
167.0533684157312
 31
0
  0
LINE
  8
1
 62
7
 10
355.8472169363472
 20
165.6533684157312
 30
0
 11
359.8472169363472
 21
165.6533684157312
 31
0
  0
LINE
  8
1
 62
7
 10
356.6472169363473
 20
166.4533684157313
 30
0
 11
359.0472169363473
 21
166.4533684157313
 31
0
  0
LINE
  8
1
 62
7
 10
356.6472169363473
 20
167.0533684157312
 30
0
 11
359.0472169363473
 21
167.0533684157312
 31
0
  0
LINE
  8
1
 62
7
 10
356.6472169363473
 20
168.7533684157312
 30
0
 11
359.0472169363473
 21
168.7533684157312
 31
0
  0
LINE
  8
1
 62
7
 10
356.6472169363473
 20
169.3533684157312
 30
0
 11
359.0472169363473
 21
169.3533684157312
 31
0
  0
LINE
  8
1
 62
7
 10
354.3472169363472
 20
171.6659491534379
 30
0
 11
354.3472169363472
 21
162.866574013939
 31
0
  0
LINE
  8
1
 62
7
 10
352.3472169363472
 20
165.6533684157312
 30
0
 11
352.3472169363472
 21
164.8415416625658
 31
0
  0
LINE
  8
1
 62
7
 10
356.3472169363472
 20
165.6533684157312
 30
0
 11
356.3472169363472
 21
164.8415416625658
 31
0
  0
LINE
  8
1
 62
7
 10
353.1472169363473
 20
167.0533684157312
 30
0
 11
353.1472169363473
 21
166.4533684157313
 31
0
  0
LINE
  8
1
 62
7
 10
353.1472169363473
 20
169.3533684157312
 30
0
 11
353.1472169363473
 21
168.7533684157312
 31
0
  0
LINE
  8
1
 62
7
 10
355.5472169363473
 20
167.0533684157312
 30
0
 11
355.5472169363473
 21
166.4533684157313
 31
0
  0
LINE
  8
1
 62
7
 10
355.5472169363473
 20
169.3533684157312
 30
0
 11
355.5472169363473
 21
168.7533684157312
 31
0
  0
LINE
  8
1
 62
7
 10
353.5972169363472
 20
166.4533684157313
 30
0
 11
353.5972169363472
 21
165.6533684157312
 31
0
  0
LINE
  8
1
 62
7
 10
355.0972169363472
 20
166.4533684157313
 30
0
 11
355.0972169363472
 21
165.6533684157312
 31
0
  0
LINE
  8
1
 62
7
 10
353.5972169363472
 20
168.7533684157312
 30
0
 11
353.5972169363472
 21
167.0533684157312
 31
0
  0
LINE
  8
1
 62
7
 10
355.0972169363472
 20
168.7533684157312
 30
0
 11
355.0972169363472
 21
167.0533684157312
 31
0
  0
LINE
  8
1
 62
7
 10
352.3472169363472
 20
165.6533684157312
 30
0
 11
356.3472169363472
 21
165.6533684157312
 31
0
  0
LINE
  8
1
 62
7
 10
353.1472169363473
 20
166.4533684157313
 30
0
 11
355.5472169363473
 21
166.4533684157313
 31
0
  0
LINE
  8
1
 62
7
 10
353.1472169363473
 20
167.0533684157312
 30
0
 11
355.5472169363473
 21
167.0533684157312
 31
0
  0
LINE
  8
1
 62
7
 10
353.1472169363473
 20
168.7533684157312
 30
0
 11
355.5472169363473
 21
168.7533684157312
 31
0
  0
LINE
  8
1
 62
7
 10
353.1472169363473
 20
169.3533684157312
 30
0
 11
355.5472169363473
 21
169.3533684157312
 31
0
  0
LINE
  8
1
 62
7
 10
350.8472169363472
 20
171.6659491534379
 30
0
 11
350.8472169363472
 21
162.866574013939
 31
0
  0
LINE
  8
1
 62
7
 10
349.6472169363473
 20
167.0533684157312
 30
0
 11
349.6472169363473
 21
166.4533684157313
 31
0
  0
LINE
  8
1
 62
7
 10
349.6472169363473
 20
169.3533684157312
 30
0
 11
349.6472169363473
 21
168.7533684157312
 31
0
  0
LINE
  8
1
 62
7
 10
352.0472169363473
 20
167.0533684157312
 30
0
 11
352.0472169363473
 21
166.4533684157313
 31
0
  0
LINE
  8
1
 62
7
 10
352.0472169363473
 20
169.3533684157312
 30
0
 11
352.0472169363473
 21
168.7533684157312
 31
0
  0
LINE
  8
1
 62
7
 10
350.0972169363472
 20
166.4533684157313
 30
0
 11
350.0972169363472
 21
165.6533684157312
 31
0
  0
LINE
  8
1
 62
7
 10
351.5972169363472
 20
166.4533684157313
 30
0
 11
351.5972169363472
 21
165.6533684157312
 31
0
  0
LINE
  8
1
 62
7
 10
350.0972169363472
 20
168.7533684157312
 30
0
 11
350.0972169363472
 21
167.0533684157312
 31
0
  0
LINE
  8
1
 62
7
 10
351.5972169363472
 20
168.7533684157312
 30
0
 11
351.5972169363472
 21
167.0533684157312
 31
0
  0
LINE
  8
1
 62
7
 10
348.8472169363472
 20
165.6533684157312
 30
0
 11
352.8472169363472
 21
165.6533684157312
 31
0
  0
LINE
  8
1
 62
7
 10
349.6472169363473
 20
166.4533684157313
 30
0
 11
352.0472169363473
 21
166.4533684157313
 31
0
  0
LINE
  8
1
 62
7
 10
349.6472169363473
 20
167.0533684157312
 30
0
 11
352.0472169363473
 21
167.0533684157312
 31
0
  0
LINE
  8
1
 62
7
 10
349.6472169363473
 20
168.7533684157312
 30
0
 11
352.0472169363473
 21
168.7533684157312
 31
0
  0
LINE
  8
1
 62
7
 10
349.6472169363473
 20
169.3533684157312
 30
0
 11
352.0472169363473
 21
169.3533684157312
 31
0
  0
LINE
  8
1
 62
7
 10
347.3472169363472
 20
171.6659491534379
 30
0
 11
347.3472169363472
 21
162.866574013939
 31
0
  0
LINE
  8
1
 62
7
 10
345.3472169363472
 20
165.6533684157312
 30
0
 11
345.3472169363472
 21
164.8415416625658
 31
0
  0
LINE
  8
1
 62
7
 10
349.3472169363472
 20
165.6533684157312
 30
0
 11
349.3472169363472
 21
164.8415416625658
 31
0
  0
LINE
  8
1
 62
7
 10
346.1472169363473
 20
167.0533684157312
 30
0
 11
346.1472169363473
 21
166.4533684157313
 31
0
  0
LINE
  8
1
 62
7
 10
346.1472169363473
 20
169.3533684157312
 30
0
 11
346.1472169363473
 21
168.7533684157312
 31
0
  0
LINE
  8
1
 62
7
 10
348.5472169363473
 20
167.0533684157312
 30
0
 11
348.5472169363473
 21
166.4533684157313
 31
0
  0
LINE
  8
1
 62
7
 10
348.5472169363473
 20
169.3533684157312
 30
0
 11
348.5472169363473
 21
168.7533684157312
 31
0
  0
LINE
  8
1
 62
7
 10
346.5972169363472
 20
166.4533684157313
 30
0
 11
346.5972169363472
 21
165.6533684157312
 31
0
  0
LINE
  8
1
 62
7
 10
348.0972169363472
 20
166.4533684157313
 30
0
 11
348.0972169363472
 21
165.6533684157312
 31
0
  0
LINE
  8
1
 62
7
 10
346.5972169363472
 20
168.7533684157312
 30
0
 11
346.5972169363472
 21
167.0533684157312
 31
0
  0
LINE
  8
1
 62
7
 10
348.0972169363472
 20
168.7533684157312
 30
0
 11
348.0972169363472
 21
167.0533684157312
 31
0
  0
LINE
  8
1
 62
7
 10
345.3472169363472
 20
165.6533684157312
 30
0
 11
349.3472169363472
 21
165.6533684157312
 31
0
  0
LINE
  8
1
 62
7
 10
346.1472169363473
 20
166.4533684157313
 30
0
 11
348.5472169363473
 21
166.4533684157313
 31
0
  0
LINE
  8
1
 62
7
 10
346.1472169363473
 20
167.0533684157312
 30
0
 11
348.5472169363473
 21
167.0533684157312
 31
0
  0
LINE
  8
1
 62
7
 10
346.1472169363473
 20
168.7533684157312
 30
0
 11
348.5472169363473
 21
168.7533684157312
 31
0
  0
LINE
  8
1
 62
7
 10
346.1472169363473
 20
169.3533684157312
 30
0
 11
348.5472169363473
 21
169.3533684157312
 31
0
  0
LINE
  8
1
 62
7
 10
343.8472169363472
 20
171.6659491534379
 30
0
 11
343.8472169363472
 21
162.866574013939
 31
0
  0
LINE
  8
1
 62
7
 10
342.6472169363473
 20
167.0533684157312
 30
0
 11
342.6472169363473
 21
166.4533684157313
 31
0
  0
LINE
  8
1
 62
7
 10
342.6472169363473
 20
169.3533684157312
 30
0
 11
342.6472169363473
 21
168.7533684157312
 31
0
  0
LINE
  8
1
 62
7
 10
345.0472169363473
 20
167.0533684157312
 30
0
 11
345.0472169363473
 21
166.4533684157313
 31
0
  0
LINE
  8
1
 62
7
 10
345.0472169363473
 20
169.3533684157312
 30
0
 11
345.0472169363473
 21
168.7533684157312
 31
0
  0
LINE
  8
1
 62
7
 10
343.0972169363472
 20
166.4533684157313
 30
0
 11
343.0972169363472
 21
165.6533684157312
 31
0
  0
LINE
  8
1
 62
7
 10
344.5972169363472
 20
166.4533684157313
 30
0
 11
344.5972169363472
 21
165.6533684157312
 31
0
  0
LINE
  8
1
 62
7
 10
343.0972169363472
 20
168.7533684157312
 30
0
 11
343.0972169363472
 21
167.0533684157312
 31
0
  0
LINE
  8
1
 62
7
 10
344.5972169363472
 20
168.7533684157312
 30
0
 11
344.5972169363472
 21
167.0533684157312
 31
0
  0
LINE
  8
1
 62
7
 10
341.8472169363472
 20
165.6533684157312
 30
0
 11
345.8472169363472
 21
165.6533684157312
 31
0
  0
LINE
  8
1
 62
7
 10
342.6472169363473
 20
166.4533684157313
 30
0
 11
345.0472169363473
 21
166.4533684157313
 31
0
  0
LINE
  8
1
 62
7
 10
342.6472169363473
 20
167.0533684157312
 30
0
 11
345.0472169363473
 21
167.0533684157312
 31
0
  0
LINE
  8
1
 62
7
 10
342.6472169363473
 20
168.7533684157312
 30
0
 11
345.0472169363473
 21
168.7533684157312
 31
0
  0
LINE
  8
1
 62
7
 10
342.6472169363473
 20
169.3533684157312
 30
0
 11
345.0472169363473
 21
169.3533684157312
 31
0
  0
LINE
  8
1
 62
7
 10
340.3472169363472
 20
171.6659491534379
 30
0
 11
340.3472169363472
 21
162.866574013939
 31
0
  0
LINE
  8
1
 62
7
 10
338.3472169363472
 20
165.6533684157312
 30
0
 11
338.3472169363472
 21
164.8415416625658
 31
0
  0
LINE
  8
1
 62
7
 10
342.3472169363472
 20
165.6533684157312
 30
0
 11
342.3472169363472
 21
164.8415416625658
 31
0
  0
LINE
  8
1
 62
7
 10
339.1472169363473
 20
167.0533684157312
 30
0
 11
339.1472169363473
 21
166.4533684157313
 31
0
  0
LINE
  8
1
 62
7
 10
339.1472169363473
 20
169.3533684157312
 30
0
 11
339.1472169363473
 21
168.7533684157312
 31
0
  0
LINE
  8
1
 62
7
 10
341.5472169363473
 20
167.0533684157312
 30
0
 11
341.5472169363473
 21
166.4533684157313
 31
0
  0
LINE
  8
1
 62
7
 10
341.5472169363473
 20
169.3533684157312
 30
0
 11
341.5472169363473
 21
168.7533684157312
 31
0
  0
LINE
  8
1
 62
7
 10
339.5972169363472
 20
166.4533684157313
 30
0
 11
339.5972169363472
 21
165.6533684157312
 31
0
  0
LINE
  8
1
 62
7
 10
341.0972169363472
 20
166.4533684157313
 30
0
 11
341.0972169363472
 21
165.6533684157312
 31
0
  0
LINE
  8
1
 62
7
 10
339.5972169363472
 20
168.7533684157312
 30
0
 11
339.5972169363472
 21
167.0533684157312
 31
0
  0
LINE
  8
1
 62
7
 10
341.0972169363472
 20
168.7533684157312
 30
0
 11
341.0972169363472
 21
167.0533684157312
 31
0
  0
LINE
  8
1
 62
7
 10
338.3472169363472
 20
165.6533684157312
 30
0
 11
342.3472169363472
 21
165.6533684157312
 31
0
  0
LINE
  8
1
 62
7
 10
339.1472169363473
 20
166.4533684157313
 30
0
 11
341.5472169363473
 21
166.4533684157313
 31
0
  0
LINE
  8
1
 62
7
 10
339.1472169363473
 20
167.0533684157312
 30
0
 11
341.5472169363473
 21
167.0533684157312
 31
0
  0
LINE
  8
1
 62
7
 10
339.1472169363473
 20
168.7533684157312
 30
0
 11
341.5472169363473
 21
168.7533684157312
 31
0
  0
LINE
  8
1
 62
7
 10
339.1472169363473
 20
169.3533684157312
 30
0
 11
341.5472169363473
 21
169.3533684157312
 31
0
  0
LINE
  8
1
 62
7
 10
336.8472169363472
 20
171.6659491534379
 30
0
 11
336.8472169363472
 21
162.866574013939
 31
0
  0
LINE
  8
1
 62
7
 10
335.6472169363473
 20
167.0533684157312
 30
0
 11
335.6472169363473
 21
166.4533684157313
 31
0
  0
LINE
  8
1
 62
7
 10
335.6472169363473
 20
169.3533684157312
 30
0
 11
335.6472169363473
 21
168.7533684157312
 31
0
  0
LINE
  8
1
 62
7
 10
338.0472169363473
 20
167.0533684157312
 30
0
 11
338.0472169363473
 21
166.4533684157313
 31
0
  0
LINE
  8
1
 62
7
 10
338.0472169363473
 20
169.3533684157312
 30
0
 11
338.0472169363473
 21
168.7533684157312
 31
0
  0
LINE
  8
1
 62
7
 10
336.0972169363472
 20
166.4533684157313
 30
0
 11
336.0972169363472
 21
165.6533684157312
 31
0
  0
LINE
  8
1
 62
7
 10
337.5972169363472
 20
166.4533684157313
 30
0
 11
337.5972169363472
 21
165.6533684157312
 31
0
  0
LINE
  8
1
 62
7
 10
336.0972169363472
 20
168.7533684157312
 30
0
 11
336.0972169363472
 21
167.0533684157312
 31
0
  0
LINE
  8
1
 62
7
 10
337.5972169363473
 20
168.7533684157312
 30
0
 11
337.5972169363472
 21
167.0533684157312
 31
0
  0
LINE
  8
1
 62
7
 10
334.8472169363473
 20
165.6533684157312
 30
0
 11
338.8472169363472
 21
165.6533684157312
 31
0
  0
LINE
  8
1
 62
7
 10
335.6472169363473
 20
166.4533684157313
 30
0
 11
338.0472169363473
 21
166.4533684157313
 31
0
  0
LINE
  8
1
 62
7
 10
335.6472169363473
 20
167.0533684157312
 30
0
 11
338.0472169363473
 21
167.0533684157312
 31
0
  0
LINE
  8
1
 62
7
 10
335.6472169363473
 20
168.7533684157312
 30
0
 11
338.0472169363473
 21
168.7533684157312
 31
0
  0
LINE
  8
1
 62
7
 10
335.6472169363473
 20
169.3533684157312
 30
0
 11
338.0472169363473
 21
169.3533684157312
 31
0
  0
LINE
  8
1
 62
7
 10
333.3472169363473
 20
171.6659491534379
 30
0
 11
333.3472169363473
 21
162.866574013939
 31
0
  0
LINE
  8
1
 62
7
 10
331.3472169363473
 20
165.6533684157312
 30
0
 11
331.3472169363473
 21
164.8415416625658
 31
0
  0
LINE
  8
1
 62
7
 10
335.3472169363473
 20
165.6533684157312
 30
0
 11
335.3472169363473
 21
164.8415416625658
 31
0
  0
LINE
  8
1
 62
7
 10
332.1472169363473
 20
167.0533684157312
 30
0
 11
332.1472169363473
 21
166.4533684157313
 31
0
  0
LINE
  8
1
 62
7
 10
332.1472169363473
 20
169.3533684157312
 30
0
 11
332.1472169363473
 21
168.7533684157312
 31
0
  0
LINE
  8
1
 62
7
 10
334.5472169363472
 20
167.0533684157312
 30
0
 11
334.5472169363472
 21
166.4533684157313
 31
0
  0
LINE
  8
1
 62
7
 10
334.5472169363472
 20
169.3533684157312
 30
0
 11
334.5472169363472
 21
168.7533684157312
 31
0
  0
LINE
  8
1
 62
7
 10
332.5972169363473
 20
166.4533684157313
 30
0
 11
332.5972169363473
 21
165.6533684157312
 31
0
  0
LINE
  8
1
 62
7
 10
334.0972169363473
 20
166.4533684157313
 30
0
 11
334.0972169363473
 21
165.6533684157312
 31
0
  0
LINE
  8
1
 62
7
 10
332.5972169363473
 20
168.7533684157312
 30
0
 11
332.5972169363473
 21
167.0533684157312
 31
0
  0
LINE
  8
1
 62
7
 10
334.0972169363473
 20
168.7533684157312
 30
0
 11
334.0972169363473
 21
167.0533684157312
 31
0
  0
LINE
  8
1
 62
7
 10
331.3472169363473
 20
165.6533684157312
 30
0
 11
335.3472169363473
 21
165.6533684157312
 31
0
  0
LINE
  8
1
 62
7
 10
332.1472169363473
 20
166.4533684157313
 30
0
 11
334.5472169363472
 21
166.4533684157313
 31
0
  0
LINE
  8
1
 62
7
 10
332.1472169363473
 20
167.0533684157312
 30
0
 11
334.5472169363472
 21
167.0533684157312
 31
0
  0
LINE
  8
1
 62
7
 10
332.1472169363473
 20
168.7533684157312
 30
0
 11
334.5472169363472
 21
168.7533684157312
 31
0
  0
LINE
  8
1
 62
7
 10
332.1472169363473
 20
169.3533684157312
 30
0
 11
334.5472169363472
 21
169.3533684157312
 31
0
  0
LINE
  8
1
 62
7
 10
365.0472169363473
 20
156.7093488748147
 30
0
 11
365.0472169363473
 21
114.5643437232223
 31
0
  0
LINE
  8
1
 62
7
 10
363.6472169363472
 20
156.7093488748147
 30
0
 11
363.6472169363472
 21
114.5643437232223
 31
0
  0
LINE
  8
1
 62
7
 10
366.5472169363473
 20
159.3881084262201
 30
0
 11
366.5472169363473
 21
163.6415416625658
 31
0
  0
LINE
  8
1
 62
7
 10
366.5472169363473
 20
157.3496308437254
 30
0
 11
366.5472169363473
 21
159.0307532524937
 31
0
  0
LINE
  8
1
 62
7
 10
366.5472169363473
 20
159.0307532524937
 30
0
 11
366.5472169363473
 21
159.3881084262201
 31
0
  0
LINE
  8
1
 62
7
 10
362.3472169363472
 20
115.7415416625658
 30
0
 11
362.6472169363472
 21
115.7415416625658
 31
0
  0
LINE
  8
1
 62
7
 10
362.3472169363471
 20
163.1415416625658
 30
0
 11
362.6472169363472
 21
163.1415416625658
 31
0
  0
LINE
  8
1
 62
7
 10
366.5472169363473
 20
115.2415416625658
 30
0
 11
366.5472169363473
 21
157.3496308437254
 31
0
  0
LINE
  8
1
 62
7
 10
365.0472169363473
 20
114.5643437232223
 30
0
 11
366.0472169363473
 21
115.2415416625658
 31
0
  0
LINE
  8
1
 62
7
 10
362.6472169363472
 20
115.2415416625658
 30
0
 11
362.6472169363472
 21
163.6415416625658
 31
0
  0
LINE
  8
1
 62
7
 10
363.6472169363472
 20
114.5643437232223
 30
0
 11
362.6472169363472
 21
115.2415416625658
 31
0
  0
LINE
  8
1
 62
7
 10
365.0472169363473
 20
114.5643437232223
 30
0
 11
363.6472169363472
 21
114.5643437232223
 31
0
  0
LINE
  8
1
 62
7
 10
362.3472169363471
 20
163.1415416625658
 30
0
 11
362.3472169363472
 21
115.7415416625658
 31
0
  0
LINE
  8
1
 62
7
 10
362.3472169363472
 20
115.7415416625658
 30
0
 11
362.3472169363472
 21
114.0415416625658
 31
0
  0
LINE
  8
1
 62
7
 10
362.3472169363472
 20
164.8415416625658
 30
0
 11
362.3472169363471
 21
163.1415416625658
 31
0
  0
LINE
  8
1
 62
7
 10
231.5024594983219
 20
104.8900815707586
 30
0
 11
231.5024594983219
 21
173.5218073298182
 31
0
  0
LINE
  8
1
 62
7
 10
196.3102490998437
 20
139.1387162426487
 30
0
 11
266.6946698968
 21
139.1387162426488
 31
0
  0
LINE
  8
1
 62
7
 10
246.8552327901338
 20
148.0026440354836
 30
0
 11
242.0952537381378
 21
145.2544688484769
 31
0
  0
LINE
  8
1
 62
7
 10
216.14968620651
 20
148.0026440354836
 30
0
 11
220.909665258506
 21
145.2544688484769
 31
0
  0
LINE
  8
1
 62
7
 10
209.4995309212208
 20
161.1416448197497
 30
0
 11
214.8478773334217
 21
155.793298407549
 31
0
  0
LINE
  8
1
 62
7
 10
214.9958593500932
 20
158.473743515623
 30
0
 11
212.780365336979
 21
160.6892375287379
 31
0
  0
LINE
  8
1
 62
7
 10
210.3975611350862
 20
158.2637156185622
 30
0
 11
212.5519977625223
 21
156.109278991126
 31
0
  0
LINE
  8
1
 62
7
 10
212.1674322253473
 20
155.6453163908772
 30
0
 11
209.9849473504514
 21
157.827801265773
 31
0
  0
LINE
  8
1
 62
7
 10
212.7862304667081
 20
159.8348442615846
 30
0
 11
214.5318967498446
 21
158.0891779784483
 31
0
  0
LINE
  8
1
 62
7
 10
209.5606432940487
 20
158.2521053221758
 30
0
 11
209.5606958477595
 21
158.2521593391006
 31
0
  0
LINE
  8
1
 62
7
 10
210.4033329867845
 20
158.2579437668637
 30
0
 11
210.4033862771248
 21
158.2578904765236
 31
0
  0
LINE
  8
1
 62
7
 10
209.5606958477595
 20
158.2521593391006
 30
0
 11
209.5548986726019
 21
158.2462007575032
 31
0
  0
LINE
  8
1
 62
7
 10
211.9260525904176
 20
160.683372951756
 30
0
 11
209.979082220722
 21
158.6821945329263
 31
0
  0
LINE
  8
1
 62
7
 10
209.979082220722
 20
158.6821945329263
 30
0
 11
210.4033862771248
 21
158.2578904765236
 31
0
  0
LINE
  8
1
 62
7
 10
210.4033862771248
 20
158.2578904765236
 30
0
 11
211.9319177201468
 21
159.8289796846028
 31
0
  0
LINE
  8
1
 62
7
 10
209.5606832817394
 20
157.4035371970612
 30
0
 11
211.4680591281827
 21
155.4961613506178
 31
0
  0
LINE
  8
1
 62
7
 10
211.4680591281827
 20
155.4961613506178
 30
0
 11
211.8923231968947
 21
155.9204254193297
 31
0
  0
LINE
  8
1
 62
7
 10
212.913385388928
 20
160.5562174767887
 30
0
 11
213.1255174232841
 21
160.7683495111447
 31
0
  0
LINE
  8
1
 62
7
 10
213.4083601357586
 20
160.7683495111447
 30
0
 11
214.8932843762505
 21
159.283425270653
 31
0
  0
LINE
  8
1
 62
7
 10
214.8932843762502
 20
159.0005825581781
 30
0
 11
214.6811523418944
 21
158.7884505238224
 31
0
  0
LINE
  8
1
 62
7
 10
213.9740455607078
 20
158.6470291675851
 30
0
 11
211.9941465733857
 21
156.6671301802628
 31
0
  0
LINE
  8
1
 62
7
 10
208.6000340236901
 20
153.5558603430419
 30
0
 11
207.6807952081476
 21
154.4750991585845
 31
0
  0
LINE
  8
1
 62
7
 10
207.6807952081473
 20
154.7579418710588
 30
0
 11
209.9435369079445
 21
157.020683570856
 31
0
  0
LINE
  8
1
 62
7
 10
210.7920650453684
 20
157.8692117082799
 30
0
 11
212.7717241010988
 21
159.8488707640104
 31
0
  0
LINE
  8
1
 62
7
 10
211.1456184359617
 20
155.8186020428389
 30
0
 11
208.8828767361644
 21
153.5558603430417
 31
0
  0
LINE
  8
1
 62
7
 10
207.6807952081473
 20
154.7579418710588
 30
0
 11
207.6807952081476
 21
154.4750991585845
 31
0
  0
LINE
  8
1
 62
7
 10
208.8828767361644
 20
153.5558603430417
 30
0
 11
208.6000340236901
 21
153.5558603430419
 31
0
  0
LINE
  8
1
 62
7
 10
328.8472169363473
 20
164.8415416625658
 30
0
 11
328.8472169363473
 21
161.9415416625658
 31
0
  0
LINE
  8
1
 62
7
 10
326.8472169363473
 20
161.9415416625658
 30
0
 11
326.8472169363473
 21
164.8415416625658
 31
0
  0
LINE
  8
1
 62
7
 10
326.8472169363473
 20
164.8415416625658
 30
0
 11
324.8472169363473
 21
164.8415416625658
 31
0
  0
LINE
  8
1
 62
7
 10
324.8472169363473
 20
164.8415416625658
 30
0
 11
324.8472169363473
 21
161.9415416625658
 31
0
  0
LINE
  8
1
 62
7
 10
324.8472169363473
 20
161.9415416625658
 30
0
 11
324.8472169363473
 21
159.4415416625658
 31
0
  0
LINE
  8
1
 62
7
 10
324.8472169363473
 20
159.4415416625658
 30
0
 11
321.8472169363473
 21
159.4415416625658
 31
0
  0
LINE
  8
1
 62
7
 10
321.8472169363473
 20
159.4415416625658
 30
0
 11
321.8472169363473
 21
119.4415416625659
 31
0
  0
LINE
  8
1
 62
7
 10
321.8472169363473
 20
119.4415416625659
 30
0
 11
324.8472169363473
 21
119.4415416625659
 31
0
  0
LINE
  8
1
 62
7
 10
324.8472169363473
 20
119.4415416625659
 30
0
 11
324.8472169363473
 21
114.0415416625658
 31
0
  0
LINE
  8
1
 62
7
 10
324.8472169363473
 20
114.0415416625658
 30
0
 11
326.8472169363473
 21
114.0415416625658
 31
0
  0
LINE
  8
1
 62
7
 10
326.8472169363473
 20
114.0415416625658
 30
0
 11
326.8472169363473
 21
116.9415416625659
 31
0
  0
LINE
  8
1
 62
7
 10
328.8472169363473
 20
116.9415416625659
 30
0
 11
328.8472169363473
 21
114.0415416625658
 31
0
  0
LINE
  8
1
 62
7
 10
328.8472169363473
 20
114.0415416625658
 30
0
 11
362.3472169363472
 21
114.0415416625658
 31
0
  0
LINE
  8
1
 62
7
 10
328.8472169363473
 20
161.9415416625658
 30
0
 11
328.8472169363473
 21
116.9415416625659
 31
0
  0
LINE
  8
1
 62
7
 10
328.8472169363473
 20
161.9415416625658
 30
0
 11
328.8472169363473
 21
119.4415416625659
 31
0
  0
LINE
  8
1
 62
7
 10
326.8472169363473
 20
161.9415416625658
 30
0
 11
326.8472169363473
 21
116.9415416625659
 31
0
  0
LINE
  8
1
 62
7
 10
324.8472169363473
 20
159.4415416625658
 30
0
 11
324.8472169363473
 21
119.4415416625659
 31
0
  0
LINE
  8
1
 62
7
 10
223.6090959600043
 20
167.9941361967226
 30
0
 11
225.9475841154888
 21
168.5340187271478
 31
0
  0
LINE
  8
1
 62
7
 10
223.7440665926106
 20
167.4095141578514
 30
0
 11
226.0825547480951
 21
167.9493966882767
 31
0
  0
LINE
  8
1
 62
7
 10
224.1264833849953
 20
165.7530850477165
 30
0
 11
226.4649715404797
 21
166.2929675781418
 31
0
  0
LINE
  8
1
 62
7
 10
224.2614540176015
 20
165.1684630088454
 30
0
 11
226.5999421730861
 21
165.7083455392706
 31
0
  0
LINE
  8
1
 62
7
 10
223.6619188092485
 20
164.2090061135421
 30
0
 11
227.5593990683894
 21
165.1088103309174
 31
0
  0
LINE
  8
1
 62
7
 10
225.6440882189419
 20
167.8481687138219
 30
0
 11
226.0265050113264
 21
166.191739603687
 31
0
  0
LINE
  8
1
 62
7
 10
224.182533121764
 20
167.5107421323061
 30
0
 11
224.5649499141485
 21
165.8543130221712
 31
0
  0
LINE
  8
1
 62
7
 10
226.1614756439327
 20
165.6071175648159
 30
0
 11
226.3414364874078
 21
164.8276215129877
 31
0
  0
LINE
  8
1
 62
7
 10
224.699920546755
 20
165.2696909833001
 30
0
 11
224.8798813902301
 21
164.4901949314718
 31
0
  0
LINE
  8
1
 62
7
 10
225.9475841154888
 20
168.5340187271478
 30
0
 11
226.0825547480951
 21
167.9493966882767
 31
0
  0
LINE
  8
1
 62
7
 10
226.4649715404797
 20
166.2929675781418
 30
0
 11
226.5999421730861
 21
165.7083455392706
 31
0
  0
LINE
  8
1
 62
7
 10
223.6090959600043
 20
167.9941361967226
 30
0
 11
223.7440665926106
 21
167.4095141578514
 31
0
  0
LINE
  8
1
 62
7
 10
224.1264833849953
 20
165.7530850477165
 30
0
 11
224.2614540176015
 21
165.1684630088454
 31
0
  0
LINE
  8
1
 62
7
 10
227.5593990683894
 20
165.1088103309174
 30
0
 11
227.7551830691547
 21
164.2607766550316
 31
0
  0
LINE
  8
1
 62
7
 10
223.6619188092485
 20
164.2090061135421
 30
0
 11
223.8577028100137
 21
163.3609724376561
 31
0
  0
LINE
  8
1
 62
7
 10
224.2581225625441
 20
170.5173869051556
 30
0
 11
226.2375512777416
 21
161.9435391804122
 31
0
  0
LINE
  8
1
 62
7
 10
237.0573348811548
 20
168.5340187271478
 30
0
 11
239.3958230366394
 21
167.9941361967226
 31
0
  0
LINE
  8
1
 62
7
 10
236.9223642485486
 20
167.9493966882767
 30
0
 11
239.2608524040331
 21
167.4095141578514
 31
0
  0
LINE
  8
1
 62
7
 10
236.5399474561639
 20
166.2929675781418
 30
0
 11
238.8784356116485
 21
165.7530850477165
 31
0
  0
LINE
  8
1
 62
7
 10
236.4049768235577
 20
165.7083455392707
 30
0
 11
238.7434649790421
 21
165.1684630088454
 31
0
  0
LINE
  8
1
 62
7
 10
235.4455199282543
 20
165.1088103309176
 30
0
 11
239.3430001873954
 21
164.2090061135421
 31
0
  0
LINE
  8
1
 62
7
 10
238.8223858748797
 20
167.5107421323062
 30
0
 11
238.4399690824951
 21
165.8543130221712
 31
0
  0
LINE
  8
1
 62
7
 10
237.360830777702
 20
167.848168713822
 30
0
 11
236.9784139853173
 21
166.1917396036871
 31
0
  0
LINE
  8
1
 62
7
 10
238.3049984498888
 20
165.2696909833001
 30
0
 11
238.1250376064137
 21
164.4901949314718
 31
0
  0
LINE
  8
1
 62
7
 10
236.843443352711
 20
165.6071175648159
 30
0
 11
236.6634825092359
 21
164.8276215129877
 31
0
  0
LINE
  8
1
 62
7
 10
239.3958230366394
 20
167.9941361967226
 30
0
 11
239.2608524040331
 21
167.4095141578514
 31
0
  0
LINE
  8
1
 62
7
 10
238.8784356116485
 20
165.7530850477165
 30
0
 11
238.7434649790421
 21
165.1684630088454
 31
0
  0
LINE
  8
1
 62
7
 10
237.0573348811548
 20
168.5340187271478
 30
0
 11
236.9223642485486
 21
167.9493966882767
 31
0
  0
LINE
  8
1
 62
7
 10
236.5399474561639
 20
166.2929675781418
 30
0
 11
236.4049768235577
 21
165.7083455392707
 31
0
  0
LINE
  8
1
 62
7
 10
239.3430001873954
 20
164.2090061135421
 30
0
 11
239.14721618663
 21
163.3609724376561
 31
0
  0
LINE
  8
1
 62
7
 10
235.4455199282543
 20
165.1088103309176
 30
0
 11
235.249735927489
 21
164.2607766550316
 31
0
  0
LINE
  8
1
 62
7
 10
238.7467964340995
 20
170.5173869051556
 30
0
 11
236.7673677189021
 21
161.9435391804122
 31
0
  0
LINE
  8
1
 62
7
 10
231.5024594983229
 20
139.1387162426487
 30
0
 11
208.4594824729545
 21
162.1816932680158
 31
0
  0
LINE
  8
1
 62
7
 10
231.5024594983219
 20
173.5218073298182
 30
0
 11
231.5024594983219
 21
175.8635683183076
 31
0
  0
LINE
  8
1
 62
7
 10
231.5024594983219
 20
139.1387162426452
 30
0
 11
239.14721618663
 21
163.3609724376561
 31
0
  0
LINE
  8
1
 62
7
 10
231.5024594983196
 20
139.138716242652
 30
0
 11
223.8577028100137
 21
163.3609724376561
 31
0
  0
LINE
  8
1
 62
7
 10
239.5267768342665
 20
107.8474991931986
 30
0
 11
275.2267768342665
 21
107.8474991931986
 31
0
  0
LINE
  8
1
 62
7
 10
239.8267768342665
 20
101.8474991931986
 30
0
 11
275.2267768342665
 21
101.8474991931986
 31
0
  0
LINE
  8
1
 62
7
 10
239.8267768342665
 20
95.84749919319863
 30
0
 11
275.2267768342665
 21
95.84749919319863
 31
0
  0
LINE
  8
1
 62
7
 10
362.6472169363472
 20
163.6415416625658
 30
0
 11
363.6472169363472
 21
164.3187396019094
 31
0
  0
LINE
  8
1
 62
7
 10
363.6472169363472
 20
164.3187396019094
 30
0
 11
365.0472169363473
 21
164.3187396019094
 31
0
  0
LINE
  8
1
 62
7
 10
365.0472169363473
 20
164.3187396019094
 30
0
 11
366.0472169363473
 21
163.6415416625658
 31
0
  0
LINE
  8
1
 62
7
 10
365.0472169363473
 20
164.3187396019094
 30
0
 11
365.0472169363473
 21
156.7093488748147
 31
0
  0
LINE
  8
1
 62
7
 10
363.6472169363472
 20
164.3187396019094
 30
0
 11
363.6472169363472
 21
156.7093488748147
 31
0
  0
LINE
  8
1
 62
7
 10
328.8472169363473
 20
164.8415416625658
 30
0
 11
362.3472169363472
 21
164.8415416625658
 31
0
  0
LINE
  8
1
 62
7
 10
327.2472169363473
 20
164.8415416625658
 30
0
 11
328.4472169363472
 21
164.8415416625658
 31
0
  0
LINE
  8
1
 62
7
 10
327.2472169363473
 20
114.0415416625658
 30
0
 11
328.4472169363472
 21
114.0415416625658
 31
0
  0
LINE
  8
1
 62
7
 10
415.8472169363472
 20
135.6713352436278
 30
0
 11
415.8472169363472
 21
134.6713352436278
 31
0
  0
LINE
  8
1
 62
7
 10
259.2781696533446
 20
66.53945141597009
 30
0
 11
349.2781696533446
 21
66.53945141597009
 31
0
  0
LINE
  8
1
 62
7
 10
259.2781696533446
 20
60.53945141597009
 30
0
 11
349.2781696533446
 21
60.53945141597009
 31
0
  0
LINE
  8
1
 62
7
 10
259.2781696533446
 20
59.53945141597009
 30
0
 11
349.2781696533446
 21
59.53945141597009
 31
0
  0
LINE
  8
1
 62
7
 10
259.2781696533446
 20
53.53945141597009
 30
0
 11
349.2781696533446
 21
53.53945141597009
 31
0
  0
LINE
  8
1
 62
7
 10
259.2781696533446
 20
47.53945141597009
 30
0
 11
349.2781696533446
 21
47.53945141597009
 31
0
  0
LINE
  8
1
 62
7
 10
259.2781696533446
 20
41.53945141597009
 30
0
 11
349.2781696533446
 21
41.53945141597009
 31
0
  0
LINE
  8
1
 62
7
 10
349.2781696533446
 20
66.53945141597009
 30
0
 11
349.2781696533446
 21
41.53945141597009
 31
0
  0
LINE
  8
1
 62
7
 10
319.2781696533446
 20
66.53945141597009
 30
0
 11
319.2781696533446
 21
41.53945141597009
 31
0
  0
LINE
  8
1
 62
7
 10
289.2781696533446
 20
66.53945141597009
 30
0
 11
289.2781696533446
 21
41.53945141597009
 31
0
  0
LINE
  8
1
 62
7
 10
259.2781696533446
 20
66.53945141597009
 30
0
 11
259.2781696533446
 21
41.53945141597009
 31
0
  0
LINE
  8
1
 62
7
 10
259.2781696533446
 20
41.53945141597009
 30
0
 11
259.2781696533446
 21
35.53945141597009
 31
0
  0
LINE
  8
1
 62
7
 10
259.2781696533446
 20
35.53945141597009
 30
0
 11
349.2781696533446
 21
35.53945141597009
 31
0
  0
LINE
  8
1
 62
7
 10
289.2781696533446
 20
41.53945141597009
 30
0
 11
289.2781696533446
 21
35.53945141597009
 31
0
  0
LINE
  8
1
 62
7
 10
319.2781696533446
 20
41.53945141597009
 30
0
 11
319.2781696533446
 21
35.53945141597009
 31
0
  0
LINE
  8
1
 62
7
 10
349.2781696533446
 20
41.53945141597009
 30
0
 11
349.2781696533446
 21
35.53945141597009
 31
0
  0
LINE
  8
1
 62
7
 10
369.545761415243
 20
98.1647579438132
 30
0
 11
374.410078735058
 21
98.1647579438132
 31
0
  0
LINE
  8
1
 62
7
 10
370.350097350016
 20
98.1647579438132
 30
0
 11
370.350097350016
 21
100.5370950614706
 31
0
  0
LINE
  8
1
 62
7
 10
370.350097350016
 20
100.5370950614706
 30
0
 11
373.414234244387
 21
100.5370950614706
 31
0
  0
LINE
  8
1
 62
7
 10
373.414234244387
 20
100.5370950614706
 30
0
 11
373.414234244387
 21
98.1647579438132
 31
0
  0
LINE
  8
1
 62
7
 10
371.350097350016
 20
100.5370950614706
 30
0
 11
371.350097350016
 21
98.1647579438132
 31
0
  0
LINE
  8
1
 62
7
 10
372.350097350016
 20
100.5370950614706
 30
0
 11
372.350097350016
 21
98.1647579438132
 31
0
  0
LINE
  8
1
 62
7
 10
223.5576761792492
 20
164.3149032636766
 30
0
 11
215.8568955551515
 21
188.8835862158019
 31
0
  0
ARC
  8
1
 62
7
 10
231.5024594983229
 20
139.1387162426487
 30
0
 40
29.91555529609952
 50
80.92321660787108
 51
97.48519632174975
  0
ARC
  8
1
 62
7
 10
231.5024594983229
 20
139.1387162426487
 30
0
 40
29.91555529609958
 50
41.90316926594717
 51
73.10285384046868
  0
ARC
  8
1
 62
7
 10
231.5024594983229
 20
139.1387162426487
 30
0
 40
29.09922162358446
 50
140.8121180123455
 51
173.5221652807691
  0
CIRCLE
  8
1
 62
7
 10
256.82290256566
 20
99.93285662606333
 30
0
 40
0.7915453044496608
  0
CIRCLE
  8
1
 62
7
 10
247.2067119703112
 20
100.0009891917592
 30
0
 40
0.7915453044496723
  0
CIRCLE
  8
1
 62
7
 10
216.786909596262
 20
203.029403940135
 30
0
 40
0.5588206138869296
  0
CIRCLE
  8
1
 62
7
 10
326.7784247263758
 20
190.1066993147193
 30
0
 40
0.5
  0
CIRCLE
  8
1
 62
7
 10
326.7784247263758
 20
190.1066993147193
 30
0
 40
0.3999999999999773
  0
CIRCLE
  8
1
 62
7
 10
326.7784247263758
 20
190.1066993147193
 30
0
 40
0.2999999999999545
  0
CIRCLE
  8
1
 62
7
 10
326.7784247263758
 20
190.1066993147193
 30
0
 40
0.1999999999999886
  0
CIRCLE
  8
1
 62
7
 10
326.7784247263758
 20
190.1066993147193
 30
0
 40
0.09999999999996589
  0
CIRCLE
  8
1
 62
7
 10
231.5024594983219
 20
124.1387162426489
 30
0
 40
0.9999999999990052
  0
CIRCLE
  8
1
 62
7
 10
244.4928405550884
 20
146.6387162426489
 30
0
 40
1.000000000000796
  0
CIRCLE
  8
1
 62
7
 10
218.5120784415552
 20
146.6387162426489
 30
0
 40
0.9999999999989768
  0
CIRCLE
  8
1
 62
7
  6
CENTER
 10
231.5024594983229
 20
139.1387162426487
 30
0
 40
14.99999999999982
  0
CIRCLE
  8
1
 62
7
 10
231.5024594983229
 20
139.1387162426487
 30
0
 40
25.400000000001
  0
CIRCLE
  8
1
 62
7
 10
231.5024594983229
 20
139.1387162426487
 30
0
 40
20.000000000001
  0
CIRCLE
  8
1
 62
7
 10
244.4928405550884
 20
146.6387162426489
 30
0
 40
1.5
  0
CIRCLE
  8
1
 62
7
 10
231.5024594983219
 20
124.1387162426489
 30
0
 40
1.5
  0
CIRCLE
  8
1
 62
7
 10
218.5120784415552
 20
146.6387162426489
 30
0
 40
1.5
  0
CIRCLE
  8
1
 62
7
 10
368.2675137271925
 20
101.4003943034985
 30
0
 40
0.5739662761534831
  0
POLYLINE
  8
1
 62
7
 66
1
  0
VERTEX
  8
1
 10
424.7199531852094
 20
116.6459539510655
 30
0
 42
-0.00438598810284779
  0
VERTEX
  8
1
 10
424.9963759995959
 20
116.8225911526471
 30
0
 42
-0.01383115003166028
  0
VERTEX
  8
1
 10
425.2720212743574
 20
116.9850720556872
 30
0
 42
-0.02534547908055658
  0
VERTEX
  8
1
 10
425.5461114698692
 20
117.1192403616444
 30
0
 42
-0.04017287415932512
  0
VERTEX
  8
1
 10
425.817869046506
 20
117.2109397719773
 30
0
 42
-0.1893503399381071
  0
VERTEX
  8
1
 10
426.6637909417018
 20
117.1016913834595
 30
0
 42
-0.04782540761673841
  0
VERTEX
  8
1
 10
427.2312800767401
 20
116.7453009701798
 30
0
 42
-0.004631029560009201
  0
VERTEX
  8
1
 10
427.7978936439441
 20
116.3051481345928
 30
0
 42
0.03463198835596334
  0
VERTEX
  8
1
 10
428.3725414175002
 20
115.9095382629861
 30
0
 42
0.08699996350034196
  0
VERTEX
  8
1
 10
428.9641331715943
 20
115.6867767416471
 30
0
 42
0.0812628026844579
  0
VERTEX
  8
1
 10
429.3055704365956
 20
115.6784463329592
 30
0
 42
0.02652142172068899
  0
VERTEX
  8
1
 10
429.6534921934113
 20
115.7456495928024
 30
0
 42
0.04693140677081126
  0
VERTEX
  8
1
 10
430.0062773190879
 20
115.8695031040437
 30
0
 42
0.01584983681437784
  0
VERTEX
  8
1
 10
430.3623046906719
 20
116.0311234495506
 30
0
 42
0.004781250758224788
  0
VERTEX
  8
1
 10
430.7199531852094
 20
116.2116272121902
 30
0
  0
SEQEND
  8
1
  0
POLYLINE
  8
1
 62
7
 66
1
  0
VERTEX
  8
1
 10
411.0503848923803
 20
144.1713352436278
 30
0
 42
0.0656768955476589
  0
VERTEX
  8
1
 10
410.5844083098962
 20
143.6386521919625
 30
0
 42
0.05739745182336039
  0
VERTEX
  8
1
 10
410.2404366499303
 20
142.9767735827222
 30
0
 42
0.06061619156902542
  0
VERTEX
  8
1
 10
410.057291109817
 20
142.2488596061388
 30
0
 42
0.07417455571554779
  0
VERTEX
  8
1
 10
410.0737928868916
 20
141.5180704524443
 30
0
 42
0.08398923669963418
  0
VERTEX
  8
1
 10
410.3244872362994
 20
140.8363317568759
 30
0
 42
-0.03762705578748299
  0
VERTEX
  8
1
 10
410.6497584279007
 20
140.1713352436279
 30
0
 42
-0.08594397649082664
  0
VERTEX
  8
1
 10
410.7532207194136
 20
139.5060452989835
 30
0
 42
-0.0680413256359805
  0
VERTEX
  8
1
 10
410.6491778862448
 20
138.8179765681039
 30
0
 42
-0.06019097338600279
  0
VERTEX
  8
1
 10
410.3735152179438
 20
138.1713352436279
 30
0
 42
-0.01803113731385453
  0
VERTEX
  8
1
 10
410.0436229205347
 20
137.6718789751638
 30
0
 42
0.05647773700514106
  0
VERTEX
  8
1
 10
409.7642469575227
 20
137.1713352436279
 30
0
 42
0.07518288504909783
  0
VERTEX
  8
1
 10
409.6461214652277
 20
136.5864085964592
 30
0
 42
0.02589264139320172
  0
VERTEX
  8
1
 10
409.6441926306333
 20
135.9535758726523
 30
0
 42
-0.014681091277157
  0
VERTEX
  8
1
 10
409.6556322216851
 20
135.3132064724297
 30
0
 42
-0.05878155937239602
  0
VERTEX
  8
1
 10
409.577612006329
 20
134.7056697960141
 30
0
 42
-0.1085271939354598
  0
VERTEX
  8
1
 10
409.3073037525103
 20
134.1713352436278
 30
0
  0
SEQEND
  8
1
  0
ARC
  8
1
 62
7
 10
425.7199531852094
 20
137.1713352436278
 30
0
 40
2
 50
0
 51
90
  0
ARC
  8
1
 62
7
 10
426.7199531852094
 20
138.1713352436279
 30
0
 40
2
 50
0
 51
90
  0
ARC
  8
1
 62
7
 10
424.7199531852094
 20
136.1713352436278
 30
0
 40
2
 50
0
 51
90
  0
ARC
  8
1
 62
7
 10
424.2199531852094
 20
135.6713352436278
 30
0
 40
1.5
 50
0
 51
90
  0
ARC
  8
1
 62
7
 10
427.2199531852094
 20
138.6713352436279
 30
0
 40
2.5
 50
0
 51
90
  0
ARC
  8
1
 62
7
 10
423.7199531852094
 20
135.1713352436278
 30
0
 40
1
 50
0
 51
90
  0
ARC
  8
1
 62
7
 10
427.7199531852094
 20
139.1713352436279
 30
0
 40
3
 50
0
 51
90
  0
ARC
  8
1
 62
7
 10
212.3561012682669
 20
160.2649734600259
 30
0
 40
0.6000000000001495
 50
44.99999999999232
 51
135.7866211363161
  0
ARC
  8
1
 62
7
 10
212.3619663979962
 20
159.4105801928728
 30
0
 40
0.5999999999998883
 50
44.99999999999425
 51
135.7866211363295
  0
ARC
  8
1
 62
7
 10
209.9849473504514
 20
157.827801265773
 30
0
 40
0.6000000000001686
 50
135.7866211363216
 51
224.9999999999847
  0
ARC
  8
1
 62
7
 10
209.9848671936782
 20
157.8394779737572
 30
0
 40
0.5918000000002739
 50
45.00000000001361
 51
135.7866211362996
  0
ARC
  8
1
 62
7
 10
213.266938779521
 20
160.6269281549072
 30
0
 40
0.2000000000003312
 50
44.99999999997698
 51
134.9999999998848
  0
ARC
  8
1
 62
7
 10
214.7518630200131
 20
159.1420039144157
 30
0
 40
0.2000000000000499
 50
314.9999999998963
 51
44.99999999997698
  0
LINE
  8
1
 62
7
 10
239.5267768342665
 20
107.8474991931986
 30
0
 11
232.0278647173593
 21
122.733743162548
 31
0
  0
SOLID
  8
1
 62
7
 10
233.8437560230514
 20
120.0654061639005
 30
0
 11
233.0912645932594
 21
119.6863402885626
 31
0
 12
232.0278647173593
 22
122.733743162548
 32
0
 13
232.0278647173593
 23
122.733743162548
 33
0
  0
LINE
  8
1
 62
7
 10
361.5277105800953
 20
95.84749919319863
 30
0
 11
404.7015774526603
 21
95.84749919319863
 31
0
  0
LINE
  8
1
 62
7
 10
404.7015774526603
 20
95.84749919319863
 30
0
 11
411.8472169363471
 21
134.1713352436278
 31
0
  0
SOLID
  8
1
 62
7
 10
411.6748226044617
 20
130.9483298500902
 30
0
 11
410.8465216205574
 21
131.1027700321005
 31
0
 12
411.8472169363471
 22
134.1713352436278
 32
0
 13
411.8472169363471
 23
134.1713352436278
 33
0
  0
LINE
  8
1
 62
7
 10
240.5385882202593
 20
178.2784897986439
 30
0
 11
241.5872190650067
 21
182.8206090036956
 31
0
  0
SOLID
  8
1
 62
7
 10
241.4905462632661
 20
181.8166235707711
 30
0
 11
241.2339897580594
 21
181.8758543070497
 31
0
 12
241.5872190650067
 22
182.8206090036956
 32
0
 13
241.5872190650067
 23
182.8206090036956
 33
0
  0
LINE
  8
1
 62
7
 10
222.6180074727797
 20
177.621505847521
 30
0
 11
221.6156642817821
 21
181.9631311970812
 31
0
  0
SOLID
  8
1
 62
7
 10
221.9688935887293
 20
181.0183765004352
 30
0
 11
221.7123370835226
 21
180.9591457641567
 31
0
 12
221.6156642817821
 22
181.9631311970812
 32
0
 13
221.6156642817821
 23
181.9631311970812
 33
0
  0
LINE
  8
1
 62
7
 10
304.3148862653013
 20
95.83011957437302
 30
0
 11
324.8472169363473
 21
95.85557255794541
 31
0
  0
SOLID
  8
1
 62
7
 10
320.8478728234484
 20
95.32400436048006
 30
0
 11
320.8465671962063
 21
96.3772235319166
 31
0
 12
324.8472169363473
 22
95.85557255794541
 32
0
 13
324.8472169363473
 23
95.85557255794541
 33
0
  0
LINE
  8
1
 62
7
 10
260.5983863418036
 20
180.8345598092329
 30
0
 11
244.8187715837506
 21
180.8387211292522
 31
0
  0
LINE
  8
1
 62
7
 10
244.8187715837506
 20
180.8387211292522
 30
0
 11
242.2398457740407
 21
177.5870320648352
 31
0
  0
SOLID
  8
1
 62
7
 10
243.8982306850677
 20
180.356010768133
 30
0
 11
244.5583870134266
 21
179.8324385077105
 31
0
 12
242.2398457740407
 22
177.5870320648352
 32
0
 13
242.2398457740407
 23
177.5870320648352
 33
0
  0
LINE
  8
1
 62
7
 10
190.3725002452116
 20
183.3970483454494
 30
0
 11
188.7762903924304
 21
181.8648853485394
 31
0
  0
SOLID
  8
1
 62
7
 10
190.6670845880113
 20
184.2272758181796
 30
0
 11
191.214088983651
 21
183.6574057667584
 31
0
 12
188.7762903924304
 22
181.8648853485394
 32
0
 13
188.7762903924304
 23
181.8648853485394
 33
0
  0
LINE
  8
1
 62
7
 10
229.2903658422259
 20
199.5173560943467
 30
0
 11
231.5024594983225
 21
199.562644060447
 31
0
  0
SOLID
  8
1
 62
7
 10
228.5111722401655
 20
199.1063634885658
 30
0
 11
228.4950037799061
 21
199.8961129838165
 31
0
 12
231.5024594983225
 22
199.562644060447
 32
0
 13
231.5024594983225
 23
199.562644060447
 33
0
  0
LINE
  8
1
 62
7
 10
217.721444003358
 20
189.4320495152934
 30
0
 11
215.8568955551515
 21
188.8835862158019
 31
0
  0
SOLID
  8
1
 62
7
 10
218.6235080106187
 20
190.1090848662878
 30
0
 11
218.8464203677135
 21
189.3512750184959
 31
0
 12
215.8568955551515
 22
188.8835862158019
 32
0
 13
215.8568955551515
 23
188.8835862158019
 33
0
  0
LINE
  8
1
 62
7
 10
245.2834749932859
 20
189.4320495152934
 30
0
 11
247.1480234414924
 21
188.8835862158019
 31
0
  0
SOLID
  8
1
 62
7
 10
244.1584986289304
 20
189.3512750184958
 30
0
 11
244.3814109860252
 21
190.1090848662878
 31
0
 12
247.1480234414924
 22
188.8835862158019
 32
0
 13
247.1480234414924
 23
188.8835862158019
 33
0
  0
TEXT
  8
1
 62
7
 10
301.093262275044
 20
20.2217487363122
 30
0
 40
4
  1
S50
 41
0.9
  0
TEXT
  8
1
 62
7
 10
240.502408709947
 20
96.27778089647853
 30
0
 40
3
  1
120 ±1 等間隔
 41
0.9
  0
TEXT
  8
1
 62
7
 10
241.237644533807
 20
102.657304768764
 30
0
 40
3
  1
有効深サ4以上
 41
0.9
  0
TEXT
  8
1
 62
7
 10
241.157007357301
 20
108.597243697423
 30
0
 40
3
  1
3-M3×0．5
 41
0.9
  0
TEXT
  8
1
 62
7
 10
202.35641184374
 20
113.757358270064
 30
0
 40
2.5
  1
±0．1
 41
0.9
  0
TEXT
  8
1
 62
7
 10
210.3337472411449
 20
197.8282446130356
 30
0
 40
2.500000000000001
  1
±10
 50
21
 41
0.9
  0
TEXT
  8
1
 62
7
 10
218.9945354344615
 20
182.5728681868759
 30
0
 40
2.000000000000005
  1
16
 50
9.999999999999977
 41
0.9
  0
TEXT
  8
1
 62
7
 10
239.7818532020189
 20
183.567926469104
 30
0
 40
2.000000000000004
  1
15
 50
355
 41
0.9
  0
TEXT
  8
1
 62
7
 10
222.3676490612212
 20
175.0049356853895
 30
0
 40
2.000000000000004
  1
4
 50
5.000000000000004
 41
0.9
  0
TEXT
  8
1
 62
7
 10
238.8156463295225
 20
175.5664639692269
 30
0
 40
2.000000000000004
  1
3
 50
355
 41
0.9
  0
TEXT
  8
1
 62
7
 10
223.0188675970276
 20
171.6800171355454
 30
0
 40
2.000000000000004
  1
2
 50
5.000000000000004
 41
0.9
  0
TEXT
  8
1
 62
7
 10
237.7848398728428
 20
172.1441788785547
 30
0
 40
2.000000000000004
  1
1
 50
350.0000000000001
 41
0.9
  0
TEXT
  8
1
 62
7
 10
392.9064138967408
 20
175.3771696715044
 30
0
 40
2
  1
16
 41
0.9
  0
TEXT
  8
1
 62
7
 10
385.9164741827928
 20
175.2545391502069
 30
0
 40
2
  1
14
 41
0.9
  0
TEXT
  8
1
 62
7
 10
378.8039039475474
 20
175.3771696715044
 30
0
 40
2
  1
12
 41
0.9
  0
TEXT
  8
1
 62
7
 10
371.7526489729507
 20
175.5611154534503
 30
0
 40
2
  1
10
 41
0.9
  0
TEXT
  8
1
 62
7
 10
389.2888135184695
 20
173.3537660700984
 30
0
 40
2
  1
15
 41
0.9
  0
TEXT
  8
1
 62
7
 10
382.4828195864674
 20
173.1698202881524
 30
0
 40
2
  1
13
 41
0.9
  0
TEXT
  8
1
 62
7
 10
375.4315646118708
 20
172.9858745062064
 30
0
 40
2
  1
11
 41
0.9
  0
TEXT
  8
1
 62
7
 10
370.3803096372741
 20
173.047189766855
 30
0
 40
2
  1
9
 41
0.9
  0
TEXT
  8
1
 62
7
 10
357.2064138967408
 20
175.3771696715044
 30
0
 40
2
  1
8
 41
0.9
  0
TEXT
  8
1
 62
7
 10
350.2164741827928
 20
175.2545391502069
 30
0
 40
2
  1
6
 41
0.9
  0
TEXT
  8
1
 62
7
 10
343.1039039475474
 20
175.3771696715044
 30
0
 40
2
  1
4
 41
0.9
  0
TEXT
  8
1
 62
7
 10
336.0526489729507
 20
175.5611154534503
 30
0
 40
2
  1
2
 41
0.9
  0
TEXT
  8
1
 62
7
 10
353.5888135184695
 20
173.3537660700984
 30
0
 40
2
  1
7
 41
0.9
  0
TEXT
  8
1
 62
7
 10
346.7828195864674
 20
173.1698202881524
 30
0
 40
2
  1
5
 41
0.9
  0
TEXT
  8
1
 62
7
 10
339.7315646118708
 20
172.9858745062064
 30
0
 40
2
  1
3
 41
0.9
  0
TEXT
  8
1
 62
7
 10
332.6803096372741
 20
173.047189766855
 30
0
 40
2
  1
1
 41
0.9
  0
TEXT
  8
1
 62
7
 10
361.2446230434976
 20
97.69036538063202
 30
0
 40
3.2
  1
140  モミ口モト径φ4
 41
0.9
  0
TEXT
  8
1
 62
7
 10
307.1211642583977
 20
96.29544399969794
 30
0
 40
3.199999999999999
  1
取付面
 41
0.9
  0
TEXT
  8
1
 62
7
 10
248.4068422755213
 20
181.9599932204306
 30
0
 40
3.199999999999997
  1
端子番号
 41
0.9
  0
TEXT
  8
1
 62
7
 10
332.2642227960297
 20
55.39844522768951
 30
0
 40
3.200000000000001
  1
1
 41
0.9
  0
TEXT
  8
1
 62
7
 10
332.2642227960297
 20
49.3824452276895
 30
0
 40
3.200000000000001
  1
1
 41
0.9
  0
TEXT
  8
1
 62
7
 10
332.2642227960297
 20
43.3664452276895
 30
0
 40
3.200000000000001
  1
1
 41
0.9
  0
TEXT
  8
1
 62
7
 10
296.7961674201342
 20
55.07145141597008
 30
0
 40
3.199999999999998
  1
28MAX
 41
0.9
  0
TEXT
  8
1
 62
7
 10
296.7961674201342
 20
49.05545141597008
 30
0
 40
3.199999999999998
  1
42MAX
 41
0.9
  0
TEXT
  8
1
 62
7
 10
296.7961674201342
 20
43.03945141597009
 30
0
 40
3.199999999999998
  1
46MAX
 41
0.9
  0
TEXT
  8
1
 62
7
 10
268.6591216611796
 20
61.30616640127859
 30
0
 40
3.2
  1
極　数
 41
0.9
  0
TEXT
  8
1
 62
7
 10
326.8528924741082
 20
61.4938882426106
 30
0
 40
3.2
  1
カップ数
 41
0.9
  0
TEXT
  8
1
 62
7
 10
258.2742231106777
 20
54.77927845322711
 30
0
 40
3.200000000000001
  1
  2 ～ 3p
 41
0.9
  0
TEXT
  8
1
 62
7
 10
258.2742231106777
 20
48.7632784532271
 30
0
 40
3.200000000000001
  1
  4 ～ 7p
 41
0.9
  0
TEXT
  8
1
 62
7
 10
258.2742231106777
 20
42.7472784532271
 30
0
 40
3.200000000000001
  1
    8p
 41
0.9
  0
TEXT
  8
1
 62
7
 10
258.2742231106777
 20
36.7472784532271
 30
0
 40
3.200000000000001
  1
  9 ～16p
 41
0.9
  0
TEXT
  8
1
 62
7
 10
296.7961674201342
 20
37.03945141597009
 30
0
 40
3.199999999999998
  1
83MAX
 41
0.9
  0
TEXT
  8
1
 62
7
 10
332.2642227960297
 20
37.3664452276895
 30
0
 40
3.200000000000001
  1
2
 41
0.9
  0
TEXT
  8
1
 62
7
 10
299.4226694580019
 20
61.73394900461216
 30
0
 40
4
  1
Ｌ寸法
 41
0.9
  0
DIMENSION
  8
1
  6
CONTINUOUS
 62
7
  2
*D2
  3
DMST_1
 10
415.8472169363472
 20
190.1066993147193
 30
0
 11
419.9490907909633
 21
193.7066993147193
 31
0
 12
0
 22
0
 32
0
 70
0
 13
411.8472169363471
 23
132.2141470578563
 33
0
 14
415.8472169363472
 24
143.6713352436278
 34
0
 50
180
 53
0
  0
DIMENSION
  8
1
  6
CONTINUOUS
 62
7
  2
*D3
  3
DMST_1
 10
321.8472169363473
 20
198.1066993147193
 30
0
 11
317.5816113317887
 21
201.7066993147193
 31
0
 12
0
 22
0
 32
0
 70
0
 13
324.8472169363473
 23
164.8415416625658
 33
0
 14
321.8472169363473
 24
159.4415416625658
 34
0
 50
180
 53
0
  0
DIMENSION
  8
1
  6
CONTINUOUS
 62
7
  2
*D4
  3
DMST_1
 10
406.8472169363472
 20
198.1066993147193
 30
0
 11
411.3472169363472
 21
201.7066993147193
 31
0
 12
0
 22
0
 32
0
 70
0
 13
415.8472169363472
 23
143.6713352436278
 33
0
 14
406.8472169363472
 24
163.1415416625658
 34
0
 50
180
 53
0
  0
DIMENSION
  8
1
  6
CONTINUOUS
 62
7
  2
*D5
  3
DMST_1
 10
324.8472169363473
 20
198.1066993147193
 30
0
 11
365.8472169363472
 21
201.7066993147193
 31
0
 12
0
 22
0
 32
0
 70
0
  1
L
 13
406.8472169363472
 23
163.1415416625658
 33
0
 14
324.8472169363473
 24
164.8415416625658
 34
0
 50
180
 53
0
  0
DIMENSION
  8
1
  6
CONTINUOUS
 62
7
  2
*D6
  3
DMST_2
 10
438.6679442904693
 20
144.1713352436278
 30
0
 11
434.2679442904693
 21
152.9935967116516
 31
0
 12
0
 22
0
 32
0
 70
0
  1
φ<>
 13
415.3472169363472
 23
134.1713352436278
 33
0
 14
415.3472169363472
 24
144.1713352436278
 34
0
 50
90
 53
0
  0
DIMENSION
  8
1
  6
CONTINUOUS
 62
7
  2
*D10
  3
DMST_3
 10
231.5024594983229
 20
139.1387162426487
 30
0
 11
181.7218311462135
 21
148.9540150601376
 31
0
 12
0
 22
0
 32
0
 70
4
  1
32
 15
202.8143802479414
 25
144.0130170153046
 35
0
 40
0
 53
0
  0
DIMENSION
  8
1
  6
CONTINUOUS
 62
7
  2
*D11
  3
DMST_3
 10
231.5024594983229
 20
139.1387162426487
 30
0
 11
274.6025284710505
 21
170.1874958998206
 31
0
 12
0
 22
0
 32
0
 70
4
  1
31
 15
253.6680962681733
 25
159.2291367275725
 35
0
 40
0
 53
0
  0
DIMENSION
  8
1
  6
CONTINUOUS
 62
7
  2
*D12
  3
DMST_4
 10
239.6164970773906
 20
151.7546741597263
 30
0
 11
197.728715555618
 21
114.78332390768
 31
0
 12
0
 22
0
 32
0
 70
3
  1
φ<>
 15
223.3884219192552
 25
126.5227583255712
 35
0
 40
0
 53
0
  0
DIMENSION
  8
1
  6
CONTINUOUS
 62
7
  2
*D13
  3
DMST_5
 10
231.5024594983219
 20
104.8900815707586
 30
0
 11
206.2434046042726
 21
197.9693500916731
 31
0
 12
0
 22
0
 32
0
 70
2
 13
209.4995309212208
 23
161.1416448197497
 33
0
 14
214.8478773334217
 24
155.793298407549
 34
0
 15
231.5024594983219
 25
173.5218073298182
 35
0
 16
208.3792234040264
 26
194.9631464274513
 36
0
 53
0
  0
DIMENSION
  8
1
  6
CONTINUOUS
 62
7
  2
*D14
  3
DMST_6
 10
231.5024594983219
 20
139.1387162426452
 30
0
 11
239.8796472728073
 21
194.2529493414147
 31
0
 12
0
 22
0
 32
0
 70
2
  1
450
 13
231.5024594983196
 23
139.138716242652
 33
0
 14
223.8577028100137
 24
163.3609724376561
 34
0
 15
239.14721618663
 25
163.3609724376561
 35
0
 16
273.5606748086629
 26
169.9679602271334
 36
0
 53
0
  0
INSERT
  8
1
  2
*D0
 10
0
 20
0
 30
0
  0
INSERT
  8
1
  2
*D1
 10
0
 20
0
 30
0
  0
INSERT
  8
1
  2
*D7
 10
0
 20
0
 30
0
  0
INSERT
  8
1
  2
*D8
 10
0
 20
0
 30
0
  0
INSERT
  8
1
  2
*D9
 10
0
 20
0
 30
0
  0
ENDSEC
  0
EOF
