  0
SECTION
  2
HEADER
  9
$ACADVER
  1
AC1009
  9
$INSBASE
 10
0
 20
0
  9
$EXTMIN
 10
-162.071161552548
 20
-61.3485618625921
  9
$EXTMAX
 10
70
 20
50.41220948387334
  9
$LIMMIN
 10
-162.071161552548
 20
-61.3485618625921
  9
$LIMMAX
 10
70
 20
50.41220948387334
  9
$VIEWCTR
 10
10
 20
10
  9
$VIEWSIZE
 40
10
  9
$SNAPMODE
 70
0
  9
$SNAPUNIT
 10
1
 20
1
  9
$SNAPBASE
 10
0
 20
0
  9
$SNAPANG
 50
0
  9
$SNAPSTYLE
 70
0
  9
$SNAPISOPAIR
 70
0
  9
$GRIDMODE
 70
0
  9
$GRIDUNIT
 10
0
 20
0
  9
$ORTHOMODE
 70
0
  9
$REGENMODE
 70
1
  9
$FILLMODE
 70
1
  9
$QTEXTMODE
 70
0
  9
$DRAGMODE
 70
2
  9
$LTSCALE
 40
1
  9
$OSMODE
 70
0
  9
$ATTMODE
 70
1
  9
$TEXTSIZE
 40
3.5
  9
$TRACEWID
 40
0.5
  9
$TEXTSTYLE
  7
STANDARD
  9
$CLAYER
  8
0
  9
$CELTYPE
  6
BYLAYER
  9
$CECOLOR
 62
256
  9
$DIMSCALE
 40
1
  9
$DIMASZ
 40
0.18
  9
$DIMEXO
 40
0.0625
  9
$DIMDLI
 40
0.38
  9
$DIMRND
 40
0
  9
$DIMDLE
 40
0
  9
$DIMEXE
 40
0.18
  9
$DIMTP
 40
0
  9
$DIMTM
 40
0
  9
$DIMTXT
 40
0.18
  9
$DIMCEN
 40
0.09
  9
$DIMTSZ
 40
0
  9
$DIMTOL
 70
0
  9
$DIMLIM
 70
0
  9
$DIMTIH
 70
1
  9
$DIMTOH
 70
1
  9
$DIMSE1
 70
0
  9
$DIMSE2
 70
0
  9
$DIMTAD
 70
0
  9
$DIMZIN
 70
0
  9
$DIMBLK
  1

  9
$DIMASO
 70
1
  9
$DIMSHO
 70
1
  9
$DIMPOST
  1

  9
$DIMAPOST
  1

  9
$DIMALT
 70
0
  9
$DIMALTD
 70
2
  9
$DIMALTF
 40
25.4
  9
$DIMLFAC
 40
1
  9
$DIMTOFL
 70
0
  9
$DIMTVP
 40
0
  9
$DIMTIX
 70
0
  9
$DIMSOXD
 70
0
  9
$DIMSAH
 70
0
  9
$DIMBLK1
  1

  9
$DIMBLK2
  1

  9
$DIMSTYLE
  2
*UNNAMED
  9
$DIMCLRD
 70
0
  9
$DIMCLRE
 70
0
  9
$DIMCLRT
 70
0
  9
$DIMTFAC
 40
1
  9
$DIMGAP
 40
0.09
  9
$LUNITS
 70
2
  9
$LUPREC
 70
4
  9
$AXISMODE
 70
0
  9
$AXISUNIT
 10
0
 20
0
  9
$SKETCHINC
 40
0.1
  9
$FILLETRAD
 40
2
  9
$AUNITS
 70
0
  9
$AUPREC
 70
0
  9
$MENU
  1
ACAD
  9
$ELEVATION
 40
0
  9
$THICKNESS
 40
0
  9
$VIEWDIR
 10
0
 20
0
 30
1
  9
$LIMCHECK
 70
0
  9
$BLIPMODE
 70
1
  9
$CHAMFERA
 40
0
  9
$CHAMFERB
 40
0
  9
$FASTZOOM
 70
1
  9
$SKPOLY
 70
0
  9
$ANGBASE
 50
0
  9
$ANGDIR
 70
0
  9
$PDMODE
 70
0
  9
$PDSIZE
 40
0
  9
$PLINEWID
 40
0
  9
$COORDS
 70
2
  0
ENDSEC
  0
SECTION
  2
TABLES
  0
TABLE
  2
DIMSTYLE
 70
4
  0
DIMSTYLE
  2
DMST_1
 70
0
  3

  4

  5

  6

  7

 40
1
 41
3.2
 42
1
 43
7
 44
2
 45
0
 46
0
 47
0
 48
0
140
3.2
141
0
142
0
143
25.4
144
1
145
0
146
1
147
0.09
 71
0
 72
0
 73
1
 74
1
 75
0
 76
0
 77
0
 78
9
170
0
171
2
172
0
173
0
174
0
175
0
176
7
177
7
178
7
  0
DIMSTYLE
  2
DMST_2
 70
0
  3
MAX
  4

  5

  6

  7

 40
1
 41
3.2
 42
1
 43
7
 44
2
 45
0
 46
0
 47
0
 48
0
140
3.2
141
0
142
0
143
25.4
144
1
145
0
146
1
147
0.09
 71
0
 72
0
 73
1
 74
1
 75
0
 76
0
 77
1
 78
9
170
0
171
2
172
1
173
0
174
0
175
0
176
7
177
7
178
7
  0
DIMSTYLE
  2
DMST_3
 70
0
  3

  4

  5

  6

  7

 40
1
 41
3.2
 42
1
 43
7
 44
2
 45
0
 46
0
 47
0
 48
0
140
3.2
141
0
142
0
143
25.4
144
1
145
0
146
1
147
0.09
 71
0
 72
0
 73
1
 74
1
 75
0
 76
0
 77
1
 78
9
170
0
171
2
172
1
173
0
174
0
175
0
176
7
177
7
178
7
  0
DIMSTYLE
  2
DMST_4
 70
0
  3

  4

  5

  6

  7

 40
1
 41
0
 42
1
 43
7
 44
2
 45
0
 46
0
 47
0
 48
0
140
3.2
141
0
142
0
143
25.4
144
1
145
0
146
1
147
0.09
 71
0
 72
0
 73
1
 74
1
 75
0
 76
0
 77
0
 78
9
170
0
171
2
172
0
173
0
174
0
175
0
176
7
177
7
178
7
  0
ENDTAB
  0
TABLE
  2
LTYPE
 70
9
  0
LTYPE
  2
CONTINUOUS
 70
64
  3
Solid line
 72
65
 73
0
 40
0
  0
LTYPE
  2
BORDER
 70
64
  3
__ __ . __ __ .
 72
65
 73
6
 40
10.68748770307787
 49
3.053567915165105
 49
-1.526783957582553
 49
3.053567915165105
 49
-1.526783957582553
 49
0
 49
-1.526783957582553
  0
LTYPE
  2
CENTER
 70
64
  3
____ _ ____ _
 72
65
 73
4
 40
12.21427166066042
 49
7.633919787912763
 49
-1.526783957582553
 49
1.526783957582553
 49
-1.526783957582553
  0
LTYPE
  2
DASHDOT
 70
64
  3
__ . __ . __ .
 72
65
 73
4
 40
6.10713583033021
 49
3.053567915165105
 49
-1.526783957582553
 49
0
 49
-1.526783957582553
  0
LTYPE
  2
DASHED
 70
64
  3
__ __ __ __ __
 72
65
 73
2
 40
4.580351872747658
 49
3.053567915165105
 49
-1.526783957582553
  0
LTYPE
  2
DIVIDE
 70
64
  3
__ . . __ . . 
 72
65
 73
6
 40
7.633919787912763
 49
3.053567915165105
 49
-1.526783957582553
 49
0
 49
-1.526783957582553
 49
0
 49
-1.526783957582553
  0
LTYPE
  2
DOT
 70
64
  3
..............
 72
65
 73
4
 40
3.053567915165105
 49
0
 49
-1.526783957582553
 49
0
 49
-1.526783957582553
  0
LTYPE
  2
HIDDEN
 70
64
  3
_ _ _ _ _ _ _
 72
65
 73
2
 40
2.290175936373829
 49
1.526783957582553
 49
-0.7633919787912763
  0
LTYPE
  2
PHANTOM
 70
64
  3
_____ _ _ _____ _ _ 
 72
65
 73
6
 40
15.26783957582553
 49
7.633919787912763
 49
-1.526783957582553
 49
1.526783957582553
 49
-1.526783957582553
 49
1.526783957582553
 49
-1.526783957582553
  0
ENDTAB
  0
TABLE
  2
LAYER
 70
3
  0
LAYER
  2
1
 70
0
 62
7
  6
CONTINUOUS
  0
LAYER
  2
0
 70
0
 62
7
  6
CONTINUOUS
  0
ENDTAB
  0
TABLE
  2
STYLE
 70
4
  0
STYLE
  2
STANDARD
 70
0
 40
0
 41
1
 50
0
 71
0
 42
3.5
  3
txt
  4

  0
STYLE
  2
SIMPLEX
 70
0
 40
0
 41
1
 50
0
 71
0
 42
3.5
  3
simplex
  4

  0
STYLE
  2
COMPLEX
 70
0
 40
0
 41
1
 50
0
 71
0
 42
3.5
  3
complex
  4

  0
STYLE
  2
ITALIC
 70
0
 40
0
 41
1
 50
0
 71
0
 42
3.5
  3
italic
  4

  0
ENDTAB
  0
TABLE
  2
VIEW
 70
0
  0
ENDTAB
  0
ENDSEC
  0
SECTION
  2
BLOCKS
  0
BLOCK
  8
1
  2
*D0
 70
1
 10
0
 20
0
 30
0
  0
LINE
  8
1
 62
7
 10
27.41252981837943
 20
30.00000000000001
 30
0
 11
51.41252981837944
 21
30.00000000000001
 31
0
  0
LINE
  8
1
 62
7
 10
27.41252981837943
 20
9.498080313418399
 30
0
 11
27.41252981837943
 21
32.00000000000001
 31
0
  0
LINE
  8
1
 62
7
 10
51.41252981837944
 20
8.548080313418399
 30
0
 11
51.41252981837944
 21
32.00000000000001
 31
0
  0
SOLID
  8
1
 62
7
 10
27.41252981837943
 20
30.00000000000001
 30
0
 11
30.61252981837943
 21
30.41600000000001
 31
0
 12
30.61252981837943
 22
29.58400000000001
 32
0
 13
30.61252981837943
 23
29.58400000000001
 33
0
  0
SOLID
  8
1
 62
7
 10
51.41252981837944
 20
30.00000000000001
 30
0
 11
48.21252981837944
 21
29.58400000000001
 31
0
 12
48.21252981837944
 22
30.41600000000001
 32
0
 13
48.21252981837944
 23
30.41600000000001
 33
0
  0
TEXT
  8
1
 62
7
 10
33.24995923889839
 20
32.2604113481708
 30
0
 40
3.2
  1
24
 41
0.9
  0
ENDBLK
  8
0
  0
BLOCK
  8
1
  2
*D1
 70
1
 10
0
 20
0
 30
0
  0
LINE
  8
1
 62
7
 10
12.41252981837943
 20
30
 30
0
 11
27.41252981837943
 21
30
 31
0
  0
LINE
  8
1
 62
7
 10
27.41252981837943
 20
9.498080313418402
 30
0
 11
27.41252981837943
 21
32
 31
0
  0
LINE
  8
1
 62
7
 10
12.41252981837943
 20
1.298080313418403
 30
0
 11
12.41252981837943
 21
32
 31
0
  0
SOLID
  8
1
 62
7
 10
12.41252981837943
 20
30
 30
0
 11
15.61252981837943
 21
30.416
 31
0
 12
15.61252981837943
 22
29.584
 32
0
 13
15.61252981837943
 23
29.584
 33
0
  0
SOLID
  8
1
 62
7
 10
27.41252981837943
 20
30
 30
0
 11
24.21252981837943
 21
29.584
 31
0
 12
24.21252981837943
 22
30.416
 32
0
 13
24.21252981837943
 23
30.416
 33
0
  0
TEXT
  8
1
 62
7
 10
12.37358186120979
 20
32.43387534560079
 30
0
 40
3.2
  1
15
 41
0.9
  0
ENDBLK
  8
0
  0
BLOCK
  8
1
  2
*D2
 70
1
 10
0
 20
0
 30
0
  0
LINE
  8
1
 62
7
 10
-4.913795063701411
 20
-5.5019196865816
 30
0
 11
-4.913795063701411
 21
0.4980803134184
 31
0
  0
LINE
  8
1
 62
7
 10
-4.913795063701411
 20
-5.5019196865816
 30
0
 11
-4.913795063701411
 21
-11.9019196865816
 31
0
  0
LINE
  8
1
 62
7
 10
-4.913795063701411
 20
0.4980803134184
 30
0
 11
-4.913795063701411
 21
6.898080313418401
 31
0
  0
LINE
  8
1
 62
7
 10
11.61252981837943
 20
-5.5019196865816
 30
0
 11
-6.913795063701411
 21
-5.5019196865816
 31
0
  0
LINE
  8
1
 62
7
 10
11.61252981837943
 20
0.4980803134184
 30
0
 11
-6.913795063701411
 21
0.4980803134184
 31
0
  0
SOLID
  8
1
 62
7
 10
-4.913795063701411
 20
-5.5019196865816
 30
0
 11
-4.497795063701411
 21
-8.701919686581601
 31
0
 12
-5.329795063701411
 22
-8.701919686581601
 32
0
 13
-5.329795063701411
 23
-8.701919686581601
 33
0
  0
SOLID
  8
1
 62
7
 10
-4.913795063701411
 20
0.4980803134184
 30
0
 11
-5.329795063701412
 21
3.698080313418401
 31
0
 12
-4.497795063701412
 22
3.698080313418401
 32
0
 13
-4.497795063701412
 23
3.698080313418401
 33
0
  0
TEXT
  8
1
 62
7
 10
-7.71379506370141
 20
-5.823697464359379
 30
0
 40
3.2
  1
6
 50
90
 41
0.9
  0
TEXT
  8
1
 62
7
 10
-9.79379506370141
 20
-2.303697464359378
 30
0
 40
1.92
  1
 0
 50
90
 41
0.9
  0
TEXT
  8
1
 62
7
 10
-6.913795063701409
 20
-2.303697464359378
 30
0
 40
1.92
  1
-0.02
 50
90
 41
0.9
  0
TEXT
  8
1
 62
7
 10
-7.71379506370141
 20
-9.468141908803823
 30
0
 40
3.2
  1
φ
 50
90
 41
0.9
  0
ENDBLK
  8
0
  0
BLOCK
  8
1
  2
*D3
 70
1
 10
0
 20
0
 30
0
  0
LINE
  8
1
 62
7
 10
-14.31652576980373
 20
-13.5019196865816
 30
0
 11
-14.31652576980373
 21
8.4980803134184
 31
0
  0
LINE
  8
1
 62
7
 10
26.41252981837944
 20
-13.5019196865816
 30
0
 11
-16.31652576980373
 21
-13.5019196865816
 31
0
  0
LINE
  8
1
 62
7
 10
26.41252981837944
 20
8.4980803134184
 30
0
 11
-16.31652576980373
 21
8.4980803134184
 31
0
  0
SOLID
  8
1
 62
7
 10
-14.31652576980373
 20
8.4980803134184
 30
0
 11
-13.90052576980373
 21
5.298080313418399
 31
0
 12
-14.73252576980373
 22
5.298080313418399
 32
0
 13
-14.73252576980373
 23
5.298080313418399
 33
0
  0
SOLID
  8
1
 62
7
 10
-14.31652576980373
 20
-13.5019196865816
 30
0
 11
-14.73252576980373
 21
-10.3019196865816
 31
0
 12
-13.90052576980373
 22
-10.3019196865816
 32
0
 13
-13.90052576980373
 23
-10.3019196865816
 33
0
  0
TEXT
  8
1
 62
7
 10
-16.31652576980373
 20
-8.359697464359378
 30
0
 40
3.2
  1
22
 50
90
 41
0.9
  0
TEXT
  8
1
 62
7
 10
-16.31652576980373
 20
-12.00414190880382
 30
0
 40
3.2
  1
φ
 50
90
 41
0.9
  0
TEXT
  8
1
 62
7
 10
-16.31652576980373
 20
-1.959697464359378
 30
0
 40
3.2
  1
MAX
 50
90
 41
0.9
  0
ENDBLK
  8
0
  0
BLOCK
  8
1
  2
*D4
 70
1
 10
0
 20
0
 30
0
  0
LINE
  8
1
 62
7
 10
-134.711161552548
 20
0.7453374723367081
 30
0
 11
-162.071161552548
 21
0.7453374723367081
 31
0
  0
LINE
  8
1
 62
7
 10
-115.324818805093
 20
-2.501919686581594
 30
0
 11
-134.711161552548
 21
0.7453374723367081
 31
0
  0
SOLID
  8
1
 62
7
 10
-129.9484300356027
 20
-0.05243105037430151
 30
0
 11
-133.1731854170933
 21
0.06592742860931806
 31
0
 12
-133.0357383363281
 22
0.8864957072974027
 32
0
 13
-133.0357383363281
 23
0.8864957072974027
 33
0
  0
TEXT
  8
1
 62
7
 10
-158.231161552548
 20
2.745337472336709
 30
0
 40
3.2
  1
15.2
 41
0.9
  0
TEXT
  8
1
 62
7
 10
-162.071161552548
 20
2.745337472336709
 30
0
 40
3.2
  1
R
 41
0.9
  0
TEXT
  8
1
 62
7
 10
-148.871161552548
 20
2.745337472336709
 30
0
 40
3.2
  1
MAX
 41
0.9
  0
ENDBLK
  8
0
  0
BLOCK
  8
1
  2
*D5
 70
1
 10
0
 20
0
 30
0
  0
LINE
  8
1
 62
7
 10
-128.1599951426223
 20
-20.57377490588577
 30
0
 11
-146.713597704943
 21
-20.57377490588577
 31
0
  0
LINE
  8
1
 62
7
 10
-110.6924455132208
 20
4.020435538699289
 30
0
 11
-128.1599951426223
 21
-20.57377490588577
 31
0
  0
SOLID
  8
1
 62
7
 10
-119.9571920969652
 20
-9.024274911862504
 30
0
 11
-118.4434052519309
 21
-6.17444941057279
 31
0
 12
-117.7650803085017
 22
-6.6562162329275
 32
0
 13
-117.7650803085017
 23
-6.6562162329275
 33
0
  0
SOLID
  8
1
 62
7
 10
-110.6924455132208
 20
4.020435538699289
 30
0
 11
-112.206232358255
 21
1.170610037409575
 31
0
 12
-112.8845573016843
 22
1.652376859764285
 32
0
 13
-112.8845573016843
 23
1.652376859764285
 33
0
  0
TEXT
  8
1
 62
7
 10
-142.6665388814136
 20
-18.56257600322784
 30
0
 40
3.2
  1
16
 41
0.9
  0
TEXT
  8
1
 62
7
 10
-146.713597704943
 20
-18.56257600322784
 30
0
 40
3.2
  1
φ
 41
0.9
  0
ENDBLK
  8
0
  0
BLOCK
  8
1
  2
*D6
 70
1
 10
0
 20
0
 30
0
  0
LINE
  8
1
 62
7
 10
-130.4971032989752
 20
12.67036480730063
 30
0
 11
-139.4837955640992
 21
21.6570570724246
 31
0
  0
LINE
  8
1
 62
7
 10
-115.324818805093
 20
26.76925867267358
 30
0
 11
-115.324818805093
 21
31.66403289906139
 31
0
  0
LINE
  8
1
 62
7
 10
-139.4837955640992
 20
21.6570570724246
 30
0
 11
-140.8980091264723
 21
23.0712706347977
 31
0
  0
LINE
  8
1
 62
7
 10
-115.324818805093
 20
31.66403289906139
 30
0
 11
-115.324818805093
 21
33.66403289906139
 31
0
  0
ARC
  8
1
 62
7
 10
-115.324818805093
 20
-2.501919686581598
 30
0
 40
34.16595258564298
 50
90
 51
135
  0
TEXT
  8
1
 62
7
 10
-143.7542691074019
 20
28.9684268718548
 30
0
 40
3.2
  1
45%%d
 41
0.9
  0
ENDBLK
  8
0
  0
BLOCK
  8
1
  2
*D7
 70
1
 10
0
 20
0
 30
0
  0
LINE
  8
1
 62
7
 10
-103.0755139887417
 20
43.21310824544149
 30
0
 11
-102.5578758985367
 21
45.14495989801964
 31
0
  0
LINE
  8
1
 62
7
 10
-127.5741236214453
 20
43.21310824544109
 30
0
 11
-128.0917617116504
 21
45.14495989801922
 31
0
  0
LINE
  8
1
 62
7
 10
-110.9429598140447
 20
13.85140069961342
 30
0
 11
-103.0755139887417
 21
43.21310824544149
 31
0
  0
LINE
  8
1
 62
7
 10
-119.7066777961414
 20
13.85140069961343
 30
0
 11
-127.5741236214453
 21
43.21310824544109
 31
0
  0
ARC
  8
1
 62
7
 10
-115.3248188050928
 20
-2.501919686581523
 30
0
 40
47.32767950480485
 50
75.00000000000087
 51
105.000000000001
  0
TEXT
  8
1
 62
7
 10
-118.0756520605632
 20
46.81995107896704
 30
0
 40
3.2
  1
30%%d
 41
0.9
  0
ENDBLK
  8
0
  0
ENDSEC
  0
SECTION
  2
ENTITIES
  0
LINE
  8
1
 62
7
 10
-16.36645868297782
 20
7.86427220498212
 30
0
 11
-16.68645868297782
 21
7.86427220498212
 31
0
  0
LINE
  8
1
 62
7
 10
-16.36645868297782
 20
7.54427220498212
 30
0
 11
-16.36645868297782
 21
7.86427220498212
 31
0
  0
LINE
  8
1
 62
7
 10
-16.68645868297782
 20
7.54427220498212
 30
0
 11
-16.36645868297782
 21
7.54427220498212
 31
0
  0
LINE
  8
1
 62
7
 10
-16.68645868297782
 20
7.86427220498212
 30
0
 11
-16.68645868297782
 21
7.54427220498212
 31
0
  0
LINE
  8
1
 62
7
 10
-16.44645868297783
 20
7.78427220498212
 30
0
 11
-16.6064586829778
 21
7.78427220498212
 31
0
  0
LINE
  8
1
 62
7
 10
-16.44645868297783
 20
7.62427220498212
 30
0
 11
-16.44645868297783
 21
7.78427220498212
 31
0
  0
LINE
  8
1
 62
7
 10
-16.6064586829778
 20
7.62427220498212
 30
0
 11
-16.44645868297783
 21
7.62427220498212
 31
0
  0
LINE
  8
1
 62
7
 10
-16.6064586829778
 20
7.78427220498212
 30
0
 11
-16.6064586829778
 21
7.62427220498212
 31
0
  0
LINE
  8
1
 62
7
 10
-16.28655868297781
 20
7.94417220498212
 30
0
 11
-16.7663586829778
 21
7.94417220498212
 31
0
  0
LINE
  8
1
 62
7
 10
-16.28655868297781
 20
7.464372204982119
 30
0
 11
-16.28655868297781
 21
7.94417220498212
 31
0
  0
LINE
  8
1
 62
7
 10
-16.7663586829778
 20
7.464372204982119
 30
0
 11
-16.28655868297781
 21
7.464372204982119
 31
0
  0
LINE
  8
1
 62
7
 10
-16.7663586829778
 20
7.94417220498212
 30
0
 11
-16.7663586829778
 21
7.464372204982119
 31
0
  0
LINE
  8
1
 62
7
 10
-138.9590442101738
 20
3.165623304759748
 30
0
 11
-139.2790442101738
 21
3.165623304759748
 31
0
  0
LINE
  8
1
 62
7
 10
-138.9590442101738
 20
2.845623304759748
 30
0
 11
-138.9590442101738
 21
3.165623304759748
 31
0
  0
LINE
  8
1
 62
7
 10
-139.2790442101738
 20
2.845623304759748
 30
0
 11
-138.9590442101738
 21
2.845623304759748
 31
0
  0
LINE
  8
1
 62
7
 10
-139.2790442101738
 20
3.165623304759748
 30
0
 11
-139.2790442101738
 21
2.845623304759748
 31
0
  0
LINE
  8
1
 62
7
 10
-139.0390442101738
 20
3.085623304759748
 30
0
 11
-139.1990442101738
 21
3.085623304759748
 31
0
  0
LINE
  8
1
 62
7
 10
-139.0390442101738
 20
2.925623304759748
 30
0
 11
-139.0390442101738
 21
3.085623304759748
 31
0
  0
LINE
  8
1
 62
7
 10
-139.1990442101738
 20
2.925623304759748
 30
0
 11
-139.0390442101738
 21
2.925623304759748
 31
0
  0
LINE
  8
1
 62
7
 10
-139.1990442101738
 20
3.085623304759748
 30
0
 11
-139.1990442101738
 21
2.925623304759748
 31
0
  0
LINE
  8
1
 62
7
 10
-138.8791442101738
 20
3.245523304759749
 30
0
 11
-139.3589442101738
 21
3.245523304759749
 31
0
  0
LINE
  8
1
 62
7
 10
-138.8791442101738
 20
2.765723304759748
 30
0
 11
-138.8791442101738
 21
3.245523304759749
 31
0
  0
LINE
  8
1
 62
7
 10
-139.3589442101738
 20
2.765723304759748
 30
0
 11
-138.8791442101738
 21
2.765723304759748
 31
0
  0
LINE
  8
1
 62
7
 10
-139.3589442101738
 20
3.245523304759749
 30
0
 11
-139.3589442101738
 21
2.765723304759748
 31
0
  0
LINE
  8
1
 62
7
 10
-0.1651714005875995
 20
-2.5019196865816
 30
0
 11
63.6369833496572
 21
-2.5019196865816
 31
0
  0
LINE
  8
1
 62
7
 10
12.61252981837943
 20
0.4980803134184
 30
0
 11
12.61252981837943
 21
-5.5019196865816
 31
0
  0
LINE
  8
1
 62
7
 10
12.61252981837943
 20
-5.5019196865816
 30
0
 11
12.41252981837943
 21
-5.301919686581599
 31
0
  0
LINE
  8
1
 62
7
 10
12.41252981837943
 20
0.2980803134184
 30
0
 11
12.61252981837943
 21
0.4980803134184
 31
0
  0
LINE
  8
1
 62
7
 10
12.61252981837943
 20
-5.5019196865816
 30
0
 11
27.41252981837943
 21
-5.5019196865816
 31
0
  0
LINE
  8
1
 62
7
 10
12.41252981837943
 20
0.2980803134184
 30
0
 11
12.41252981837943
 21
-5.301919686581599
 31
0
  0
LINE
  8
1
 62
7
 10
27.41252981837943
 20
0.4980803134184
 30
0
 11
12.61252981837943
 21
0.4980803134184
 31
0
  0
LINE
  8
1
 62
7
 10
27.41252981837943
 20
8.4980803134184
 30
0
 11
47.51252981837943
 21
8.4980803134184
 31
0
  0
LINE
  8
1
 62
7
 10
27.41252981837943
 20
-13.5019196865816
 30
0
 11
27.41252981837943
 21
8.4980803134184
 31
0
  0
LINE
  8
1
 62
7
 10
-106.7730529458883
 20
2.435444634276859
 30
0
 11
-110.2029148357005
 21
0.4552129489105541
 31
0
  0
LINE
  8
1
 62
7
 10
-123.8765846642977
 20
2.435444634276859
 30
0
 11
-120.4467227744855
 21
0.4552129489105541
 31
0
  0
LINE
  8
1
 62
7
 10
-115.324818805093
 20
-8.043978203568805
 30
0
 11
-115.324818805093
 21
-18.8485599280917
 31
0
  0
LINE
  8
1
 62
7
 10
-110.2871386112846
 20
8.571552138682115
 30
0
 11
-110.5661975747535
 21
7.530089908708696
 31
0
  0
LINE
  8
1
 62
7
 10
-120.1813256673296
 20
7.895404060279787
 30
0
 11
-120.0700507086174
 21
7.480120260755569
 31
0
  0
LINE
  8
1
 62
7
 10
-116.3176223621733
 20
8.930680240689874
 30
0
 11
-116.2157954198959
 21
8.550656918531139
 31
0
  0
LINE
  8
1
 62
7
 10
-116.3176223621733
 20
8.930680240689874
 30
0
 11
-116.2157954198959
 21
8.550656918531139
 31
0
  0
LINE
  8
1
 62
7
 10
-116.3176223621733
 20
8.930680240689874
 30
0
 11
-116.2157954198959
 21
8.550656918531139
 31
0
  0
LINE
  8
1
 62
7
 10
-119.3965731726123
 20
8.830371183784635
 30
0
 11
-117.4647215200342
 21
9.348009273989682
 31
0
  0
LINE
  8
1
 62
7
 10
-120.3624989989014
 20
8.571552138682108
 30
0
 11
-117.4647215200342
 21
9.348009273989682
 31
0
  0
LINE
  8
1
 62
7
 10
-116.4987956937451
 20
9.606828319092202
 30
0
 11
-116.3176223621733
 21
8.930680240689874
 31
0
  0
LINE
  8
1
 62
7
 10
-120.3624989989014
 20
8.571552138682108
 30
0
 11
-120.1813256673296
 21
7.895404060279787
 31
0
  0
LINE
  8
1
 62
7
 10
-119.5777465041841
 20
9.506519262186984
 30
0
 11
-119.3965731726123
 21
8.830371183784635
 31
0
  0
LINE
  8
1
 62
7
 10
-119.5777465041841
 20
9.506519262186984
 30
0
 11
-119.2396724649829
 21
9.597105927972862
 31
0
  0
LINE
  8
1
 62
7
 10
-117.9839688908071
 20
9.933570686606132
 30
0
 11
-118.3980793629711
 21
11.47905200866867
 31
0
  0
LINE
  8
1
 62
7
 10
-119.2396724649829
 20
9.597105927972862
 30
0
 11
-119.6537829371469
 21
11.14258725003539
 31
0
  0
LINE
  8
1
 62
7
 10
-119.2396724649829
 20
9.597105927972862
 30
0
 11
-117.9839688908071
 21
9.933570686606132
 31
0
  0
LINE
  8
1
 62
7
 10
-119.9918569763481
 20
11.05200058424951
 30
0
 11
-118.06000532377
 21
11.56963867445455
 31
0
  0
LINE
  8
1
 62
7
 10
-120.0953845943891
 20
11.43837091476512
 30
0
 11
-119.9918569763481
 21
11.05200058424951
 31
0
  0
LINE
  8
1
 62
7
 10
-120.0953845943891
 20
11.43837091476512
 30
0
 11
-120.0246739162705
 21
11.5608454019043
 31
0
  0
LINE
  8
1
 62
7
 10
-120.0246739162705
 20
11.5608454019043
 30
0
 11
-118.2860074289501
 21
12.02671968308883
 31
0
  0
LINE
  8
1
 62
7
 10
-118.163532941811
 20
11.95600900497016
 30
0
 11
-118.06000532377
 21
11.56963867445455
 31
0
  0
LINE
  8
1
 62
7
 10
-117.9839688908071
 20
9.933570686606132
 30
0
 11
-117.6458948516059
 21
10.02415735239202
 31
0
  0
LINE
  8
1
 62
7
 10
-117.6458948516059
 20
10.02415735239202
 30
0
 11
-117.4647215200342
 21
9.348009273989682
 31
0
  0
LINE
  8
1
 62
7
 10
-117.4647215200342
 20
9.348009273989682
 30
0
 11
-116.4987956937451
 21
9.606828319092202
 31
0
  0
LINE
  8
1
 62
7
 10
-118.163532941811
 20
11.95600900497016
 30
0
 11
-118.2860074289501
 21
12.02671968308883
 31
0
  0
LINE
  8
1
 62
7
 10
-120.0953845943891
 20
11.43837091476512
 30
0
 11
-118.163532941811
 21
11.95600900497016
 31
0
  0
LINE
  8
1
 62
7
 10
-119.4478587510389
 20
12.88547487332436
 30
0
 11
-117.9724397742796
 21
7.379136289607757
 31
0
  0
LINE
  8
1
 62
7
 10
-115.324818805093
 20
-2.501919686581601
 30
0
 11
-129.7899965177887
 21
11.96325802611408
 31
0
  0
LINE
  8
1
 62
7
 10
-115.324818805093
 20
25.76925867267358
 30
0
 11
-115.324818805093
 21
-2.501919686581601
 31
0
  0
LINE
  8
1
 62
7
 10
-115.324818805093
 20
3.412345584402708
 30
0
 11
-115.324818805093
 21
-8.043978203568805
 31
0
  0
LINE
  8
1
 62
7
 10
-119.4461918921011
 20
-2.501919686581601
 30
0
 11
-111.1122779208511
 21
-2.501919686581601
 31
0
  0
LINE
  8
1
 62
7
 10
-129.1134010382307
 20
2.942802528554815
 30
0
 11
-127.6991874758576
 21
1.528588966181722
 31
0
  0
LINE
  8
1
 62
7
 10
-129.1134010382307
 20
2.942802528554815
 30
0
 11
-129.1134010382307
 21
2.801381172317505
 31
0
  0
LINE
  8
1
 62
7
 10
-127.6991874758576
 20
1.528588966181722
 30
0
 11
-127.8406088320949
 21
1.528588966181722
 31
0
  0
LINE
  8
1
 62
7
 10
-124.5879176386368
 20
4.639858803402525
 30
0
 11
-122.4665972950771
 21
6.761179146962178
 31
0
  0
LINE
  8
1
 62
7
 10
-126.7092379821964
 20
5.346965584589064
 30
0
 11
-129.1134010382307
 21
2.942802528554815
 31
0
  0
LINE
  8
1
 62
7
 10
-123.8808108574502
 20
8.175392709335277
 30
0
 11
-126.0021312010099
 21
6.054072365775625
 31
0
  0
LINE
  8
1
 62
7
 10
-122.4665972950771
 20
6.761179146962178
 30
0
 11
-121.9933507955671
 21
6.287932647452173
 31
0
  0
LINE
  8
1
 62
7
 10
-127.6991874758576
 20
1.528588966181722
 30
0
 11
-125.2950244198233
 21
3.932752022215965
 31
0
  0
LINE
  8
1
 62
7
 10
-129.1134010382307
 20
2.801381172317505
 30
0
 11
-127.8406088320949
 21
1.528588966181722
 31
0
  0
LINE
  8
1
 62
7
 10
-123.8808108574502
 20
8.882499490521809
 30
0
 11
-122.8201506856704
 21
7.821839318741993
 31
0
  0
LINE
  8
1
 62
7
 10
-123.8808108574502
 20
8.882499490521809
 30
0
 11
-123.5979681449756
 21
9.165342202996413
 31
0
  0
LINE
  8
1
 62
7
 10
-122.8201506856704
 20
7.821839318741993
 30
0
 11
-122.3616122524469
 21
7.363300885518512
 31
0
  0
LINE
  8
1
 62
7
 10
-126.7092379821964
 20
6.054072365775603
 30
0
 11
-124.3941822692604
 21
3.739016652839616
 31
0
  0
LINE
  8
1
 62
7
 10
-127.0627913727897
 20
5.700518975182348
 30
0
 11
-124.6718847196651
 21
3.309612322057717
 31
0
  0
LINE
  8
1
 62
7
 10
-124.0996682769932
 20
4.151609441758907
 30
0
 11
-126.3556845916031
 21
6.407625756368873
 31
0
  0
LINE
  8
1
 62
7
 10
-124.2343642480435
 20
8.528946099928533
 30
0
 11
-122.4665972950771
 21
6.761179146962178
 31
0
  0
LINE
  8
1
 62
7
 10
-126.2142632353658
 20
6.549047112606196
 30
0
 11
-124.2343642480435
 21
8.528946099928533
 31
0
  0
LINE
  8
1
 62
7
 10
-126.5678166259591
 20
6.902600503199466
 30
0
 11
-126.2142632353658
 21
6.549047112606196
 31
0
  0
LINE
  8
1
 62
7
 10
-124.5879176386368
 20
8.882499490521809
 30
0
 11
-126.5678166259591
 21
6.902600503199466
 31
0
  0
LINE
  8
1
 62
7
 10
-114.3320152480127
 20
8.93068024068986
 30
0
 11
-114.4432902067249
 21
8.515396441165642
 31
0
  0
LINE
  8
1
 62
7
 10
-95.324818805093
 20
-2.501919686581601
 30
0
 11
-115.324818805093
 21
-2.501919686581601
 31
0
  0
LINE
  8
1
 62
7
 10
-116.824818805093
 20
-2.501919686581601
 30
0
 11
-135.324818805093
 21
-2.501919686581601
 31
0
  0
LINE
  8
1
 62
7
 10
-116.624818805093
 20
-2.501919686581601
 30
0
 11
-116.824818805093
 21
-2.501919686581601
 31
0
  0
LINE
  8
1
 62
7
 10
-115.324818805093
 20
-2.501919686581601
 30
0
 11
-116.624818805093
 21
-2.501919686581601
 31
0
  0
LINE
  8
1
 62
7
 10
-114.1508419164409
 20
9.606828319092202
 30
0
 11
-111.2530644375737
 21
8.830371183784642
 31
0
  0
LINE
  8
1
 62
7
 10
-114.1508419164409
 20
9.606828319092202
 30
0
 11
-114.3320152480127
 21
8.93068024068986
 31
0
  0
LINE
  8
1
 62
7
 10
-113.0037427585801
 20
10.02415735239202
 30
0
 11
-113.1849160901518
 21
9.348009273989668
 31
0
  0
LINE
  8
1
 62
7
 10
-113.0037427585801
 20
10.02415735239202
 30
0
 11
-112.6656687193789
 21
9.933570686606139
 31
0
  0
LINE
  8
1
 62
7
 10
-111.4099651452031
 20
9.597105927972862
 30
0
 11
-110.9958546730391
 21
11.1425872500354
 31
0
  0
LINE
  8
1
 62
7
 10
-112.6656687193789
 20
9.933570686606139
 30
0
 11
-112.2515582472149
 21
11.47905200866867
 31
0
  0
LINE
  8
1
 62
7
 10
-112.6656687193789
 20
9.933570686606139
 30
0
 11
-111.4099651452031
 21
9.597105927972862
 31
0
  0
LINE
  8
1
 62
7
 10
-112.589632286416
 20
11.56963867445454
 30
0
 11
-110.6577806338379
 21
11.05200058424951
 31
0
  0
LINE
  8
1
 62
7
 10
-112.486104668375
 20
11.95600900497016
 30
0
 11
-112.589632286416
 21
11.56963867445454
 31
0
  0
LINE
  8
1
 62
7
 10
-112.486104668375
 20
11.95600900497016
 30
0
 11
-112.3636301812359
 21
12.02671968308884
 31
0
  0
LINE
  8
1
 62
7
 10
-112.3636301812359
 20
12.02671968308884
 30
0
 11
-110.6249636939156
 21
11.5608454019043
 31
0
  0
LINE
  8
1
 62
7
 10
-110.5542530157969
 20
11.43837091476511
 30
0
 11
-110.6577806338379
 21
11.05200058424951
 31
0
  0
LINE
  8
1
 62
7
 10
-111.4099651452031
 20
9.597105927972862
 30
0
 11
-111.0718911060019
 21
9.506519262186977
 31
0
  0
LINE
  8
1
 62
7
 10
-111.0718911060019
 20
9.506519262186977
 30
0
 11
-111.2530644375737
 21
8.830371183784642
 31
0
  0
LINE
  8
1
 62
7
 10
-111.2530644375737
 20
8.830371183784642
 30
0
 11
-110.2871386112846
 21
8.571552138682115
 31
0
  0
LINE
  8
1
 62
7
 10
-110.5542530157969
 20
11.43837091476511
 30
0
 11
-110.6249636939156
 21
11.5608454019043
 31
0
  0
LINE
  8
1
 62
7
 10
-112.486104668375
 20
11.95600900497016
 30
0
 11
-110.5542530157969
 21
11.43837091476511
 31
0
  0
LINE
  8
1
 62
7
 10
-111.2017788591472
 20
12.88547487332435
 30
0
 11
-112.6771978359063
 21
7.379136289607757
 31
0
  0
LINE
  8
1
 62
7
 10
47.51252981837943
 20
7.548080313418403
 30
0
 11
47.51252981837943
 21
-12.55191968658161
 31
0
  0
LINE
  8
1
 62
7
 10
47.75897642778617
 20
-12.55191968658161
 30
0
 11
47.51252981837943
 21
-12.55191968658161
 31
0
  0
LINE
  8
1
 62
7
 10
51.06608320897271
 20
7.548080313418403
 30
0
 11
51.41252981837944
 21
7.548080313418403
 31
0
  0
LINE
  8
1
 62
7
 10
51.06608320897271
 20
7.548080313418403
 30
0
 11
51.41252981837944
 21
7.548080313418403
 31
0
  0
LINE
  8
1
 62
7
 10
51.06608320897271
 20
-13.00547307717488
 30
0
 11
51.06608320897271
 21
8.001633704011681
 31
0
  0
LINE
  8
1
 62
7
 10
50.46963659956601
 20
8.5980803134184
 30
0
 11
50.46963659956601
 21
-13.6019196865816
 31
0
  0
LINE
  8
1
 62
7
 10
48.35542303719289
 20
-13.6019196865816
 30
0
 11
48.35542303719289
 21
8.5980803134184
 31
0
  0
LINE
  8
1
 62
7
 10
47.75897642778617
 20
8.001633704011674
 30
0
 11
47.75897642778617
 21
-13.00547307717487
 31
0
  0
LINE
  8
1
 62
7
 10
50.46963659956601
 20
8.5980803134184
 30
0
 11
51.06608320897271
 21
8.001633704011681
 31
0
  0
LINE
  8
1
 62
7
 10
48.35542303719289
 20
8.5980803134184
 30
0
 11
47.75897642778617
 21
8.001633704011674
 31
0
  0
LINE
  8
1
 62
7
 10
50.46963659956601
 20
8.5980803134184
 30
0
 11
48.35542303719289
 21
8.5980803134184
 31
0
  0
LINE
  8
1
 62
7
 10
47.51252981837943
 20
7.548080313418403
 30
0
 11
47.75897642778617
 21
7.548080313418403
 31
0
  0
LINE
  8
1
 62
7
 10
47.51252981837943
 20
8.078080313418404
 30
0
 11
47.51252981837943
 21
7.548080313418403
 31
0
  0
LINE
  8
1
 62
7
 10
51.06608320897271
 20
-13.00547307717488
 30
0
 11
50.46963659956601
 21
-13.6019196865816
 31
0
  0
LINE
  8
1
 62
7
 10
47.75897642778617
 20
-13.00547307717487
 30
0
 11
48.35542303719289
 21
-13.6019196865816
 31
0
  0
LINE
  8
1
 62
7
 10
48.35542303719289
 20
-13.6019196865816
 30
0
 11
50.46963659956601
 21
-13.6019196865816
 31
0
  0
LINE
  8
1
 62
7
 10
51.41252981837944
 20
7.548080313418403
 30
0
 11
51.41252981837944
 21
-12.55191968658159
 31
0
  0
LINE
  8
1
 62
7
 10
51.41252981837944
 20
-12.55191968658159
 30
0
 11
51.06608320897271
 21
-12.55191968658159
 31
0
  0
LINE
  8
1
 62
7
 10
47.51252981837943
 20
-12.55191968658161
 30
0
 11
47.51252981837943
 21
-13.08191968658161
 31
0
  0
LINE
  8
1
 62
7
 10
47.51252981837943
 20
-13.08191968658161
 30
0
 11
47.51252981837943
 21
-13.5019196865816
 31
0
  0
LINE
  8
1
 62
7
 10
47.51252981837943
 20
7.548080313418403
 30
0
 11
47.75897642778617
 21
7.548080313418403
 31
0
  0
LINE
  8
1
 62
7
 10
47.51252981837943
 20
8.078080313418404
 30
0
 11
47.51252981837943
 21
7.548080313418403
 31
0
  0
LINE
  8
1
 62
7
 10
47.51252981837943
 20
-13.5019196865816
 30
0
 11
27.41252981837943
 21
-13.5019196865816
 31
0
  0
LINE
  8
1
 62
7
 10
47.51252981837943
 20
8.4980803134184
 30
0
 11
47.51252981837943
 21
7.801949822703001
 31
0
  0
LINE
  8
1
 62
7
 10
44.01252981837943
 20
13.32882843828815
 30
0
 11
44.01252981837943
 21
7.628247261293353
 31
0
  0
LINE
  8
1
 62
7
 10
43.01252981837943
 20
12.09862537184574
 30
0
 11
45.01252981837943
 21
12.09862537184574
 31
0
  0
LINE
  8
1
 62
7
 10
45.01252981837943
 20
12.09862537184574
 30
0
 11
44.91252981837944
 21
12.19862537184576
 31
0
  0
LINE
  8
1
 62
7
 10
45.01252981837943
 20
9.398625371845753
 30
0
 11
46.01252981837943
 21
9.398625371845753
 31
0
  0
LINE
  8
1
 62
7
 10
45.01252981837943
 20
10.09862537184575
 30
0
 11
45.01252981837943
 21
9.398625371845753
 31
0
  0
LINE
  8
1
 62
7
 10
44.66252981837944
 20
10.09862537184575
 30
0
 11
45.01252981837943
 21
10.09862537184575
 31
0
  0
LINE
  8
1
 62
7
 10
45.01252981837943
 20
12.09862537184574
 30
0
 11
45.01252981837943
 21
11.69862537184576
 31
0
  0
LINE
  8
1
 62
7
 10
43.11252981837943
 20
12.19862537184576
 30
0
 11
44.91252981837944
 21
12.19862537184576
 31
0
  0
LINE
  8
1
 62
7
 10
43.01252981837943
 20
12.09862537184574
 30
0
 11
43.11252981837943
 21
12.19862537184576
 31
0
  0
LINE
  8
1
 62
7
 10
43.01252981837943
 20
12.09862537184574
 30
0
 11
43.01252981837943
 21
11.69862537184576
 31
0
  0
LINE
  8
1
 62
7
 10
43.01252981837943
 20
11.69862537184576
 30
0
 11
45.01252981837943
 21
11.69862537184576
 31
0
  0
LINE
  8
1
 62
7
 10
43.36252981837943
 20
10.09862537184575
 30
0
 11
44.66252981837944
 21
10.09862537184575
 31
0
  0
LINE
  8
1
 62
7
 10
43.36252981837943
 20
10.09862537184575
 30
0
 11
43.36252981837943
 21
11.69862537184576
 31
0
  0
LINE
  8
1
 62
7
 10
44.66252981837944
 20
10.09862537184575
 30
0
 11
44.66252981837944
 21
11.69862537184576
 31
0
  0
LINE
  8
1
 62
7
 10
43.01252981837943
 20
10.09862537184575
 30
0
 11
43.36252981837943
 21
10.09862537184575
 31
0
  0
LINE
  8
1
 62
7
 10
43.01252981837943
 20
10.09862537184575
 30
0
 11
43.01252981837943
 21
9.398625371845753
 31
0
  0
LINE
  8
1
 62
7
 10
42.01252981837943
 20
9.398625371845753
 30
0
 11
45.01252981837943
 21
9.398625371845753
 31
0
  0
LINE
  8
1
 62
7
 10
43.01252981837943
 20
9.398625371845753
 30
0
 11
45.01252981837943
 21
9.398625371845753
 31
0
  0
LINE
  8
1
 62
7
 10
46.01252981837943
 20
9.398625371845753
 30
0
 11
46.01252981837943
 21
8.4980803134184
 31
0
  0
LINE
  8
1
 62
7
 10
41.01252981837943
 20
13.32882843828815
 30
0
 11
41.01252981837943
 21
7.628247261293353
 31
0
  0
LINE
  8
1
 62
7
 10
40.01252981837943
 20
12.09862537184574
 30
0
 11
42.01252981837943
 21
12.09862537184574
 31
0
  0
LINE
  8
1
 62
7
 10
42.01252981837943
 20
12.09862537184574
 30
0
 11
41.91252981837944
 21
12.19862537184576
 31
0
  0
LINE
  8
1
 62
7
 10
42.01252981837943
 20
9.398625371845753
 30
0
 11
43.01252981837943
 21
9.398625371845753
 31
0
  0
LINE
  8
1
 62
7
 10
42.01252981837943
 20
10.09862537184575
 30
0
 11
42.01252981837943
 21
9.398625371845753
 31
0
  0
LINE
  8
1
 62
7
 10
41.66252981837944
 20
10.09862537184575
 30
0
 11
42.01252981837943
 21
10.09862537184575
 31
0
  0
LINE
  8
1
 62
7
 10
42.01252981837943
 20
12.09862537184574
 30
0
 11
42.01252981837943
 21
11.69862537184576
 31
0
  0
LINE
  8
1
 62
7
 10
40.11252981837943
 20
12.19862537184576
 30
0
 11
41.91252981837944
 21
12.19862537184576
 31
0
  0
LINE
  8
1
 62
7
 10
40.01252981837943
 20
12.09862537184574
 30
0
 11
40.11252981837943
 21
12.19862537184576
 31
0
  0
LINE
  8
1
 62
7
 10
40.01252981837943
 20
12.09862537184574
 30
0
 11
40.01252981837943
 21
11.69862537184576
 31
0
  0
LINE
  8
1
 62
7
 10
40.01252981837943
 20
11.69862537184576
 30
0
 11
42.01252981837943
 21
11.69862537184576
 31
0
  0
LINE
  8
1
 62
7
 10
40.36252981837943
 20
10.09862537184575
 30
0
 11
41.66252981837944
 21
10.09862537184575
 31
0
  0
LINE
  8
1
 62
7
 10
40.36252981837943
 20
10.09862537184575
 30
0
 11
40.36252981837943
 21
11.69862537184576
 31
0
  0
LINE
  8
1
 62
7
 10
41.66252981837944
 20
10.09862537184575
 30
0
 11
41.66252981837944
 21
11.69862537184576
 31
0
  0
LINE
  8
1
 62
7
 10
40.01252981837943
 20
10.09862537184575
 30
0
 11
40.36252981837943
 21
10.09862537184575
 31
0
  0
LINE
  8
1
 62
7
 10
40.01252981837943
 20
10.09862537184575
 30
0
 11
40.01252981837943
 21
9.398625371845753
 31
0
  0
LINE
  8
1
 62
7
 10
39.01252981837943
 20
9.398625371845753
 30
0
 11
42.01252981837943
 21
9.398625371845753
 31
0
  0
LINE
  8
1
 62
7
 10
40.01252981837943
 20
9.398625371845753
 30
0
 11
42.01252981837943
 21
9.398625371845753
 31
0
  0
LINE
  8
1
 62
7
 10
39.01252981837943
 20
9.398625371845753
 30
0
 11
39.01252981837943
 21
8.4980803134184
 31
0
  0
LINE
  8
1
 62
7
 10
38.01252981837943
 20
13.32882843828815
 30
0
 11
38.01252981837943
 21
7.628247261293353
 31
0
  0
LINE
  8
1
 62
7
 10
37.01252981837943
 20
12.09862537184574
 30
0
 11
39.01252981837943
 21
12.09862537184574
 31
0
  0
LINE
  8
1
 62
7
 10
39.01252981837943
 20
12.09862537184574
 30
0
 11
38.91252981837944
 21
12.19862537184576
 31
0
  0
LINE
  8
1
 62
7
 10
39.01252981837943
 20
10.09862537184575
 30
0
 11
39.01252981837943
 21
9.398625371845753
 31
0
  0
LINE
  8
1
 62
7
 10
38.66252981837944
 20
10.09862537184575
 30
0
 11
39.01252981837943
 21
10.09862537184575
 31
0
  0
LINE
  8
1
 62
7
 10
39.01252981837943
 20
12.09862537184574
 30
0
 11
39.01252981837943
 21
11.69862537184576
 31
0
  0
LINE
  8
1
 62
7
 10
37.11252981837943
 20
12.19862537184576
 30
0
 11
38.91252981837944
 21
12.19862537184576
 31
0
  0
LINE
  8
1
 62
7
 10
37.01252981837943
 20
12.09862537184574
 30
0
 11
37.11252981837943
 21
12.19862537184576
 31
0
  0
LINE
  8
1
 62
7
 10
37.01252981837943
 20
12.09862537184574
 30
0
 11
37.01252981837943
 21
11.69862537184576
 31
0
  0
LINE
  8
1
 62
7
 10
37.01252981837943
 20
11.69862537184576
 30
0
 11
39.01252981837943
 21
11.69862537184576
 31
0
  0
LINE
  8
1
 62
7
 10
37.36252981837943
 20
10.09862537184575
 30
0
 11
38.66252981837944
 21
10.09862537184575
 31
0
  0
LINE
  8
1
 62
7
 10
37.36252981837943
 20
10.09862537184575
 30
0
 11
37.36252981837943
 21
11.69862537184576
 31
0
  0
LINE
  8
1
 62
7
 10
38.66252981837944
 20
10.09862537184575
 30
0
 11
38.66252981837944
 21
11.69862537184576
 31
0
  0
LINE
  8
1
 62
7
 10
37.01252981837943
 20
10.09862537184575
 30
0
 11
37.36252981837943
 21
10.09862537184575
 31
0
  0
LINE
  8
1
 62
7
 10
37.01252981837943
 20
10.09862537184575
 30
0
 11
37.01252981837943
 21
9.398625371845753
 31
0
  0
LINE
  8
1
 62
7
 10
36.01252981837943
 20
9.398625371845753
 30
0
 11
39.01252981837943
 21
9.398625371845753
 31
0
  0
LINE
  8
1
 62
7
 10
37.01252981837943
 20
9.398625371845753
 30
0
 11
39.01252981837943
 21
9.398625371845753
 31
0
  0
LINE
  8
1
 62
7
 10
37.01252981837943
 20
12.09862537184574
 30
0
 11
37.11252981837943
 21
12.19862537184576
 31
0
  0
LINE
  8
1
 62
7
 10
37.01252981837943
 20
12.09862537184574
 30
0
 11
37.01252981837943
 21
11.69862537184576
 31
0
  0
LINE
  8
1
 62
7
 10
37.36252981837943
 20
10.09862537184575
 30
0
 11
37.36252981837943
 21
11.69862537184576
 31
0
  0
LINE
  8
1
 62
7
 10
37.01252981837943
 20
10.09862537184575
 30
0
 11
37.36252981837943
 21
10.09862537184575
 31
0
  0
LINE
  8
1
 62
7
 10
37.01252981837943
 20
10.09862537184575
 30
0
 11
37.01252981837943
 21
9.398625371845753
 31
0
  0
LINE
  8
1
 62
7
 10
35.01252981837943
 20
13.32882843828815
 30
0
 11
35.01252981837943
 21
7.628247261293353
 31
0
  0
LINE
  8
1
 62
7
 10
34.01252981837943
 20
12.09862537184574
 30
0
 11
36.01252981837943
 21
12.09862537184574
 31
0
  0
LINE
  8
1
 62
7
 10
36.01252981837943
 20
12.09862537184574
 30
0
 11
35.91252981837944
 21
12.19862537184576
 31
0
  0
LINE
  8
1
 62
7
 10
36.01252981837943
 20
10.09862537184575
 30
0
 11
36.01252981837943
 21
9.398625371845753
 31
0
  0
LINE
  8
1
 62
7
 10
35.66252981837944
 20
10.09862537184575
 30
0
 11
36.01252981837943
 21
10.09862537184575
 31
0
  0
LINE
  8
1
 62
7
 10
36.01252981837943
 20
12.09862537184574
 30
0
 11
36.01252981837943
 21
11.69862537184576
 31
0
  0
LINE
  8
1
 62
7
 10
34.11252981837943
 20
12.19862537184576
 30
0
 11
35.91252981837944
 21
12.19862537184576
 31
0
  0
LINE
  8
1
 62
7
 10
34.01252981837943
 20
12.09862537184574
 30
0
 11
34.11252981837943
 21
12.19862537184576
 31
0
  0
LINE
  8
1
 62
7
 10
34.01252981837943
 20
12.09862537184574
 30
0
 11
34.01252981837943
 21
11.69862537184576
 31
0
  0
LINE
  8
1
 62
7
 10
34.01252981837943
 20
11.69862537184576
 30
0
 11
36.01252981837943
 21
11.69862537184576
 31
0
  0
LINE
  8
1
 62
7
 10
34.36252981837943
 20
10.09862537184575
 30
0
 11
35.66252981837944
 21
10.09862537184575
 31
0
  0
LINE
  8
1
 62
7
 10
34.36252981837943
 20
10.09862537184575
 30
0
 11
34.36252981837943
 21
11.69862537184576
 31
0
  0
LINE
  8
1
 62
7
 10
35.66252981837944
 20
10.09862537184575
 30
0
 11
35.66252981837944
 21
11.69862537184576
 31
0
  0
LINE
  8
1
 62
7
 10
34.01252981837943
 20
10.09862537184575
 30
0
 11
34.36252981837943
 21
10.09862537184575
 31
0
  0
LINE
  8
1
 62
7
 10
34.01252981837943
 20
10.09862537184575
 30
0
 11
34.01252981837943
 21
9.398625371845753
 31
0
  0
LINE
  8
1
 62
7
 10
33.01252981837943
 20
9.398625371845753
 30
0
 11
36.01252981837943
 21
9.398625371845753
 31
0
  0
LINE
  8
1
 62
7
 10
34.01252981837943
 20
9.398625371845753
 30
0
 11
36.01252981837943
 21
9.398625371845753
 31
0
  0
LINE
  8
1
 62
7
 10
33.01252981837943
 20
9.398625371845753
 30
0
 11
33.01252981837943
 21
8.4980803134184
 31
0
  0
LINE
  8
1
 62
7
 10
37.01252981837943
 20
9.398625371845753
 30
0
 11
37.01252981837943
 21
8.4980803134184
 31
0
  0
LINE
  8
1
 62
7
 10
43.01252981837943
 20
9.398625371845753
 30
0
 11
43.01252981837943
 21
8.4980803134184
 31
0
  0
LINE
  8
1
 62
7
 10
-105
 20
-25
 30
0
 11
-70
 21
-25
 31
0
  0
LINE
  8
1
 62
7
 10
-105
 20
-30
 30
0
 11
-70
 21
-30
 31
0
  0
LINE
  8
1
 62
7
 10
-105
 20
-35
 30
0
 11
-70
 21
-35
 31
0
  0
LINE
  8
1
 62
7
 10
3.8498980373948
 20
-1.0019196865816
 30
0
 11
12.41252981837943
 21
-1.0019196865816
 31
0
  0
LINE
  8
1
 62
7
 10
4.8498980373948
 20
-4.0019196865816
 30
0
 11
12.41252981837943
 21
-4.0019196865816
 31
0
  0
LINE
  8
1
 62
7
 10
4.349898037394802
 20
-2.5019196865816
 30
0
 11
12.41252981837943
 21
-2.5019196865816
 31
0
  0
LINE
  8
1
 62
7
 10
3.8498980373948
 20
-5.0019196865816
 30
0
 11
3.8498980373948
 21
-19.6861340716795
 31
0
  0
LINE
  8
1
 62
7
 10
2.349898037394802
 20
-4.5019196865816
 30
0
 11
2.349898037394802
 21
-19.81297880786425
 31
0
  0
LINE
  8
1
 62
7
 10
0.8498980373947997
 20
-4.0019196865816
 30
0
 11
0.8498980373947997
 21
-19.984365283521
 31
0
  0
LINE
  8
1
 62
7
 10
-55
 20
-25
 30
0
 11
-5
 21
-25
 31
0
  0
LINE
  8
1
 62
7
 10
-55
 20
-30
 30
0
 11
-5
 21
-30
 31
0
  0
LINE
  8
1
 62
7
 10
27.41252981837943
 20
-15.4197109758188
 30
0
 11
27.41252981837943
 21
-36.8504083546329
 31
0
  0
LINE
  8
1
 62
7
 10
-115.324818805093
 20
-2.501919686581601
 30
0
 11
-110.8346179267333
 21
14.25573812764737
 31
0
  0
LINE
  8
1
 62
7
 10
-115.324818805093
 20
27.6831668528556
 30
0
 11
-115.324818805093
 21
25.507417259562
 31
0
  0
LINE
  8
1
 62
7
 10
-121.5859052687125
 20
6.587593901784069
 30
0
 11
-122.5463916803468
 21
7.548080313418401
 31
0
  0
LINE
  8
1
 62
7
 10
-129.2345308521058
 20
11.40779236043119
 30
0
 11
-131.2356043095005
 21
13.40886581782589
 31
0
  0
LINE
  8
1
 62
7
 10
-115.324818805093
 20
-2.501919686581601
 30
0
 11
-119.7914603414871
 21
14.16781346643875
 31
0
  0
LINE
  8
1
 62
7
 10
-121.7594905138906
 20
6.761179146962146
 30
0
 11
-121.4766478014159
 21
7.044021859436787
 31
0
  0
LINE
  8
1
 62
7
 10
-121.4766478014159
 20
7.326864571911414
 30
0
 11
-122.4089023933001
 21
8.259119163795509
 31
0
  0
LINE
  8
1
 62
7
 10
-123.315125432501
 20
9.165342202996413
 30
0
 11
-122.4089023933001
 21
8.259119163795509
 31
0
  0
LINE
  8
1
 62
7
 10
47.75897642778617
 20
8.001633704011674
 30
0
 11
47.75897642778615
 21
9.165342202996413
 31
0
  0
LINE
  8
1
 62
7
 10
47.75897642778615
 20
9.165342202996413
 30
0
 11
51.06608320897273
 21
9.165342202996413
 31
0
  0
LINE
  8
1
 62
7
 10
51.06608320897273
 20
9.165342202996413
 30
0
 11
51.06608320897271
 21
8.001633704011681
 31
0
  0
ARC
  8
1
 62
7
 10
-115.324818805093
 20
-2.501919686581601
 30
0
 40
14.8273396130256
 50
144.7068634298489
 51
176.1656234279293
  0
ARC
  8
1
 62
7
 10
-115.214818805093
 20
-2.501919686581601
 30
0
 40
11.10000000000004
 50
143.171842490491
 51
145.7886978182115
  0
ARC
  8
1
 62
7
 10
-115.214818805093
 20
-2.501919686581601
 30
0
 40
11.09999999999998
 50
145.7886978182115
 51
148.428549355996
  0
ARC
  8
1
 62
7
 10
-115.214818805093
 20
-2.501919686581601
 30
0
 40
11.10000000000003
 50
148.428549355996
 51
127.6385832915149
  0
ARC
  8
1
 62
7
 10
-115.214818805093
 20
-2.501919686581601
 30
0
 40
11.09999999999999
 50
127.6385832915149
 51
143.171842490491
  0
ARC
  8
1
 62
7
 10
49.3795792808171
 20
7.96482370784967
 30
0
 40
0.9464246910482839
 50
41.9979535208617
 51
138.0020464791383
  0
CIRCLE
  8
1
 62
7
 10
-128.1180383384108
 20
32.42548962472078
 30
0
 40
0.5604604223967012
  0
CIRCLE
  8
1
 62
7
 10
-122.2530220353685
 20
1.498080313418388
 30
0
 40
1.200000000000003
  0
CIRCLE
  8
1
 62
7
 10
-108.3966155748175
 20
1.498080313418388
 30
0
 40
1.200000000000003
  0
CIRCLE
  8
1
 62
7
 10
-115.324818805093
 20
-10.5019196865816
 30
0
 40
1.200000000000003
  0
CIRCLE
  8
1
 62
7
 10
-115.324818805093
 20
-10.5019196865816
 30
0
 40
1.5
  0
CIRCLE
  8
1
 62
7
 10
-122.2530220353685
 20
1.498080313418388
 30
0
 40
1.5
  0
CIRCLE
  8
1
 62
7
 10
-108.3966155748175
 20
1.498080313418388
 30
0
 40
1.5
  0
CIRCLE
  8
1
 62
7
 10
-115.324818805093
 20
-2.501919686581601
 30
0
 40
2.799999999999997
  0
CIRCLE
  8
1
 62
7
 10
-115.324818805093
 20
-2.501919686581601
 30
0
 40
3
  0
CIRCLE
  8
1
 62
7
 10
-115.324818805093
 20
-2.501919686581601
 30
0
 40
8
  0
CIRCLE
  8
1
 62
7
 10
-115.324818805093
 20
-2.501919686581601
 30
0
 40
2
  0
CIRCLE
  8
1
 62
7
 10
-102.4654259503549
 20
49.74437971031979
 30
0
 40
0.6678297735535522
  0
CIRCLE
  8
1
 62
7
 10
-94.06135604624659
 20
-31.02954683604415
 30
0
 40
0.6280878869609865
  0
CIRCLE
  8
1
 62
7
 10
-84.67845010066192
 20
-31.01095037461205
 30
0
 40
0.6280878869609928
  0
POLYLINE
  8
1
 62
7
 66
1
  0
VERTEX
  8
1
 10
0.8498980373947997
 20
-19.984365283521
 30
0
 42
-0.005665814818752183
  0
VERTEX
  8
1
 10
1.0299992829877
 20
-19.81664098009926
 30
0
 42
-0.01850521528583458
  0
VERTEX
  8
1
 10
1.2100356179458
 20
-19.66421996576139
 30
0
 42
-0.03636982437507705
  0
VERTEX
  8
1
 10
1.3899421316343
 20
-19.54240552959127
 30
0
 42
-0.06316281911927534
  0
VERTEX
  8
1
 10
1.5696539134184
 20
-19.46650096067278
 30
0
 42
-0.09527209422152136
  0
VERTEX
  8
1
 10
1.749106052663301
 20
-19.4518095480898
 30
0
 42
-0.1037423476607113
  0
VERTEX
  8
1
 10
1.996420240949201
 20
-19.5439887804114
 30
0
 42
-0.0384638727477529
  0
VERTEX
  8
1
 10
2.243372943720726
 20
-19.72334693388088
 30
0
 42
0.0005380271601430384
  0
VERTEX
  8
1
 10
2.49022148296933
 20
-19.93117327414994
 30
0
 42
0.03770344225206104
  0
VERTEX
  8
1
 10
2.73722318068647
 20
-20.10875706687022
 30
0
 42
0.1023436955364694
  0
VERTEX
  8
1
 10
2.984635358863599
 20
-20.1973875776934
 30
0
 42
0.1176136188968332
  0
VERTEX
  8
1
 10
3.157299200330218
 20
-20.18108467795453
 30
0
 42
0.03707345066300163
  0
VERTEX
  8
1
 10
3.330222171289917
 20
-20.10748324390638
 30
0
 42
0.05812734382616402
  0
VERTEX
  8
1
 10
3.503339489369428
 20
-19.99090790912629
 30
0
 42
0.01814564484375781
  0
VERTEX
  8
1
 10
3.676586372195479
 20
-19.84568330719155
 30
0
 42
0.005077159204156598
  0
VERTEX
  8
1
 10
3.8498980373948
 20
-19.6861340716795
 30
0
  0
SEQEND
  8
1
  0
ARC
  8
1
 62
7
 10
-123.4565467887383
 20
9.023920846759104
 30
0
 40
0.1999999999999845
 50
45.00000000000431
 51
134.9999999999986
  0
ARC
  8
1
 62
7
 10
-124.2343642480435
 20
8.528946099928533
 30
0
 40
0.5000000000000242
 50
44.99999999999769
 51
135.0000000000012
  0
ARC
  8
1
 62
7
 10
-126.7092379821964
 20
6.054072365775603
 30
0
 40
0.5000000000000191
 50
44.99999999999712
 51
135.0000000000029
  0
ARC
  8
1
 62
7
 10
-126.7092379821964
 20
6.054072365775603
 30
0
 40
0.5000000000000191
 50
135.0000000000029
 51
224.999999999996
  0
ARC
  8
1
 62
7
 10
4.8498980373948
 20
-5.0019196865816
 30
0
 40
1
 50
90
 51
180
  0
ARC
  8
1
 62
7
 10
4.349898037394802
 20
-4.5019196865816
 30
0
 40
2
 50
90
 51
180
  0
ARC
  8
1
 62
7
 10
3.8498980373948
 20
-4.0019196865816
 30
0
 40
3
 50
90
 51
180
  0
ARC
  8
1
 62
7
 10
-121.6180691576532
 20
7.185443215674101
 30
0
 40
0.1999999999999977
 50
314.9999999999977
 51
45.00000000000215
  0
LINE
  8
1
 62
7
 10
70
 20
20
 30
0
 11
55
 21
20
 31
0
  0
LINE
  8
1
 62
7
 10
55
 20
20
 30
0
 11
46.5023937316356
 21
16.6736336924586
 31
0
  0
SOLID
  8
1
 62
7
 10
49.32866014646213
 20
18.23238374453964
 30
0
 11
49.63579165372308
 21
17.44777904980238
 31
0
 12
46.5023937316356
 22
16.6736336924586
 32
0
 13
46.5023937316356
 23
16.6736336924586
 33
0
  0
LINE
  8
1
 62
7
 10
-105
 20
-25
 30
0
 11
-114.3834158880574
 21
-11.66972127409418
 31
0
  0
SOLID
  8
1
 62
7
 10
-112.1969655593967
 20
-14.04394083696921
 30
0
 11
-112.8859602878328
 21
-14.52893625338397
 31
0
 12
-114.3834158880574
 22
-11.66972127409418
 32
0
 13
-114.3834158880574
 23
-11.66972127409418
 33
0
  0
LINE
  8
1
 62
7
 10
-5
 20
-25
 30
0
 11
0.8498980373947997
 21
-17.0233957634965
 31
0
  0
SOLID
  8
1
 62
7
 10
-0.7028265080977041
 20
-19.85297701489469
 30
0
 11
-1.382268219736239
 21
-19.35468668763373
 31
0
 12
0.8498980373947997
 22
-17.0233957634965
 32
0
 13
0.8498980373947997
 23
-17.0233957634965
 33
0
  0
LINE
  8
1
 62
7
 10
10
 20
-35
 30
0
 11
27.41252981837943
 21
-35.0010588346337
 31
0
  0
SOLID
  8
1
 62
7
 10
24.21250420628845
 20
-35.42215223805009
 30
0
 11
24.21255544230307
 21
-34.57957625504856
 31
0
 12
27.41252981837943
 22
-35.0010588346337
 32
0
 13
27.41252981837943
 23
-35.0010588346337
 33
0
  0
LINE
  8
1
 62
7
 10
-125.44336711672
 20
43.73133943683046
 30
0
 11
-127.5741236214453
 21
43.21310824544109
 31
0
  0
SOLID
  8
1
 62
7
 10
-124.7524401351414
 20
44.30585420137454
 30
0
 11
-124.5657632035567
 21
43.53831436034341
 31
0
 12
-127.5741236214453
 22
43.21310824544109
 32
0
 13
-127.5741236214453
 23
43.21310824544109
 33
0
  0
LINE
  8
1
 62
7
 10
-104.3977652289366
 20
43.54681716048373
 30
0
 11
-103.0755139887417
 21
43.21310824544149
 31
0
  0
SOLID
  8
1
 62
7
 10
-106.0809543150511
 20
43.56427752952327
 30
0
 11
-105.8876571205192
 21
44.33017692170351
 31
0
 12
-103.0755139887417
 22
43.21310824544149
 32
0
 13
-103.0755139887417
 23
43.21310824544149
 33
0
  0
LINE
  8
1
 62
7
 10
-138.0264657425936
 20
23.04803393641783
 30
0
 11
-139.4837955640992
 21
21.6570570724246
 31
0
  0
SOLID
  8
1
 62
7
 10
-137.5863438191842
 20
24.01410359228966
 30
0
 11
-137.0409493900148
 21
23.44269253098002
 31
0
 12
-139.4837955640992
 22
21.6570570724246
 32
0
 13
-139.4837955640992
 23
21.6570570724246
 33
0
  0
LINE
  8
1
 62
7
 10
-116.181730243349
 20
31.64085178421787
 30
0
 11
-115.324818805093
 21
31.66403289906138
 31
0
  0
SOLID
  8
1
 62
7
 10
-118.3130412380255
 20
31.18809370923998
 30
0
 11
-118.3344021543953
 21
31.97771982051532
 31
0
 12
-115.324818805093
 22
31.66403289906138
 32
0
 13
-115.324818805093
 23
31.66403289906138
 33
0
  0
TEXT
  8
1
 62
7
 10
-136.0373386610917
 20
29.12301752200879
 30
0
 40
3
  1
±10
 41
0.72
  0
TEXT
  8
1
 62
7
 10
-137.5334577190908
 20
-18.51681152825711
 30
0
 40
3
  1
±0．1
 41
0.72
  0
TEXT
  8
1
 62
7
 10
16.73388818670499
 20
32.44250479415778
 30
0
 40
3
  1
±0．5
 41
0.675
  0
TEXT
  8
1
 62
7
 10
-110.3004694427487
 20
46.8821140454148
 30
0
 40
3
  1
±5
 41
0.9
  0
TEXT
  8
1
 62
7
 10
57.28786679725751
 20
20.2687913809992
 30
0
 40
3.2
  1
端子番号
 41
0.9
  0
TEXT
  8
1
 62
7
 10
-104.0294371000374
 20
-24.2925115761946
 30
0
 40
3.199999999999999
  1
3-M3×0．5-2
 41
0.9
  0
TEXT
  8
1
 62
7
 10
-104.0294371000374
 20
-29.0925115761946
 30
0
 40
3.199999999999999
  1
深サ 3MIN
 41
0.9
  0
TEXT
  8
1
 62
7
 10
-104.0294371000374
 20
-33.8925115761946
 30
0
 40
3.199999999999999
  1
120 ±1 等間隔
 41
0.9
  0
TEXT
  8
1
 62
7
 10
-54.5493920871011
 20
-24.13405367410921
 30
0
 40
3.199999999999998
  1
耐熱ビニル電線(AWG 28)
 41
0.9
  0
TEXT
  8
1
 62
7
 10
-54.5493920871011
 20
-28.9340536741092
 30
0
 40
3.199999999999998
  1
L=300MIN
 41
0.9
  0
TEXT
  8
1
 62
7
 10
13.8498980373948
 20
-34.021991441693
 30
0
 40
3.2
  1
取付面
 41
0.9
  0
TEXT
  8
1
 62
7
 10
34.0351811949069
 20
13.7517923604312
 30
0
 40
2
  1
1
 41
0.9
  0
TEXT
  8
1
 62
7
 10
37.2931635651322
 20
15.0549853085213
 30
0
 40
2
  1
2
 41
0.9
  0
TEXT
  8
1
 62
7
 10
39.9719490695397
 20
13.8965915768856
 30
0
 40
2
  1
3
 41
0.9
  0
TEXT
  8
1
 62
7
 10
43.1575318315377
 20
15.1273849167485
 30
0
 40
2
  1
4
 41
0.9
  0
TEXT
  8
1
 62
7
 10
-112.9676740820419
 20
16.28177455909624
 30
0
 40
2
  1
3
 41
0.9
  0
TEXT
  8
1
 62
7
 10
-112.9676740820419
 20
12.78177455909624
 30
0
 40
2
  1
1
 41
0.9
  0
TEXT
  8
1
 62
7
 10
-119.0033095611572
 20
16.16851632769503
 30
0
 40
2
  1
4
 41
0.9
  0
TEXT
  8
1
 62
7
 10
-119.0033095611572
 20
12.66851632769503
 30
0
 40
2
  1
2
 41
0.9
  0
TEXT
  8
1
 62
7
 10
40.1882440994482
 20
32.3707159706368
 30
0
 40
3
  1
±1
 41
0.72
  0
TEXT
  8
1
 62
7
 10
-41.7256877760124
 20
-61.3485618625921
 30
0
 40
4
  1
S22
 41
0.9
  0
DIMENSION
  8
1
  6
CONTINUOUS
 62
7
  2
*D0
  3
DMST_1
 10
27.41252981837943
 20
30.00000000000001
 30
0
 11
35.64995923889839
 21
33.8604113481708
 31
0
 12
0
 22
0
 32
0
 70
0
 13
51.41252981837944
 23
7.548080313418403
 33
0
 14
27.41252981837943
 24
8.4980803134184
 34
0
 50
180
 53
0
  0
DIMENSION
  8
1
  6
CONTINUOUS
 62
7
  2
*D1
  3
DMST_1
 10
12.41252981837943
 20
30
 30
0
 11
14.29358186120979
 21
34.03387534560079
 31
0
 12
0
 22
0
 32
0
 70
0
 13
27.41252981837943
 23
8.4980803134184
 33
0
 14
12.41252981837943
 24
0.2980803134184
 34
0
 50
180
 53
0
  0
DIMENSION
  8
1
  6
CONTINUOUS
 62
7
  2
*D4
  3
DMST_2
 10
-115.324818805093
 20
-2.501919686581601
 30
0
 11
-150.991161552548
 21
4.345337472336709
 31
0
 12
0
 22
0
 32
0
 70
4
  1
15.2
 15
-129.9484300356027
 25
-0.05243105037430329
 35
0
 40
0
 53
0
  0
DIMENSION
  8
1
  6
CONTINUOUS
 62
7
  2
*D5
  3
DMST_3
 10
-110.6924455132208
 20
4.020435538699279
 30
0
 11
-142.7700682931783
 21
-17.38924266989451
 31
0
 12
0
 22
0
 32
0
 70
3
  1
φ<>
 15
-119.9571920969652
 25
-9.024274911862518
 35
0
 40
0
 53
0
  0
DIMENSION
  8
1
  6
CONTINUOUS
 62
7
  2
*D6
  3
DMST_4
 10
-128.3995628105898
 20
29.06330461604503
 30
0
 11
-140.2342691074019
 21
30.5684268718548
 31
0
 12
0
 22
0
 32
0
 70
5
 13
-115.324818805093
 23
25.76925867267358
 33
0
 14
-129.7899965177887
 24
11.96325802611408
 34
0
 15
-115.324818805093
 25
-2.501919686581601
 35
0
 53
0
  0
DIMENSION
  8
1
  6
CONTINUOUS
 62
7
  2
*D7
  3
DMST_4
 10
-111.2017788591472
 20
12.88547487332435
 30
0
 11
-114.5556520605632
 21
48.41995107896704
 31
0
 12
0
 22
0
 32
0
 70
2
 13
-119.4478587510389
 23
12.88547487332436
 33
0
 14
-117.9724397742796
 24
7.379136289607757
 34
0
 15
-112.6771978359063
 25
7.379136289607757
 35
0
 16
-115.3248188050936
 26
44.82575981822333
 36
0
 53
0
  0
INSERT
  8
1
  2
*D2
 10
0
 20
0
 30
0
  0
INSERT
  8
1
  2
*D3
 10
0
 20
0
 30
0
  0
ENDSEC
  0
EOF
