  0
SECTION
  2
HEADER
  9
$ACADVER
  1
AC1014
  9
$ACADMAINTVER
 70
             0
  9
$DWGCODEPAGE
  3
ANSI_1252
  9
$INSBASE
 10
0.0
 20
0.0
 30
0.0
  9
$EXTMIN
 10
-0.61172317606826
 20
-42.21535930999173
 30
0.0
  9
$EXTMAX
 10
146.330555327242
 20
138.03392909549899
 30
0.0
  9
$LIMMIN
 10
0.0
 20
0.0
  9
$LIMMAX
 10
0.0
 20
0.0
  9
$ORTHOMODE
 70
             0
  9
$REGENMODE
 70
             1
  9
$FILLMODE
 70
             1
  9
$QTEXTMODE
 70
             0
  9
$MIRRTEXT
 70
             1
  9
$DRAGMODE
 70
             2
  9
$LTSCALE
 40
1.0
  9
$OSMODE
 70
             0
  9
$ATTMODE
 70
             1
  9
$TEXTSIZE
 40
0.2
  9
$TRACEWID
 40
0.05
  9
$TEXTSTYLE
  7
STANDARD
  9
$CLAYER
  8
0
  9
$CELTYPE
  6
CONTINUOUS
  9
$CECOLOR
 62
           256
  9
$CELTSCALE
 40
1.0
  9
$DELOBJ
 70
             1
  9
$DISPSILH
 70
             0
  9
$DIMSCALE
 40
1.0
  9
$DIMASZ
 40
0.18
  9
$DIMEXO
 40
0.0625
  9
$DIMDLI
 40
0.38
  9
$DIMRND
 40
0.0
  9
$DIMDLE
 40
0.0
  9
$DIMEXE
 40
0.18
  9
$DIMTP
 40
0.0
  9
$DIMTM
 40
0.0
  9
$DIMTXT
 40
0.18
  9
$DIMCEN
 40
0.09
  9
$DIMTSZ
 40
0.0
  9
$DIMTOL
 70
             0
  9
$DIMLIM
 70
             0
  9
$DIMTIH
 70
             1
  9
$DIMTOH
 70
             1
  9
$DIMSE1
 70
             0
  9
$DIMSE2
 70
             0
  9
$DIMTAD
 70
             0
  9
$DIMZIN
 70
             0
  9
$DIMBLK
  1

  9
$DIMASO
 70
             1
  9
$DIMSHO
 70
             1
  9
$DIMPOST
  1

  9
$DIMAPOST
  1

  9
$DIMALT
 70
             0
  9
$DIMALTD
 70
             2
  9
$DIMALTF
 40
25.4
  9
$DIMLFAC
 40
1.0
  9
$DIMTOFL
 70
             0
  9
$DIMTVP
 40
0.0
  9
$DIMTIX
 70
             0
  9
$DIMSOXD
 70
             0
  9
$DIMSAH
 70
             0
  9
$DIMBLK1
  1

  9
$DIMBLK2
  1

  9
$DIMSTYLE
  2
STANDARD
  9
$DIMCLRD
 70
             0
  9
$DIMCLRE
 70
             0
  9
$DIMCLRT
 70
             0
  9
$DIMTFAC
 40
1.0
  9
$DIMGAP
 40
0.09
  9
$DIMJUST
 70
             0
  9
$DIMSD1
 70
             0
  9
$DIMSD2
 70
             0
  9
$DIMTOLJ
 70
             1
  9
$DIMTZIN
 70
             0
  9
$DIMALTZ
 70
             0
  9
$DIMALTTZ
 70
             0
  9
$DIMFIT
 70
             3
  9
$DIMUPT
 70
             0
  9
$DIMUNIT
 70
             2
  9
$DIMDEC
 70
             4
  9
$DIMTDEC
 70
             4
  9
$DIMALTU
 70
             2
  9
$DIMALTTD
 70
             2
  9
$DIMTXSTY
  7
STANDARD
  9
$DIMAUNIT
 70
             0
  9
$LUNITS
 70
             2
  9
$LUPREC
 70
             4
  9
$SKETCHINC
 40
0.1
  9
$FILLETRAD
 40
0.0
  9
$AUNITS
 70
             0
  9
$AUPREC
 70
             0
  9
$MENU
  1
acad
  9
$ELEVATION
 40
0.0
  9
$PELEVATION
 40
0.0
  9
$THICKNESS
 40
0.0
  9
$LIMCHECK
 70
             0
  9
$BLIPMODE
 70
             1
  9
$CHAMFERA
 40
0.0
  9
$CHAMFERB
 40
0.0
  9
$CHAMFERC
 40
0.0
  9
$CHAMFERD
 40
0.0
  9
$SKPOLY
 70
             0
  9
$TDCREATE
 40
0.000000000
  9
$TDUPDATE
 40
0.000000000
  9
$TDINDWG
 40
0.0000000000
  9
$TDUSRTIMER
 40
0.0000000000
  9
$USRTIMER
 70
             1
  9
$ANGBASE
 50
0.0
  9
$ANGDIR
 70
             0
  9
$PDMODE
 70
             0
  9
$PDSIZE
 40
0.0
  9
$PLINEWID
 40
0.0
  9
$COORDS
 70
             0
  9
$SPLFRAME
 70
             0
  9
$SPLINETYPE
 70
             6
  9
$SPLINESEGS
 70
             8
  9
$ATTDIA
 70
             0
  9
$ATTREQ
 70
             1
  9
$HANDLING
 70
             1
  9
$HANDSEED
  5
206
  9
$SURFTAB1
 70
             6
  9
$SURFTAB2
 70
             6
  9
$SURFTYPE
 70
             6
  9
$SURFU
 70
             6
  9
$SURFV
 70
             6
  9
$UCSNAME
  2

  9
$UCSORG
 10
0.0
 20
0.0
 30
0.0
  9
$UCSXDIR
 10
1.0
 20
0.0
 30
0.0
  9
$UCSYDIR
 10
0.0
 20
1.0
 30
0.0
  9
$PUCSNAME
  2

  9
$PUCSORG
 10
0.0
 20
0.0
 30
0.0
  9
$PUCSXDIR
 10
1.0
 20
0.0
 30
0.0
  9
$PUCSYDIR
 10
0.0
 20
1.0
 30
0.0
  9
$USERI1
 70
             0
  9
$USERI2
 70
             0
  9
$USERI3
 70
             0
  9
$USERI4
 70
             0
  9
$USERI5
 70
             0
  9
$USERR1
 40
12.01
  9
$USERR2
 40
0.0
  9
$USERR3
 40
0.0
  9
$USERR4
 40
0.0
  9
$USERR5
 40
0.0
  9
$WORLDVIEW
 70
             1
  9
$SHADEDGE
 70
             3
  9
$SHADEDIF
 70
            70
  9
$TILEMODE
 70
             1
  9
$MAXACTVP
 70
            16
  9
$PINSBASE
 10
0.0
 20
0.0
 30
0.0
  9
$PLIMCHECK
 70
             0
  9
$PEXTMIN
 10
1.00000000000000E+20
 20
1.00000000000000E+20
 30
1.00000000000000E+20
  9
$PEXTMAX
 10
-1.00000000000000E+20
 20
-1.00000000000000E+20
 30
-1.00000000000000E+20
  9
$PLIMMIN
 10
0.0
 20
0.0
  9
$PLIMMAX
 10
12.0
 20
9.0
  9
$UNITMODE
 70
             0
  9
$VISRETAIN
 70
             0
  9
$PLINEGEN
 70
             1
  9
$PSLTSCALE
 70
             0
  9
$TREEDEPTH
 70
          3020
  9
$PICKSTYLE
 70
             1
  9
$CMLSTYLE
  2
STANDARD
  9
$CMLJUST
 70
             0
  9
$CMLSCALE
 40
1.0
  9
$PROXYGRAPHICS
 70
             0
  9
$MEASUREMENT
 70
             1
  0
ENDSEC
  0
SECTION
  2
CLASSES
  0
CLASS
  1
LWPOLYLINE
  2
AcDbPolyline
  3
"AutoCAD"
 90
        0
280
             0
281
             1
  0
CLASS
  1
IMAGE
  2
AcDbRasterImage
  3
ISM
 90
      127
280
             0
281
             1
  0
CLASS
  1
OLE2FRAME
  2
AcDbOle2Frame
  3
""
 90
        0
280
             0
281
             1
  0
CLASS
  1
HATCH
  2
AcDbHatch
  3
"ACAD_SEDONA"
 90
        0
280
             0
281
             1
  0
CLASS
  1
DICTIONARYVAR
  2
AcDbDictionaryVar
  3
"AutoCAD"
 90
        0
280
             0
281
             0
  0
CLASS
  1
RASTERVARIABLES
  2
AcDbRasterVariables
  3
ISM
 90
        0
280
             0
281
             0
  0
CLASS
  1
IMAGEDEF
  2
AcDbRasterImageDef
  3
ISM
 90
        0
280
             0
281
             0
  0
CLASS
  1
IMAGEDEF_REACTOR
  2
AcDbRasterImageDefReactor
  3
ISM
 90
        1
280
             0
281
             0
  0
CLASS
  1
IDBUFFER
  2
AcDbIdBuffer
  3
"Acad"
 90
        0
280
             0
281
             0
  0
CLASS
  1
SPATIAL_FILTER
  2
AcDbSpatialFilter
  3
"Acad"
 90
        0
280
             0
281
             0
  0
CLASS
  1
XRECORD
  2
AcDbXrecord
  3
"<Built In>"
 90
        0
280
             0
281
             0
  0
CLASS
  1
SORTENTSTABLE
  2
AcDbSortentsTable
  3
"AutoCAD"
 90
        0
280
             0
281
             0
  0
CLASS
  1
LAYER_INDEX
  2
AcDbLayerIndex
  3
"Acad"
 90
        0
280
             0
281
             0
  0
CLASS
  1
SPATIAL_INDEX
  2
AcDbSpatialIndex
  3
"Acad"
 90
        0
280
             0
281
             0
  0
CLASS
  1
OBJECT_PTR
  2
CAseDLPNTableRecord
  3
"ASE-LPNTableRecord"
 90
        1
280
             0
281
             0
  0
CLASS
  1
LAYOUT
  2
AcDbLayout
  3
"AutoCAD 2000"
 90
        0
280
             0
281
             0
  0
CLASS
  1
PLOTSETTINGS
  2
AcDbPlotSettings
  3
"AutoCAD 2000"
 90
        0
280
             0
281
             0
  0
CLASS
  1
ACDBDICTIONARYWDFLT
  2
AcDbDictionaryWithDefault
  3
"AutoCAD 2000"
 90
        0
280
             0
281
             0
  0
CLASS
  1
ACDBPLACEHOLDER
  2
AcDbPlaceHolder
  3
"AutoCAD 2000"
 90
        0
280
             0
281
             0
  0
ENDSEC
  0
SECTION
  2
TABLES
  0
TABLE
  2
VPORT
  5
7
100
AcDbSymbolTable
 70
             1
  0
VPORT
  5
15
100
AcDbSymbolTableRecord
100
AcDbViewportTableRecord
  2
*ACTIVE
 70
             0
 10
0.0
 20
0.0
 11
1.0
 21
1.0
 12
72.85941607558686
 22
47.90928489275363
 13
0.0
 23
0.0
 14
1.0
 24
1.0
 15
0.0
 25
0.0
 16
0.0
 26
0.0
 36
1.0
 17
0.0
 27
0.0
 37
0.0
 40
198.2742172460398
 41
1.60267857142857
 42
50.0
 43
0.0
 44
0.0
 50
0.0
 51
0.0
 71
             0
 72
           100
 73
             1
 74
             1
 75
             0
 76
             0
 77
             0
 78
             0
  0
ENDTAB
  0
TABLE
  2
LTYPE
  5
4
100
AcDbSymbolTable
 70
            10
  0
LTYPE
  5
11
100
AcDbSymbolTableRecord
100
AcDbLinetypeTableRecord
  2
BYBLOCK
 70
            64
  3

 72
            65
 73
             0
 40
0.0
  0
LTYPE
  5
12
100
AcDbSymbolTableRecord
100
AcDbLinetypeTableRecord
  2
BYLAYER
 70
            64
  3

 72
            65
 73
             0
 40
0.0
  0
LTYPE
  5
13
100
AcDbSymbolTableRecord
100
AcDbLinetypeTableRecord
  2
CONTINUOUS
 70
            64
  3
Solid line
 72
            65
 73
             0
 40
0.0
  0
LTYPE
  5
1D
100
AcDbSymbolTableRecord
100
AcDbLinetypeTableRecord
  2
DASHED
 70
            64
  3
Dashed
 72
            65
 73
             2
 40
15.0
 49
7.0
 74
             0
 49
-8.0
 74
             0
  0
LTYPE
  5
1E
100
AcDbSymbolTableRecord
100
AcDbLinetypeTableRecord
  2
DOTTED
 70
            64
  3
Dotted
 72
            65
 73
             2
 40
1.0
 49
0.0
 74
             0
 49
-1.0
 74
             0
  0
LTYPE
  5
1F
100
AcDbSymbolTableRecord
100
AcDbLinetypeTableRecord
  2
DOT_CENTER
 70
            64
  3
Dot_Center
 72
            65
 73
             4
 40
14.0
 49
12.0
 74
             0
 49
-1.0
 74
             0
 49
0.0
 74
             0
 49
-1.0
 74
             0
  0
LTYPE
  5
20
100
AcDbSymbolTableRecord
100
AcDbLinetypeTableRecord
  2
LONG_DASHED
 70
            64
  3
Long_Dashed
 72
            65
 73
             2
 40
15.0
 49
10.0
 74
             0
 49
-5.0
 74
             0
  0
LTYPE
  5
21
100
AcDbSymbolTableRecord
100
AcDbLinetypeTableRecord
  2
DASH_CENTER
 70
            64
  3
Dash_Center
 72
            65
 73
             4
 40
14.0
 49
11.0
 74
             0
 49
-1.0
 74
             0
 49
1.0
 74
             0
 49
-1.0
 74
             0
  0
LTYPE
  5
22
100
AcDbSymbolTableRecord
100
AcDbLinetypeTableRecord
  2
PHANTOM
 70
            64
  3
Phantom
 72
            65
 73
             6
 40
13.0
 49
10.0
 74
             0
 49
-1.0
 74
             0
 49
0.0
 74
             0
 49
-1.0
 74
             0
 49
0.0
 74
             0
 49
-1.0
 74
             0
  0
LTYPE
  5
23
100
AcDbSymbolTableRecord
100
AcDbLinetypeTableRecord
  2
CENTER_DASH_DASH
 70
            64
  3
Center_Dash_Dash
 72
            65
 73
             6
 40
14.0
 49
9.0
 74
             0
 49
-1.0
 74
             0
 49
1.0
 74
             0
 49
-1.0
 74
             0
 49
1.0
 74
             0
 49
-1.0
 74
             0
  0
ENDTAB
  0
TABLE
  2
LAYER
  5
2
100
AcDbSymbolTable
 70
             2
  0
LAYER
  5
14
100
AcDbSymbolTableRecord
100
AcDbLayerTableRecord
  2
0
 70
             0
 62
             7
  6
CONTINUOUS
  0
LAYER
  5
24
100
AcDbSymbolTableRecord
100
AcDbLayerTableRecord
  2
1
 70
             0
 62
             7
  6
CONTINUOUS
  0
ENDTAB
  0
TABLE
  2
STYLE
  5
3
100
AcDbSymbolTable
 70
             4
  0
STYLE
  5
17
100
AcDbSymbolTableRecord
100
AcDbTextStyleTableRecord
  2
STANDARD
 70
             0
 40
0.0
 41
1.0
 50
0.0
 71
             0
 42
0.0
  3
txt
  4

  0
STYLE
  5
14B
100
AcDbSymbolTableRecord
100
AcDbTextStyleTableRecord
  2
CONVERTER_1
 70
             0
 40
0.0
 41
0.9
 50
0.0
 71
             0
 42
0.0
  3
txt.shx
  4

  0
STYLE
  5
14D
100
AcDbSymbolTableRecord
100
AcDbTextStyleTableRecord
  2
CONVERTER_2
 70
             0
 40
0.0
 41
0.856
 50
0.0
 71
             0
 42
0.0
  3
txt.shx
  4

  0
STYLE
  5
14F
100
AcDbSymbolTableRecord
100
AcDbTextStyleTableRecord
  2
CONVERTER_3
 70
             0
 40
0.0
 41
1.07
 50
0.0
 71
             0
 42
0.0
  3
txt.shx
  4

  0
ENDTAB
  0
TABLE
  2
VIEW
  5
5
100
AcDbSymbolTable
 70
             0
  0
ENDTAB
  0
TABLE
  2
UCS
  5
6
100
AcDbSymbolTable
 70
             0
  0
ENDTAB
  0
TABLE
  2
APPID
  5
8
100
AcDbSymbolTable
 70
             1
  0
APPID
  5
16
100
AcDbSymbolTableRecord
100
AcDbRegAppTableRecord
  2
ACAD
 70
             0
  0
ENDTAB
  0
TABLE
  2
DIMSTYLE
  5
9
100
AcDbSymbolTable
 70
            13
  0
DIMSTYLE
105
18
100
AcDbSymbolTableRecord
100
AcDbDimStyleTableRecord
  2
STANDARD
 70
             0
  3

  4

  5

  6

  7

 40
1.0
 41
0.18
 42
0.0625
 43
0.38
 44
0.18
 45
0.0
 46
0.0
 47
0.0
 48
0.0
 71
             0
 72
             0
 73
             1
 74
             1
 75
             0
 76
             0
 77
             0
 78
             0
140
0.18
141
0.09
142
0.0
143
25.4
144
1.0
145
0.0
146
1.0
147
0.09
170
             0
171
             2
172
             0
173
             0
174
             0
175
             0
176
             0
177
             0
178
             0
270
             2
271
             4
272
             4
273
             2
274
             2
275
             0
280
             0
281
             0
282
             0
283
             1
284
             0
285
             0
286
             0
287
             3
288
             0
340
17
  0
DIMSTYLE
105
160
100
AcDbSymbolTableRecord
100
AcDbDimStyleTableRecord
  2
ME10_DIM_0
 70
             0
  3
(Æ<>)
  4

  5

  6

  7

 40
1.0
 41
3.2
 42
1.0
 43
0.38
 44
1.5
 45
0.0
 46
0.0
 47
0.0
 48
0.0
 71
             0
 72
             0
 73
             0
 74
             0
 75
             0
 76
             0
 77
             1
 78
             8
140
3.2
141
0.09
142
0.0
143
25.4
144
1.0
145
0.0
146
1.0
147
0.625
170
             0
171
             2
172
             1
173
             1
174
             0
175
             0
176
             2
177
             2
178
             2
270
             2
271
             4
272
             4
273
             2
274
             2
275
             0
280
             0
281
             0
282
             0
283
             1
284
             0
285
             0
286
             0
287
             3
288
             0
340
14B
  0
DIMSTYLE
105
16D
100
AcDbSymbolTableRecord
100
AcDbDimStyleTableRecord
  2
ME10_DIM_1
 70
             0
  3
(<>)
  4

  5

  6

  7

 40
1.0
 41
3.2
 42
1.0
 43
0.38
 44
1.5
 45
0.0
 46
0.0
 47
0.0
 48
0.0
 71
             0
 72
             0
 73
             0
 74
             0
 75
             0
 76
             0
 77
             1
 78
             8
140
3.2
141
0.09
142
0.0
143
25.4
144
1.0
145
0.0
146
1.0
147
0.625
170
             0
171
             2
172
             1
173
             1
174
             0
175
             0
176
             2
177
             2
178
             2
270
             2
271
             4
272
             4
273
             2
274
             2
275
             0
280
             0
281
             0
282
             0
283
             1
284
             0
285
             0
286
             0
287
             3
288
             0
340
14B
  0
DIMSTYLE
105
178
100
AcDbSymbolTableRecord
100
AcDbDimStyleTableRecord
  2
ME10_DIM_2
 70
             0
  3
(<>)
  4

  5

  6

  7

 40
1.0
 41
3.2
 42
1.0
 43
0.38
 44
1.5
 45
0.0
 46
0.0
 47
0.0
 48
0.0
 71
             0
 72
             0
 73
             0
 74
             0
 75
             0
 76
             0
 77
             1
 78
             8
140
3.2
141
0.09
142
0.0
143
25.4
144
1.0
145
0.0
146
1.0
147
0.625
170
             0
171
             2
172
             1
173
             1
174
             0
175
             0
176
             2
177
             2
178
             2
270
             2
271
             4
272
             4
273
             2
274
             2
275
             0
280
             0
281
             0
282
             0
283
             1
284
             0
285
             0
286
             0
287
             3
288
             0
340
14B
  0
DIMSTYLE
105
185
100
AcDbSymbolTableRecord
100
AcDbDimStyleTableRecord
  2
ME10_DIM_3
 70
             0
  3
(<>)
  4

  5

  6

  7

 40
1.0
 41
3.2
 42
1.0
 43
0.38
 44
1.5
 45
0.0
 46
0.0
 47
0.0
 48
0.0
 71
             0
 72
             0
 73
             0
 74
             0
 75
             0
 76
             0
 77
             1
 78
             8
140
3.2
141
0.09
142
0.0
143
25.4
144
1.0
145
0.0
146
1.0
147
0.625
170
             0
171
             2
172
             1
173
             1
174
             0
175
             0
176
             2
177
             2
178
             2
270
             2
271
             4
272
             4
273
             2
274
             2
275
             0
280
             0
281
             0
282
             0
283
             1
284
             0
285
             0
286
             0
287
             3
288
             0
340
14B
  0
DIMSTYLE
105
192
100
AcDbSymbolTableRecord
100
AcDbDimStyleTableRecord
  2
ME10_DIM_4
 70
             0
  3
(<>)
  4

  5

  6

  7

 40
1.0
 41
3.2
 42
1.0
 43
0.38
 44
1.5
 45
0.0
 46
0.0
 47
0.0
 48
0.0
 71
             0
 72
             0
 73
             0
 74
             0
 75
             0
 76
             0
 77
             1
 78
             8
140
3.2
141
0.09
142
0.0
143
25.4
144
1.0
145
0.0
146
1.0
147
0.625
170
             0
171
             2
172
             1
173
             1
174
             0
175
             0
176
             2
177
             2
178
             2
270
             2
271
             4
272
             4
273
             2
274
             2
275
             0
280
             0
281
             0
282
             0
283
             1
284
             0
285
             0
286
             0
287
             3
288
             0
340
14B
  0
DIMSTYLE
105
19D
100
AcDbSymbolTableRecord
100
AcDbDimStyleTableRecord
  2
ME10_DIM_5
 70
             0
  3
(<>)
  4

  5

  6

  7

 40
1.0
 41
3.2
 42
1.0
 43
0.38
 44
1.5
 45
0.0
 46
0.0
 47
0.0
 48
0.0
 71
             0
 72
             0
 73
             0
 74
             0
 75
             0
 76
             0
 77
             1
 78
             8
140
3.2
141
0.09
142
0.0
143
25.4
144
1.0
145
0.0
146
1.0
147
0.625
170
             0
171
             2
172
             1
173
             1
174
             0
175
             0
176
             2
177
             2
178
             2
270
             2
271
             4
272
             4
273
             2
274
             2
275
             0
280
             0
281
             0
282
             0
283
             1
284
             0
285
             0
286
             0
287
             3
288
             0
340
14B
  0
DIMSTYLE
105
1A8
100
AcDbSymbolTableRecord
100
AcDbDimStyleTableRecord
  2
ME10_DIM_6
 70
             0
  3
(<>)
  4

  5

  6

  7

 40
1.0
 41
3.2
 42
1.0
 43
0.38
 44
1.5
 45
0.0
 46
0.0
 47
0.0
 48
0.0
 71
             0
 72
             0
 73
             0
 74
             0
 75
             0
 76
             0
 77
             1
 78
             8
140
3.2
141
0.09
142
0.0
143
25.4
144
1.0
145
0.0
146
1.0
147
0.625
170
             0
171
             2
172
             1
173
             1
174
             0
175
             0
176
             2
177
             2
178
             2
270
             2
271
             4
272
             4
273
             2
274
             2
275
             0
280
             0
281
             0
282
             0
283
             1
284
             0
285
             0
286
             0
287
             3
288
             0
340
14B
  0
DIMSTYLE
105
1B3
100
AcDbSymbolTableRecord
100
AcDbDimStyleTableRecord
  2
ME10_DIM_7
 70
             0
  3
(<>)
  4

  5

  6

  7

 40
1.0
 41
3.2
 42
1.0
 43
0.38
 44
1.5
 45
0.0
 46
0.0
 47
0.0
 48
0.0
 71
             0
 72
             0
 73
             0
 74
             0
 75
             0
 76
             0
 77
             1
 78
             8
140
3.2
141
0.09
142
0.0
143
25.4
144
1.0
145
0.0
146
1.0
147
0.625
170
             0
171
             2
172
             1
173
             1
174
             0
175
             0
176
             2
177
             2
178
             2
270
             2
271
             4
272
             4
273
             2
274
             2
275
             0
280
             0
281
             0
282
             0
283
             1
284
             0
285
             0
286
             0
287
             3
288
             0
340
14B
  0
DIMSTYLE
105
1BE
100
AcDbSymbolTableRecord
100
AcDbDimStyleTableRecord
  2
ME10_DIM_8
 70
             0
  3
(Æ<>)
  4

  5

  6

  7

 40
1.0
 41
3.2
 42
1.0
 43
0.38
 44
1.5
 45
0.0
 46
0.0
 47
0.0
 48
0.0
 71
             0
 72
             0
 73
             0
 74
             0
 75
             0
 76
             0
 77
             1
 78
             8
140
3.2
141
0.09
142
0.0
143
25.4
144
1.0
145
0.0
146
1.0
147
0.625
170
             0
171
             2
172
             1
173
             1
174
             0
175
             0
176
             2
177
             2
178
             2
270
             2
271
             4
272
             4
273
             2
274
             2
275
             0
280
             0
281
             0
282
             0
283
             1
284
             0
285
             0
286
             0
287
             3
288
             0
340
14B
  0
DIMSTYLE
105
1C9
100
AcDbSymbolTableRecord
100
AcDbDimStyleTableRecord
  2
ME10_DIM_9
 70
             0
  3
(<>)
  4

  5

  6

  7

 40
1.0
 41
3.2
 42
1.0
 43
0.38
 44
1.5
 45
0.0
 46
0.0
 47
0.0
 48
0.0
 71
             0
 72
             0
 73
             0
 74
             0
 75
             0
 76
             0
 77
             1
 78
             8
140
3.2
141
0.09
142
0.0
143
25.4
144
1.0
145
0.0
146
1.0
147
0.625
170
             0
171
             2
172
             1
173
             1
174
             0
175
             0
176
             2
177
             2
178
             2
270
             2
271
             4
272
             4
273
             2
274
             2
275
             0
280
             0
281
             0
282
             0
283
             1
284
             0
285
             0
286
             0
287
             3
288
             0
340
14B
  0
DIMSTYLE
105
1D4
100
AcDbSymbolTableRecord
100
AcDbDimStyleTableRecord
  2
ME10_DIM_10
 70
             0
  3
(<>)
  4

  5

  6

  7

 40
1.0
 41
3.2
 42
1.0
 43
0.38
 44
1.5
 45
0.0
 46
0.0
 47
0.0
 48
0.0
 71
             0
 72
             0
 73
             0
 74
             0
 75
             0
 76
             0
 77
             1
 78
             8
140
3.2
141
0.09
142
0.0
143
25.4
144
1.0
145
0.0
146
1.0
147
0.625
170
             0
171
             2
172
             1
173
             1
174
             0
175
             0
176
             2
177
             2
178
             2
270
             2
271
             4
272
             4
273
             2
274
             2
275
             0
280
             0
281
             0
282
             0
283
             1
284
             0
285
             0
286
             0
287
             3
288
             0
340
14B
  0
DIMSTYLE
105
1E1
100
AcDbSymbolTableRecord
100
AcDbDimStyleTableRecord
  2
ME10_DIM_11
 70
             0
  3
MIN
  4

  5

  6

  7

 40
1.0
 41
3.2
 42
1.0
 43
0.38
 44
1.5
 45
0.0
 46
0.0
 47
0.0
 48
0.0
 71
             0
 72
             0
 73
             0
 74
             0
 75
             0
 76
             0
 77
             1
 78
             8
140
3.2
141
0.09
142
0.0
143
25.4
144
1.0
145
0.0
146
1.0
147
0.625
170
             0
171
             2
172
             1
173
             1
174
             0
175
             0
176
             2
177
             2
178
             2
270
             2
271
             4
272
             4
273
             2
274
             2
275
             0
280
             0
281
             0
282
             0
283
             1
284
             0
285
             0
286
             0
287
             3
288
             0
340
14B
  0
ENDTAB
  0
TABLE
  2
BLOCK_RECORD
  5
1
100
AcDbSymbolTable
 70
            17
  0
BLOCK_RECORD
  5
A
100
AcDbSymbolTableRecord
100
AcDbBlockTableRecord
  2
*MODEL_SPACE
  0
BLOCK_RECORD
  5
B
100
AcDbSymbolTableRecord
100
AcDbBlockTableRecord
  2
*PAPER_SPACE
  0
BLOCK_RECORD
  5
25
100
AcDbSymbolTableRecord
100
AcDbBlockTableRecord
  2
_Z_P___T________________M4
  0
BLOCK_RECORD
  5
155
100
AcDbSymbolTableRecord
100
AcDbBlockTableRecord
  2
*D1
  0
BLOCK_RECORD
  5
162
100
AcDbSymbolTableRecord
100
AcDbBlockTableRecord
  2
*D2
  0
BLOCK_RECORD
  5
16F
100
AcDbSymbolTableRecord
100
AcDbBlockTableRecord
  2
*D3
  0
BLOCK_RECORD
  5
17A
100
AcDbSymbolTableRecord
100
AcDbBlockTableRecord
  2
*D4
  0
BLOCK_RECORD
  5
187
100
AcDbSymbolTableRecord
100
AcDbBlockTableRecord
  2
*D5
  0
BLOCK_RECORD
  5
194
100
AcDbSymbolTableRecord
100
AcDbBlockTableRecord
  2
*D6
  0
BLOCK_RECORD
  5
19F
100
AcDbSymbolTableRecord
100
AcDbBlockTableRecord
  2
*D7
  0
BLOCK_RECORD
  5
1AA
100
AcDbSymbolTableRecord
100
AcDbBlockTableRecord
  2
*D8
  0
BLOCK_RECORD
  5
1B5
100
AcDbSymbolTableRecord
100
AcDbBlockTableRecord
  2
*D9
  0
BLOCK_RECORD
  5
1C0
100
AcDbSymbolTableRecord
100
AcDbBlockTableRecord
  2
*D10
  0
BLOCK_RECORD
  5
1CB
100
AcDbSymbolTableRecord
100
AcDbBlockTableRecord
  2
*D11
  0
BLOCK_RECORD
  5
1D6
100
AcDbSymbolTableRecord
100
AcDbBlockTableRecord
  2
*D12
  0
BLOCK_RECORD
  5
1E3
100
AcDbSymbolTableRecord
100
AcDbBlockTableRecord
  2
*D13
  0
BLOCK_RECORD
  5
1EA
100
AcDbSymbolTableRecord
100
AcDbBlockTableRecord
  2
*D14
  0
BLOCK_RECORD
  5
1F3
100
AcDbSymbolTableRecord
100
AcDbBlockTableRecord
  2
*D15
  0
BLOCK_RECORD
  5
1FC
100
AcDbSymbolTableRecord
100
AcDbBlockTableRecord
  2
*D16
  0
ENDTAB
  0
ENDSEC
  0
SECTION
  2
BLOCKS
  0
BLOCK
  5
D
100
AcDbEntity
  8
0
100
AcDbBlockBegin
  2
*MODEL_SPACE
 70
             0
 10
0.0
 20
0.0
 30
0.0
  3
*MODEL_SPACE
  1

  0
ENDBLK
  5
E
100
AcDbEntity
  8
0
100
AcDbBlockEnd
  0
BLOCK
  5
F
100
AcDbEntity
 67
             1
  8
0
100
AcDbBlockBegin
  2
*PAPER_SPACE
 70
             0
 10
0.0
 20
0.0
 30
0.0
  3
*PAPER_SPACE
  1

  0
ENDBLK
  5
10
100
AcDbEntity
 67
             1
  8
0
100
AcDbBlockEnd
  0
BLOCK
  5
26
100
AcDbEntity
  8
0
100
AcDbBlockBegin
  2
_Z_P___T________________M4
 70
             0
 10
118.00555532724201
 20
26.54680169149931
 30
0.0
  3
_Z_P___T________________M4
  1

  0
LINE
  5
3A
100
AcDbEntity
  8
1
  6
DASHED
 62
            40
100
AcDbLine
 10
123.00555532724201
 20
28.16791549149932
 11
123.384441527242
 21
28.54680169149931
  0
LINE
  5
39
100
AcDbEntity
  8
1
  6
DASHED
 62
            40
100
AcDbLine
 10
123.384441527242
 20
28.54680169149931
 11
123.384441527242
 21
24.54680169149931
  0
LINE
  5
38
100
AcDbEntity
  8
1
  6
DASHED
 62
            40
100
AcDbLine
 10
123.384441527242
 20
24.54680169149931
 11
123.00555532724201
 21
24.92568789149931
  0
LINE
  5
37
100
AcDbEntity
  8
1
  6
DASHED
 62
            40
100
AcDbLine
 10
123.00555532724201
 20
24.92568789149931
 11
123.00555532724201
 21
28.16791549149932
  0
LINE
  5
36
100
AcDbEntity
  8
1
  6
DASHED
 62
            40
100
AcDbLine
 10
127.25555532724201
 20
28.54680169149931
 11
127.25555532724201
 21
24.54680169149931
  0
LINE
  5
35
100
AcDbEntity
  8
1
  6
DASHED
 62
            40
100
AcDbLine
 10
127.25555532724201
 20
28.54680169149931
 11
127.634441527242
 21
28.16791549149932
  0
LINE
  5
34
100
AcDbEntity
  8
1
  6
DASHED
 62
            40
100
AcDbLine
 10
127.634441527242
 20
28.16791549149932
 11
128.00555532724201
 21
27.79680169149931
  0
LINE
  5
33
100
AcDbEntity
  8
1
  6
DASHED
 62
            40
100
AcDbLine
 10
128.00555532724201
 20
27.79680169149931
 11
128.00555532724201
 21
25.29680169149931
  0
LINE
  5
32
100
AcDbEntity
  8
1
  6
DASHED
 62
            40
100
AcDbLine
 10
128.00555532724201
 20
25.29680169149931
 11
127.634441527242
 21
24.92568789149931
  0
LINE
  5
31
100
AcDbEntity
  8
1
  6
DASHED
 62
            40
100
AcDbLine
 10
127.634441527242
 20
24.92568789149931
 11
127.25555532724201
 21
24.54680169149931
  0
LINE
  5
30
100
AcDbEntity
  8
1
  6
DASHED
 62
            40
100
AcDbLine
 10
127.25555532724201
 20
24.54680169149931
 11
123.384441527242
 21
24.54680169149931
  0
LINE
  5
2F
100
AcDbEntity
  8
1
  6
DASHED
 62
            40
100
AcDbLine
 10
123.384441527242
 20
28.54680169149931
 11
127.25555532724201
 21
28.54680169149931
  0
LINE
  5
2E
100
AcDbEntity
  8
1
  6
DASHED
 62
             2
100
AcDbLine
 10
123.00555532724201
 20
28.16791549149932
 11
127.634441527242
 21
28.16791549149932
  0
LINE
  5
2D
100
AcDbEntity
  8
1
  6
DASHED
 62
             2
100
AcDbLine
 10
123.00555532724201
 20
24.92568789149931
 11
127.634441527242
 21
24.92568789149931
  0
LINE
  5
2C
100
AcDbEntity
  8
1
  6
CONTINUOUS
 62
             4
100
AcDbLine
 10
121.906170799111
 20
26.54680169149931
 11
129.07296364199499
 21
26.54680169149931
  0
LINE
  5
2B
100
AcDbEntity
  8
1
  6
DASHED
 62
            40
100
AcDbLine
 10
123.384441527242
 20
28.54680169149931
 11
122.65879354342439
 21
28.54680169149931
  0
LINE
  5
2A
100
AcDbEntity
  8
1
  6
DASHED
 62
            40
100
AcDbLine
 10
123.384441527242
 20
24.54680169149931
 11
122.65879354342439
 21
24.54680169149931
  0
ENDBLK
  5
3B
100
AcDbEntity
  8
0
100
AcDbBlockEnd
  0
BLOCK
  5
156
100
AcDbEntity
  8
0
100
AcDbBlockBegin
  2
*D1
 70
             1
 10
0.0
 20
0.0
 30
0.0
  3
*D1
  1

  0
LINE
  5
157
100
AcDbEntity
  8
0
  6
CONTINUOUS
 62
             2
100
AcDbLine
 10
69.1853229961789
 20
99.893604447694
 11
69.1853229961789
 21
88.66886204806177
  0
LINE
  5
158
100
AcDbEntity
  8
0
  6
CONTINUOUS
 62
             2
100
AcDbLine
 10
69.1853229961789
 20
105.893604447694
 11
69.1853229961789
 21
99.893604447694
  0
LINE
  5
159
100
AcDbEntity
  8
0
  6
CONTINUOUS
 62
             2
100
AcDbLine
 10
69.1853229961789
 20
112.29360444769401
 11
69.1853229961789
 21
105.893604447694
  0
LINE
  5
15A
100
AcDbEntity
  8
0
  6
CONTINUOUS
 62
             2
100
AcDbLine
 10
64.46666431378959
 20
99.893604447694
 11
70.6853229961789
 21
99.893604447694
  0
LINE
  5
15B
100
AcDbEntity
  8
0
  6
CONTINUOUS
 62
             2
100
AcDbLine
 10
64.46666431378959
 20
105.893604447694
 11
70.6853229961789
 21
105.893604447694
  0
SOLID
  5
15C
100
AcDbEntity
  8
0
 62
             2
100
AcDbTrace
 10
68.76403500389922
 20
109.09360444769401
 11
69.60661098845857
 21
109.09360444769401
 12
69.1853229961789
 22
105.893604447694
 13
69.1853229961789
 23
105.893604447694
  0
SOLID
  5
15D
100
AcDbEntity
  8
0
 62
             2
100
AcDbTrace
 10
69.60661098845856
 20
96.693604447694
 11
68.76403500389922
 21
96.693604447694
 12
69.1853229961789
 22
99.893604447694
 13
69.1853229961789
 23
99.893604447694
  0
MTEXT
  5
15E
100
AcDbEntity
  8
0
 62
             2
100
AcDbMText
 10
67.1853229961789
 20
85.88130649250621
 30
0.0
 40
3.2
 41
0.0
 71
             7
 72
             1
  1
\C2;(Æ\C2;6\C2;)
  7
CONVERTER_1
 11
0.0
 21
1.0
 31
0.0
  0
ENDBLK
  5
15F
100
AcDbEntity
  8
0
100
AcDbBlockEnd
  0
BLOCK
  5
163
100
AcDbEntity
  8
0
100
AcDbBlockBegin
  2
*D2
 70
             1
 10
0.0
 20
0.0
 30
0.0
  3
*D2
  1

  0
LINE
  5
164
100
AcDbEntity
  8
0
  6
CONTINUOUS
 62
             2
100
AcDbLine
 10
89.34276891787701
 20
116.01052071767501
 11
75.87693551134301
 21
116.01052071767501
  0
LINE
  5
165
100
AcDbEntity
  8
0
  6
CONTINUOUS
 62
             2
100
AcDbLine
 10
89.84276891787701
 20
116.01052071767501
 11
89.34276891787701
 21
116.01052071767501
  0
LINE
  5
166
100
AcDbEntity
  8
0
  6
CONTINUOUS
 62
             2
100
AcDbLine
 10
96.24276891787702
 20
116.01052071767501
 11
89.84276891787701
 21
116.01052071767501
  0
LINE
  5
167
100
AcDbEntity
  8
0
  6
CONTINUOUS
 62
             2
100
AcDbLine
 10
89.34276891787701
 20
105.29360444769402
 11
89.34276891787701
 21
117.51052071767501
  0
LINE
  5
168
100
AcDbEntity
  8
0
  6
CONTINUOUS
 62
             2
100
AcDbLine
 10
89.84276891787701
 20
105.29360444769402
 11
89.84276891787701
 21
117.51052071767501
  0
SOLID
  5
169
100
AcDbEntity
  8
0
 62
             2
100
AcDbTrace
 10
93.04276891787701
 20
116.43180870995468
 11
93.04276891787701
 21
115.58923272539533
 12
89.84276891787701
 22
116.01052071767501
 13
89.84276891787701
 23
116.01052071767501
  0
SOLID
  5
16A
100
AcDbEntity
  8
0
 62
             2
100
AcDbTrace
 10
86.14276891787701
 20
115.58923272539535
 11
86.14276891787701
 21
116.43180870995468
 12
89.34276891787701
 22
116.01052071767501
 13
89.34276891787701
 23
116.01052071767501
  0
MTEXT
  5
16B
100
AcDbEntity
  8
0
 62
             2
100
AcDbMText
 10
75.33293551135071
 20
118.01051435691951
 30
0.0
 40
3.2
 41
0.0
 71
             7
 72
             1
  1
\C2;(\C2;0.5\C2;)
  7
CONVERTER_1
 11
0.99999999999706
 21
0.00000242406841
 31
0.0
  0
ENDBLK
  5
16C
100
AcDbEntity
  8
0
100
AcDbBlockEnd
  0
BLOCK
  5
170
100
AcDbEntity
  8
0
100
AcDbBlockBegin
  2
*D3
 70
             1
 10
0.0
 20
0.0
 30
0.0
  3
*D3
  1

  0
LINE
  5
171
100
AcDbEntity
  8
0
  6
CONTINUOUS
 62
             2
100
AcDbLine
 10
99.592768917877
 20
121.60994377846801
 11
89.592768917877
 21
121.60994377846801
  0
LINE
  5
172
100
AcDbEntity
  8
0
  6
CONTINUOUS
 62
             2
100
AcDbLine
 10
89.592768917877
 20
105.818077382585
 11
89.592768917877
 21
123.10994377846801
  0
LINE
  5
173
100
AcDbEntity
  8
0
  6
CONTINUOUS
 62
             2
100
AcDbLine
 10
99.592768917877
 20
119.49360444769401
 11
99.592768917877
 21
123.10994377846801
  0
SOLID
  5
174
100
AcDbEntity
  8
0
 62
             2
100
AcDbTrace
 10
96.39276891787699
 20
121.18865578618835
 11
96.39276891787699
 21
122.03123177074768
 12
99.592768917877
 22
121.60994377846801
 13
99.592768917877
 23
121.60994377846801
  0
SOLID
  5
175
100
AcDbEntity
  8
0
 62
             2
100
AcDbTrace
 10
92.792768917877
 20
122.03123177074768
 11
92.792768917877
 21
121.18865578618833
 12
89.592768917877
 22
121.60994377846801
 13
89.592768917877
 23
121.60994377846801
  0
MTEXT
  5
176
100
AcDbEntity
  8
0
 62
             2
100
AcDbMText
 10
90.10041410439969
 20
123.60993741771252
 30
0.0
 40
3.2
 41
0.0
 71
             7
 72
             1
  1
\C2;(\C2;10\C2;)
  7
CONVERTER_1
 11
0.99999999999706
 21
0.00000242406841
 31
0.0
  0
ENDBLK
  5
177
100
AcDbEntity
  8
0
100
AcDbBlockEnd
  0
BLOCK
  5
17B
100
AcDbEntity
  8
0
100
AcDbBlockBegin
  2
*D4
 70
             1
 10
0.0
 20
0.0
 30
0.0
  3
*D4
  1

  0
LINE
  5
17C
100
AcDbEntity
  8
0
  6
CONTINUOUS
 62
             2
100
AcDbLine
 10
81.861892773693
 20
104.29360444769401
 11
81.861892773693
 21
110.69360444769401
  0
LINE
  5
17D
100
AcDbEntity
  8
0
  6
CONTINUOUS
 62
             2
100
AcDbLine
 10
81.861892773693
 20
101.493604447694
 11
81.861892773693
 21
104.29360444769401
  0
LINE
  5
17E
100
AcDbEntity
  8
0
  6
CONTINUOUS
 62
             2
100
AcDbLine
 10
81.861892773693
 20
95.09360444769399
 11
81.861892773693
 21
101.493604447694
  0
LINE
  5
17F
100
AcDbEntity
  8
0
  6
CONTINUOUS
 62
             2
100
AcDbLine
 10
88.34276891787701
 20
104.29360444769401
 11
80.361892773693
 21
104.29360444769401
  0
LINE
  5
180
100
AcDbEntity
  8
0
  6
CONTINUOUS
 62
             2
100
AcDbLine
 10
88.34276891787701
 20
101.493604447694
 11
80.361892773693
 21
101.493604447694
  0
SOLID
  5
181
100
AcDbEntity
  8
0
 62
             2
100
AcDbTrace
 10
82.28318076597266
 20
98.29360444769399
 11
81.44060478141333
 21
98.29360444769399
 12
81.861892773693
 22
101.493604447694
 13
81.861892773693
 23
101.493604447694
  0
SOLID
  5
182
100
AcDbEntity
  8
0
 62
             2
100
AcDbTrace
 10
81.44060478141333
 20
107.49360444769401
 11
82.28318076597267
 21
107.49360444769401
 12
81.861892773693
 22
104.29360444769401
 13
81.861892773693
 23
104.29360444769401
  0
MTEXT
  5
183
100
AcDbEntity
  8
0
 62
             2
100
AcDbMText
 10
79.861892773693
 20
97.208080584697
 30
0.0
 40
3.2
 41
0.0
 71
             7
 72
             1
  1
\C2;(\C2;2.8\C2;)
  7
CONVERTER_1
 11
0.0
 21
1.0
 31
0.0
  0
ENDBLK
  5
184
100
AcDbEntity
  8
0
100
AcDbBlockEnd
  0
BLOCK
  5
188
100
AcDbEntity
  8
0
100
AcDbBlockBegin
  2
*D5
 70
             1
 10
0.0
 20
0.0
 30
0.0
  3
*D5
  1

  0
LINE
  5
189
100
AcDbEntity
  8
0
  6
CONTINUOUS
 62
             2
100
AcDbLine
 10
45.96666431378959
 20
119.078951401148
 11
52.36666431378961
 21
119.078951401148
  0
LINE
  5
18A
100
AcDbEntity
  8
0
  6
CONTINUOUS
 62
             2
100
AcDbLine
 10
43.46666431378959
 20
119.078951401148
 11
45.96666431378959
 21
119.078951401148
  0
LINE
  5
18B
100
AcDbEntity
  8
0
  6
CONTINUOUS
 62
             2
100
AcDbLine
 10
32.9823270665209
 20
119.078951401148
 11
43.46666431378959
 21
119.078951401148
  0
LINE
  5
18C
100
AcDbEntity
  8
0
  6
CONTINUOUS
 62
             2
100
AcDbLine
 10
45.96666431378959
 20
105.29360444769402
 11
45.96666431378959
 21
120.578951401148
  0
LINE
  5
18D
100
AcDbEntity
  8
0
  6
CONTINUOUS
 62
             2
100
AcDbLine
 10
43.46666431378959
 20
115.89360444769402
 11
43.46666431378959
 21
120.578951401148
  0
SOLID
  5
18E
100
AcDbEntity
  8
0
 62
             2
100
AcDbTrace
 10
40.26666431378959
 20
118.65766340886834
 11
40.26666431378959
 21
119.50023939342768
 12
43.46666431378959
 22
119.078951401148
 13
43.46666431378959
 23
119.078951401148
  0
SOLID
  5
18F
100
AcDbEntity
  8
0
 62
             2
100
AcDbTrace
 10
49.1666643137896
 20
119.50023939342768
 11
49.1666643137896
 21
118.65766340886833
 12
45.96666431378959
 22
119.078951401148
 13
45.96666431378959
 23
119.078951401148
  0
MTEXT
  5
190
100
AcDbEntity
  8
0
 62
             2
100
AcDbMText
 10
32.4383270665286
 20
121.07894504039251
 30
0.0
 40
3.2
 41
0.0
 71
             7
 72
             1
  1
\C2;(\C2;2.5\C2;)
  7
CONVERTER_1
 11
0.99999999999706
 21
0.00000242406841
 31
0.0
  0
ENDBLK
  5
191
100
AcDbEntity
  8
0
100
AcDbBlockEnd
  0
BLOCK
  5
195
100
AcDbEntity
  8
0
100
AcDbBlockBegin
  2
*D6
 70
             1
 10
0.0
 20
0.0
 30
0.0
  3
*D6
  1

  0
LINE
  5
196
100
AcDbEntity
  8
0
  6
CONTINUOUS
 62
             2
100
AcDbLine
 10
43.46666431378959
 20
124.62005615953601
 11
53.46666431378959
 21
124.62005615953601
  0
LINE
  5
197
100
AcDbEntity
  8
0
  6
CONTINUOUS
 62
             2
100
AcDbLine
 10
53.46666431378959
 20
107.69360444769401
 11
53.46666431378959
 21
126.12005615953601
  0
LINE
  5
198
100
AcDbEntity
  8
0
  6
CONTINUOUS
 62
             2
100
AcDbLine
 10
43.46666431378959
 20
115.89360444769402
 11
43.46666431378959
 21
126.12005615953601
  0
SOLID
  5
199
100
AcDbEntity
  8
0
 62
             2
100
AcDbTrace
 10
46.6666643137896
 20
125.04134415181568
 11
46.6666643137896
 21
124.19876816725633
 12
43.46666431378959
 22
124.62005615953601
 13
43.46666431378959
 23
124.62005615953601
  0
SOLID
  5
19A
100
AcDbEntity
  8
0
 62
             2
100
AcDbTrace
 10
50.26666431378959
 20
124.19876816725635
 11
50.26666431378959
 21
125.04134415181568
 12
53.46666431378959
 22
124.62005615953601
 13
53.46666431378959
 23
124.62005615953601
  0
MTEXT
  5
19B
100
AcDbEntity
  8
0
 62
             2
100
AcDbMText
 10
44.2093997768304
 20
126.62004979878051
 30
0.0
 40
3.2
 41
0.0
 71
             7
 72
             1
  1
\C2;(\C2;10\C2;)
  7
CONVERTER_1
 11
0.99999999999706
 21
0.00000242406841
 31
0.0
  0
ENDBLK
  5
19C
100
AcDbEntity
  8
0
100
AcDbBlockEnd
  0
BLOCK
  5
1A0
100
AcDbEntity
  8
0
100
AcDbBlockBegin
  2
*D7
 70
             1
 10
0.0
 20
0.0
 30
0.0
  3
*D7
  1

  0
LINE
  5
1A1
100
AcDbEntity
  8
0
  6
CONTINUOUS
 62
             2
100
AcDbLine
 10
43.4666643137896
 20
132.833929095499
 11
63.46666431378961
 21
132.833929095499
  0
LINE
  5
1A2
100
AcDbEntity
  8
0
  6
CONTINUOUS
 62
             2
100
AcDbLine
 10
63.46666431378961
 20
106.89360444769402
 11
63.46666431378961
 21
134.333929095499
  0
LINE
  5
1A3
100
AcDbEntity
  8
0
  6
CONTINUOUS
 62
             2
100
AcDbLine
 10
43.4666643137896
 20
115.89360444769402
 11
43.4666643137896
 21
134.333929095499
  0
SOLID
  5
1A4
100
AcDbEntity
  8
0
 62
             2
100
AcDbTrace
 10
46.6666643137896
 20
133.25521708777868
 11
46.6666643137896
 21
132.41264110321933
 12
43.4666643137896
 22
132.833929095499
 13
43.4666643137896
 23
132.833929095499
  0
SOLID
  5
1A5
100
AcDbEntity
  8
0
 62
             2
100
AcDbTrace
 10
60.26666431378961
 20
132.41264110321933
 11
60.26666431378961
 21
133.25521708777868
 12
63.46666431378961
 22
132.833929095499
 13
63.46666431378961
 23
132.833929095499
  0
MTEXT
  5
1A6
100
AcDbEntity
  8
0
 62
             2
100
AcDbMText
 10
48.42304145452381
 20
134.83392273474351
 30
0.0
 40
3.2
 41
0.0
 71
             7
 72
             1
  1
\C2;(\C2;20\C2;)
  7
CONVERTER_1
 11
0.99999999999706
 21
0.00000242406841
 31
0.0
  0
ENDBLK
  5
1A7
100
AcDbEntity
  8
0
100
AcDbBlockEnd
  0
BLOCK
  5
1AB
100
AcDbEntity
  8
0
100
AcDbBlockBegin
  2
*D8
 70
             1
 10
0.0
 20
0.0
 30
0.0
  3
*D8
  1

  0
LINE
  5
1AC
100
AcDbEntity
  8
0
  6
CONTINUOUS
 62
             2
100
AcDbLine
 10
32.46666431378959
 20
132.833929095499
 11
43.46666431378959
 21
132.833929095499
  0
LINE
  5
1AD
100
AcDbEntity
  8
0
  6
CONTINUOUS
 62
             2
100
AcDbLine
 10
43.46666431378959
 20
115.89360444769402
 11
43.46666431378959
 21
134.333929095499
  0
LINE
  5
1AE
100
AcDbEntity
  8
0
  6
CONTINUOUS
 62
             2
100
AcDbLine
 10
32.46666431378959
 20
115.89360444769402
 11
32.46666431378959
 21
134.333929095499
  0
SOLID
  5
1AF
100
AcDbEntity
  8
0
 62
             2
100
AcDbTrace
 10
35.6666643137896
 20
133.25521708777868
 11
35.6666643137896
 21
132.41264110321933
 12
32.46666431378959
 22
132.833929095499
 13
32.46666431378959
 23
132.833929095499
  0
SOLID
  5
1B0
100
AcDbEntity
  8
0
 62
             2
100
AcDbTrace
 10
40.26666431378959
 20
132.41264110321933
 11
40.26666431378959
 21
133.25521708777868
 12
43.46666431378959
 22
132.833929095499
 13
43.46666431378959
 23
132.833929095499
  0
MTEXT
  5
1B1
100
AcDbEntity
  8
0
 62
             2
100
AcDbMText
 10
34.0635165342743
 20
134.83392273474351
 30
0.0
 40
3.2
 41
0.0
 71
             7
 72
             1
  1
\C2;(\C2;11\C2;)
  7
CONVERTER_1
 11
0.99999999999706
 21
0.00000242406841
 31
0.0
  0
ENDBLK
  5
1B2
100
AcDbEntity
  8
0
100
AcDbBlockEnd
  0
BLOCK
  5
1B6
100
AcDbEntity
  8
0
100
AcDbBlockBegin
  2
*D9
 70
             1
 10
0.0
 20
0.0
 30
0.0
  3
*D9
  1

  0
LINE
  5
1B7
100
AcDbEntity
  8
0
  6
CONTINUOUS
 62
             2
100
AcDbLine
 10
22.26101809971439
 20
114.893604447694
 11
22.26101809971439
 21
90.893604447694
  0
LINE
  5
1B8
100
AcDbEntity
  8
0
  6
CONTINUOUS
 62
             2
100
AcDbLine
 10
31.46666431378959
 20
90.893604447694
 11
20.76101809971439
 21
90.893604447694
  0
LINE
  5
1B9
100
AcDbEntity
  8
0
  6
CONTINUOUS
 62
             2
100
AcDbLine
 10
31.46666431378959
 20
114.893604447694
 11
20.76101809971439
 21
114.893604447694
  0
SOLID
  5
1BA
100
AcDbEntity
  8
0
 62
             2
100
AcDbTrace
 10
22.68230609199406
 20
111.693604447694
 11
21.83973010743473
 21
111.693604447694
 12
22.26101809971439
 22
114.893604447694
 13
22.26101809971439
 23
114.893604447694
  0
SOLID
  5
1BB
100
AcDbEntity
  8
0
 62
             2
100
AcDbTrace
 10
21.83973010743473
 20
94.09360444769401
 11
22.68230609199406
 21
94.09360444769401
 12
22.26101809971439
 22
90.893604447694
 13
22.26101809971439
 23
90.893604447694
  0
MTEXT
  5
1BC
100
AcDbEntity
  8
0
 62
             2
100
AcDbMText
 10
20.26101809971439
 20
95.22554064391822
 30
0.0
 40
3.2
 41
0.0
 71
             7
 72
             1
  1
\C2;(Æ\C2;24\C2;)
  7
CONVERTER_1
 11
0.0
 21
1.0
 31
0.0
  0
ENDBLK
  5
1BD
100
AcDbEntity
  8
0
100
AcDbBlockEnd
  0
BLOCK
  5
1C1
100
AcDbEntity
  8
0
100
AcDbBlockBegin
  2
*D10
 70
             1
 10
0.0
 20
0.0
 30
0.0
  3
*D10
  1

  0
LINE
  5
1C2
100
AcDbEntity
  8
0
  6
CONTINUOUS
 62
             2
100
AcDbLine
 10
88.24729796360639
 20
42.2070324002048
 11
103.28339235947269
 21
42.2070324002048
  0
LINE
  5
1C3
100
AcDbEntity
  8
0
  6
CONTINUOUS
 62
             2
100
AcDbLine
 10
103.28339235947269
 20
28.83334137914329
 11
103.28339235947269
 21
43.7070324002048
  0
LINE
  5
1C4
100
AcDbEntity
  8
0
  6
CONTINUOUS
 62
             2
100
AcDbLine
 10
88.24729796360639
 20
39.2968016914993
 11
88.24729796360639
 21
43.7070324002048
  0
SOLID
  5
1C5
100
AcDbEntity
  8
0
 62
             2
100
AcDbTrace
 10
91.44729796360639
 20
42.62832039248446
 11
91.44729796360639
 21
41.78574440792513
 12
88.24729796360639
 22
42.2070324002048
 13
88.24729796360639
 23
42.2070324002048
  0
SOLID
  5
1C6
100
AcDbEntity
  8
0
 62
             2
100
AcDbTrace
 10
100.08339235947268
 20
41.78574440792513
 11
100.08339235947268
 21
42.62832039248446
 12
103.28339235947269
 22
42.2070324002048
 13
103.28339235947269
 23
42.2070324002048
  0
MTEXT
  5
1C7
100
AcDbEntity
  8
0
 62
             2
100
AcDbMText
 10
91.1450093545579
 20
44.2070260394493
 30
0.0
 40
3.2
 41
0.0
 71
             7
 72
             1
  1
\C2;(\C2;15\C2;)
  7
CONVERTER_1
 11
0.99999999999706
 21
0.00000242406841
 31
0.0
  0
ENDBLK
  5
1C8
100
AcDbEntity
  8
0
100
AcDbBlockEnd
  0
BLOCK
  5
1CC
100
AcDbEntity
  8
0
100
AcDbBlockBegin
  2
*D11
 70
             1
 10
0.0
 20
0.0
 30
0.0
  3
*D11
  1

  0
LINE
  5
1CD
100
AcDbEntity
  8
0
  6
CONTINUOUS
 62
             2
100
AcDbLine
 10
83.06362737168858
 20
38.29680169149931
 11
83.06362737168858
 21
14.79680169149931
  0
LINE
  5
1CE
100
AcDbEntity
  8
0
  6
CONTINUOUS
 62
             2
100
AcDbLine
 10
87.24729796360639
 20
14.79680169149931
 11
81.56362737168858
 21
14.79680169149931
  0
LINE
  5
1CF
100
AcDbEntity
  8
0
  6
CONTINUOUS
 62
             2
100
AcDbLine
 10
87.24729796360639
 20
38.29680169149931
 11
81.56362737168858
 21
38.29680169149931
  0
SOLID
  5
1D0
100
AcDbEntity
  8
0
 62
             2
100
AcDbTrace
 10
83.48491536396824
 20
35.09680169149931
 11
82.64233937940891
 21
35.09680169149931
 12
83.06362737168858
 22
38.29680169149931
 13
83.06362737168858
 23
38.29680169149931
  0
SOLID
  5
1D1
100
AcDbEntity
  8
0
 62
             2
100
AcDbTrace
 10
82.64233937940891
 20
17.99680169149931
 11
83.48491536396826
 21
17.99680169149931
 12
83.06362737168858
 22
14.79680169149931
 13
83.06362737168858
 23
14.79680169149931
  0
MTEXT
  5
1D2
100
AcDbEntity
  8
0
 62
             2
100
AcDbMText
 10
81.06362737168858
 20
20.0041319000165
 30
0.0
 40
3.2
 41
0.0
 71
             7
 72
             1
  1
\C2;(\C2;23.5\C2;)
  7
CONVERTER_1
 11
0.0
 21
1.0
 31
0.0
  0
ENDBLK
  5
1D3
100
AcDbEntity
  8
0
100
AcDbBlockEnd
  0
BLOCK
  5
1D7
100
AcDbEntity
  8
0
100
AcDbBlockBegin
  2
*D12
 70
             1
 10
0.0
 20
0.0
 30
0.0
  3
*D12
  1

  0
LINE
  5
1D8
100
AcDbEntity
  8
0
  6
CONTINUOUS
 62
             2
100
AcDbLine
 10
49.86666431378959
 20
76.0770110781411
 11
43.4666643137896
 21
76.0770110781411
  0
LINE
  5
1D9
100
AcDbEntity
  8
0
  6
CONTINUOUS
 62
             2
100
AcDbLine
 10
43.4666643137896
 20
76.0770110781411
 11
41.9666643137896
 21
76.0770110781411
  0
LINE
  5
1DA
100
AcDbEntity
  8
0
  6
CONTINUOUS
 62
             2
100
AcDbLine
 10
41.9666643137896
 20
76.0770110781411
 11
24.7561251409606
 21
76.0770110781411
  0
LINE
  5
1DB
100
AcDbEntity
  8
0
  6
CONTINUOUS
 62
             2
100
AcDbLine
 10
43.4666643137896
 20
89.893604447694
 11
43.4666643137896
 21
74.5770110781411
  0
LINE
  5
1DC
100
AcDbEntity
  8
0
  6
CONTINUOUS
 62
             2
100
AcDbLine
 10
41.9666643137896
 20
82.39360444769399
 11
41.9666643137896
 21
74.5770110781411
  0
SOLID
  5
1DD
100
AcDbEntity
  8
0
 62
             2
100
AcDbTrace
 10
46.6666643137896
 20
76.49829907042077
 11
46.6666643137896
 21
75.65572308586143
 12
43.4666643137896
 22
76.0770110781411
 13
43.4666643137896
 23
76.0770110781411
  0
SOLID
  5
1DE
100
AcDbEntity
  8
0
 62
             2
100
AcDbTrace
 10
38.7666643137896
 20
75.65572308586144
 11
38.7666643137896
 21
76.49829907042077
 12
41.9666643137896
 22
76.0770110781411
 13
41.9666643137896
 23
76.0770110781411
  0
MTEXT
  5
1DF
100
AcDbEntity
  8
0
 62
             2
100
AcDbMText
 10
24.7561251409606
 20
78.0770110781411
 30
0.0
 40
3.2
 41
0.0
 71
             7
 72
             1
  1
\C2;1.5\C2;MIN
  7
CONVERTER_1
 11
0.99999999999706
 21
0.00000242406841
 31
0.0
  0
ENDBLK
  5
1E0
100
AcDbEntity
  8
0
100
AcDbBlockEnd
  0
BLOCK
  5
1E4
100
AcDbEntity
  8
0
100
AcDbBlockBegin
  2
*D13
 70
             1
 10
0.0
 20
0.0
 30
0.0
  3
*D13
  1

  0
LINE
  5
1E5
100
AcDbEntity
  8
0
  6
CONTINUOUS
 62
             2
100
AcDbLine
 10
99.59276891787697
 20
102.893604447694
 11
128.42761469483983
 21
77.04888617644052
  0
SOLID
  5
1E6
100
AcDbEntity
  8
0
 62
             2
100
AcDbTrace
 10
116.77778177723062
 20
88.05639390809833
 11
116.21541138838938
 21
87.42895958045067
 12
114.11367814546261
 22
89.87849034123232
 13
114.11367814546261
 23
89.87849034123232
  0
MTEXT
  5
1E7
100
AcDbEntity
  8
0
 62
             2
100
AcDbMText
 10
118.40789183897817
 20
88.71536198928662
 30
0.0
 40
3.2
 41
0.0
 71
             7
 72
             1
  1
\C2;(R\C2;19.5\C2;)
  7
CONVERTER_1
 11
0.74466201167106
 21
-0.66744174904932
 31
0.0
  0
ENDBLK
  5
1E8
100
AcDbEntity
  8
0
100
AcDbBlockEnd
  0
BLOCK
  5
1EB
100
AcDbEntity
  8
0
100
AcDbBlockBegin
  2
*D14
 70
             1
 10
0.0
 20
0.0
 30
0.0
  3
*D14
  1

  0
LINE
  5
1EC
100
AcDbEntity
  8
0
  6
CONTINUOUS
 62
             2
100
AcDbLine
 10
7.03363701850098
 20
15.33587629062538
 11
45.57065244695589
 21
42.4140932713989
  0
LINE
  5
1ED
100
AcDbEntity
  8
0
  6
CONTINUOUS
 62
             2
100
AcDbLine
 10
45.57065244695589
 20
42.4140932713989
 11
59.41065244695589
 21
42.4140932713989
  0
SOLID
  5
1EE
100
AcDbEntity
  8
0
 62
             2
100
AcDbTrace
 10
36.56776707261
 20
35.57328337551183
 11
36.08335391838116
 21
36.2626876007427
 12
38.94383298505935
 22
37.75772709237324
 13
38.94383298505935
 23
37.75772709237324
  0
SOLID
  5
1EF
100
AcDbEntity
  8
0
 62
             2
100
AcDbTrace
 10
9.40970293095032
 20
17.5203200074868
 11
9.89411608517917
 21
16.83091578225592
 12
7.03363701850098
 22
15.33587629062538
 13
7.03363701850098
 23
15.33587629062538
  0
MTEXT
  5
1F0
100
AcDbEntity
  8
0
 62
             2
100
AcDbMText
 10
49.36265244697132
 20
44.41408054988791
 30
0.0
 40
3.2
 41
0.0
 71
             7
 72
             1
  1
\C2;{\Fgdt;n}\C2;39
  7
CONVERTER_1
 11
0.99999999999706
 21
0.00000242406841
 31
0.0
  0
ENDBLK
  5
1F1
100
AcDbEntity
  8
0
100
AcDbBlockEnd
  0
BLOCK
  5
1F4
100
AcDbEntity
  8
0
100
AcDbBlockBegin
  2
*D15
 70
             1
 10
0.0
 20
0.0
 30
0.0
  3
*D15
  1

  0
LINE
  5
1F5
100
AcDbEntity
  8
0
  6
CONTINUOUS
 62
             2
100
AcDbLine
 10
25.6029432242895
 20
35.73202979804978
 11
14.42827682393174
 21
-3.53104764853823
  0
LINE
  5
1F6
100
AcDbEntity
  8
0
  6
CONTINUOUS
 62
             2
100
AcDbLine
 10
14.42827682393174
 20
-3.53104764853823
 11
-0.61172317606826
 21
-3.53104764853823
  0
SOLID
  5
1F7
100
AcDbEntity
  8
0
 62
             2
100
AcDbTrace
 10
21.2177057807006
 20
18.78513698149532
 11
20.40731283669235
 21
19.01578295708945
 12
21.68847436754777
 22
21.97823273797945
 13
21.68847436754777
 23
21.97823273797945
  0
SOLID
  5
1F8
100
AcDbEntity
  8
0
 62
             2
100
AcDbTrace
 10
24.75976422285972
 20
34.30846640150331
 11
25.57015716686797
 21
34.07782042590918
 12
24.28899563601255
 22
31.11537064501918
 13
24.28899563601255
 23
31.11537064501918
  0
MTEXT
  5
1F9
100
AcDbEntity
  8
0
 62
             2
100
AcDbMText
 10
-2.01972317605284
 20
-1.53106037004922
 30
0.0
 40
3.2
 41
0.0
 71
             7
 72
             1
  1
\C2;{\Fgdt;n}\C2;9.5
  7
CONVERTER_1
 11
0.99999999999706
 21
0.00000242406841
 31
0.0
  0
ENDBLK
  5
1FA
100
AcDbEntity
  8
0
100
AcDbBlockEnd
  0
BLOCK
  5
1FD
100
AcDbEntity
  8
0
100
AcDbBlockBegin
  2
*D16
 70
             1
 10
0.0
 20
0.0
 30
0.0
  3
*D16
  1

  0
LINE
  5
1FE
100
AcDbEntity
  8
0
  6
CONTINUOUS
 62
             2
100
AcDbLine
 10
121.08463668565372
 20
68.98853631488204
 11
109.08079064357653
 21
86.60860889514038
  0
SOLID
  5
1FF
100
AcDbEntity
  8
0
 62
             2
100
AcDbTrace
 10
111.23063029675365
 20
84.20118848356572
 11
110.53429003487658
 21
83.72679989870612
 12
109.08079064357653
 22
86.60860889514038
 13
109.08079064357653
 23
86.60860889514038
  0
MTEXT
  5
200
100
AcDbEntity
  8
0
 62
             2
100
AcDbMText
 10
114.57595793991574
 20
82.09468437542137
 30
0.0
 40
3.2
 41
0.0
 71
             7
 72
             1
  1
\C2;3-({\Fgdt;n}\C2;2\C2;)
  7
CONVERTER_1
 11
0.56302172569956
 21
-0.82644209500139
 31
0.0
  0
ENDBLK
  5
201
100
AcDbEntity
  8
0
100
AcDbBlockEnd
  0
ENDSEC
  0
SECTION
  2
ENTITIES
  0
HATCH
  5
204
100
AcDbEntity
  8
1
  6
CONTINUOUS
 62
             2
100
AcDbHatch
 10
0.0
 20
0.0
 30
0.0
210
0.0
220
0.0
230
1.0
  2
USER
 70
             0
 71
             1
 91
        1
 92
        1
 93
        4
 72
             1
 10
138.55555532724219
 20
27.046801691499311
 11
138.55555532724219
 21
26.046801691499311
 72
             1
 10
138.55555532724219
 20
26.046801691499311
 11
131.05555532724199
 21
26.046801691499311
 72
             1
 10
131.05555532724199
 20
26.046801691499311
 11
131.05555532724199
 21
27.046801691499311
 72
             1
 10
131.05555532724199
 20
27.046801691499311
 11
138.55555532724219
 21
27.046801691499311
 97
        4
330
8B
330
8C
330
8D
330
8A
 75
             1
 76
             0
 52
45.0
 41
0.1
 77
             0
 78
             1
 53
45.0
 43
0.0
 44
0.0
 45
-0.0707106781186548
 46
0.0707106781186548
 79
             0
 98
        1
 10
0.0
 20
0.0
  0
HATCH
  5
203
100
AcDbEntity
  8
1
  6
CONTINUOUS
 62
             2
100
AcDbHatch
 10
0.0
 20
0.0
 30
0.0
210
0.0
220
0.0
230
1.0
  2
USER
 70
             0
 71
             1
 91
        1
 92
        1
 93
        4
 72
             1
 10
142.40555532724201
 20
27.046801691499311
 11
142.40555532724201
 21
26.046801691499311
 72
             1
 10
142.40555532724201
 20
26.046801691499311
 11
141.432180547635
 21
26.046801691499311
 72
             1
 10
141.432180547635
 20
26.046801691499311
 11
141.432180547635
 21
27.046801691499311
 72
             1
 10
141.432180547635
 20
27.046801691499311
 11
142.40555532724201
 21
27.046801691499311
 97
        4
330
89
330
88
330
87
330
86
 75
             1
 76
             0
 52
45.0
 41
0.1
 77
             0
 78
             1
 53
45.0
 43
0.0
 44
0.0
 45
-0.0707106781186548
 46
0.0707106781186548
 79
             0
 98
        1
 10
0.0
 20
0.0
  0
DIMENSION
  5
1E2
100
AcDbEntity
  8
1
100
AcDbDimension
  2
*D12
 10
43.4666643137896
 20
76.0770110781411
 11
31.2761251409606
 21
79.67701107814109
 31
0.0
 53
0.00013888888889
  1
<>
  3
ME10_DIM_11
100
AcDbAlignedDimension
 13
41.96666431378959
 23
83.39360444769399
 14
43.46666431378959
 24
90.893604447694
100
AcDbRotatedDimension
  0
DIMENSION
  5
1D5
100
AcDbEntity
  8
1
100
AcDbDimension
  2
*D11
 10
83.06362737168858
 20
38.29680169149931
 11
79.46362737168859
 21
27.0681319000165
 31
0.0
 70
             1
 53
90.0
  1
<>
  3
ME10_DIM_10
100
AcDbAlignedDimension
 13
88.24729796360639
 23
14.79680169149931
 14
88.24729796360639
 24
38.29680169149931
  0
DIMENSION
  5
1CA
100
AcDbEntity
  8
1
100
AcDbDimension
  2
*D10
 10
88.24729796360639
 20
42.2070324002048
 11
95.68900935455019
 21
45.8070324002048
 31
0.0
 53
0.00013888888889
  1
(15
  3
ME10_DIM_9
100
AcDbAlignedDimension
 13
103.2833923594727
 23
27.8333413791433
 14
88.24729796360639
 24
38.29680169149931
100
AcDbRotatedDimension
  0
DIMENSION
  5
1BF
100
AcDbEntity
  8
1
100
AcDbDimension
  2
*D9
 10
22.26101809971439
 20
114.893604447694
 11
18.66101809971439
 21
103.995318421696
 31
0.0
 70
             1
 53
90.0
  1
<>
  3
ME10_DIM_8
100
AcDbAlignedDimension
 13
32.46666431378959
 23
90.893604447694
 14
32.46666431378959
 24
114.893604447694
  0
DIMENSION
  5
1B4
100
AcDbEntity
  8
1
100
AcDbDimension
  2
*D8
 10
32.46666431378959
 20
132.833929095499
 11
38.12751653426659
 21
136.433929095499
 31
0.0
 70
             1
 53
0.00013888888889
  1
<>
  3
ME10_DIM_7
100
AcDbAlignedDimension
 13
43.46666431378959
 23
114.893604447694
 14
32.46666431378959
 24
114.893604447694
  0
DIMENSION
  5
1A9
100
AcDbEntity
  8
1
100
AcDbDimension
  2
*D7
 10
43.4666643137896
 20
132.833929095499
 11
53.4470414545161
 21
136.433929095499
 31
0.0
 53
0.00013888888889
  1
<>
  3
ME10_DIM_6
100
AcDbAlignedDimension
 13
63.46666431378959
 23
105.893604447694
 14
43.46666431378959
 24
114.893604447694
100
AcDbRotatedDimension
  0
DIMENSION
  5
19E
100
AcDbEntity
  8
1
100
AcDbDimension
  2
*D6
 10
43.46666431378959
 20
124.62005615953601
 11
48.75339977682269
 21
128.220056159536
 31
0.0
 53
0.00013888888889
  1
<>
  3
ME10_DIM_5
100
AcDbAlignedDimension
 13
53.46666431378959
 23
106.693604447694
 14
43.46666431378959
 24
114.893604447694
100
AcDbRotatedDimension
  0
DIMENSION
  5
193
100
AcDbEntity
  8
1
100
AcDbDimension
  2
*D5
 10
43.46666431378959
 20
119.078951401148
 11
38.06232706652089
 21
122.678951401148
 31
0.0
 53
0.00013888888889
  1
<>
  3
ME10_DIM_4
100
AcDbAlignedDimension
 13
45.96666431378959
 23
104.29360444769399
 14
43.46666431378959
 24
114.893604447694
100
AcDbRotatedDimension
  0
DIMENSION
  5
186
100
AcDbEntity
  8
1
100
AcDbDimension
  2
*D4
 10
81.861892773693
 20
101.493604447694
 11
78.26189277369301
 21
102.832080584697
 31
0.0
 53
90.0
  1
<>
  3
ME10_DIM_3
100
AcDbAlignedDimension
 13
89.34276891787701
 23
104.29360444769399
 14
89.34276891787701
 24
101.493604447694
 50
90.0
100
AcDbRotatedDimension
  0
DIMENSION
  5
179
100
AcDbEntity
  8
1
100
AcDbDimension
  2
*D3
 10
99.592768917877
 20
121.60994377846801
 11
94.64441410439198
 21
125.209943778468
 31
0.0
 53
0.00013888888889
  1
<>
  3
ME10_DIM_2
100
AcDbAlignedDimension
 13
89.59276891787701
 23
104.818077382585
 14
99.59276891787701
 24
118.493604447694
100
AcDbRotatedDimension
  0
DIMENSION
  5
16E
100
AcDbEntity
  8
1
100
AcDbDimension
  2
*D2
 10
89.84276891787701
 20
116.01052071767501
 11
80.95693551134301
 21
119.610520717675
 31
0.0
 70
             1
 53
0.00013888888889
  1
<>
  3
ME10_DIM_1
100
AcDbAlignedDimension
 13
89.34276891787701
 23
104.29360444769399
 14
89.84276891787701
 24
104.29360444769399
  0
DIMENSION
  5
161
100
AcDbEntity
  8
1
100
AcDbDimension
  2
*D1
 10
69.1853229961789
 20
105.893604447694
 11
65.5853229961789
 21
93.21108427028399
 31
0.0
 70
             1
 53
90.0
  1
<>
  3
ME10_DIM_0
100
AcDbAlignedDimension
 13
63.46666431378959
 23
99.893604447694
 14
63.46666431378959
 24
105.893604447694
  0
TEXT
  5
154
100
AcDbEntity
  8
1
 62
             2
100
AcDbText
 10
17.51987775045938
 20
-17.35461314154702
 40
4.0
  1
²Öñô
 41
1.07
  7
CONVERTER_3
100
AcDbText
  0
TEXT
  5
153
100
AcDbEntity
  8
1
 62
             2
100
AcDbText
 10
30.51856701520729
 20
-1.18520879701956
 40
4.0
  1
t=(0.5)
 41
0.856
  7
CONVERTER_2
100
AcDbText
  0
TEXT
  5
152
100
AcDbEntity
  8
1
 62
             2
100
AcDbText
 10
101.3698230197742
 20
5.57856900141286
 40
3.0
  1
~ÔlWilS@Zpj
 41
1.07
  7
CONVERTER_3
100
AcDbText
  0
TEXT
  5
151
100
AcDbEntity
  8
1
 62
             2
100
AcDbText
 10
106.2785856784237
 20
-17.40848003130774
 40
4.0
  1
c}~
 41
1.07
  7
CONVERTER_3
100
AcDbText
  0
TEXT
  5
150
100
AcDbEntity
  8
1
 62
             2
100
AcDbText
 10
31.8510002979342
 20
63.5754986022957
 40
4.0
  1
ôüÿRÚiPOÑCP^SvCaê¨j
 41
1.07
  7
CONVERTER_3
100
AcDbText
  0
TEXT
  5
14E
100
AcDbEntity
  8
1
 62
             2
100
AcDbText
 10
52.9355258564718
 20
83.0543032525639
 40
3.0
  1
M9~0.75
 41
0.856
  7
CONVERTER_2
100
AcDbText
  0
TEXT
  5
14C
100
AcDbEntity
  8
1
 62
             2
100
AcDbText
 10
47.14701720629724
 20
-42.21535930999173
 40
5.0
  1
Q-R10KB
 41
0.9
  7
CONVERTER_1
100
AcDbText
  0
LEADER
  5
14A
100
AcDbEntity
  8
1
  6
CONTINUOUS
 62
             2
100
AcDbLeader
  3
Standard
 71
             0
 73
             3
 74
             0
 75
             0
 40
0.0
 76
             3
 10
95.10814283956717
 20
24.74154655730579
 30
0.0
 10
99.74663860261309
 20
4.69319568296145
 30
0.0
 10
137.375004636798
 20
4.69319568296145
 30
0.0
 77
             2
  0
LEADER
  5
148
100
AcDbEntity
  8
1
  6
CONTINUOUS
 62
             2
100
AcDbLeader
  3
Standard
 71
             0
 73
             3
 74
             0
 75
             0
 40
0.0
 76
             3
 10
48.8915710678554
 20
98.393604447694
 30
0.0
 10
51.59497785558069
 20
82.45103600959619
 30
0.0
 10
70.66110993743229
 20
82.45103600959619
 30
0.0
 77
             2
  0
CIRCLE
  5
146
100
AcDbEntity
  8
1
  6
CONTINUOUS
 62
             3
100
AcDbCircle
 10
22.98873500178016
 20
26.54680169149931
 40
4.75
  0
CIRCLE
  5
145
100
AcDbEntity
  8
1
  6
CONTINUOUS
 62
             3
100
AcDbCircle
 10
22.98873500178016
 20
26.54680169149931
 40
19.5
  0
LWPOLYLINE
  5
144
100
AcDbEntity
  8
1
  6
CONTINUOUS
 62
             2
100
AcDbPolyline
 90
        2
 70
             1
 10
99.59276891787701
 20
86.04360444769402
 42
1.0
 10
99.59276891787695
 20
84.04360444769402
 42
1.0
  0
ARC
  5
143
100
AcDbEntity
  8
1
  6
CONTINUOUS
 62
             3
100
AcDbCircle
 10
90.66776891787698
 20
87.43505099014179
 40
1.64999999999999
100
AcDbArc
 50
149.99999999999972
 51
-30.00000000000004
  0
ARC
  5
142
100
AcDbEntity
  8
1
  6
CONTINUOUS
 62
             3
100
AcDbCircle
 10
99.59276891787698
 20
85.04360444769402
 40
1.64999999999998
100
AcDbArc
 50
180.0
 51
0.0
  0
ARC
  5
141
100
AcDbEntity
  8
1
  6
CONTINUOUS
 62
             3
100
AcDbCircle
 10
108.51776891787701
 20
87.43505099014178
 40
1.64999999999988
100
AcDbArc
 50
-149.99999999999926
 51
30.00000000000179
  0
LWPOLYLINE
  5
140
100
AcDbEntity
  8
1
  6
CONTINUOUS
 62
             2
100
AcDbPolyline
 90
        2
 70
             1
 10
90.66776891787698
 20
88.43505099014179
 42
1.0
 10
90.66776891787698
 20
86.43505099014179
 42
1.0
  0
LWPOLYLINE
  5
13F
100
AcDbEntity
  8
1
  6
CONTINUOUS
 62
             2
100
AcDbPolyline
 90
        2
 70
             1
 10
108.51776891787701
 20
88.43505099014178
 42
1.0
 10
108.51776891787701
 20
86.43505099014178
 42
1.0
  0
ARC
  5
13E
100
AcDbEntity
  8
1
  6
CONTINUOUS
 62
             2
100
AcDbCircle
 10
22.98873500178016
 20
26.54680169149931
 40
11.99999999999995
100
AcDbArc
 50
-59.99999999999988
 51
-120.00000000000011
  0
ARC
  5
13D
100
AcDbEntity
  8
1
  6
CONTINUOUS
 62
             3
100
AcDbCircle
 10
74.86564512569619
 20
26.54852106982229
 40
28.41774728579081
100
AcDbArc
 50
-18.92464441605137
 51
18.92464441605137
  0
ARC
  5
13C
100
AcDbEntity
  8
1
  6
CONTINUOUS
 62
             3
100
AcDbCircle
 10
131.05555532724199
 20
26.54680169149931
 40
11.75
100
AcDbArc
 50
90.0
 51
89.88657526757874
  0
ARC
  5
13B
100
AcDbEntity
  8
1
  6
CONTINUOUS
 62
             3
100
AcDbCircle
 10
156.0161975139842
 20
38.55954753373377
 40
18.97041088796831
100
AcDbArc
 50
-165.5181942447729
 51
-143.20409888577072
  0
ARC
  5
13A
100
AcDbEntity
  8
1
  6
CONTINUOUS
 62
             3
100
AcDbCircle
 10
136.6533562837605
 20
33.55853567130788
 40
1.02783253876733
100
AcDbArc
 50
14.48180575522788
 51
88.350300716007
  0
ARC
  5
139
100
AcDbEntity
  8
1
  6
CONTINUOUS
 62
             3
100
AcDbCircle
 10
137.2311182713355
 20
53.6192676538128
 40
19.04121767762761
100
AcDbArc
 50
-114.05030071600873
 51
-91.64969928399137
  0
ARC
  5
138
100
AcDbEntity
  8
1
  6
CONTINUOUS
 62
             3
100
AcDbCircle
 10
129.05220765444361
 20
35.29245129883523
 40
1.02783253876729
100
AcDbArc
 50
65.94969928399607
 51
139.81819424477786
  0
ARC
  5
137
100
AcDbEntity
  8
1
  6
CONTINUOUS
 62
             3
100
AcDbCircle
 10
113.7735305806535
 20
48.19562017433657
 40
18.97041088796556
100
AcDbArc
 50
-62.61933483293965
 51
-40.18180575522409
  0
ARC
  5
136
100
AcDbEntity
  8
1
  6
CONTINUOUS
 62
             3
100
AcDbCircle
 10
122.9707259226937
 20
30.43776732002948
 40
1.02783253876741
100
AcDbArc
 50
117.38066516705862
 51
-168.78066516706266
  0
ARC
  5
135
100
AcDbEntity
  8
1
  6
CONTINUOUS
 62
             3
100
AcDbCircle
 10
103.3546578499999
 20
26.54680169149935
 40
18.97041088796783
100
AcDbArc
 50
-11.22045564780812
 51
11.21933483293794
  0
ARC
  5
134
100
AcDbEntity
  8
1
  6
CONTINUOUS
 62
             3
100
AcDbCircle
 10
122.97064980422179
 20
22.65545233595967
 40
1.02783253876736
100
AcDbArc
 50
168.7795443521928
 51
-117.41123014713432
  0
ARC
  5
133
100
AcDbEntity
  8
1
  6
CONTINUOUS
 62
             3
100
AcDbCircle
 10
113.7967942229326
 20
4.96577787683429
 40
18.8991393510152
100
AcDbArc
 50
40.11350144263546
 51
62.58876985286757
  0
ARC
  5
132
100
AcDbEntity
  8
1
  6
CONTINUOUS
 62
             3
100
AcDbCircle
 10
129.03633645281701
 20
17.8048028133221
 40
1.0278325387674
100
AcDbArc
 50
-139.88649855736432
 51
-66.01800382988195
  0
ARC
  5
131
100
AcDbEntity
  8
1
  6
CONTINUOUS
 62
             3
100
AcDbCircle
 10
137.2225346588267
 20
-0.59725921537726
 40
19.1129154110029
100
AcDbArc
 50
91.61911761668648
 51
113.98199617012114
  0
ARC
  5
130
100
AcDbEntity
  8
1
  6
CONTINUOUS
 62
             3
100
AcDbCircle
 10
136.6534543526711
 20
19.535447398025
 40
1.02783253876763
100
AcDbArc
 50
-88.3808823833138
 51
-14.48292927213802
  0
ARC
  5
12F
100
AcDbEntity
  8
1
  6
CONTINUOUS
 62
             3
100
AcDbCircle
 10
156.01619751398479
 20
14.53405584926478
 40
18.97041088796886
100
AcDbArc
 50
143.08066516706194
 51
165.51707072786152
  0
ARC
  5
12E
100
AcDbEntity
  8
1
  6
CONTINUOUS
 62
             3
100
AcDbCircle
 10
140.02796191761971
 20
26.54680169149934
 40
1.02783253876739
100
AcDbArc
 50
-36.91933483293833
 51
36.91933483293864
  0
ARC
  5
12D
100
AcDbEntity
  8
1
  6
CONTINUOUS
 62
             3
100
AcDbCircle
 10
157.19964660060859
 20
39.1291031160174
 40
20.71428522462708
100
AcDbArc
 50
-163.86748973916841
 51
-144.73126822401909
  0
ARC
  5
12C
100
AcDbEntity
  8
1
  6
CONTINUOUS
 62
             3
100
AcDbCircle
 10
136.26688437728629
 20
33.07430265248411
 40
1.07656475767862
100
AcDbArc
 50
16.13251026083022
 51
86.70416575538138
  0
ARC
  5
12B
100
AcDbEntity
  8
1
  6
CONTINUOUS
 62
             3
100
AcDbCircle
 10
137.52391780232921
 20
54.90284380846747
 40
20.78814063777872
100
AcDbArc
 50
-112.4041657553842
 51
-93.29583424461654
  0
ARC
  5
12A
100
AcDbEntity
  8
1
  6
CONTINUOUS
 62
             3
100
AcDbCircle
 10
129.19045656108369
 20
34.68852299942742
 40
1.07656475767839
100
AcDbArc
 50
67.59583424461869
 51
138.16748973917069
  0
ARC
  5
129
100
AcDbEntity
  8
1
  6
CONTINUOUS
 62
             3
100
AcDbCircle
 10
112.95414475522659
 20
49.22204706945945
 40
20.71428522462414
100
AcDbArc
 50
-60.96873177598057
 51
-41.83251026082886
  0
ARC
  5
128
100
AcDbEntity
  8
1
  6
CONTINUOUS
 62
             3
100
AcDbCircle
 10
123.52895786033091
 20
30.16910843146105
 40
1.07656475767848
100
AcDbArc
 50
119.03126822402025
 51
-170.4312682240199
  0
ARC
  5
127
100
AcDbEntity
  8
1
  6
CONTINUOUS
 62
             3
100
AcDbCircle
 10
102.0412861197032
 20
26.54680169149935
 40
20.71428522462699
100
AcDbArc
 50
-9.56995918795828
 51
9.56873177598039
  0
ARC
  5
126
100
AcDbEntity
  8
1
  6
CONTINUOUS
 62
             3
100
AcDbCircle
 10
123.5288802569678
 20
22.92403463529322
 40
1.07656475767843
100
AcDbArc
 50
170.4300408120412
 51
-119.06638515606855
  0
ARC
  5
125
100
AcDbEntity
  8
1
  6
CONTINUOUS
 62
             3
100
AcDbCircle
 10
112.97851138740479
 20
3.94256530358368
 40
20.63993729201807
100
AcDbArc
 50
41.768863318209
 51
60.93361484393089
  0
ARC
  5
124
100
AcDbEntity
  8
1
  6
CONTINUOUS
 62
             3
100
AcDbCircle
 10
129.17550619727189
 20
18.40851914021715
 40
1.07656475767843
100
AcDbArc
 50
-138.23113668179047
 51
-67.65950874576195
  0
ARC
  5
123
100
AcDbEntity
  8
1
  6
CONTINUOUS
 62
             3
100
AcDbCircle
 10
137.5149272183848
 20
-1.88422987291035
 40
20.86293399405168
100
AcDbArc
 50
93.2607289063543
 51
112.34049125424113
  0
ARC
  5
122
100
AcDbEntity
  8
1
  6
CONTINUOUS
 62
             3
100
AcDbCircle
 10
136.2670142305397
 20
20.01974964342282
 40
1.07656475767863
100
AcDbArc
 50
-86.73927109364767
 51
-16.13373899951987
  0
ARC
  5
121
100
AcDbEntity
  8
1
  6
CONTINUOUS
 62
             3
100
AcDbCircle
 10
157.19964660060921
 20
13.96450026698114
 40
20.71428522462772
100
AcDbArc
 50
144.73126822401963
 51
163.8662610004807
  0
ARC
  5
120
100
AcDbEntity
  8
1
  6
CONTINUOUS
 62
             3
100
AcDbCircle
 10
139.40844557836411
 20
26.54680169149937
 40
1.07656475767836
100
AcDbArc
 50
-35.26873177598041
 51
35.26873177598056
  0
ARC
  5
11F
100
AcDbEntity
  8
1
  6
CONTINUOUS
 62
             2
100
AcDbCircle
 10
66.47660160992982
 20
26.54680169149924
 40
23.57069635367658
100
AcDbArc
 50
-10.57054822805078
 51
10.57054822805039
  0
ARC
  5
11E
100
AcDbEntity
  8
1
  6
CONTINUOUS
 62
             2
100
AcDbCircle
 10
72.67453331876234
 20
34.84011287018154
 40
17.43073594204033
100
AcDbArc
 50
-13.16298516334241
 51
4.67419381134674
  0
ARC
  5
11D
100
AcDbEntity
  8
1
  6
CONTINUOUS
 62
             2
100
AcDbCircle
 10
72.85337446912661
 20
18.26779483187707
 40
17.25335702902241
100
AcDbArc
 50
-4.75708984093063
 51
13.25197579116217
  0
LWPOLYLINE
  5
11C
100
AcDbEntity
  8
1
  6
CONTINUOUS
 62
            40
100
AcDbPolyline
 90
        2
 70
             1
 10
94.24729796360639
 20
28.54680169149931
 42
1.0
 10
94.24729796360639
 20
24.54680169149931
 42
1.0
  0
LWPOLYLINE
  5
11B
100
AcDbEntity
  8
1
  6
CONTINUOUS
 62
             2
100
AcDbPolyline
 90
        2
 70
             1
 10
94.24729796360639
 20
28.16791549149932
 42
1.0
 10
94.24729796360639
 20
24.92568789149931
 42
1.0
  0
LWPOLYLINE
  5
11A
100
AcDbEntity
  8
1
  6
CONTINUOUS
 62
             3
100
AcDbPolyline
 90
        2
 70
             1
 10
99.59276891787701
 20
114.893604447694
 42
1.0
 10
99.59276891787701
 20
90.893604447694
 42
1.0
  0
LWPOLYLINE
  5
119
100
AcDbEntity
  8
1
  6
CONTINUOUS
 62
             3
100
AcDbPolyline
 90
        2
 70
             1
 10
99.59276891787701
 20
107.393604447694
 42
1.0
 10
99.59276891787701
 20
98.393604447694
 42
1.0
  0
LWPOLYLINE
  5
118
100
AcDbEntity
  8
1
  6
CONTINUOUS
 62
             2
100
AcDbPolyline
 90
        2
 70
             1
 10
99.59276891787701
 20
106.693604447694
 42
1.0
 10
99.59276891787701
 20
99.09360444769401
 42
1.0
  0
LWPOLYLINE
  5
117
100
AcDbEntity
  8
1
  6
CONTINUOUS
 62
             3
100
AcDbPolyline
 90
        2
 70
             1
 10
99.59276891787701
 20
105.893604447694
 42
1.0
 10
99.59276891787701
 20
99.893604447694
 42
1.0
  0
ARC
  5
116
100
AcDbEntity
  8
1
  6
CONTINUOUS
 62
             2
100
AcDbCircle
 10
99.59276891787698
 20
93.99209992782465
 40
1.50000000000001
100
AcDbArc
 50
0.0
 51
180.0
  0
ARC
  5
115
100
AcDbEntity
  8
1
  6
CONTINUOUS
 62
             2
100
AcDbCircle
 10
104.0435211778116
 20
95.18467540158513
 40
1.50000000000004
100
AcDbArc
 50
29.99999999999918
 51
-149.99999999999892
  0
ARC
  5
114
100
AcDbEntity
  8
1
  6
CONTINUOUS
 62
             2
100
AcDbCircle
 10
95.14201665794229
 20
95.18467540158514
 40
1.50000000000002
100
AcDbArc
 50
-29.99999999999946
 51
149.99999999999946
  0
ARC
  5
113
100
AcDbEntity
  8
1
  6
CONTINUOUS
 62
             1
100
AcDbCircle
 10
99.59276891787701
 20
102.893604447694
 40
19.5
100
AcDbArc
 50
-54.68184952942819
 51
-35.76038334295213
  0
LWPOLYLINE
  5
112
100
AcDbEntity
  8
1
  6
CONTINUOUS
 62
             3
100
AcDbPolyline
 90
        2
 70
             1
 10
96.72176978112439
 20
26.54680169149931
 42
1.0
 10
91.77282614608838
 20
26.54680169149931
 42
1.0
  0
LWPOLYLINE
  5
111
100
AcDbEntity
  8
1
  6
CONTINUOUS
 62
             2
100
AcDbPolyline
 90
        2
 70
             1
 10
99.59276891787701
 20
109.893604447694
 42
1.0
 10
99.59276891787701
 20
95.893604447694
 42
1.0
  0
ARC
  5
110
100
AcDbEntity
  8
1
  6
CONTINUOUS
 62
             2
100
AcDbCircle
 10
45.6560521215633
 20
108.7177872689699
 40
1.5106121922263
100
AcDbArc
 50
0.0
 51
37.79771086772799
  0
ARC
  5
10F
100
AcDbEntity
  8
1
  6
CONTINUOUS
 62
             2
100
AcDbCircle
 10
45.6560521215633
 20
97.06942162641813
 40
1.51061219222629
100
AcDbArc
 50
-37.79771086772799
 51
0.0
  0
LINE
  5
10E
100
AcDbEntity
  8
1
  6
CONTINUOUS
 62
             2
100
AcDbLine
 10
41.96666431378959
 20
83.39360444769399
 11
41.96666431378959
 21
90.893604447694
  0
LINE
  5
10D
100
AcDbEntity
  8
1
  6
CONTINUOUS
 62
             2
100
AcDbLine
 10
41.46666431378959
 20
90.893604447694
 11
41.46666431378959
 21
83.39360444769399
  0
LINE
  5
10C
100
AcDbEntity
  8
1
  6
CONTINUOUS
 62
             3
100
AcDbLine
 10
106.1434903386196
 20
89.29742212073822
 11
104.59206495939731
 21
91.98456970170295
  0
LINE
  5
10B
100
AcDbEntity
  8
1
  6
CONTINUOUS
 62
             3
100
AcDbLine
 10
94.59347287635674
 20
91.98456970170297
 11
93.04204749713448
 21
89.2974221207382
  0
LINE
  5
10A
100
AcDbEntity
  8
1
  6
CONTINUOUS
 62
             3
100
AcDbLine
 10
100.717768917877
 20
90.94645520613851
 11
100.717768917877
 21
87.84360444769401
  0
LINE
  5
109
100
AcDbEntity
  8
1
  6
CONTINUOUS
 62
             3
100
AcDbLine
 10
106.54062211791231
 20
93.10956970170295
 11
108.0920474971346
 21
90.42242212073826
  0
LINE
  5
108
100
AcDbEntity
  8
1
  6
CONTINUOUS
 62
             3
100
AcDbLine
 10
91.0934903386195
 20
90.4224221207382
 11
92.64491571784177
 21
93.10956970170295
  0
LINE
  5
107
100
AcDbEntity
  8
1
  6
CONTINUOUS
 62
             3
100
AcDbLine
 10
90.37632700163266
 20
90.23025878375137
 11
91.0934903386195
 21
90.4224221207382
  0
LINE
  5
106
100
AcDbEntity
  8
1
  6
CONTINUOUS
 62
             3
100
AcDbLine
 10
89.23882700163267
 20
88.26005099014179
 11
90.37632700163266
 21
90.23025878375137
  0
LINE
  5
105
100
AcDbEntity
  8
1
  6
CONTINUOUS
 62
             3
100
AcDbLine
 10
93.23421083412131
 20
88.58025878375136
 11
92.09671083412131
 21
86.61005099014179
  0
LINE
  5
104
100
AcDbEntity
  8
1
  6
CONTINUOUS
 62
             3
100
AcDbLine
 10
93.04204749713448
 20
89.2974221207382
 11
93.23421083412131
 21
88.58025878375136
  0
LINE
  5
103
100
AcDbEntity
  8
1
  6
CONTINUOUS
 62
             3
100
AcDbLine
 10
98.46776891787701
 20
87.84360444769401
 11
98.46776891787701
 21
90.94645520613851
  0
LINE
  5
102
100
AcDbEntity
  8
1
  6
CONTINUOUS
 62
             3
100
AcDbLine
 10
97.942768917877
 20
87.318604447694
 11
98.46776891787701
 21
87.84360444769401
  0
LINE
  5
101
100
AcDbEntity
  8
1
  6
CONTINUOUS
 62
             3
100
AcDbLine
 10
97.942768917877
 20
85.04360444769402
 11
97.942768917877
 21
87.318604447694
  0
LINE
  5
100
100
AcDbEntity
  8
1
  6
CONTINUOUS
 62
             3
100
AcDbLine
 10
101.242768917877
 20
87.318604447694
 11
101.242768917877
 21
85.04360444769402
  0
LINE
  5
FF
100
AcDbEntity
  8
1
  6
CONTINUOUS
 62
             3
100
AcDbLine
 10
100.717768917877
 20
87.84360444769401
 11
101.242768917877
 21
87.318604447694
  0
LINE
  5
FE
100
AcDbEntity
  8
1
  6
CONTINUOUS
 62
             3
100
AcDbLine
 10
105.95132700163281
 20
88.58025878375139
 11
106.1434903386196
 21
89.29742212073822
  0
LINE
  5
FD
100
AcDbEntity
  8
1
  6
CONTINUOUS
 62
             3
100
AcDbLine
 10
107.08882700163279
 20
86.61005099014182
 11
105.95132700163281
 21
88.58025878375139
  0
LINE
  5
FC
100
AcDbEntity
  8
1
  6
CONTINUOUS
 62
             3
100
AcDbLine
 10
108.8092108341214
 20
90.23025878375142
 11
109.9467108341214
 21
88.26005099014188
  0
LINE
  5
FB
100
AcDbEntity
  8
1
  6
CONTINUOUS
 62
             3
100
AcDbLine
 10
108.0920474971346
 20
90.42242212073826
 11
108.8092108341214
 21
90.23025878375142
  0
LINE
  5
FA
100
AcDbEntity
  8
1
  6
CONTINUOUS
 62
             2
100
AcDbLine
 10
16.78382605147288
 20
-17.98753107572432
 11
29.86198744715538
 21
-17.98753107572432
  0
LINE
  5
F9
100
AcDbEntity
  8
1
  6
CONTINUOUS
 62
             2
100
AcDbLine
 10
11.66668233451682
 20
19.1941747187966
 11
12.92468818643479
 21
20.01113327131901
  0
LINE
  5
F8
100
AcDbEntity
  8
1
  6
CONTINUOUS
 62
             2
100
AcDbLine
 10
12.06700557771822
 20
18.61170078555101
 11
13.28053106928067
 21
19.49337866398971
  0
LINE
  5
F7
100
AcDbEntity
  8
1
  6
CONTINUOUS
 62
             2
100
AcDbLine
 10
12.4972645221109
 20
18.0509764123266
 11
13.66298346429633
 21
18.99495699890131
  0
LINE
  5
F6
100
AcDbEntity
  8
1
  6
CONTINUOUS
 62
             2
100
AcDbLine
 10
12.9562798578352
 20
17.5135385056548
 11
14.07099709605134
 21
18.51723441519311
  0
LINE
  5
F5
100
AcDbEntity
  8
1
  6
CONTINUOUS
 62
             2
100
AcDbLine
 10
13.95547181593545
 20
16.51434654755461
 11
14.95916772547375
 21
17.62906378577061
  0
LINE
  5
F4
100
AcDbEntity
  8
1
  6
CONTINUOUS
 62
             2
100
AcDbLine
 10
14.49290972260727
 20
16.0553312118303
 11
15.43689030918191
 21
17.22105015401571
  0
LINE
  5
F3
100
AcDbEntity
  8
1
  6
CONTINUOUS
 62
             2
100
AcDbLine
 10
15.05363409583177
 20
15.62507226743761
 11
15.93531197427032
 21
16.83859775900001
  0
LINE
  5
F2
100
AcDbEntity
  8
1
  6
CONTINUOUS
 62
             2
100
AcDbLine
 10
15.63610802907724
 20
15.2247490242362
 11
16.45306658159976
 21
16.4827548761543
  0
LINE
  5
F1
100
AcDbEntity
  8
1
  6
CONTINUOUS
 62
             2
100
AcDbLine
 10
12.73568667457502
 20
16.2937533642945
 11
14.50345362754152
 21
18.06152031726091
  0
LINE
  5
F0
100
AcDbEntity
  8
1
  6
CONTINUOUS
 62
             2
100
AcDbLine
 10
8.98281052058852
 20
22.7939255375129
 11
11.39762508631137
 21
23.44097315026921
  0
LINE
  5
EF
100
AcDbEntity
  8
1
  6
CONTINUOUS
 62
             2
100
AcDbLine
 10
8.98281052058863
 20
30.29967784548601
 11
11.39762508631137
 21
29.6526302327297
  0
LINE
  5
EE
100
AcDbEntity
  8
1
  6
CONTINUOUS
 62
             2
100
AcDbLine
 10
12.73568667457519
 20
36.79985001870442
 11
14.50345362754163
 21
35.03208306573792
  0
LINE
  5
ED
100
AcDbEntity
  8
1
  6
CONTINUOUS
 62
             2
100
AcDbLine
 10
19.23585884779359
 20
40.5527261726909
 11
19.88290646054995
 21
38.13791160696822
  0
LINE
  5
EC
100
AcDbEntity
  8
1
  6
CONTINUOUS
 62
             2
100
AcDbLine
 10
26.74161115576672
 20
40.55272617269081
 11
26.09456354301042
 21
38.1379116069681
  0
LINE
  5
EB
100
AcDbEntity
  8
1
  6
CONTINUOUS
 62
             2
100
AcDbLine
 10
33.24178332898512
 20
36.79985001870422
 11
31.47401637601874
 21
35.03208306573781
  0
LINE
  5
EA
100
AcDbEntity
  8
1
  6
CONTINUOUS
 62
             2
100
AcDbLine
 10
36.99465948297163
 20
30.2996778454858
 11
34.57984491724895
 21
29.6526302327295
  0
LINE
  5
E9
100
AcDbEntity
  8
1
  6
CONTINUOUS
 62
             2
100
AcDbLine
 10
36.99465948297151
 20
22.7939255375127
 11
34.57984491724895
 21
23.44097315026911
  0
LINE
  5
E8
100
AcDbEntity
  8
1
  6
CONTINUOUS
 62
             2
100
AcDbLine
 10
33.24178332898501
 20
16.2937533642944
 11
31.47401637601863
 21
18.06152031726081
  0
LINE
  5
E7
100
AcDbEntity
  8
1
  6
CONTINUOUS
 62
             2
100
AcDbLine
 10
12.59643015636684
 20
20.54680169149941
 11
9.1323285412291
 21
18.54680169149941
  0
LINE
  5
E6
100
AcDbEntity
  8
1
  6
CONTINUOUS
 62
             2
100
AcDbLine
 10
9.1323285412291
 20
34.5468016914994
 11
12.59643015636684
 21
32.54680169149931
  0
LINE
  5
E5
100
AcDbEntity
  8
1
  6
CONTINUOUS
 62
             2
100
AcDbLine
 10
14.98873500178016
 20
40.4032081520504
 11
16.98873500178016
 21
36.9391065369126
  0
LINE
  5
E4
100
AcDbEntity
  8
1
  6
CONTINUOUS
 62
             2
100
AcDbLine
 10
28.98873500178016
 20
36.9391065369126
 11
30.98873500178016
 21
40.40320815205031
  0
LINE
  5
E3
100
AcDbEntity
  8
1
  6
CONTINUOUS
 62
             2
100
AcDbLine
 10
33.38103984719331
 20
32.54680169149931
 11
36.84514146233116
 21
34.54680169149931
  0
LINE
  5
E2
100
AcDbEntity
  8
1
  6
CONTINUOUS
 62
             2
100
AcDbLine
 10
33.38103984719331
 20
20.54680169149931
 11
36.84514146233116
 21
18.54680169149931
  0
LINE
  5
E1
100
AcDbEntity
  8
1
  6
CONTINUOUS
 62
             2
100
AcDbLine
 10
10.98873500178016
 20
26.54680169149931
 11
6.98873500178016
 21
26.54680169149931
  0
LINE
  5
E0
100
AcDbEntity
  8
1
  6
CONTINUOUS
 62
             2
100
AcDbLine
 10
34.98873500178016
 20
26.54680169149931
 11
38.98873500178016
 21
26.54680169149931
  0
LINE
  5
DF
100
AcDbEntity
  8
1
  6
CONTINUOUS
 62
             2
100
AcDbLine
 10
16.98873500178016
 20
16.1544968460861
 11
14.98873500178016
 21
12.69039523094831
  0
LINE
  5
DE
100
AcDbEntity
  8
1
  6
CONTINUOUS
 62
             2
100
AcDbLine
 10
28.98873500178016
 20
16.1544968460861
 11
30.98873500178016
 21
12.69039523094831
  0
LINE
  5
DD
100
AcDbEntity
  8
1
  6
CONTINUOUS
 62
             2
100
AcDbLine
 10
22.98873500178016
 20
42.54680169149931
 11
22.98873500178016
 21
38.54680169149931
  0
LINE
  5
DC
100
AcDbEntity
  8
1
  6
CONTINUOUS
 62
             2
100
AcDbLine
 10
10.96014692523715
 20
20.41792994501565
 11
12.29665671151968
 21
21.09891569462494
  0
LINE
  5
DB
100
AcDbEntity
  8
1
  6
CONTINUOUS
 62
             2
100
AcDbLine
 10
9.5072362825935
 20
27.25333710077937
 11
11.00518058472531
 21
27.17483316641492
  0
LINE
  5
DA
100
AcDbEntity
  8
1
  6
CONTINUOUS
 62
             2
100
AcDbLine
 10
11.66668233451722
 20
33.89942866420249
 11
12.9246881864353
 21
33.08247011167994
  0
LINE
  5
D9
100
AcDbEntity
  8
1
  6
CONTINUOUS
 62
             2
100
AcDbLine
 10
16.85986325529677
 20
38.57538976804245
 11
17.54084900490603
 21
37.23887998175991
  0
LINE
  5
D8
100
AcDbEntity
  8
1
  6
CONTINUOUS
 62
             2
100
AcDbLine
 10
23.69527041106052
 20
40.02830041068596
 11
23.61676647669605
 21
38.53035610855415
  0
LINE
  5
D7
100
AcDbEntity
  8
1
  6
CONTINUOUS
 62
             2
100
AcDbLine
 10
30.34136197448359
 20
37.86885435876209
 11
29.52440342196102
 21
36.61084850684402
  0
LINE
  5
D6
100
AcDbEntity
  8
1
  6
CONTINUOUS
 62
             2
100
AcDbLine
 10
35.01732307832344
 20
32.67567343798243
 11
33.6808132920409
 21
31.9946876883732
  0
LINE
  5
D5
100
AcDbEntity
  8
1
  6
CONTINUOUS
 62
             2
100
AcDbLine
 10
36.4702337209668
 20
25.84026628221864
 11
34.97228941883498
 21
25.91877021658315
  0
LINE
  5
D4
100
AcDbEntity
  8
1
  6
CONTINUOUS
 62
             2
100
AcDbLine
 10
34.31078766904277
 20
19.19417471879561
 11
33.05278181712473
 21
20.01113327131822
  0
LINE
  5
D3
100
AcDbEntity
  8
1
  6
CONTINUOUS
 62
             2
100
AcDbLine
 10
10.65587132360505
 20
21.05585700997618
 11
12.02618951006881
 21
21.66596197458993
  0
LINE
  5
D2
100
AcDbEntity
  8
1
  6
CONTINUOUS
 62
             2
100
AcDbLine
 10
9.56268941430857
 20
27.95793594561289
 11
11.05447225736088
 21
27.80114325071151
  0
LINE
  5
D1
100
AcDbEntity
  8
1
  6
CONTINUOUS
 62
             2
100
AcDbLine
 10
12.06700557771865
 20
34.48190259744795
 11
13.28053106928102
 21
33.60022471900937
  0
LINE
  5
D0
100
AcDbEntity
  8
1
  6
CONTINUOUS
 62
             2
100
AcDbLine
 10
17.49779032025732
 20
38.87966536967454
 11
18.10789528487103
 21
37.50934718321077
  0
LINE
  5
CF
100
AcDbEntity
  8
1
  6
CONTINUOUS
 62
             2
100
AcDbLine
 10
24.39986925589404
 20
39.97284727897087
 11
24.24307656099263
 21
38.48106443591857
  0
LINE
  5
CE
100
AcDbEntity
  8
1
  6
CONTINUOUS
 62
             2
100
AcDbLine
 10
30.92383590772904
 20
37.46853111556064
 11
30.04215802929043
 21
36.25500562399829
  0
LINE
  5
CD
100
AcDbEntity
  8
1
  6
CONTINUOUS
 62
             2
100
AcDbLine
 10
35.32159867995552
 20
32.03774637302188
 11
33.95128049349174
 21
31.42764140840819
  0
LINE
  5
CC
100
AcDbEntity
  8
1
  6
CONTINUOUS
 62
             2
100
AcDbLine
 10
36.41478058925169
 20
25.13566743738512
 11
34.92299774619939
 21
25.29246013228656
  0
LINE
  5
CB
100
AcDbEntity
  8
1
  6
CONTINUOUS
 62
             2
100
AcDbLine
 10
33.91046442584132
 20
18.61170078555017
 11
32.69693893427899
 21
19.4933786639888
  0
LINE
  5
CA
100
AcDbEntity
  8
1
  6
CONTINUOUS
 62
             2
100
AcDbLine
 10
10.38539924406787
 20
21.70883437263798
 11
11.78576988381355
 21
22.24638629695594
  0
LINE
  5
C9
100
AcDbEntity
  8
1
  6
CONTINUOUS
 62
             2
100
AcDbLine
 10
9.65494240374588
 20
28.65866696954276
 11
11.13647491463848
 21
28.42401527198246
  0
LINE
  5
C8
100
AcDbEntity
  8
1
  6
CONTINUOUS
 62
             2
100
AcDbLine
 10
12.49726452211135
 20
35.04262697067244
 11
13.66298346429673
 21
34.09864638409778
  0
LINE
  5
C7
100
AcDbEntity
  8
1
  6
CONTINUOUS
 62
             2
100
AcDbLine
 10
18.15076768291912
 20
39.1501374492117
 11
18.68831960723705
 21
37.74976680946601
  0
LINE
  5
C6
100
AcDbEntity
  8
1
  6
CONTINUOUS
 62
             2
100
AcDbLine
 10
25.10060027982391
 20
39.88059428953355
 11
24.86594858226358
 21
38.39906177864095
  0
LINE
  5
C5
100
AcDbEntity
  8
1
  6
CONTINUOUS
 62
             2
100
AcDbLine
 10
31.48456028095352
 20
37.03827217116793
 11
30.54057969437884
 21
35.87255322898257
  0
LINE
  5
C4
100
AcDbEntity
  8
1
  6
CONTINUOUS
 62
             2
100
AcDbLine
 10
35.59207075949267
 20
31.38476901036006
 11
34.19170011974696
 21
30.84721708604217
  0
LINE
  5
C3
100
AcDbEntity
  8
1
  6
CONTINUOUS
 62
             2
100
AcDbLine
 10
36.32252759981435
 20
24.43493641345525
 11
34.84099508892176
 21
24.66958811101561
  0
LINE
  5
C2
100
AcDbEntity
  8
1
  6
CONTINUOUS
 62
             2
100
AcDbLine
 10
33.48020548144859
 20
18.0509764123257
 11
32.31448653926324
 21
18.99495699890041
  0
LINE
  5
C1
100
AcDbEntity
  8
1
  6
CONTINUOUS
 62
             2
100
AcDbLine
 10
10.14947203179551
 20
22.37507226743778
 11
11.57605680623821
 21
22.83859775900011
  0
LINE
  5
C0
100
AcDbEntity
  8
1
  6
CONTINUOUS
 62
             2
100
AcDbLine
 10
9.78374239187387
 20
29.35360951753943
 11
11.2509637929745
 21
29.04174198131271
  0
LINE
  5
BF
100
AcDbEntity
  8
1
  6
CONTINUOUS
 62
             2
100
AcDbLine
 10
12.95627985783566
 20
35.58006487734424
 11
14.07099709605164
 21
34.57636896780593
  0
LINE
  5
BE
100
AcDbEntity
  8
1
  6
CONTINUOUS
 62
             2
100
AcDbLine
 10
18.81700557771892
 20
39.38606466148405
 11
19.28053106928122
 21
37.95947988704134
  0
LINE
  5
BD
100
AcDbEntity
  8
1
  6
CONTINUOUS
 62
             2
100
AcDbLine
 10
25.79554282782057
 20
39.75179430140554
 11
25.48367529159383
 21
38.28457290030491
  0
LINE
  5
BC
100
AcDbEntity
  8
1
  6
CONTINUOUS
 62
             2
100
AcDbLine
 10
32.02199818762531
 20
36.5792568354436
 11
31.01830227808697
 21
35.46453959722764
  0
LINE
  5
BB
100
AcDbEntity
  8
1
  6
CONTINUOUS
 62
             2
100
AcDbLine
 10
35.827997971765
 20
30.71853111556025
 11
34.40141319732229
 21
30.25500562399799
  0
LINE
  5
BA
100
AcDbEntity
  8
1
  6
CONTINUOUS
 62
             2
100
AcDbLine
 10
36.19372761168633
 20
23.73999386545859
 11
34.72650621058571
 21
24.05186140168537
  0
LINE
  5
B9
100
AcDbEntity
  8
1
  6
CONTINUOUS
 62
             2
100
AcDbLine
 10
33.02119014572425
 20
17.51353850565391
 11
31.90647290750832
 21
18.51723441519228
  0
LINE
  5
B8
100
AcDbEntity
  8
1
  6
CONTINUOUS
 62
             2
100
AcDbLine
 10
9.78374239187368
 20
23.7399938654598
 11
11.25096379297445
 21
24.05186140168642
  0
LINE
  5
B7
100
AcDbEntity
  8
1
  6
CONTINUOUS
 62
             2
100
AcDbLine
 10
10.14947203179565
 20
30.71853111556145
 11
11.57605680623842
 21
30.25500562399898
  0
LINE
  5
B6
100
AcDbEntity
  8
1
  6
CONTINUOUS
 62
             2
100
AcDbLine
 10
13.95547181593588
 20
36.57925683544448
 11
14.95916772547417
 21
35.46453959722831
  0
LINE
  5
B5
100
AcDbEntity
  8
1
  6
CONTINUOUS
 62
             2
100
AcDbLine
 10
20.18192717574095
 20
39.75179430140585
 11
20.49379471196754
 21
38.28457290030507
  0
LINE
  5
B4
100
AcDbEntity
  8
1
  6
CONTINUOUS
 62
             2
100
AcDbLine
 10
27.16046442584259
 20
39.38606466148372
 11
26.69693893428008
 21
37.95947988704097
  0
LINE
  5
B3
100
AcDbEntity
  8
1
  6
CONTINUOUS
 62
             2
100
AcDbLine
 10
33.02119014572553
 20
35.58006487734336
 11
31.90647290750934
 21
34.5763689678051
  0
LINE
  5
B2
100
AcDbEntity
  8
1
  6
CONTINUOUS
 62
             2
100
AcDbLine
 10
36.19372761168677
 20
29.35360951753822
 11
34.72650621058598
 21
29.04174198131167
  0
LINE
  5
B1
100
AcDbEntity
  8
1
  6
CONTINUOUS
 62
             2
100
AcDbLine
 10
35.82799797176448
 20
22.37507226743658
 11
34.40141319732174
 21
22.83859775899912
  0
LINE
  5
B0
100
AcDbEntity
  8
1
  6
CONTINUOUS
 62
             2
100
AcDbLine
 10
32.02199818762398
 20
16.51434654755373
 11
31.01830227808575
 21
17.62906378576994
  0
LINE
  5
AF
100
AcDbEntity
  8
1
  6
CONTINUOUS
 62
             2
100
AcDbLine
 10
9.6549424037457
 20
24.43493641345646
 11
11.13647491463837
 21
24.66958811101677
  0
LINE
  5
AE
100
AcDbEntity
  8
1
  6
CONTINUOUS
 62
             2
100
AcDbLine
 10
10.38539924406802
 20
31.38476901036124
 11
11.78576988381376
 21
30.84721708604326
  0
LINE
  5
AD
100
AcDbEntity
  8
1
  6
CONTINUOUS
 62
             2
100
AcDbLine
 10
14.49290972260769
 20
37.03827217116876
 11
15.43689030918238
 21
35.87255322898331
  0
LINE
  5
AC
100
AcDbEntity
  8
1
  6
CONTINUOUS
 62
             2
100
AcDbLine
 10
20.87686972373761
 20
39.88059428953382
 11
21.11152142129788
 21
38.39906177864114
  0
LINE
  5
AB
100
AcDbEntity
  8
1
  6
CONTINUOUS
 62
             2
100
AcDbLine
 10
27.82670232064237
 20
39.15013744921134
 11
27.28915039632437
 21
37.74976680946561
  0
LINE
  5
AA
100
AcDbEntity
  8
1
  6
CONTINUOUS
 62
             2
100
AcDbLine
 10
33.4802054814498
 20
35.04262697067154
 11
32.31448653926432
 21
34.09864638409688
  0
LINE
  5
A9
100
AcDbEntity
  8
1
  6
CONTINUOUS
 62
             2
100
AcDbLine
 10
36.32252759981472
 20
28.65866696954156
 11
34.84099508892204
 21
28.42401527198132
  0
LINE
  5
A8
100
AcDbEntity
  8
1
  6
CONTINUOUS
 62
             2
100
AcDbLine
 10
35.59207075949209
 20
21.7088343726368
 11
34.19170011974637
 21
22.24638629695485
  0
LINE
  5
A7
100
AcDbEntity
  8
1
  6
CONTINUOUS
 62
             2
100
AcDbLine
 10
31.48456028095216
 20
16.05533121182946
 11
30.54057969437752
 21
17.22105015401496
  0
LINE
  5
A6
100
AcDbEntity
  8
1
  6
CONTINUOUS
 62
             2
100
AcDbLine
 10
9.56268941430837
 20
25.13566743738623
 11
11.05447225736081
 21
25.29246013228769
  0
LINE
  5
A5
100
AcDbEntity
  8
1
  6
CONTINUOUS
 62
             2
100
AcDbLine
 10
10.65587132360513
 20
32.03774637302297
 11
12.02618951006904
 21
31.42764140840922
  0
LINE
  5
A4
100
AcDbEntity
  8
1
  6
CONTINUOUS
 62
             2
100
AcDbLine
 10
15.0536340958321
 20
37.46853111556143
 11
15.93531197427078
 21
36.25500562399896
  0
LINE
  5
A3
100
AcDbEntity
  8
1
  6
CONTINUOUS
 62
             2
100
AcDbLine
 10
21.57760074766739
 20
39.97284727897112
 11
21.73439344256881
 21
38.48106443591868
  0
LINE
  5
A2
100
AcDbEntity
  8
1
  6
CONTINUOUS
 62
             2
100
AcDbLine
 10
28.4796796833041
 20
38.87966536967421
 11
27.86957471869032
 21
37.50934718321032
  0
LINE
  5
A1
100
AcDbEntity
  8
1
  6
CONTINUOUS
 62
             2
100
AcDbLine
 10
33.91046442584246
 20
34.48190259744712
 11
32.69693893427996
 21
33.60022471900847
  0
LINE
  5
A0
100
AcDbEntity
  8
1
  6
CONTINUOUS
 62
             2
100
AcDbLine
 10
36.41478058925201
 20
27.95793594561177
 11
34.92299774619957
 21
27.80114325071039
  0
LINE
  5
9F
100
AcDbEntity
  8
1
  6
CONTINUOUS
 62
             2
100
AcDbLine
 10
35.32159867995495
 20
21.05585700997509
 11
33.95128049349107
 21
21.6659619745889
  0
LINE
  5
9E
100
AcDbEntity
  8
1
  6
CONTINUOUS
 62
             2
100
AcDbLine
 10
30.92383590772772
 20
15.62507226743682
 11
30.0421580292891
 21
16.83859775899934
  0
LINE
  5
9D
100
AcDbEntity
  8
1
  6
CONTINUOUS
 62
             2
100
AcDbLine
 10
9.50723628259339
 20
25.84026628221986
 11
11.00518058472504
 21
25.91877021658424
  0
LINE
  5
9C
100
AcDbEntity
  8
1
  6
CONTINUOUS
 62
             2
100
AcDbLine
 10
10.96014692523736
 20
32.67567343798355
 11
12.29665671151971
 21
31.99468768837429
  0
LINE
  5
9B
100
AcDbEntity
  8
1
  6
CONTINUOUS
 62
             2
100
AcDbLine
 10
15.63610802907771
 20
37.86885435876282
 11
16.45306658160008
 21
36.61084850684483
  0
LINE
  5
9A
100
AcDbEntity
  8
1
  6
CONTINUOUS
 62
             2
100
AcDbLine
 10
22.28219959250102
 20
40.02830041068609
 11
22.36070352686535
 21
38.53035610855444
  0
LINE
  5
99
100
AcDbEntity
  8
1
  6
CONTINUOUS
 62
             2
100
AcDbLine
 10
29.11760674826467
 20
38.57538976804197
 11
28.43662099865538
 21
37.23887998175964
  0
LINE
  5
98
100
AcDbEntity
  8
1
  6
CONTINUOUS
 62
             2
100
AcDbLine
 10
34.31078766904383
 20
33.89942866420151
 11
33.05278181712582
 21
33.08247011167916
  0
LINE
  5
97
100
AcDbEntity
  8
1
  6
CONTINUOUS
 62
             2
100
AcDbLine
 10
36.47023372096696
 20
27.25333710077814
 11
34.97228941883531
 21
27.17483316641384
  0
LINE
  5
96
100
AcDbEntity
  8
1
  6
CONTINUOUS
 62
             2
100
AcDbLine
 10
35.01732307832268
 20
20.41792994501452
 11
33.68081329204037
 21
21.09891569462385
  0
LINE
  5
95
100
AcDbEntity
  8
1
  6
CONTINUOUS
 62
             2
100
AcDbLine
 10
30.3413619744821
 20
15.22474902423547
 11
29.52440342195978
 21
16.48275487615349
  0
LINE
  5
94
100
AcDbEntity
  8
1
  6
DASH_CENTER
 62
             1
100
AcDbLine
 10
45.48873500178016
 20
26.54680169149931
 11
0.48873500178016
 21
26.54680169149931
  0
LINE
  5
93
100
AcDbEntity
  8
1
  6
DASH_CENTER
 62
             1
100
AcDbLine
 10
22.98873500178016
 20
49.04680169149931
 11
22.98873500178016
 21
4.04680169149931
  0
LINE
  5
92
100
AcDbEntity
  8
1
  6
CONTINUOUS
 62
             3
100
AcDbLine
 10
88.24729796360639
 20
38.29680169149931
 11
88.24729796360639
 21
14.79680169149931
  0
LINE
  5
91
100
AcDbEntity
  8
1
  6
CONTINUOUS
 62
             3
100
AcDbLine
 10
88.24729796360639
 20
38.29680169149931
 11
89.24729796360639
 21
38.29680169149931
  0
LINE
  5
90
100
AcDbEntity
  8
1
  6
CONTINUOUS
 62
             3
100
AcDbLine
 10
89.24729796360639
 20
38.29680169149931
 11
89.24729796360639
 21
14.79680169149931
  0
LINE
  5
8F
100
AcDbEntity
  8
1
  6
CONTINUOUS
 62
             3
100
AcDbLine
 10
89.24729796360639
 20
14.79680169149931
 11
88.24729796360639
 21
14.79680169149931
  0
LINE
  5
8E
100
AcDbEntity
  8
1
  6
CONTINUOUS
 62
             3
100
AcDbLine
 10
131.0788160236979
 20
38.29677866764698
 11
131.05555532724199
 21
38.29680169149931
  0
LINE
  5
8D
102
{ACAD_REACTORS
330
204
102
}
100
AcDbEntity
  8
1
  6
CONTINUOUS
 62
             3
100
AcDbLine
 10
131.05555532724199
 20
27.04680169149931
 11
131.05555532724199
 21
26.04680169149931
  0
LINE
  5
8C
102
{ACAD_REACTORS
330
204
102
}
100
AcDbEntity
  8
1
  6
CONTINUOUS
 62
             3
100
AcDbLine
 10
131.05555532724199
 20
26.04680169149931
 11
138.55555532724219
 21
26.04680169149931
  0
LINE
  5
8B
102
{ACAD_REACTORS
330
204
102
}
100
AcDbEntity
  8
1
  6
CONTINUOUS
 62
             3
100
AcDbLine
 10
138.55555532724219
 20
26.04680169149931
 11
138.55555532724219
 21
27.04680169149931
  0
LINE
  5
8A
102
{ACAD_REACTORS
330
204
102
}
100
AcDbEntity
  8
1
  6
CONTINUOUS
 62
             3
100
AcDbLine
 10
138.55555532724219
 20
27.04680169149931
 11
131.05555532724199
 21
27.04680169149931
  0
LINE
  5
89
102
{ACAD_REACTORS
330
203
102
}
100
AcDbEntity
  8
1
  6
CONTINUOUS
 62
             3
100
AcDbLine
 10
142.40555532724201
 20
27.04680169149931
 11
142.40555532724201
 21
26.04680169149931
  0
LINE
  5
88
102
{ACAD_REACTORS
330
203
102
}
100
AcDbEntity
  8
1
  6
CONTINUOUS
 62
             3
100
AcDbLine
 10
142.40555532724201
 20
26.04680169149931
 11
141.432180547635
 21
26.04680169149931
  0
LINE
  5
87
102
{ACAD_REACTORS
330
203
102
}
100
AcDbEntity
  8
1
  6
CONTINUOUS
 62
             3
100
AcDbLine
 10
141.432180547635
 20
27.04680169149931
 11
141.432180547635
 21
26.04680169149931
  0
LINE
  5
86
102
{ACAD_REACTORS
330
203
102
}
100
AcDbEntity
  8
1
  6
CONTINUOUS
 62
             3
100
AcDbLine
 10
141.432180547635
 20
27.04680169149931
 11
142.40555532724201
 21
27.04680169149931
  0
LINE
  5
85
100
AcDbEntity
  8
1
  6
CONTINUOUS
 62
             3
100
AcDbLine
 10
101.7472979636064
 20
35.76508775710586
 11
89.24729796360639
 21
36.29441363341153
  0
LINE
  5
84
100
AcDbEntity
  8
1
  6
CONTINUOUS
 62
             3
100
AcDbLine
 10
101.7472979636064
 20
17.33195438253872
 11
89.24729796360639
 21
16.80310104364666
  0
LINE
  5
83
100
AcDbEntity
  8
1
  6
CONTINUOUS
 62
             2
100
AcDbLine
 10
89.64729796360639
 20
30.87075325030978
 11
102.97146080193021
 21
30.44973345278729
  0
LINE
  5
82
100
AcDbEntity
  8
1
  6
CONTINUOUS
 62
             2
100
AcDbLine
 10
89.64729796360639
 20
22.22285013268854
 11
102.97146080193021
 21
22.64386993021136
  0
LINE
  5
81
100
AcDbEntity
  8
1
  6
DASH_CENTER
 62
             1
100
AcDbLine
 10
146.330555327242
 20
26.54680169149931
 11
115.56054332818699
 21
26.54680169149931
  0
LINE
  5
80
100
AcDbEntity
  8
1
  6
DASH_CENTER
 62
             1
100
AcDbLine
 10
131.05555532724199
 20
41.82180169149931
 11
131.05555532724199
 21
11.27180169149931
  0
LINE
  5
7F
100
AcDbEntity
  8
1
  6
CONTINUOUS
 62
             4
100
AcDbLine
 10
103.2833923594727
 20
25.3266426988248
 11
103.2833923594727
 21
27.8333413791433
  0
LINE
  5
7E
100
AcDbEntity
  8
1
  6
DASH_CENTER
 62
             1
100
AcDbLine
 10
86.48567319862099
 20
26.54680169149931
 11
104.6084138427459
 21
26.54680169149931
  0
LINE
  5
7D
100
AcDbEntity
  8
1
  6
CONTINUOUS
 62
             2
100
AcDbLine
 10
105.5425339794372
 20
-18.04139796548504
 11
118.62069537511969
 21
-18.04139796548504
  0
LINE
  5
7C
100
AcDbEntity
  8
1
  6
CONTINUOUS
 62
             2
100
AcDbLine
 10
31.1149485989477
 20
62.9425806681184
 11
112.57053742778371
 21
62.9425806681184
  0
LINE
  5
7B
100
AcDbEntity
  8
1
  6
CONTINUOUS
 62
             3
100
AcDbLine
 10
43.46666431378959
 20
114.893604447694
 11
32.46666431378959
 21
114.893604447694
  0
LINE
  5
7A
100
AcDbEntity
  8
1
  6
CONTINUOUS
 62
             3
100
AcDbLine
 10
32.46666431378959
 20
114.893604447694
 11
32.46666431378959
 21
90.893604447694
  0
LINE
  5
79
100
AcDbEntity
  8
1
  6
CONTINUOUS
 62
             3
100
AcDbLine
 10
32.46666431378959
 20
90.893604447694
 11
43.46666431378959
 21
90.893604447694
  0
LINE
  5
78
100
AcDbEntity
  8
1
  6
CONTINUOUS
 62
             3
100
AcDbLine
 10
43.46666431378959
 20
90.893604447694
 11
43.46666431378959
 21
114.893604447694
  0
LINE
  5
77
100
AcDbEntity
  8
1
  6
CONTINUOUS
 62
             3
100
AcDbLine
 10
52.76666431378959
 20
107.393604447694
 11
53.46666431378959
 21
106.693604447694
  0
LINE
  5
76
100
AcDbEntity
  8
1
  6
CONTINUOUS
 62
             3
100
AcDbLine
 10
52.76666431378959
 20
98.393604447694
 11
53.46666431378959
 21
99.09360444769401
  0
LINE
  5
75
100
AcDbEntity
  8
1
  6
CONTINUOUS
 62
             2
100
AcDbLine
 10
53.46666431378959
 20
99.09360444769401
 11
47.1666643137896
 21
99.09360444769401
  0
LINE
  5
74
100
AcDbEntity
  8
1
  6
CONTINUOUS
 62
             2
100
AcDbLine
 10
53.46666431378959
 20
106.693604447694
 11
47.1666643137896
 21
106.693604447694
  0
LINE
  5
73
100
AcDbEntity
  8
1
  6
CONTINUOUS
 62
             3
100
AcDbLine
 10
53.46666431378959
 20
106.693604447694
 11
53.46666431378959
 21
99.09360444769401
  0
LINE
  5
72
100
AcDbEntity
  8
1
  6
CONTINUOUS
 62
             3
100
AcDbLine
 10
52.76666431378959
 20
98.393604447694
 11
47.1666643137896
 21
98.393604447694
  0
LINE
  5
71
100
AcDbEntity
  8
1
  6
CONTINUOUS
 62
             2
100
AcDbLine
 10
52.76666431378959
 20
107.393604447694
 11
52.76666431378959
 21
98.393604447694
  0
LINE
  5
70
100
AcDbEntity
  8
1
  6
CONTINUOUS
 62
             2
100
AcDbLine
 10
43.46666431378959
 20
104.29360444769399
 11
45.96666431378959
 21
104.29360444769399
  0
LINE
  5
6F
100
AcDbEntity
  8
1
  6
CONTINUOUS
 62
             2
100
AcDbLine
 10
45.96666431378959
 20
104.29360444769399
 11
45.96666431378959
 21
101.493604447694
  0
LINE
  5
6E
100
AcDbEntity
  8
1
  6
CONTINUOUS
 62
             2
100
AcDbLine
 10
45.96666431378959
 20
101.493604447694
 11
43.46666431378959
 21
101.493604447694
  0
LINE
  5
6D
100
AcDbEntity
  8
1
  6
CONTINUOUS
 62
             2
100
AcDbLine
 10
89.84276891787701
 20
104.29360444769399
 11
89.34276891787701
 21
104.29360444769399
  0
LINE
  5
6C
100
AcDbEntity
  8
1
  6
CONTINUOUS
 62
             2
100
AcDbLine
 10
89.34276891787701
 20
104.29360444769399
 11
89.34276891787701
 21
101.493604447694
  0
LINE
  5
6B
100
AcDbEntity
  8
1
  6
CONTINUOUS
 62
             2
100
AcDbLine
 10
89.34276891787701
 20
101.493604447694
 11
89.84276891787701
 21
101.493604447694
  0
LINE
  5
6A
100
AcDbEntity
  8
1
  6
CONTINUOUS
 62
             2
100
AcDbLine
 10
89.84276891787701
 20
101.493604447694
 11
89.84276891787701
 21
104.29360444769399
  0
LINE
  5
69
100
AcDbEntity
  8
1
  6
CONTINUOUS
 62
             3
100
AcDbLine
 10
53.46666431378959
 20
105.893604447694
 11
63.46666431378959
 21
105.893604447694
  0
LINE
  5
68
100
AcDbEntity
  8
1
  6
CONTINUOUS
 62
             3
100
AcDbLine
 10
63.46666431378959
 20
105.893604447694
 11
63.46666431378959
 21
99.893604447694
  0
LINE
  5
67
100
AcDbEntity
  8
1
  6
CONTINUOUS
 62
             3
100
AcDbLine
 10
63.46666431378959
 20
99.893604447694
 11
53.46666431378959
 21
99.893604447694
  0
LINE
  5
66
100
AcDbEntity
  8
1
  6
DASH_CENTER
 62
             1
100
AcDbLine
 10
115.192768917877
 20
102.893604447694
 11
83.99276891787702
 21
102.893604447694
  0
LINE
  5
65
100
AcDbEntity
  8
1
  6
DASH_CENTER
 62
             1
100
AcDbLine
 10
99.59276891787701
 20
118.493604447694
 11
99.59276891787701
 21
81.98702251819331
  0
LINE
  5
64
100
AcDbEntity
  8
1
  6
DASH_CENTER
 62
             1
100
AcDbLine
 10
65.1060197204712
 20
102.893604447694
 11
30.60215253468439
 21
102.893604447694
  0
LINE
  5
63
100
AcDbEntity
  8
1
  6
CONTINUOUS
 62
             2
100
AcDbLine
 10
63.46666431378959
 20
103.393604447694
 11
61.8666643137896
 21
103.393604447694
  0
LINE
  5
62
100
AcDbEntity
  8
1
  6
CONTINUOUS
 62
             2
100
AcDbLine
 10
61.8666643137896
 20
103.393604447694
 11
61.8666643137896
 21
102.393604447694
  0
LINE
  5
61
100
AcDbEntity
  8
1
  6
CONTINUOUS
 62
             2
100
AcDbLine
 10
61.8666643137896
 20
102.393604447694
 11
63.46666431378959
 21
102.393604447694
  0
LINE
  5
60
100
AcDbEntity
  8
1
  6
CONTINUOUS
 62
             2
100
AcDbLine
 10
96.63472902632719
 20
103.393604447694
 11
102.5508088094268
 21
103.393604447694
  0
LINE
  5
5F
100
AcDbEntity
  8
1
  6
CONTINUOUS
 62
             2
100
AcDbLine
 10
102.5508088094268
 20
102.393604447694
 11
96.63472902632719
 21
102.393604447694
  0
LINE
  5
5E
100
AcDbEntity
  8
1
  6
CONTINUOUS
 62
             2
100
AcDbLine
 10
101.092768917877
 20
90.98772354790334
 11
101.092768917877
 21
93.99209992782465
  0
LINE
  5
5D
100
AcDbEntity
  8
1
  6
CONTINUOUS
 62
             2
100
AcDbLine
 10
106.844747473449
 20
93.33280913404336
 11
105.3425592834883
 21
95.93467540158513
  0
LINE
  5
5C
100
AcDbEntity
  8
1
  6
CONTINUOUS
 62
             2
100
AcDbLine
 10
94.93886657365832
 20
91.83280913404337
 11
96.44105476361898
 21
94.43467540158514
  0
LINE
  5
5B
100
AcDbEntity
  8
1
  6
CONTINUOUS
 62
             2
100
AcDbLine
 10
41.46666431378959
 20
83.39360444769399
 11
41.96666431378959
 21
83.39360444769399
  0
LINE
  5
5A
100
AcDbEntity
  8
1
  6
DASH_CENTER
 62
             1
100
AcDbLine
 10
89.59276891787701
 20
104.818077382585
 11
89.59276891787701
 21
100.883871908423
  0
LINE
  5
59
100
AcDbEntity
  8
1
  6
CONTINUOUS
 62
             2
100
AcDbLine
 10
93.43674106360638
 20
27.95072742472484
 11
92.62618416360638
 21
26.54680169149931
  0
LINE
  5
58
100
AcDbEntity
  8
1
  6
CONTINUOUS
 62
             2
100
AcDbLine
 10
92.62618416360638
 20
26.54680169149931
 11
93.43674106360638
 21
25.14287595827378
  0
LINE
  5
57
100
AcDbEntity
  8
1
  6
CONTINUOUS
 62
             2
100
AcDbLine
 10
93.43674106360638
 20
25.14287595827378
 11
95.05785486360639
 21
25.14287595827378
  0
LINE
  5
56
100
AcDbEntity
  8
1
  6
CONTINUOUS
 62
             2
100
AcDbLine
 10
95.05785486360639
 20
25.14287595827378
 11
95.86841176360639
 21
26.54680169149931
  0
LINE
  5
55
100
AcDbEntity
  8
1
  6
CONTINUOUS
 62
             2
100
AcDbLine
 10
95.86841176360639
 20
26.54680169149931
 11
95.05785486360639
 21
27.95072742472484
  0
LINE
  5
54
100
AcDbEntity
  8
1
  6
CONTINUOUS
 62
             2
100
AcDbLine
 10
95.05785486360639
 20
27.95072742472484
 11
93.43674106360638
 21
27.95072742472484
  0
LINE
  5
53
100
AcDbEntity
  8
1
  6
CONTINUOUS
 62
             2
100
AcDbLine
 10
43.46666431378959
 20
109.893604447694
 11
44.0666643137896
 21
109.893604447694
  0
LINE
  5
52
100
AcDbEntity
  8
1
  6
CONTINUOUS
 62
             2
100
AcDbLine
 10
44.0666643137896
 20
95.893604447694
 11
44.0666643137896
 21
101.493604447694
  0
LINE
  5
51
100
AcDbEntity
  8
1
  6
CONTINUOUS
 62
             2
100
AcDbLine
 10
44.0666643137896
 20
104.29360444769399
 11
44.0666643137896
 21
109.893604447694
  0
LINE
  5
50
100
AcDbEntity
  8
1
  6
CONTINUOUS
 62
             2
100
AcDbLine
 10
44.6666643137896
 20
101.493604447694
 11
44.6666643137896
 21
96.143604447694
  0
LINE
  5
4F
100
AcDbEntity
  8
1
  6
CONTINUOUS
 62
             2
100
AcDbLine
 10
99.59276891787701
 20
109.643604447694
 11
93.74709744233203
 21
106.268604447694
  0
LINE
  5
4E
100
AcDbEntity
  8
1
  6
CONTINUOUS
 62
             2
100
AcDbLine
 10
93.74709744233203
 20
106.268604447694
 11
93.74709744233203
 21
99.518604447694
  0
LINE
  5
4D
100
AcDbEntity
  8
1
  6
CONTINUOUS
 62
             2
100
AcDbLine
 10
93.74709744233203
 20
99.518604447694
 11
99.59276891787698
 21
96.143604447694
  0
LINE
  5
4C
100
AcDbEntity
  8
1
  6
CONTINUOUS
 62
             2
100
AcDbLine
 10
99.59276891787698
 20
96.143604447694
 11
105.438440393422
 21
99.518604447694
  0
LINE
  5
4B
100
AcDbEntity
  8
1
  6
CONTINUOUS
 62
             2
100
AcDbLine
 10
105.438440393422
 20
99.518604447694
 11
105.438440393422
 21
106.268604447694
  0
LINE
  5
4A
100
AcDbEntity
  8
1
  6
CONTINUOUS
 62
             2
100
AcDbLine
 10
105.438440393422
 20
106.268604447694
 11
99.59276891787701
 21
109.643604447694
  0
LINE
  5
49
100
AcDbEntity
  8
1
  6
CONTINUOUS
 62
             2
100
AcDbLine
 10
44.6666643137896
 20
96.493604447694
 11
44.0666643137896
 21
96.493604447694
  0
LINE
  5
48
100
AcDbEntity
  8
1
  6
CONTINUOUS
 62
             2
100
AcDbLine
 10
44.6666643137896
 20
109.29360444769399
 11
44.0666643137896
 21
109.29360444769399
  0
LINE
  5
47
100
AcDbEntity
  8
1
  6
CONTINUOUS
 62
             2
100
AcDbLine
 10
44.6666643137896
 20
109.643604447694
 11
44.6666643137896
 21
104.29360444769399
  0
LINE
  5
46
100
AcDbEntity
  8
1
  6
CONTINUOUS
 62
             2
100
AcDbLine
 10
44.0666643137896
 20
95.893604447694
 11
43.46666431378959
 21
95.893604447694
  0
LINE
  5
45
100
AcDbEntity
  8
1
  6
CONTINUOUS
 62
             2
100
AcDbLine
 10
47.1666643137896
 20
106.268604447694
 11
44.6666643137896
 21
106.268604447694
  0
LINE
  5
44
100
AcDbEntity
  8
1
  6
CONTINUOUS
 62
             2
100
AcDbLine
 10
44.6666643137896
 20
99.518604447694
 11
47.1666643137896
 21
99.518604447694
  0
LINE
  5
43
100
AcDbEntity
  8
1
  6
CONTINUOUS
 62
             3
100
AcDbLine
 10
47.1666643137896
 20
107.393604447694
 11
52.76666431378959
 21
107.393604447694
  0
LINE
  5
42
100
AcDbEntity
  8
1
  6
CONTINUOUS
 62
             2
100
AcDbLine
 10
102.744483072135
 20
94.43467540158513
 11
104.2466712620957
 21
91.83280913404339
  0
LINE
  5
41
100
AcDbEntity
  8
1
  6
CONTINUOUS
 62
             2
100
AcDbLine
 10
98.09276891787701
 20
93.99209992782465
 11
98.09276891787701
 21
90.98772354790334
  0
LINE
  5
40
100
AcDbEntity
  8
1
  6
CONTINUOUS
 62
             2
100
AcDbLine
 10
93.84297855226566
 20
95.93467540158514
 11
92.340790362305
 21
93.33280913404337
  0
LINE
  5
3F
100
AcDbEntity
  8
1
  6
CONTINUOUS
 62
             2
100
AcDbLine
 10
46.84970690703608
 20
109.643604447694
 11
44.6666643137896
 21
109.643604447694
  0
LINE
  5
3E
100
AcDbEntity
  8
1
  6
CONTINUOUS
 62
             2
100
AcDbLine
 10
47.1666643137896
 20
108.885008480387
 11
47.1666643137896
 21
96.9397170735017
  0
LINE
  5
3D
100
AcDbEntity
  8
1
  6
CONTINUOUS
 62
             2
100
AcDbLine
 10
46.84970690703608
 20
96.14360444769403
 11
44.6666643137896
 21
96.143604447694
  0
INSERT
  5
29
100
AcDbEntity
  8
0
100
AcDbBlockReference
  2
_Z_P___T________________M4
 10
118.00555532724201
 20
26.54680169149931
  0
SOLID
  5
147
100
AcDbEntity
  8
1
 62
             2
100
AcDbTrace
 10
49.84192156491287
 20
95.30907571461634
 11
49.01120437570342
 21
95.16820967432247
 12
48.8915710678554
 22
98.393604447694
 13
48.8915710678554
 23
98.393604447694
  0
SOLID
  5
149
100
AcDbEntity
  8
1
 62
             2
100
AcDbTrace
 10
96.23990359407635
 20
21.71886543502514
 11
95.4190123398099
 21
21.52893955889191
 12
95.10814283956717
 22
24.74154655730579
 13
95.10814283956717
 23
24.74154655730579
  0
INSERT
  5
1E9
100
AcDbEntity
  8
0
100
AcDbBlockReference
  2
*D13
 10
0.0
 20
0.0
  0
INSERT
  5
1F2
100
AcDbEntity
  8
0
100
AcDbBlockReference
  2
*D14
 10
0.0
 20
0.0
  0
INSERT
  5
1FB
100
AcDbEntity
  8
0
100
AcDbBlockReference
  2
*D15
 10
0.0
 20
0.0
  0
INSERT
  5
202
100
AcDbEntity
  8
0
100
AcDbBlockReference
  2
*D16
 10
0.0
 20
0.0
  0
ENDSEC
  0
SECTION
  2
OBJECTS
  0
DICTIONARY
  5
19
100
AcDbDictionary
  3
ACAD_GROUP
350
1A
  3
ACAD_MLINESTYLE
350
1B
  0
DICTIONARY
  5
1A
102
{ACAD_REACTORS
330
19
102
}
100
AcDbDictionary
  0
DICTIONARY
  5
1B
102
{ACAD_REACTORS
330
19
102
}
100
AcDbDictionary
  3
STANDARD
350
1C
  0
MLINESTYLE
  5
1C
102
{ACAD_REACTORS
330
1B
102
}
100
AcDbMlineStyle
  2
STANDARD
 70
             0
  3

 62
             0
 51
90.0
 52
90.0
 71
             2
 49
0.5
 62
           256
  6
BYLAYER
 49
-0.5
 62
           256
  6
BYLAYER
  0
ENDSEC
  0
EOF
