  0
SECTION
  2
HEADER
  9
$ACADVER
  1
AC1015
  9
$ACADMAINTVER
 70
     6
  9
$DWGCODEPAGE
  3
ANSI_932
  9
$INSBASE
 10
0.0
 20
0.0
 30
0.0
  9
$EXTMIN
 10
569.345819961899
 20
-91.02430955493314
 30
0.0
  9
$EXTMAX
 10
754.272934545133
 20
20.34764378392944
 30
0.0
  9
$LIMMIN
 10
0.0
 20
0.0
  9
$LIMMAX
 10
12.0
 20
9.0
  9
$ORTHOMODE
 70
     0
  9
$REGENMODE
 70
     1
  9
$FILLMODE
 70
     1
  9
$QTEXTMODE
 70
     0
  9
$MIRRTEXT
 70
     1
  9
$LTSCALE
 40
1.0
  9
$ATTMODE
 70
     1
  9
$TEXTSIZE
 40
0.2
  9
$TRACEWID
 40
0.05
  9
$TEXTSTYLE
  7
Standard
  9
$CLAYER
  8
0
  9
$CELTYPE
  6
ByLayer
  9
$CECOLOR
 62
   256
  9
$CELTSCALE
 40
1.0
  9
$DISPSILH
 70
     0
  9
$DIMSCALE
 40
1.0
  9
$DIMASZ
 40
0.18
  9
$DIMEXO
 40
0.0625
  9
$DIMDLI
 40
0.38
  9
$DIMRND
 40
0.0
  9
$DIMDLE
 40
0.0
  9
$DIMEXE
 40
0.18
  9
$DIMTP
 40
0.0
  9
$DIMTM
 40
0.0
  9
$DIMTXT
 40
0.18
  9
$DIMCEN
 40
0.09
  9
$DIMTSZ
 40
0.0
  9
$DIMTOL
 70
     0
  9
$DIMLIM
 70
     0
  9
$DIMTIH
 70
     1
  9
$DIMTOH
 70
     1
  9
$DIMSE1
 70
     0
  9
$DIMSE2
 70
     0
  9
$DIMTAD
 70
     0
  9
$DIMZIN
 70
     0
  9
$DIMBLK
  1

  9
$DIMASO
 70
     1
  9
$DIMSHO
 70
     1
  9
$DIMPOST
  1

  9
$DIMAPOST
  1

  9
$DIMALT
 70
     0
  9
$DIMALTD
 70
     2
  9
$DIMALTF
 40
25.4
  9
$DIMLFAC
 40
1.0
  9
$DIMTOFL
 70
     0
  9
$DIMTVP
 40
0.0
  9
$DIMTIX
 70
     0
  9
$DIMSOXD
 70
     0
  9
$DIMSAH
 70
     0
  9
$DIMBLK1
  1

  9
$DIMBLK2
  1

  9
$DIMSTYLE
  2
Standard
  9
$DIMCLRD
 70
     0
  9
$DIMCLRE
 70
     0
  9
$DIMCLRT
 70
     0
  9
$DIMTFAC
 40
1.0
  9
$DIMGAP
 40
0.09
  9
$DIMJUST
 70
     0
  9
$DIMSD1
 70
     0
  9
$DIMSD2
 70
     0
  9
$DIMTOLJ
 70
     1
  9
$DIMTZIN
 70
     0
  9
$DIMALTZ
 70
     0
  9
$DIMALTTZ
 70
     0
  9
$DIMUPT
 70
     0
  9
$DIMDEC
 70
     4
  9
$DIMTDEC
 70
     4
  9
$DIMALTU
 70
     2
  9
$DIMALTTD
 70
     2
  9
$DIMTXSTY
  7
Standard
  9
$DIMAUNIT
 70
     0
  9
$DIMADEC
 70
     0
  9
$DIMALTRND
 40
0.0
  9
$DIMAZIN
 70
     0
  9
$DIMDSEP
 70
    46
  9
$DIMATFIT
 70
     3
  9
$DIMFRAC
 70
     0
  9
$DIMLDRBLK
  1

  9
$DIMLUNIT
 70
     2
  9
$DIMLWD
 70
    -2
  9
$DIMLWE
 70
    -2
  9
$DIMTMOVE
 70
     0
  9
$LUNITS
 70
     2
  9
$LUPREC
 70
     4
  9
$SKETCHINC
 40
0.1
  9
$FILLETRAD
 40
0.5
  9
$AUNITS
 70
     0
  9
$AUPREC
 70
     0
  9
$MENU
  1
.
  9
$ELEVATION
 40
0.0
  9
$PELEVATION
 40
0.0
  9
$THICKNESS
 40
0.0
  9
$LIMCHECK
 70
     0
  9
$CHAMFERA
 40
0.5
  9
$CHAMFERB
 40
0.5
  9
$CHAMFERC
 40
1.0
  9
$CHAMFERD
 40
0.0
  9
$SKPOLY
 70
     0
  9
$TDCREATE
 40
2457743.433009491
  9
$TDUCREATE
 40
2457743.058009491
  9
$TDUPDATE
 40
2457743.43301022
  9
$TDUUPDATE
 40
2457743.05801022
  9
$TDINDWG
 40
0.0000000116
  9
$TDUSRTIMER
 40
0.0000000116
  9
$USRTIMER
 70
     1
  9
$ANGBASE
 50
0.0
  9
$ANGDIR
 70
     0
  9
$PDMODE
 70
     0
  9
$PDSIZE
 40
0.0
  9
$PLINEWID
 40
0.0
  9
$SPLFRAME
 70
     0
  9
$SPLINETYPE
 70
     6
  9
$SPLINESEGS
 70
     8
  9
$HANDSEED
  5
294
  9
$SURFTAB1
 70
     6
  9
$SURFTAB2
 70
     6
  9
$SURFTYPE
 70
     6
  9
$SURFU
 70
     6
  9
$SURFV
 70
     6
  9
$UCSBASE
  2

  9
$UCSNAME
  2

  9
$UCSORG
 10
0.0
 20
0.0
 30
0.0
  9
$UCSXDIR
 10
1.0
 20
0.0
 30
0.0
  9
$UCSYDIR
 10
0.0
 20
1.0
 30
0.0
  9
$UCSORTHOREF
  2

  9
$UCSORTHOVIEW
 70
     0
  9
$UCSORGTOP
 10
0.0
 20
0.0
 30
0.0
  9
$UCSORGBOTTOM
 10
0.0
 20
0.0
 30
0.0
  9
$UCSORGLEFT
 10
0.0
 20
0.0
 30
0.0
  9
$UCSORGRIGHT
 10
0.0
 20
0.0
 30
0.0
  9
$UCSORGFRONT
 10
0.0
 20
0.0
 30
0.0
  9
$UCSORGBACK
 10
0.0
 20
0.0
 30
0.0
  9
$PUCSBASE
  2

  9
$PUCSNAME
  2

  9
$PUCSORG
 10
0.0
 20
0.0
 30
0.0
  9
$PUCSXDIR
 10
1.0
 20
0.0
 30
0.0
  9
$PUCSYDIR
 10
0.0
 20
1.0
 30
0.0
  9
$PUCSORTHOREF
  2

  9
$PUCSORTHOVIEW
 70
     0
  9
$PUCSORGTOP
 10
0.0
 20
0.0
 30
0.0
  9
$PUCSORGBOTTOM
 10
0.0
 20
0.0
 30
0.0
  9
$PUCSORGLEFT
 10
0.0
 20
0.0
 30
0.0
  9
$PUCSORGRIGHT
 10
0.0
 20
0.0
 30
0.0
  9
$PUCSORGFRONT
 10
0.0
 20
0.0
 30
0.0
  9
$PUCSORGBACK
 10
0.0
 20
0.0
 30
0.0
  9
$USERI1
 70
     0
  9
$USERI2
 70
     0
  9
$USERI3
 70
     0
  9
$USERI4
 70
     0
  9
$USERI5
 70
     0
  9
$USERR1
 40
18.1
  9
$USERR2
 40
0.0
  9
$USERR3
 40
0.0
  9
$USERR4
 40
0.0
  9
$USERR5
 40
0.0
  9
$WORLDVIEW
 70
     1
  9
$SHADEDGE
 70
     3
  9
$SHADEDIF
 70
    70
  9
$TILEMODE
 70
     1
  9
$MAXACTVP
 70
    64
  9
$PINSBASE
 10
0.0
 20
0.0
 30
0.0
  9
$PLIMCHECK
 70
     0
  9
$PEXTMIN
 10
1.00000000000000E+20
 20
1.00000000000000E+20
 30
1.00000000000000E+20
  9
$PEXTMAX
 10
-1.00000000000000E+20
 20
-1.00000000000000E+20
 30
-1.00000000000000E+20
  9
$PLIMMIN
 10
0.0
 20
0.0
  9
$PLIMMAX
 10
12.0
 20
9.0
  9
$UNITMODE
 70
     0
  9
$VISRETAIN
 70
     1
  9
$PLINEGEN
 70
     0
  9
$PSLTSCALE
 70
     1
  9
$TREEDEPTH
 70
  3020
  9
$CMLSTYLE
  2
Standard
  9
$CMLJUST
 70
     0
  9
$CMLSCALE
 40
1.0
  9
$PROXYGRAPHICS
 70
     1
  9
$MEASUREMENT
 70
     1
  9
$CELWEIGHT
370
    -1
  9
$ENDCAPS
280
     0
  9
$JOINSTYLE
280
     0
  9
$LWDISPLAY
290
     0
  9
$INSUNITS
 70
     4
  9
$HYPERLINKBASE
  1

  9
$STYLESHEET
  1

  9
$XEDIT
290
     1
  9
$CEPSNTYPE
380
     0
  9
$PSTYLEMODE
290
     1
  9
$FINGERPRINTGUID
  2
{901C3BA9-4AE3-4F2A-90BF-09A552BDACA0}
  9
$VERSIONGUID
  2
{FAEB1C32-E019-11D5-929B-00C0DF256EC4}
  9
$EXTNAMES
290
     1
  9
$PSVPSCALE
 40
0.0
  9
$OLESTARTUP
290
     0
  0
ENDSEC
  0
SECTION
  2
CLASSES
  0
CLASS
  1
ACDBDICTIONARYWDFLT
  2
AcDbDictionaryWithDefault
  3
ObjectDBX Classes
 90
        0
280
     0
281
     0
  0
CLASS
  1
VISUALSTYLE
  2
AcDbVisualStyle
  3
ObjectDBX Classes
 90
     4095
280
     0
281
     0
  0
CLASS
  1
MATERIAL
  2
AcDbMaterial
  3
ObjectDBX Classes
 90
     1153
280
     0
281
     0
  0
CLASS
  1
DICTIONARYVAR
  2
AcDbDictionaryVar
  3
ObjectDBX Classes
 90
        0
280
     0
281
     0
  0
CLASS
  1
ACDBPLACEHOLDER
  2
AcDbPlaceHolder
  3
ObjectDBX Classes
 90
        0
280
     0
281
     0
  0
CLASS
  1
LAYOUT
  2
AcDbLayout
  3
ObjectDBX Classes
 90
        0
280
     0
281
     0
  0
ENDSEC
  0
SECTION
  2
TABLES
  0
TABLE
  2
VPORT
  5
8
330
0
100
AcDbSymbolTable
 70
     1
  0
VPORT
  5
29
330
8
100
AcDbSymbolTableRecord
100
AcDbViewportTableRecord
  2
*Active
 70
     0
 10
0.0
 20
0.0
 11
1.0
 21
1.0
 12
661.809377253516
 22
-35.33833288550185
 13
0.0
 23
0.0
 14
0.5
 24
0.5
 15
0.5
 25
0.5
 16
0.0
 26
0.0
 36
1.0
 17
0.0
 27
0.0
 37
0.0
 40
126.9249053852615
 41
1.60267857142857
 42
50.0
 43
0.0
 44
0.0
 50
0.0
 51
0.0
 71
     0
 72
   100
 73
     1
 74
     3
 75
     0
 76
     0
 77
     0
 78
     0
281
     0
 65
     1
110
0.0
120
0.0
130
0.0
111
1.0
121
0.0
131
0.0
112
0.0
122
1.0
132
0.0
 79
     0
146
0.0
  0
ENDTAB
  0
TABLE
  2
LTYPE
  5
5
330
0
100
AcDbSymbolTable
 70
     8
  0
LTYPE
  5
14
330
5
100
AcDbSymbolTableRecord
100
AcDbLinetypeTableRecord
  2
ByBlock
 70
     0
  3

 72
    65
 73
     0
 40
0.0
  0
LTYPE
  5
15
330
5
100
AcDbSymbolTableRecord
100
AcDbLinetypeTableRecord
  2
ByLayer
 70
     0
  3

 72
    65
 73
     0
 40
0.0
  0
LTYPE
  5
16
330
5
100
AcDbSymbolTableRecord
100
AcDbLinetypeTableRecord
  2
Continuous
 70
     0
  3
Solid line
 72
    65
 73
     0
 40
0.0
  0
LTYPE
  5
3F
330
5
100
AcDbSymbolTableRecord
100
AcDbLinetypeTableRecord
  2
DASHED
 70
     0
  3
Dashed
 72
    65
 73
     2
 40
15.0
 49
7.0
 74
     0
 49
-8.0
 74
     0
  0
LTYPE
  5
40
330
5
100
AcDbSymbolTableRecord
100
AcDbLinetypeTableRecord
  2
DOTTED
 70
     0
  3
Dotted
 72
    65
 73
     2
 40
1.0
 49
0.0
 74
     0
 49
-1.0
 74
     0
  0
LTYPE
  5
41
330
5
100
AcDbSymbolTableRecord
100
AcDbLinetypeTableRecord
  2
DOT_CENTER
 70
     0
  3
Dot_Center
 72
    65
 73
     4
 40
14.0
 49
12.0
 74
     0
 49
-1.0
 74
     0
 49
0.0
 74
     0
 49
-1.0
 74
     0
  0
LTYPE
  5
42
330
5
100
AcDbSymbolTableRecord
100
AcDbLinetypeTableRecord
  2
LONG_DASHED
 70
     0
  3
Long_Dashed
 72
    65
 73
     2
 40
15.0
 49
10.0
 74
     0
 49
-5.0
 74
     0
  0
LTYPE
  5
43
330
5
100
AcDbSymbolTableRecord
100
AcDbLinetypeTableRecord
  2
DASH_CENTER
 70
     0
  3
Dash_Center
 72
    65
 73
     4
 40
14.0
 49
11.0
 74
     0
 49
-1.0
 74
     0
 49
1.0
 74
     0
 49
-1.0
 74
     0
  0
LTYPE
  5
44
330
5
100
AcDbSymbolTableRecord
100
AcDbLinetypeTableRecord
  2
PHANTOM
 70
     0
  3
Phantom
 72
    65
 73
     6
 40
13.0
 49
10.0
 74
     0
 49
-1.0
 74
     0
 49
0.0
 74
     0
 49
-1.0
 74
     0
 49
0.0
 74
     0
 49
-1.0
 74
     0
  0
LTYPE
  5
45
330
5
100
AcDbSymbolTableRecord
100
AcDbLinetypeTableRecord
  2
CENTER_DASH_DASH
 70
     0
  3
Center_Dash_Dash
 72
    65
 73
     6
 40
14.0
 49
9.0
 74
     0
 49
-1.0
 74
     0
 49
1.0
 74
     0
 49
-1.0
 74
     0
 49
1.0
 74
     0
 49
-1.0
 74
     0
  0
ENDTAB
  0
TABLE
  2
LAYER
  5
2
330
0
100
AcDbSymbolTable
 70
     5
  0
LAYER
  5
10
330
2
100
AcDbSymbolTableRecord
100
AcDbLayerTableRecord
  2
0
 70
     0
 62
     7
  6
Continuous
370
    -3
390
F
  0
LAYER
  5
46
330
2
100
AcDbSymbolTableRecord
100
AcDbLayerTableRecord
  2
1
 70
     0
 62
     7
  6
Continuous
370
    -3
390
F
  0
LAYER
  5
47
330
2
100
AcDbSymbolTableRecord
100
AcDbLayerTableRecord
  2
11
 70
     0
 62
     7
  6
Continuous
370
    -3
390
F
  0
LAYER
  5
48
330
2
100
AcDbSymbolTableRecord
100
AcDbLayerTableRecord
  2
2
 70
     0
 62
     7
  6
Continuous
370
    -3
390
F
  0
LAYER
  5
49
330
2
100
AcDbSymbolTableRecord
100
AcDbLayerTableRecord
  2
4
 70
     0
 62
     7
  6
Continuous
370
    -3
390
F
  0
ENDTAB
  0
TABLE
  2
STYLE
  5
3
330
0
100
AcDbSymbolTable
 70
     6
  0
STYLE
  5
11
330
3
100
AcDbSymbolTableRecord
100
AcDbTextStyleTableRecord
  2
Standard
 70
     0
 40
0.0
 41
1.0
 50
0.0
 71
     0
 42
0.2
  3
txt
  4

  0
STYLE
  5
1DF
330
3
100
AcDbSymbolTableRecord
100
AcDbTextStyleTableRecord
  2
CONVERTER_11
 70
     0
 40
0.0
 41
0.856
 50
0.0
 71
     0
 42
0.2
  3
txt.shx
  4

  0
STYLE
  5
1E4
330
3
100
AcDbSymbolTableRecord
100
AcDbTextStyleTableRecord
  2
CONVERTER_12
 70
     0
 40
0.0
 41
1.07
 50
0.0
 71
     0
 42
0.2
  3
txt.shx
  4

  0
STYLE
  5
1E6
330
3
100
AcDbSymbolTableRecord
100
AcDbTextStyleTableRecord
  2
CONVERTER_13
 70
     0
 40
0.0
 41
0.72
 50
0.0
 71
     0
 42
0.2
  3
txt.shx
  4

  0
STYLE
  5
1EA
330
3
100
AcDbSymbolTableRecord
100
AcDbTextStyleTableRecord
  2
CONVERTER_14
 70
     0
 40
0.0
 41
0.54
 50
0.0
 71
     0
 42
0.2
  3
txt.shx
  4

  0
STYLE
  5
1EC
330
3
100
AcDbSymbolTableRecord
100
AcDbTextStyleTableRecord
  2
CONVERTER_15
 70
     0
 40
0.0
 41
0.9
 50
0.0
 71
     0
 42
0.2
  3
txt.shx
  4

  0
ENDTAB
  0
TABLE
  2
VIEW
  5
6
330
0
100
AcDbSymbolTable
 70
     0
  0
ENDTAB
  0
TABLE
  2
UCS
  5
7
330
0
100
AcDbSymbolTable
 70
     0
  0
ENDTAB
  0
TABLE
  2
APPID
  5
9
330
0
100
AcDbSymbolTable
 70
     1
  0
APPID
  5
12
330
9
100
AcDbSymbolTableRecord
100
AcDbRegAppTableRecord
  2
ACAD
 70
     0
  0
ENDTAB
  0
TABLE
  2
DIMSTYLE
  5
A
330
0
100
AcDbSymbolTable
 70
    12
100
AcDbDimStyleTable
  0
DIMSTYLE
105
27
330
A
100
AcDbSymbolTableRecord
100
AcDbDimStyleTableRecord
  2
Standard
 70
     0
178
     0
340
11
  0
DIMSTYLE
105
1F7
102
{ACAD_REACTORS
330
1F8
102
}
330
A
100
AcDbSymbolTableRecord
100
AcDbDimStyleTableRecord
  2
ME10_DIM_10
 70
     0
 41
3.2
 42
1.0
 44
1.0
 73
     0
 74
     0
 77
     1
 78
    12
140
3.2
147
1.6
172
     1
173
     1
174
     1
175
     1
176
     2
177
     2
271
     2
178
     2
271
     2
340
1EC
  0
DIMSTYLE
105
202
102
{ACAD_REACTORS
330
203
102
}
330
A
100
AcDbSymbolTableRecord
100
AcDbDimStyleTableRecord
  2
ME10_DIM_11
 70
     0
 41
3.2
 42
1.0
 44
1.5
 73
     0
 74
     0
 77
     1
 78
    12
140
3.2
147
2.0
172
     1
173
     1
174
     1
175
     1
176
     2
177
     2
178
     2
340
1EC
  0
DIMSTYLE
105
20D
102
{ACAD_REACTORS
330
20E
102
}
330
A
100
AcDbSymbolTableRecord
100
AcDbDimStyleTableRecord
  2
ME10_DIM_12
 70
     0
 41
3.2
 42
1.0
 44
1.5
 47
0.2
 48
0.2
 71
     1
 73
     0
 74
     0
 77
     1
 78
    12
140
3.2
146
0.6
147
2.0
172
     1
173
     1
174
     1
175
     1
176
     2
177
     2
178
     2
272
     1
340
1EC
  0
DIMSTYLE
105
218
102
{ACAD_REACTORS
330
219
102
}
330
A
100
AcDbSymbolTableRecord
100
AcDbDimStyleTableRecord
  2
ME10_DIM_13
 70
     0
 41
3.2
 42
1.0
 44
1.5
 47
0.2
 48
0.2
 71
     1
 73
     0
 74
     0
 77
     1
 78
    12
140
3.2
146
0.6
147
2.0
172
     1
173
     1
174
     1
175
     1
176
     2
177
     2
178
     2
272
     1
340
1EC
  0
DIMSTYLE
105
223
102
{ACAD_REACTORS
330
224
102
}
330
A
100
AcDbSymbolTableRecord
100
AcDbDimStyleTableRecord
  2
ME10_DIM_14
 70
     0
 41
3.2
 42
1.0
 44
1.5
 48
0.011
 71
     1
 73
     0
 74
     0
 77
     1
 78
    12
140
3.2
146
0.6
147
2.0
172
     1
173
     1
174
     1
175
     1
176
     2
177
     2
178
     2
272
     0
340
1EC
  0
DIMSTYLE
105
22E
102
{ACAD_REACTORS
330
22F
102
}
330
A
100
AcDbSymbolTableRecord
100
AcDbDimStyleTableRecord
  2
ME10_DIM_15
 70
     0
 41
3.2
 42
1.0
 44
1.5
 48
0.05
 71
     1
 73
     0
 74
     0
 77
     1
 78
    12
140
3.2
146
0.6
147
2.0
172
     1
173
     1
174
     1
175
     1
176
     2
177
     2
178
     2
272
     0
340
1EC
  0
DIMSTYLE
105
239
102
{ACAD_REACTORS
330
23A
102
}
330
A
100
AcDbSymbolTableRecord
100
AcDbDimStyleTableRecord
  2
ME10_DIM_16
 70
     0
 41
3.2
 42
1.0
 44
1.5
 47
0.2
 48
0.2
 71
     1
 73
     0
 74
     0
 77
     1
 78
    12
140
3.2
146
0.6
147
2.0
172
     1
173
     1
174
     1
175
     1
176
     2
177
     2
178
     2
272
     1
340
1EC
  0
DIMSTYLE
105
244
102
{ACAD_REACTORS
330
245
102
}
330
A
100
AcDbSymbolTableRecord
100
AcDbDimStyleTableRecord
  2
ME10_DIM_17
 70
     0
 41
3.2
 42
1.0
 44
1.5
 73
     0
 74
     0
 77
     1
 78
    12
140
3.2
147
2.0
172
     1
173
     1
174
     1
175
     1
176
     2
177
     2
178
     2
340
1EC
  0
DIMSTYLE
105
24F
102
{ACAD_REACTORS
330
250
102
}
330
A
100
AcDbSymbolTableRecord
100
AcDbDimStyleTableRecord
  2
ME10_DIM_18
 70
     0
 41
3.2
 42
1.0
 44
1.5
 73
     0
 74
     0
 77
     1
 78
    12
140
3.2
147
2.0
172
     1
173
     1
174
     1
175
     1
176
     2
177
     2
178
     2
340
1EC
  0
DIMSTYLE
105
25A
102
{ACAD_REACTORS
330
25B
102
}
330
A
100
AcDbSymbolTableRecord
100
AcDbDimStyleTableRecord
  2
ME10_DIM_19
 70
     0
 41
3.2
 42
1.0
 44
1.5
 73
     0
 74
     0
 77
     1
 78
    12
140
3.2
147
2.0
172
     1
173
     1
174
     1
175
     1
176
     2
177
     2
178
     2
340
1EC
  0
DIMSTYLE
105
265
102
{ACAD_REACTORS
330
266
102
}
330
A
100
AcDbSymbolTableRecord
100
AcDbDimStyleTableRecord
  2
ME10_DIM_20
 70
     0
 41
3.2
 42
1.0
 44
1.5
 47
0.5
 48
0.5
 71
     1
 73
     0
 74
     0
 77
     1
 78
    12
140
3.2
146
0.6
147
2.0
172
     1
173
     1
174
     1
175
     1
176
     2
177
     2
178
     2
272
     1
340
1EC
  0
ENDTAB
  0
TABLE
  2
BLOCK_RECORD
  5
1
330
0
100
AcDbSymbolTable
 70
    12
  0
BLOCK_RECORD
  5
1F
330
1
100
AcDbSymbolTableRecord
100
AcDbBlockTableRecord
  2
*Model_Space
340
22
  0
BLOCK_RECORD
  5
1B
330
1
100
AcDbSymbolTableRecord
100
AcDbBlockTableRecord
  2
*Paper_Space
340
1E
  0
BLOCK_RECORD
  5
23
330
1
100
AcDbSymbolTableRecord
100
AcDbBlockTableRecord
  2
*Paper_Space0
340
26
  0
BLOCK_RECORD
  5
1EE
330
1
100
AcDbSymbolTableRecord
100
AcDbBlockTableRecord
  2
*D1
340
0
  0
BLOCK_RECORD
  5
1F9
330
1
100
AcDbSymbolTableRecord
100
AcDbBlockTableRecord
  2
*D2
340
0
  0
BLOCK_RECORD
  5
204
330
1
100
AcDbSymbolTableRecord
100
AcDbBlockTableRecord
  2
*D3
340
0
  0
BLOCK_RECORD
  5
20F
330
1
100
AcDbSymbolTableRecord
100
AcDbBlockTableRecord
  2
*D4
340
0
  0
BLOCK_RECORD
  5
21A
330
1
100
AcDbSymbolTableRecord
100
AcDbBlockTableRecord
  2
*D5
340
0
  0
BLOCK_RECORD
  5
225
330
1
100
AcDbSymbolTableRecord
100
AcDbBlockTableRecord
  2
*D6
340
0
  0
BLOCK_RECORD
  5
230
330
1
100
AcDbSymbolTableRecord
100
AcDbBlockTableRecord
  2
*D7
340
0
  0
BLOCK_RECORD
  5
23B
330
1
100
AcDbSymbolTableRecord
100
AcDbBlockTableRecord
  2
*D8
340
0
  0
BLOCK_RECORD
  5
246
330
1
100
AcDbSymbolTableRecord
100
AcDbBlockTableRecord
  2
*D9
340
0
  0
BLOCK_RECORD
  5
251
330
1
100
AcDbSymbolTableRecord
100
AcDbBlockTableRecord
  2
*D10
340
0
  0
BLOCK_RECORD
  5
25C
330
1
100
AcDbSymbolTableRecord
100
AcDbBlockTableRecord
  2
*D11
340
0
  0
ENDTAB
  0
ENDSEC
  0
SECTION
  2
BLOCKS
  0
BLOCK
  5
20
330
1F
100
AcDbEntity
  8
0
100
AcDbBlockBegin
  2
*Model_Space
 70
     0
 10
0.0
 20
0.0
 30
0.0
  3
*Model_Space
  1

  0
ENDBLK
  5
21
330
1F
100
AcDbEntity
  8
0
100
AcDbBlockEnd
  0
BLOCK
  5
1C
330
1B
100
AcDbEntity
 67
     1
  8
0
100
AcDbBlockBegin
  2
*Paper_Space
 70
     0
 10
0.0
 20
0.0
 30
0.0
  3
*Paper_Space
  1

  0
ENDBLK
  5
1D
330
1B
100
AcDbEntity
 67
     1
  8
0
100
AcDbBlockEnd
  0
BLOCK
  5
24
330
23
100
AcDbEntity
  8
0
100
AcDbBlockBegin
  2
*Paper_Space0
 70
     0
 10
0.0
 20
0.0
 30
0.0
  3
*Paper_Space0
  1

  0
ENDBLK
  5
25
330
23
100
AcDbEntity
  8
0
100
AcDbBlockEnd
  0
BLOCK
  5
1F5
330
1EE
100
AcDbEntity
  8
0
100
AcDbBlockBegin
  2
*D1
 70
     1
 10
0.0
 20
0.0
 30
0.0
  3
*D1
  1

  0
LINE
  5
1EF
330
1EE
100
AcDbEntity
  8
0
  6
Continuous
 62
     2
100
AcDbLine
 10
619.8481982091911
 20
-5.84485833459379
 30
0.0
 11
577.848197018372
 21
-5.84485833459379
 31
0.0
  0
LINE
  5
1F0
330
1EE
100
AcDbEntity
  8
0
  6
Continuous
 62
     2
100
AcDbLine
 10
619.8481982091911
 20
-25.84485833459361
 30
0.0
 11
619.8481982091911
 21
-4.84485833459379
 31
0.0
  0
LINE
  5
1F1
330
1EE
100
AcDbEntity
  8
0
  6
Continuous
 62
     2
100
AcDbLine
 10
577.848197018372
 20
-25.84485714377411
 30
0.0
 11
577.848197018372
 21
-4.84485833459379
 31
0.0
  0
SOLID
  5
1F2
330
1EE
100
AcDbEntity
  8
0
 62
     2
100
AcDbTrace
 10
581.0481970183721
 20
-5.42357034231412
 30
0.0
 11
581.0481970183721
 21
-6.26614632687346
 31
0.0
 12
577.848197018372
 22
-5.84485833459379
 32
0.0
 13
577.848197018372
 23
-5.84485833459379
 33
0.0
  0
SOLID
  5
1F3
330
1EE
100
AcDbEntity
  8
0
 62
     2
100
AcDbTrace
 10
616.648198209191
 20
-6.26614632687346
 30
0.0
 11
616.648198209191
 21
-5.42357034231412
 31
0.0
 12
619.8481982091911
 22
-5.84485833459379
 32
0.0
 13
619.8481982091911
 23
-5.84485833459379
 33
0.0
  0
MTEXT
  5
1F4
330
1EE
100
AcDbEntity
  8
0
 62
     2
100
AcDbMText
 10
594.1665558226393
 20
-4.244869783949
 30
0.0
 40
3.2
 41
0.0
 71
     7
 72
     1
  1
(42)
  7
CONVERTER_15
 11
0.9999999999882478
 21
4.848136811095759E-6
 31
0.0
 73
     1
 44
0.60024009603842
  0
ENDBLK
  5
1F6
330
1EE
100
AcDbEntity
  8
0
100
AcDbBlockEnd
  0
BLOCK
  5
200
330
1F9
100
AcDbEntity
  8
0
100
AcDbBlockBegin
  2
*D2
 70
     1
 10
0.0
 20
0.0
 30
0.0
  3
*D2
  1

  0
LINE
  5
1FA
330
1F9
100
AcDbEntity
  8
1
  6
Continuous
 62
     2
100
AcDbLine
 10
574.545819961899
 20
-78.24485833405191
 30
0.0
 11
574.545819961899
 21
-57.44484742083401
 31
0.0
  0
LINE
  5
1FB
330
1F9
100
AcDbEntity
  8
1
  6
Continuous
 62
     2
100
AcDbLine
 10
590.8481982091911
 20
-71.8448583340519
 30
0.0
 11
573.045819961899
 21
-71.8448583340519
 31
0.0
  0
LINE
  5
1FC
330
1F9
100
AcDbEntity
  8
1
  6
Continuous
 62
     2
100
AcDbLine
 10
581.848187922297
 20
-63.84484742083399
 30
0.0
 11
573.045819961899
 21
-63.84484742083399
 31
0.0
  0
SOLID
  5
1FD
330
1F9
100
AcDbEntity
  8
1
 62
     2
100
AcDbTrace
 10
574.1245319696194
 20
-60.64484742083399
 30
0.0
 11
574.9671079541787
 21
-60.64484742083399
 31
0.0
 12
574.545819961899
 22
-63.84484742083399
 32
0.0
 13
574.545819961899
 23
-63.84484742083399
 33
0.0
  0
SOLID
  5
1FE
330
1F9
100
AcDbEntity
  8
1
 62
     2
100
AcDbTrace
 10
574.9671079541787
 20
-75.04485833405191
 30
0.0
 11
574.1245319696194
 21
-75.04485833405191
 31
0.0
 12
574.545819961899
 22
-71.8448583340519
 32
0.0
 13
574.545819961899
 23
-71.8448583340519
 33
0.0
  0
MTEXT
  5
1FF
330
1F9
100
AcDbEntity
  8
1
 62
     2
100
AcDbMText
 10
572.545819961899
 20
-72.49072816893421
 30
0.0
 40
3.2
 41
0.0
 71
     7
 72
     1
  1
\U+203b(8)
  7
CONVERTER_15
 11
0.0
 21
1.0
 31
0.0
 73
     1
 44
0.60024009603842
  0
ENDBLK
  5
201
330
1F9
100
AcDbEntity
  8
0
100
AcDbBlockEnd
  0
BLOCK
  5
20B
330
204
100
AcDbEntity
  8
0
100
AcDbBlockBegin
  2
*D3
 70
     1
 10
0.0
 20
0.0
 30
0.0
  3
*D3
  1

  0
LINE
  5
205
330
204
100
AcDbEntity
  8
1
  6
Continuous
 62
     2
100
AcDbLine
 10
614.348198209191
 20
-13.71862030433359
 30
0.0
 11
583.348198209191
 21
-13.71862030433359
 31
0.0
  0
LINE
  5
206
330
204
100
AcDbEntity
  8
1
  6
Continuous
 62
     2
100
AcDbLine
 10
614.348198209191
 20
-24.3948583345939
 30
0.0
 11
614.348198209191
 21
-12.21862030433359
 31
0.0
  0
LINE
  5
207
330
204
100
AcDbEntity
  8
1
  6
Continuous
 62
     2
100
AcDbLine
 10
583.348198209191
 20
-24.3948583345933
 30
0.0
 11
583.348198209191
 21
-12.21862030433359
 31
0.0
  0
SOLID
  5
208
330
204
100
AcDbEntity
  8
1
 62
     2
100
AcDbTrace
 10
586.548198209191
 20
-13.29733231205392
 30
0.0
 11
586.548198209191
 21
-14.13990829661325
 31
0.0
 12
583.348198209191
 22
-13.71862030433359
 32
0.0
 13
583.348198209191
 23
-13.71862030433359
 33
0.0
  0
SOLID
  5
209
330
204
100
AcDbEntity
  8
1
 62
     2
100
AcDbTrace
 10
611.1481982091909
 20
-14.13990829661325
 30
0.0
 11
611.1481982091909
 21
-13.29733231205392
 31
0.0
 12
614.348198209191
 22
-13.71862030433359
 32
0.0
 13
614.348198209191
 23
-13.71862030433359
 33
0.0
  0
MTEXT
  5
20A
330
204
100
AcDbEntity
  8
1
 62
     2
100
AcDbMText
 10
592.9184787552657
 20
-11.71863461602817
 30
0.0
 40
3.2
 41
0.0
 71
     7
 72
     1
  1
\C2;31\C2;\H1.92;{\Fgdt;`}0.2
  7
CONVERTER_15
 11
0.9999999999882478
 21
4.848136811095759E-6
 31
0.0
 73
     1
 44
0.60024009603842
  0
ENDBLK
  5
20C
330
204
100
AcDbEntity
  8
0
100
AcDbBlockEnd
  0
BLOCK
  5
216
330
20F
100
AcDbEntity
  8
0
100
AcDbBlockBegin
  2
*D4
 70
     1
 10
0.0
 20
0.0
 30
0.0
  3
*D4
  1

  0
LINE
  5
210
330
20F
100
AcDbEntity
  8
1
  6
Continuous
 62
     2
100
AcDbLine
 10
633.7508589746603
 20
-58.3448583345935
 30
0.0
 11
633.7508589746603
 21
-27.3448583345936
 31
0.0
  0
LINE
  5
211
330
20F
100
AcDbEntity
  8
1
  6
Continuous
 62
     2
100
AcDbLine
 10
617.2981982091909
 20
-58.3448583345935
 30
0.0
 11
635.2508589746603
 21
-58.3448583345935
 31
0.0
  0
LINE
  5
212
330
20F
100
AcDbEntity
  8
1
  6
Continuous
 62
     2
100
AcDbLine
 10
617.2981982091909
 20
-27.3448583345936
 30
0.0
 11
635.2508589746603
 21
-27.3448583345936
 31
0.0
  0
SOLID
  5
213
330
20F
100
AcDbEntity
  8
1
 62
     2
100
AcDbTrace
 10
634.17214696694
 20
-30.5448583345936
 30
0.0
 11
633.3295709823807
 21
-30.5448583345936
 31
0.0
 12
633.7508589746603
 22
-27.3448583345936
 32
0.0
 13
633.7508589746603
 23
-27.3448583345936
 33
0.0
  0
SOLID
  5
214
330
20F
100
AcDbEntity
  8
1
 62
     2
100
AcDbTrace
 10
633.3295709823807
 20
-55.14485833459349
 30
0.0
 11
634.17214696694
 21
-55.14485833459349
 31
0.0
 12
633.7508589746603
 22
-58.3448583345935
 32
0.0
 13
633.7508589746603
 23
-58.3448583345935
 33
0.0
  0
MTEXT
  5
215
330
20F
100
AcDbEntity
  8
1
 62
     2
100
AcDbMText
 10
631.75085897466
 20
-47.01737052798499
 30
0.0
 40
3.2
 41
0.0
 71
     7
 72
     1
  1
\C2;31\C2;\H1.92;{\Fgdt;`}0.2
  7
CONVERTER_15
 11
0.0
 21
1.0
 31
0.0
 73
     1
 44
0.60024009603842
  0
ENDBLK
  5
217
330
20F
100
AcDbEntity
  8
0
100
AcDbBlockEnd
  0
BLOCK
  5
221
330
21A
100
AcDbEntity
  8
0
100
AcDbBlockBegin
  2
*D5
 70
     1
 10
0.0
 20
0.0
 30
0.0
  3
*D5
  1

  0
LINE
  5
21B
330
21A
100
AcDbEntity
  8
1
  6
Continuous
 62
     2
100
AcDbLine
 10
672.9792069450567
 20
-33.9448583345939
 30
0.0
 11
672.9792069450567
 21
-51.7448583345936
 31
0.0
  0
LINE
  5
21C
330
21A
100
AcDbEntity
  8
1
  6
Continuous
 62
     2
100
AcDbLine
 10
682.4461698564629
 20
-40.3448583345939
 30
0.0
 11
671.4792069450567
 21
-40.3448583345939
 31
0.0
  0
LINE
  5
21D
330
21A
100
AcDbEntity
  8
1
  6
Continuous
 62
     2
100
AcDbLine
 10
682.4461698564629
 20
-45.3448583345936
 30
0.0
 11
671.4792069450567
 21
-45.3448583345936
 31
0.0
  0
SOLID
  5
21E
330
21A
100
AcDbEntity
  8
1
 62
     2
100
AcDbTrace
 10
673.4004949373364
 20
-48.54485833459361
 30
0.0
 11
672.5579189527771
 21
-48.54485833459361
 31
0.0
 12
672.9792069450567
 22
-45.3448583345936
 32
0.0
 13
672.9792069450567
 23
-45.3448583345936
 33
0.0
  0
SOLID
  5
21F
330
21A
100
AcDbEntity
  8
1
 62
     2
100
AcDbTrace
 10
672.5579189527771
 20
-37.1448583345939
 30
0.0
 11
673.4004949373364
 21
-37.1448583345939
 31
0.0
 12
672.9792069450567
 22
-40.3448583345939
 32
0.0
 13
672.9792069450567
 23
-40.3448583345939
 33
0.0
  0
MTEXT
  5
220
330
21A
100
AcDbEntity
  8
1
 62
     2
100
AcDbMText
 10
670.15254027839
 20
-49.14496667500271
 30
0.0
 40
3.2
 41
0.0
 71
     7
 72
     1
  1
\C2;\U+03c65\C2;\H1.92;\S 0^ -0.011;
  7
CONVERTER_15
 11
0.0
 21
1.0
 31
0.0
 73
     1
 44
0.60024009603842
  0
ENDBLK
  5
222
330
21A
100
AcDbEntity
  8
0
100
AcDbBlockEnd
  0
BLOCK
  5
22C
330
225
100
AcDbEntity
  8
0
100
AcDbBlockBegin
  2
*D6
 70
     1
 10
0.0
 20
0.0
 30
0.0
  3
*D6
  1

  0
LINE
  5
226
330
225
100
AcDbEntity
  8
1
  6
Continuous
 62
     2
100
AcDbLine
 10
658.4461698564627
 20
-53.8448583345936
 30
0.0
 11
658.4461698564627
 21
-31.8448583345937
 31
0.0
  0
LINE
  5
227
330
225
100
AcDbEntity
  8
1
  6
Continuous
 62
     2
100
AcDbLine
 10
703.4461698564629
 20
-53.8448583345936
 30
0.0
 11
656.9461698564627
 21
-53.8448583345936
 31
0.0
  0
LINE
  5
228
330
225
100
AcDbEntity
  8
1
  6
Continuous
 62
     2
100
AcDbLine
 10
703.4461698564629
 20
-31.8448583345937
 30
0.0
 11
656.9461698564627
 21
-31.8448583345937
 31
0.0
  0
SOLID
  5
229
330
225
100
AcDbEntity
  8
1
 62
     2
100
AcDbTrace
 10
658.8674578487423
 20
-35.0448583345937
 30
0.0
 11
658.024881864183
 21
-35.0448583345937
 31
0.0
 12
658.4461698564627
 22
-31.8448583345937
 32
0.0
 13
658.4461698564627
 23
-31.8448583345937
 33
0.0
  0
SOLID
  5
22A
330
225
100
AcDbEntity
  8
1
 62
     2
100
AcDbTrace
 10
658.024881864183
 20
-50.64485833459359
 30
0.0
 11
658.8674578487423
 21
-50.64485833459359
 31
0.0
 12
658.4461698564627
 22
-53.8448583345936
 32
0.0
 13
658.4461698564627
 23
-53.8448583345936
 33
0.0
  0
MTEXT
  5
22B
330
225
100
AcDbEntity
  8
1
 62
     2
100
AcDbMText
 10
655.619503189796
 20
-52.5569201328707
 30
0.0
 40
3.2
 41
0.0
 71
     7
 72
     1
  1
\C2;\U+03c622\C2;\H1.92;\S 0^ -0.05;
  7
CONVERTER_15
 11
0.0
 21
1.0
 31
0.0
 73
     1
 44
0.60024009603842
  0
ENDBLK
  5
22D
330
225
100
AcDbEntity
  8
0
100
AcDbBlockEnd
  0
BLOCK
  5
237
330
230
100
AcDbEntity
  8
0
100
AcDbBlockBegin
  2
*D7
 70
     1
 10
0.0
 20
0.0
 30
0.0
  3
*D7
  1

  0
LINE
  5
231
330
230
100
AcDbEntity
  8
1
  6
Continuous
 62
     2
100
AcDbLine
 10
698.046169856463
 20
0.11517162010421
 30
0.0
 11
716.4440695530438
 21
0.11517162010421
 31
0.0
  0
LINE
  5
232
330
230
100
AcDbEntity
  8
1
  6
Continuous
 62
     2
100
AcDbLine
 10
706.446169856463
 20
-21.8448583345937
 30
0.0
 11
706.446169856463
 21
1.61517162010421
 31
0.0
  0
LINE
  5
233
330
230
100
AcDbEntity
  8
1
  6
Continuous
 62
     2
100
AcDbLine
 10
704.446169856463
 20
-30.8448583345937
 30
0.0
 11
704.446169856463
 21
1.61517162010421
 31
0.0
  0
SOLID
  5
234
330
230
100
AcDbEntity
  8
1
 62
     2
100
AcDbTrace
 10
701.246169856463
 20
-0.30611637217546
 30
0.0
 11
701.246169856463
 21
0.53645961238388
 31
0.0
 12
704.446169856463
 22
0.11517162010421
 32
0.0
 13
704.446169856463
 23
0.11517162010421
 33
0.0
  0
SOLID
  5
235
330
230
100
AcDbEntity
  8
1
 62
     2
100
AcDbTrace
 10
709.6461698564631
 20
0.53645961238388
 30
0.0
 11
709.6461698564631
 21
-0.30611637217546
 31
0.0
 12
706.446169856463
 22
0.11517162010421
 32
0.0
 13
706.446169856463
 23
0.11517162010421
 33
0.0
  0
MTEXT
  5
236
330
230
100
AcDbEntity
  8
1
 62
     2
100
AcDbMText
 10
710.5400695530611
 20
2.11516446425897
 30
0.0
 40
3.2
 41
0.0
 71
     7
 72
     1
  1
\C2;2\C2;\H1.92;{\Fgdt;`}0.2
  7
CONVERTER_15
 11
0.9999999999882478
 21
4.848136811095759E-6
 31
0.0
 73
     1
 44
0.60024009603842
  0
ENDBLK
  5
238
330
230
100
AcDbEntity
  8
0
100
AcDbBlockEnd
  0
BLOCK
  5
242
330
23B
100
AcDbEntity
  8
0
100
AcDbBlockBegin
  2
*D8
 70
     1
 10
0.0
 20
0.0
 30
0.0
  3
*D8
  1

  0
LINE
  5
23C
330
23B
100
AcDbEntity
  8
1
  6
Continuous
 62
     2
100
AcDbLine
 10
641.007436609707
 20
-57.4448568597613
 30
0.0
 11
641.007436609707
 21
-79.3562217642127
 31
0.0
  0
LINE
  5
23D
330
23B
100
AcDbEntity
  8
1
  6
Continuous
 62
     2
100
AcDbLine
 10
606.798198209191
 20
-70.0948583340519
 30
0.0
 11
642.507436609707
 21
-70.0948583340519
 31
0.0
  0
LINE
  5
23E
330
23B
100
AcDbEntity
  8
1
  6
Continuous
 62
     2
100
AcDbLine
 10
615.848196734359
 20
-63.84485685976131
 30
0.0
 11
642.507436609707
 21
-63.84485685976131
 31
0.0
  0
SOLID
  5
23F
330
23B
100
AcDbEntity
  8
1
 62
     2
100
AcDbTrace
 10
640.5861486174274
 20
-60.6448568597613
 30
0.0
 11
641.4287246019867
 21
-60.6448568597613
 31
0.0
 12
641.007436609707
 22
-63.84485685976131
 32
0.0
 13
641.007436609707
 23
-63.84485685976131
 33
0.0
  0
SOLID
  5
240
330
23B
100
AcDbEntity
  8
1
 62
     2
100
AcDbTrace
 10
641.4287246019867
 20
-73.29485833405191
 30
0.0
 11
640.5861486174274
 21
-73.29485833405191
 31
0.0
 12
641.007436609707
 22
-70.0948583340519
 32
0.0
 13
641.007436609707
 23
-70.0948583340519
 33
0.0
  0
MTEXT
  5
241
330
23B
100
AcDbEntity
  8
1
 62
     2
100
AcDbMText
 10
639.007436609707
 20
-79.3562217642127
 30
0.0
 40
3.2
 41
0.0
 71
     7
 72
     1
  1
(6)
  7
CONVERTER_15
 11
0.0
 21
1.0
 31
0.0
 73
     1
 44
0.60024009603842
  0
ENDBLK
  5
243
330
23B
100
AcDbEntity
  8
0
100
AcDbBlockEnd
  0
BLOCK
  5
24D
330
246
100
AcDbEntity
  8
0
100
AcDbBlockBegin
  2
*D9
 70
     1
 10
0.0
 20
0.0
 30
0.0
  3
*D9
  1

  0
LINE
  5
247
330
246
100
AcDbEntity
  8
1
  6
Continuous
 62
     2
100
AcDbLine
 10
643.848198209191
 20
-63.8448568597613
 30
0.0
 11
643.848198209191
 21
-21.8448583345937
 31
0.0
  0
LINE
  5
248
330
246
100
AcDbEntity
  8
1
  6
Continuous
 62
     2
100
AcDbLine
 10
615.8481967343589
 20
-63.8448568597613
 30
0.0
 11
645.348198209191
 21
-63.8448568597613
 31
0.0
  0
LINE
  5
249
330
246
100
AcDbEntity
  8
1
  6
Continuous
 62
     2
100
AcDbLine
 10
615.848198209191
 20
-21.8448583345937
 30
0.0
 11
645.348198209191
 21
-21.8448583345937
 31
0.0
  0
SOLID
  5
24A
330
246
100
AcDbEntity
  8
1
 62
     2
100
AcDbTrace
 10
644.2694862014706
 20
-25.0448583345937
 30
0.0
 11
643.4269102169113
 21
-25.0448583345937
 31
0.0
 12
643.848198209191
 22
-21.8448583345937
 32
0.0
 13
643.848198209191
 23
-21.8448583345937
 33
0.0
  0
SOLID
  5
24B
330
246
100
AcDbEntity
  8
1
 62
     2
100
AcDbTrace
 10
643.4269102169113
 20
-60.6448568597613
 30
0.0
 11
644.2694862014706
 21
-60.6448568597613
 31
0.0
 12
643.848198209191
 22
-63.8448568597613
 32
0.0
 13
643.848198209191
 23
-63.8448568597613
 33
0.0
  0
MTEXT
  5
24C
330
246
100
AcDbEntity
  8
1
 62
     2
100
AcDbMText
 10
641.848198209191
 20
-47.9015929412086
 30
0.0
 40
3.2
 41
0.0
 71
     7
 72
     1
  1
(42)
  7
CONVERTER_15
 11
0.0
 21
1.0
 31
0.0
 73
     1
 44
0.60024009603842
  0
ENDBLK
  5
24E
330
246
100
AcDbEntity
  8
0
100
AcDbBlockEnd
  0
BLOCK
  5
258
330
251
100
AcDbEntity
  8
0
100
AcDbBlockBegin
  2
*D10
 70
     1
 10
0.0
 20
0.0
 30
0.0
  3
*D10
  1

  0
LINE
  5
252
330
251
100
AcDbEntity
  8
1
  6
Continuous
 62
     2
100
AcDbLine
 10
706.446169856463
 20
15.1476266098943
 30
0.0
 11
747.8461755430291
 21
15.1476266098943
 31
0.0
  0
LINE
  5
253
330
251
100
AcDbEntity
  8
1
  6
Continuous
 62
     2
100
AcDbLine
 10
706.446169856463
 20
-21.8448583345937
 30
0.0
 11
706.446169856463
 21
16.6476266098943
 31
0.0
  0
LINE
  5
254
330
251
100
AcDbEntity
  8
1
  6
Continuous
 62
     2
100
AcDbLine
 10
747.8461755430291
 20
-21.8448583345937
 30
0.0
 11
747.8461755430291
 21
16.6476266098943
 31
0.0
  0
SOLID
  5
255
330
251
100
AcDbEntity
  8
1
 62
     2
100
AcDbTrace
 10
744.646175543029
 20
14.72633861761464
 30
0.0
 11
744.646175543029
 21
15.56891460217397
 31
0.0
 12
747.8461755430291
 22
15.1476266098943
 32
0.0
 13
747.8461755430291
 23
15.1476266098943
 33
0.0
  0
SOLID
  5
256
330
251
100
AcDbEntity
  8
1
 62
     2
100
AcDbTrace
 10
709.6461698564631
 20
15.56891460217397
 30
0.0
 11
709.6461698564631
 21
14.72633861761464
 31
0.0
 12
706.446169856463
 22
15.1476266098943
 32
0.0
 13
706.446169856463
 23
15.1476266098943
 33
0.0
  0
MTEXT
  5
257
330
251
100
AcDbEntity
  8
1
 62
     2
100
AcDbMText
 10
719.7789590190373
 20
17.14760943585916
 30
0.0
 40
3.2
 41
0.0
 71
     7
 72
     1
  1
42MAX.
  7
CONVERTER_15
 11
0.9999999999882478
 21
4.848136811095759E-6
 31
0.0
 73
     1
 44
0.60024009603842
  0
ENDBLK
  5
259
330
251
100
AcDbEntity
  8
0
100
AcDbBlockEnd
  0
BLOCK
  5
263
330
25C
100
AcDbEntity
  8
0
100
AcDbBlockBegin
  2
*D11
 70
     1
 10
0.0
 20
0.0
 30
0.0
  3
*D11
  1

  0
LINE
  5
25D
330
25C
100
AcDbEntity
  8
1
  6
Continuous
 62
     2
100
AcDbLine
 10
706.446169856463
 20
15.1476266098943
 30
0.0
 11
682.446169856463
 21
15.14762660989429
 31
0.0
  0
LINE
  5
25E
330
25C
100
AcDbEntity
  8
1
  6
Continuous
 62
     2
100
AcDbLine
 10
706.446169856463
 20
-22.2138666250253
 30
0.0
 11
706.446169856463
 21
16.6476266098943
 31
0.0
  0
LINE
  5
25F
330
25C
100
AcDbEntity
  8
1
  6
Continuous
 62
     2
100
AcDbLine
 10
682.446169856463
 20
-39.72682434584389
 30
0.0
 11
682.446169856463
 21
16.64762660989429
 31
0.0
  0
SOLID
  5
260
330
25C
100
AcDbEntity
  8
1
 62
     2
100
AcDbTrace
 10
685.6461698564631
 20
15.56891460217396
 30
0.0
 11
685.6461698564631
 21
14.72633861761462
 31
0.0
 12
682.446169856463
 22
15.14762660989429
 32
0.0
 13
682.446169856463
 23
15.14762660989429
 33
0.0
  0
SOLID
  5
261
330
25C
100
AcDbEntity
  8
1
 62
     2
100
AcDbTrace
 10
703.246169856463
 20
14.72633861761464
 30
0.0
 11
703.246169856463
 21
15.56891460217397
 31
0.0
 12
706.446169856463
 22
15.1476266098943
 32
0.0
 13
706.446169856463
 23
15.1476266098943
 33
0.0
  0
MTEXT
  5
262
330
25C
100
AcDbEntity
  8
1
 62
     2
100
AcDbMText
 10
688.9143321547398
 20
17.14761229819913
 30
0.0
 40
3.2
 41
0.0
 71
     7
 72
     1
  1
\C2;24\C2;\H1.92;{\Fgdt;`}0.5
  7
CONVERTER_15
 11
0.9999999999882478
 21
4.848136811095759E-6
 31
0.0
 73
     1
 44
0.60024009603842
  0
ENDBLK
  5
264
330
25C
100
AcDbEntity
  8
0
100
AcDbBlockEnd
  0
ENDSEC
  0
SECTION
  2
ENTITIES
  0
POINT
  5
4A
330
1F
100
AcDbEntity
  8
0
 62
     7
100
AcDbPoint
 10
619.848198209191
 20
-26.8448583345936
 30
0.0
  0
POINT
  5
4B
330
1F
100
AcDbEntity
  8
0
 62
     7
100
AcDbPoint
 10
577.848197018372
 20
-26.8448571437741
 30
0.0
  0
POINT
  5
4C
330
1F
100
AcDbEntity
  8
1
 62
     7
100
AcDbPoint
 10
591.848198209191
 20
-71.8448583340519
 30
0.0
  0
POINT
  5
4D
330
1F
100
AcDbEntity
  8
1
 62
     7
100
AcDbPoint
 10
582.848187922297
 20
-63.844847420834
 30
0.0
  0
POINT
  5
4E
330
1F
100
AcDbEntity
  8
1
 62
     7
100
AcDbPoint
 10
614.348198209191
 20
-25.3948583345939
 30
0.0
  0
POINT
  5
4F
330
1F
100
AcDbEntity
  8
1
 62
     7
100
AcDbPoint
 10
583.348198209191
 20
-25.3948583345933
 30
0.0
  0
POINT
  5
50
330
1F
100
AcDbEntity
  8
1
 62
     7
100
AcDbPoint
 10
616.298198209191
 20
-58.3448583345935
 30
0.0
  0
POINT
  5
51
330
1F
100
AcDbEntity
  8
1
 62
     7
100
AcDbPoint
 10
616.298198209191
 20
-27.3448583345936
 30
0.0
  0
POINT
  5
52
330
1F
100
AcDbEntity
  8
1
 62
     7
100
AcDbPoint
 10
706.446169856463
 20
-23.2138666250253
 30
0.0
  0
POINT
  5
53
330
1F
100
AcDbEntity
  8
1
 62
     7
100
AcDbPoint
 10
682.446169856463
 20
-40.7268243458439
 30
0.0
  0
POINT
  5
54
330
1F
100
AcDbEntity
  8
1
 62
     7
100
AcDbPoint
 10
683.446169856463
 20
-40.3448583345939
 30
0.0
  0
POINT
  5
55
330
1F
100
AcDbEntity
  8
1
 62
     7
100
AcDbPoint
 10
683.446169856463
 20
-45.3448583345936
 30
0.0
  0
POINT
  5
56
330
1F
100
AcDbEntity
  8
1
 62
     7
100
AcDbPoint
 10
706.446169856463
 20
-22.8448583345937
 30
0.0
  0
POINT
  5
57
330
1F
100
AcDbEntity
  8
1
 62
     7
100
AcDbPoint
 10
747.846175543029
 20
-22.8448583345937
 30
0.0
  0
POINT
  5
58
330
1F
100
AcDbEntity
  8
1
 62
     7
100
AcDbPoint
 10
704.446169856463
 20
-53.8448583345936
 30
0.0
  0
POINT
  5
59
330
1F
100
AcDbEntity
  8
1
 62
     7
100
AcDbPoint
 10
704.446169856463
 20
-31.8448583345937
 30
0.0
  0
POINT
  5
5A
330
1F
100
AcDbEntity
  8
1
 62
     7
100
AcDbPoint
 10
706.446169856463
 20
-22.8448583345937
 30
0.0
  0
POINT
  5
5B
330
1F
100
AcDbEntity
  8
1
 62
     7
100
AcDbPoint
 10
704.446169856463
 20
-31.8448583345937
 30
0.0
  0
POINT
  5
5C
330
1F
100
AcDbEntity
  8
1
 62
     7
100
AcDbPoint
 10
605.798198209191
 20
-70.0948583340519
 30
0.0
  0
POINT
  5
5D
330
1F
100
AcDbEntity
  8
1
 62
     7
100
AcDbPoint
 10
614.848196734359
 20
-63.8448568597613
 30
0.0
  0
POINT
  5
5E
330
1F
100
AcDbEntity
  8
1
 62
     7
100
AcDbPoint
 10
614.848196734359
 20
-63.8448568597613
 30
0.0
  0
POINT
  5
5F
330
1F
100
AcDbEntity
  8
1
 62
     7
100
AcDbPoint
 10
614.848198209191
 20
-21.8448583345937
 30
0.0
  0
POINT
  5
60
330
1F
100
AcDbEntity
  8
0
 62
     7
100
AcDbPoint
 10
619.848198209191
 20
-26.8448583345936
 30
0.0
  0
POINT
  5
61
330
1F
100
AcDbEntity
  8
0
 62
     7
100
AcDbPoint
 10
577.848197018372
 20
-26.8448571437741
 30
0.0
  0
POINT
  5
62
330
1F
100
AcDbEntity
  8
1
 62
     7
100
AcDbPoint
 10
591.848198209191
 20
-71.8448583340519
 30
0.0
  0
POINT
  5
63
330
1F
100
AcDbEntity
  8
1
 62
     7
100
AcDbPoint
 10
582.848187922297
 20
-63.844847420834
 30
0.0
  0
POINT
  5
64
330
1F
100
AcDbEntity
  8
1
 62
     7
100
AcDbPoint
 10
614.348198209191
 20
-25.3948583345939
 30
0.0
  0
POINT
  5
65
330
1F
100
AcDbEntity
  8
1
 62
     7
100
AcDbPoint
 10
583.348198209191
 20
-25.3948583345933
 30
0.0
  0
POINT
  5
66
330
1F
100
AcDbEntity
  8
1
 62
     7
100
AcDbPoint
 10
616.298198209191
 20
-58.3448583345935
 30
0.0
  0
POINT
  5
67
330
1F
100
AcDbEntity
  8
1
 62
     7
100
AcDbPoint
 10
616.298198209191
 20
-27.3448583345936
 30
0.0
  0
POINT
  5
68
330
1F
100
AcDbEntity
  8
1
 62
     7
100
AcDbPoint
 10
706.446169856463
 20
-23.2138666250253
 30
0.0
  0
POINT
  5
69
330
1F
100
AcDbEntity
  8
1
 62
     7
100
AcDbPoint
 10
682.446169856463
 20
-40.7268243458439
 30
0.0
  0
POINT
  5
6A
330
1F
100
AcDbEntity
  8
1
 62
     7
100
AcDbPoint
 10
683.446169856463
 20
-40.3448583345939
 30
0.0
  0
POINT
  5
6B
330
1F
100
AcDbEntity
  8
1
 62
     7
100
AcDbPoint
 10
683.446169856463
 20
-45.3448583345936
 30
0.0
  0
POINT
  5
6C
330
1F
100
AcDbEntity
  8
1
 62
     7
100
AcDbPoint
 10
706.446169856463
 20
-22.8448583345937
 30
0.0
  0
POINT
  5
6D
330
1F
100
AcDbEntity
  8
1
 62
     7
100
AcDbPoint
 10
747.846175543029
 20
-22.8448583345937
 30
0.0
  0
POINT
  5
6E
330
1F
100
AcDbEntity
  8
1
 62
     7
100
AcDbPoint
 10
704.446169856463
 20
-53.8448583345936
 30
0.0
  0
POINT
  5
6F
330
1F
100
AcDbEntity
  8
1
 62
     7
100
AcDbPoint
 10
704.446169856463
 20
-31.8448583345937
 30
0.0
  0
POINT
  5
70
330
1F
100
AcDbEntity
  8
1
 62
     7
100
AcDbPoint
 10
706.446169856463
 20
-22.8448583345937
 30
0.0
  0
POINT
  5
71
330
1F
100
AcDbEntity
  8
1
 62
     7
100
AcDbPoint
 10
704.446169856463
 20
-31.8448583345937
 30
0.0
  0
POINT
  5
72
330
1F
100
AcDbEntity
  8
1
 62
     7
100
AcDbPoint
 10
605.798198209191
 20
-70.0948583340519
 30
0.0
  0
POINT
  5
73
330
1F
100
AcDbEntity
  8
1
 62
     7
100
AcDbPoint
 10
614.848196734359
 20
-63.8448568597613
 30
0.0
  0
POINT
  5
74
330
1F
100
AcDbEntity
  8
1
 62
     7
100
AcDbPoint
 10
614.848196734359
 20
-63.8448568597613
 30
0.0
  0
POINT
  5
75
330
1F
100
AcDbEntity
  8
1
 62
     7
100
AcDbPoint
 10
614.848198209191
 20
-21.8448583345937
 30
0.0
  0
POINT
  5
76
330
1F
100
AcDbEntity
  8
1
 62
     3
 60
     1
100
AcDbPoint
 10
2155.54495552638
 20
808.959100150247
 30
0.0
  0
POINT
  5
77
330
1F
100
AcDbEntity
  8
1
 62
     3
 60
     1
100
AcDbPoint
 10
2156.34495552638
 20
808.159100150247
 30
0.0
  0
POINT
  5
78
330
1F
100
AcDbEntity
  8
1
 62
     3
 60
     1
100
AcDbPoint
 10
2155.54495552638
 20
808.159100150247
 30
0.0
  0
POINT
  5
79
330
1F
100
AcDbEntity
  8
1
 62
     3
 60
     1
100
AcDbPoint
 10
2156.34495552638
 20
805.659100150247
 30
0.0
  0
POINT
  5
7A
330
1F
100
AcDbEntity
  8
1
 62
     3
 60
     1
100
AcDbPoint
 10
2155.54495552638
 20
804.859100150247
 30
0.0
  0
POINT
  5
7B
330
1F
100
AcDbEntity
  8
1
 62
     3
 60
     1
100
AcDbPoint
 10
2155.54495552638
 20
805.659100150247
 30
0.0
  0
POINT
  5
7C
330
1F
100
AcDbEntity
  8
1
 62
     3
 60
     1
100
AcDbPoint
 10
2162.20620042774
 20
586.313730296599
 30
0.0
  0
POINT
  5
7D
330
1F
100
AcDbEntity
  8
1
 62
     3
 60
     1
100
AcDbPoint
 10
2163.00620042774
 20
585.5137302966
 30
0.0
  0
POINT
  5
7E
330
1F
100
AcDbEntity
  8
1
 62
     3
 60
     1
100
AcDbPoint
 10
2162.20620042774
 20
585.5137302966
 30
0.0
  0
POINT
  5
7F
330
1F
100
AcDbEntity
  8
1
 62
     3
 60
     1
100
AcDbPoint
 10
2163.00620042774
 20
583.0137302966
 30
0.0
  0
POINT
  5
80
330
1F
100
AcDbEntity
  8
1
 62
     3
 60
     1
100
AcDbPoint
 10
2162.20620042774
 20
582.2137302966
 30
0.0
  0
POINT
  5
81
330
1F
100
AcDbEntity
  8
1
 62
     3
 60
     1
100
AcDbPoint
 10
2162.20620042774
 20
583.0137302966
 30
0.0
  0
POINT
  5
82
330
1F
100
AcDbEntity
  8
1
 62
     3
 60
     1
100
AcDbPoint
 10
1760.68524042387
 20
665.545541588385
 30
0.0
  0
POINT
  5
83
330
1F
100
AcDbEntity
  8
1
 62
     3
 60
     1
100
AcDbPoint
 10
1761.48524042387
 20
664.745541588385
 30
0.0
  0
POINT
  5
84
330
1F
100
AcDbEntity
  8
1
 62
     3
 60
     1
100
AcDbPoint
 10
1760.68524042387
 20
664.745541588385
 30
0.0
  0
POINT
  5
85
330
1F
100
AcDbEntity
  8
1
 62
     3
 60
     1
100
AcDbPoint
 10
1761.48524042387
 20
662.245541588385
 30
0.0
  0
POINT
  5
86
330
1F
100
AcDbEntity
  8
1
 62
     3
 60
     1
100
AcDbPoint
 10
1760.68524042387
 20
661.445541588385
 30
0.0
  0
POINT
  5
87
330
1F
100
AcDbEntity
  8
1
 62
     3
 60
     1
100
AcDbPoint
 10
1760.68524042387
 20
662.245541588385
 30
0.0
  0
POINT
  5
88
330
1F
100
AcDbEntity
  8
1
 62
     3
 60
     1
100
AcDbPoint
 10
1537.28073041172
 20
574.601688275638
 30
0.0
  0
POINT
  5
89
330
1F
100
AcDbEntity
  8
1
 62
     3
 60
     1
100
AcDbPoint
 10
1538.08073041172
 20
573.801688275638
 30
0.0
  0
POINT
  5
8A
330
1F
100
AcDbEntity
  8
1
 62
     3
 60
     1
100
AcDbPoint
 10
1537.28073041172
 20
573.801688275638
 30
0.0
  0
POINT
  5
8B
330
1F
100
AcDbEntity
  8
1
 62
     3
 60
     1
100
AcDbPoint
 10
1538.08073041172
 20
571.301688275638
 30
0.0
  0
POINT
  5
8C
330
1F
100
AcDbEntity
  8
1
 62
     3
 60
     1
100
AcDbPoint
 10
1537.28073041172
 20
570.501688275637
 30
0.0
  0
POINT
  5
8D
330
1F
100
AcDbEntity
  8
1
 62
     3
 60
     1
100
AcDbPoint
 10
1537.28073041172
 20
571.301688275638
 30
0.0
  0
POINT
  5
8E
330
1F
100
AcDbEntity
  8
1
 62
     3
 60
     1
100
AcDbPoint
 10
2162.20620042774
 20
573.197798818115
 30
0.0
  0
POINT
  5
8F
330
1F
100
AcDbEntity
  8
1
 62
     3
 60
     1
100
AcDbPoint
 10
2162.20620042774
 20
572.397798818114
 30
0.0
  0
POINT
  5
90
330
1F
100
AcDbEntity
  8
1
 62
     3
 60
     1
100
AcDbPoint
 10
2163.00620042774
 20
573.197798818115
 30
0.0
  0
POINT
  5
91
330
1F
100
AcDbEntity
  8
1
 62
     3
 60
     1
100
AcDbPoint
 10
2162.20620042774
 20
575.697798818115
 30
0.0
  0
POINT
  5
92
330
1F
100
AcDbEntity
  8
1
 62
     3
 60
     1
100
AcDbPoint
 10
2163.00620042774
 20
575.697798818115
 30
0.0
  0
POINT
  5
93
330
1F
100
AcDbEntity
  8
1
 62
     3
 60
     1
100
AcDbPoint
 10
2162.20620042774
 20
576.497798818115
 30
0.0
  0
POINT
  5
94
330
1F
100
AcDbEntity
  8
1
 62
     3
 60
     1
100
AcDbPoint
 10
2385.61071043989
 20
664.141652130862
 30
0.0
  0
POINT
  5
95
330
1F
100
AcDbEntity
  8
1
 62
     3
 60
     1
100
AcDbPoint
 10
2385.61071043989
 20
663.341652130862
 30
0.0
  0
POINT
  5
96
330
1F
100
AcDbEntity
  8
1
 62
     3
 60
     1
100
AcDbPoint
 10
2386.41071043989
 20
664.141652130862
 30
0.0
  0
POINT
  5
97
330
1F
100
AcDbEntity
  8
1
 62
     3
 60
     1
100
AcDbPoint
 10
2385.61071043989
 20
666.641652130862
 30
0.0
  0
POINT
  5
98
330
1F
100
AcDbEntity
  8
1
 62
     3
 60
     1
100
AcDbPoint
 10
2386.41071043989
 20
666.641652130862
 30
0.0
  0
POINT
  5
99
330
1F
100
AcDbEntity
  8
1
 62
     3
 60
     1
100
AcDbPoint
 10
2385.61071043989
 20
667.441652130862
 30
0.0
  0
POINT
  5
9A
330
1F
100
AcDbEntity
  8
1
 62
     3
 60
     1
100
AcDbPoint
 10
2787.13167044376
 20
584.909840839077
 30
0.0
  0
POINT
  5
9B
330
1F
100
AcDbEntity
  8
1
 62
     3
 60
     1
100
AcDbPoint
 10
2787.13167044376
 20
584.109840839077
 30
0.0
  0
POINT
  5
9C
330
1F
100
AcDbEntity
  8
1
 62
     3
 60
     1
100
AcDbPoint
 10
2787.93167044375
 20
584.909840839077
 30
0.0
  0
POINT
  5
9D
330
1F
100
AcDbEntity
  8
1
 62
     3
 60
     1
100
AcDbPoint
 10
2787.13167044376
 20
587.409840839077
 30
0.0
  0
POINT
  5
9E
330
1F
100
AcDbEntity
  8
1
 62
     3
 60
     1
100
AcDbPoint
 10
2787.93167044375
 20
587.409840839077
 30
0.0
  0
POINT
  5
9F
330
1F
100
AcDbEntity
  8
1
 62
     3
 60
     1
100
AcDbPoint
 10
2787.13167044376
 20
588.209840839077
 30
0.0
  0
POINT
  5
A0
330
1F
100
AcDbEntity
  8
1
 62
     3
 60
     1
100
AcDbPoint
 10
2780.47042554239
 20
807.555210692724
 30
0.0
  0
POINT
  5
A1
330
1F
100
AcDbEntity
  8
1
 62
     3
 60
     1
100
AcDbPoint
 10
2780.47042554239
 20
806.755210692724
 30
0.0
  0
POINT
  5
A2
330
1F
100
AcDbEntity
  8
1
 62
     3
 60
     1
100
AcDbPoint
 10
2781.27042554239
 20
807.555210692724
 30
0.0
  0
POINT
  5
A3
330
1F
100
AcDbEntity
  8
1
 62
     3
 60
     1
100
AcDbPoint
 10
2780.47042554239
 20
810.055210692724
 30
0.0
  0
POINT
  5
A4
330
1F
100
AcDbEntity
  8
1
 62
     3
 60
     1
100
AcDbPoint
 10
2781.27042554239
 20
810.055210692724
 30
0.0
  0
POINT
  5
A5
330
1F
100
AcDbEntity
  8
1
 62
     3
 60
     1
100
AcDbPoint
 10
2780.47042554239
 20
810.855210692724
 30
0.0
  0
POINT
  5
A6
330
1F
100
AcDbEntity
  8
1
 62
     3
 60
     1
100
AcDbPoint
 10
2160.54495552638
 20
801.300621815208
 30
0.0
  0
POINT
  5
A7
330
1F
100
AcDbEntity
  8
1
 62
     3
 60
     1
100
AcDbPoint
 10
2161.34495552638
 20
800.500621815208
 30
0.0
  0
POINT
  5
A8
330
1F
100
AcDbEntity
  8
1
 62
     3
 60
     1
100
AcDbPoint
 10
2160.54495552638
 20
800.500621815208
 30
0.0
  0
POINT
  5
A9
330
1F
100
AcDbEntity
  8
1
 62
     3
 60
     1
100
AcDbPoint
 10
2161.34495552638
 20
798.000621815208
 30
0.0
  0
POINT
  5
AA
330
1F
100
AcDbEntity
  8
1
 62
     3
 60
     1
100
AcDbPoint
 10
2160.54495552638
 20
797.200621815208
 30
0.0
  0
POINT
  5
AB
330
1F
100
AcDbEntity
  8
1
 62
     3
 60
     1
100
AcDbPoint
 10
2160.54495552638
 20
798.000621815208
 30
0.0
  0
POINT
  5
AC
330
1F
100
AcDbEntity
  8
1
 62
     3
 60
     1
100
AcDbPoint
 10
2167.20620042774
 20
578.65525196156
 30
0.0
  0
POINT
  5
AD
330
1F
100
AcDbEntity
  8
1
 62
     3
 60
     1
100
AcDbPoint
 10
2168.00620042774
 20
577.85525196156
 30
0.0
  0
POINT
  5
AE
330
1F
100
AcDbEntity
  8
1
 62
     3
 60
     1
100
AcDbPoint
 10
2167.20620042774
 20
577.85525196156
 30
0.0
  0
POINT
  5
AF
330
1F
100
AcDbEntity
  8
1
 62
     3
 60
     1
100
AcDbPoint
 10
2168.00620042774
 20
575.35525196156
 30
0.0
  0
POINT
  5
B0
330
1F
100
AcDbEntity
  8
1
 62
     3
 60
     1
100
AcDbPoint
 10
2167.20620042774
 20
574.55525196156
 30
0.0
  0
POINT
  5
B1
330
1F
100
AcDbEntity
  8
1
 62
     3
 60
     1
100
AcDbPoint
 10
2167.20620042774
 20
575.35525196156
 30
0.0
  0
POINT
  5
B2
330
1F
100
AcDbEntity
  8
1
 62
     3
 60
     1
100
AcDbPoint
 10
1765.68524042387
 20
657.887063253346
 30
0.0
  0
POINT
  5
B3
330
1F
100
AcDbEntity
  8
1
 62
     3
 60
     1
100
AcDbPoint
 10
1766.48524042387
 20
657.087063253346
 30
0.0
  0
POINT
  5
B4
330
1F
100
AcDbEntity
  8
1
 62
     3
 60
     1
100
AcDbPoint
 10
1765.68524042387
 20
657.087063253346
 30
0.0
  0
POINT
  5
B5
330
1F
100
AcDbEntity
  8
1
 62
     3
 60
     1
100
AcDbPoint
 10
1766.48524042387
 20
654.587063253346
 30
0.0
  0
POINT
  5
B6
330
1F
100
AcDbEntity
  8
1
 62
     3
 60
     1
100
AcDbPoint
 10
1765.68524042387
 20
653.787063253346
 30
0.0
  0
POINT
  5
B7
330
1F
100
AcDbEntity
  8
1
 62
     3
 60
     1
100
AcDbPoint
 10
1765.68524042387
 20
654.587063253346
 30
0.0
  0
POINT
  5
B8
330
1F
100
AcDbEntity
  8
1
 62
     3
 60
     1
100
AcDbPoint
 10
1542.28073041172
 20
566.943209940598
 30
0.0
  0
POINT
  5
B9
330
1F
100
AcDbEntity
  8
1
 62
     3
 60
     1
100
AcDbPoint
 10
1543.08073041172
 20
566.143209940598
 30
0.0
  0
POINT
  5
BA
330
1F
100
AcDbEntity
  8
1
 62
     3
 60
     1
100
AcDbPoint
 10
1542.28073041172
 20
566.143209940598
 30
0.0
  0
POINT
  5
BB
330
1F
100
AcDbEntity
  8
1
 62
     3
 60
     1
100
AcDbPoint
 10
1543.08073041172
 20
563.643209940598
 30
0.0
  0
POINT
  5
BC
330
1F
100
AcDbEntity
  8
1
 62
     3
 60
     1
100
AcDbPoint
 10
1542.28073041172
 20
562.843209940598
 30
0.0
  0
POINT
  5
BD
330
1F
100
AcDbEntity
  8
1
 62
     3
 60
     1
100
AcDbPoint
 10
1542.28073041172
 20
563.643209940598
 30
0.0
  0
POINT
  5
BE
330
1F
100
AcDbEntity
  8
1
 62
     3
 60
     1
100
AcDbPoint
 10
2167.20620042774
 20
565.539320483075
 30
0.0
  0
POINT
  5
BF
330
1F
100
AcDbEntity
  8
1
 62
     3
 60
     1
100
AcDbPoint
 10
2167.20620042774
 20
564.739320483075
 30
0.0
  0
POINT
  5
C0
330
1F
100
AcDbEntity
  8
1
 62
     3
 60
     1
100
AcDbPoint
 10
2168.00620042774
 20
565.539320483075
 30
0.0
  0
POINT
  5
C1
330
1F
100
AcDbEntity
  8
1
 62
     3
 60
     1
100
AcDbPoint
 10
2167.20620042774
 20
568.039320483075
 30
0.0
  0
POINT
  5
C2
330
1F
100
AcDbEntity
  8
1
 62
     3
 60
     1
100
AcDbPoint
 10
2168.00620042774
 20
568.039320483075
 30
0.0
  0
POINT
  5
C3
330
1F
100
AcDbEntity
  8
1
 62
     3
 60
     1
100
AcDbPoint
 10
2167.20620042774
 20
568.839320483075
 30
0.0
  0
POINT
  5
C4
330
1F
100
AcDbEntity
  8
1
 62
     3
 60
     1
100
AcDbPoint
 10
2390.61071043989
 20
656.483173795823
 30
0.0
  0
POINT
  5
C5
330
1F
100
AcDbEntity
  8
1
 62
     3
 60
     1
100
AcDbPoint
 10
2390.61071043989
 20
655.683173795823
 30
0.0
  0
POINT
  5
C6
330
1F
100
AcDbEntity
  8
1
 62
     3
 60
     1
100
AcDbPoint
 10
2391.41071043989
 20
656.483173795823
 30
0.0
  0
POINT
  5
C7
330
1F
100
AcDbEntity
  8
1
 62
     3
 60
     1
100
AcDbPoint
 10
2390.61071043989
 20
658.983173795823
 30
0.0
  0
POINT
  5
C8
330
1F
100
AcDbEntity
  8
1
 62
     3
 60
     1
100
AcDbPoint
 10
2391.41071043989
 20
658.983173795823
 30
0.0
  0
POINT
  5
C9
330
1F
100
AcDbEntity
  8
1
 62
     3
 60
     1
100
AcDbPoint
 10
2390.61071043989
 20
659.783173795823
 30
0.0
  0
POINT
  5
CA
330
1F
100
AcDbEntity
  8
1
 62
     3
 60
     1
100
AcDbPoint
 10
2792.13167044376
 20
577.251362504037
 30
0.0
  0
POINT
  5
CB
330
1F
100
AcDbEntity
  8
1
 62
     3
 60
     1
100
AcDbPoint
 10
2792.13167044376
 20
576.451362504037
 30
0.0
  0
POINT
  5
CC
330
1F
100
AcDbEntity
  8
1
 62
     3
 60
     1
100
AcDbPoint
 10
2792.93167044375
 20
577.251362504037
 30
0.0
  0
POINT
  5
CD
330
1F
100
AcDbEntity
  8
1
 62
     3
 60
     1
100
AcDbPoint
 10
2792.13167044376
 20
579.751362504037
 30
0.0
  0
POINT
  5
CE
330
1F
100
AcDbEntity
  8
1
 62
     3
 60
     1
100
AcDbPoint
 10
2792.93167044375
 20
579.751362504037
 30
0.0
  0
POINT
  5
CF
330
1F
100
AcDbEntity
  8
1
 62
     3
 60
     1
100
AcDbPoint
 10
2792.13167044376
 20
580.551362504037
 30
0.0
  0
POINT
  5
D0
330
1F
100
AcDbEntity
  8
1
 62
     3
 60
     1
100
AcDbPoint
 10
2785.47042554239
 20
799.896732357685
 30
0.0
  0
POINT
  5
D1
330
1F
100
AcDbEntity
  8
1
 62
     3
 60
     1
100
AcDbPoint
 10
2785.47042554239
 20
799.096732357685
 30
0.0
  0
POINT
  5
D2
330
1F
100
AcDbEntity
  8
1
 62
     3
 60
     1
100
AcDbPoint
 10
2786.27042554239
 20
799.896732357685
 30
0.0
  0
POINT
  5
D3
330
1F
100
AcDbEntity
  8
1
 62
     3
 60
     1
100
AcDbPoint
 10
2785.47042554239
 20
802.396732357685
 30
0.0
  0
POINT
  5
D4
330
1F
100
AcDbEntity
  8
1
 62
     3
 60
     1
100
AcDbPoint
 10
2786.27042554239
 20
802.396732357685
 30
0.0
  0
POINT
  5
D5
330
1F
100
AcDbEntity
  8
1
 62
     3
 60
     1
100
AcDbPoint
 10
2785.47042554239
 20
803.196732357685
 30
0.0
  0
POINT
  5
D6
330
1F
100
AcDbEntity
  8
1
 62
     3
 60
     1
100
AcDbPoint
 10
2155.54495552638
 20
816.18539400714
 30
0.0
  0
POINT
  5
D7
330
1F
100
AcDbEntity
  8
1
 62
     3
 60
     1
100
AcDbPoint
 10
2156.34495552638
 20
815.38539400714
 30
0.0
  0
POINT
  5
D8
330
1F
100
AcDbEntity
  8
1
 62
     3
 60
     1
100
AcDbPoint
 10
2155.54495552638
 20
815.38539400714
 30
0.0
  0
POINT
  5
D9
330
1F
100
AcDbEntity
  8
1
 62
     3
 60
     1
100
AcDbPoint
 10
2156.34495552638
 20
812.88539400714
 30
0.0
  0
POINT
  5
DA
330
1F
100
AcDbEntity
  8
1
 62
     3
 60
     1
100
AcDbPoint
 10
2155.54495552638
 20
812.085394007139
 30
0.0
  0
POINT
  5
DB
330
1F
100
AcDbEntity
  8
1
 62
     3
 60
     1
100
AcDbPoint
 10
2155.54495552638
 20
812.88539400714
 30
0.0
  0
POINT
  5
DC
330
1F
100
AcDbEntity
  8
1
 62
     3
 60
     1
100
AcDbPoint
 10
2162.20620042774
 20
593.540024153492
 30
0.0
  0
POINT
  5
DD
330
1F
100
AcDbEntity
  8
1
 62
     3
 60
     1
100
AcDbPoint
 10
2163.00620042774
 20
592.740024153492
 30
0.0
  0
POINT
  5
DE
330
1F
100
AcDbEntity
  8
1
 62
     3
 60
     1
100
AcDbPoint
 10
2162.20620042774
 20
592.740024153492
 30
0.0
  0
POINT
  5
DF
330
1F
100
AcDbEntity
  8
1
 62
     3
 60
     1
100
AcDbPoint
 10
2163.00620042774
 20
590.240024153492
 30
0.0
  0
POINT
  5
E0
330
1F
100
AcDbEntity
  8
1
 62
     3
 60
     1
100
AcDbPoint
 10
2162.20620042774
 20
589.440024153492
 30
0.0
  0
POINT
  5
E1
330
1F
100
AcDbEntity
  8
1
 62
     3
 60
     1
100
AcDbPoint
 10
2162.20620042774
 20
590.240024153492
 30
0.0
  0
POINT
  5
E2
330
1F
100
AcDbEntity
  8
1
 62
     3
 60
     1
100
AcDbPoint
 10
1760.68524042387
 20
672.771835445278
 30
0.0
  0
POINT
  5
E3
330
1F
100
AcDbEntity
  8
1
 62
     3
 60
     1
100
AcDbPoint
 10
1761.48524042387
 20
671.971835445278
 30
0.0
  0
POINT
  5
E4
330
1F
100
AcDbEntity
  8
1
 62
     3
 60
     1
100
AcDbPoint
 10
1760.68524042387
 20
671.971835445278
 30
0.0
  0
POINT
  5
E5
330
1F
100
AcDbEntity
  8
1
 62
     3
 60
     1
100
AcDbPoint
 10
1761.48524042387
 20
669.471835445278
 30
0.0
  0
POINT
  5
E6
330
1F
100
AcDbEntity
  8
1
 62
     3
 60
     1
100
AcDbPoint
 10
1760.68524042387
 20
668.671835445278
 30
0.0
  0
POINT
  5
E7
330
1F
100
AcDbEntity
  8
1
 62
     3
 60
     1
100
AcDbPoint
 10
1760.68524042387
 20
669.471835445278
 30
0.0
  0
POINT
  5
E8
330
1F
100
AcDbEntity
  8
1
 62
     3
 60
     1
100
AcDbPoint
 10
1537.28073041172
 20
581.82798213253
 30
0.0
  0
POINT
  5
E9
330
1F
100
AcDbEntity
  8
1
 62
     3
 60
     1
100
AcDbPoint
 10
1538.08073041172
 20
581.02798213253
 30
0.0
  0
POINT
  5
EA
330
1F
100
AcDbEntity
  8
1
 62
     3
 60
     1
100
AcDbPoint
 10
1537.28073041172
 20
581.02798213253
 30
0.0
  0
POINT
  5
EB
330
1F
100
AcDbEntity
  8
1
 62
     3
 60
     1
100
AcDbPoint
 10
1538.08073041172
 20
578.52798213253
 30
0.0
  0
POINT
  5
EC
330
1F
100
AcDbEntity
  8
1
 62
     3
 60
     1
100
AcDbPoint
 10
1537.28073041172
 20
577.72798213253
 30
0.0
  0
POINT
  5
ED
330
1F
100
AcDbEntity
  8
1
 62
     3
 60
     1
100
AcDbPoint
 10
1537.28073041172
 20
578.52798213253
 30
0.0
  0
POINT
  5
EE
330
1F
100
AcDbEntity
  8
1
 62
     3
 60
     1
100
AcDbPoint
 10
2162.20620042774
 20
580.424092675007
 30
0.0
  0
POINT
  5
EF
330
1F
100
AcDbEntity
  8
1
 62
     3
 60
     1
100
AcDbPoint
 10
2162.20620042774
 20
579.624092675007
 30
0.0
  0
POINT
  5
F0
330
1F
100
AcDbEntity
  8
1
 62
     3
 60
     1
100
AcDbPoint
 10
2163.00620042774
 20
580.424092675007
 30
0.0
  0
POINT
  5
F1
330
1F
100
AcDbEntity
  8
1
 62
     3
 60
     1
100
AcDbPoint
 10
2162.20620042774
 20
582.924092675007
 30
0.0
  0
POINT
  5
F2
330
1F
100
AcDbEntity
  8
1
 62
     3
 60
     1
100
AcDbPoint
 10
2163.00620042774
 20
582.924092675007
 30
0.0
  0
POINT
  5
F3
330
1F
100
AcDbEntity
  8
1
 62
     3
 60
     1
100
AcDbPoint
 10
2162.20620042774
 20
583.724092675007
 30
0.0
  0
POINT
  5
F4
330
1F
100
AcDbEntity
  8
1
 62
     3
 60
     1
100
AcDbPoint
 10
2385.61071043989
 20
671.367945987755
 30
0.0
  0
POINT
  5
F5
330
1F
100
AcDbEntity
  8
1
 62
     3
 60
     1
100
AcDbPoint
 10
2385.61071043989
 20
670.567945987755
 30
0.0
  0
POINT
  5
F6
330
1F
100
AcDbEntity
  8
1
 62
     3
 60
     1
100
AcDbPoint
 10
2386.41071043989
 20
671.367945987755
 30
0.0
  0
POINT
  5
F7
330
1F
100
AcDbEntity
  8
1
 62
     3
 60
     1
100
AcDbPoint
 10
2385.61071043989
 20
673.867945987755
 30
0.0
  0
POINT
  5
F8
330
1F
100
AcDbEntity
  8
1
 62
     3
 60
     1
100
AcDbPoint
 10
2386.41071043989
 20
673.867945987755
 30
0.0
  0
POINT
  5
F9
330
1F
100
AcDbEntity
  8
1
 62
     3
 60
     1
100
AcDbPoint
 10
2385.61071043989
 20
674.667945987755
 30
0.0
  0
POINT
  5
FA
330
1F
100
AcDbEntity
  8
1
 62
     3
 60
     1
100
AcDbPoint
 10
2787.13167044376
 20
592.136134695969
 30
0.0
  0
POINT
  5
FB
330
1F
100
AcDbEntity
  8
1
 62
     3
 60
     1
100
AcDbPoint
 10
2787.13167044376
 20
591.336134695969
 30
0.0
  0
POINT
  5
FC
330
1F
100
AcDbEntity
  8
1
 62
     3
 60
     1
100
AcDbPoint
 10
2787.93167044375
 20
592.136134695969
 30
0.0
  0
POINT
  5
FD
330
1F
100
AcDbEntity
  8
1
 62
     3
 60
     1
100
AcDbPoint
 10
2787.13167044376
 20
594.636134695969
 30
0.0
  0
POINT
  5
FE
330
1F
100
AcDbEntity
  8
1
 62
     3
 60
     1
100
AcDbPoint
 10
2787.93167044375
 20
594.636134695969
 30
0.0
  0
POINT
  5
FF
330
1F
100
AcDbEntity
  8
1
 62
     3
 60
     1
100
AcDbPoint
 10
2787.13167044376
 20
595.436134695969
 30
0.0
  0
POINT
  5
100
330
1F
100
AcDbEntity
  8
1
 62
     3
 60
     1
100
AcDbPoint
 10
2780.47042554239
 20
814.781504549617
 30
0.0
  0
POINT
  5
101
330
1F
100
AcDbEntity
  8
1
 62
     3
 60
     1
100
AcDbPoint
 10
2780.47042554239
 20
813.981504549616
 30
0.0
  0
POINT
  5
102
330
1F
100
AcDbEntity
  8
1
 62
     3
 60
     1
100
AcDbPoint
 10
2781.27042554239
 20
814.781504549617
 30
0.0
  0
POINT
  5
103
330
1F
100
AcDbEntity
  8
1
 62
     3
 60
     1
100
AcDbPoint
 10
2780.47042554239
 20
817.281504549617
 30
0.0
  0
POINT
  5
104
330
1F
100
AcDbEntity
  8
1
 62
     3
 60
     1
100
AcDbPoint
 10
2781.27042554239
 20
817.281504549617
 30
0.0
  0
POINT
  5
105
330
1F
100
AcDbEntity
  8
1
 62
     3
 60
     1
100
AcDbPoint
 10
2780.47042554239
 20
818.081504549617
 30
0.0
  0
POINT
  5
106
330
1F
100
AcDbEntity
  8
1
 62
     3
 60
     1
100
AcDbPoint
 10
2476.54492530558
 20
365.210460324782
 30
0.0
  0
POINT
  5
107
330
1F
100
AcDbEntity
  8
1
 62
     3
 60
     1
100
AcDbPoint
 10
2477.34492530558
 20
364.410460324782
 30
0.0
  0
POINT
  5
108
330
1F
100
AcDbEntity
  8
1
 62
     3
 60
     1
100
AcDbPoint
 10
2476.54492530558
 20
364.410460324782
 30
0.0
  0
POINT
  5
109
330
1F
100
AcDbEntity
  8
1
 62
     3
 60
     1
100
AcDbPoint
 10
2477.34492530558
 20
361.910460324782
 30
0.0
  0
POINT
  5
10A
330
1F
100
AcDbEntity
  8
1
 62
     3
 60
     1
100
AcDbPoint
 10
2476.54492530558
 20
361.110460324782
 30
0.0
  0
POINT
  5
10B
330
1F
100
AcDbEntity
  8
1
 62
     3
 60
     1
100
AcDbPoint
 10
2476.54492530558
 20
361.910460324782
 30
0.0
  0
POINT
  5
10C
330
1F
100
AcDbEntity
  8
1
 62
     3
 60
     1
100
AcDbPoint
 10
2075.02396530171
 20
444.442271616567
 30
0.0
  0
POINT
  5
10D
330
1F
100
AcDbEntity
  8
1
 62
     3
 60
     1
100
AcDbPoint
 10
2075.82396530171
 20
443.642271616568
 30
0.0
  0
POINT
  5
10E
330
1F
100
AcDbEntity
  8
1
 62
     3
 60
     1
100
AcDbPoint
 10
2075.02396530171
 20
443.642271616568
 30
0.0
  0
POINT
  5
10F
330
1F
100
AcDbEntity
  8
1
 62
     3
 60
     1
100
AcDbPoint
 10
2075.82396530171
 20
441.142271616568
 30
0.0
  0
POINT
  5
110
330
1F
100
AcDbEntity
  8
1
 62
     3
 60
     1
100
AcDbPoint
 10
2075.02396530171
 20
440.342271616568
 30
0.0
  0
POINT
  5
111
330
1F
100
AcDbEntity
  8
1
 62
     3
 60
     1
100
AcDbPoint
 10
2075.02396530171
 20
441.142271616568
 30
0.0
  0
POINT
  5
112
330
1F
100
AcDbEntity
  8
1
 62
     3
 60
     1
100
AcDbPoint
 10
1851.61945528956
 20
353.49841830382
 30
0.0
  0
POINT
  5
113
330
1F
100
AcDbEntity
  8
1
 62
     3
 60
     1
100
AcDbPoint
 10
1852.41945528956
 20
352.69841830382
 30
0.0
  0
POINT
  5
114
330
1F
100
AcDbEntity
  8
1
 62
     3
 60
     1
100
AcDbPoint
 10
1851.61945528956
 20
352.69841830382
 30
0.0
  0
POINT
  5
115
330
1F
100
AcDbEntity
  8
1
 62
     3
 60
     1
100
AcDbPoint
 10
1852.41945528956
 20
350.19841830382
 30
0.0
  0
POINT
  5
116
330
1F
100
AcDbEntity
  8
1
 62
     3
 60
     1
100
AcDbPoint
 10
1851.61945528956
 20
349.39841830382
 30
0.0
  0
POINT
  5
117
330
1F
100
AcDbEntity
  8
1
 62
     3
 60
     1
100
AcDbPoint
 10
1851.61945528956
 20
350.19841830382
 30
0.0
  0
POINT
  5
118
330
1F
100
AcDbEntity
  8
1
 62
     3
 60
     1
100
AcDbPoint
 10
2469.88368040422
 20
587.855830178429
 30
0.0
  0
POINT
  5
119
330
1F
100
AcDbEntity
  8
1
 62
     3
 60
     1
100
AcDbPoint
 10
2470.68368040421
 20
587.05583017843
 30
0.0
  0
POINT
  5
11A
330
1F
100
AcDbEntity
  8
1
 62
     3
 60
     1
100
AcDbPoint
 10
2469.88368040422
 20
587.05583017843
 30
0.0
  0
POINT
  5
11B
330
1F
100
AcDbEntity
  8
1
 62
     3
 60
     1
100
AcDbPoint
 10
2470.68368040421
 20
584.55583017843
 30
0.0
  0
POINT
  5
11C
330
1F
100
AcDbEntity
  8
1
 62
     3
 60
     1
100
AcDbPoint
 10
2469.88368040422
 20
583.755830178429
 30
0.0
  0
POINT
  5
11D
330
1F
100
AcDbEntity
  8
1
 62
     3
 60
     1
100
AcDbPoint
 10
2469.88368040422
 20
584.55583017843
 30
0.0
  0
LINE
  5
11E
330
1F
100
AcDbEntity
  8
1
  6
Continuous
 62
     3
100
AcDbLine
 10
714.346169856463
 20
-29.2507419598809
 30
0.0
 11
738.346169856463
 21
-29.2507419598809
 31
0.0
  0
LINE
  5
11F
330
1F
100
AcDbEntity
  8
1
  6
Continuous
 62
     3
100
AcDbLine
 10
738.346169856463
 20
-56.4389747086272
 30
0.0
 11
714.346169856463
 21
-56.4389747086272
 31
0.0
  0
LINE
  5
120
330
1F
100
AcDbEntity
  8
1
  6
Continuous
 62
     3
100
AcDbLine
 10
591.348198209191
 20
-69.8451321324833
 30
0.0
 11
591.898198209191
 21
-69.8451321324833
 31
0.0
  0
LINE
  5
121
330
1F
100
AcDbEntity
  8
1
  6
Continuous
 62
     3
100
AcDbLine
 10
591.348198209191
 20
-63.9451432996029
 30
0.0
 11
591.348198209191
 21
-65.8448583332035
 31
0.0
  0
LINE
  5
122
330
1F
100
AcDbEntity
  8
1
  6
Continuous
 62
     3
100
AcDbLine
 10
606.348198209191
 20
-63.9451260037637
 30
0.0
 11
606.348198209191
 21
-65.8448583332035
 31
0.0
  0
LINE
  5
123
330
1F
100
AcDbEntity
  8
11
  6
Continuous
 62
     3
100
AcDbLine
 10
607.098198209191
 20
-63.945132131093
 30
0.0
 11
608.001885990627
 21
-63.945132131093
 31
0.0
  0
LINE
  5
124
330
1F
100
AcDbEntity
  8
11
  6
Continuous
 62
     3
100
AcDbLine
 10
606.598198209191
 20
-64.445132131093
 30
0.0
 11
606.598198209191
 21
-65.8448583252033
 31
0.0
  0
LINE
  5
125
330
1F
100
AcDbEntity
  8
11
  6
Continuous
 62
     3
100
AcDbLine
 10
591.098198209191
 20
-64.445132131093
 30
0.0
 11
591.098198209191
 21
-65.8448583332035
 31
0.0
  0
LINE
  5
126
330
1F
100
AcDbEntity
  8
11
  6
Continuous
 62
     3
100
AcDbLine
 10
589.694510427756
 20
-63.945132131093
 30
0.0
 11
590.598198209191
 21
-63.945132131093
 31
0.0
  0
LINE
  5
127
330
1F
100
AcDbEntity
  8
1
  6
Continuous
 62
     3
100
AcDbLine
 10
592.448198209191
 20
-65.5948583340519
 30
0.0
 11
593.448198209191
 21
-65.5948583340519
 31
0.0
  0
LINE
  5
128
330
1F
100
AcDbEntity
  8
1
  6
Continuous
 62
     3
100
AcDbLine
 10
604.248198209191
 20
-65.5948583340519
 30
0.0
 11
605.248198209191
 21
-65.5948583340519
 31
0.0
  0
LINE
  5
129
330
1F
100
AcDbEntity
  8
1
  6
Continuous
 62
     3
100
AcDbLine
 10
594.898198209191
 20
-65.5948583340519
 30
0.0
 11
602.798198209191
 21
-65.5948583340519
 31
0.0
  0
LINE
  5
12A
330
1F
100
AcDbEntity
  8
1
  6
Continuous
 62
     3
100
AcDbLine
 10
591.898198209191
 20
-64.0948583340519
 30
0.0
 11
605.798198209191
 21
-64.0948583340519
 31
0.0
  0
LINE
  5
12B
330
1F
100
AcDbEntity
  8
1
  6
Continuous
 62
     3
100
AcDbLine
 10
602.398198209191
 20
-70.0948583340519
 30
0.0
 11
602.798198209191
 21
-70.0948583340519
 31
0.0
  0
LINE
  5
12C
330
1F
100
AcDbEntity
  8
1
  6
Continuous
 62
     3
100
AcDbLine
 10
602.798198209191
 20
-70.0948583340519
 30
0.0
 11
605.798198209191
 21
-70.0948583340519
 31
0.0
  0
LINE
  5
12D
330
1F
100
AcDbEntity
  8
1
  6
Continuous
 62
     3
100
AcDbLine
 10
604.248198209191
 20
-68.194858334052
 30
0.0
 11
604.248198209191
 21
-64.0948583340519
 31
0.0
  0
LINE
  5
12E
330
1F
100
AcDbEntity
  8
1
  6
Continuous
 62
     3
100
AcDbLine
 10
605.248198209191
 20
-68.194858334052
 30
0.0
 11
604.248198209191
 21
-68.194858334052
 31
0.0
  0
LINE
  5
12F
330
1F
100
AcDbEntity
  8
1
  6
Continuous
 62
     3
100
AcDbLine
 10
605.248198209191
 20
-64.0948583340519
 30
0.0
 11
605.248198209191
 21
-68.194858334052
 31
0.0
  0
LINE
  5
130
330
1F
100
AcDbEntity
  8
1
  6
Continuous
 62
     3
100
AcDbLine
 10
593.448198209191
 20
-68.194858334052
 30
0.0
 11
593.448198209191
 21
-64.0948583340519
 31
0.0
  0
LINE
  5
131
330
1F
100
AcDbEntity
  8
1
  6
Continuous
 62
     3
100
AcDbLine
 10
592.448198209191
 20
-68.194858334052
 30
0.0
 11
593.448198209191
 21
-68.194858334052
 31
0.0
  0
LINE
  5
132
330
1F
100
AcDbEntity
  8
1
  6
Continuous
 62
     3
100
AcDbLine
 10
592.448198209191
 20
-64.0948583340519
 30
0.0
 11
592.448198209191
 21
-68.194858334052
 31
0.0
  0
LINE
  5
133
330
1F
100
AcDbEntity
  8
1
  6
Continuous
 62
     3
100
AcDbLine
 10
602.798198209191
 20
-65.5948620063836
 30
0.0
 11
602.798198209191
 21
-70.0948583340519
 31
0.0
  0
LINE
  5
134
330
1F
100
AcDbEntity
  8
1
  6
Continuous
 62
     3
100
AcDbLine
 10
594.898198209191
 20
-65.5948620063836
 30
0.0
 11
594.898198209191
 21
-70.0948583340519
 31
0.0
  0
LINE
  5
135
330
1F
100
AcDbEntity
  8
1
  6
Continuous
 62
     3
100
AcDbLine
 10
591.898198209191
 20
-70.0948583340519
 30
0.0
 11
595.198198209191
 21
-70.0948583340519
 31
0.0
  0
LINE
  5
136
330
1F
100
AcDbEntity
  8
1
  6
Continuous
 62
     3
100
AcDbLine
 10
605.798198209191
 20
-70.0948583340519
 30
0.0
 11
605.798198209191
 21
-64.0948583340519
 31
0.0
  0
LINE
  5
137
330
1F
100
AcDbEntity
  8
1
  6
Continuous
 62
     3
100
AcDbLine
 10
591.898198209191
 20
-70.0948583340519
 30
0.0
 11
591.898198209191
 21
-64.0948583340519
 31
0.0
  0
LINE
  5
138
330
1F
100
AcDbEntity
  8
1
  6
Continuous
 62
     3
100
AcDbLine
 10
619.848198209191
 20
-58.8448568597613
 30
0.0
 11
619.848198209191
 21
-26.8448583345936
 31
0.0
  0
LINE
  5
139
330
1F
100
AcDbEntity
  8
1
  6
Continuous
 62
     3
100
AcDbLine
 10
614.848198209191
 20
-21.8448583345937
 30
0.0
 11
582.848197018372
 21
-21.8448583345937
 31
0.0
  0
LINE
  5
13A
330
1F
100
AcDbEntity
  8
2
  6
Continuous
 62
     1
100
AcDbLine
 10
574.594805726603
 20
-42.8448583345937
 30
0.0
 11
622.597962008617
 21
-42.8448583345936
 31
0.0
  0
LINE
  5
13B
330
1F
100
AcDbEntity
  8
1
  6
Continuous
 62
     3
100
AcDbLine
 10
577.848189397129
 20
-58.8448462300146
 30
0.0
 11
577.848197018372
 21
-26.8448571437741
 31
0.0
  0
LINE
  5
13C
330
1F
100
AcDbEntity
  8
1
  6
Continuous
 62
     3
100
AcDbLine
 10
582.848187922297
 20
-63.844847420834
 30
0.0
 11
614.848196734359
 21
-63.8448568597613
 31
0.0
  0
LINE
  5
13D
330
1F
100
AcDbEntity
  8
1
  6
DASHED
 62
     2
100
AcDbLine
 10
604.468198209191
 20
-80.4172937921379
 30
0.0
 11
604.468198209191
 21
-71.8448583340519
 31
0.0
  0
LINE
  5
13E
330
1F
100
AcDbEntity
  8
1
  6
DASHED
 62
     2
100
AcDbLine
 10
602.468198209191
 20
-80.4172937921379
 30
0.0
 11
602.468198209191
 21
-71.8448583340519
 31
0.0
  0
LINE
  5
13F
330
1F
100
AcDbEntity
  8
1
  6
DASHED
 62
     2
100
AcDbLine
 10
603.228198209191
 20
-80.4172937921379
 30
0.0
 11
603.228198209191
 21
-71.8448583340519
 31
0.0
  0
LINE
  5
140
330
1F
100
AcDbEntity
  8
1
  6
DASHED
 62
     2
100
AcDbLine
 10
601.228198209191
 20
-80.4172937921379
 30
0.0
 11
601.228198209191
 21
-71.8448583340519
 31
0.0
  0
LINE
  5
141
330
1F
100
AcDbEntity
  8
1
  6
DASHED
 62
     2
100
AcDbLine
 10
600.468198209191
 20
-80.4172937921379
 30
0.0
 11
600.468198209191
 21
-71.8448583340519
 31
0.0
  0
LINE
  5
142
330
1F
100
AcDbEntity
  8
1
  6
DASHED
 62
     2
100
AcDbLine
 10
599.228198209191
 20
-80.4172937921379
 30
0.0
 11
599.228198209191
 21
-71.8448583340519
 31
0.0
  0
LINE
  5
143
330
1F
100
AcDbEntity
  8
1
  6
DASHED
 62
     2
100
AcDbLine
 10
598.468198209191
 20
-80.4172937921379
 30
0.0
 11
598.468198209191
 21
-71.8448583340519
 31
0.0
  0
LINE
  5
144
330
1F
100
AcDbEntity
  8
1
  6
DASHED
 62
     2
100
AcDbLine
 10
597.228198209191
 20
-80.4172937921379
 30
0.0
 11
597.228198209191
 21
-71.8448583340519
 31
0.0
  0
LINE
  5
145
330
1F
100
AcDbEntity
  8
1
  6
DASHED
 62
     2
100
AcDbLine
 10
596.468198209191
 20
-80.4172937921379
 30
0.0
 11
596.468198209191
 21
-71.8448583340519
 31
0.0
  0
LINE
  5
146
330
1F
100
AcDbEntity
  8
1
  6
DASHED
 62
     2
100
AcDbLine
 10
595.228198209191
 20
-71.8448199679849
 30
0.0
 11
595.228198209191
 21
-80.4172937921379
 31
0.0
  0
LINE
  5
147
330
1F
100
AcDbEntity
  8
1
  6
DASHED
 62
     2
100
AcDbLine
 10
594.468198209191
 20
-80.4172937921379
 30
0.0
 11
594.468198209191
 21
-71.8448583340519
 31
0.0
  0
LINE
  5
148
330
1F
100
AcDbEntity
  8
1
  6
DASHED
 62
     2
100
AcDbLine
 10
593.228198209191
 20
-71.8448199679849
 30
0.0
 11
593.228198209191
 21
-80.4172937921379
 31
0.0
  0
LINE
  5
149
330
1F
100
AcDbEntity
  8
1
  6
Continuous
 62
     2
100
AcDbLine
 10
592.598198209191
 20
-70.3448583340519
 30
0.0
 11
592.598198209191
 21
-70.0948583340519
 31
0.0
  0
LINE
  5
14A
330
1F
100
AcDbEntity
  8
1
  6
DASHED
 62
     2
100
AcDbLine
 10
592.598198209191
 20
-70.3448583340519
 30
0.0
 11
591.848198209191
 21
-71.3448583340519
 31
0.0
  0
LINE
  5
14B
330
1F
100
AcDbEntity
  8
1
  6
DASHED
 62
     2
100
AcDbLine
 10
591.848198209191
 20
-71.3448583340519
 30
0.0
 11
605.848198209191
 21
-71.3448583340519
 31
0.0
  0
LINE
  5
14C
330
1F
100
AcDbEntity
  8
1
  6
DASHED
 62
     2
100
AcDbLine
 10
602.398198209191
 20
-71.3448583340519
 30
0.0
 11
602.398198209191
 21
-71.8448583340519
 31
0.0
  0
LINE
  5
14D
330
1F
100
AcDbEntity
  8
1
  6
DASHED
 62
     2
100
AcDbLine
 10
605.39819820919
 20
-71.3448583340519
 30
0.0
 11
605.398198209191
 21
-71.8448583340519
 31
0.0
  0
LINE
  5
14E
330
1F
100
AcDbEntity
  8
1
  6
DASHED
 62
     2
100
AcDbLine
 10
603.39819820919
 20
-71.3448583340519
 30
0.0
 11
603.398198209191
 21
-71.8448583340519
 31
0.0
  0
LINE
  5
14F
330
1F
100
AcDbEntity
  8
1
  6
DASHED
 62
     2
100
AcDbLine
 10
604.198198209191
 20
-71.8448583340519
 30
0.0
 11
604.198198209191
 21
-71.3448583340519
 31
0.0
  0
LINE
  5
150
330
1F
100
AcDbEntity
  8
1
  6
DASHED
 62
     2
100
AcDbLine
 10
601.398198209191
 20
-71.3448583340519
 30
0.0
 11
601.398198209191
 21
-71.8448583340519
 31
0.0
  0
LINE
  5
151
330
1F
100
AcDbEntity
  8
1
  6
DASHED
 62
     2
100
AcDbLine
 10
602.198198209191
 20
-71.8448583340519
 30
0.0
 11
602.198198209191
 21
-71.3448583340519
 31
0.0
  0
LINE
  5
152
330
1F
100
AcDbEntity
  8
1
  6
DASHED
 62
     2
100
AcDbLine
 10
599.398198209191
 20
-71.3448583340519
 30
0.0
 11
599.398198209191
 21
-71.8448583340519
 31
0.0
  0
LINE
  5
153
330
1F
100
AcDbEntity
  8
1
  6
DASHED
 62
     2
100
AcDbLine
 10
600.198198209191
 20
-71.8448583340519
 30
0.0
 11
600.198198209191
 21
-71.3448583340519
 31
0.0
  0
LINE
  5
154
330
1F
100
AcDbEntity
  8
1
  6
DASHED
 62
     2
100
AcDbLine
 10
597.398198209191
 20
-71.3448583340519
 30
0.0
 11
597.398198209191
 21
-71.8448583340519
 31
0.0
  0
LINE
  5
155
330
1F
100
AcDbEntity
  8
1
  6
DASHED
 62
     2
100
AcDbLine
 10
598.198198209191
 20
-71.8448583340519
 30
0.0
 11
598.198198209191
 21
-71.3448583340519
 31
0.0
  0
LINE
  5
156
330
1F
100
AcDbEntity
  8
1
  6
DASHED
 62
     2
100
AcDbLine
 10
595.39819820919
 20
-71.3448583340519
 30
0.0
 11
595.398198209191
 21
-71.8448583340519
 31
0.0
  0
LINE
  5
157
330
1F
100
AcDbEntity
  8
1
  6
DASHED
 62
     2
100
AcDbLine
 10
596.198198209191
 20
-71.8448583340519
 30
0.0
 11
596.198198209191
 21
-71.3448583340519
 31
0.0
  0
LINE
  5
158
330
1F
100
AcDbEntity
  8
1
  6
DASHED
 62
     2
100
AcDbLine
 10
593.398198209191
 20
-71.3448583340519
 30
0.0
 11
593.39819820919
 21
-71.8448583340519
 31
0.0
  0
LINE
  5
159
330
1F
100
AcDbEntity
  8
1
  6
DASHED
 62
     2
100
AcDbLine
 10
594.198198209191
 20
-71.8448583340519
 30
0.0
 11
594.198198209191
 21
-71.3448583340519
 31
0.0
  0
LINE
  5
15A
330
1F
100
AcDbEntity
  8
1
  6
DASHED
 62
     2
100
AcDbLine
 10
592.198198209191
 20
-71.8448583340519
 30
0.0
 11
592.198198209191
 21
-71.3448583340519
 31
0.0
  0
LINE
  5
15B
330
1F
100
AcDbEntity
  8
1
  6
DASHED
 62
     2
100
AcDbLine
 10
595.198198209191
 20
-71.8448583340519
 30
0.0
 11
595.198198209191
 21
-71.3448583340522
 31
0.0
  0
LINE
  5
15C
330
1F
100
AcDbEntity
  8
1
  6
DASHED
 62
     2
100
AcDbLine
 10
591.848198209191
 20
-71.8448583340519
 30
0.0
 11
591.848198209191
 21
-71.3448583340519
 31
0.0
  0
LINE
  5
15D
330
1F
100
AcDbEntity
  8
1
  6
DASHED
 62
     2
100
AcDbLine
 10
605.848198209191
 20
-71.3448583340519
 30
0.0
 11
605.848198209192
 21
-71.8448583340519
 31
0.0
  0
LINE
  5
15E
330
1F
100
AcDbEntity
  8
1
  6
DASHED
 62
     2
100
AcDbLine
 10
595.198198209191
 20
-71.3448583340522
 30
0.0
 11
595.198198209191
 21
-70.0948583340519
 31
0.0
  0
LINE
  5
15F
330
1F
100
AcDbEntity
  8
1
  6
DASHED
 62
     2
100
AcDbLine
 10
596.198198209191
 20
-70.8448583340519
 30
0.0
 11
601.398198209191
 21
-70.8448583340519
 31
0.0
  0
LINE
  5
160
330
1F
100
AcDbEntity
  8
1
  6
DASHED
 62
     2
100
AcDbLine
 10
601.398198209191
 20
-70.8448583340519
 30
0.0
 11
601.398198209191
 21
-65.5948580390856
 31
0.0
  0
LINE
  5
161
330
1F
100
AcDbEntity
  8
1
  6
DASHED
 62
     2
100
AcDbLine
 10
602.398198209191
 20
-71.3448583340519
 30
0.0
 11
602.398198209191
 21
-65.5948583340519
 31
0.0
  0
LINE
  5
162
330
1F
100
AcDbEntity
  8
1
  6
DASHED
 62
     2
100
AcDbLine
 10
596.198198209191
 20
-69.3448583340519
 30
0.0
 11
601.398198209191
 21
-69.3448583340519
 31
0.0
  0
LINE
  5
163
330
1F
100
AcDbEntity
  8
1
  6
LONG_DASHED
 62
     4
100
AcDbLine
 10
605.048198209191
 20
-70.0948583340519
 30
0.0
 11
605.798198209191
 21
-71.244858334052
 31
0.0
  0
LINE
  5
164
330
1F
100
AcDbEntity
  8
1
  6
LONG_DASHED
 62
     4
100
AcDbLine
 10
592.648198209191
 20
-70.0948583340519
 30
0.0
 11
591.898198209191
 21
-71.244858334052
 31
0.0
  0
LINE
  5
165
330
1F
100
AcDbEntity
  8
1
  6
DASHED
 62
     2
100
AcDbLine
 10
605.848198209192
 20
-71.8448583340519
 30
0.0
 11
591.848198209191
 21
-71.8448583340519
 31
0.0
  0
LINE
  5
166
330
1F
100
AcDbEntity
  8
1
  6
DASHED
 62
     2
100
AcDbLine
 10
595.198198209191
 20
-70.0948583340519
 30
0.0
 11
595.198198209191
 21
-65.59485326063
 31
0.0
  0
LINE
  5
167
330
1F
100
AcDbEntity
  8
1
  6
DASHED
 62
     2
100
AcDbLine
 10
596.198198209191
 20
-65.5948535555965
 30
0.0
 11
596.198198209191
 21
-70.8448583340519
 31
0.0
  0
LINE
  5
168
330
1F
100
AcDbEntity
  8
1
  6
DASH_CENTER
 62
     1
100
AcDbLine
 10
598.848198209191
 20
-18.0247175358603
 30
0.0
 11
598.848198209192
 21
-71.2337472234825
 31
0.0
  0
LINE
  5
169
330
1F
100
AcDbEntity
  8
1
  6
DASHED
 62
     2
100
AcDbLine
 10
605.848198209191
 20
-71.3448583340519
 30
0.0
 11
605.098198209191
 21
-70.3448583340519
 31
0.0
  0
LINE
  5
16A
330
1F
100
AcDbEntity
  8
1
  6
Continuous
 62
     2
100
AcDbLine
 10
605.098198209192
 20
-70.0948583340519
 30
0.0
 11
605.098198209191
 21
-70.3448583340519
 31
0.0
  0
LINE
  5
16B
330
1F
100
AcDbEntity
  8
1
  6
Continuous
 62
     3
100
AcDbLine
 10
595.198198209191
 20
-70.0948583340519
 30
0.0
 11
602.398198209191
 21
-70.0948583340519
 31
0.0
  0
LINE
  5
16C
330
1F
100
AcDbEntity
  8
1
  6
Continuous
 62
     3
100
AcDbLine
 10
591.098198209191
 20
-65.8448583332035
 30
0.0
 11
591.348198209191
 21
-65.8448583332035
 31
0.0
  0
LINE
  5
16D
330
1F
100
AcDbEntity
  8
1
  6
Continuous
 62
     3
100
AcDbLine
 10
591.348198209191
 20
-65.8448583332035
 30
0.0
 11
591.348198209191
 21
-69.8451321324833
 31
0.0
  0
LINE
  5
16E
330
1F
100
AcDbEntity
  8
1
  6
Continuous
 62
     3
100
AcDbLine
 10
606.348198209192
 20
-69.8451321324833
 30
0.0
 11
605.798198209191
 21
-69.8451321324833
 31
0.0
  0
LINE
  5
16F
330
1F
100
AcDbEntity
  8
1
  6
Continuous
 62
     3
100
AcDbLine
 10
606.348198209191
 20
-65.8448583332035
 30
0.0
 11
606.348198209192
 21
-69.8451321324833
 31
0.0
  0
LINE
  5
170
330
1F
100
AcDbEntity
  8
1
  6
Continuous
 62
     3
100
AcDbLine
 10
606.598198209191
 20
-65.8448583252033
 30
0.0
 11
606.348198209191
 21
-65.844858325189
 31
0.0
  0
LINE
  5
171
330
1F
100
AcDbEntity
  8
1
  6
Continuous
 62
     3
100
AcDbLine
 10
683.446169856463
 20
-45.3448583345936
 30
0.0
 11
704.446169856463
 21
-45.3448583345937
 31
0.0
  0
LINE
  5
172
330
1F
100
AcDbEntity
  8
1
  6
Continuous
 62
     3
100
AcDbLine
 10
683.446169856463
 20
-40.3448583345939
 30
0.0
 11
704.446169856463
 21
-40.3448583345937
 31
0.0
  0
LINE
  5
173
330
1F
100
AcDbEntity
  8
1
  6
Continuous
 62
     3
100
AcDbLine
 10
704.446169856463
 20
-31.8448583345937
 30
0.0
 11
704.446169856463
 21
-31.8449863241735
 31
0.0
  0
LINE
  5
174
330
1F
100
AcDbEntity
  8
1
  6
Continuous
 62
     3
100
AcDbLine
 10
706.446169856463
 20
-31.8448583345937
 30
0.0
 11
704.446169856463
 21
-31.8448583345937
 31
0.0
  0
LINE
  5
175
330
1F
100
AcDbEntity
  8
1
  6
Continuous
 62
     3
100
AcDbLine
 10
682.446169856463
 20
-44.9628923233435
 30
0.0
 11
682.446169856463
 21
-40.7268243458439
 31
0.0
  0
LINE
  5
176
330
1F
100
AcDbEntity
  8
1
  6
Continuous
 62
     2
100
AcDbLine
 10
683.446169856463
 20
-45.3448583345936
 30
0.0
 11
683.446169856463
 21
-40.3448583345939
 31
0.0
  0
LINE
  5
177
330
1F
100
AcDbEntity
  8
1
  6
Continuous
 62
     3
100
AcDbLine
 10
746.846175543029
 20
-21.8448583345937
 30
0.0
 11
738.346169856463
 21
-21.8448583345937
 31
0.0
  0
LINE
  5
178
330
1F
100
AcDbEntity
  8
1
  6
Continuous
 62
     3
100
AcDbLine
 10
738.346169856463
 20
-27.8448583345937
 30
0.0
 11
738.346169856463
 21
-57.8448583345936
 31
0.0
  0
LINE
  5
179
330
1F
100
AcDbEntity
  8
1
  6
Continuous
 62
     3
100
AcDbLine
 10
738.346169856463
 20
-27.8448583345937
 30
0.0
 11
738.346169856463
 21
-21.8448583345937
 31
0.0
  0
LINE
  5
17A
330
1F
100
AcDbEntity
  8
1
  6
Continuous
 62
     3
100
AcDbLine
 10
747.846175543029
 20
-22.8448583345937
 30
0.0
 11
747.846160543029
 21
-62.8448583345936
 31
0.0
  0
LINE
  5
17B
330
1F
100
AcDbEntity
  8
1
  6
Continuous
 62
     3
100
AcDbLine
 10
738.346169856463
 20
-63.8448480839303
 30
0.0
 11
738.346169856463
 21
-57.8448583345936
 31
0.0
  0
LINE
  5
17C
330
1F
100
AcDbEntity
  8
1
  6
Continuous
 62
     3
100
AcDbLine
 10
738.346169856463
 20
-63.8448480839303
 30
0.0
 11
746.846164041028
 21
-63.8448480839301
 31
0.0
  0
LINE
  5
17D
330
1F
100
AcDbEntity
  8
1
  6
Continuous
 62
     3
100
AcDbLine
 10
747.846164041027
 20
-62.8448463349297
 30
0.0
 11
747.846160543029
 21
-62.8448583345936
 31
0.0
  0
LINE
  5
17E
330
1F
100
AcDbEntity
  8
1
  6
Continuous
 62
     3
100
AcDbLine
 10
743.846168041711
 20
-63.8448480839301
 30
0.0
 11
743.846168041481
 21
-69.8448583329742
 31
0.0
  0
LINE
  5
17F
330
1F
100
AcDbEntity
  8
1
  6
Continuous
 62
     3
100
AcDbLine
 10
747.846164041027
 20
-62.8448463349297
 30
0.0
 11
747.846168734774
 21
-69.3448578116476
 31
0.0
  0
LINE
  5
180
330
1F
100
AcDbEntity
  8
1
  6
Continuous
 62
     3
100
AcDbLine
 10
743.846168041481
 20
-69.8448583329742
 30
0.0
 11
747.346168734745
 21
-69.8448583331749
 31
0.0
  0
LINE
  5
181
330
1F
100
AcDbEntity
  8
1
  6
Continuous
 62
     3
100
AcDbLine
 10
743.646168044368
 20
-69.844858334052
 30
0.0
 11
742.846168044368
 21
-69.844858334052
 31
0.0
  0
LINE
  5
182
330
1F
100
AcDbEntity
  8
1
  6
Continuous
 62
     3
100
AcDbLine
 10
742.846168044368
 20
-69.844858334052
 30
0.0
 11
742.846168044368
 21
-63.8448480839301
 31
0.0
  0
LINE
  5
183
330
1F
100
AcDbEntity
  8
1
  6
Continuous
 62
     3
100
AcDbLine
 10
738.046168044368
 20
-64.094858334052
 30
0.0
 11
738.646168044368
 21
-64.094858334052
 31
0.0
  0
LINE
  5
184
330
1F
100
AcDbEntity
  8
1
  6
Continuous
 62
     3
100
AcDbLine
 10
738.046168044368
 20
-68.094858334052
 30
0.0
 11
738.046168044368
 21
-64.094858334052
 31
0.0
  0
LINE
  5
185
330
1F
100
AcDbEntity
  8
1
  6
Continuous
 62
     3
100
AcDbLine
 10
738.448832590759
 20
-70.094858334052
 30
0.0
 11
738.046168044368
 21
-70.094858334052
 31
0.0
  0
LINE
  5
186
330
1F
100
AcDbEntity
  8
1
  6
Continuous
 62
     3
100
AcDbLine
 10
742.846168044368
 20
-70.094858334052
 30
0.0
 11
742.546168044368
 21
-70.094858334052
 31
0.0
  0
LINE
  5
187
330
1F
100
AcDbEntity
  8
1
  6
Continuous
 62
     3
100
AcDbLine
 10
742.846168044368
 20
-64.094858334052
 30
0.0
 11
742.846168044368
 21
-70.094858334052
 31
0.0
  0
LINE
  5
188
330
1F
100
AcDbEntity
  8
1
  6
Continuous
 62
     3
100
AcDbLine
 10
739.496168044368
 20
-68.3869704167615
 30
0.0
 11
739.496168044368
 21
-68.663621948537
 31
0.0
  0
LINE
  5
189
330
1F
100
AcDbEntity
  8
1
  6
Continuous
 62
     3
100
AcDbLine
 10
739.496168044368
 20
-70.094858334052
 30
0.0
 11
739.496168044368
 21
-68.663621948537
 31
0.0
  0
LINE
  5
18A
330
1F
100
AcDbEntity
  8
1
  6
Continuous
 62
     3
100
AcDbLine
 10
738.448832590759
 20
-70.094858334052
 30
0.0
 11
739.496168044368
 21
-70.094858334052
 31
0.0
  0
LINE
  5
18B
330
1F
100
AcDbEntity
  8
1
  6
Continuous
 62
     3
100
AcDbLine
 10
739.002773526089
 20
-64.094858334052
 30
0.0
 11
738.646168044368
 21
-64.094858334052
 31
0.0
  0
LINE
  5
18C
330
1F
100
AcDbEntity
  8
1
  6
Continuous
 62
     3
100
AcDbLine
 10
742.286954094457
 20
-70.094858334052
 30
0.0
 11
742.546168044368
 21
-70.094858334052
 31
0.0
  0
LINE
  5
18D
330
1F
100
AcDbEntity
  8
1
  6
Continuous
 62
     3
100
AcDbLine
 10
740.496168044368
 20
-68.3869704167615
 30
0.0
 11
740.496168044368
 21
-70.094858334052
 31
0.0
  0
LINE
  5
18E
330
1F
100
AcDbEntity
  8
1
  6
Continuous
 62
     3
100
AcDbLine
 10
738.046168044368
 20
-70.094858334052
 30
0.0
 11
738.046168044368
 21
-68.094858334052
 31
0.0
  0
LINE
  5
18F
330
1F
100
AcDbEntity
  8
1
  6
Continuous
 62
     3
100
AcDbLine
 10
740.496168044368
 20
-70.094858334052
 30
0.0
 11
742.286954094457
 21
-70.094858334052
 31
0.0
  0
LINE
  5
190
330
1F
100
AcDbEntity
  8
1
  6
Continuous
 62
     3
100
AcDbLine
 10
742.846168044368
 20
-64.094858334052
 30
0.0
 11
739.002773526089
 21
-64.094858334052
 31
0.0
  0
LINE
  5
191
330
1F
100
AcDbEntity
  8
1
  6
Continuous
 62
     3
100
AcDbLine
 10
739.280776920849
 20
-63.8448480839301
 30
0.0
 11
739.136433435641
 21
-64.094858334052
 31
0.0
  0
LINE
  5
192
330
1F
100
AcDbEntity
  8
1
  6
Continuous
 62
     3
100
AcDbLine
 10
743.646168044368
 20
-63.8448480839301
 30
0.0
 11
743.646168044368
 21
-69.844858334052
 31
0.0
  0
LINE
  5
193
330
1F
100
AcDbEntity
  8
1
  6
Continuous
 62
     3
100
AcDbLine
 10
707.446169856463
 20
-21.8448583345937
 30
0.0
 11
738.346169856463
 21
-21.8448583345937
 31
0.0
  0
LINE
  5
194
330
1F
100
AcDbEntity
  8
1
  6
Continuous
 62
     3
100
AcDbLine
 10
714.346169856463
 20
-57.8447583345937
 30
0.0
 11
714.346169856463
 21
-27.8448583345937
 31
0.0
  0
LINE
  5
195
330
1F
100
AcDbEntity
  8
1
  6
Continuous
 62
     3
100
AcDbLine
 10
738.346169856463
 20
-27.8448583345937
 30
0.0
 11
738.346169856463
 21
-57.8448583345936
 31
0.0
  0
LINE
  5
196
330
1F
100
AcDbEntity
  8
1
  6
Continuous
 62
     3
100
AcDbLine
 10
707.446170252242
 20
-63.8448579388149
 30
0.0
 11
738.346169856463
 21
-63.8448480839303
 31
0.0
  0
LINE
  5
197
330
1F
100
AcDbEntity
  8
4
  6
Continuous
 62
     2
100
AcDbLine
 10
737.946169856463
 20
-31.5356583345937
 30
0.0
 11
737.946169856463
 21
-21.8448583345937
 31
0.0
  0
LINE
  5
198
330
1F
100
AcDbEntity
  8
4
  6
Continuous
 62
     2
100
AcDbLine
 10
737.146169856463
 20
-30.2658583345938
 30
0.0
 11
737.146169856463
 21
-21.8448583345937
 31
0.0
  0
LINE
  5
199
330
1F
100
AcDbEntity
  8
4
  6
Continuous
 62
     2
100
AcDbLine
 10
736.346169856463
 20
-28.9960583345937
 30
0.0
 11
736.346169856463
 21
-21.8448583345937
 31
0.0
  0
LINE
  5
19A
330
1F
100
AcDbEntity
  8
4
  6
Continuous
 62
     2
100
AcDbLine
 10
735.546169856463
 20
-27.7262583345938
 30
0.0
 11
735.546169856463
 21
-21.8448583345937
 31
0.0
  0
LINE
  5
19B
330
1F
100
AcDbEntity
  8
4
  6
Continuous
 62
     2
100
AcDbLine
 10
734.746169856463
 20
-26.4564583345937
 30
0.0
 11
734.746169856463
 21
-21.8448583345937
 31
0.0
  0
LINE
  5
19C
330
1F
100
AcDbEntity
  8
4
  6
Continuous
 62
     2
100
AcDbLine
 10
733.946169856463
 20
-25.1867583345936
 30
0.0
 11
733.946169856463
 21
-21.8448583345937
 31
0.0
  0
LINE
  5
19D
330
1F
100
AcDbEntity
  8
4
  6
Continuous
 62
     2
100
AcDbLine
 10
714.746069856463
 20
-54.1541583345936
 30
0.0
 11
714.746069856463
 21
-63.8449583345938
 31
0.0
  0
LINE
  5
19E
330
1F
100
AcDbEntity
  8
4
  6
Continuous
 62
     2
100
AcDbLine
 10
715.546069856463
 20
-55.4239583345936
 30
0.0
 11
715.546069856463
 21
-63.8449583345938
 31
0.0
  0
LINE
  5
19F
330
1F
100
AcDbEntity
  8
4
  6
Continuous
 62
     2
100
AcDbLine
 10
716.346069856463
 20
-56.6937583345936
 30
0.0
 11
716.346069856463
 21
-63.8449583345938
 31
0.0
  0
LINE
  5
1A0
330
1F
100
AcDbEntity
  8
4
  6
Continuous
 62
     2
100
AcDbLine
 10
717.146069856463
 20
-57.9635583345937
 30
0.0
 11
717.146069856463
 21
-63.8449583345938
 31
0.0
  0
LINE
  5
1A1
330
1F
100
AcDbEntity
  8
4
  6
Continuous
 62
     2
100
AcDbLine
 10
717.946069856463
 20
-59.2332583345938
 30
0.0
 11
717.946069856463
 21
-63.8449583345938
 31
0.0
  0
LINE
  5
1A2
330
1F
100
AcDbEntity
  8
4
  6
Continuous
 62
     2
100
AcDbLine
 10
718.746069856463
 20
-60.5030583345937
 30
0.0
 11
718.746069856463
 21
-63.8449583345938
 31
0.0
  0
LINE
  5
1A3
330
1F
100
AcDbEntity
  8
1
  6
Continuous
 62
     3
100
AcDbLine
 10
706.446169856463
 20
-22.8448583345937
 30
0.0
 11
706.446169856463
 21
-23.2138666250253
 31
0.0
  0
LINE
  5
1A4
330
1F
100
AcDbEntity
  8
1
  6
Continuous
 62
     3
100
AcDbLine
 10
714.346169856463
 20
-27.8448583345937
 30
0.0
 11
714.346169856463
 21
-21.8448583345937
 31
0.0
  0
LINE
  5
1A5
330
1F
100
AcDbEntity
  8
1
  6
Continuous
 62
     2
100
AcDbLine
 10
738.346169856463
 20
-27.8448583345937
 30
0.0
 11
738.346169856463
 21
-21.8448583345937
 31
0.0
  0
LINE
  5
1A6
330
1F
100
AcDbEntity
  8
1
  6
Continuous
 62
     3
100
AcDbLine
 10
706.446169856463
 20
-22.8448583345937
 30
0.0
 11
706.446169856463
 21
-62.844857938815
 31
0.0
  0
LINE
  5
1A7
330
1F
100
AcDbEntity
  8
1
  6
Continuous
 62
     3
100
AcDbLine
 10
704.446169856463
 20
-31.8448583345937
 30
0.0
 11
704.446169856463
 21
-53.8448583345936
 31
0.0
  0
LINE
  5
1A8
330
1F
100
AcDbEntity
  8
1
  6
Continuous
 62
     3
100
AcDbLine
 10
704.446169856463
 20
-53.8448583345936
 30
0.0
 11
706.446169856463
 21
-53.8448583345936
 31
0.0
  0
LINE
  5
1A9
330
1F
100
AcDbEntity
  8
1
  6
Continuous
 62
     1
100
AcDbLine
 10
679.989338263146
 20
-42.8448583345937
 30
0.0
 11
754.272934545133
 21
-42.8448583345937
 31
0.0
  0
LINE
  5
1AA
330
1F
100
AcDbEntity
  8
1
  6
Continuous
 62
     3
100
AcDbLine
 10
714.346169856463
 20
-57.8447583345937
 30
0.0
 11
714.346069856463
 21
-63.8448583345936
 31
0.0
  0
LINE
  5
1AB
330
1F
100
AcDbEntity
  8
1
  6
DASH_CENTER
 62
     1
100
AcDbLine
 10
585.298198209191
 20
-58.3448583345937
 30
0.0
 11
581.398198209191
 21
-58.3448583345937
 31
0.0
  0
LINE
  5
1AC
330
1F
100
AcDbEntity
  8
1
  6
DASH_CENTER
 62
     1
100
AcDbLine
 10
583.348198209191
 20
-56.3948583345937
 30
0.0
 11
583.348198209191
 21
-60.2948583345937
 31
0.0
  0
LINE
  5
1AD
330
1F
100
AcDbEntity
  8
1
  6
DASH_CENTER
 62
     1
100
AcDbLine
 10
616.298198209191
 20
-58.3448583345935
 30
0.0
 11
612.398198209191
 21
-58.3448583345935
 31
0.0
  0
LINE
  5
1AE
330
1F
100
AcDbEntity
  8
1
  6
DASH_CENTER
 62
     1
100
AcDbLine
 10
614.348198209191
 20
-56.3948583345935
 30
0.0
 11
614.348198209191
 21
-60.2948583345935
 31
0.0
  0
LINE
  5
1AF
330
1F
100
AcDbEntity
  8
1
  6
DASH_CENTER
 62
     1
100
AcDbLine
 10
616.298198209191
 20
-27.3448583345936
 30
0.0
 11
612.398198209192
 21
-27.3448583345936
 31
0.0
  0
LINE
  5
1B0
330
1F
100
AcDbEntity
  8
1
  6
DASH_CENTER
 62
     1
100
AcDbLine
 10
614.348198209191
 20
-25.3948583345939
 30
0.0
 11
614.348198209191
 21
-29.2948583345933
 31
0.0
  0
LINE
  5
1B1
330
1F
100
AcDbEntity
  8
1
  6
DASH_CENTER
 62
     1
100
AcDbLine
 10
585.298198209191
 20
-27.3448583345937
 30
0.0
 11
581.398198209191
 21
-27.3448583345937
 31
0.0
  0
LINE
  5
1B2
330
1F
100
AcDbEntity
  8
1
  6
DASH_CENTER
 62
     1
100
AcDbLine
 10
583.348198209191
 20
-25.3948583345933
 30
0.0
 11
583.348198209191
 21
-29.2948583345941
 31
0.0
  0
LINE
  5
1B3
102
{ACAD_REACTORS
330
268
102
}
330
1F
100
AcDbEntity
  8
1
  6
Continuous
 62
     2
100
AcDbLine
 10
602.93370949612
 20
-85.7547848878313
 30
0.0
 11
602.93370949612
 21
-86.5973608723907
 31
0.0
  0
LINE
  5
1B4
102
{ACAD_REACTORS
330
268
102
}
330
1F
100
AcDbEntity
  8
1
  6
Continuous
 62
     2
100
AcDbLine
 10
602.93370949612
 20
-86.5973608723907
 30
0.0
 11
606.13370949612
 21
-86.176072880111
 31
0.0
  0
LINE
  5
1B5
102
{ACAD_REACTORS
330
268
102
}
330
1F
100
AcDbEntity
  8
1
  6
Continuous
 62
     2
100
AcDbLine
 10
606.13370949612
 20
-86.176072880111
 30
0.0
 11
602.93370949612
 21
-85.7547848878313
 31
0.0
  0
LINE
  5
1B6
102
{ACAD_REACTORS
330
267
102
}
330
1F
100
AcDbEntity
  8
1
  6
Continuous
 62
     2
100
AcDbLine
 10
614.34530205091
 20
-61.5724697090787
 30
0.0
 11
615.180768029017
 21
-61.4632410993538
 31
0.0
  0
LINE
  5
1B7
102
{ACAD_REACTORS
330
267
102
}
330
1F
100
AcDbEntity
  8
1
  6
Continuous
 62
     2
100
AcDbLine
 10
615.180768029017
 20
-61.4632410993538
 30
0.0
 11
614.348198209191
 21
-58.3448583345935
 31
0.0
  0
LINE
  5
1B8
102
{ACAD_REACTORS
330
267
102
}
330
1F
100
AcDbEntity
  8
1
  6
Continuous
 62
     2
100
AcDbLine
 10
614.348198209191
 20
-58.3448583345935
 30
0.0
 11
614.34530205091
 21
-61.5724697090787
 31
0.0
  0
ARC
  5
1B9
330
1F
100
AcDbEntity
  8
11
  6
Continuous
 62
     3
100
AcDbCircle
 10
607.098198209191
 20
-64.445132131093
 30
0.0
 40
0.5000000000000071
100
AcDbArc
 50
90.0
 51
180.0
  0
ARC
  5
1BA
330
1F
100
AcDbEntity
  8
11
  6
Continuous
 62
     3
100
AcDbCircle
 10
590.598198209191
 20
-64.445132131093
 30
0.0
 40
0.5
100
AcDbArc
 50
0.0
 51
90.0
  0
ARC
  5
1BB
330
1F
100
AcDbEntity
  8
1
  6
Continuous
 62
     3
100
AcDbCircle
 10
591.306224318534
 20
-35.3028844551311
 30
0.0
 40
36.03157465933672
100
AcDbArc
 50
307.9023539913245
 51
322.0976460098017
  0
ARC
  5
1BC
330
1F
100
AcDbEntity
  8
1
  6
Continuous
 62
     3
100
AcDbCircle
 10
598.848198181934
 20
-42.8448583635948
 30
0.0
 40
25.49999996837176
100
AcDbArc
 50
214.8743266318614
 51
235.1256733670071
  0
ARC
  5
1BD
330
1F
100
AcDbEntity
  8
1
  6
Continuous
 62
     3
100
AcDbCircle
 10
598.848198200095
 20
-42.844858334802
 30
0.0
 40
25.49999999261234
100
AcDbArc
 50
124.874326644922
 51
145.1256733610768
  0
ARC
  5
1BE
330
1F
100
AcDbEntity
  8
1
  6
Continuous
 62
     3
100
AcDbCircle
 10
598.848198209191
 20
-42.8448583345937
 30
0.0
 40
25.49999999232307
100
AcDbArc
 50
34.87432663880434
 51
55.12567335519729
  0
ARC
  5
1BF
330
1F
100
AcDbEntity
  8
1
  6
Continuous
 62
     3
100
AcDbCircle
 10
598.848198181934
 20
-42.8448583635948
 30
0.0
 40
2.5
100
AcDbArc
 50
0.0
 51
270.0000006246842
  0
ARC
  5
1C0
330
1F
100
AcDbEntity
  8
1
  6
Continuous
 62
     3
100
AcDbCircle
 10
598.848198181934
 20
-42.8448583635948
 30
0.0
 40
2.5
100
AcDbArc
 50
270.0000006246842
 51
0.0
  0
ARC
  5
1C1
330
1F
100
AcDbEntity
  8
1
  6
Continuous
 62
     2
100
AcDbCircle
 10
583.348198209191
 20
-58.3448583345937
 30
0.0
 40
1.5
100
AcDbArc
 50
90.0
 51
0.0
  0
ARC
  5
1C2
330
1F
100
AcDbEntity
  8
1
  6
Continuous
 62
     2
100
AcDbCircle
 10
614.348198209191
 20
-58.3448583345935
 30
0.0
 40
1.5
100
AcDbArc
 50
90.0
 51
0.0
  0
ARC
  5
1C3
330
1F
100
AcDbEntity
  8
1
  6
Continuous
 62
     2
100
AcDbCircle
 10
614.348198209191
 20
-27.3448583345936
 30
0.0
 40
1.5
100
AcDbArc
 50
90.0
 51
0.0
  0
ARC
  5
1C4
330
1F
100
AcDbEntity
  8
1
  6
Continuous
 62
     2
100
AcDbCircle
 10
583.348198209191
 20
-27.3448583345937
 30
0.0
 40
1.5
100
AcDbArc
 50
90.0
 51
0.0
  0
ARC
  5
1C5
330
1F
100
AcDbEntity
  8
1
  6
Continuous
 62
     3
100
AcDbCircle
 10
683.446169856463
 20
-41.8448583345938
 30
0.0
 40
1.499999999999901
100
AcDbArc
 50
90.0
 51
131.8103148957784
  0
ARC
  5
1C6
330
1F
100
AcDbEntity
  8
1
  6
Continuous
 62
     3
100
AcDbCircle
 10
683.446169856463
 20
-43.8448583345936
 30
0.0
 40
1.500000000000004
100
AcDbArc
 50
228.1896851042216
 51
270.0
  0
ARC
  5
1C7
330
1F
100
AcDbEntity
  8
1
  6
Continuous
 62
     3
100
AcDbCircle
 10
746.846175543029
 20
-22.8448583345937
 30
0.0
 40
1.0
100
AcDbArc
 50
0.0
 51
90.0
  0
ARC
  5
1C8
330
1F
100
AcDbEntity
  8
1
  6
Continuous
 62
     3
100
AcDbCircle
 10
614.848198209191
 20
-58.8448568597613
 30
0.0
 40
5.000000000000218
100
AcDbArc
 50
269.9999830996708
 51
0.0
  0
ARC
  5
1C9
330
1F
100
AcDbEntity
  8
1
  6
Continuous
 62
     3
100
AcDbCircle
 10
582.848189397129
 20
-58.8448474208344
 30
0.0
 40
5.000000000000142
100
AcDbArc
 50
179.9999863542103
 51
269.9999830996708
  0
ARC
  5
1CA
330
1F
100
AcDbEntity
  8
1
  6
Continuous
 62
     3
100
AcDbCircle
 10
582.848197018372
 20
-26.8448583345937
 30
0.0
 40
5.0
100
AcDbArc
 50
90.0
 51
179.9999863542126
  0
ARC
  5
1CB
330
1F
100
AcDbEntity
  8
1
  6
Continuous
 62
     3
100
AcDbCircle
 10
614.848198209191
 20
-26.8448583345937
 30
0.0
 40
5.0
100
AcDbArc
 50
0.00000000000114
 51
90.0
  0
ARC
  5
1CC
330
1F
100
AcDbEntity
  8
1
  6
Continuous
 62
     3
100
AcDbCircle
 10
746.846164041028
 20
-62.8448480839301
 30
0.0
 40
1.0
100
AcDbArc
 50
270.0
 51
0.00010021034152
  0
ARC
  5
1CD
330
1F
100
AcDbEntity
  8
1
  6
Continuous
 62
     3
100
AcDbCircle
 10
747.346168734774
 20
-69.3448583331749
 30
0.0
 40
0.5
100
AcDbArc
 50
269.999999996678
 51
0.00005976262613
  0
ARC
  5
1CE
330
1F
100
AcDbEntity
  8
1
  6
Continuous
 62
     3
100
AcDbCircle
 10
739.996168044368
 20
-68.3869704167615
 30
0.0
 40
0.5
100
AcDbArc
 50
0.0
 51
180.0
  0
ARC
  5
1CF
330
1F
100
AcDbEntity
  8
1
  6
Continuous
 62
     3
100
AcDbCircle
 10
707.446169856463
 20
-62.844857938815
 30
0.0
 40
1.0
100
AcDbArc
 50
180.0
 51
270.000022676467
  0
ARC
  5
1D0
330
1F
100
AcDbEntity
  8
1
  6
Continuous
 62
     3
100
AcDbCircle
 10
707.446169856463
 20
-22.8448583345937
 30
0.0
 40
1.0
100
AcDbArc
 50
90.0
 51
180.0
  0
CIRCLE
  5
1D1
330
1F
100
AcDbEntity
  8
1
  6
Continuous
 62
     3
100
AcDbCircle
 10
598.848198209191
 20
-42.8448583345937
 30
0.0
 40
2.118033988750085
  0
CIRCLE
  5
1D2
330
1F
100
AcDbEntity
  8
4
  6
Continuous
 62
     3
100
AcDbCircle
 10
583.348198209191
 20
-27.3448583345937
 30
0.0
 40
1.000009999999975
  0
CIRCLE
  5
1D3
330
1F
100
AcDbEntity
  8
4
  6
Continuous
 62
     3
100
AcDbCircle
 10
614.348198209191
 20
-58.3448583345935
 30
0.0
 40
1.0
  0
CIRCLE
  5
1D4
330
1F
100
AcDbEntity
  8
1
  6
Continuous
 62
     3
100
AcDbCircle
 10
583.362559701206
 20
-58.330496842579
 30
0.0
 40
0.9999999999989768
  0
CIRCLE
  5
1D5
330
1F
100
AcDbEntity
  8
1
  6
Continuous
 62
     3
100
AcDbCircle
 10
614.348198209191
 20
-27.3448583345936
 30
0.0
 40
1.0
  0
CIRCLE
  5
1D6
330
1F
100
AcDbEntity
  8
1
  6
Continuous
 62
     3
100
AcDbCircle
 10
598.848198204539
 20
-42.8448583407127
 30
0.0
 40
19.0
  0
CIRCLE
  5
1D7
330
1F
100
AcDbEntity
  8
1
  6
Continuous
 62
     3
100
AcDbCircle
 10
598.848198204539
 20
-42.8448583407127
 30
0.0
 40
18.60000000000002
  0
CIRCLE
  5
1D8
330
1F
100
AcDbEntity
  8
1
  6
Continuous
 62
     3
100
AcDbCircle
 10
598.848198204539
 20
-42.8448583407127
 30
0.0
 40
11.79999999999995
  0
CIRCLE
  5
1D9
330
1F
100
AcDbEntity
  8
1
  6
Continuous
 62
     3
100
AcDbCircle
 10
598.848198204539
 20
-42.8448583407127
 30
0.0
 40
11.5
  0
CIRCLE
  5
1DA
330
1F
100
AcDbEntity
  8
1
  6
Continuous
 62
     3
100
AcDbCircle
 10
598.848198181934
 20
-42.8448583635948
 30
0.0
 40
11.0
  0
CIRCLE
  5
1DB
330
1F
100
AcDbEntity
  8
1
  6
Continuous
 62
     3
100
AcDbCircle
 10
598.848198204539
 20
-42.8448583407127
 30
0.0
 40
10.44999999999993
  0
CIRCLE
  5
1DC
330
1F
100
AcDbEntity
  8
1
  6
Continuous
 62
     3
100
AcDbCircle
 10
598.848198209191
 20
-42.8448583345937
 30
0.0
 40
4.5
  0
LEADER
  5
1DD
330
1F
100
AcDbEntity
  8
1
  6
Continuous
 62
     2
100
AcDbLeader
  3
Standard
 71
     0
 76
     2
 10
606.13370949612
 20
-86.176072880111
 30
0.0
 10
593.885445137697
 20
-86.176072880111
 30
0.0
  0
LEADER
  5
1DE
330
1F
100
AcDbEntity
  8
1
  6
Continuous
 62
     2
100
AcDbLeader
  3
Standard
 71
     0
 76
     3
 10
614.348198209191
 20
-58.3448583345935
 30
0.0
 10
618.066121649962
 20
-86.7824494729625
 30
0.0
 10
655.22284890721
 20
-86.7824494729625
 30
0.0
  0
MTEXT
  5
1E0
330
1F
100
AcDbEntity
  8
1
 62
     2
100
AcDbMText
 10
604.586926284401
 20
-82.9957414902821
 30
0.0
 40
1.68
 41
0.0
 71
     5
 72
     1
  1
6
  7
CONVERTER_11
 73
     1
 44
1.0
  0
MTEXT
  5
1E1
330
1F
100
AcDbEntity
  8
1
 62
     2
100
AcDbMText
 10
593.180561397482
 20
-82.9395704267466
 30
0.0
 40
1.68
 41
0.0
 71
     5
 72
     1
  1
1
  7
CONVERTER_11
 73
     1
 44
1.0
  0
MTEXT
  5
1E2
330
1F
100
AcDbEntity
  8
1
 62
     2
100
AcDbMText
 10
595.67373551322
 20
-82.9395704267466
 30
0.0
 40
1.68
 41
0.0
 71
     5
 72
     1
  1
2
  7
CONVERTER_11
 73
     1
 44
1.0
  0
MTEXT
  5
1E3
330
1F
100
AcDbEntity
  8
1
 62
     2
100
AcDbMText
 10
598.166909628958
 20
-82.9196959474557
 30
0.0
 40
1.68
 41
0.0
 71
     5
 72
     1
  1
3
  7
CONVERTER_11
 73
     1
 44
1.0
  0
MTEXT
  5
1E5
330
1F
100
AcDbEntity
  8
1
 62
     2
100
AcDbMText
 10
585.55584529186
 20
-81.3666290714698
 30
0.0
 40
3.0
 41
0.0
 71
     5
 72
     1
  1
\U+30d4\U+30f3\U+756a\U+53f7
  7
CONVERTER_12
 73
     1
 44
1.0
  0
MTEXT
  5
1E7
330
1F
100
AcDbEntity
  8
1
 62
     2
100
AcDbMText
 10
587.133301562255
 20
-85.0205117171669
 30
0.0
 40
2.0
 41
0.0
 71
     5
 72
     1
  1
PIN NO.
  7
CONVERTER_13
 73
     1
 44
1.0
  0
MTEXT
  5
1E8
330
1F
100
AcDbEntity
  8
1
 62
     2
100
AcDbMText
 10
600.478600823473
 20
-83.0121635952362
 30
0.0
 40
1.68
 41
0.0
 71
     5
 72
     1
  1
4
  7
CONVERTER_11
 73
     1
 44
1.0
  0
MTEXT
  5
1E9
330
1F
100
AcDbEntity
  8
1
 62
     2
100
AcDbMText
 10
602.532763553937
 20
-82.9957414902821
 30
0.0
 40
1.68
 41
0.0
 71
     5
 72
     1
  1
5
  7
CONVERTER_11
 73
     1
 44
1.0
  0
MTEXT
  5
1EB
330
1F
100
AcDbEntity
  8
1
 62
     2
100
AcDbMText
 10
639.218450664298
 20
-89.2740479159916
 30
0.0
 40
3.5
 41
0.0
 71
     5
 72
     1
  1
\U+6df1\U+3055(\U+ff24\U+ff25\U+ff30\U+ff34\U+ff28\U+ff09\U+30003.5\U+ff2d\U+ff29\U+ff2e.
  7
CONVERTER_14
 11
0.999999999855349
 21
1.700888637618670E-5
 31
0.0
 73
     1
 44
1.0
  0
MTEXT
  5
1ED
330
1F
100
AcDbEntity
  8
1
 62
     2
100
AcDbMText
 10
626.565346158854
 20
-84.2566064850907
 30
0.0
 40
3.5
 41
0.0
 71
     7
 72
     1
  1
4\U+00d7M3\U+00d70.5
  7
CONVERTER_15
 73
     1
 44
1.0
  0
DIMENSION
  5
1F8
330
1F
100
AcDbEntity
  8
0
100
AcDbDimension
  2
*D1
 10
577.848197018372
 20
-5.84485833459379
 30
0.0
 11
598.889751944116
 21
-2.64485833459381
 31
0.0
 70
    32
  1
(42)
 71
     5
 42
-1.0
 53
0.00013888888889
  3
ME10_DIM_10
100
AcDbAlignedDimension
 13
619.848198209191
 23
-26.8448583345936
 33
0.0
 14
577.848197018372
 24
-26.8448571437741
 34
0.0
100
AcDbRotatedDimension
  0
DIMENSION
  5
203
330
1F
100
AcDbEntity
  8
1
100
AcDbDimension
  2
*D2
 10
574.545819961899
 20
-63.84484742083399
 30
0.0
 11
570.945819961899
 21
-67.7675281689342
 31
0.0
 70
    32
  1
※(8)
 71
     5
 42
-1.0
 53
90.0
  3
ME10_DIM_11
100
AcDbAlignedDimension
 13
591.848198209191
 23
-71.8448583340519
 33
0.0
 14
582.848187922297
 24
-63.844847420834
 34
0.0
 50
90.0
100
AcDbRotatedDimension
  0
DIMENSION
  5
20E
330
1F
100
AcDbEntity
  8
1
100
AcDbDimension
  2
*D3
 10
583.348198209191
 20
-13.71862030433359
 30
0.0
 11
598.822474876739
 21
-10.118620304333
 31
0.0
 70
    32
  1
31
 71
     5
 42
-1.0
 53
0.00013888888889
  3
ME10_DIM_12
100
AcDbAlignedDimension
 13
614.348198209191
 23
-25.3948583345939
 33
0.0
 14
583.348198209191
 24
-25.3948583345933
 34
0.0
100
AcDbRotatedDimension
  0
DIMENSION
  5
219
330
1F
100
AcDbEntity
  8
1
100
AcDbDimension
  2
*D4
 10
633.7508589746603
 20
-27.3448583345936
 30
0.0
 11
630.15085897466
 21
-41.113370527985
 31
0.0
 70
    32
  1
31
 71
     5
 42
-1.0
 53
90.0
  3
ME10_DIM_13
100
AcDbAlignedDimension
 13
616.298198209191
 23
-58.3448583345935
 33
0.0
 14
616.298198209191
 24
-27.3448583345936
 34
0.0
 50
90.0
100
AcDbRotatedDimension
  0
DIMENSION
  5
224
330
1F
100
AcDbEntity
  8
1
100
AcDbDimension
  2
*D5
 10
672.9792069450567
 20
-45.3448583345936
 30
0.0
 11
668.55254027839
 21
-43.2409666750027
 31
0.0
 70
    32
  1
φ5
 71
     5
 42
-1.0
 53
90.0
  3
ME10_DIM_14
100
AcDbAlignedDimension
 13
683.446169856463
 23
-40.3448583345939
 33
0.0
 14
683.446169856463
 24
-45.3448583345936
 34
0.0
 50
90.0
100
AcDbRotatedDimension
  0
DIMENSION
  5
22F
330
1F
100
AcDbEntity
  8
1
100
AcDbDimension
  2
*D6
 10
658.4461698564627
 20
-31.8448583345937
 30
0.0
 11
654.019503189796
 21
-43.7009201328707
 31
0.0
 70
    32
  1
φ22
 71
     5
 42
-1.0
 53
90.0
  3
ME10_DIM_15
100
AcDbAlignedDimension
 13
704.446169856463
 23
-53.8448583345936
 33
0.0
 14
704.446169856463
 24
-31.8448583345937
 34
0.0
 50
90.0
100
AcDbRotatedDimension
  0
DIMENSION
  5
23A
330
1F
100
AcDbEntity
  8
1
100
AcDbDimension
  2
*D7
 10
704.446169856463
 20
0.11517162010421
 30
0.0
 11
713.492065674543
 21
3.7151716201042
 31
0.0
 70
    32
  1
2
 71
     5
 42
-1.0
 53
0.00013888888889
  3
ME10_DIM_16
100
AcDbAlignedDimension
 13
706.446169856463
 23
-22.8448583345937
 33
0.0
 14
704.446169856463
 24
-31.8448583345937
 34
0.0
100
AcDbRotatedDimension
  0
DIMENSION
  5
245
330
1F
100
AcDbEntity
  8
1
100
AcDbDimension
  2
*D8
 10
641.007436609707
 20
-63.84485685976131
 30
0.0
 11
637.407436609707
 21
-75.8138217642127
 31
0.0
 70
    32
  1
(6)
 71
     5
 42
-1.0
 53
90.0
  3
ME10_DIM_17
100
AcDbAlignedDimension
 13
605.798198209191
 23
-70.0948583340519
 33
0.0
 14
614.848196734359
 24
-63.8448568597613
 34
0.0
 50
90.0
100
AcDbRotatedDimension
  0
DIMENSION
  5
250
330
1F
100
AcDbEntity
  8
1
100
AcDbDimension
  2
*D9
 10
643.848198209191
 20
-21.8448583345937
 30
0.0
 11
640.248198209191
 21
-43.1783929412086
 31
0.0
 70
    32
  1
(42)
 71
     5
 42
-1.0
 53
90.0
  3
ME10_DIM_18
100
AcDbAlignedDimension
 13
614.848196734359
 23
-63.8448568597613
 33
0.0
 14
614.848198209191
 24
-21.8448583345937
 34
0.0
 50
90.0
100
AcDbRotatedDimension
  0
DIMENSION
  5
25B
330
1F
100
AcDbEntity
  8
1
100
AcDbDimension
  2
*D10
 10
747.8461755430291
 20
15.1476266098943
 30
0.0
 11
726.863755140507
 21
18.7476266098943
 31
0.0
 70
    32
  1
42MAX.
 71
     5
 42
-1.0
 53
0.00013888888889
  3
ME10_DIM_19
100
AcDbAlignedDimension
 13
706.446169856463
 23
-22.8448583345937
 33
0.0
 14
747.846175543029
 24
-22.8448583345937
 34
0.0
100
AcDbRotatedDimension
  0
DIMENSION
  5
266
330
1F
100
AcDbEntity
  8
1
100
AcDbDimension
  2
*D11
 10
682.446169856463
 20
15.14762660989429
 30
0.0
 11
694.818328276213
 21
18.7476266098943
 31
0.0
 70
    32
  1
24
 71
     5
 42
-1.0
 53
0.00013888888889
  3
ME10_DIM_20
100
AcDbAlignedDimension
 13
706.446169856463
 23
-23.2138666250253
 33
0.0
 14
682.446169856463
 24
-40.7268243458439
 34
0.0
100
AcDbRotatedDimension
  0
HATCH
  5
267
330
1F
100
AcDbEntity
  8
1
  6
Continuous
 62
     2
100
AcDbHatch
 10
0.0
 20
0.0
 30
0.0
210
0.0
220
0.0
230
1.0
  2
SOLID
 70
     1
 71
     1
 91
        1
 92
        1
 93
        3
 72
     1
 10
615.180768029017
 20
-61.4632410993538
 11
614.348198209191
 21
-58.3448583345935
 72
     1
 10
614.348198209191
 20
-58.3448583345935
 11
614.34530205091
 21
-61.5724697090787
 72
     1
 10
614.34530205091
 20
-61.5724697090787
 11
615.180768029017
 21
-61.4632410993538
 97
        3
330
1B8
330
1B7
330
1B6
 75
     0
 76
     1
 98
        1
 10
0.0
 20
0.0
  0
HATCH
  5
268
330
1F
100
AcDbEntity
  8
1
  6
Continuous
 62
     2
100
AcDbHatch
 10
0.0
 20
0.0
 30
0.0
210
0.0
220
0.0
230
1.0
  2
SOLID
 70
     1
 71
     1
 91
        1
 92
        1
 93
        3
 72
     1
 10
602.93370949612
 20
-86.5973608723907
 11
606.13370949612
 21
-86.176072880111
 72
     1
 10
606.13370949612
 20
-86.176072880111
 11
602.93370949612
 21
-85.7547848878313
 72
     1
 10
602.93370949612
 20
-85.7547848878313
 11
602.93370949612
 21
-86.5973608723907
 97
        3
330
1B5
330
1B4
330
1B3
 75
     0
 76
     1
 98
        1
 10
0.0
 20
0.0
  0
ENDSEC
  0
SECTION
  2
OBJECTS
  0
DICTIONARY
  5
C
330
0
100
AcDbDictionary
281
     1
  3
ACAD_GROUP
350
D
  3
ACAD_LAYOUT
350
1A
  3
ACAD_MATERIAL
350
3B
  3
ACAD_MLEADERSTYLE
350
26B
  3
ACAD_MLINESTYLE
350
17
  3
ACAD_PLOTSETTINGS
350
19
  3
ACAD_PLOTSTYLENAME
350
E
  3
ACAD_VISUALSTYLE
350
2A
  3
AcDbVariableDictionary
350
269
  0
DICTIONARY
  5
D
102
{ACAD_REACTORS
330
C
102
}
330
C
100
AcDbDictionary
281
     1
  0
DICTIONARY
  5
1A
102
{ACAD_REACTORS
330
C
102
}
330
C
100
AcDbDictionary
281
     1
  3
Layout1
350
1E
  3
Layout2
350
26
  3
Model
350
22
  0
DICTIONARY
  5
3B
102
{ACAD_REACTORS
330
C
102
}
330
C
100
AcDbDictionary
281
     1
  3
ByBlock
350
3D
  3
ByLayer
350
3C
  3
Global
350
3E
  0
DICTIONARY
  5
26B
102
{ACAD_REACTORS
330
C
102
}
330
C
100
AcDbDictionary
281
     1
  0
DICTIONARY
  5
17
102
{ACAD_REACTORS
330
C
102
}
330
C
100
AcDbDictionary
281
     1
  3
Standard
350
18
  0
DICTIONARY
  5
19
102
{ACAD_REACTORS
330
C
102
}
330
C
100
AcDbDictionary
281
     1
  0
ACDBDICTIONARYWDFLT
  5
E
102
{ACAD_REACTORS
330
C
102
}
330
C
100
AcDbDictionary
281
     1
  3
Normal
350
F
100
AcDbDictionaryWithDefault
340
F
  0
DICTIONARY
  5
2A
102
{ACAD_REACTORS
330
C
102
}
330
C
100
AcDbDictionary
281
     1
  3
2dWireframe
350
2F
  3
3D Hidden
350
31
  3
3dWireframe
350
30
  3
Basic
350
32
  3
Brighten
350
36
  3
ColorChange
350
3A
  3
Conceptual
350
34
  3
Dim
350
35
  3
Facepattern
350
39
  3
Flat
350
2B
  3
FlatWithEdges
350
2C
  3
Gouraud
350
2D
  3
GouraudWithEdges
350
2E
  3
Linepattern
350
38
  3
Realistic
350
33
  3
Thicken
350
37
  0
DICTIONARY
  5
269
102
{ACAD_REACTORS
330
C
102
}
330
C
100
AcDbDictionary
281
     1
  3
DIMASSOC
350
26C
  3
HIDETEXT
350
26D
  0
LAYOUT
  5
1E
102
{ACAD_REACTORS
330
1A
102
}
330
1A
100
AcDbPlotSettings
  1

  2
none_device
  4

  6

 40
0.0
 41
0.0
 42
0.0
 43
0.0
 44
0.0
 45
0.0
 46
0.0
 47
0.0
 48
0.0
 49
0.0
140
0.0
141
0.0
142
1.0
143
1.0
 70
   688
 72
     0
 73
     0
 74
     5
  7

 75
    16
147
1.0
148
0.0
149
0.0
100
AcDbLayout
  1
Layout1
 70
     1
 71
     1
 10
0.0
 20
0.0
 11
12.0
 21
9.0
 12
0.0
 22
0.0
 32
0.0
 14
1.00000000000000E+20
 24
1.00000000000000E+20
 34
1.00000000000000E+20
 15
-1.00000000000000E+20
 25
-1.00000000000000E+20
 35
-1.00000000000000E+20
146
0.0
 13
0.0
 23
0.0
 33
0.0
 16
1.0
 26
0.0
 36
0.0
 17
0.0
 27
1.0
 37
0.0
 76
     0
330
1B
  0
LAYOUT
  5
26
102
{ACAD_REACTORS
330
1A
102
}
330
1A
100
AcDbPlotSettings
  1

  2
none_device
  4

  6

 40
0.0
 41
0.0
 42
0.0
 43
0.0
 44
0.0
 45
0.0
 46
0.0
 47
0.0
 48
0.0
 49
0.0
140
0.0
141
0.0
142
1.0
143
1.0
 70
   688
 72
     0
 73
     0
 74
     5
  7

 75
    16
147
1.0
148
0.0
149
0.0
100
AcDbLayout
  1
Layout2
 70
     1
 71
     2
 10
0.0
 20
0.0
 11
0.0
 21
0.0
 12
0.0
 22
0.0
 32
0.0
 14
0.0
 24
0.0
 34
0.0
 15
0.0
 25
0.0
 35
0.0
146
0.0
 13
0.0
 23
0.0
 33
0.0
 16
1.0
 26
0.0
 36
0.0
 17
0.0
 27
1.0
 37
0.0
 76
     0
330
23
  0
LAYOUT
  5
22
102
{ACAD_REACTORS
330
1A
102
}
330
1A
100
AcDbPlotSettings
  1

  2
none_device
  4

  6

 40
0.0
 41
0.0
 42
0.0
 43
0.0
 44
0.0
 45
0.0
 46
0.0
 47
0.0
 48
0.0
 49
0.0
140
0.0
141
0.0
142
1.0
143
1.0
 70
  1712
 72
     0
 73
     0
 74
     0
  7

 75
     0
147
1.0
148
0.0
149
0.0
100
AcDbLayout
  1
Model
 70
     1
 71
     0
 10
0.0
 20
0.0
 11
12.0
 21
9.0
 12
0.0
 22
0.0
 32
0.0
 14
569.345819961899
 24
-91.02430955493314
 34
0.0
 15
754.272934545133
 25
20.34764378392944
 35
0.0
146
0.0
 13
0.0
 23
0.0
 33
0.0
 16
1.0
 26
0.0
 36
0.0
 17
0.0
 27
1.0
 37
0.0
 76
     0
330
1F
331
29
  0
MATERIAL
  5
3D
102
{ACAD_REACTORS
330
3B
102
}
102
{ACAD_XDICTIONARY
360
290
102
}
330
3B
100
AcDbMaterial
  1
ByBlock
  0
MATERIAL
  5
3C
102
{ACAD_REACTORS
330
3B
102
}
102
{ACAD_XDICTIONARY
360
28E
102
}
330
3B
100
AcDbMaterial
  1
ByLayer
  0
MATERIAL
  5
3E
102
{ACAD_REACTORS
330
3B
102
}
102
{ACAD_XDICTIONARY
360
292
102
}
330
3B
100
AcDbMaterial
  1
Global
  0
MLINESTYLE
  5
18
102
{ACAD_REACTORS
330
17
102
}
330
17
100
AcDbMlineStyle
  2
Standard
 70
     0
  3

 62
   256
 51
90.0
 52
90.0
 71
     2
 49
0.5
 62
   256
  6
BYLAYER
 49
-0.5
 62
   256
  6
BYLAYER
  0
ACDBPLACEHOLDER
  5
F
102
{ACAD_REACTORS
330
E
102
}
330
E
  0
VISUALSTYLE
  5
2F
102
{ACAD_REACTORS
330
2A
102
}
102
{ACAD_XDICTIONARY
360
276
102
}
330
2A
100
AcDbVisualStyle
  2
2dWireframe
 70
     4
 71
     0
 72
     2
 73
     0
 90
        0
 40
-0.6
 41
-30.0
 62
     5
 63
     7
 74
     1
 91
        4
 64
     7
 65
   257
 75
     1
175
     1
 42
1.0
 92
        0
 66
   257
 43
1.0
 76
     1
 77
     6
 78
     2
 67
     7
 79
     5
170
     0
171
     0
290
     0
174
     0
 93
        1
 44
0.0
173
     0
291
     0
 45
0.0
1001
ACAD
1000
AcDbSavedByObjectVersion
1070
     0
  0
VISUALSTYLE
  5
31
102
{ACAD_REACTORS
330
2A
102
}
102
{ACAD_XDICTIONARY
360
27A
102
}
330
2A
100
AcDbVisualStyle
  2
3D Hidden
 70
     6
 71
     1
 72
     2
 73
     2
 90
        0
 40
-0.6
 41
-30.0
 62
     5
 63
     7
 74
     2
 91
        2
 64
     7
 65
   257
 75
     2
175
     1
 42
40.0
 92
        0
 66
   257
 43
1.0
 76
     1
 77
     6
 78
     2
 67
     7
 79
     3
170
     0
171
     0
290
     0
174
     0
 93
        1
 44
0.0
173
     0
291
     0
 45
0.0
1001
ACAD
1000
AcDbSavedByObjectVersion
1070
     0
  0
VISUALSTYLE
  5
30
102
{ACAD_REACTORS
330
2A
102
}
102
{ACAD_XDICTIONARY
360
278
102
}
330
2A
100
AcDbVisualStyle
  2
3dWireframe
 70
     5
 71
     0
 72
     2
 73
     0
 90
        0
 40
-0.6
 41
-30.0
 62
     5
 63
     7
 74
     1
 91
        4
 64
     7
 65
   257
 75
     1
175
     1
 42
1.0
 92
        0
 66
   257
 43
1.0
 76
     1
 77
     6
 78
     2
 67
     7
 79
     5
170
     0
171
     0
290
     0
174
     0
 93
        1
 44
0.0
173
     0
291
     0
 45
0.0
1001
ACAD
1000
AcDbSavedByObjectVersion
1070
     0
  0
VISUALSTYLE
  5
32
102
{ACAD_REACTORS
330
2A
102
}
102
{ACAD_XDICTIONARY
360
27C
102
}
330
2A
100
AcDbVisualStyle
  2
Basic
 70
     7
 71
     1
 72
     0
 73
     1
 90
        0
 40
-0.6
 41
-30.0
 62
     5
 63
     7
 74
     0
 91
        4
 64
     7
 65
   257
 75
     1
175
     1
 42
1.0
 92
        8
 66
     7
 43
1.0
 76
     1
 77
     6
 78
     2
 67
     7
 79
     5
170
     0
171
     0
290
     0
174
     0
 93
        1
 44
0.0
173
     0
291
     1
 45
0.0
1001
ACAD
1000
AcDbSavedByObjectVersion
1070
     0
  0
VISUALSTYLE
  5
36
102
{ACAD_REACTORS
330
2A
102
}
102
{ACAD_XDICTIONARY
360
284
102
}
330
2A
100
AcDbVisualStyle
  2
Brighten
 70
    12
 71
     2
 72
     2
 73
     0
 90
        0
 40
-0.6
 41
-30.0
 62
     5
 63
     7
 74
     1
 91
        4
 64
     7
 65
   257
 75
     1
175
     1
 42
1.0
 92
        8
 66
     7
 43
1.0
 76
     1
 77
     6
 78
     2
 67
     7
 79
     5
170
     0
171
     0
290
     0
174
     0
 93
        1
 44
50.0
173
     0
291
     1
 45
0.0
1001
ACAD
1000
AcDbSavedByObjectVersion
1070
     0
  0
VISUALSTYLE
  5
3A
102
{ACAD_REACTORS
330
2A
102
}
102
{ACAD_XDICTIONARY
360
28C
102
}
330
2A
100
AcDbVisualStyle
  2
ColorChange
 70
    16
 71
     2
 72
     2
 73
     3
 90
        0
 40
-0.6
 41
-30.0
 62
     5
 63
     8
 74
     1
 91
        4
 64
     7
 65
   257
 75
     1
175
     1
 42
1.0
 92
        8
 66
     8
 43
1.0
 76
     1
 77
     6
 78
     2
 67
     7
 79
     5
170
     0
171
     0
290
     0
174
     0
 93
        1
 44
0.0
173
     0
291
     1
 45
0.0
1001
ACAD
1000
AcDbSavedByObjectVersion
1070
     0
  0
VISUALSTYLE
  5
34
102
{ACAD_REACTORS
330
2A
102
}
102
{ACAD_XDICTIONARY
360
280
102
}
330
2A
100
AcDbVisualStyle
  2
Conceptual
 70
     9
 71
     3
 72
     2
 73
     0
 90
        0
 40
-0.6
 41
-30.0
 62
     5
 63
     7
 74
     2
 91
        2
 64
     7
 65
   257
 75
     1
175
     1
 42
40.0
 92
        8
 66
     7
 43
1.0
 76
     1
 77
     6
 78
     2
 67
     7
 79
     3
170
     0
171
     0
290
     0
174
     0
 93
        1
 44
0.0
173
     0
291
     0
 45
0.0
1001
ACAD
1000
AcDbSavedByObjectVersion
1070
     0
  0
VISUALSTYLE
  5
35
102
{ACAD_REACTORS
330
2A
102
}
102
{ACAD_XDICTIONARY
360
282
102
}
330
2A
100
AcDbVisualStyle
  2
Dim
 70
    11
 71
     2
 72
     2
 73
     0
 90
        0
 40
-0.6
 41
-30.0
 62
     5
 63
     7
 74
     1
 91
        4
 64
     7
 65
   257
 75
     1
175
     1
 42
1.0
 92
        8
 66
     7
 43
1.0
 76
     1
 77
     6
 78
     2
 67
     7
 79
     5
170
     0
171
     0
290
     0
174
     0
 93
        1
 44
-50.0
173
     0
291
     1
 45
0.0
1001
ACAD
1000
AcDbSavedByObjectVersion
1070
     0
  0
VISUALSTYLE
  5
39
102
{ACAD_REACTORS
330
2A
102
}
102
{ACAD_XDICTIONARY
360
28A
102
}
330
2A
100
AcDbVisualStyle
  2
Facepattern
 70
    15
 71
     2
 72
     2
 73
     0
 90
        0
 40
-0.6
 41
-30.0
 62
     5
 63
     7
 74
     1
 91
        4
 64
     7
 65
   257
 75
     1
175
     1
 42
1.0
 92
        8
 66
     7
 43
1.0
 76
     1
 77
     6
 78
     2
 67
     7
 79
     5
170
     0
171
     0
290
     0
174
     0
 93
        1
 44
0.0
173
     0
291
     1
 45
0.0
1001
ACAD
1000
AcDbSavedByObjectVersion
1070
     0
  0
VISUALSTYLE
  5
2B
102
{ACAD_REACTORS
330
2A
102
}
102
{ACAD_XDICTIONARY
360
26E
102
}
330
2A
100
AcDbVisualStyle
  2
Flat
 70
     0
 71
     2
 72
     1
 73
     1
 90
        2
 40
-0.6
 41
30.0
 62
     5
 63
     7
 74
     0
 91
        4
 64
     7
 65
   257
 75
     1
175
     1
 42
1.0
 92
        8
 66
     7
 43
1.0
 76
     1
 77
     6
 78
     2
 67
     7
 79
     5
170
     0
171
     0
290
     0
174
     0
 93
       13
 44
0.0
173
     0
291
     1
 45
0.0
1001
ACAD
1000
AcDbSavedByObjectVersion
1070
     0
  0
VISUALSTYLE
  5
2C
102
{ACAD_REACTORS
330
2A
102
}
102
{ACAD_XDICTIONARY
360
270
102
}
330
2A
100
AcDbVisualStyle
  2
FlatWithEdges
 70
     1
 71
     2
 72
     1
 73
     1
 90
        2
 40
-0.6
 41
30.0
 62
     5
 63
     7
 74
     1
 91
        4
 64
     7
 65
   257
 75
     1
175
     1
 42
1.0
 92
        0
 66
   257
 43
1.0
 76
     1
 77
     6
 78
     2
 67
     7
 79
     5
170
     0
171
     0
290
     0
174
     0
 93
       13
 44
0.0
173
     0
291
     1
 45
0.0
1001
ACAD
1000
AcDbSavedByObjectVersion
1070
     0
  0
VISUALSTYLE
  5
2D
102
{ACAD_REACTORS
330
2A
102
}
102
{ACAD_XDICTIONARY
360
272
102
}
330
2A
100
AcDbVisualStyle
  2
Gouraud
 70
     2
 71
     2
 72
     2
 73
     1
 90
        2
 40
-0.6
 41
30.0
 62
     5
 63
     7
 74
     0
 91
        4
 64
     7
 65
   257
 75
     1
175
     1
 42
1.0
 92
        0
 66
     7
 43
1.0
 76
     1
 77
     6
 78
     2
 67
     7
 79
     5
170
     0
171
     0
290
     0
174
     0
 93
       13
 44
0.0
173
     0
291
     1
 45
0.0
1001
ACAD
1000
AcDbSavedByObjectVersion
1070
     0
  0
VISUALSTYLE
  5
2E
102
{ACAD_REACTORS
330
2A
102
}
102
{ACAD_XDICTIONARY
360
274
102
}
330
2A
100
AcDbVisualStyle
  2
GouraudWithEdges
 70
     3
 71
     2
 72
     2
 73
     1
 90
        2
 40
-0.6
 41
30.0
 62
     5
 63
     7
 74
     1
 91
        4
 64
     7
 65
   257
 75
     1
175
     1
 42
1.0
 92
        0
 66
   257
 43
1.0
 76
     1
 77
     6
 78
     2
 67
     7
 79
     5
170
     0
171
     0
290
     0
174
     0
 93
       13
 44
0.0
173
     0
291
     1
 45
0.0
1001
ACAD
1000
AcDbSavedByObjectVersion
1070
     0
  0
VISUALSTYLE
  5
38
102
{ACAD_REACTORS
330
2A
102
}
102
{ACAD_XDICTIONARY
360
288
102
}
330
2A
100
AcDbVisualStyle
  2
Linepattern
 70
    14
 71
     2
 72
     2
 73
     0
 90
        0
 40
-0.6
 41
-30.0
 62
     5
 63
     7
 74
     1
 91
        4
 64
     7
 65
   257
 75
     7
175
     7
 42
1.0
 92
        8
 66
     7
 43
1.0
 76
     1
 77
     6
 78
     2
 67
     7
 79
     5
170
     0
171
     0
290
     0
174
     0
 93
        1
 44
0.0
173
     0
291
     1
 45
0.0
1001
ACAD
1000
AcDbSavedByObjectVersion
1070
     0
  0
VISUALSTYLE
  5
33
102
{ACAD_REACTORS
330
2A
102
}
102
{ACAD_XDICTIONARY
360
27E
102
}
330
2A
100
AcDbVisualStyle
  2
Realistic
 70
     8
 71
     2
 72
     2
 73
     0
 90
        0
 40
-0.6
 41
-30.0
 62
     5
 63
     7
 74
     1
 91
        0
 64
     7
 65
   257
 75
     1
175
     1
 42
1.0
 92
        8
 66
     8
 43
1.0
 76
     1
 77
     6
 78
     2
 67
     7
 79
     5
170
     0
171
     0
290
     0
174
     0
 93
       13
 44
0.0
173
     0
291
     0
 45
0.0
1001
ACAD
1000
AcDbSavedByObjectVersion
1070
     0
  0
VISUALSTYLE
  5
37
102
{ACAD_REACTORS
330
2A
102
}
102
{ACAD_XDICTIONARY
360
286
102
}
330
2A
100
AcDbVisualStyle
  2
Thicken
 70
    13
 71
     2
 72
     2
 73
     0
 90
        0
 40
-0.6
 41
-30.0
 62
     5
 63
     7
 74
     1
 91
        4
 64
     7
 65
   257
 75
     1
175
     1
 42
1.0
 92
       12
 66
     7
 43
1.0
 76
     1
 77
     6
 78
     2
 67
     7
 79
     5
170
     0
171
     0
290
     0
174
     0
 93
        1
 44
0.0
173
     0
291
     1
 45
0.0
1001
ACAD
1000
AcDbSavedByObjectVersion
1070
     0
  0
DICTIONARYVAR
  5
26C
102
{ACAD_REACTORS
330
269
102
}
330
269
100
DictionaryVariables
280
     0
  1
2
  0
DICTIONARYVAR
  5
26D
102
{ACAD_REACTORS
330
269
102
}
330
269
100
DictionaryVariables
280
     0
  1
1
  0
DICTIONARY
  5
290
330
3D
100
AcDbDictionary
280
     1
281
     1
  3
ACAD_XREC_ROUNDTRIP
360
291
  0
DICTIONARY
  5
28E
330
3C
100
AcDbDictionary
280
     1
281
     1
  3
ACAD_XREC_ROUNDTRIP
360
28F
  0
DICTIONARY
  5
292
330
3E
100
AcDbDictionary
280
     1
281
     1
  3
ACAD_XREC_ROUNDTRIP
360
293
  0
DICTIONARY
  5
276
330
2F
100
AcDbDictionary
280
     1
281
     1
  3
ACAD_XREC_ROUNDTRIP
360
277
  0
DICTIONARY
  5
27A
330
31
100
AcDbDictionary
280
     1
281
     1
  3
ACAD_XREC_ROUNDTRIP
360
27B
  0
DICTIONARY
  5
278
330
30
100
AcDbDictionary
280
     1
281
     1
  3
ACAD_XREC_ROUNDTRIP
360
279
  0
DICTIONARY
  5
27C
330
32
100
AcDbDictionary
280
     1
281
     1
  3
ACAD_XREC_ROUNDTRIP
360
27D
  0
DICTIONARY
  5
284
330
36
100
AcDbDictionary
280
     1
281
     1
  3
ACAD_XREC_ROUNDTRIP
360
285
  0
DICTIONARY
  5
28C
330
3A
100
AcDbDictionary
280
     1
281
     1
  3
ACAD_XREC_ROUNDTRIP
360
28D
  0
DICTIONARY
  5
280
330
34
100
AcDbDictionary
280
     1
281
     1
  3
ACAD_XREC_ROUNDTRIP
360
281
  0
DICTIONARY
  5
282
330
35
100
AcDbDictionary
280
     1
281
     1
  3
ACAD_XREC_ROUNDTRIP
360
283
  0
DICTIONARY
  5
28A
330
39
100
AcDbDictionary
280
     1
281
     1
  3
ACAD_XREC_ROUNDTRIP
360
28B
  0
DICTIONARY
  5
26E
330
2B
100
AcDbDictionary
280
     1
281
     1
  3
ACAD_XREC_ROUNDTRIP
360
26F
  0
DICTIONARY
  5
270
330
2C
100
AcDbDictionary
280
     1
281
     1
  3
ACAD_XREC_ROUNDTRIP
360
271
  0
DICTIONARY
  5
272
330
2D
100
AcDbDictionary
280
     1
281
     1
  3
ACAD_XREC_ROUNDTRIP
360
273
  0
DICTIONARY
  5
274
330
2E
100
AcDbDictionary
280
     1
281
     1
  3
ACAD_XREC_ROUNDTRIP
360
275
  0
DICTIONARY
  5
288
330
38
100
AcDbDictionary
280
     1
281
     1
  3
ACAD_XREC_ROUNDTRIP
360
289
  0
DICTIONARY
  5
27E
330
33
100
AcDbDictionary
280
     1
281
     1
  3
ACAD_XREC_ROUNDTRIP
360
27F
  0
DICTIONARY
  5
286
330
37
100
AcDbDictionary
280
     1
281
     1
  3
ACAD_XREC_ROUNDTRIP
360
287
  0
XRECORD
  5
291
102
{ACAD_REACTORS
330
290
102
}
330
290
100
AcDbXrecord
280
     1
102
MATERIAL
148
0.0
149
0.0
149
0.0
 93
        0
 94
      127
282
     0
 72
     1
 77
     1
171
     1
175
     1
179
     1
273
     0
  0
XRECORD
  5
28F
102
{ACAD_REACTORS
330
28E
102
}
330
28E
100
AcDbXrecord
280
     1
102
MATERIAL
148
0.0
149
0.0
149
0.0
 93
        0
 94
      127
282
     0
 72
     1
 77
     1
171
     1
175
     1
179
     1
273
     0
  0
XRECORD
  5
293
102
{ACAD_REACTORS
330
292
102
}
330
292
100
AcDbXrecord
280
     1
102
MATERIAL
148
0.0
149
0.0
149
0.0
 93
        0
 94
      127
282
     0
 72
     1
 77
     1
171
     1
175
     1
179
     1
273
     0
  0
XRECORD
  5
277
102
{ACAD_REACTORS
330
276
102
}
330
276
100
AcDbXrecord
280
     1
102
RTVSPropertyOp0
 70
     1
102
RTVSPropertyOp1
 70
     1
102
RTVSPropertyOp2
 70
     1
102
RTVSPropertyOp3
 70
     1
102
RTVSPropertyOp4
 70
     1
102
RTVSPropertyOp5
 70
     1
102
RTVSPropertyOp6
 70
     1
102
RTVSPropertyOp7
 70
     1
102
RTVSPropertyOp8
 70
     1
102
RTVSPropertyOp9
 70
     1
102
RTVSPropertyOp10
 70
     1
102
RTVSPropertyOp11
 70
     1
102
RTVSPropertyOp12
 70
     1
102
RTVSPropertyOp13
 70
     1
102
RTVSPropertyOp14
 70
     1
102
RTVSPropertyOp15
 70
     1
102
RTVSPropertyOp16
 70
     1
102
RTVSPropertyOp17
 70
     1
102
RTVSPropertyOp18
 70
     1
102
RTVSPropertyOp19
 70
     1
102
RTVSPropertyOp20
 70
     1
102
RTVSPropertyOp21
 70
     1
102
RTVSPropertyOp22
 70
     1
102
RTVSPropertyOp23
 70
     1
102
RTVSPropertyOp24
 70
     1
102
RTVSPropertyOp25
 70
     1
102
RTVSPropertyOp26
 70
     1
102
RTVSPropertyOp27
 70
     1
102
RTVSPropertyOp28
 70
     1
102
RTVSPropertyOp29
 70
     1
102
RTVSPropertyOp30
 70
     1
102
RTVSPropertyOp31
 70
     1
102
RTVSPropertyOp32
 70
     1
  0
XRECORD
  5
27B
102
{ACAD_REACTORS
330
27A
102
}
330
27A
100
AcDbXrecord
280
     1
102
RTVSPropertyOp0
 70
     1
102
RTVSPropertyOp1
 70
     1
102
RTVSPropertyOp2
 70
     1
102
RTVSPropertyOp3
 70
     1
102
RTVSPropertyOp4
 70
     1
102
RTVSPropertyOp5
 70
     1
102
RTVSPropertyOp6
 70
     1
102
RTVSPropertyOp7
 70
     1
102
RTVSPropertyOp8
 70
     1
102
RTVSPropertyOp9
 70
     1
102
RTVSPropertyOp10
 70
     1
102
RTVSPropertyOp11
 70
     1
102
RTVSPropertyOp12
 70
     1
102
RTVSPropertyOp13
 70
     1
102
RTVSPropertyOp14
 70
     1
102
RTVSPropertyOp15
 70
     1
102
RTVSPropertyOp16
 70
     1
102
RTVSPropertyOp17
 70
     1
102
RTVSPropertyOp18
 70
     1
102
RTVSPropertyOp19
 70
     1
102
RTVSPropertyOp20
 70
     1
102
RTVSPropertyOp21
 70
     1
102
RTVSPropertyOp22
 70
     1
102
RTVSPropertyOp23
 70
     1
102
RTVSPropertyOp24
 70
     1
102
RTVSPropertyOp25
 70
     1
102
RTVSPropertyOp26
 70
     1
102
RTVSPropertyOp27
 70
     1
102
RTVSPropertyOp28
 70
     1
102
RTVSPropertyOp29
 70
     1
102
RTVSPropertyOp30
 70
     1
102
RTVSPropertyOp31
 70
     1
102
RTVSPropertyOp32
 70
     1
  0
XRECORD
  5
279
102
{ACAD_REACTORS
330
278
102
}
330
278
100
AcDbXrecord
280
     1
102
RTVSPropertyOp0
 70
     1
102
RTVSPropertyOp1
 70
     1
102
RTVSPropertyOp2
 70
     1
102
RTVSPropertyOp3
 70
     1
102
RTVSPropertyOp4
 70
     1
102
RTVSPropertyOp5
 70
     1
102
RTVSPropertyOp6
 70
     1
102
RTVSPropertyOp7
 70
     1
102
RTVSPropertyOp8
 70
     1
102
RTVSPropertyOp9
 70
     1
102
RTVSPropertyOp10
 70
     1
102
RTVSPropertyOp11
 70
     1
102
RTVSPropertyOp12
 70
     1
102
RTVSPropertyOp13
 70
     1
102
RTVSPropertyOp14
 70
     1
102
RTVSPropertyOp15
 70
     1
102
RTVSPropertyOp16
 70
     1
102
RTVSPropertyOp17
 70
     1
102
RTVSPropertyOp18
 70
     1
102
RTVSPropertyOp19
 70
     1
102
RTVSPropertyOp20
 70
     1
102
RTVSPropertyOp21
 70
     1
102
RTVSPropertyOp22
 70
     1
102
RTVSPropertyOp23
 70
     1
102
RTVSPropertyOp24
 70
     1
102
RTVSPropertyOp25
 70
     1
102
RTVSPropertyOp26
 70
     1
102
RTVSPropertyOp27
 70
     1
102
RTVSPropertyOp28
 70
     1
102
RTVSPropertyOp29
 70
     1
102
RTVSPropertyOp30
 70
     1
102
RTVSPropertyOp31
 70
     1
102
RTVSPropertyOp32
 70
     1
  0
XRECORD
  5
27D
102
{ACAD_REACTORS
330
27C
102
}
330
27C
100
AcDbXrecord
280
     1
102
RTVSPropertyOp0
 70
     1
102
RTVSPropertyOp1
 70
     1
102
RTVSPropertyOp2
 70
     1
102
RTVSPropertyOp3
 70
     1
102
RTVSPropertyOp4
 70
     1
102
RTVSPropertyOp5
 70
     1
102
RTVSPropertyOp6
 70
     1
102
RTVSPropertyOp7
 70
     1
102
RTVSPropertyOp8
 70
     1
102
RTVSPropertyOp9
 70
     1
102
RTVSPropertyOp10
 70
     1
102
RTVSPropertyOp11
 70
     1
102
RTVSPropertyOp12
 70
     1
102
RTVSPropertyOp13
 70
     1
102
RTVSPropertyOp14
 70
     1
102
RTVSPropertyOp15
 70
     1
102
RTVSPropertyOp16
 70
     1
102
RTVSPropertyOp17
 70
     1
102
RTVSPropertyOp18
 70
     1
102
RTVSPropertyOp19
 70
     1
102
RTVSPropertyOp20
 70
     1
102
RTVSPropertyOp21
 70
     1
102
RTVSPropertyOp22
 70
     1
102
RTVSPropertyOp23
 70
     1
102
RTVSPropertyOp24
 70
     1
102
RTVSPropertyOp25
 70
     1
102
RTVSPropertyOp26
 70
     1
102
RTVSPropertyOp27
 70
     1
102
RTVSPropertyOp28
 70
     1
102
RTVSPropertyOp29
 70
     1
102
RTVSPropertyOp30
 70
     1
102
RTVSPropertyOp31
 70
     1
102
RTVSPropertyOp32
 70
     1
  0
XRECORD
  5
285
102
{ACAD_REACTORS
330
284
102
}
330
284
100
AcDbXrecord
280
     1
102
RTVSPropertyOp0
 70
     1
102
RTVSPropertyOp1
 70
     1
102
RTVSPropertyOp2
 70
     1
102
RTVSPropertyOp3
 70
     1
102
RTVSPropertyOp4
 70
     1
102
RTVSPropertyOp5
 70
     1
102
RTVSPropertyOp6
 70
     1
102
RTVSPropertyOp7
 70
     1
102
RTVSPropertyOp8
 70
     1
102
RTVSPropertyOp9
 70
     1
102
RTVSPropertyOp10
 70
     1
102
RTVSPropertyOp11
 70
     1
102
RTVSPropertyOp12
 70
     1
102
RTVSPropertyOp13
 70
     1
102
RTVSPropertyOp14
 70
     1
102
RTVSPropertyOp15
 70
     1
102
RTVSPropertyOp16
 70
     1
102
RTVSPropertyOp17
 70
     1
102
RTVSPropertyOp18
 70
     1
102
RTVSPropertyOp19
 70
     1
102
RTVSPropertyOp20
 70
     1
102
RTVSPropertyOp21
 70
     1
102
RTVSPropertyOp22
 70
     1
102
RTVSPropertyOp23
 70
     1
102
RTVSPropertyOp24
 70
     1
102
RTVSPropertyOp25
 70
     1
102
RTVSPropertyOp26
 70
     1
102
RTVSPropertyOp27
 70
     1
102
RTVSPropertyOp28
 70
     1
102
RTVSPropertyOp29
 70
     1
102
RTVSPropertyOp30
 70
     1
102
RTVSPropertyOp31
 70
     1
102
RTVSPropertyOp32
 70
     1
  0
XRECORD
  5
28D
102
{ACAD_REACTORS
330
28C
102
}
330
28C
100
AcDbXrecord
280
     1
102
RTVSPropertyOp0
 70
     1
102
RTVSPropertyOp1
 70
     1
102
RTVSPropertyOp2
 70
     1
102
RTVSPropertyOp3
 70
     1
102
RTVSPropertyOp4
 70
     1
102
RTVSPropertyOp5
 70
     1
102
RTVSPropertyOp6
 70
     1
102
RTVSPropertyOp7
 70
     1
102
RTVSPropertyOp8
 70
     1
102
RTVSPropertyOp9
 70
     1
102
RTVSPropertyOp10
 70
     1
102
RTVSPropertyOp11
 70
     1
102
RTVSPropertyOp12
 70
     1
102
RTVSPropertyOp13
 70
     1
102
RTVSPropertyOp14
 70
     1
102
RTVSPropertyOp15
 70
     1
102
RTVSPropertyOp16
 70
     1
102
RTVSPropertyOp17
 70
     1
102
RTVSPropertyOp18
 70
     1
102
RTVSPropertyOp19
 70
     1
102
RTVSPropertyOp20
 70
     1
102
RTVSPropertyOp21
 70
     1
102
RTVSPropertyOp22
 70
     1
102
RTVSPropertyOp23
 70
     1
102
RTVSPropertyOp24
 70
     1
102
RTVSPropertyOp25
 70
     1
102
RTVSPropertyOp26
 70
     1
102
RTVSPropertyOp27
 70
     1
102
RTVSPropertyOp28
 70
     1
102
RTVSPropertyOp29
 70
     1
102
RTVSPropertyOp30
 70
     1
102
RTVSPropertyOp31
 70
     1
102
RTVSPropertyOp32
 70
     1
  0
XRECORD
  5
281
102
{ACAD_REACTORS
330
280
102
}
330
280
100
AcDbXrecord
280
     1
102
RTVSPropertyOp0
 70
     1
102
RTVSPropertyOp1
 70
     1
102
RTVSPropertyOp2
 70
     1
102
RTVSPropertyOp3
 70
     1
102
RTVSPropertyOp4
 70
     1
102
RTVSPropertyOp5
 70
     1
102
RTVSPropertyOp6
 70
     1
102
RTVSPropertyOp7
 70
     1
102
RTVSPropertyOp8
 70
     1
102
RTVSPropertyOp9
 70
     1
102
RTVSPropertyOp10
 70
     1
102
RTVSPropertyOp11
 70
     1
102
RTVSPropertyOp12
 70
     1
102
RTVSPropertyOp13
 70
     1
102
RTVSPropertyOp14
 70
     1
102
RTVSPropertyOp15
 70
     1
102
RTVSPropertyOp16
 70
     1
102
RTVSPropertyOp17
 70
     1
102
RTVSPropertyOp18
 70
     1
102
RTVSPropertyOp19
 70
     1
102
RTVSPropertyOp20
 70
     1
102
RTVSPropertyOp21
 70
     1
102
RTVSPropertyOp22
 70
     1
102
RTVSPropertyOp23
 70
     1
102
RTVSPropertyOp24
 70
     1
102
RTVSPropertyOp25
 70
     1
102
RTVSPropertyOp26
 70
     1
102
RTVSPropertyOp27
 70
     1
102
RTVSPropertyOp28
 70
     1
102
RTVSPropertyOp29
 70
     1
102
RTVSPropertyOp30
 70
     1
102
RTVSPropertyOp31
 70
     1
102
RTVSPropertyOp32
 70
     1
  0
XRECORD
  5
283
102
{ACAD_REACTORS
330
282
102
}
330
282
100
AcDbXrecord
280
     1
102
RTVSPropertyOp0
 70
     1
102
RTVSPropertyOp1
 70
     1
102
RTVSPropertyOp2
 70
     1
102
RTVSPropertyOp3
 70
     1
102
RTVSPropertyOp4
 70
     1
102
RTVSPropertyOp5
 70
     1
102
RTVSPropertyOp6
 70
     1
102
RTVSPropertyOp7
 70
     1
102
RTVSPropertyOp8
 70
     1
102
RTVSPropertyOp9
 70
     1
102
RTVSPropertyOp10
 70
     1
102
RTVSPropertyOp11
 70
     1
102
RTVSPropertyOp12
 70
     1
102
RTVSPropertyOp13
 70
     1
102
RTVSPropertyOp14
 70
     1
102
RTVSPropertyOp15
 70
     1
102
RTVSPropertyOp16
 70
     1
102
RTVSPropertyOp17
 70
     1
102
RTVSPropertyOp18
 70
     1
102
RTVSPropertyOp19
 70
     1
102
RTVSPropertyOp20
 70
     1
102
RTVSPropertyOp21
 70
     1
102
RTVSPropertyOp22
 70
     1
102
RTVSPropertyOp23
 70
     1
102
RTVSPropertyOp24
 70
     1
102
RTVSPropertyOp25
 70
     1
102
RTVSPropertyOp26
 70
     1
102
RTVSPropertyOp27
 70
     1
102
RTVSPropertyOp28
 70
     1
102
RTVSPropertyOp29
 70
     1
102
RTVSPropertyOp30
 70
     1
102
RTVSPropertyOp31
 70
     1
102
RTVSPropertyOp32
 70
     1
  0
XRECORD
  5
28B
102
{ACAD_REACTORS
330
28A
102
}
330
28A
100
AcDbXrecord
280
     1
102
RTVSPropertyOp0
 70
     1
102
RTVSPropertyOp1
 70
     1
102
RTVSPropertyOp2
 70
     1
102
RTVSPropertyOp3
 70
     1
102
RTVSPropertyOp4
 70
     1
102
RTVSPropertyOp5
 70
     1
102
RTVSPropertyOp6
 70
     1
102
RTVSPropertyOp7
 70
     1
102
RTVSPropertyOp8
 70
     1
102
RTVSPropertyOp9
 70
     1
102
RTVSPropertyOp10
 70
     1
102
RTVSPropertyOp11
 70
     1
102
RTVSPropertyOp12
 70
     1
102
RTVSPropertyOp13
 70
     1
102
RTVSPropertyOp14
 70
     1
102
RTVSPropertyOp15
 70
     1
102
RTVSPropertyOp16
 70
     1
102
RTVSPropertyOp17
 70
     1
102
RTVSPropertyOp18
 70
     1
102
RTVSPropertyOp19
 70
     1
102
RTVSPropertyOp20
 70
     1
102
RTVSPropertyOp21
 70
     1
102
RTVSPropertyOp22
 70
     1
102
RTVSPropertyOp23
 70
     1
102
RTVSPropertyOp24
 70
     1
102
RTVSPropertyOp25
 70
     1
102
RTVSPropertyOp26
 70
     1
102
RTVSPropertyOp27
 70
     1
102
RTVSPropertyOp28
 70
     1
102
RTVSPropertyOp29
 70
     1
102
RTVSPropertyOp30
 70
     1
102
RTVSPropertyOp31
 70
     1
102
RTVSPropertyOp32
 70
     1
  0
XRECORD
  5
26F
102
{ACAD_REACTORS
330
26E
102
}
330
26E
100
AcDbXrecord
280
     1
102
RTVSPropertyOp0
 70
     1
102
RTVSPropertyOp1
 70
     1
102
RTVSPropertyOp2
 70
     1
102
RTVSPropertyOp3
 70
     1
102
RTVSPropertyOp4
 70
     1
102
RTVSPropertyOp5
 70
     1
102
RTVSPropertyOp6
 70
     1
102
RTVSPropertyOp7
 70
     1
102
RTVSPropertyOp8
 70
     1
102
RTVSPropertyOp9
 70
     1
102
RTVSPropertyOp10
 70
     1
102
RTVSPropertyOp11
 70
     1
102
RTVSPropertyOp12
 70
     1
102
RTVSPropertyOp13
 70
     1
102
RTVSPropertyOp14
 70
     1
102
RTVSPropertyOp15
 70
     1
102
RTVSPropertyOp16
 70
     1
102
RTVSPropertyOp17
 70
     1
102
RTVSPropertyOp18
 70
     1
102
RTVSPropertyOp19
 70
     1
102
RTVSPropertyOp20
 70
     1
102
RTVSPropertyOp21
 70
     1
102
RTVSPropertyOp22
 70
     1
102
RTVSPropertyOp23
 70
     1
102
RTVSPropertyOp24
 70
     1
102
RTVSPropertyOp25
 70
     1
102
RTVSPropertyOp26
 70
     1
102
RTVSPropertyOp27
 70
     1
102
RTVSPropertyOp28
 70
     1
102
RTVSPropertyOp29
 70
     1
102
RTVSPropertyOp30
 70
     1
102
RTVSPropertyOp31
 70
     1
102
RTVSPropertyOp32
 70
     1
  0
XRECORD
  5
271
102
{ACAD_REACTORS
330
270
102
}
330
270
100
AcDbXrecord
280
     1
102
RTVSPropertyOp0
 70
     1
102
RTVSPropertyOp1
 70
     1
102
RTVSPropertyOp2
 70
     1
102
RTVSPropertyOp3
 70
     1
102
RTVSPropertyOp4
 70
     1
102
RTVSPropertyOp5
 70
     1
102
RTVSPropertyOp6
 70
     1
102
RTVSPropertyOp7
 70
     1
102
RTVSPropertyOp8
 70
     1
102
RTVSPropertyOp9
 70
     1
102
RTVSPropertyOp10
 70
     1
102
RTVSPropertyOp11
 70
     1
102
RTVSPropertyOp12
 70
     1
102
RTVSPropertyOp13
 70
     1
102
RTVSPropertyOp14
 70
     1
102
RTVSPropertyOp15
 70
     1
102
RTVSPropertyOp16
 70
     1
102
RTVSPropertyOp17
 70
     1
102
RTVSPropertyOp18
 70
     1
102
RTVSPropertyOp19
 70
     1
102
RTVSPropertyOp20
 70
     1
102
RTVSPropertyOp21
 70
     1
102
RTVSPropertyOp22
 70
     1
102
RTVSPropertyOp23
 70
     1
102
RTVSPropertyOp24
 70
     1
102
RTVSPropertyOp25
 70
     1
102
RTVSPropertyOp26
 70
     1
102
RTVSPropertyOp27
 70
     1
102
RTVSPropertyOp28
 70
     1
102
RTVSPropertyOp29
 70
     1
102
RTVSPropertyOp30
 70
     1
102
RTVSPropertyOp31
 70
     1
102
RTVSPropertyOp32
 70
     1
  0
XRECORD
  5
273
102
{ACAD_REACTORS
330
272
102
}
330
272
100
AcDbXrecord
280
     1
102
RTVSPropertyOp0
 70
     1
102
RTVSPropertyOp1
 70
     1
102
RTVSPropertyOp2
 70
     1
102
RTVSPropertyOp3
 70
     1
102
RTVSPropertyOp4
 70
     1
102
RTVSPropertyOp5
 70
     1
102
RTVSPropertyOp6
 70
     1
102
RTVSPropertyOp7
 70
     1
102
RTVSPropertyOp8
 70
     1
102
RTVSPropertyOp9
 70
     1
102
RTVSPropertyOp10
 70
     1
102
RTVSPropertyOp11
 70
     1
102
RTVSPropertyOp12
 70
     1
102
RTVSPropertyOp13
 70
     1
102
RTVSPropertyOp14
 70
     1
102
RTVSPropertyOp15
 70
     1
102
RTVSPropertyOp16
 70
     1
102
RTVSPropertyOp17
 70
     1
102
RTVSPropertyOp18
 70
     1
102
RTVSPropertyOp19
 70
     1
102
RTVSPropertyOp20
 70
     1
102
RTVSPropertyOp21
 70
     1
102
RTVSPropertyOp22
 70
     1
102
RTVSPropertyOp23
 70
     1
102
RTVSPropertyOp24
 70
     1
102
RTVSPropertyOp25
 70
     1
102
RTVSPropertyOp26
 70
     1
102
RTVSPropertyOp27
 70
     1
102
RTVSPropertyOp28
 70
     1
102
RTVSPropertyOp29
 70
     1
102
RTVSPropertyOp30
 70
     1
102
RTVSPropertyOp31
 70
     1
102
RTVSPropertyOp32
 70
     1
  0
XRECORD
  5
275
102
{ACAD_REACTORS
330
274
102
}
330
274
100
AcDbXrecord
280
     1
102
RTVSPropertyOp0
 70
     1
102
RTVSPropertyOp1
 70
     1
102
RTVSPropertyOp2
 70
     1
102
RTVSPropertyOp3
 70
     1
102
RTVSPropertyOp4
 70
     1
102
RTVSPropertyOp5
 70
     1
102
RTVSPropertyOp6
 70
     1
102
RTVSPropertyOp7
 70
     1
102
RTVSPropertyOp8
 70
     1
102
RTVSPropertyOp9
 70
     1
102
RTVSPropertyOp10
 70
     1
102
RTVSPropertyOp11
 70
     1
102
RTVSPropertyOp12
 70
     1
102
RTVSPropertyOp13
 70
     1
102
RTVSPropertyOp14
 70
     1
102
RTVSPropertyOp15
 70
     1
102
RTVSPropertyOp16
 70
     1
102
RTVSPropertyOp17
 70
     1
102
RTVSPropertyOp18
 70
     1
102
RTVSPropertyOp19
 70
     1
102
RTVSPropertyOp20
 70
     1
102
RTVSPropertyOp21
 70
     1
102
RTVSPropertyOp22
 70
     1
102
RTVSPropertyOp23
 70
     1
102
RTVSPropertyOp24
 70
     1
102
RTVSPropertyOp25
 70
     1
102
RTVSPropertyOp26
 70
     1
102
RTVSPropertyOp27
 70
     1
102
RTVSPropertyOp28
 70
     1
102
RTVSPropertyOp29
 70
     1
102
RTVSPropertyOp30
 70
     1
102
RTVSPropertyOp31
 70
     1
102
RTVSPropertyOp32
 70
     1
  0
XRECORD
  5
289
102
{ACAD_REACTORS
330
288
102
}
330
288
100
AcDbXrecord
280
     1
102
RTVSPropertyOp0
 70
     1
102
RTVSPropertyOp1
 70
     1
102
RTVSPropertyOp2
 70
     1
102
RTVSPropertyOp3
 70
     1
102
RTVSPropertyOp4
 70
     1
102
RTVSPropertyOp5
 70
     1
102
RTVSPropertyOp6
 70
     1
102
RTVSPropertyOp7
 70
     1
102
RTVSPropertyOp8
 70
     1
102
RTVSPropertyOp9
 70
     1
102
RTVSPropertyOp10
 70
     1
102
RTVSPropertyOp11
 70
     1
102
RTVSPropertyOp12
 70
     1
102
RTVSPropertyOp13
 70
     1
102
RTVSPropertyOp14
 70
     1
102
RTVSPropertyOp15
 70
     1
102
RTVSPropertyOp16
 70
     1
102
RTVSPropertyOp17
 70
     1
102
RTVSPropertyOp18
 70
     1
102
RTVSPropertyOp19
 70
     1
102
RTVSPropertyOp20
 70
     1
102
RTVSPropertyOp21
 70
     1
102
RTVSPropertyOp22
 70
     1
102
RTVSPropertyOp23
 70
     1
102
RTVSPropertyOp24
 70
     1
102
RTVSPropertyOp25
 70
     1
102
RTVSPropertyOp26
 70
     1
102
RTVSPropertyOp27
 70
     1
102
RTVSPropertyOp28
 70
     1
102
RTVSPropertyOp29
 70
     1
102
RTVSPropertyOp30
 70
     1
102
RTVSPropertyOp31
 70
     1
102
RTVSPropertyOp32
 70
     1
  0
XRECORD
  5
27F
102
{ACAD_REACTORS
330
27E
102
}
330
27E
100
AcDbXrecord
280
     1
102
RTVSPropertyOp0
 70
     1
102
RTVSPropertyOp1
 70
     1
102
RTVSPropertyOp2
 70
     1
102
RTVSPropertyOp3
 70
     1
102
RTVSPropertyOp4
 70
     1
102
RTVSPropertyOp5
 70
     1
102
RTVSPropertyOp6
 70
     1
102
RTVSPropertyOp7
 70
     1
102
RTVSPropertyOp8
 70
     1
102
RTVSPropertyOp9
 70
     1
102
RTVSPropertyOp10
 70
     1
102
RTVSPropertyOp11
 70
     1
102
RTVSPropertyOp12
 70
     1
102
RTVSPropertyOp13
 70
     1
102
RTVSPropertyOp14
 70
     1
102
RTVSPropertyOp15
 70
     1
102
RTVSPropertyOp16
 70
     1
102
RTVSPropertyOp17
 70
     1
102
RTVSPropertyOp18
 70
     1
102
RTVSPropertyOp19
 70
     1
102
RTVSPropertyOp20
 70
     1
102
RTVSPropertyOp21
 70
     1
102
RTVSPropertyOp22
 70
     1
102
RTVSPropertyOp23
 70
     1
102
RTVSPropertyOp24
 70
     1
102
RTVSPropertyOp25
 70
     1
102
RTVSPropertyOp26
 70
     1
102
RTVSPropertyOp27
 70
     1
102
RTVSPropertyOp28
 70
     1
102
RTVSPropertyOp29
 70
     1
102
RTVSPropertyOp30
 70
     1
102
RTVSPropertyOp31
 70
     1
102
RTVSPropertyOp32
 70
     1
  0
XRECORD
  5
287
102
{ACAD_REACTORS
330
286
102
}
330
286
100
AcDbXrecord
280
     1
102
RTVSPropertyOp0
 70
     1
102
RTVSPropertyOp1
 70
     1
102
RTVSPropertyOp2
 70
     1
102
RTVSPropertyOp3
 70
     1
102
RTVSPropertyOp4
 70
     1
102
RTVSPropertyOp5
 70
     1
102
RTVSPropertyOp6
 70
     1
102
RTVSPropertyOp7
 70
     1
102
RTVSPropertyOp8
 70
     1
102
RTVSPropertyOp9
 70
     1
102
RTVSPropertyOp10
 70
     1
102
RTVSPropertyOp11
 70
     1
102
RTVSPropertyOp12
 70
     1
102
RTVSPropertyOp13
 70
     1
102
RTVSPropertyOp14
 70
     1
102
RTVSPropertyOp15
 70
     1
102
RTVSPropertyOp16
 70
     1
102
RTVSPropertyOp17
 70
     1
102
RTVSPropertyOp18
 70
     1
102
RTVSPropertyOp19
 70
     1
102
RTVSPropertyOp20
 70
     1
102
RTVSPropertyOp21
 70
     1
102
RTVSPropertyOp22
 70
     1
102
RTVSPropertyOp23
 70
     1
102
RTVSPropertyOp24
 70
     1
102
RTVSPropertyOp25
 70
     1
102
RTVSPropertyOp26
 70
     1
102
RTVSPropertyOp27
 70
     1
102
RTVSPropertyOp28
 70
     1
102
RTVSPropertyOp29
 70
     1
102
RTVSPropertyOp30
 70
     1
102
RTVSPropertyOp31
 70
     1
102
RTVSPropertyOp32
 70
     1
  0
ENDSEC
  0
EOF
