  0
SECTION
  2
HEADER
  9
$ACADVER
  1
AC1015
  9
$ACADMAINTVER
 70
     6
  9
$DWGCODEPAGE
  3
ANSI_932
  9
$INSBASE
 10
0.0
 20
0.0
 30
0.0
  9
$EXTMIN
 10
183.334319463589
 20
148.9756904450665
 30
0.0
  9
$EXTMAX
 10
360.261434046823
 20
260.3476437839291
 30
0.0
  9
$LIMMIN
 10
0.0
 20
0.0
  9
$LIMMAX
 10
12.0
 20
9.0
  9
$ORTHOMODE
 70
     0
  9
$REGENMODE
 70
     1
  9
$FILLMODE
 70
     1
  9
$QTEXTMODE
 70
     0
  9
$MIRRTEXT
 70
     1
  9
$LTSCALE
 40
1.0
  9
$ATTMODE
 70
     1
  9
$TEXTSIZE
 40
0.2
  9
$TRACEWID
 40
0.05
  9
$TEXTSTYLE
  7
Standard
  9
$CLAYER
  8
0
  9
$CELTYPE
  6
ByLayer
  9
$CECOLOR
 62
   256
  9
$CELTSCALE
 40
1.0
  9
$DISPSILH
 70
     0
  9
$DIMSCALE
 40
1.0
  9
$DIMASZ
 40
0.18
  9
$DIMEXO
 40
0.0625
  9
$DIMDLI
 40
0.38
  9
$DIMRND
 40
0.0
  9
$DIMDLE
 40
0.0
  9
$DIMEXE
 40
0.18
  9
$DIMTP
 40
0.0
  9
$DIMTM
 40
0.0
  9
$DIMTXT
 40
0.18
  9
$DIMCEN
 40
0.09
  9
$DIMTSZ
 40
0.0
  9
$DIMTOL
 70
     0
  9
$DIMLIM
 70
     0
  9
$DIMTIH
 70
     1
  9
$DIMTOH
 70
     1
  9
$DIMSE1
 70
     0
  9
$DIMSE2
 70
     0
  9
$DIMTAD
 70
     0
  9
$DIMZIN
 70
     0
  9
$DIMBLK
  1

  9
$DIMASO
 70
     1
  9
$DIMSHO
 70
     1
  9
$DIMPOST
  1

  9
$DIMAPOST
  1

  9
$DIMALT
 70
     0
  9
$DIMALTD
 70
     2
  9
$DIMALTF
 40
25.4
  9
$DIMLFAC
 40
1.0
  9
$DIMTOFL
 70
     0
  9
$DIMTVP
 40
0.0
  9
$DIMTIX
 70
     0
  9
$DIMSOXD
 70
     0
  9
$DIMSAH
 70
     0
  9
$DIMBLK1
  1

  9
$DIMBLK2
  1

  9
$DIMSTYLE
  2
Standard
  9
$DIMCLRD
 70
     0
  9
$DIMCLRE
 70
     0
  9
$DIMCLRT
 70
     0
  9
$DIMTFAC
 40
1.0
  9
$DIMGAP
 40
0.09
  9
$DIMJUST
 70
     0
  9
$DIMSD1
 70
     0
  9
$DIMSD2
 70
     0
  9
$DIMTOLJ
 70
     1
  9
$DIMTZIN
 70
     0
  9
$DIMALTZ
 70
     0
  9
$DIMALTTZ
 70
     0
  9
$DIMUPT
 70
     0
  9
$DIMDEC
 70
     4
  9
$DIMTDEC
 70
     4
  9
$DIMALTU
 70
     2
  9
$DIMALTTD
 70
     2
  9
$DIMTXSTY
  7
Standard
  9
$DIMAUNIT
 70
     0
  9
$DIMADEC
 70
     0
  9
$DIMALTRND
 40
0.0
  9
$DIMAZIN
 70
     0
  9
$DIMDSEP
 70
    46
  9
$DIMATFIT
 70
     3
  9
$DIMFRAC
 70
     0
  9
$DIMLDRBLK
  1

  9
$DIMLUNIT
 70
     2
  9
$DIMLWD
 70
    -2
  9
$DIMLWE
 70
    -2
  9
$DIMTMOVE
 70
     0
  9
$LUNITS
 70
     2
  9
$LUPREC
 70
     4
  9
$SKETCHINC
 40
0.1
  9
$FILLETRAD
 40
0.5
  9
$AUNITS
 70
     0
  9
$AUPREC
 70
     0
  9
$MENU
  1
.
  9
$ELEVATION
 40
0.0
  9
$PELEVATION
 40
0.0
  9
$THICKNESS
 40
0.0
  9
$LIMCHECK
 70
     0
  9
$CHAMFERA
 40
0.5
  9
$CHAMFERB
 40
0.5
  9
$CHAMFERC
 40
1.0
  9
$CHAMFERD
 40
0.0
  9
$SKPOLY
 70
     0
  9
$TDCREATE
 40
2457743.433969965
  9
$TDUCREATE
 40
2457743.058969965
  9
$TDUPDATE
 40
2457743.433971227
  9
$TDUUPDATE
 40
2457743.058971227
  9
$TDINDWG
 40
0.0000000116
  9
$TDUSRTIMER
 40
0.0000000116
  9
$USRTIMER
 70
     1
  9
$ANGBASE
 50
0.0
  9
$ANGDIR
 70
     0
  9
$PDMODE
 70
     0
  9
$PDSIZE
 40
0.0
  9
$PLINEWID
 40
0.0
  9
$SPLFRAME
 70
     0
  9
$SPLINETYPE
 70
     6
  9
$SPLINESEGS
 70
     8
  9
$HANDSEED
  5
298
  9
$SURFTAB1
 70
     6
  9
$SURFTAB2
 70
     6
  9
$SURFTYPE
 70
     6
  9
$SURFU
 70
     6
  9
$SURFV
 70
     6
  9
$UCSBASE
  2

  9
$UCSNAME
  2

  9
$UCSORG
 10
0.0
 20
0.0
 30
0.0
  9
$UCSXDIR
 10
1.0
 20
0.0
 30
0.0
  9
$UCSYDIR
 10
0.0
 20
1.0
 30
0.0
  9
$UCSORTHOREF
  2

  9
$UCSORTHOVIEW
 70
     0
  9
$UCSORGTOP
 10
0.0
 20
0.0
 30
0.0
  9
$UCSORGBOTTOM
 10
0.0
 20
0.0
 30
0.0
  9
$UCSORGLEFT
 10
0.0
 20
0.0
 30
0.0
  9
$UCSORGRIGHT
 10
0.0
 20
0.0
 30
0.0
  9
$UCSORGFRONT
 10
0.0
 20
0.0
 30
0.0
  9
$UCSORGBACK
 10
0.0
 20
0.0
 30
0.0
  9
$PUCSBASE
  2

  9
$PUCSNAME
  2

  9
$PUCSORG
 10
0.0
 20
0.0
 30
0.0
  9
$PUCSXDIR
 10
1.0
 20
0.0
 30
0.0
  9
$PUCSYDIR
 10
0.0
 20
1.0
 30
0.0
  9
$PUCSORTHOREF
  2

  9
$PUCSORTHOVIEW
 70
     0
  9
$PUCSORGTOP
 10
0.0
 20
0.0
 30
0.0
  9
$PUCSORGBOTTOM
 10
0.0
 20
0.0
 30
0.0
  9
$PUCSORGLEFT
 10
0.0
 20
0.0
 30
0.0
  9
$PUCSORGRIGHT
 10
0.0
 20
0.0
 30
0.0
  9
$PUCSORGFRONT
 10
0.0
 20
0.0
 30
0.0
  9
$PUCSORGBACK
 10
0.0
 20
0.0
 30
0.0
  9
$USERI1
 70
     0
  9
$USERI2
 70
     0
  9
$USERI3
 70
     0
  9
$USERI4
 70
     0
  9
$USERI5
 70
     0
  9
$USERR1
 40
18.1
  9
$USERR2
 40
0.0
  9
$USERR3
 40
0.0
  9
$USERR4
 40
0.0
  9
$USERR5
 40
0.0
  9
$WORLDVIEW
 70
     1
  9
$SHADEDGE
 70
     3
  9
$SHADEDIF
 70
    70
  9
$TILEMODE
 70
     1
  9
$MAXACTVP
 70
    64
  9
$PINSBASE
 10
0.0
 20
0.0
 30
0.0
  9
$PLIMCHECK
 70
     0
  9
$PEXTMIN
 10
1.00000000000000E+20
 20
1.00000000000000E+20
 30
1.00000000000000E+20
  9
$PEXTMAX
 10
-1.00000000000000E+20
 20
-1.00000000000000E+20
 30
-1.00000000000000E+20
  9
$PLIMMIN
 10
0.0
 20
0.0
  9
$PLIMMAX
 10
12.0
 20
9.0
  9
$UNITMODE
 70
     0
  9
$VISRETAIN
 70
     1
  9
$PLINEGEN
 70
     0
  9
$PSLTSCALE
 70
     1
  9
$TREEDEPTH
 70
  3020
  9
$CMLSTYLE
  2
Standard
  9
$CMLJUST
 70
     0
  9
$CMLSCALE
 40
1.0
  9
$PROXYGRAPHICS
 70
     1
  9
$MEASUREMENT
 70
     1
  9
$CELWEIGHT
370
    -1
  9
$ENDCAPS
280
     0
  9
$JOINSTYLE
280
     0
  9
$LWDISPLAY
290
     0
  9
$INSUNITS
 70
     4
  9
$HYPERLINKBASE
  1

  9
$STYLESHEET
  1

  9
$XEDIT
290
     1
  9
$CEPSNTYPE
380
     0
  9
$PSTYLEMODE
290
     1
  9
$FINGERPRINTGUID
  2
{88AC4C61-89E5-4B65-83A1-D7A2BD1F826C}
  9
$VERSIONGUID
  2
{FAEB1C32-E019-11D5-929B-00C0DF256EC4}
  9
$EXTNAMES
290
     1
  9
$PSVPSCALE
 40
0.0
  9
$OLESTARTUP
290
     0
  0
ENDSEC
  0
SECTION
  2
CLASSES
  0
CLASS
  1
ACDBDICTIONARYWDFLT
  2
AcDbDictionaryWithDefault
  3
ObjectDBX Classes
 90
        0
280
     0
281
     0
  0
CLASS
  1
VISUALSTYLE
  2
AcDbVisualStyle
  3
ObjectDBX Classes
 90
     4095
280
     0
281
     0
  0
CLASS
  1
MATERIAL
  2
AcDbMaterial
  3
ObjectDBX Classes
 90
     1153
280
     0
281
     0
  0
CLASS
  1
DICTIONARYVAR
  2
AcDbDictionaryVar
  3
ObjectDBX Classes
 90
        0
280
     0
281
     0
  0
CLASS
  1
ACDBPLACEHOLDER
  2
AcDbPlaceHolder
  3
ObjectDBX Classes
 90
        0
280
     0
281
     0
  0
CLASS
  1
LAYOUT
  2
AcDbLayout
  3
ObjectDBX Classes
 90
        0
280
     0
281
     0
  0
ENDSEC
  0
SECTION
  2
TABLES
  0
TABLE
  2
VPORT
  5
8
330
0
100
AcDbSymbolTable
 70
     1
  0
VPORT
  5
29
330
8
100
AcDbSymbolTableRecord
100
AcDbViewportTableRecord
  2
*Active
 70
     0
 10
0.0
 20
0.0
 11
1.0
 21
1.0
 12
271.797876755206
 22
204.6616671144978
 13
0.0
 23
0.0
 14
0.5
 24
0.5
 15
0.5
 25
0.5
 16
0.0
 26
0.0
 36
1.0
 17
0.0
 27
0.0
 37
0.0
 40
122.5091486727488
 41
1.60267857142857
 42
50.0
 43
0.0
 44
0.0
 50
0.0
 51
0.0
 71
     0
 72
   100
 73
     1
 74
     3
 75
     0
 76
     0
 77
     0
 78
     0
281
     0
 65
     1
110
0.0
120
0.0
130
0.0
111
1.0
121
0.0
131
0.0
112
0.0
122
1.0
132
0.0
 79
     0
146
0.0
  0
ENDTAB
  0
TABLE
  2
LTYPE
  5
5
330
0
100
AcDbSymbolTable
 70
     8
  0
LTYPE
  5
14
330
5
100
AcDbSymbolTableRecord
100
AcDbLinetypeTableRecord
  2
ByBlock
 70
     0
  3

 72
    65
 73
     0
 40
0.0
  0
LTYPE
  5
15
330
5
100
AcDbSymbolTableRecord
100
AcDbLinetypeTableRecord
  2
ByLayer
 70
     0
  3

 72
    65
 73
     0
 40
0.0
  0
LTYPE
  5
16
330
5
100
AcDbSymbolTableRecord
100
AcDbLinetypeTableRecord
  2
Continuous
 70
     0
  3
Solid line
 72
    65
 73
     0
 40
0.0
  0
LTYPE
  5
3F
330
5
100
AcDbSymbolTableRecord
100
AcDbLinetypeTableRecord
  2
DASHED
 70
     0
  3
Dashed
 72
    65
 73
     2
 40
15.0
 49
7.0
 74
     0
 49
-8.0
 74
     0
  0
LTYPE
  5
40
330
5
100
AcDbSymbolTableRecord
100
AcDbLinetypeTableRecord
  2
DOTTED
 70
     0
  3
Dotted
 72
    65
 73
     2
 40
1.0
 49
0.0
 74
     0
 49
-1.0
 74
     0
  0
LTYPE
  5
41
330
5
100
AcDbSymbolTableRecord
100
AcDbLinetypeTableRecord
  2
DOT_CENTER
 70
     0
  3
Dot_Center
 72
    65
 73
     4
 40
14.0
 49
12.0
 74
     0
 49
-1.0
 74
     0
 49
0.0
 74
     0
 49
-1.0
 74
     0
  0
LTYPE
  5
42
330
5
100
AcDbSymbolTableRecord
100
AcDbLinetypeTableRecord
  2
LONG_DASHED
 70
     0
  3
Long_Dashed
 72
    65
 73
     2
 40
15.0
 49
10.0
 74
     0
 49
-5.0
 74
     0
  0
LTYPE
  5
43
330
5
100
AcDbSymbolTableRecord
100
AcDbLinetypeTableRecord
  2
DASH_CENTER
 70
     0
  3
Dash_Center
 72
    65
 73
     4
 40
14.0
 49
11.0
 74
     0
 49
-1.0
 74
     0
 49
1.0
 74
     0
 49
-1.0
 74
     0
  0
LTYPE
  5
44
330
5
100
AcDbSymbolTableRecord
100
AcDbLinetypeTableRecord
  2
PHANTOM
 70
     0
  3
Phantom
 72
    65
 73
     6
 40
13.0
 49
10.0
 74
     0
 49
-1.0
 74
     0
 49
0.0
 74
     0
 49
-1.0
 74
     0
 49
0.0
 74
     0
 49
-1.0
 74
     0
  0
LTYPE
  5
45
330
5
100
AcDbSymbolTableRecord
100
AcDbLinetypeTableRecord
  2
CENTER_DASH_DASH
 70
     0
  3
Center_Dash_Dash
 72
    65
 73
     6
 40
14.0
 49
9.0
 74
     0
 49
-1.0
 74
     0
 49
1.0
 74
     0
 49
-1.0
 74
     0
 49
1.0
 74
     0
 49
-1.0
 74
     0
  0
ENDTAB
  0
TABLE
  2
LAYER
  5
2
330
0
100
AcDbSymbolTable
 70
     5
  0
LAYER
  5
10
330
2
100
AcDbSymbolTableRecord
100
AcDbLayerTableRecord
  2
0
 70
     0
 62
     7
  6
Continuous
370
    -3
390
F
  0
LAYER
  5
46
330
2
100
AcDbSymbolTableRecord
100
AcDbLayerTableRecord
  2
1
 70
     0
 62
     7
  6
Continuous
370
    -3
390
F
  0
LAYER
  5
47
330
2
100
AcDbSymbolTableRecord
100
AcDbLayerTableRecord
  2
11
 70
     0
 62
     7
  6
Continuous
370
    -3
390
F
  0
LAYER
  5
48
330
2
100
AcDbSymbolTableRecord
100
AcDbLayerTableRecord
  2
2
 70
     0
 62
     7
  6
Continuous
370
    -3
390
F
  0
LAYER
  5
49
330
2
100
AcDbSymbolTableRecord
100
AcDbLayerTableRecord
  2
4
 70
     0
 62
     7
  6
Continuous
370
    -3
390
F
  0
ENDTAB
  0
TABLE
  2
STYLE
  5
3
330
0
100
AcDbSymbolTable
 70
     6
  0
STYLE
  5
11
330
3
100
AcDbSymbolTableRecord
100
AcDbTextStyleTableRecord
  2
Standard
 70
     0
 40
0.0
 41
1.0
 50
0.0
 71
     0
 42
0.2
  3
txt
  4

  0
STYLE
  5
1E3
330
3
100
AcDbSymbolTableRecord
100
AcDbTextStyleTableRecord
  2
CONVERTER_11
 70
     0
 40
0.0
 41
0.9
 50
0.0
 71
     0
 42
0.2
  3
txt.shx
  4

  0
STYLE
  5
1E5
330
3
100
AcDbSymbolTableRecord
100
AcDbTextStyleTableRecord
  2
CONVERTER_12
 70
     0
 40
0.0
 41
0.54
 50
0.0
 71
     0
 42
0.2
  3
txt.shx
  4

  0
STYLE
  5
1E7
330
3
100
AcDbSymbolTableRecord
100
AcDbTextStyleTableRecord
  2
CONVERTER_13
 70
     0
 40
0.0
 41
0.856
 50
0.0
 71
     0
 42
0.2
  3
txt.shx
  4

  0
STYLE
  5
1EA
330
3
100
AcDbSymbolTableRecord
100
AcDbTextStyleTableRecord
  2
CONVERTER_14
 70
     0
 40
0.0
 41
0.72
 50
0.0
 71
     0
 42
0.2
  3
txt.shx
  4

  0
STYLE
  5
1EC
330
3
100
AcDbSymbolTableRecord
100
AcDbTextStyleTableRecord
  2
CONVERTER_15
 70
     0
 40
0.0
 41
1.07
 50
0.0
 71
     0
 42
0.2
  3
txt.shx
  4

  0
ENDTAB
  0
TABLE
  2
VIEW
  5
6
330
0
100
AcDbSymbolTable
 70
     0
  0
ENDTAB
  0
TABLE
  2
UCS
  5
7
330
0
100
AcDbSymbolTable
 70
     0
  0
ENDTAB
  0
TABLE
  2
APPID
  5
9
330
0
100
AcDbSymbolTable
 70
     1
  0
APPID
  5
12
330
9
100
AcDbSymbolTableRecord
100
AcDbRegAppTableRecord
  2
ACAD
 70
     0
  0
ENDTAB
  0
TABLE
  2
DIMSTYLE
  5
A
330
0
100
AcDbSymbolTable
 70
    12
100
AcDbDimStyleTable
  0
DIMSTYLE
105
27
330
A
100
AcDbSymbolTableRecord
100
AcDbDimStyleTableRecord
  2
Standard
 70
     0
178
     0
340
11
  0
DIMSTYLE
105
1FB
102
{ACAD_REACTORS
330
1FC
102
}
330
A
100
AcDbSymbolTableRecord
100
AcDbDimStyleTableRecord
  2
ME10_DIM_10
 70
     0
 41
3.2
 42
1.0
 44
1.0
 73
     0
 74
     0
 77
     1
 78
    12
140
3.2
147
1.6
172
     1
173
     1
174
     1
175
     1
176
     2
177
     2
271
     2
178
     2
271
     2
340
1E3
  0
DIMSTYLE
105
206
102
{ACAD_REACTORS
330
207
102
}
330
A
100
AcDbSymbolTableRecord
100
AcDbDimStyleTableRecord
  2
ME10_DIM_11
 70
     0
 41
3.2
 42
1.0
 44
1.5
 73
     0
 74
     0
 77
     1
 78
    12
140
3.2
147
2.0
172
     1
173
     1
174
     1
175
     1
176
     2
177
     2
178
     2
340
1E3
  0
DIMSTYLE
105
211
102
{ACAD_REACTORS
330
212
102
}
330
A
100
AcDbSymbolTableRecord
100
AcDbDimStyleTableRecord
  2
ME10_DIM_12
 70
     0
 41
3.2
 42
1.0
 44
1.5
 47
0.2
 48
0.2
 71
     1
 73
     0
 74
     0
 77
     1
 78
    12
140
3.2
146
0.6
147
2.0
172
     1
173
     1
174
     1
175
     1
176
     2
177
     2
178
     2
272
     1
340
1E3
  0
DIMSTYLE
105
21C
102
{ACAD_REACTORS
330
21D
102
}
330
A
100
AcDbSymbolTableRecord
100
AcDbDimStyleTableRecord
  2
ME10_DIM_13
 70
     0
 41
3.2
 42
1.0
 44
1.5
 47
0.2
 48
0.2
 71
     1
 73
     0
 74
     0
 77
     1
 78
    12
140
3.2
146
0.6
147
2.0
172
     1
173
     1
174
     1
175
     1
176
     2
177
     2
178
     2
272
     1
340
1E3
  0
DIMSTYLE
105
227
102
{ACAD_REACTORS
330
228
102
}
330
A
100
AcDbSymbolTableRecord
100
AcDbDimStyleTableRecord
  2
ME10_DIM_14
 70
     0
 41
3.2
 42
1.0
 44
1.5
 47
0.5
 48
0.5
 71
     1
 73
     0
 74
     0
 77
     1
 78
    12
140
3.2
146
0.6
147
2.0
172
     1
173
     1
174
     1
175
     1
176
     2
177
     2
178
     2
272
     1
340
1E3
  0
DIMSTYLE
105
232
102
{ACAD_REACTORS
330
233
102
}
330
A
100
AcDbSymbolTableRecord
100
AcDbDimStyleTableRecord
  2
ME10_DIM_15
 70
     0
 41
3.2
 42
1.0
 44
1.5
 48
0.011
 71
     1
 73
     0
 74
     0
 77
     1
 78
    12
140
3.2
146
0.6
147
2.0
172
     1
173
     1
174
     1
175
     1
176
     2
177
     2
178
     2
272
     0
340
1E3
  0
DIMSTYLE
105
23D
102
{ACAD_REACTORS
330
23E
102
}
330
A
100
AcDbSymbolTableRecord
100
AcDbDimStyleTableRecord
  2
ME10_DIM_16
 70
     0
 41
3.2
 42
1.0
 44
1.5
 73
     0
 74
     0
 77
     1
 78
    12
140
3.2
147
2.0
172
     1
173
     1
174
     1
175
     1
176
     2
177
     2
178
     2
340
1E3
  0
DIMSTYLE
105
248
102
{ACAD_REACTORS
330
249
102
}
330
A
100
AcDbSymbolTableRecord
100
AcDbDimStyleTableRecord
  2
ME10_DIM_17
 70
     0
 41
3.2
 42
1.0
 44
1.5
 48
0.05
 71
     1
 73
     0
 74
     0
 77
     1
 78
    12
140
3.2
146
0.6
147
2.0
172
     1
173
     1
174
     1
175
     1
176
     2
177
     2
178
     2
272
     0
340
1E3
  0
DIMSTYLE
105
253
102
{ACAD_REACTORS
330
254
102
}
330
A
100
AcDbSymbolTableRecord
100
AcDbDimStyleTableRecord
  2
ME10_DIM_18
 70
     0
 41
3.2
 42
1.0
 44
1.5
 47
0.2
 48
0.2
 71
     1
 73
     0
 74
     0
 77
     1
 78
    12
140
3.2
146
0.6
147
2.0
172
     1
173
     1
174
     1
175
     1
176
     2
177
     2
178
     2
272
     1
340
1E3
  0
DIMSTYLE
105
25E
102
{ACAD_REACTORS
330
25F
102
}
330
A
100
AcDbSymbolTableRecord
100
AcDbDimStyleTableRecord
  2
ME10_DIM_19
 70
     0
 41
3.2
 42
1.0
 44
1.5
 73
     0
 74
     0
 77
     1
 78
    12
140
3.2
147
2.0
172
     1
173
     1
174
     1
175
     1
176
     2
177
     2
178
     2
340
1E3
  0
DIMSTYLE
105
269
102
{ACAD_REACTORS
330
26A
102
}
330
A
100
AcDbSymbolTableRecord
100
AcDbDimStyleTableRecord
  2
ME10_DIM_20
 70
     0
 41
3.2
 42
1.0
 44
1.5
 73
     0
 74
     0
 77
     1
 78
    12
140
3.2
147
2.0
172
     1
173
     1
174
     1
175
     1
176
     2
177
     2
178
     2
340
1E3
  0
ENDTAB
  0
TABLE
  2
BLOCK_RECORD
  5
1
330
0
100
AcDbSymbolTable
 70
    12
  0
BLOCK_RECORD
  5
1F
330
1
100
AcDbSymbolTableRecord
100
AcDbBlockTableRecord
  2
*Model_Space
340
22
  0
BLOCK_RECORD
  5
1B
330
1
100
AcDbSymbolTableRecord
100
AcDbBlockTableRecord
  2
*Paper_Space
340
1E
  0
BLOCK_RECORD
  5
23
330
1
100
AcDbSymbolTableRecord
100
AcDbBlockTableRecord
  2
*Paper_Space0
340
26
  0
BLOCK_RECORD
  5
1F2
330
1
100
AcDbSymbolTableRecord
100
AcDbBlockTableRecord
  2
*D1
340
0
  0
BLOCK_RECORD
  5
1FD
330
1
100
AcDbSymbolTableRecord
100
AcDbBlockTableRecord
  2
*D2
340
0
  0
BLOCK_RECORD
  5
208
330
1
100
AcDbSymbolTableRecord
100
AcDbBlockTableRecord
  2
*D3
340
0
  0
BLOCK_RECORD
  5
213
330
1
100
AcDbSymbolTableRecord
100
AcDbBlockTableRecord
  2
*D4
340
0
  0
BLOCK_RECORD
  5
21E
330
1
100
AcDbSymbolTableRecord
100
AcDbBlockTableRecord
  2
*D5
340
0
  0
BLOCK_RECORD
  5
229
330
1
100
AcDbSymbolTableRecord
100
AcDbBlockTableRecord
  2
*D6
340
0
  0
BLOCK_RECORD
  5
234
330
1
100
AcDbSymbolTableRecord
100
AcDbBlockTableRecord
  2
*D7
340
0
  0
BLOCK_RECORD
  5
23F
330
1
100
AcDbSymbolTableRecord
100
AcDbBlockTableRecord
  2
*D8
340
0
  0
BLOCK_RECORD
  5
24A
330
1
100
AcDbSymbolTableRecord
100
AcDbBlockTableRecord
  2
*D9
340
0
  0
BLOCK_RECORD
  5
255
330
1
100
AcDbSymbolTableRecord
100
AcDbBlockTableRecord
  2
*D10
340
0
  0
BLOCK_RECORD
  5
260
330
1
100
AcDbSymbolTableRecord
100
AcDbBlockTableRecord
  2
*D11
340
0
  0
ENDTAB
  0
ENDSEC
  0
SECTION
  2
BLOCKS
  0
BLOCK
  5
20
330
1F
100
AcDbEntity
  8
0
100
AcDbBlockBegin
  2
*Model_Space
 70
     0
 10
0.0
 20
0.0
 30
0.0
  3
*Model_Space
  1

  0
ENDBLK
  5
21
330
1F
100
AcDbEntity
  8
0
100
AcDbBlockEnd
  0
BLOCK
  5
1C
330
1B
100
AcDbEntity
 67
     1
  8
0
100
AcDbBlockBegin
  2
*Paper_Space
 70
     0
 10
0.0
 20
0.0
 30
0.0
  3
*Paper_Space
  1

  0
ENDBLK
  5
1D
330
1B
100
AcDbEntity
 67
     1
  8
0
100
AcDbBlockEnd
  0
BLOCK
  5
24
330
23
100
AcDbEntity
  8
0
100
AcDbBlockBegin
  2
*Paper_Space0
 70
     0
 10
0.0
 20
0.0
 30
0.0
  3
*Paper_Space0
  1

  0
ENDBLK
  5
25
330
23
100
AcDbEntity
  8
0
100
AcDbBlockEnd
  0
BLOCK
  5
1F9
330
1F2
100
AcDbEntity
  8
0
100
AcDbBlockBegin
  2
*D1
 70
     1
 10
0.0
 20
0.0
 30
0.0
  3
*D1
  1

  0
LINE
  5
1F3
330
1F2
100
AcDbEntity
  8
0
  6
Continuous
 62
     2
100
AcDbLine
 10
233.836697710881
 20
234.155141665406
 30
0.0
 11
191.836696520062
 21
234.155141665406
 31
0.0
  0
LINE
  5
1F4
330
1F2
100
AcDbEntity
  8
0
  6
Continuous
 62
     2
100
AcDbLine
 10
233.836697710881
 20
214.155141665406
 30
0.0
 11
233.836697710881
 21
235.155141665406
 31
0.0
  0
LINE
  5
1F5
330
1F2
100
AcDbEntity
  8
0
  6
Continuous
 62
     2
100
AcDbLine
 10
191.836696520062
 20
214.155142856226
 30
0.0
 11
191.836696520062
 21
235.155141665406
 31
0.0
  0
SOLID
  5
1F6
330
1F2
100
AcDbEntity
  8
0
 62
     2
100
AcDbTrace
 10
195.036696520062
 20
234.5764296576857
 30
0.0
 11
195.036696520062
 21
233.7338536731263
 31
0.0
 12
191.836696520062
 22
234.155141665406
 32
0.0
 13
191.836696520062
 23
234.155141665406
 33
0.0
  0
SOLID
  5
1F7
330
1F2
100
AcDbEntity
  8
0
 62
     2
100
AcDbTrace
 10
230.636697710881
 20
233.7338536731263
 30
0.0
 11
230.636697710881
 21
234.5764296576857
 31
0.0
 12
233.836697710881
 22
234.155141665406
 32
0.0
 13
233.836697710881
 23
234.155141665406
 33
0.0
  0
MTEXT
  5
1F8
330
1F2
100
AcDbEntity
  8
0
 62
     2
100
AcDbMText
 10
208.1550553243293
 20
235.7551302160508
 30
0.0
 40
3.2
 41
0.0
 71
     7
 72
     1
  1
(42)
  7
CONVERTER_11
 11
0.9999999999882478
 21
4.848136811095759E-6
 31
0.0
 73
     1
 44
0.60024009603842
  0
ENDBLK
  5
1FA
330
1F2
100
AcDbEntity
  8
0
100
AcDbBlockEnd
  0
BLOCK
  5
204
330
1FD
100
AcDbEntity
  8
0
100
AcDbBlockBegin
  2
*D2
 70
     1
 10
0.0
 20
0.0
 30
0.0
  3
*D2
  1

  0
LINE
  5
1FE
330
1FD
100
AcDbEntity
  8
1
  6
Continuous
 62
     2
100
AcDbLine
 10
188.534319463589
 20
161.755141665948
 30
0.0
 11
188.534319463589
 21
182.555152579166
 31
0.0
  0
LINE
  5
1FF
330
1FD
100
AcDbEntity
  8
1
  6
Continuous
 62
     2
100
AcDbLine
 10
204.836697710881
 20
168.155141665948
 30
0.0
 11
187.034319463589
 21
168.155141665948
 31
0.0
  0
LINE
  5
200
330
1FD
100
AcDbEntity
  8
1
  6
Continuous
 62
     2
100
AcDbLine
 10
195.836687423987
 20
176.155152579166
 30
0.0
 11
187.034319463589
 21
176.155152579166
 31
0.0
  0
SOLID
  5
201
330
1FD
100
AcDbEntity
  8
1
 62
     2
100
AcDbTrace
 10
188.1130314713093
 20
179.355152579166
 30
0.0
 11
188.9556074558687
 21
179.355152579166
 31
0.0
 12
188.534319463589
 22
176.155152579166
 32
0.0
 13
188.534319463589
 23
176.155152579166
 33
0.0
  0
SOLID
  5
202
330
1FD
100
AcDbEntity
  8
1
 62
     2
100
AcDbTrace
 10
188.9556074558687
 20
164.955141665948
 30
0.0
 11
188.1130314713093
 21
164.955141665948
 31
0.0
 12
188.534319463589
 22
168.155141665948
 32
0.0
 13
188.534319463589
 23
168.155141665948
 33
0.0
  0
MTEXT
  5
203
330
1FD
100
AcDbEntity
  8
1
 62
     2
100
AcDbMText
 10
186.534319463589
 20
167.509271831066
 30
0.0
 40
3.2
 41
0.0
 71
     7
 72
     1
  1
\U+203b(8)
  7
CONVERTER_11
 11
0.0
 21
1.0
 31
0.0
 73
     1
 44
0.60024009603842
  0
ENDBLK
  5
205
330
1FD
100
AcDbEntity
  8
0
100
AcDbBlockEnd
  0
BLOCK
  5
20F
330
208
100
AcDbEntity
  8
0
100
AcDbBlockBegin
  2
*D3
 70
     1
 10
0.0
 20
0.0
 30
0.0
  3
*D3
  1

  0
LINE
  5
209
330
208
100
AcDbEntity
  8
1
  6
Continuous
 62
     2
100
AcDbLine
 10
228.336697710881
 20
226.2813796956664
 30
0.0
 11
197.336697710881
 21
226.2813796956664
 31
0.0
  0
LINE
  5
20A
330
208
100
AcDbEntity
  8
1
  6
Continuous
 62
     2
100
AcDbLine
 10
228.336697710881
 20
215.605141665406
 30
0.0
 11
228.336697710881
 21
227.7813796956664
 31
0.0
  0
LINE
  5
20B
330
208
100
AcDbEntity
  8
1
  6
Continuous
 62
     2
100
AcDbLine
 10
197.336697710881
 20
215.605141665407
 30
0.0
 11
197.336697710881
 21
227.7813796956664
 31
0.0
  0
SOLID
  5
20C
330
208
100
AcDbEntity
  8
1
 62
     2
100
AcDbTrace
 10
200.536697710881
 20
226.7026676879461
 30
0.0
 11
200.536697710881
 21
225.8600917033867
 31
0.0
 12
197.336697710881
 22
226.2813796956664
 32
0.0
 13
197.336697710881
 23
226.2813796956664
 33
0.0
  0
SOLID
  5
20D
330
208
100
AcDbEntity
  8
1
 62
     2
100
AcDbTrace
 10
225.136697710881
 20
225.8600917033867
 30
0.0
 11
225.136697710881
 21
226.7026676879461
 31
0.0
 12
228.336697710881
 22
226.2813796956664
 32
0.0
 13
228.336697710881
 23
226.2813796956664
 33
0.0
  0
MTEXT
  5
20E
330
208
100
AcDbEntity
  8
1
 62
     2
100
AcDbMText
 10
206.9069782569558
 20
228.2813653839718
 30
0.0
 40
3.2
 41
0.0
 71
     7
 72
     1
  1
\C2;31\C2;\H1.92;{\Fgdt;`}0.2
  7
CONVERTER_11
 11
0.9999999999882478
 21
4.848136811095759E-6
 31
0.0
 73
     1
 44
0.60024009603842
  0
ENDBLK
  5
210
330
208
100
AcDbEntity
  8
0
100
AcDbBlockEnd
  0
BLOCK
  5
21A
330
213
100
AcDbEntity
  8
0
100
AcDbBlockBegin
  2
*D4
 70
     1
 10
0.0
 20
0.0
 30
0.0
  3
*D4
  1

  0
LINE
  5
214
330
213
100
AcDbEntity
  8
1
  6
Continuous
 62
     2
100
AcDbLine
 10
247.7393584763503
 20
181.655141665406
 30
0.0
 11
247.7393584763503
 21
212.655141665406
 31
0.0
  0
LINE
  5
215
330
213
100
AcDbEntity
  8
1
  6
Continuous
 62
     2
100
AcDbLine
 10
231.286697710881
 20
181.655141665406
 30
0.0
 11
249.2393584763503
 21
181.655141665406
 31
0.0
  0
LINE
  5
216
330
213
100
AcDbEntity
  8
1
  6
Continuous
 62
     2
100
AcDbLine
 10
231.286697710881
 20
212.655141665406
 30
0.0
 11
249.2393584763503
 21
212.655141665406
 31
0.0
  0
SOLID
  5
217
330
213
100
AcDbEntity
  8
1
 62
     2
100
AcDbTrace
 10
248.16064646863
 20
209.455141665406
 30
0.0
 11
247.3180704840706
 21
209.455141665406
 31
0.0
 12
247.7393584763503
 22
212.655141665406
 32
0.0
 13
247.7393584763503
 23
212.655141665406
 33
0.0
  0
SOLID
  5
218
330
213
100
AcDbEntity
  8
1
 62
     2
100
AcDbTrace
 10
247.3180704840706
 20
184.855141665406
 30
0.0
 11
248.16064646863
 21
184.855141665406
 31
0.0
 12
247.7393584763503
 22
181.655141665406
 32
0.0
 13
247.7393584763503
 23
181.655141665406
 33
0.0
  0
MTEXT
  5
219
330
213
100
AcDbEntity
  8
1
 62
     2
100
AcDbMText
 10
245.73935847635
 20
192.982629472015
 30
0.0
 40
3.2
 41
0.0
 71
     7
 72
     1
  1
\C2;31\C2;\H1.92;{\Fgdt;`}0.2
  7
CONVERTER_11
 11
0.0
 21
1.0
 31
0.0
 73
     1
 44
0.60024009603842
  0
ENDBLK
  5
21B
330
213
100
AcDbEntity
  8
0
100
AcDbBlockEnd
  0
BLOCK
  5
225
330
21E
100
AcDbEntity
  8
0
100
AcDbBlockBegin
  2
*D5
 70
     1
 10
0.0
 20
0.0
 30
0.0
  3
*D5
  1

  0
LINE
  5
21F
330
21E
100
AcDbEntity
  8
1
  6
Continuous
 62
     2
100
AcDbLine
 10
320.434669358153
 20
255.147626609894
 30
0.0
 11
296.434669358153
 21
255.147626609894
 31
0.0
  0
LINE
  5
220
330
21E
100
AcDbEntity
  8
1
  6
Continuous
 62
     2
100
AcDbLine
 10
320.434669358153
 20
217.786133374975
 30
0.0
 11
320.434669358153
 21
256.647626609894
 31
0.0
  0
LINE
  5
221
330
21E
100
AcDbEntity
  8
1
  6
Continuous
 62
     2
100
AcDbLine
 10
296.434669358153
 20
200.273175654156
 30
0.0
 11
296.434669358153
 21
256.647626609894
 31
0.0
  0
SOLID
  5
222
330
21E
100
AcDbEntity
  8
1
 62
     2
100
AcDbTrace
 10
299.634669358153
 20
255.5689146021737
 30
0.0
 11
299.634669358153
 21
254.7263386176143
 31
0.0
 12
296.434669358153
 22
255.147626609894
 32
0.0
 13
296.434669358153
 23
255.147626609894
 33
0.0
  0
SOLID
  5
223
330
21E
100
AcDbEntity
  8
1
 62
     2
100
AcDbTrace
 10
317.234669358153
 20
254.7263386176143
 30
0.0
 11
317.234669358153
 21
255.5689146021737
 31
0.0
 12
320.434669358153
 22
255.147626609894
 32
0.0
 13
320.434669358153
 23
255.147626609894
 33
0.0
  0
MTEXT
  5
224
330
21E
100
AcDbEntity
  8
1
 62
     2
100
AcDbMText
 10
302.9028316564298
 20
257.1476122981988
 30
0.0
 40
3.2
 41
0.0
 71
     7
 72
     1
  1
\C2;24\C2;\H1.92;{\Fgdt;`}0.5
  7
CONVERTER_11
 11
0.9999999999882478
 21
4.848136811095759E-6
 31
0.0
 73
     1
 44
0.60024009603842
  0
ENDBLK
  5
226
330
21E
100
AcDbEntity
  8
0
100
AcDbBlockEnd
  0
BLOCK
  5
230
330
229
100
AcDbEntity
  8
0
100
AcDbBlockBegin
  2
*D6
 70
     1
 10
0.0
 20
0.0
 30
0.0
  3
*D6
  1

  0
LINE
  5
22A
330
229
100
AcDbEntity
  8
1
  6
Continuous
 62
     2
100
AcDbLine
 10
286.9677064467467
 20
206.055141665406
 30
0.0
 11
286.9677064467467
 21
188.255141665406
 31
0.0
  0
LINE
  5
22B
330
229
100
AcDbEntity
  8
1
  6
Continuous
 62
     2
100
AcDbLine
 10
296.434669358153
 20
199.655141665406
 30
0.0
 11
285.4677064467467
 21
199.655141665406
 31
0.0
  0
LINE
  5
22C
330
229
100
AcDbEntity
  8
1
  6
Continuous
 62
     2
100
AcDbLine
 10
296.434669358153
 20
194.655141665406
 30
0.0
 11
285.4677064467467
 21
194.655141665406
 31
0.0
  0
SOLID
  5
22D
330
229
100
AcDbEntity
  8
1
 62
     2
100
AcDbTrace
 10
287.3889944390264
 20
191.455141665406
 30
0.0
 11
286.5464184544671
 21
191.455141665406
 31
0.0
 12
286.9677064467467
 22
194.655141665406
 32
0.0
 13
286.9677064467467
 23
194.655141665406
 33
0.0
  0
SOLID
  5
22E
330
229
100
AcDbEntity
  8
1
 62
     2
100
AcDbTrace
 10
286.5464184544671
 20
202.855141665406
 30
0.0
 11
287.3889944390264
 21
202.855141665406
 31
0.0
 12
286.9677064467467
 22
199.655141665406
 32
0.0
 13
286.9677064467467
 23
199.655141665406
 33
0.0
  0
MTEXT
  5
22F
330
229
100
AcDbEntity
  8
1
 62
     2
100
AcDbMText
 10
284.14103978008
 20
190.855033324997
 30
0.0
 40
3.2
 41
0.0
 71
     7
 72
     1
  1
\C2;\U+03c65\C2;\H1.92;\S 0^ -0.011;
  7
CONVERTER_11
 11
0.0
 21
1.0
 31
0.0
 73
     1
 44
0.60024009603842
  0
ENDBLK
  5
231
330
229
100
AcDbEntity
  8
0
100
AcDbBlockEnd
  0
BLOCK
  5
23B
330
234
100
AcDbEntity
  8
0
100
AcDbBlockBegin
  2
*D7
 70
     1
 10
0.0
 20
0.0
 30
0.0
  3
*D7
  1

  0
LINE
  5
235
330
234
100
AcDbEntity
  8
1
  6
Continuous
 62
     2
100
AcDbLine
 10
320.434669358153
 20
255.147626609894
 30
0.0
 11
353.834675044719
 21
255.147626609894
 31
0.0
  0
LINE
  5
236
330
234
100
AcDbEntity
  8
1
  6
Continuous
 62
     2
100
AcDbLine
 10
320.434669358153
 20
218.155141665406
 30
0.0
 11
320.434669358153
 21
256.647626609894
 31
0.0
  0
LINE
  5
237
330
234
100
AcDbEntity
  8
1
  6
Continuous
 62
     2
100
AcDbLine
 10
353.834675044719
 20
218.155141665406
 30
0.0
 11
353.834675044719
 21
256.647626609894
 31
0.0
  0
SOLID
  5
238
330
234
100
AcDbEntity
  8
1
 62
     2
100
AcDbTrace
 10
350.634675044719
 20
254.7263386176143
 30
0.0
 11
350.634675044719
 21
255.5689146021737
 31
0.0
 12
353.834675044719
 22
255.147626609894
 32
0.0
 13
353.834675044719
 23
255.147626609894
 33
0.0
  0
SOLID
  5
239
330
234
100
AcDbEntity
  8
1
 62
     2
100
AcDbTrace
 10
323.634669358153
 20
255.5689146021737
 30
0.0
 11
323.634669358153
 21
254.7263386176143
 31
0.0
 12
320.434669358153
 22
255.147626609894
 32
0.0
 13
320.434669358153
 23
255.147626609894
 33
0.0
  0
MTEXT
  5
23A
330
234
100
AcDbEntity
  8
1
 62
     2
100
AcDbMText
 10
329.8220319546302
 20
257.1476094358588
 30
0.0
 40
3.2
 41
0.0
 71
     7
 72
     1
  1
34MAX.
  7
CONVERTER_11
 11
0.9999999999882478
 21
4.848136811095759E-6
 31
0.0
 73
     1
 44
0.60024009603842
  0
ENDBLK
  5
23C
330
234
100
AcDbEntity
  8
0
100
AcDbBlockEnd
  0
BLOCK
  5
246
330
23F
100
AcDbEntity
  8
0
100
AcDbBlockBegin
  2
*D8
 70
     1
 10
0.0
 20
0.0
 30
0.0
  3
*D8
  1

  0
LINE
  5
240
330
23F
100
AcDbEntity
  8
1
  6
Continuous
 62
     2
100
AcDbLine
 10
272.4346693581527
 20
186.155141665406
 30
0.0
 11
272.4346693581527
 21
208.155141665406
 31
0.0
  0
LINE
  5
241
330
23F
100
AcDbEntity
  8
1
  6
Continuous
 62
     2
100
AcDbLine
 10
317.434669358153
 20
186.155141665406
 30
0.0
 11
270.9346693581527
 21
186.155141665406
 31
0.0
  0
LINE
  5
242
330
23F
100
AcDbEntity
  8
1
  6
Continuous
 62
     2
100
AcDbLine
 10
317.434669358153
 20
208.155141665406
 30
0.0
 11
270.9346693581527
 21
208.155141665406
 31
0.0
  0
SOLID
  5
243
330
23F
100
AcDbEntity
  8
1
 62
     2
100
AcDbTrace
 10
272.8559573504323
 20
204.955141665406
 30
0.0
 11
272.013381365873
 21
204.955141665406
 31
0.0
 12
272.4346693581527
 22
208.155141665406
 32
0.0
 13
272.4346693581527
 23
208.155141665406
 33
0.0
  0
SOLID
  5
244
330
23F
100
AcDbEntity
  8
1
 62
     2
100
AcDbTrace
 10
272.013381365873
 20
189.355141665406
 30
0.0
 11
272.8559573504323
 21
189.355141665406
 31
0.0
 12
272.4346693581527
 22
186.155141665406
 32
0.0
 13
272.4346693581527
 23
186.155141665406
 33
0.0
  0
MTEXT
  5
245
330
23F
100
AcDbEntity
  8
1
 62
     2
100
AcDbMText
 10
269.608002691486
 20
187.443079867129
 30
0.0
 40
3.2
 41
0.0
 71
     7
 72
     1
  1
\C2;\U+03c622\C2;\H1.92;\S 0^ -0.05;
  7
CONVERTER_11
 11
0.0
 21
1.0
 31
0.0
 73
     1
 44
0.60024009603842
  0
ENDBLK
  5
247
330
23F
100
AcDbEntity
  8
0
100
AcDbBlockEnd
  0
BLOCK
  5
251
330
24A
100
AcDbEntity
  8
0
100
AcDbBlockBegin
  2
*D9
 70
     1
 10
0.0
 20
0.0
 30
0.0
  3
*D9
  1

  0
LINE
  5
24B
330
24A
100
AcDbEntity
  8
1
  6
Continuous
 62
     2
100
AcDbLine
 10
312.034669358153
 20
240.115171620104
 30
0.0
 11
330.4325690547337
 21
240.115171620104
 31
0.0
  0
LINE
  5
24C
330
24A
100
AcDbEntity
  8
1
  6
Continuous
 62
     2
100
AcDbLine
 10
320.434669358153
 20
218.155141665406
 30
0.0
 11
320.434669358153
 21
241.615171620104
 31
0.0
  0
LINE
  5
24D
330
24A
100
AcDbEntity
  8
1
  6
Continuous
 62
     2
100
AcDbLine
 10
318.434669358153
 20
209.155141665406
 30
0.0
 11
318.434669358153
 21
241.615171620104
 31
0.0
  0
SOLID
  5
24E
330
24A
100
AcDbEntity
  8
1
 62
     2
100
AcDbTrace
 10
315.234669358153
 20
239.6938836278243
 30
0.0
 11
315.234669358153
 21
240.5364596123837
 31
0.0
 12
318.434669358153
 22
240.115171620104
 32
0.0
 13
318.434669358153
 23
240.115171620104
 33
0.0
  0
SOLID
  5
24F
330
24A
100
AcDbEntity
  8
1
 62
     2
100
AcDbTrace
 10
323.634669358153
 20
240.5364596123837
 30
0.0
 11
323.634669358153
 21
239.6938836278243
 31
0.0
 12
320.434669358153
 22
240.115171620104
 32
0.0
 13
320.434669358153
 23
240.115171620104
 33
0.0
  0
MTEXT
  5
250
330
24A
100
AcDbEntity
  8
1
 62
     2
100
AcDbMText
 10
324.5285690547511
 20
242.1151644642588
 30
0.0
 40
3.2
 41
0.0
 71
     7
 72
     1
  1
\C2;2\C2;\H1.92;{\Fgdt;`}0.2
  7
CONVERTER_11
 11
0.9999999999882478
 21
4.848136811095759E-6
 31
0.0
 73
     1
 44
0.60024009603842
  0
ENDBLK
  5
252
330
24A
100
AcDbEntity
  8
0
100
AcDbBlockEnd
  0
BLOCK
  5
25C
330
255
100
AcDbEntity
  8
0
100
AcDbBlockBegin
  2
*D10
 70
     1
 10
0.0
 20
0.0
 30
0.0
  3
*D10
  1

  0
LINE
  5
256
330
255
100
AcDbEntity
  8
1
  6
Continuous
 62
     2
100
AcDbLine
 10
254.995936111397
 20
182.555143140239
 30
0.0
 11
254.995936111397
 21
160.643778235787
 31
0.0
  0
LINE
  5
257
330
255
100
AcDbEntity
  8
1
  6
Continuous
 62
     2
100
AcDbLine
 10
220.786697710881
 20
169.905141665948
 30
0.0
 11
256.495936111397
 21
169.905141665948
 31
0.0
  0
LINE
  5
258
330
255
100
AcDbEntity
  8
1
  6
Continuous
 62
     2
100
AcDbLine
 10
229.836696236049
 20
176.155143140239
 30
0.0
 11
256.495936111397
 21
176.155143140239
 31
0.0
  0
SOLID
  5
259
330
255
100
AcDbEntity
  8
1
 62
     2
100
AcDbTrace
 10
254.5746481191173
 20
179.355143140239
 30
0.0
 11
255.4172241036767
 21
179.355143140239
 31
0.0
 12
254.995936111397
 22
176.155143140239
 32
0.0
 13
254.995936111397
 23
176.155143140239
 33
0.0
  0
SOLID
  5
25A
330
255
100
AcDbEntity
  8
1
 62
     2
100
AcDbTrace
 10
255.4172241036767
 20
166.705141665948
 30
0.0
 11
254.5746481191173
 21
166.705141665948
 31
0.0
 12
254.995936111397
 22
169.905141665948
 32
0.0
 13
254.995936111397
 23
169.905141665948
 33
0.0
  0
MTEXT
  5
25B
330
255
100
AcDbEntity
  8
1
 62
     2
100
AcDbMText
 10
252.995936111397
 20
160.643778235787
 30
0.0
 40
3.2
 41
0.0
 71
     7
 72
     1
  1
(6)
  7
CONVERTER_11
 11
0.0
 21
1.0
 31
0.0
 73
     1
 44
0.60024009603842
  0
ENDBLK
  5
25D
330
255
100
AcDbEntity
  8
0
100
AcDbBlockEnd
  0
BLOCK
  5
267
330
260
100
AcDbEntity
  8
0
100
AcDbBlockBegin
  2
*D11
 70
     1
 10
0.0
 20
0.0
 30
0.0
  3
*D11
  1

  0
LINE
  5
261
330
260
100
AcDbEntity
  8
1
  6
Continuous
 62
     2
100
AcDbLine
 10
257.836697710881
 20
176.155143140239
 30
0.0
 11
257.836697710881
 21
218.155141665406
 31
0.0
  0
LINE
  5
262
330
260
100
AcDbEntity
  8
1
  6
Continuous
 62
     2
100
AcDbLine
 10
229.836696236049
 20
176.155143140239
 30
0.0
 11
259.336697710881
 21
176.155143140239
 31
0.0
  0
LINE
  5
263
330
260
100
AcDbEntity
  8
1
  6
Continuous
 62
     2
100
AcDbLine
 10
229.836697710881
 20
218.155141665406
 30
0.0
 11
259.336697710881
 21
218.155141665406
 31
0.0
  0
SOLID
  5
264
330
260
100
AcDbEntity
  8
1
 62
     2
100
AcDbTrace
 10
258.2579857031607
 20
214.955141665406
 30
0.0
 11
257.4154097186014
 21
214.955141665406
 31
0.0
 12
257.836697710881
 22
218.155141665406
 32
0.0
 13
257.836697710881
 23
218.155141665406
 33
0.0
  0
SOLID
  5
265
330
260
100
AcDbEntity
  8
1
 62
     2
100
AcDbTrace
 10
257.4154097186014
 20
179.355143140239
 30
0.0
 11
258.2579857031607
 21
179.355143140239
 31
0.0
 12
257.836697710881
 22
176.155143140239
 32
0.0
 13
257.836697710881
 23
176.155143140239
 33
0.0
  0
MTEXT
  5
266
330
260
100
AcDbEntity
  8
1
 62
     2
100
AcDbMText
 10
255.836697710881
 20
192.098407058791
 30
0.0
 40
3.2
 41
0.0
 71
     7
 72
     1
  1
(42)
  7
CONVERTER_11
 11
0.0
 21
1.0
 31
0.0
 73
     1
 44
0.60024009603842
  0
ENDBLK
  5
268
330
260
100
AcDbEntity
  8
0
100
AcDbBlockEnd
  0
ENDSEC
  0
SECTION
  2
ENTITIES
  0
POINT
  5
4A
330
1F
100
AcDbEntity
  8
0
 62
     7
100
AcDbPoint
 10
233.836697710881
 20
213.155141665406
 30
0.0
  0
POINT
  5
4B
330
1F
100
AcDbEntity
  8
0
 62
     7
100
AcDbPoint
 10
191.836696520062
 20
213.155142856226
 30
0.0
  0
POINT
  5
4C
330
1F
100
AcDbEntity
  8
1
 62
     7
100
AcDbPoint
 10
205.836697710881
 20
168.155141665948
 30
0.0
  0
POINT
  5
4D
330
1F
100
AcDbEntity
  8
1
 62
     7
100
AcDbPoint
 10
196.836687423987
 20
176.155152579166
 30
0.0
  0
POINT
  5
4E
330
1F
100
AcDbEntity
  8
1
 62
     7
100
AcDbPoint
 10
228.336697710881
 20
214.605141665406
 30
0.0
  0
POINT
  5
4F
330
1F
100
AcDbEntity
  8
1
 62
     7
100
AcDbPoint
 10
197.336697710881
 20
214.605141665407
 30
0.0
  0
POINT
  5
50
330
1F
100
AcDbEntity
  8
1
 62
     7
100
AcDbPoint
 10
230.286697710881
 20
181.655141665406
 30
0.0
  0
POINT
  5
51
330
1F
100
AcDbEntity
  8
1
 62
     7
100
AcDbPoint
 10
230.286697710881
 20
212.655141665406
 30
0.0
  0
POINT
  5
52
330
1F
100
AcDbEntity
  8
1
 62
     7
100
AcDbPoint
 10
320.434669358153
 20
216.786133374975
 30
0.0
  0
POINT
  5
53
330
1F
100
AcDbEntity
  8
1
 62
     7
100
AcDbPoint
 10
296.434669358153
 20
199.273175654156
 30
0.0
  0
POINT
  5
54
330
1F
100
AcDbEntity
  8
1
 62
     7
100
AcDbPoint
 10
297.434669358153
 20
199.655141665406
 30
0.0
  0
POINT
  5
55
330
1F
100
AcDbEntity
  8
1
 62
     7
100
AcDbPoint
 10
297.434669358153
 20
194.655141665406
 30
0.0
  0
POINT
  5
56
330
1F
100
AcDbEntity
  8
1
 62
     7
100
AcDbPoint
 10
320.434669358153
 20
217.155141665406
 30
0.0
  0
POINT
  5
57
330
1F
100
AcDbEntity
  8
1
 62
     7
100
AcDbPoint
 10
353.834675044719
 20
217.155141665406
 30
0.0
  0
POINT
  5
58
330
1F
100
AcDbEntity
  8
1
 62
     7
100
AcDbPoint
 10
318.434669358153
 20
186.155141665406
 30
0.0
  0
POINT
  5
59
330
1F
100
AcDbEntity
  8
1
 62
     7
100
AcDbPoint
 10
318.434669358153
 20
208.155141665406
 30
0.0
  0
POINT
  5
5A
330
1F
100
AcDbEntity
  8
1
 62
     7
100
AcDbPoint
 10
320.434669358153
 20
217.155141665406
 30
0.0
  0
POINT
  5
5B
330
1F
100
AcDbEntity
  8
1
 62
     7
100
AcDbPoint
 10
318.434669358153
 20
208.155141665406
 30
0.0
  0
POINT
  5
5C
330
1F
100
AcDbEntity
  8
1
 62
     7
100
AcDbPoint
 10
219.786697710881
 20
169.905141665948
 30
0.0
  0
POINT
  5
5D
330
1F
100
AcDbEntity
  8
1
 62
     7
100
AcDbPoint
 10
228.836696236049
 20
176.155143140239
 30
0.0
  0
POINT
  5
5E
330
1F
100
AcDbEntity
  8
1
 62
     7
100
AcDbPoint
 10
228.836696236049
 20
176.155143140239
 30
0.0
  0
POINT
  5
5F
330
1F
100
AcDbEntity
  8
1
 62
     7
100
AcDbPoint
 10
228.836697710881
 20
218.155141665406
 30
0.0
  0
POINT
  5
60
330
1F
100
AcDbEntity
  8
1
 62
     3
 60
     1
100
AcDbPoint
 10
2155.54495552638
 20
808.959100150247
 30
0.0
  0
POINT
  5
61
330
1F
100
AcDbEntity
  8
1
 62
     3
 60
     1
100
AcDbPoint
 10
2156.34495552638
 20
808.159100150247
 30
0.0
  0
POINT
  5
62
330
1F
100
AcDbEntity
  8
1
 62
     3
 60
     1
100
AcDbPoint
 10
2155.54495552638
 20
808.159100150247
 30
0.0
  0
POINT
  5
63
330
1F
100
AcDbEntity
  8
1
 62
     3
 60
     1
100
AcDbPoint
 10
2156.34495552638
 20
805.659100150247
 30
0.0
  0
POINT
  5
64
330
1F
100
AcDbEntity
  8
1
 62
     3
 60
     1
100
AcDbPoint
 10
2155.54495552638
 20
804.859100150247
 30
0.0
  0
POINT
  5
65
330
1F
100
AcDbEntity
  8
1
 62
     3
 60
     1
100
AcDbPoint
 10
2155.54495552638
 20
805.659100150247
 30
0.0
  0
POINT
  5
66
330
1F
100
AcDbEntity
  8
1
 62
     3
 60
     1
100
AcDbPoint
 10
2162.20620042774
 20
586.313730296599
 30
0.0
  0
POINT
  5
67
330
1F
100
AcDbEntity
  8
1
 62
     3
 60
     1
100
AcDbPoint
 10
2163.00620042774
 20
585.5137302966
 30
0.0
  0
POINT
  5
68
330
1F
100
AcDbEntity
  8
1
 62
     3
 60
     1
100
AcDbPoint
 10
2162.20620042774
 20
585.5137302966
 30
0.0
  0
POINT
  5
69
330
1F
100
AcDbEntity
  8
1
 62
     3
 60
     1
100
AcDbPoint
 10
2163.00620042774
 20
583.0137302966
 30
0.0
  0
POINT
  5
6A
330
1F
100
AcDbEntity
  8
1
 62
     3
 60
     1
100
AcDbPoint
 10
2162.20620042774
 20
582.2137302966
 30
0.0
  0
POINT
  5
6B
330
1F
100
AcDbEntity
  8
1
 62
     3
 60
     1
100
AcDbPoint
 10
2162.20620042774
 20
583.0137302966
 30
0.0
  0
POINT
  5
6C
330
1F
100
AcDbEntity
  8
1
 62
     3
 60
     1
100
AcDbPoint
 10
1760.68524042387
 20
665.545541588385
 30
0.0
  0
POINT
  5
6D
330
1F
100
AcDbEntity
  8
1
 62
     3
 60
     1
100
AcDbPoint
 10
1761.48524042387
 20
664.745541588385
 30
0.0
  0
POINT
  5
6E
330
1F
100
AcDbEntity
  8
1
 62
     3
 60
     1
100
AcDbPoint
 10
1760.68524042387
 20
664.745541588385
 30
0.0
  0
POINT
  5
6F
330
1F
100
AcDbEntity
  8
1
 62
     3
 60
     1
100
AcDbPoint
 10
1761.48524042387
 20
662.245541588385
 30
0.0
  0
POINT
  5
70
330
1F
100
AcDbEntity
  8
1
 62
     3
 60
     1
100
AcDbPoint
 10
1760.68524042387
 20
661.445541588385
 30
0.0
  0
POINT
  5
71
330
1F
100
AcDbEntity
  8
1
 62
     3
 60
     1
100
AcDbPoint
 10
1760.68524042387
 20
662.245541588385
 30
0.0
  0
POINT
  5
72
330
1F
100
AcDbEntity
  8
1
 62
     3
 60
     1
100
AcDbPoint
 10
1537.28073041172
 20
574.601688275638
 30
0.0
  0
POINT
  5
73
330
1F
100
AcDbEntity
  8
1
 62
     3
 60
     1
100
AcDbPoint
 10
1538.08073041172
 20
573.801688275638
 30
0.0
  0
POINT
  5
74
330
1F
100
AcDbEntity
  8
1
 62
     3
 60
     1
100
AcDbPoint
 10
1537.28073041172
 20
573.801688275638
 30
0.0
  0
POINT
  5
75
330
1F
100
AcDbEntity
  8
1
 62
     3
 60
     1
100
AcDbPoint
 10
1538.08073041172
 20
571.301688275638
 30
0.0
  0
POINT
  5
76
330
1F
100
AcDbEntity
  8
1
 62
     3
 60
     1
100
AcDbPoint
 10
1537.28073041172
 20
570.501688275637
 30
0.0
  0
POINT
  5
77
330
1F
100
AcDbEntity
  8
1
 62
     3
 60
     1
100
AcDbPoint
 10
1537.28073041172
 20
571.301688275638
 30
0.0
  0
POINT
  5
78
330
1F
100
AcDbEntity
  8
1
 62
     3
 60
     1
100
AcDbPoint
 10
2162.20620042774
 20
573.197798818115
 30
0.0
  0
POINT
  5
79
330
1F
100
AcDbEntity
  8
1
 62
     3
 60
     1
100
AcDbPoint
 10
2162.20620042774
 20
572.397798818114
 30
0.0
  0
POINT
  5
7A
330
1F
100
AcDbEntity
  8
1
 62
     3
 60
     1
100
AcDbPoint
 10
2163.00620042774
 20
573.197798818115
 30
0.0
  0
POINT
  5
7B
330
1F
100
AcDbEntity
  8
1
 62
     3
 60
     1
100
AcDbPoint
 10
2162.20620042774
 20
575.697798818115
 30
0.0
  0
POINT
  5
7C
330
1F
100
AcDbEntity
  8
1
 62
     3
 60
     1
100
AcDbPoint
 10
2163.00620042774
 20
575.697798818115
 30
0.0
  0
POINT
  5
7D
330
1F
100
AcDbEntity
  8
1
 62
     3
 60
     1
100
AcDbPoint
 10
2162.20620042774
 20
576.497798818115
 30
0.0
  0
POINT
  5
7E
330
1F
100
AcDbEntity
  8
1
 62
     3
 60
     1
100
AcDbPoint
 10
2385.61071043989
 20
664.141652130862
 30
0.0
  0
POINT
  5
7F
330
1F
100
AcDbEntity
  8
1
 62
     3
 60
     1
100
AcDbPoint
 10
2385.61071043989
 20
663.341652130862
 30
0.0
  0
POINT
  5
80
330
1F
100
AcDbEntity
  8
1
 62
     3
 60
     1
100
AcDbPoint
 10
2386.41071043989
 20
664.141652130862
 30
0.0
  0
POINT
  5
81
330
1F
100
AcDbEntity
  8
1
 62
     3
 60
     1
100
AcDbPoint
 10
2385.61071043989
 20
666.641652130862
 30
0.0
  0
POINT
  5
82
330
1F
100
AcDbEntity
  8
1
 62
     3
 60
     1
100
AcDbPoint
 10
2386.41071043989
 20
666.641652130862
 30
0.0
  0
POINT
  5
83
330
1F
100
AcDbEntity
  8
1
 62
     3
 60
     1
100
AcDbPoint
 10
2385.61071043989
 20
667.441652130862
 30
0.0
  0
POINT
  5
84
330
1F
100
AcDbEntity
  8
1
 62
     3
 60
     1
100
AcDbPoint
 10
2787.13167044376
 20
584.909840839077
 30
0.0
  0
POINT
  5
85
330
1F
100
AcDbEntity
  8
1
 62
     3
 60
     1
100
AcDbPoint
 10
2787.13167044376
 20
584.109840839077
 30
0.0
  0
POINT
  5
86
330
1F
100
AcDbEntity
  8
1
 62
     3
 60
     1
100
AcDbPoint
 10
2787.93167044375
 20
584.909840839077
 30
0.0
  0
POINT
  5
87
330
1F
100
AcDbEntity
  8
1
 62
     3
 60
     1
100
AcDbPoint
 10
2787.13167044376
 20
587.409840839077
 30
0.0
  0
POINT
  5
88
330
1F
100
AcDbEntity
  8
1
 62
     3
 60
     1
100
AcDbPoint
 10
2787.93167044375
 20
587.409840839077
 30
0.0
  0
POINT
  5
89
330
1F
100
AcDbEntity
  8
1
 62
     3
 60
     1
100
AcDbPoint
 10
2787.13167044376
 20
588.209840839077
 30
0.0
  0
POINT
  5
8A
330
1F
100
AcDbEntity
  8
1
 62
     3
 60
     1
100
AcDbPoint
 10
2780.47042554239
 20
807.555210692724
 30
0.0
  0
POINT
  5
8B
330
1F
100
AcDbEntity
  8
1
 62
     3
 60
     1
100
AcDbPoint
 10
2780.47042554239
 20
806.755210692724
 30
0.0
  0
POINT
  5
8C
330
1F
100
AcDbEntity
  8
1
 62
     3
 60
     1
100
AcDbPoint
 10
2781.27042554239
 20
807.555210692724
 30
0.0
  0
POINT
  5
8D
330
1F
100
AcDbEntity
  8
1
 62
     3
 60
     1
100
AcDbPoint
 10
2780.47042554239
 20
810.055210692724
 30
0.0
  0
POINT
  5
8E
330
1F
100
AcDbEntity
  8
1
 62
     3
 60
     1
100
AcDbPoint
 10
2781.27042554239
 20
810.055210692724
 30
0.0
  0
POINT
  5
8F
330
1F
100
AcDbEntity
  8
1
 62
     3
 60
     1
100
AcDbPoint
 10
2780.47042554239
 20
810.855210692724
 30
0.0
  0
POINT
  5
90
330
1F
100
AcDbEntity
  8
1
 62
     3
 60
     1
100
AcDbPoint
 10
2160.54495552638
 20
801.300621815208
 30
0.0
  0
POINT
  5
91
330
1F
100
AcDbEntity
  8
1
 62
     3
 60
     1
100
AcDbPoint
 10
2161.34495552638
 20
800.500621815208
 30
0.0
  0
POINT
  5
92
330
1F
100
AcDbEntity
  8
1
 62
     3
 60
     1
100
AcDbPoint
 10
2160.54495552638
 20
800.500621815208
 30
0.0
  0
POINT
  5
93
330
1F
100
AcDbEntity
  8
1
 62
     3
 60
     1
100
AcDbPoint
 10
2161.34495552638
 20
798.000621815208
 30
0.0
  0
POINT
  5
94
330
1F
100
AcDbEntity
  8
1
 62
     3
 60
     1
100
AcDbPoint
 10
2160.54495552638
 20
797.200621815208
 30
0.0
  0
POINT
  5
95
330
1F
100
AcDbEntity
  8
1
 62
     3
 60
     1
100
AcDbPoint
 10
2160.54495552638
 20
798.000621815208
 30
0.0
  0
POINT
  5
96
330
1F
100
AcDbEntity
  8
1
 62
     3
 60
     1
100
AcDbPoint
 10
2167.20620042774
 20
578.65525196156
 30
0.0
  0
POINT
  5
97
330
1F
100
AcDbEntity
  8
1
 62
     3
 60
     1
100
AcDbPoint
 10
2168.00620042774
 20
577.85525196156
 30
0.0
  0
POINT
  5
98
330
1F
100
AcDbEntity
  8
1
 62
     3
 60
     1
100
AcDbPoint
 10
2167.20620042774
 20
577.85525196156
 30
0.0
  0
POINT
  5
99
330
1F
100
AcDbEntity
  8
1
 62
     3
 60
     1
100
AcDbPoint
 10
2168.00620042774
 20
575.35525196156
 30
0.0
  0
POINT
  5
9A
330
1F
100
AcDbEntity
  8
1
 62
     3
 60
     1
100
AcDbPoint
 10
2167.20620042774
 20
574.55525196156
 30
0.0
  0
POINT
  5
9B
330
1F
100
AcDbEntity
  8
1
 62
     3
 60
     1
100
AcDbPoint
 10
2167.20620042774
 20
575.35525196156
 30
0.0
  0
POINT
  5
9C
330
1F
100
AcDbEntity
  8
1
 62
     3
 60
     1
100
AcDbPoint
 10
1765.68524042387
 20
657.887063253346
 30
0.0
  0
POINT
  5
9D
330
1F
100
AcDbEntity
  8
1
 62
     3
 60
     1
100
AcDbPoint
 10
1766.48524042387
 20
657.087063253346
 30
0.0
  0
POINT
  5
9E
330
1F
100
AcDbEntity
  8
1
 62
     3
 60
     1
100
AcDbPoint
 10
1765.68524042387
 20
657.087063253346
 30
0.0
  0
POINT
  5
9F
330
1F
100
AcDbEntity
  8
1
 62
     3
 60
     1
100
AcDbPoint
 10
1766.48524042387
 20
654.587063253346
 30
0.0
  0
POINT
  5
A0
330
1F
100
AcDbEntity
  8
1
 62
     3
 60
     1
100
AcDbPoint
 10
1765.68524042387
 20
653.787063253346
 30
0.0
  0
POINT
  5
A1
330
1F
100
AcDbEntity
  8
1
 62
     3
 60
     1
100
AcDbPoint
 10
1765.68524042387
 20
654.587063253346
 30
0.0
  0
POINT
  5
A2
330
1F
100
AcDbEntity
  8
1
 62
     3
 60
     1
100
AcDbPoint
 10
1542.28073041172
 20
566.943209940598
 30
0.0
  0
POINT
  5
A3
330
1F
100
AcDbEntity
  8
1
 62
     3
 60
     1
100
AcDbPoint
 10
1543.08073041172
 20
566.143209940598
 30
0.0
  0
POINT
  5
A4
330
1F
100
AcDbEntity
  8
1
 62
     3
 60
     1
100
AcDbPoint
 10
1542.28073041172
 20
566.143209940598
 30
0.0
  0
POINT
  5
A5
330
1F
100
AcDbEntity
  8
1
 62
     3
 60
     1
100
AcDbPoint
 10
1543.08073041172
 20
563.643209940598
 30
0.0
  0
POINT
  5
A6
330
1F
100
AcDbEntity
  8
1
 62
     3
 60
     1
100
AcDbPoint
 10
1542.28073041172
 20
562.843209940598
 30
0.0
  0
POINT
  5
A7
330
1F
100
AcDbEntity
  8
1
 62
     3
 60
     1
100
AcDbPoint
 10
1542.28073041172
 20
563.643209940598
 30
0.0
  0
POINT
  5
A8
330
1F
100
AcDbEntity
  8
1
 62
     3
 60
     1
100
AcDbPoint
 10
2167.20620042774
 20
565.539320483075
 30
0.0
  0
POINT
  5
A9
330
1F
100
AcDbEntity
  8
1
 62
     3
 60
     1
100
AcDbPoint
 10
2167.20620042774
 20
564.739320483075
 30
0.0
  0
POINT
  5
AA
330
1F
100
AcDbEntity
  8
1
 62
     3
 60
     1
100
AcDbPoint
 10
2168.00620042774
 20
565.539320483075
 30
0.0
  0
POINT
  5
AB
330
1F
100
AcDbEntity
  8
1
 62
     3
 60
     1
100
AcDbPoint
 10
2167.20620042774
 20
568.039320483075
 30
0.0
  0
POINT
  5
AC
330
1F
100
AcDbEntity
  8
1
 62
     3
 60
     1
100
AcDbPoint
 10
2168.00620042774
 20
568.039320483075
 30
0.0
  0
POINT
  5
AD
330
1F
100
AcDbEntity
  8
1
 62
     3
 60
     1
100
AcDbPoint
 10
2167.20620042774
 20
568.839320483075
 30
0.0
  0
POINT
  5
AE
330
1F
100
AcDbEntity
  8
1
 62
     3
 60
     1
100
AcDbPoint
 10
2390.61071043989
 20
656.483173795823
 30
0.0
  0
POINT
  5
AF
330
1F
100
AcDbEntity
  8
1
 62
     3
 60
     1
100
AcDbPoint
 10
2390.61071043989
 20
655.683173795823
 30
0.0
  0
POINT
  5
B0
330
1F
100
AcDbEntity
  8
1
 62
     3
 60
     1
100
AcDbPoint
 10
2391.41071043989
 20
656.483173795823
 30
0.0
  0
POINT
  5
B1
330
1F
100
AcDbEntity
  8
1
 62
     3
 60
     1
100
AcDbPoint
 10
2390.61071043989
 20
658.983173795823
 30
0.0
  0
POINT
  5
B2
330
1F
100
AcDbEntity
  8
1
 62
     3
 60
     1
100
AcDbPoint
 10
2391.41071043989
 20
658.983173795823
 30
0.0
  0
POINT
  5
B3
330
1F
100
AcDbEntity
  8
1
 62
     3
 60
     1
100
AcDbPoint
 10
2390.61071043989
 20
659.783173795823
 30
0.0
  0
POINT
  5
B4
330
1F
100
AcDbEntity
  8
1
 62
     3
 60
     1
100
AcDbPoint
 10
2792.13167044376
 20
577.251362504037
 30
0.0
  0
POINT
  5
B5
330
1F
100
AcDbEntity
  8
1
 62
     3
 60
     1
100
AcDbPoint
 10
2792.13167044376
 20
576.451362504037
 30
0.0
  0
POINT
  5
B6
330
1F
100
AcDbEntity
  8
1
 62
     3
 60
     1
100
AcDbPoint
 10
2792.93167044375
 20
577.251362504037
 30
0.0
  0
POINT
  5
B7
330
1F
100
AcDbEntity
  8
1
 62
     3
 60
     1
100
AcDbPoint
 10
2792.13167044376
 20
579.751362504037
 30
0.0
  0
POINT
  5
B8
330
1F
100
AcDbEntity
  8
1
 62
     3
 60
     1
100
AcDbPoint
 10
2792.93167044375
 20
579.751362504037
 30
0.0
  0
POINT
  5
B9
330
1F
100
AcDbEntity
  8
1
 62
     3
 60
     1
100
AcDbPoint
 10
2792.13167044376
 20
580.551362504037
 30
0.0
  0
POINT
  5
BA
330
1F
100
AcDbEntity
  8
1
 62
     3
 60
     1
100
AcDbPoint
 10
2785.47042554239
 20
799.896732357685
 30
0.0
  0
POINT
  5
BB
330
1F
100
AcDbEntity
  8
1
 62
     3
 60
     1
100
AcDbPoint
 10
2785.47042554239
 20
799.096732357685
 30
0.0
  0
POINT
  5
BC
330
1F
100
AcDbEntity
  8
1
 62
     3
 60
     1
100
AcDbPoint
 10
2786.27042554239
 20
799.896732357685
 30
0.0
  0
POINT
  5
BD
330
1F
100
AcDbEntity
  8
1
 62
     3
 60
     1
100
AcDbPoint
 10
2785.47042554239
 20
802.396732357685
 30
0.0
  0
POINT
  5
BE
330
1F
100
AcDbEntity
  8
1
 62
     3
 60
     1
100
AcDbPoint
 10
2786.27042554239
 20
802.396732357685
 30
0.0
  0
POINT
  5
BF
330
1F
100
AcDbEntity
  8
1
 62
     3
 60
     1
100
AcDbPoint
 10
2785.47042554239
 20
803.196732357685
 30
0.0
  0
POINT
  5
C0
330
1F
100
AcDbEntity
  8
1
 62
     3
 60
     1
100
AcDbPoint
 10
2155.54495552638
 20
816.18539400714
 30
0.0
  0
POINT
  5
C1
330
1F
100
AcDbEntity
  8
1
 62
     3
 60
     1
100
AcDbPoint
 10
2156.34495552638
 20
815.38539400714
 30
0.0
  0
POINT
  5
C2
330
1F
100
AcDbEntity
  8
1
 62
     3
 60
     1
100
AcDbPoint
 10
2155.54495552638
 20
815.38539400714
 30
0.0
  0
POINT
  5
C3
330
1F
100
AcDbEntity
  8
1
 62
     3
 60
     1
100
AcDbPoint
 10
2156.34495552638
 20
812.88539400714
 30
0.0
  0
POINT
  5
C4
330
1F
100
AcDbEntity
  8
1
 62
     3
 60
     1
100
AcDbPoint
 10
2155.54495552638
 20
812.085394007139
 30
0.0
  0
POINT
  5
C5
330
1F
100
AcDbEntity
  8
1
 62
     3
 60
     1
100
AcDbPoint
 10
2155.54495552638
 20
812.88539400714
 30
0.0
  0
POINT
  5
C6
330
1F
100
AcDbEntity
  8
1
 62
     3
 60
     1
100
AcDbPoint
 10
2162.20620042774
 20
593.540024153492
 30
0.0
  0
POINT
  5
C7
330
1F
100
AcDbEntity
  8
1
 62
     3
 60
     1
100
AcDbPoint
 10
2163.00620042774
 20
592.740024153492
 30
0.0
  0
POINT
  5
C8
330
1F
100
AcDbEntity
  8
1
 62
     3
 60
     1
100
AcDbPoint
 10
2162.20620042774
 20
592.740024153492
 30
0.0
  0
POINT
  5
C9
330
1F
100
AcDbEntity
  8
1
 62
     3
 60
     1
100
AcDbPoint
 10
2163.00620042774
 20
590.240024153492
 30
0.0
  0
POINT
  5
CA
330
1F
100
AcDbEntity
  8
1
 62
     3
 60
     1
100
AcDbPoint
 10
2162.20620042774
 20
589.440024153492
 30
0.0
  0
POINT
  5
CB
330
1F
100
AcDbEntity
  8
1
 62
     3
 60
     1
100
AcDbPoint
 10
2162.20620042774
 20
590.240024153492
 30
0.0
  0
POINT
  5
CC
330
1F
100
AcDbEntity
  8
1
 62
     3
 60
     1
100
AcDbPoint
 10
1760.68524042387
 20
672.771835445278
 30
0.0
  0
POINT
  5
CD
330
1F
100
AcDbEntity
  8
1
 62
     3
 60
     1
100
AcDbPoint
 10
1761.48524042387
 20
671.971835445278
 30
0.0
  0
POINT
  5
CE
330
1F
100
AcDbEntity
  8
1
 62
     3
 60
     1
100
AcDbPoint
 10
1760.68524042387
 20
671.971835445278
 30
0.0
  0
POINT
  5
CF
330
1F
100
AcDbEntity
  8
1
 62
     3
 60
     1
100
AcDbPoint
 10
1761.48524042387
 20
669.471835445278
 30
0.0
  0
POINT
  5
D0
330
1F
100
AcDbEntity
  8
1
 62
     3
 60
     1
100
AcDbPoint
 10
1760.68524042387
 20
668.671835445278
 30
0.0
  0
POINT
  5
D1
330
1F
100
AcDbEntity
  8
1
 62
     3
 60
     1
100
AcDbPoint
 10
1760.68524042387
 20
669.471835445278
 30
0.0
  0
POINT
  5
D2
330
1F
100
AcDbEntity
  8
1
 62
     3
 60
     1
100
AcDbPoint
 10
1537.28073041172
 20
581.82798213253
 30
0.0
  0
POINT
  5
D3
330
1F
100
AcDbEntity
  8
1
 62
     3
 60
     1
100
AcDbPoint
 10
1538.08073041172
 20
581.02798213253
 30
0.0
  0
POINT
  5
D4
330
1F
100
AcDbEntity
  8
1
 62
     3
 60
     1
100
AcDbPoint
 10
1537.28073041172
 20
581.02798213253
 30
0.0
  0
POINT
  5
D5
330
1F
100
AcDbEntity
  8
1
 62
     3
 60
     1
100
AcDbPoint
 10
1538.08073041172
 20
578.52798213253
 30
0.0
  0
POINT
  5
D6
330
1F
100
AcDbEntity
  8
1
 62
     3
 60
     1
100
AcDbPoint
 10
1537.28073041172
 20
577.72798213253
 30
0.0
  0
POINT
  5
D7
330
1F
100
AcDbEntity
  8
1
 62
     3
 60
     1
100
AcDbPoint
 10
1537.28073041172
 20
578.52798213253
 30
0.0
  0
POINT
  5
D8
330
1F
100
AcDbEntity
  8
1
 62
     3
 60
     1
100
AcDbPoint
 10
2162.20620042774
 20
580.424092675007
 30
0.0
  0
POINT
  5
D9
330
1F
100
AcDbEntity
  8
1
 62
     3
 60
     1
100
AcDbPoint
 10
2162.20620042774
 20
579.624092675007
 30
0.0
  0
POINT
  5
DA
330
1F
100
AcDbEntity
  8
1
 62
     3
 60
     1
100
AcDbPoint
 10
2163.00620042774
 20
580.424092675007
 30
0.0
  0
POINT
  5
DB
330
1F
100
AcDbEntity
  8
1
 62
     3
 60
     1
100
AcDbPoint
 10
2162.20620042774
 20
582.924092675007
 30
0.0
  0
POINT
  5
DC
330
1F
100
AcDbEntity
  8
1
 62
     3
 60
     1
100
AcDbPoint
 10
2163.00620042774
 20
582.924092675007
 30
0.0
  0
POINT
  5
DD
330
1F
100
AcDbEntity
  8
1
 62
     3
 60
     1
100
AcDbPoint
 10
2162.20620042774
 20
583.724092675007
 30
0.0
  0
POINT
  5
DE
330
1F
100
AcDbEntity
  8
1
 62
     3
 60
     1
100
AcDbPoint
 10
2385.61071043989
 20
671.367945987755
 30
0.0
  0
POINT
  5
DF
330
1F
100
AcDbEntity
  8
1
 62
     3
 60
     1
100
AcDbPoint
 10
2385.61071043989
 20
670.567945987755
 30
0.0
  0
POINT
  5
E0
330
1F
100
AcDbEntity
  8
1
 62
     3
 60
     1
100
AcDbPoint
 10
2386.41071043989
 20
671.367945987755
 30
0.0
  0
POINT
  5
E1
330
1F
100
AcDbEntity
  8
1
 62
     3
 60
     1
100
AcDbPoint
 10
2385.61071043989
 20
673.867945987755
 30
0.0
  0
POINT
  5
E2
330
1F
100
AcDbEntity
  8
1
 62
     3
 60
     1
100
AcDbPoint
 10
2386.41071043989
 20
673.867945987755
 30
0.0
  0
POINT
  5
E3
330
1F
100
AcDbEntity
  8
1
 62
     3
 60
     1
100
AcDbPoint
 10
2385.61071043989
 20
674.667945987755
 30
0.0
  0
POINT
  5
E4
330
1F
100
AcDbEntity
  8
1
 62
     3
 60
     1
100
AcDbPoint
 10
2787.13167044376
 20
592.136134695969
 30
0.0
  0
POINT
  5
E5
330
1F
100
AcDbEntity
  8
1
 62
     3
 60
     1
100
AcDbPoint
 10
2787.13167044376
 20
591.336134695969
 30
0.0
  0
POINT
  5
E6
330
1F
100
AcDbEntity
  8
1
 62
     3
 60
     1
100
AcDbPoint
 10
2787.93167044375
 20
592.136134695969
 30
0.0
  0
POINT
  5
E7
330
1F
100
AcDbEntity
  8
1
 62
     3
 60
     1
100
AcDbPoint
 10
2787.13167044376
 20
594.636134695969
 30
0.0
  0
POINT
  5
E8
330
1F
100
AcDbEntity
  8
1
 62
     3
 60
     1
100
AcDbPoint
 10
2787.93167044375
 20
594.636134695969
 30
0.0
  0
POINT
  5
E9
330
1F
100
AcDbEntity
  8
1
 62
     3
 60
     1
100
AcDbPoint
 10
2787.13167044376
 20
595.436134695969
 30
0.0
  0
POINT
  5
EA
330
1F
100
AcDbEntity
  8
1
 62
     3
 60
     1
100
AcDbPoint
 10
2780.47042554239
 20
814.781504549617
 30
0.0
  0
POINT
  5
EB
330
1F
100
AcDbEntity
  8
1
 62
     3
 60
     1
100
AcDbPoint
 10
2780.47042554239
 20
813.981504549616
 30
0.0
  0
POINT
  5
EC
330
1F
100
AcDbEntity
  8
1
 62
     3
 60
     1
100
AcDbPoint
 10
2781.27042554239
 20
814.781504549617
 30
0.0
  0
POINT
  5
ED
330
1F
100
AcDbEntity
  8
1
 62
     3
 60
     1
100
AcDbPoint
 10
2780.47042554239
 20
817.281504549617
 30
0.0
  0
POINT
  5
EE
330
1F
100
AcDbEntity
  8
1
 62
     3
 60
     1
100
AcDbPoint
 10
2781.27042554239
 20
817.281504549617
 30
0.0
  0
POINT
  5
EF
330
1F
100
AcDbEntity
  8
1
 62
     3
 60
     1
100
AcDbPoint
 10
2780.47042554239
 20
818.081504549617
 30
0.0
  0
POINT
  5
F0
330
1F
100
AcDbEntity
  8
1
 62
     3
 60
     1
100
AcDbPoint
 10
2476.54492530558
 20
365.210460324782
 30
0.0
  0
POINT
  5
F1
330
1F
100
AcDbEntity
  8
1
 62
     3
 60
     1
100
AcDbPoint
 10
2477.34492530558
 20
364.410460324782
 30
0.0
  0
POINT
  5
F2
330
1F
100
AcDbEntity
  8
1
 62
     3
 60
     1
100
AcDbPoint
 10
2476.54492530558
 20
364.410460324782
 30
0.0
  0
POINT
  5
F3
330
1F
100
AcDbEntity
  8
1
 62
     3
 60
     1
100
AcDbPoint
 10
2477.34492530558
 20
361.910460324782
 30
0.0
  0
POINT
  5
F4
330
1F
100
AcDbEntity
  8
1
 62
     3
 60
     1
100
AcDbPoint
 10
2476.54492530558
 20
361.110460324782
 30
0.0
  0
POINT
  5
F5
330
1F
100
AcDbEntity
  8
1
 62
     3
 60
     1
100
AcDbPoint
 10
2476.54492530558
 20
361.910460324782
 30
0.0
  0
POINT
  5
F6
330
1F
100
AcDbEntity
  8
1
 62
     3
 60
     1
100
AcDbPoint
 10
2075.02396530171
 20
444.442271616567
 30
0.0
  0
POINT
  5
F7
330
1F
100
AcDbEntity
  8
1
 62
     3
 60
     1
100
AcDbPoint
 10
2075.82396530171
 20
443.642271616568
 30
0.0
  0
POINT
  5
F8
330
1F
100
AcDbEntity
  8
1
 62
     3
 60
     1
100
AcDbPoint
 10
2075.02396530171
 20
443.642271616568
 30
0.0
  0
POINT
  5
F9
330
1F
100
AcDbEntity
  8
1
 62
     3
 60
     1
100
AcDbPoint
 10
2075.82396530171
 20
441.142271616568
 30
0.0
  0
POINT
  5
FA
330
1F
100
AcDbEntity
  8
1
 62
     3
 60
     1
100
AcDbPoint
 10
2075.02396530171
 20
440.342271616568
 30
0.0
  0
POINT
  5
FB
330
1F
100
AcDbEntity
  8
1
 62
     3
 60
     1
100
AcDbPoint
 10
2075.02396530171
 20
441.142271616568
 30
0.0
  0
POINT
  5
FC
330
1F
100
AcDbEntity
  8
1
 62
     3
 60
     1
100
AcDbPoint
 10
1851.61945528956
 20
353.49841830382
 30
0.0
  0
POINT
  5
FD
330
1F
100
AcDbEntity
  8
1
 62
     3
 60
     1
100
AcDbPoint
 10
1852.41945528956
 20
352.69841830382
 30
0.0
  0
POINT
  5
FE
330
1F
100
AcDbEntity
  8
1
 62
     3
 60
     1
100
AcDbPoint
 10
1851.61945528956
 20
352.69841830382
 30
0.0
  0
POINT
  5
FF
330
1F
100
AcDbEntity
  8
1
 62
     3
 60
     1
100
AcDbPoint
 10
1852.41945528956
 20
350.19841830382
 30
0.0
  0
POINT
  5
100
330
1F
100
AcDbEntity
  8
1
 62
     3
 60
     1
100
AcDbPoint
 10
1851.61945528956
 20
349.39841830382
 30
0.0
  0
POINT
  5
101
330
1F
100
AcDbEntity
  8
1
 62
     3
 60
     1
100
AcDbPoint
 10
1851.61945528956
 20
350.19841830382
 30
0.0
  0
POINT
  5
102
330
1F
100
AcDbEntity
  8
1
 62
     3
 60
     1
100
AcDbPoint
 10
2469.88368040422
 20
587.855830178429
 30
0.0
  0
POINT
  5
103
330
1F
100
AcDbEntity
  8
1
 62
     3
 60
     1
100
AcDbPoint
 10
2470.68368040421
 20
587.05583017843
 30
0.0
  0
POINT
  5
104
330
1F
100
AcDbEntity
  8
1
 62
     3
 60
     1
100
AcDbPoint
 10
2469.88368040422
 20
587.05583017843
 30
0.0
  0
POINT
  5
105
330
1F
100
AcDbEntity
  8
1
 62
     3
 60
     1
100
AcDbPoint
 10
2470.68368040421
 20
584.55583017843
 30
0.0
  0
POINT
  5
106
330
1F
100
AcDbEntity
  8
1
 62
     3
 60
     1
100
AcDbPoint
 10
2469.88368040422
 20
583.755830178429
 30
0.0
  0
POINT
  5
107
330
1F
100
AcDbEntity
  8
1
 62
     3
 60
     1
100
AcDbPoint
 10
2469.88368040422
 20
584.55583017843
 30
0.0
  0
POINT
  5
108
330
1F
100
AcDbEntity
  8
1
 62
     7
100
AcDbPoint
 10
228.836697710881
 20
218.155141665406
 30
0.0
  0
POINT
  5
109
330
1F
100
AcDbEntity
  8
1
 62
     7
100
AcDbPoint
 10
228.836696236049
 20
176.155143140239
 30
0.0
  0
POINT
  5
10A
330
1F
100
AcDbEntity
  8
1
 62
     7
100
AcDbPoint
 10
228.836696236049
 20
176.155143140239
 30
0.0
  0
POINT
  5
10B
330
1F
100
AcDbEntity
  8
1
 62
     7
100
AcDbPoint
 10
219.786697710881
 20
169.905141665948
 30
0.0
  0
POINT
  5
10C
330
1F
100
AcDbEntity
  8
1
 62
     7
100
AcDbPoint
 10
318.434669358153
 20
208.155141665406
 30
0.0
  0
POINT
  5
10D
330
1F
100
AcDbEntity
  8
1
 62
     7
100
AcDbPoint
 10
320.434669358153
 20
217.155141665406
 30
0.0
  0
POINT
  5
10E
330
1F
100
AcDbEntity
  8
1
 62
     7
100
AcDbPoint
 10
318.434669358153
 20
208.155141665406
 30
0.0
  0
POINT
  5
10F
330
1F
100
AcDbEntity
  8
1
 62
     7
100
AcDbPoint
 10
318.434669358153
 20
186.155141665406
 30
0.0
  0
POINT
  5
110
330
1F
100
AcDbEntity
  8
1
 62
     7
100
AcDbPoint
 10
353.834675044719
 20
217.155141665406
 30
0.0
  0
POINT
  5
111
330
1F
100
AcDbEntity
  8
1
 62
     7
100
AcDbPoint
 10
320.434669358153
 20
217.155141665406
 30
0.0
  0
POINT
  5
112
330
1F
100
AcDbEntity
  8
1
 62
     7
100
AcDbPoint
 10
297.434669358153
 20
194.655141665406
 30
0.0
  0
POINT
  5
113
330
1F
100
AcDbEntity
  8
1
 62
     7
100
AcDbPoint
 10
297.434669358153
 20
199.655141665406
 30
0.0
  0
POINT
  5
114
330
1F
100
AcDbEntity
  8
1
 62
     7
100
AcDbPoint
 10
296.434669358153
 20
199.273175654156
 30
0.0
  0
POINT
  5
115
330
1F
100
AcDbEntity
  8
1
 62
     7
100
AcDbPoint
 10
320.434669358153
 20
216.786133374975
 30
0.0
  0
POINT
  5
116
330
1F
100
AcDbEntity
  8
1
 62
     7
100
AcDbPoint
 10
230.286697710881
 20
212.655141665406
 30
0.0
  0
POINT
  5
117
330
1F
100
AcDbEntity
  8
1
 62
     7
100
AcDbPoint
 10
230.286697710881
 20
181.655141665406
 30
0.0
  0
POINT
  5
118
330
1F
100
AcDbEntity
  8
1
 62
     7
100
AcDbPoint
 10
197.336697710881
 20
214.605141665407
 30
0.0
  0
POINT
  5
119
330
1F
100
AcDbEntity
  8
1
 62
     7
100
AcDbPoint
 10
228.336697710881
 20
214.605141665406
 30
0.0
  0
POINT
  5
11A
330
1F
100
AcDbEntity
  8
1
 62
     7
100
AcDbPoint
 10
196.836687423987
 20
176.155152579166
 30
0.0
  0
POINT
  5
11B
330
1F
100
AcDbEntity
  8
1
 62
     7
100
AcDbPoint
 10
205.836697710881
 20
168.155141665948
 30
0.0
  0
POINT
  5
11C
330
1F
100
AcDbEntity
  8
0
 62
     7
100
AcDbPoint
 10
191.836696520062
 20
213.155142856226
 30
0.0
  0
POINT
  5
11D
330
1F
100
AcDbEntity
  8
0
 62
     7
100
AcDbPoint
 10
233.836697710881
 20
213.155141665406
 30
0.0
  0
LINE
  5
11E
102
{ACAD_REACTORS
330
26C
102
}
330
1F
100
AcDbEntity
  8
1
  6
Continuous
 62
     2
100
AcDbLine
 10
228.336697710881
 20
181.655141665406
 30
0.0
 11
228.3338015526
 21
178.427530290921
 31
0.0
  0
LINE
  5
11F
102
{ACAD_REACTORS
330
26C
102
}
330
1F
100
AcDbEntity
  8
1
  6
Continuous
 62
     2
100
AcDbLine
 10
229.169267530707
 20
178.536758900646
 30
0.0
 11
228.336697710881
 21
181.655141665406
 31
0.0
  0
LINE
  5
120
102
{ACAD_REACTORS
330
26C
102
}
330
1F
100
AcDbEntity
  8
1
  6
Continuous
 62
     2
100
AcDbLine
 10
228.3338015526
 20
178.427530290921
 30
0.0
 11
229.169267530707
 21
178.536758900646
 31
0.0
  0
LINE
  5
121
102
{ACAD_REACTORS
330
26B
102
}
330
1F
100
AcDbEntity
  8
1
  6
Continuous
 62
     2
100
AcDbLine
 10
220.12220899781
 20
153.823927119889
 30
0.0
 11
216.92220899781
 21
154.245215112169
 31
0.0
  0
LINE
  5
122
102
{ACAD_REACTORS
330
26B
102
}
330
1F
100
AcDbEntity
  8
1
  6
Continuous
 62
     2
100
AcDbLine
 10
216.92220899781
 20
153.402639127609
 30
0.0
 11
220.12220899781
 21
153.823927119889
 31
0.0
  0
LINE
  5
123
102
{ACAD_REACTORS
330
26B
102
}
330
1F
100
AcDbEntity
  8
1
  6
Continuous
 62
     2
100
AcDbLine
 10
216.92220899781
 20
154.245215112169
 30
0.0
 11
216.92220899781
 21
153.402639127609
 31
0.0
  0
LINE
  5
124
330
1F
100
AcDbEntity
  8
1
  6
Continuous
 62
     3
100
AcDbLine
 10
328.334669358153
 20
182.155241665406
 30
0.0
 11
328.334569358153
 21
176.155141665406
 31
0.0
  0
LINE
  5
125
330
1F
100
AcDbEntity
  8
1
  6
Continuous
 62
     3
100
AcDbLine
 10
344.334669358153
 20
177.25515191607
 30
0.0
 11
328.334587691237
 21
177.255145030526
 31
0.0
  0
LINE
  5
126
330
1F
100
AcDbEntity
  8
1
  6
Continuous
 62
     3
100
AcDbLine
 10
328.334669358153
 20
217.055141665406
 30
0.0
 11
344.334669358153
 21
217.055141665406
 31
0.0
  0
LINE
  5
127
330
1F
100
AcDbEntity
  8
1
  6
Continuous
 62
     3
100
AcDbLine
 10
344.334669358153
 20
208.155141665275
 30
0.0
 11
328.334669358153
 21
208.155141665275
 31
0.0
  0
LINE
  5
128
330
1F
100
AcDbEntity
  8
1
  6
Continuous
 62
     3
100
AcDbLine
 10
328.334669358153
 20
186.155141665406
 30
0.0
 11
344.334669358153
 21
186.155141665406
 31
0.0
  0
LINE
  5
129
330
1F
100
AcDbEntity
  8
1
  6
Continuous
 62
     1
100
AcDbLine
 10
293.977837764836
 20
197.155141665406
 30
0.0
 11
360.261434046823
 21
197.155141665406
 31
0.0
  0
LINE
  5
12A
330
1F
100
AcDbEntity
  8
1
  6
Continuous
 62
     3
100
AcDbLine
 10
318.434669358153
 20
186.155141665406
 30
0.0
 11
320.434669358153
 21
186.155141665406
 31
0.0
  0
LINE
  5
12B
330
1F
100
AcDbEntity
  8
1
  6
Continuous
 62
     3
100
AcDbLine
 10
318.434669358153
 20
208.155141665406
 30
0.0
 11
318.434669358153
 21
186.155141665406
 31
0.0
  0
LINE
  5
12C
330
1F
100
AcDbEntity
  8
1
  6
Continuous
 62
     3
100
AcDbLine
 10
320.434669358153
 20
217.155141665406
 30
0.0
 11
320.434669358153
 21
177.155142061185
 31
0.0
  0
LINE
  5
12D
330
1F
100
AcDbEntity
  8
1
  6
Continuous
 62
     2
100
AcDbLine
 10
344.334669358153
 20
212.155141665406
 30
0.0
 11
344.334669358153
 21
218.155141665406
 31
0.0
  0
LINE
  5
12E
330
1F
100
AcDbEntity
  8
1
  6
Continuous
 62
     3
100
AcDbLine
 10
328.334669358153
 20
212.155141665406
 30
0.0
 11
328.334669358153
 21
218.155141665406
 31
0.0
  0
LINE
  5
12F
330
1F
100
AcDbEntity
  8
1
  6
Continuous
 62
     3
100
AcDbLine
 10
320.434669358153
 20
217.155141665406
 30
0.0
 11
320.434669358153
 21
216.786133374975
 31
0.0
  0
LINE
  5
130
330
1F
100
AcDbEntity
  8
1
  6
Continuous
 62
     3
100
AcDbLine
 10
328.334669358153
 20
212.155141665406
 30
0.0
 11
344.334669358153
 21
212.155141665406
 31
0.0
  0
LINE
  5
131
330
1F
100
AcDbEntity
  8
1
  6
Continuous
 62
     3
100
AcDbLine
 10
328.334669358153
 20
182.155241665406
 30
0.0
 11
344.334669358153
 21
182.155141665406
 31
0.0
  0
LINE
  5
132
330
1F
100
AcDbEntity
  8
4
  6
Continuous
 62
     2
100
AcDbLine
 10
332.734569358153
 20
179.496941665406
 30
0.0
 11
332.734569358153
 21
176.155041665406
 31
0.0
  0
LINE
  5
133
330
1F
100
AcDbEntity
  8
4
  6
Continuous
 62
     2
100
AcDbLine
 10
331.934569358153
 20
180.766741665406
 30
0.0
 11
331.934569358153
 21
176.155041665406
 31
0.0
  0
LINE
  5
134
330
1F
100
AcDbEntity
  8
4
  6
Continuous
 62
     2
100
AcDbLine
 10
331.134569358153
 20
182.036441665406
 30
0.0
 11
331.134569358153
 21
176.155041665406
 31
0.0
  0
LINE
  5
135
330
1F
100
AcDbEntity
  8
4
  6
Continuous
 62
     2
100
AcDbLine
 10
330.334569358153
 20
183.306241665406
 30
0.0
 11
330.334569358153
 21
176.155041665406
 31
0.0
  0
LINE
  5
136
330
1F
100
AcDbEntity
  8
4
  6
Continuous
 62
     2
100
AcDbLine
 10
329.534569358153
 20
184.576041665406
 30
0.0
 11
329.534569358153
 21
176.155041665406
 31
0.0
  0
LINE
  5
137
330
1F
100
AcDbEntity
  8
4
  6
Continuous
 62
     2
100
AcDbLine
 10
328.734569358153
 20
185.845841665406
 30
0.0
 11
328.734569358153
 21
176.155041665406
 31
0.0
  0
LINE
  5
138
330
1F
100
AcDbEntity
  8
4
  6
Continuous
 62
     2
100
AcDbLine
 10
339.934669358153
 20
214.813241665406
 30
0.0
 11
339.934669358153
 21
218.155141665406
 31
0.0
  0
LINE
  5
139
330
1F
100
AcDbEntity
  8
4
  6
Continuous
 62
     2
100
AcDbLine
 10
340.734669358153
 20
213.543541665406
 30
0.0
 11
340.734669358153
 21
218.155141665406
 31
0.0
  0
LINE
  5
13A
330
1F
100
AcDbEntity
  8
4
  6
Continuous
 62
     2
100
AcDbLine
 10
341.534669358153
 20
212.273741665406
 30
0.0
 11
341.534669358153
 21
218.155141665406
 31
0.0
  0
LINE
  5
13B
330
1F
100
AcDbEntity
  8
4
  6
Continuous
 62
     2
100
AcDbLine
 10
342.334669358153
 20
211.003941665406
 30
0.0
 11
342.334669358153
 21
218.155141665406
 31
0.0
  0
LINE
  5
13C
330
1F
100
AcDbEntity
  8
4
  6
Continuous
 62
     2
100
AcDbLine
 10
343.134669358153
 20
209.734141665406
 30
0.0
 11
343.134669358153
 21
218.155141665406
 31
0.0
  0
LINE
  5
13D
330
1F
100
AcDbEntity
  8
4
  6
Continuous
 62
     2
100
AcDbLine
 10
343.934669358153
 20
208.464341665406
 30
0.0
 11
343.934669358153
 21
218.155141665406
 31
0.0
  0
LINE
  5
13E
330
1F
100
AcDbEntity
  8
1
  6
Continuous
 62
     3
100
AcDbLine
 10
321.434669753932
 20
176.155142061185
 30
0.0
 11
344.334669358153
 21
176.15515191607
 31
0.0
  0
LINE
  5
13F
330
1F
100
AcDbEntity
  8
1
  6
Continuous
 62
     3
100
AcDbLine
 10
344.334669358153
 20
212.155141665406
 30
0.0
 11
344.334669358153
 21
182.155141665406
 31
0.0
  0
LINE
  5
140
330
1F
100
AcDbEntity
  8
1
  6
Continuous
 62
     3
100
AcDbLine
 10
328.334669358153
 20
182.155241665406
 30
0.0
 11
328.334669358153
 21
212.155141665406
 31
0.0
  0
LINE
  5
141
330
1F
100
AcDbEntity
  8
1
  6
Continuous
 62
     3
100
AcDbLine
 10
321.434669358153
 20
218.155141665406
 30
0.0
 11
344.334669358153
 21
218.155141665406
 31
0.0
  0
LINE
  5
142
330
1F
100
AcDbEntity
  8
1
  6
Continuous
 62
     3
100
AcDbLine
 10
349.634667546058
 20
176.15515191607
 30
0.0
 11
349.634667546058
 21
170.155141665948
 31
0.0
  0
LINE
  5
143
330
1F
100
AcDbEntity
  8
1
  6
Continuous
 62
     3
100
AcDbLine
 10
345.269276422539
 20
176.15515191607
 30
0.0
 11
345.124932937331
 21
175.905141665948
 31
0.0
  0
LINE
  5
144
330
1F
100
AcDbEntity
  8
1
  6
Continuous
 62
     3
100
AcDbLine
 10
348.834667546058
 20
175.905141665948
 30
0.0
 11
344.991273027779
 21
175.905141665948
 31
0.0
  0
LINE
  5
145
330
1F
100
AcDbEntity
  8
1
  6
Continuous
 62
     3
100
AcDbLine
 10
346.484667546058
 20
169.905141665948
 30
0.0
 11
348.275453596147
 21
169.905141665948
 31
0.0
  0
LINE
  5
146
330
1F
100
AcDbEntity
  8
1
  6
Continuous
 62
     3
100
AcDbLine
 10
344.034667546058
 20
169.905141665948
 30
0.0
 11
344.034667546058
 21
171.905141665948
 31
0.0
  0
LINE
  5
147
330
1F
100
AcDbEntity
  8
1
  6
Continuous
 62
     3
100
AcDbLine
 10
346.484667546058
 20
171.613029583239
 30
0.0
 11
346.484667546058
 21
169.905141665948
 31
0.0
  0
LINE
  5
148
330
1F
100
AcDbEntity
  8
1
  6
Continuous
 62
     3
100
AcDbLine
 10
348.275453596147
 20
169.905141665948
 30
0.0
 11
348.534667546058
 21
169.905141665948
 31
0.0
  0
LINE
  5
149
330
1F
100
AcDbEntity
  8
1
  6
Continuous
 62
     3
100
AcDbLine
 10
344.991273027779
 20
175.905141665948
 30
0.0
 11
344.634667546058
 21
175.905141665948
 31
0.0
  0
LINE
  5
14A
330
1F
100
AcDbEntity
  8
1
  6
Continuous
 62
     3
100
AcDbLine
 10
344.437332092449
 20
169.905141665948
 30
0.0
 11
345.484667546058
 21
169.905141665948
 31
0.0
  0
LINE
  5
14B
330
1F
100
AcDbEntity
  8
1
  6
Continuous
 62
     3
100
AcDbLine
 10
345.484667546058
 20
169.905141665948
 30
0.0
 11
345.484667546058
 21
171.336378051463
 31
0.0
  0
LINE
  5
14C
330
1F
100
AcDbEntity
  8
1
  6
Continuous
 62
     3
100
AcDbLine
 10
345.484667546058
 20
171.613029583239
 30
0.0
 11
345.484667546058
 21
171.336378051463
 31
0.0
  0
LINE
  5
14D
330
1F
100
AcDbEntity
  8
1
  6
Continuous
 62
     3
100
AcDbLine
 10
348.834667546058
 20
175.905141665948
 30
0.0
 11
348.834667546058
 21
169.905141665948
 31
0.0
  0
LINE
  5
14E
330
1F
100
AcDbEntity
  8
1
  6
Continuous
 62
     3
100
AcDbLine
 10
348.834667546058
 20
169.905141665948
 30
0.0
 11
348.534667546058
 21
169.905141665948
 31
0.0
  0
LINE
  5
14F
330
1F
100
AcDbEntity
  8
1
  6
Continuous
 62
     3
100
AcDbLine
 10
344.437332092449
 20
169.905141665948
 30
0.0
 11
344.034667546058
 21
169.905141665948
 31
0.0
  0
LINE
  5
150
330
1F
100
AcDbEntity
  8
1
  6
Continuous
 62
     3
100
AcDbLine
 10
344.034667546058
 20
171.905141665948
 30
0.0
 11
344.034667546058
 21
175.905141665948
 31
0.0
  0
LINE
  5
151
330
1F
100
AcDbEntity
  8
1
  6
Continuous
 62
     3
100
AcDbLine
 10
344.034667546058
 20
175.905141665948
 30
0.0
 11
344.634667546058
 21
175.905141665948
 31
0.0
  0
LINE
  5
152
330
1F
100
AcDbEntity
  8
1
  6
Continuous
 62
     3
100
AcDbLine
 10
348.834667546058
 20
170.155141665948
 30
0.0
 11
348.834667546058
 21
176.15515191607
 31
0.0
  0
LINE
  5
153
330
1F
100
AcDbEntity
  8
1
  6
Continuous
 62
     3
100
AcDbLine
 10
349.634667546058
 20
170.155141665948
 30
0.0
 11
348.834667546058
 21
170.155141665948
 31
0.0
  0
LINE
  5
154
330
1F
100
AcDbEntity
  8
1
  6
Continuous
 62
     3
100
AcDbLine
 10
349.834667543171
 20
170.155141667026
 30
0.0
 11
353.334668236435
 21
170.155141666825
 31
0.0
  0
LINE
  5
155
330
1F
100
AcDbEntity
  8
1
  6
Continuous
 62
     3
100
AcDbLine
 10
353.834663542717
 20
177.15515366507
 30
0.0
 11
353.834668236464
 21
170.655142188352
 31
0.0
  0
LINE
  5
156
330
1F
100
AcDbEntity
  8
1
  6
Continuous
 62
     3
100
AcDbLine
 10
349.834667543401
 20
176.15515191607
 30
0.0
 11
349.834667543171
 21
170.155141667026
 31
0.0
  0
LINE
  5
157
330
1F
100
AcDbEntity
  8
1
  6
Continuous
 62
     3
100
AcDbLine
 10
353.834663542717
 20
177.15515366507
 30
0.0
 11
353.834660044719
 21
177.155141665406
 31
0.0
  0
LINE
  5
158
330
1F
100
AcDbEntity
  8
1
  6
Continuous
 62
     3
100
AcDbLine
 10
344.334669358153
 20
176.15515191607
 30
0.0
 11
352.834663542718
 21
176.15515191607
 31
0.0
  0
LINE
  5
159
330
1F
100
AcDbEntity
  8
1
  6
Continuous
 62
     3
100
AcDbLine
 10
344.334669358153
 20
176.15515191607
 30
0.0
 11
344.334669358153
 21
182.155141665406
 31
0.0
  0
LINE
  5
15A
330
1F
100
AcDbEntity
  8
1
  6
Continuous
 62
     3
100
AcDbLine
 10
353.834675044719
 20
217.155141665406
 30
0.0
 11
353.834660044719
 21
177.155141665406
 31
0.0
  0
LINE
  5
15B
330
1F
100
AcDbEntity
  8
1
  6
Continuous
 62
     3
100
AcDbLine
 10
344.334669358153
 20
212.155141665406
 30
0.0
 11
344.334669358153
 21
218.155141665406
 31
0.0
  0
LINE
  5
15C
330
1F
100
AcDbEntity
  8
1
  6
Continuous
 62
     3
100
AcDbLine
 10
344.334669358153
 20
212.155141665406
 30
0.0
 11
344.334669358153
 21
182.155141665406
 31
0.0
  0
LINE
  5
15D
330
1F
100
AcDbEntity
  8
1
  6
Continuous
 62
     3
100
AcDbLine
 10
352.834675044719
 20
218.155141665406
 30
0.0
 11
344.334669358153
 21
218.155141665406
 31
0.0
  0
LINE
  5
15E
330
1F
100
AcDbEntity
  8
1
  6
Continuous
 62
     2
100
AcDbLine
 10
297.434669358153
 20
194.655141665406
 30
0.0
 11
297.434669358153
 21
199.655141665406
 31
0.0
  0
LINE
  5
15F
330
1F
100
AcDbEntity
  8
1
  6
Continuous
 62
     3
100
AcDbLine
 10
296.434669358153
 20
195.037107676656
 30
0.0
 11
296.434669358153
 21
199.273175654156
 31
0.0
  0
LINE
  5
160
330
1F
100
AcDbEntity
  8
1
  6
Continuous
 62
     3
100
AcDbLine
 10
320.434669358153
 20
208.155141665406
 30
0.0
 11
318.434669358153
 21
208.155141665406
 31
0.0
  0
LINE
  5
161
330
1F
100
AcDbEntity
  8
1
  6
Continuous
 62
     3
100
AcDbLine
 10
318.434669358153
 20
208.155141665406
 30
0.0
 11
318.434669358153
 21
208.155013675827
 31
0.0
  0
LINE
  5
162
330
1F
100
AcDbEntity
  8
1
  6
Continuous
 62
     3
100
AcDbLine
 10
297.434669358153
 20
199.655141665406
 30
0.0
 11
318.434669358153
 21
199.655141665406
 31
0.0
  0
LINE
  5
163
330
1F
100
AcDbEntity
  8
1
  6
Continuous
 62
     3
100
AcDbLine
 10
297.434669358153
 20
194.655141665406
 30
0.0
 11
318.434669358153
 21
194.655141665406
 31
0.0
  0
LINE
  5
164
330
1F
100
AcDbEntity
  8
1
  6
DASH_CENTER
 62
     1
100
AcDbLine
 10
197.336697710881
 20
214.605141665407
 30
0.0
 11
197.336697710881
 21
210.705141665406
 31
0.0
  0
LINE
  5
165
330
1F
100
AcDbEntity
  8
1
  6
DASH_CENTER
 62
     1
100
AcDbLine
 10
199.286697710881
 20
212.655141665406
 30
0.0
 11
195.386697710881
 21
212.655141665406
 31
0.0
  0
LINE
  5
166
330
1F
100
AcDbEntity
  8
1
  6
DASH_CENTER
 62
     1
100
AcDbLine
 10
228.336697710881
 20
214.605141665406
 30
0.0
 11
228.336697710881
 21
210.705141665407
 31
0.0
  0
LINE
  5
167
330
1F
100
AcDbEntity
  8
1
  6
DASH_CENTER
 62
     1
100
AcDbLine
 10
230.286697710881
 20
212.655141665406
 30
0.0
 11
226.386697710882
 21
212.655141665406
 31
0.0
  0
LINE
  5
168
330
1F
100
AcDbEntity
  8
1
  6
DASH_CENTER
 62
     1
100
AcDbLine
 10
228.336697710881
 20
183.605141665407
 30
0.0
 11
228.336697710881
 21
179.705141665407
 31
0.0
  0
LINE
  5
169
330
1F
100
AcDbEntity
  8
1
  6
DASH_CENTER
 62
     1
100
AcDbLine
 10
230.286697710881
 20
181.655141665406
 30
0.0
 11
226.386697710881
 21
181.655141665406
 31
0.0
  0
LINE
  5
16A
330
1F
100
AcDbEntity
  8
1
  6
DASH_CENTER
 62
     1
100
AcDbLine
 10
197.336697710881
 20
183.605141665406
 30
0.0
 11
197.336697710881
 21
179.705141665406
 31
0.0
  0
LINE
  5
16B
330
1F
100
AcDbEntity
  8
1
  6
DASH_CENTER
 62
     1
100
AcDbLine
 10
199.286697710881
 20
181.655141665406
 30
0.0
 11
195.386697710881
 21
181.655141665406
 31
0.0
  0
LINE
  5
16C
330
1F
100
AcDbEntity
  8
1
  6
Continuous
 62
     3
100
AcDbLine
 10
220.586697710881
 20
174.155141674797
 30
0.0
 11
220.336697710881
 21
174.155141674811
 31
0.0
  0
LINE
  5
16D
330
1F
100
AcDbEntity
  8
1
  6
Continuous
 62
     3
100
AcDbLine
 10
220.336697710881
 20
174.155141666797
 30
0.0
 11
220.336697710882
 21
170.154867867517
 31
0.0
  0
LINE
  5
16E
330
1F
100
AcDbEntity
  8
1
  6
Continuous
 62
     3
100
AcDbLine
 10
220.336697710882
 20
170.154867867517
 30
0.0
 11
219.786697710881
 21
170.154867867517
 31
0.0
  0
LINE
  5
16F
330
1F
100
AcDbEntity
  8
1
  6
Continuous
 62
     3
100
AcDbLine
 10
205.336697710881
 20
174.155141666797
 30
0.0
 11
205.336697710881
 21
170.154867867517
 31
0.0
  0
LINE
  5
170
330
1F
100
AcDbEntity
  8
1
  6
Continuous
 62
     3
100
AcDbLine
 10
205.086697710881
 20
174.155141666797
 30
0.0
 11
205.336697710881
 21
174.155141666797
 31
0.0
  0
LINE
  5
171
330
1F
100
AcDbEntity
  8
1
  6
Continuous
 62
     3
100
AcDbLine
 10
209.186697710881
 20
169.905141665948
 30
0.0
 11
216.386697710881
 21
169.905141665948
 31
0.0
  0
LINE
  5
172
330
1F
100
AcDbEntity
  8
1
  6
Continuous
 62
     2
100
AcDbLine
 10
219.086697710882
 20
169.905141665948
 30
0.0
 11
219.086697710881
 21
169.655141665948
 31
0.0
  0
LINE
  5
173
330
1F
100
AcDbEntity
  8
1
  6
DASHED
 62
     2
100
AcDbLine
 10
219.836697710881
 20
168.655141665948
 30
0.0
 11
219.086697710881
 21
169.655141665948
 31
0.0
  0
LINE
  5
174
330
1F
100
AcDbEntity
  8
1
  6
DASH_CENTER
 62
     1
100
AcDbLine
 10
212.836697710881
 20
221.97528246414
 30
0.0
 11
212.836697710882
 21
168.766252776517
 31
0.0
  0
LINE
  5
175
330
1F
100
AcDbEntity
  8
1
  6
DASHED
 62
     2
100
AcDbLine
 10
210.186697710881
 20
174.405146444404
 30
0.0
 11
210.186697710881
 21
169.155141665948
 31
0.0
  0
LINE
  5
176
330
1F
100
AcDbEntity
  8
1
  6
DASHED
 62
     2
100
AcDbLine
 10
209.186697710881
 20
169.905141665948
 30
0.0
 11
209.186697710881
 21
174.40514673937
 31
0.0
  0
LINE
  5
177
330
1F
100
AcDbEntity
  8
1
  6
DASHED
 62
     2
100
AcDbLine
 10
219.836697710882
 20
168.155141665948
 30
0.0
 11
205.836697710881
 21
168.155141665948
 31
0.0
  0
LINE
  5
178
330
1F
100
AcDbEntity
  8
1
  6
LONG_DASHED
 62
     4
100
AcDbLine
 10
206.636697710881
 20
169.905141665948
 30
0.0
 11
205.886697710881
 21
168.755141665948
 31
0.0
  0
LINE
  5
179
330
1F
100
AcDbEntity
  8
1
  6
LONG_DASHED
 62
     4
100
AcDbLine
 10
219.036697710881
 20
169.905141665948
 30
0.0
 11
219.786697710881
 21
168.755141665948
 31
0.0
  0
LINE
  5
17A
330
1F
100
AcDbEntity
  8
1
  6
DASHED
 62
     2
100
AcDbLine
 10
210.186697710881
 20
170.655141665948
 30
0.0
 11
215.386697710881
 21
170.655141665948
 31
0.0
  0
LINE
  5
17B
330
1F
100
AcDbEntity
  8
1
  6
DASHED
 62
     2
100
AcDbLine
 10
216.386697710881
 20
168.655141665948
 30
0.0
 11
216.386697710881
 21
174.405141665948
 31
0.0
  0
LINE
  5
17C
330
1F
100
AcDbEntity
  8
1
  6
DASHED
 62
     2
100
AcDbLine
 10
215.386697710881
 20
169.155141665948
 30
0.0
 11
215.386697710881
 21
174.405141960914
 31
0.0
  0
LINE
  5
17D
330
1F
100
AcDbEntity
  8
1
  6
DASHED
 62
     2
100
AcDbLine
 10
210.186697710881
 20
169.155141665948
 30
0.0
 11
215.386697710881
 21
169.155141665948
 31
0.0
  0
LINE
  5
17E
330
1F
100
AcDbEntity
  8
1
  6
DASHED
 62
     2
100
AcDbLine
 10
209.186697710881
 20
168.655141665948
 30
0.0
 11
209.186697710881
 21
169.905141665948
 31
0.0
  0
LINE
  5
17F
330
1F
100
AcDbEntity
  8
1
  6
DASHED
 62
     2
100
AcDbLine
 10
219.836697710881
 20
168.655141665948
 30
0.0
 11
219.836697710882
 21
168.155141665948
 31
0.0
  0
LINE
  5
180
330
1F
100
AcDbEntity
  8
1
  6
DASHED
 62
     2
100
AcDbLine
 10
205.836697710881
 20
168.155141665948
 30
0.0
 11
205.836697710881
 21
168.655141665948
 31
0.0
  0
LINE
  5
181
330
1F
100
AcDbEntity
  8
1
  6
DASHED
 62
     2
100
AcDbLine
 10
209.186697710881
 20
168.155141665948
 30
0.0
 11
209.186697710881
 21
168.655141665948
 31
0.0
  0
LINE
  5
182
330
1F
100
AcDbEntity
  8
1
  6
DASHED
 62
     2
100
AcDbLine
 10
206.186697710881
 20
168.155141665948
 30
0.0
 11
206.186697710881
 21
168.655141665948
 31
0.0
  0
LINE
  5
183
330
1F
100
AcDbEntity
  8
1
  6
DASHED
 62
     2
100
AcDbLine
 10
208.186697710881
 20
168.155141665948
 30
0.0
 11
208.186697710881
 21
168.655141665948
 31
0.0
  0
LINE
  5
184
330
1F
100
AcDbEntity
  8
1
  6
DASHED
 62
     2
100
AcDbLine
 10
207.386697710881
 20
168.655141665948
 30
0.0
 11
207.38669771088
 21
168.155141665948
 31
0.0
  0
LINE
  5
185
330
1F
100
AcDbEntity
  8
1
  6
DASHED
 62
     2
100
AcDbLine
 10
210.186697710881
 20
168.155141665948
 30
0.0
 11
210.186697710881
 21
168.655141665948
 31
0.0
  0
LINE
  5
186
330
1F
100
AcDbEntity
  8
1
  6
DASHED
 62
     2
100
AcDbLine
 10
209.38669771088
 20
168.655141665948
 30
0.0
 11
209.386697710881
 21
168.155141665948
 31
0.0
  0
LINE
  5
187
330
1F
100
AcDbEntity
  8
1
  6
DASHED
 62
     2
100
AcDbLine
 10
212.186697710881
 20
168.155141665948
 30
0.0
 11
212.186697710881
 21
168.655141665948
 31
0.0
  0
LINE
  5
188
330
1F
100
AcDbEntity
  8
1
  6
DASHED
 62
     2
100
AcDbLine
 10
211.386697710881
 20
168.655141665948
 30
0.0
 11
211.386697710881
 21
168.155141665948
 31
0.0
  0
LINE
  5
189
330
1F
100
AcDbEntity
  8
1
  6
DASHED
 62
     2
100
AcDbLine
 10
214.186697710881
 20
168.155141665948
 30
0.0
 11
214.186697710881
 21
168.655141665948
 31
0.0
  0
LINE
  5
18A
330
1F
100
AcDbEntity
  8
1
  6
DASHED
 62
     2
100
AcDbLine
 10
213.386697710881
 20
168.655141665948
 30
0.0
 11
213.386697710881
 21
168.155141665948
 31
0.0
  0
LINE
  5
18B
330
1F
100
AcDbEntity
  8
1
  6
DASHED
 62
     2
100
AcDbLine
 10
216.186697710881
 20
168.155141665948
 30
0.0
 11
216.186697710881
 21
168.655141665948
 31
0.0
  0
LINE
  5
18C
330
1F
100
AcDbEntity
  8
1
  6
DASHED
 62
     2
100
AcDbLine
 10
215.386697710881
 20
168.655141665948
 30
0.0
 11
215.386697710881
 21
168.155141665948
 31
0.0
  0
LINE
  5
18D
330
1F
100
AcDbEntity
  8
1
  6
DASHED
 62
     2
100
AcDbLine
 10
218.186697710881
 20
168.155141665948
 30
0.0
 11
218.186697710881
 21
168.655141665948
 31
0.0
  0
LINE
  5
18E
330
1F
100
AcDbEntity
  8
1
  6
DASHED
 62
     2
100
AcDbLine
 10
217.38669771088
 20
168.655141665948
 30
0.0
 11
217.386697710881
 21
168.155141665948
 31
0.0
  0
LINE
  5
18F
330
1F
100
AcDbEntity
  8
1
  6
DASHED
 62
     2
100
AcDbLine
 10
219.38669771088
 20
168.655141665948
 30
0.0
 11
219.386697710881
 21
168.155141665948
 31
0.0
  0
LINE
  5
190
330
1F
100
AcDbEntity
  8
1
  6
DASHED
 62
     2
100
AcDbLine
 10
216.386697710881
 20
168.655141665948
 30
0.0
 11
216.386697710881
 21
168.155141665948
 31
0.0
  0
LINE
  5
191
330
1F
100
AcDbEntity
  8
1
  6
DASHED
 62
     2
100
AcDbLine
 10
205.836697710881
 20
168.655141665948
 30
0.0
 11
219.836697710881
 21
168.655141665948
 31
0.0
  0
LINE
  5
192
330
1F
100
AcDbEntity
  8
1
  6
DASHED
 62
     2
100
AcDbLine
 10
206.586697710881
 20
169.655141665948
 30
0.0
 11
205.836697710881
 21
168.655141665948
 31
0.0
  0
LINE
  5
193
330
1F
100
AcDbEntity
  8
1
  6
Continuous
 62
     2
100
AcDbLine
 10
206.586697710881
 20
169.655141665948
 30
0.0
 11
206.586697710881
 21
169.905141665948
 31
0.0
  0
LINE
  5
194
330
1F
100
AcDbEntity
  8
1
  6
DASHED
 62
     2
100
AcDbLine
 10
207.216697710881
 20
168.155180032015
 30
0.0
 11
207.216697710881
 21
159.582706207862
 31
0.0
  0
LINE
  5
195
330
1F
100
AcDbEntity
  8
1
  6
DASHED
 62
     2
100
AcDbLine
 10
208.456697710881
 20
159.582706207862
 30
0.0
 11
208.456697710881
 21
168.155141665948
 31
0.0
  0
LINE
  5
196
330
1F
100
AcDbEntity
  8
1
  6
DASHED
 62
     2
100
AcDbLine
 10
209.216697710881
 20
168.155180032015
 30
0.0
 11
209.216697710881
 21
159.582706207862
 31
0.0
  0
LINE
  5
197
330
1F
100
AcDbEntity
  8
1
  6
DASHED
 62
     2
100
AcDbLine
 10
210.456697710881
 20
159.582706207862
 30
0.0
 11
210.456697710881
 21
168.155141665948
 31
0.0
  0
LINE
  5
198
330
1F
100
AcDbEntity
  8
1
  6
DASHED
 62
     2
100
AcDbLine
 10
211.216697710881
 20
159.582706207862
 30
0.0
 11
211.216697710881
 21
168.155141665948
 31
0.0
  0
LINE
  5
199
330
1F
100
AcDbEntity
  8
1
  6
DASHED
 62
     2
100
AcDbLine
 10
212.456697710881
 20
159.582706207862
 30
0.0
 11
212.456697710881
 21
168.155141665948
 31
0.0
  0
LINE
  5
19A
330
1F
100
AcDbEntity
  8
1
  6
DASHED
 62
     2
100
AcDbLine
 10
213.216697710881
 20
159.582706207862
 30
0.0
 11
213.216697710881
 21
168.155141665948
 31
0.0
  0
LINE
  5
19B
330
1F
100
AcDbEntity
  8
1
  6
DASHED
 62
     2
100
AcDbLine
 10
214.456697710881
 20
159.582706207862
 30
0.0
 11
214.456697710881
 21
168.155141665948
 31
0.0
  0
LINE
  5
19C
330
1F
100
AcDbEntity
  8
1
  6
DASHED
 62
     2
100
AcDbLine
 10
215.216697710881
 20
159.582706207862
 30
0.0
 11
215.216697710881
 21
168.155141665948
 31
0.0
  0
LINE
  5
19D
330
1F
100
AcDbEntity
  8
1
  6
DASHED
 62
     2
100
AcDbLine
 10
217.216697710881
 20
159.582706207862
 30
0.0
 11
217.216697710881
 21
168.155141665948
 31
0.0
  0
LINE
  5
19E
330
1F
100
AcDbEntity
  8
1
  6
DASHED
 62
     2
100
AcDbLine
 10
216.456697710881
 20
159.582706207862
 30
0.0
 11
216.456697710881
 21
168.155141665948
 31
0.0
  0
LINE
  5
19F
330
1F
100
AcDbEntity
  8
1
  6
DASHED
 62
     2
100
AcDbLine
 10
218.456697710881
 20
159.582706207862
 30
0.0
 11
218.456697710881
 21
168.155141665948
 31
0.0
  0
LINE
  5
1A0
330
1F
100
AcDbEntity
  8
1
  6
Continuous
 62
     3
100
AcDbLine
 10
196.836687423987
 20
176.155152579166
 30
0.0
 11
228.836696236049
 21
176.155143140239
 31
0.0
  0
LINE
  5
1A1
330
1F
100
AcDbEntity
  8
1
  6
Continuous
 62
     3
100
AcDbLine
 10
191.836688898819
 20
181.155153769985
 30
0.0
 11
191.836696520062
 21
213.155142856226
 31
0.0
  0
LINE
  5
1A2
330
1F
100
AcDbEntity
  8
2
  6
Continuous
 62
     1
100
AcDbLine
 10
188.583305228293
 20
197.155141665406
 30
0.0
 11
236.586461510307
 21
197.155141665406
 31
0.0
  0
LINE
  5
1A3
330
1F
100
AcDbEntity
  8
1
  6
Continuous
 62
     3
100
AcDbLine
 10
228.836697710881
 20
218.155141665406
 30
0.0
 11
196.836696520062
 21
218.155141665406
 31
0.0
  0
LINE
  5
1A4
330
1F
100
AcDbEntity
  8
1
  6
Continuous
 62
     3
100
AcDbLine
 10
233.836697710881
 20
181.155143140239
 30
0.0
 11
233.836697710881
 21
213.155141665406
 31
0.0
  0
LINE
  5
1A5
330
1F
100
AcDbEntity
  8
1
  6
Continuous
 62
     3
100
AcDbLine
 10
205.886697710881
 20
169.905141665948
 30
0.0
 11
205.886697710881
 21
175.905141665948
 31
0.0
  0
LINE
  5
1A6
330
1F
100
AcDbEntity
  8
1
  6
Continuous
 62
     3
100
AcDbLine
 10
219.786697710881
 20
169.905141665948
 30
0.0
 11
219.786697710881
 21
175.905141665948
 31
0.0
  0
LINE
  5
1A7
330
1F
100
AcDbEntity
  8
1
  6
Continuous
 62
     3
100
AcDbLine
 10
205.886697710881
 20
169.905141665948
 30
0.0
 11
209.186697710881
 21
169.905141665948
 31
0.0
  0
LINE
  5
1A8
330
1F
100
AcDbEntity
  8
1
  6
Continuous
 62
     3
100
AcDbLine
 10
208.886697710881
 20
174.405137993616
 30
0.0
 11
208.886697710881
 21
169.905141665948
 31
0.0
  0
LINE
  5
1A9
330
1F
100
AcDbEntity
  8
1
  6
Continuous
 62
     3
100
AcDbLine
 10
216.786697710881
 20
174.405137993616
 30
0.0
 11
216.786697710881
 21
169.905141665948
 31
0.0
  0
LINE
  5
1AA
330
1F
100
AcDbEntity
  8
1
  6
Continuous
 62
     3
100
AcDbLine
 10
206.436697710881
 20
175.905141665948
 30
0.0
 11
206.436697710881
 21
171.805141665948
 31
0.0
  0
LINE
  5
1AB
330
1F
100
AcDbEntity
  8
1
  6
Continuous
 62
     3
100
AcDbLine
 10
206.436697710881
 20
171.805141665948
 30
0.0
 11
207.436697710881
 21
171.805141665948
 31
0.0
  0
LINE
  5
1AC
330
1F
100
AcDbEntity
  8
1
  6
Continuous
 62
     3
100
AcDbLine
 10
207.436697710881
 20
171.805141665948
 30
0.0
 11
207.436697710881
 21
175.905141665948
 31
0.0
  0
LINE
  5
1AD
330
1F
100
AcDbEntity
  8
1
  6
Continuous
 62
     3
100
AcDbLine
 10
219.236697710881
 20
175.905141665948
 30
0.0
 11
219.236697710881
 21
171.805141665948
 31
0.0
  0
LINE
  5
1AE
330
1F
100
AcDbEntity
  8
1
  6
Continuous
 62
     3
100
AcDbLine
 10
219.236697710881
 20
171.805141665948
 30
0.0
 11
218.236697710881
 21
171.805141665948
 31
0.0
  0
LINE
  5
1AF
330
1F
100
AcDbEntity
  8
1
  6
Continuous
 62
     3
100
AcDbLine
 10
218.236697710881
 20
171.805141665948
 30
0.0
 11
218.236697710881
 21
175.905141665948
 31
0.0
  0
LINE
  5
1B0
330
1F
100
AcDbEntity
  8
1
  6
Continuous
 62
     3
100
AcDbLine
 10
216.786697710881
 20
169.905141665948
 30
0.0
 11
219.786697710881
 21
169.905141665948
 31
0.0
  0
LINE
  5
1B1
330
1F
100
AcDbEntity
  8
1
  6
Continuous
 62
     3
100
AcDbLine
 10
216.386697710881
 20
169.905141665948
 30
0.0
 11
216.786697710881
 21
169.905141665948
 31
0.0
  0
LINE
  5
1B2
330
1F
100
AcDbEntity
  8
1
  6
Continuous
 62
     3
100
AcDbLine
 10
205.886697710881
 20
175.905141665948
 30
0.0
 11
219.786697710881
 21
175.905141665948
 31
0.0
  0
LINE
  5
1B3
330
1F
100
AcDbEntity
  8
1
  6
Continuous
 62
     3
100
AcDbLine
 10
208.886697710881
 20
174.405141665948
 30
0.0
 11
216.786697710881
 21
174.405141665948
 31
0.0
  0
LINE
  5
1B4
330
1F
100
AcDbEntity
  8
1
  6
Continuous
 62
     3
100
AcDbLine
 10
218.236697710881
 20
174.405141665948
 30
0.0
 11
219.236697710881
 21
174.405141665948
 31
0.0
  0
LINE
  5
1B5
330
1F
100
AcDbEntity
  8
1
  6
Continuous
 62
     3
100
AcDbLine
 10
206.436697710881
 20
174.405141665948
 30
0.0
 11
207.436697710881
 21
174.405141665948
 31
0.0
  0
LINE
  5
1B6
330
1F
100
AcDbEntity
  8
11
  6
Continuous
 62
     3
100
AcDbLine
 10
203.683009929446
 20
176.054867868907
 30
0.0
 11
204.586697710881
 21
176.054867868907
 31
0.0
  0
LINE
  5
1B7
330
1F
100
AcDbEntity
  8
11
  6
Continuous
 62
     3
100
AcDbLine
 10
205.086697710881
 20
175.554867868907
 30
0.0
 11
205.086697710881
 21
174.155141666797
 31
0.0
  0
LINE
  5
1B8
330
1F
100
AcDbEntity
  8
11
  6
Continuous
 62
     3
100
AcDbLine
 10
220.586697710881
 20
175.554867868907
 30
0.0
 11
220.586697710881
 21
174.155141674797
 31
0.0
  0
LINE
  5
1B9
330
1F
100
AcDbEntity
  8
11
  6
Continuous
 62
     3
100
AcDbLine
 10
221.086697710881
 20
176.054867868907
 30
0.0
 11
221.990385492317
 21
176.054867868907
 31
0.0
  0
LINE
  5
1BA
330
1F
100
AcDbEntity
  8
1
  6
Continuous
 62
     3
100
AcDbLine
 10
220.336697710881
 20
176.054873996236
 30
0.0
 11
220.336697710881
 21
174.155141666797
 31
0.0
  0
LINE
  5
1BB
330
1F
100
AcDbEntity
  8
1
  6
Continuous
 62
     3
100
AcDbLine
 10
205.336697710881
 20
176.054856700397
 30
0.0
 11
205.336697710881
 21
174.155141666797
 31
0.0
  0
LINE
  5
1BC
330
1F
100
AcDbEntity
  8
1
  6
Continuous
 62
     3
100
AcDbLine
 10
205.336697710881
 20
170.154867867517
 30
0.0
 11
205.886697710881
 21
170.154867867517
 31
0.0
  0
ARC
  5
1BD
330
1F
100
AcDbEntity
  8
1
  6
Continuous
 62
     3
100
AcDbCircle
 10
321.434669358153
 20
217.155141665406
 30
0.0
 40
1.0
100
AcDbArc
 50
90.0
 51
180.0
  0
ARC
  5
1BE
330
1F
100
AcDbEntity
  8
1
  6
Continuous
 62
     3
100
AcDbCircle
 10
321.434669358153
 20
177.155142061185
 30
0.0
 40
1.0
100
AcDbArc
 50
180.0
 51
270.000022676467
  0
ARC
  5
1BF
330
1F
100
AcDbEntity
  8
1
  6
Continuous
 62
     3
100
AcDbCircle
 10
345.984667546058
 20
171.613029583239
 30
0.0
 40
0.5
100
AcDbArc
 50
0.0
 51
180.0
  0
ARC
  5
1C0
330
1F
100
AcDbEntity
  8
1
  6
Continuous
 62
     3
100
AcDbCircle
 10
353.334668236464
 20
170.655141666825
 30
0.0
 40
0.5
100
AcDbArc
 50
269.999999996678
 51
0.00005976259193
  0
ARC
  5
1C1
330
1F
100
AcDbEntity
  8
1
  6
Continuous
 62
     3
100
AcDbCircle
 10
352.834663542718
 20
177.15515191607
 30
0.0
 40
1.0
100
AcDbArc
 50
270.0
 51
0.00010021031872
  0
ARC
  5
1C2
330
1F
100
AcDbEntity
  8
1
  6
Continuous
 62
     3
100
AcDbCircle
 10
228.836697710881
 20
213.155141665406
 30
0.0
 40
5.0
100
AcDbArc
 50
0.0
 51
90.0
  0
ARC
  5
1C3
330
1F
100
AcDbEntity
  8
1
  6
Continuous
 62
     3
100
AcDbCircle
 10
196.836696520062
 20
213.155141665406
 30
0.0
 40
5.0
100
AcDbArc
 50
90.0
 51
179.999986354208
  0
ARC
  5
1C4
330
1F
100
AcDbEntity
  8
1
  6
Continuous
 62
     3
100
AcDbCircle
 10
196.836688898819
 20
181.155152579166
 30
0.0
 40
5.000000000000142
100
AcDbArc
 50
179.9999863542197
 51
269.9999830996701
  0
ARC
  5
1C5
330
1F
100
AcDbEntity
  8
1
  6
Continuous
 62
     3
100
AcDbCircle
 10
228.836697710881
 20
181.155143140239
 30
0.0
 40
5.000000000000218
100
AcDbArc
 50
269.9999830996701
 51
0.0
  0
ARC
  5
1C6
330
1F
100
AcDbEntity
  8
1
  6
Continuous
 62
     3
100
AcDbCircle
 10
352.834675044719
 20
217.155141665406
 30
0.0
 40
1.0
100
AcDbArc
 50
0.0
 51
90.0
  0
ARC
  5
1C7
330
1F
100
AcDbEntity
  8
1
  6
Continuous
 62
     3
100
AcDbCircle
 10
297.434669358153
 20
196.155141665406
 30
0.0
 40
1.500000000000078
100
AcDbArc
 50
228.1896851042241
 51
270.0
  0
ARC
  5
1C8
330
1F
100
AcDbEntity
  8
1
  6
Continuous
 62
     3
100
AcDbCircle
 10
297.434669358153
 20
198.155141665406
 30
0.0
 40
1.5
100
AcDbArc
 50
90.0
 51
131.8103148957759
  0
ARC
  5
1C9
330
1F
100
AcDbEntity
  8
1
  6
Continuous
 62
     2
100
AcDbCircle
 10
197.336697710881
 20
212.655141665406
 30
0.0
 40
1.5
100
AcDbArc
 50
90.0
 51
0.0
  0
ARC
  5
1CA
330
1F
100
AcDbEntity
  8
1
  6
Continuous
 62
     2
100
AcDbCircle
 10
228.336697710881
 20
212.655141665406
 30
0.0
 40
1.5
100
AcDbArc
 50
90.0
 51
0.0
  0
ARC
  5
1CB
330
1F
100
AcDbEntity
  8
1
  6
Continuous
 62
     2
100
AcDbCircle
 10
228.336697710881
 20
181.655141665406
 30
0.0
 40
1.5
100
AcDbArc
 50
90.0
 51
0.0
  0
ARC
  5
1CC
330
1F
100
AcDbEntity
  8
1
  6
Continuous
 62
     2
100
AcDbCircle
 10
197.336697710881
 20
181.655141665406
 30
0.0
 40
1.5
100
AcDbArc
 50
90.0
 51
0.0
  0
ARC
  5
1CD
330
1F
100
AcDbEntity
  8
1
  6
Continuous
 62
     3
100
AcDbCircle
 10
212.836697683624
 20
197.155141636405
 30
0.0
 40
2.5
100
AcDbArc
 50
270.0000006246842
 51
0.0
  0
ARC
  5
1CE
330
1F
100
AcDbEntity
  8
1
  6
Continuous
 62
     3
100
AcDbCircle
 10
212.836697683624
 20
197.155141636405
 30
0.0
 40
2.5
100
AcDbArc
 50
0.0
 51
270.0000006246842
  0
ARC
  5
1CF
330
1F
100
AcDbEntity
  8
1
  6
Continuous
 62
     3
100
AcDbCircle
 10
212.836697710881
 20
197.155141665406
 30
0.0
 40
25.49999999232309
100
AcDbArc
 50
34.8743266388046
 51
55.1256733551979
  0
ARC
  5
1D0
330
1F
100
AcDbEntity
  8
1
  6
Continuous
 62
     3
100
AcDbCircle
 10
212.836697701785
 20
197.155141665198
 30
0.0
 40
25.49999999261266
100
AcDbArc
 50
124.8743266449214
 51
145.1256733610761
  0
ARC
  5
1D1
330
1F
100
AcDbEntity
  8
1
  6
Continuous
 62
     3
100
AcDbCircle
 10
212.836697683624
 20
197.155141636405
 30
0.0
 40
25.49999996837177
100
AcDbArc
 50
214.8743266318614
 51
235.1256733670054
  0
ARC
  5
1D2
330
1F
100
AcDbEntity
  8
1
  6
Continuous
 62
     3
100
AcDbCircle
 10
205.294723820224
 20
204.697115544869
 30
0.0
 40
36.03157465933678
100
AcDbArc
 50
307.9023539913243
 51
322.097646009802
  0
ARC
  5
1D3
330
1F
100
AcDbEntity
  8
11
  6
Continuous
 62
     3
100
AcDbCircle
 10
204.586697710881
 20
175.554867868907
 30
0.0
 40
0.5
100
AcDbArc
 50
0.0
 51
90.0
  0
ARC
  5
1D4
330
1F
100
AcDbEntity
  8
11
  6
Continuous
 62
     3
100
AcDbCircle
 10
221.086697710881
 20
175.554867868907
 30
0.0
 40
0.5
100
AcDbArc
 50
90.0
 51
180.0
  0
CIRCLE
  5
1D5
330
1F
100
AcDbEntity
  8
1
  6
Continuous
 62
     3
100
AcDbCircle
 10
212.836697710881
 20
197.155141665406
 30
0.0
 40
4.5
  0
CIRCLE
  5
1D6
330
1F
100
AcDbEntity
  8
1
  6
Continuous
 62
     3
100
AcDbCircle
 10
212.836697706229
 20
197.155141659287
 30
0.0
 40
10.45000000000002
  0
CIRCLE
  5
1D7
330
1F
100
AcDbEntity
  8
1
  6
Continuous
 62
     3
100
AcDbCircle
 10
212.836697683624
 20
197.155141636405
 30
0.0
 40
11.0
  0
CIRCLE
  5
1D8
330
1F
100
AcDbEntity
  8
1
  6
Continuous
 62
     3
100
AcDbCircle
 10
212.836697706229
 20
197.155141659287
 30
0.0
 40
11.5
  0
CIRCLE
  5
1D9
330
1F
100
AcDbEntity
  8
1
  6
Continuous
 62
     3
100
AcDbCircle
 10
212.836697706229
 20
197.155141659287
 30
0.0
 40
11.80000000000001
  0
CIRCLE
  5
1DA
330
1F
100
AcDbEntity
  8
1
  6
Continuous
 62
     3
100
AcDbCircle
 10
212.836697706229
 20
197.155141659287
 30
0.0
 40
18.60000000000002
  0
CIRCLE
  5
1DB
330
1F
100
AcDbEntity
  8
1
  6
Continuous
 62
     3
100
AcDbCircle
 10
212.836697706229
 20
197.155141659287
 30
0.0
 40
19.0
  0
CIRCLE
  5
1DC
330
1F
100
AcDbEntity
  8
1
  6
Continuous
 62
     3
100
AcDbCircle
 10
228.336697710881
 20
212.655141665406
 30
0.0
 40
1.0
  0
CIRCLE
  5
1DD
330
1F
100
AcDbEntity
  8
1
  6
Continuous
 62
     3
100
AcDbCircle
 10
197.351059202896
 20
181.669503157421
 30
0.0
 40
0.9999999999989768
  0
CIRCLE
  5
1DE
330
1F
100
AcDbEntity
  8
4
  6
Continuous
 62
     3
100
AcDbCircle
 10
228.336697710881
 20
181.655141665406
 30
0.0
 40
1.0
  0
CIRCLE
  5
1DF
330
1F
100
AcDbEntity
  8
4
  6
Continuous
 62
     3
100
AcDbCircle
 10
197.336697710881
 20
212.655141665406
 30
0.0
 40
1.000010000000003
  0
CIRCLE
  5
1E0
330
1F
100
AcDbEntity
  8
1
  6
Continuous
 62
     3
100
AcDbCircle
 10
212.836697710881
 20
197.155141665406
 30
0.0
 40
2.11803398875
  0
LEADER
  5
1E1
330
1F
100
AcDbEntity
  8
1
  6
Continuous
 62
     2
100
AcDbLeader
  3
Standard
 71
     0
 76
     2
 10
220.12220899781
 20
153.823927119889
 30
0.0
 10
207.873944639387
 20
153.823927119889
 30
0.0
  0
LEADER
  5
1E2
330
1F
100
AcDbEntity
  8
1
  6
Continuous
 62
     2
100
AcDbLeader
  3
Standard
 71
     0
 76
     3
 10
228.336697710881
 20
181.655141665406
 30
0.0
 10
232.054621151652
 20
153.217550527038
 30
0.0
 10
269.2113484089
 20
153.217550527038
 30
0.0
  0
MTEXT
  5
1E4
330
1F
100
AcDbEntity
  8
1
 62
     2
100
AcDbMText
 10
240.553845660544
 20
155.743393514909
 30
0.0
 40
3.5
 41
0.0
 71
     7
 72
     1
  1
4\U+00d7M3\U+00d70.5
  7
CONVERTER_11
 73
     1
 44
1.0
  0
MTEXT
  5
1E6
330
1F
100
AcDbEntity
  8
1
 62
     2
100
AcDbMText
 10
253.206950165988
 20
150.725952084008
 30
0.0
 40
3.5
 41
0.0
 71
     5
 72
     1
  1
\U+6df1\U+3055(\U+ff24\U+ff25\U+ff30\U+ff34\U+ff28\U+ff09\U+30003.5\U+ff2d\U+ff29\U+ff2e.
  7
CONVERTER_12
 11
0.999999999855349
 21
1.700888637618670E-5
 31
0.0
 73
     1
 44
1.0
  0
MTEXT
  5
1E8
330
1F
100
AcDbEntity
  8
1
 62
     2
100
AcDbMText
 10
216.521263055627
 20
157.004258509718
 30
0.0
 40
1.68
 41
0.0
 71
     5
 72
     1
  1
5
  7
CONVERTER_13
 73
     1
 44
1.0
  0
MTEXT
  5
1E9
330
1F
100
AcDbEntity
  8
1
 62
     2
100
AcDbMText
 10
214.467100325163
 20
156.987836404764
 30
0.0
 40
1.68
 41
0.0
 71
     5
 72
     1
  1
4
  7
CONVERTER_13
 73
     1
 44
1.0
  0
MTEXT
  5
1EB
330
1F
100
AcDbEntity
  8
1
 62
     2
100
AcDbMText
 10
201.121801063945
 20
154.979488282833
 30
0.0
 40
2.0
 41
0.0
 71
     5
 72
     1
  1
PIN NO.
  7
CONVERTER_14
 73
     1
 44
1.0
  0
MTEXT
  5
1ED
330
1F
100
AcDbEntity
  8
1
 62
     2
100
AcDbMText
 10
199.54434479355
 20
158.63337092853
 30
0.0
 40
3.0
 41
0.0
 71
     5
 72
     1
  1
\U+30d4\U+30f3\U+756a\U+53f7
  7
CONVERTER_15
 73
     1
 44
1.0
  0
MTEXT
  5
1EE
330
1F
100
AcDbEntity
  8
1
 62
     2
100
AcDbMText
 10
212.155409130648
 20
157.080304052544
 30
0.0
 40
1.68
 41
0.0
 71
     5
 72
     1
  1
3
  7
CONVERTER_13
 73
     1
 44
1.0
  0
MTEXT
  5
1EF
330
1F
100
AcDbEntity
  8
1
 62
     2
100
AcDbMText
 10
209.66223501491
 20
157.060429573253
 30
0.0
 40
1.68
 41
0.0
 71
     5
 72
     1
  1
2
  7
CONVERTER_13
 73
     1
 44
1.0
  0
MTEXT
  5
1F0
330
1F
100
AcDbEntity
  8
1
 62
     2
100
AcDbMText
 10
207.169060899172
 20
157.060429573253
 30
0.0
 40
1.68
 41
0.0
 71
     5
 72
     1
  1
1
  7
CONVERTER_13
 73
     1
 44
1.0
  0
MTEXT
  5
1F1
330
1F
100
AcDbEntity
  8
1
 62
     2
100
AcDbMText
 10
218.575425786091
 20
157.004258509718
 30
0.0
 40
1.68
 41
0.0
 71
     5
 72
     1
  1
6
  7
CONVERTER_13
 73
     1
 44
1.0
  0
DIMENSION
  5
1FC
330
1F
100
AcDbEntity
  8
0
100
AcDbDimension
  2
*D1
 10
191.836696520062
 20
234.155141665406
 30
0.0
 11
212.878251445806
 21
237.355141665406
 31
0.0
 70
    32
  1
(42)
 71
     5
 42
-1.0
 53
0.00013888888889
  3
ME10_DIM_10
100
AcDbAlignedDimension
 13
233.836697710881
 23
213.155141665406
 33
0.0
 14
191.836696520062
 24
213.155142856226
 34
0.0
100
AcDbRotatedDimension
  0
DIMENSION
  5
207
330
1F
100
AcDbEntity
  8
1
100
AcDbDimension
  2
*D2
 10
188.534319463589
 20
176.155152579166
 30
0.0
 11
184.934319463589
 21
172.232471831066
 31
0.0
 70
    32
  1
※(8)
 71
     5
 42
-1.0
 53
90.0
  3
ME10_DIM_11
100
AcDbAlignedDimension
 13
205.836697710881
 23
168.155141665948
 33
0.0
 14
196.836687423987
 24
176.155152579166
 34
0.0
 50
90.0
100
AcDbRotatedDimension
  0
DIMENSION
  5
212
330
1F
100
AcDbEntity
  8
1
100
AcDbDimension
  2
*D3
 10
197.336697710881
 20
226.2813796956664
 30
0.0
 11
212.810974378429
 21
229.881379695667
 31
0.0
 70
    32
  1
31
 71
     5
 42
-1.0
 53
0.00013888888889
  3
ME10_DIM_12
100
AcDbAlignedDimension
 13
228.336697710881
 23
214.605141665406
 33
0.0
 14
197.336697710881
 24
214.605141665407
 34
0.0
100
AcDbRotatedDimension
  0
DIMENSION
  5
21D
330
1F
100
AcDbEntity
  8
1
100
AcDbDimension
  2
*D4
 10
247.7393584763503
 20
212.655141665406
 30
0.0
 11
244.13935847635
 21
198.886629472015
 31
0.0
 70
    32
  1
31
 71
     5
 42
-1.0
 53
90.0
  3
ME10_DIM_13
100
AcDbAlignedDimension
 13
230.286697710881
 23
181.655141665406
 33
0.0
 14
230.286697710881
 24
212.655141665406
 34
0.0
 50
90.0
100
AcDbRotatedDimension
  0
DIMENSION
  5
228
330
1F
100
AcDbEntity
  8
1
100
AcDbDimension
  2
*D5
 10
296.434669358153
 20
255.147626609894
 30
0.0
 11
308.806827777903
 21
258.747626609894
 31
0.0
 70
    32
  1
24
 71
     5
 42
-1.0
 53
0.00013888888889
  3
ME10_DIM_14
100
AcDbAlignedDimension
 13
320.434669358153
 23
216.786133374975
 33
0.0
 14
296.434669358153
 24
199.273175654156
 34
0.0
100
AcDbRotatedDimension
  0
DIMENSION
  5
233
330
1F
100
AcDbEntity
  8
1
100
AcDbDimension
  2
*D6
 10
286.9677064467467
 20
194.655141665406
 30
0.0
 11
282.54103978008
 21
196.759033324997
 31
0.0
 70
    32
  1
φ5
 71
     5
 42
-1.0
 53
90.0
  3
ME10_DIM_15
100
AcDbAlignedDimension
 13
297.434669358153
 23
199.655141665406
 33
0.0
 14
297.434669358153
 24
194.655141665406
 34
0.0
 50
90.0
100
AcDbRotatedDimension
  0
DIMENSION
  5
23E
330
1F
100
AcDbEntity
  8
1
100
AcDbDimension
  2
*D7
 10
353.834675044719
 20
255.147626609894
 30
0.0
 11
336.9068280761
 21
258.747626609894
 31
0.0
 70
    32
  1
34MAX.
 71
     5
 42
-1.0
 53
0.00013888888889
  3
ME10_DIM_16
100
AcDbAlignedDimension
 13
320.434669358153
 23
217.155141665406
 33
0.0
 14
353.834675044719
 24
217.155141665406
 34
0.0
100
AcDbRotatedDimension
  0
DIMENSION
  5
249
330
1F
100
AcDbEntity
  8
1
100
AcDbDimension
  2
*D8
 10
272.4346693581527
 20
208.155141665406
 30
0.0
 11
268.008002691486
 21
196.299079867129
 31
0.0
 70
    32
  1
φ22
 71
     5
 42
-1.0
 53
90.0
  3
ME10_DIM_17
100
AcDbAlignedDimension
 13
318.434669358153
 23
186.155141665406
 33
0.0
 14
318.434669358153
 24
208.155141665406
 34
0.0
 50
90.0
100
AcDbRotatedDimension
  0
DIMENSION
  5
254
330
1F
100
AcDbEntity
  8
1
100
AcDbDimension
  2
*D9
 10
318.434669358153
 20
240.115171620104
 30
0.0
 11
327.480565176233
 21
243.715171620104
 31
0.0
 70
    32
  1
2
 71
     5
 42
-1.0
 53
0.00013888888889
  3
ME10_DIM_18
100
AcDbAlignedDimension
 13
320.434669358153
 23
217.155141665406
 33
0.0
 14
318.434669358153
 24
208.155141665406
 34
0.0
100
AcDbRotatedDimension
  0
DIMENSION
  5
25F
330
1F
100
AcDbEntity
  8
1
100
AcDbDimension
  2
*D10
 10
254.995936111397
 20
176.155143140239
 30
0.0
 11
251.395936111397
 21
164.186178235787
 31
0.0
 70
    32
  1
(6)
 71
     5
 42
-1.0
 53
90.0
  3
ME10_DIM_19
100
AcDbAlignedDimension
 13
219.786697710881
 23
169.905141665948
 33
0.0
 14
228.836696236049
 24
176.155143140239
 34
0.0
 50
90.0
100
AcDbRotatedDimension
  0
DIMENSION
  5
26A
330
1F
100
AcDbEntity
  8
1
100
AcDbDimension
  2
*D11
 10
257.836697710881
 20
218.155141665406
 30
0.0
 11
254.236697710881
 21
196.821607058791
 31
0.0
 70
    32
  1
(42)
 71
     5
 42
-1.0
 53
90.0
  3
ME10_DIM_20
100
AcDbAlignedDimension
 13
228.836696236049
 23
176.155143140239
 33
0.0
 14
228.836697710881
 24
218.155141665406
 34
0.0
 50
90.0
100
AcDbRotatedDimension
  0
HATCH
  5
26B
330
1F
100
AcDbEntity
  8
1
  6
Continuous
 62
     2
100
AcDbHatch
 10
0.0
 20
0.0
 30
0.0
210
0.0
220
0.0
230
1.0
  2
SOLID
 70
     1
 71
     1
 91
        1
 92
        1
 93
        3
 72
     1
 10
216.92220899781
 20
153.402639127609
 11
220.12220899781
 21
153.823927119889
 72
     1
 10
220.12220899781
 20
153.823927119889
 11
216.92220899781
 21
154.245215112169
 72
     1
 10
216.92220899781
 20
154.245215112169
 11
216.92220899781
 21
153.402639127609
 97
        3
330
121
330
122
330
123
 75
     0
 76
     1
 98
        1
 10
0.0
 20
0.0
  0
HATCH
  5
26C
330
1F
100
AcDbEntity
  8
1
  6
Continuous
 62
     2
100
AcDbHatch
 10
0.0
 20
0.0
 30
0.0
210
0.0
220
0.0
230
1.0
  2
SOLID
 70
     1
 71
     1
 91
        1
 92
        1
 93
        3
 72
     1
 10
229.169267530707
 20
178.536758900646
 11
228.336697710881
 21
181.655141665406
 72
     1
 10
228.336697710881
 20
181.655141665406
 11
228.3338015526
 21
178.427530290921
 72
     1
 10
228.3338015526
 20
178.427530290921
 11
229.169267530707
 21
178.536758900646
 97
        3
330
11E
330
11F
330
120
 75
     0
 76
     1
 98
        1
 10
0.0
 20
0.0
  0
ENDSEC
  0
SECTION
  2
OBJECTS
  0
DICTIONARY
  5
C
330
0
100
AcDbDictionary
281
     1
  3
ACAD_GROUP
350
D
  3
ACAD_LAYOUT
350
1A
  3
ACAD_MATERIAL
350
3B
  3
ACAD_MLEADERSTYLE
350
26F
  3
ACAD_MLINESTYLE
350
17
  3
ACAD_PLOTSETTINGS
350
19
  3
ACAD_PLOTSTYLENAME
350
E
  3
ACAD_VISUALSTYLE
350
2A
  3
AcDbVariableDictionary
350
26D
  0
DICTIONARY
  5
D
102
{ACAD_REACTORS
330
C
102
}
330
C
100
AcDbDictionary
281
     1
  0
DICTIONARY
  5
1A
102
{ACAD_REACTORS
330
C
102
}
330
C
100
AcDbDictionary
281
     1
  3
Layout1
350
1E
  3
Layout2
350
26
  3
Model
350
22
  0
DICTIONARY
  5
3B
102
{ACAD_REACTORS
330
C
102
}
330
C
100
AcDbDictionary
281
     1
  3
ByBlock
350
3D
  3
ByLayer
350
3C
  3
Global
350
3E
  0
DICTIONARY
  5
26F
102
{ACAD_REACTORS
330
C
102
}
330
C
100
AcDbDictionary
281
     1
  0
DICTIONARY
  5
17
102
{ACAD_REACTORS
330
C
102
}
330
C
100
AcDbDictionary
281
     1
  3
Standard
350
18
  0
DICTIONARY
  5
19
102
{ACAD_REACTORS
330
C
102
}
330
C
100
AcDbDictionary
281
     1
  0
ACDBDICTIONARYWDFLT
  5
E
102
{ACAD_REACTORS
330
C
102
}
330
C
100
AcDbDictionary
281
     1
  3
Normal
350
F
100
AcDbDictionaryWithDefault
340
F
  0
DICTIONARY
  5
2A
102
{ACAD_REACTORS
330
C
102
}
330
C
100
AcDbDictionary
281
     1
  3
2dWireframe
350
2F
  3
3D Hidden
350
31
  3
3dWireframe
350
30
  3
Basic
350
32
  3
Brighten
350
36
  3
ColorChange
350
3A
  3
Conceptual
350
34
  3
Dim
350
35
  3
Facepattern
350
39
  3
Flat
350
2B
  3
FlatWithEdges
350
2C
  3
Gouraud
350
2D
  3
GouraudWithEdges
350
2E
  3
Linepattern
350
38
  3
Realistic
350
33
  3
Thicken
350
37
  0
DICTIONARY
  5
26D
102
{ACAD_REACTORS
330
C
102
}
330
C
100
AcDbDictionary
281
     1
  3
DIMASSOC
350
270
  3
HIDETEXT
350
271
  0
LAYOUT
  5
1E
102
{ACAD_REACTORS
330
1A
102
}
330
1A
100
AcDbPlotSettings
  1

  2
none_device
  4

  6

 40
0.0
 41
0.0
 42
0.0
 43
0.0
 44
0.0
 45
0.0
 46
0.0
 47
0.0
 48
0.0
 49
0.0
140
0.0
141
0.0
142
1.0
143
1.0
 70
   688
 72
     0
 73
     0
 74
     5
  7

 75
    16
147
1.0
148
0.0
149
0.0
100
AcDbLayout
  1
Layout1
 70
     1
 71
     1
 10
0.0
 20
0.0
 11
12.0
 21
9.0
 12
0.0
 22
0.0
 32
0.0
 14
1.00000000000000E+20
 24
1.00000000000000E+20
 34
1.00000000000000E+20
 15
-1.00000000000000E+20
 25
-1.00000000000000E+20
 35
-1.00000000000000E+20
146
0.0
 13
0.0
 23
0.0
 33
0.0
 16
1.0
 26
0.0
 36
0.0
 17
0.0
 27
1.0
 37
0.0
 76
     0
330
1B
  0
LAYOUT
  5
26
102
{ACAD_REACTORS
330
1A
102
}
330
1A
100
AcDbPlotSettings
  1

  2
none_device
  4

  6

 40
0.0
 41
0.0
 42
0.0
 43
0.0
 44
0.0
 45
0.0
 46
0.0
 47
0.0
 48
0.0
 49
0.0
140
0.0
141
0.0
142
1.0
143
1.0
 70
   688
 72
     0
 73
     0
 74
     5
  7

 75
    16
147
1.0
148
0.0
149
0.0
100
AcDbLayout
  1
Layout2
 70
     1
 71
     2
 10
0.0
 20
0.0
 11
0.0
 21
0.0
 12
0.0
 22
0.0
 32
0.0
 14
0.0
 24
0.0
 34
0.0
 15
0.0
 25
0.0
 35
0.0
146
0.0
 13
0.0
 23
0.0
 33
0.0
 16
1.0
 26
0.0
 36
0.0
 17
0.0
 27
1.0
 37
0.0
 76
     0
330
23
  0
LAYOUT
  5
22
102
{ACAD_REACTORS
330
1A
102
}
330
1A
100
AcDbPlotSettings
  1

  2
none_device
  4

  6

 40
0.0
 41
0.0
 42
0.0
 43
0.0
 44
0.0
 45
0.0
 46
0.0
 47
0.0
 48
0.0
 49
0.0
140
0.0
141
0.0
142
1.0
143
1.0
 70
  1712
 72
     0
 73
     0
 74
     0
  7

 75
     0
147
1.0
148
0.0
149
0.0
100
AcDbLayout
  1
Model
 70
     1
 71
     0
 10
0.0
 20
0.0
 11
12.0
 21
9.0
 12
0.0
 22
0.0
 32
0.0
 14
183.334319463589
 24
148.9756904450665
 34
0.0
 15
360.261434046823
 25
260.3476437839291
 35
0.0
146
0.0
 13
0.0
 23
0.0
 33
0.0
 16
1.0
 26
0.0
 36
0.0
 17
0.0
 27
1.0
 37
0.0
 76
     0
330
1F
331
29
  0
MATERIAL
  5
3D
102
{ACAD_REACTORS
330
3B
102
}
102
{ACAD_XDICTIONARY
360
294
102
}
330
3B
100
AcDbMaterial
  1
ByBlock
  0
MATERIAL
  5
3C
102
{ACAD_REACTORS
330
3B
102
}
102
{ACAD_XDICTIONARY
360
292
102
}
330
3B
100
AcDbMaterial
  1
ByLayer
  0
MATERIAL
  5
3E
102
{ACAD_REACTORS
330
3B
102
}
102
{ACAD_XDICTIONARY
360
296
102
}
330
3B
100
AcDbMaterial
  1
Global
  0
MLINESTYLE
  5
18
102
{ACAD_REACTORS
330
17
102
}
330
17
100
AcDbMlineStyle
  2
Standard
 70
     0
  3

 62
   256
 51
90.0
 52
90.0
 71
     2
 49
0.5
 62
   256
  6
BYLAYER
 49
-0.5
 62
   256
  6
BYLAYER
  0
ACDBPLACEHOLDER
  5
F
102
{ACAD_REACTORS
330
E
102
}
330
E
  0
VISUALSTYLE
  5
2F
102
{ACAD_REACTORS
330
2A
102
}
102
{ACAD_XDICTIONARY
360
27A
102
}
330
2A
100
AcDbVisualStyle
  2
2dWireframe
 70
     4
 71
     0
 72
     2
 73
     0
 90
        0
 40
-0.6
 41
-30.0
 62
     5
 63
     7
 74
     1
 91
        4
 64
     7
 65
   257
 75
     1
175
     1
 42
1.0
 92
        0
 66
   257
 43
1.0
 76
     1
 77
     6
 78
     2
 67
     7
 79
     5
170
     0
171
     0
290
     0
174
     0
 93
        1
 44
0.0
173
     0
291
     0
 45
0.0
1001
ACAD
1000
AcDbSavedByObjectVersion
1070
     0
  0
VISUALSTYLE
  5
31
102
{ACAD_REACTORS
330
2A
102
}
102
{ACAD_XDICTIONARY
360
27E
102
}
330
2A
100
AcDbVisualStyle
  2
3D Hidden
 70
     6
 71
     1
 72
     2
 73
     2
 90
        0
 40
-0.6
 41
-30.0
 62
     5
 63
     7
 74
     2
 91
        2
 64
     7
 65
   257
 75
     2
175
     1
 42
40.0
 92
        0
 66
   257
 43
1.0
 76
     1
 77
     6
 78
     2
 67
     7
 79
     3
170
     0
171
     0
290
     0
174
     0
 93
        1
 44
0.0
173
     0
291
     0
 45
0.0
1001
ACAD
1000
AcDbSavedByObjectVersion
1070
     0
  0
VISUALSTYLE
  5
30
102
{ACAD_REACTORS
330
2A
102
}
102
{ACAD_XDICTIONARY
360
27C
102
}
330
2A
100
AcDbVisualStyle
  2
3dWireframe
 70
     5
 71
     0
 72
     2
 73
     0
 90
        0
 40
-0.6
 41
-30.0
 62
     5
 63
     7
 74
     1
 91
        4
 64
     7
 65
   257
 75
     1
175
     1
 42
1.0
 92
        0
 66
   257
 43
1.0
 76
     1
 77
     6
 78
     2
 67
     7
 79
     5
170
     0
171
     0
290
     0
174
     0
 93
        1
 44
0.0
173
     0
291
     0
 45
0.0
1001
ACAD
1000
AcDbSavedByObjectVersion
1070
     0
  0
VISUALSTYLE
  5
32
102
{ACAD_REACTORS
330
2A
102
}
102
{ACAD_XDICTIONARY
360
280
102
}
330
2A
100
AcDbVisualStyle
  2
Basic
 70
     7
 71
     1
 72
     0
 73
     1
 90
        0
 40
-0.6
 41
-30.0
 62
     5
 63
     7
 74
     0
 91
        4
 64
     7
 65
   257
 75
     1
175
     1
 42
1.0
 92
        8
 66
     7
 43
1.0
 76
     1
 77
     6
 78
     2
 67
     7
 79
     5
170
     0
171
     0
290
     0
174
     0
 93
        1
 44
0.0
173
     0
291
     1
 45
0.0
1001
ACAD
1000
AcDbSavedByObjectVersion
1070
     0
  0
VISUALSTYLE
  5
36
102
{ACAD_REACTORS
330
2A
102
}
102
{ACAD_XDICTIONARY
360
288
102
}
330
2A
100
AcDbVisualStyle
  2
Brighten
 70
    12
 71
     2
 72
     2
 73
     0
 90
        0
 40
-0.6
 41
-30.0
 62
     5
 63
     7
 74
     1
 91
        4
 64
     7
 65
   257
 75
     1
175
     1
 42
1.0
 92
        8
 66
     7
 43
1.0
 76
     1
 77
     6
 78
     2
 67
     7
 79
     5
170
     0
171
     0
290
     0
174
     0
 93
        1
 44
50.0
173
     0
291
     1
 45
0.0
1001
ACAD
1000
AcDbSavedByObjectVersion
1070
     0
  0
VISUALSTYLE
  5
3A
102
{ACAD_REACTORS
330
2A
102
}
102
{ACAD_XDICTIONARY
360
290
102
}
330
2A
100
AcDbVisualStyle
  2
ColorChange
 70
    16
 71
     2
 72
     2
 73
     3
 90
        0
 40
-0.6
 41
-30.0
 62
     5
 63
     8
 74
     1
 91
        4
 64
     7
 65
   257
 75
     1
175
     1
 42
1.0
 92
        8
 66
     8
 43
1.0
 76
     1
 77
     6
 78
     2
 67
     7
 79
     5
170
     0
171
     0
290
     0
174
     0
 93
        1
 44
0.0
173
     0
291
     1
 45
0.0
1001
ACAD
1000
AcDbSavedByObjectVersion
1070
     0
  0
VISUALSTYLE
  5
34
102
{ACAD_REACTORS
330
2A
102
}
102
{ACAD_XDICTIONARY
360
284
102
}
330
2A
100
AcDbVisualStyle
  2
Conceptual
 70
     9
 71
     3
 72
     2
 73
     0
 90
        0
 40
-0.6
 41
-30.0
 62
     5
 63
     7
 74
     2
 91
        2
 64
     7
 65
   257
 75
     1
175
     1
 42
40.0
 92
        8
 66
     7
 43
1.0
 76
     1
 77
     6
 78
     2
 67
     7
 79
     3
170
     0
171
     0
290
     0
174
     0
 93
        1
 44
0.0
173
     0
291
     0
 45
0.0
1001
ACAD
1000
AcDbSavedByObjectVersion
1070
     0
  0
VISUALSTYLE
  5
35
102
{ACAD_REACTORS
330
2A
102
}
102
{ACAD_XDICTIONARY
360
286
102
}
330
2A
100
AcDbVisualStyle
  2
Dim
 70
    11
 71
     2
 72
     2
 73
     0
 90
        0
 40
-0.6
 41
-30.0
 62
     5
 63
     7
 74
     1
 91
        4
 64
     7
 65
   257
 75
     1
175
     1
 42
1.0
 92
        8
 66
     7
 43
1.0
 76
     1
 77
     6
 78
     2
 67
     7
 79
     5
170
     0
171
     0
290
     0
174
     0
 93
        1
 44
-50.0
173
     0
291
     1
 45
0.0
1001
ACAD
1000
AcDbSavedByObjectVersion
1070
     0
  0
VISUALSTYLE
  5
39
102
{ACAD_REACTORS
330
2A
102
}
102
{ACAD_XDICTIONARY
360
28E
102
}
330
2A
100
AcDbVisualStyle
  2
Facepattern
 70
    15
 71
     2
 72
     2
 73
     0
 90
        0
 40
-0.6
 41
-30.0
 62
     5
 63
     7
 74
     1
 91
        4
 64
     7
 65
   257
 75
     1
175
     1
 42
1.0
 92
        8
 66
     7
 43
1.0
 76
     1
 77
     6
 78
     2
 67
     7
 79
     5
170
     0
171
     0
290
     0
174
     0
 93
        1
 44
0.0
173
     0
291
     1
 45
0.0
1001
ACAD
1000
AcDbSavedByObjectVersion
1070
     0
  0
VISUALSTYLE
  5
2B
102
{ACAD_REACTORS
330
2A
102
}
102
{ACAD_XDICTIONARY
360
272
102
}
330
2A
100
AcDbVisualStyle
  2
Flat
 70
     0
 71
     2
 72
     1
 73
     1
 90
        2
 40
-0.6
 41
30.0
 62
     5
 63
     7
 74
     0
 91
        4
 64
     7
 65
   257
 75
     1
175
     1
 42
1.0
 92
        8
 66
     7
 43
1.0
 76
     1
 77
     6
 78
     2
 67
     7
 79
     5
170
     0
171
     0
290
     0
174
     0
 93
       13
 44
0.0
173
     0
291
     1
 45
0.0
1001
ACAD
1000
AcDbSavedByObjectVersion
1070
     0
  0
VISUALSTYLE
  5
2C
102
{ACAD_REACTORS
330
2A
102
}
102
{ACAD_XDICTIONARY
360
274
102
}
330
2A
100
AcDbVisualStyle
  2
FlatWithEdges
 70
     1
 71
     2
 72
     1
 73
     1
 90
        2
 40
-0.6
 41
30.0
 62
     5
 63
     7
 74
     1
 91
        4
 64
     7
 65
   257
 75
     1
175
     1
 42
1.0
 92
        0
 66
   257
 43
1.0
 76
     1
 77
     6
 78
     2
 67
     7
 79
     5
170
     0
171
     0
290
     0
174
     0
 93
       13
 44
0.0
173
     0
291
     1
 45
0.0
1001
ACAD
1000
AcDbSavedByObjectVersion
1070
     0
  0
VISUALSTYLE
  5
2D
102
{ACAD_REACTORS
330
2A
102
}
102
{ACAD_XDICTIONARY
360
276
102
}
330
2A
100
AcDbVisualStyle
  2
Gouraud
 70
     2
 71
     2
 72
     2
 73
     1
 90
        2
 40
-0.6
 41
30.0
 62
     5
 63
     7
 74
     0
 91
        4
 64
     7
 65
   257
 75
     1
175
     1
 42
1.0
 92
        0
 66
     7
 43
1.0
 76
     1
 77
     6
 78
     2
 67
     7
 79
     5
170
     0
171
     0
290
     0
174
     0
 93
       13
 44
0.0
173
     0
291
     1
 45
0.0
1001
ACAD
1000
AcDbSavedByObjectVersion
1070
     0
  0
VISUALSTYLE
  5
2E
102
{ACAD_REACTORS
330
2A
102
}
102
{ACAD_XDICTIONARY
360
278
102
}
330
2A
100
AcDbVisualStyle
  2
GouraudWithEdges
 70
     3
 71
     2
 72
     2
 73
     1
 90
        2
 40
-0.6
 41
30.0
 62
     5
 63
     7
 74
     1
 91
        4
 64
     7
 65
   257
 75
     1
175
     1
 42
1.0
 92
        0
 66
   257
 43
1.0
 76
     1
 77
     6
 78
     2
 67
     7
 79
     5
170
     0
171
     0
290
     0
174
     0
 93
       13
 44
0.0
173
     0
291
     1
 45
0.0
1001
ACAD
1000
AcDbSavedByObjectVersion
1070
     0
  0
VISUALSTYLE
  5
38
102
{ACAD_REACTORS
330
2A
102
}
102
{ACAD_XDICTIONARY
360
28C
102
}
330
2A
100
AcDbVisualStyle
  2
Linepattern
 70
    14
 71
     2
 72
     2
 73
     0
 90
        0
 40
-0.6
 41
-30.0
 62
     5
 63
     7
 74
     1
 91
        4
 64
     7
 65
   257
 75
     7
175
     7
 42
1.0
 92
        8
 66
     7
 43
1.0
 76
     1
 77
     6
 78
     2
 67
     7
 79
     5
170
     0
171
     0
290
     0
174
     0
 93
        1
 44
0.0
173
     0
291
     1
 45
0.0
1001
ACAD
1000
AcDbSavedByObjectVersion
1070
     0
  0
VISUALSTYLE
  5
33
102
{ACAD_REACTORS
330
2A
102
}
102
{ACAD_XDICTIONARY
360
282
102
}
330
2A
100
AcDbVisualStyle
  2
Realistic
 70
     8
 71
     2
 72
     2
 73
     0
 90
        0
 40
-0.6
 41
-30.0
 62
     5
 63
     7
 74
     1
 91
        0
 64
     7
 65
   257
 75
     1
175
     1
 42
1.0
 92
        8
 66
     8
 43
1.0
 76
     1
 77
     6
 78
     2
 67
     7
 79
     5
170
     0
171
     0
290
     0
174
     0
 93
       13
 44
0.0
173
     0
291
     0
 45
0.0
1001
ACAD
1000
AcDbSavedByObjectVersion
1070
     0
  0
VISUALSTYLE
  5
37
102
{ACAD_REACTORS
330
2A
102
}
102
{ACAD_XDICTIONARY
360
28A
102
}
330
2A
100
AcDbVisualStyle
  2
Thicken
 70
    13
 71
     2
 72
     2
 73
     0
 90
        0
 40
-0.6
 41
-30.0
 62
     5
 63
     7
 74
     1
 91
        4
 64
     7
 65
   257
 75
     1
175
     1
 42
1.0
 92
       12
 66
     7
 43
1.0
 76
     1
 77
     6
 78
     2
 67
     7
 79
     5
170
     0
171
     0
290
     0
174
     0
 93
        1
 44
0.0
173
     0
291
     1
 45
0.0
1001
ACAD
1000
AcDbSavedByObjectVersion
1070
     0
  0
DICTIONARYVAR
  5
270
102
{ACAD_REACTORS
330
26D
102
}
330
26D
100
DictionaryVariables
280
     0
  1
2
  0
DICTIONARYVAR
  5
271
102
{ACAD_REACTORS
330
26D
102
}
330
26D
100
DictionaryVariables
280
     0
  1
1
  0
DICTIONARY
  5
294
330
3D
100
AcDbDictionary
280
     1
281
     1
  3
ACAD_XREC_ROUNDTRIP
360
295
  0
DICTIONARY
  5
292
330
3C
100
AcDbDictionary
280
     1
281
     1
  3
ACAD_XREC_ROUNDTRIP
360
293
  0
DICTIONARY
  5
296
330
3E
100
AcDbDictionary
280
     1
281
     1
  3
ACAD_XREC_ROUNDTRIP
360
297
  0
DICTIONARY
  5
27A
330
2F
100
AcDbDictionary
280
     1
281
     1
  3
ACAD_XREC_ROUNDTRIP
360
27B
  0
DICTIONARY
  5
27E
330
31
100
AcDbDictionary
280
     1
281
     1
  3
ACAD_XREC_ROUNDTRIP
360
27F
  0
DICTIONARY
  5
27C
330
30
100
AcDbDictionary
280
     1
281
     1
  3
ACAD_XREC_ROUNDTRIP
360
27D
  0
DICTIONARY
  5
280
330
32
100
AcDbDictionary
280
     1
281
     1
  3
ACAD_XREC_ROUNDTRIP
360
281
  0
DICTIONARY
  5
288
330
36
100
AcDbDictionary
280
     1
281
     1
  3
ACAD_XREC_ROUNDTRIP
360
289
  0
DICTIONARY
  5
290
330
3A
100
AcDbDictionary
280
     1
281
     1
  3
ACAD_XREC_ROUNDTRIP
360
291
  0
DICTIONARY
  5
284
330
34
100
AcDbDictionary
280
     1
281
     1
  3
ACAD_XREC_ROUNDTRIP
360
285
  0
DICTIONARY
  5
286
330
35
100
AcDbDictionary
280
     1
281
     1
  3
ACAD_XREC_ROUNDTRIP
360
287
  0
DICTIONARY
  5
28E
330
39
100
AcDbDictionary
280
     1
281
     1
  3
ACAD_XREC_ROUNDTRIP
360
28F
  0
DICTIONARY
  5
272
330
2B
100
AcDbDictionary
280
     1
281
     1
  3
ACAD_XREC_ROUNDTRIP
360
273
  0
DICTIONARY
  5
274
330
2C
100
AcDbDictionary
280
     1
281
     1
  3
ACAD_XREC_ROUNDTRIP
360
275
  0
DICTIONARY
  5
276
330
2D
100
AcDbDictionary
280
     1
281
     1
  3
ACAD_XREC_ROUNDTRIP
360
277
  0
DICTIONARY
  5
278
330
2E
100
AcDbDictionary
280
     1
281
     1
  3
ACAD_XREC_ROUNDTRIP
360
279
  0
DICTIONARY
  5
28C
330
38
100
AcDbDictionary
280
     1
281
     1
  3
ACAD_XREC_ROUNDTRIP
360
28D
  0
DICTIONARY
  5
282
330
33
100
AcDbDictionary
280
     1
281
     1
  3
ACAD_XREC_ROUNDTRIP
360
283
  0
DICTIONARY
  5
28A
330
37
100
AcDbDictionary
280
     1
281
     1
  3
ACAD_XREC_ROUNDTRIP
360
28B
  0
XRECORD
  5
295
102
{ACAD_REACTORS
330
294
102
}
330
294
100
AcDbXrecord
280
     1
102
MATERIAL
148
0.0
149
0.0
149
0.0
 93
        0
 94
      127
282
     0
 72
     1
 77
     1
171
     1
175
     1
179
     1
273
     0
  0
XRECORD
  5
293
102
{ACAD_REACTORS
330
292
102
}
330
292
100
AcDbXrecord
280
     1
102
MATERIAL
148
0.0
149
0.0
149
0.0
 93
        0
 94
      127
282
     0
 72
     1
 77
     1
171
     1
175
     1
179
     1
273
     0
  0
XRECORD
  5
297
102
{ACAD_REACTORS
330
296
102
}
330
296
100
AcDbXrecord
280
     1
102
MATERIAL
148
0.0
149
0.0
149
0.0
 93
        0
 94
      127
282
     0
 72
     1
 77
     1
171
     1
175
     1
179
     1
273
     0
  0
XRECORD
  5
27B
102
{ACAD_REACTORS
330
27A
102
}
330
27A
100
AcDbXrecord
280
     1
102
RTVSPropertyOp0
 70
     1
102
RTVSPropertyOp1
 70
     1
102
RTVSPropertyOp2
 70
     1
102
RTVSPropertyOp3
 70
     1
102
RTVSPropertyOp4
 70
     1
102
RTVSPropertyOp5
 70
     1
102
RTVSPropertyOp6
 70
     1
102
RTVSPropertyOp7
 70
     1
102
RTVSPropertyOp8
 70
     1
102
RTVSPropertyOp9
 70
     1
102
RTVSPropertyOp10
 70
     1
102
RTVSPropertyOp11
 70
     1
102
RTVSPropertyOp12
 70
     1
102
RTVSPropertyOp13
 70
     1
102
RTVSPropertyOp14
 70
     1
102
RTVSPropertyOp15
 70
     1
102
RTVSPropertyOp16
 70
     1
102
RTVSPropertyOp17
 70
     1
102
RTVSPropertyOp18
 70
     1
102
RTVSPropertyOp19
 70
     1
102
RTVSPropertyOp20
 70
     1
102
RTVSPropertyOp21
 70
     1
102
RTVSPropertyOp22
 70
     1
102
RTVSPropertyOp23
 70
     1
102
RTVSPropertyOp24
 70
     1
102
RTVSPropertyOp25
 70
     1
102
RTVSPropertyOp26
 70
     1
102
RTVSPropertyOp27
 70
     1
102
RTVSPropertyOp28
 70
     1
102
RTVSPropertyOp29
 70
     1
102
RTVSPropertyOp30
 70
     1
102
RTVSPropertyOp31
 70
     1
102
RTVSPropertyOp32
 70
     1
  0
XRECORD
  5
27F
102
{ACAD_REACTORS
330
27E
102
}
330
27E
100
AcDbXrecord
280
     1
102
RTVSPropertyOp0
 70
     1
102
RTVSPropertyOp1
 70
     1
102
RTVSPropertyOp2
 70
     1
102
RTVSPropertyOp3
 70
     1
102
RTVSPropertyOp4
 70
     1
102
RTVSPropertyOp5
 70
     1
102
RTVSPropertyOp6
 70
     1
102
RTVSPropertyOp7
 70
     1
102
RTVSPropertyOp8
 70
     1
102
RTVSPropertyOp9
 70
     1
102
RTVSPropertyOp10
 70
     1
102
RTVSPropertyOp11
 70
     1
102
RTVSPropertyOp12
 70
     1
102
RTVSPropertyOp13
 70
     1
102
RTVSPropertyOp14
 70
     1
102
RTVSPropertyOp15
 70
     1
102
RTVSPropertyOp16
 70
     1
102
RTVSPropertyOp17
 70
     1
102
RTVSPropertyOp18
 70
     1
102
RTVSPropertyOp19
 70
     1
102
RTVSPropertyOp20
 70
     1
102
RTVSPropertyOp21
 70
     1
102
RTVSPropertyOp22
 70
     1
102
RTVSPropertyOp23
 70
     1
102
RTVSPropertyOp24
 70
     1
102
RTVSPropertyOp25
 70
     1
102
RTVSPropertyOp26
 70
     1
102
RTVSPropertyOp27
 70
     1
102
RTVSPropertyOp28
 70
     1
102
RTVSPropertyOp29
 70
     1
102
RTVSPropertyOp30
 70
     1
102
RTVSPropertyOp31
 70
     1
102
RTVSPropertyOp32
 70
     1
  0
XRECORD
  5
27D
102
{ACAD_REACTORS
330
27C
102
}
330
27C
100
AcDbXrecord
280
     1
102
RTVSPropertyOp0
 70
     1
102
RTVSPropertyOp1
 70
     1
102
RTVSPropertyOp2
 70
     1
102
RTVSPropertyOp3
 70
     1
102
RTVSPropertyOp4
 70
     1
102
RTVSPropertyOp5
 70
     1
102
RTVSPropertyOp6
 70
     1
102
RTVSPropertyOp7
 70
     1
102
RTVSPropertyOp8
 70
     1
102
RTVSPropertyOp9
 70
     1
102
RTVSPropertyOp10
 70
     1
102
RTVSPropertyOp11
 70
     1
102
RTVSPropertyOp12
 70
     1
102
RTVSPropertyOp13
 70
     1
102
RTVSPropertyOp14
 70
     1
102
RTVSPropertyOp15
 70
     1
102
RTVSPropertyOp16
 70
     1
102
RTVSPropertyOp17
 70
     1
102
RTVSPropertyOp18
 70
     1
102
RTVSPropertyOp19
 70
     1
102
RTVSPropertyOp20
 70
     1
102
RTVSPropertyOp21
 70
     1
102
RTVSPropertyOp22
 70
     1
102
RTVSPropertyOp23
 70
     1
102
RTVSPropertyOp24
 70
     1
102
RTVSPropertyOp25
 70
     1
102
RTVSPropertyOp26
 70
     1
102
RTVSPropertyOp27
 70
     1
102
RTVSPropertyOp28
 70
     1
102
RTVSPropertyOp29
 70
     1
102
RTVSPropertyOp30
 70
     1
102
RTVSPropertyOp31
 70
     1
102
RTVSPropertyOp32
 70
     1
  0
XRECORD
  5
281
102
{ACAD_REACTORS
330
280
102
}
330
280
100
AcDbXrecord
280
     1
102
RTVSPropertyOp0
 70
     1
102
RTVSPropertyOp1
 70
     1
102
RTVSPropertyOp2
 70
     1
102
RTVSPropertyOp3
 70
     1
102
RTVSPropertyOp4
 70
     1
102
RTVSPropertyOp5
 70
     1
102
RTVSPropertyOp6
 70
     1
102
RTVSPropertyOp7
 70
     1
102
RTVSPropertyOp8
 70
     1
102
RTVSPropertyOp9
 70
     1
102
RTVSPropertyOp10
 70
     1
102
RTVSPropertyOp11
 70
     1
102
RTVSPropertyOp12
 70
     1
102
RTVSPropertyOp13
 70
     1
102
RTVSPropertyOp14
 70
     1
102
RTVSPropertyOp15
 70
     1
102
RTVSPropertyOp16
 70
     1
102
RTVSPropertyOp17
 70
     1
102
RTVSPropertyOp18
 70
     1
102
RTVSPropertyOp19
 70
     1
102
RTVSPropertyOp20
 70
     1
102
RTVSPropertyOp21
 70
     1
102
RTVSPropertyOp22
 70
     1
102
RTVSPropertyOp23
 70
     1
102
RTVSPropertyOp24
 70
     1
102
RTVSPropertyOp25
 70
     1
102
RTVSPropertyOp26
 70
     1
102
RTVSPropertyOp27
 70
     1
102
RTVSPropertyOp28
 70
     1
102
RTVSPropertyOp29
 70
     1
102
RTVSPropertyOp30
 70
     1
102
RTVSPropertyOp31
 70
     1
102
RTVSPropertyOp32
 70
     1
  0
XRECORD
  5
289
102
{ACAD_REACTORS
330
288
102
}
330
288
100
AcDbXrecord
280
     1
102
RTVSPropertyOp0
 70
     1
102
RTVSPropertyOp1
 70
     1
102
RTVSPropertyOp2
 70
     1
102
RTVSPropertyOp3
 70
     1
102
RTVSPropertyOp4
 70
     1
102
RTVSPropertyOp5
 70
     1
102
RTVSPropertyOp6
 70
     1
102
RTVSPropertyOp7
 70
     1
102
RTVSPropertyOp8
 70
     1
102
RTVSPropertyOp9
 70
     1
102
RTVSPropertyOp10
 70
     1
102
RTVSPropertyOp11
 70
     1
102
RTVSPropertyOp12
 70
     1
102
RTVSPropertyOp13
 70
     1
102
RTVSPropertyOp14
 70
     1
102
RTVSPropertyOp15
 70
     1
102
RTVSPropertyOp16
 70
     1
102
RTVSPropertyOp17
 70
     1
102
RTVSPropertyOp18
 70
     1
102
RTVSPropertyOp19
 70
     1
102
RTVSPropertyOp20
 70
     1
102
RTVSPropertyOp21
 70
     1
102
RTVSPropertyOp22
 70
     1
102
RTVSPropertyOp23
 70
     1
102
RTVSPropertyOp24
 70
     1
102
RTVSPropertyOp25
 70
     1
102
RTVSPropertyOp26
 70
     1
102
RTVSPropertyOp27
 70
     1
102
RTVSPropertyOp28
 70
     1
102
RTVSPropertyOp29
 70
     1
102
RTVSPropertyOp30
 70
     1
102
RTVSPropertyOp31
 70
     1
102
RTVSPropertyOp32
 70
     1
  0
XRECORD
  5
291
102
{ACAD_REACTORS
330
290
102
}
330
290
100
AcDbXrecord
280
     1
102
RTVSPropertyOp0
 70
     1
102
RTVSPropertyOp1
 70
     1
102
RTVSPropertyOp2
 70
     1
102
RTVSPropertyOp3
 70
     1
102
RTVSPropertyOp4
 70
     1
102
RTVSPropertyOp5
 70
     1
102
RTVSPropertyOp6
 70
     1
102
RTVSPropertyOp7
 70
     1
102
RTVSPropertyOp8
 70
     1
102
RTVSPropertyOp9
 70
     1
102
RTVSPropertyOp10
 70
     1
102
RTVSPropertyOp11
 70
     1
102
RTVSPropertyOp12
 70
     1
102
RTVSPropertyOp13
 70
     1
102
RTVSPropertyOp14
 70
     1
102
RTVSPropertyOp15
 70
     1
102
RTVSPropertyOp16
 70
     1
102
RTVSPropertyOp17
 70
     1
102
RTVSPropertyOp18
 70
     1
102
RTVSPropertyOp19
 70
     1
102
RTVSPropertyOp20
 70
     1
102
RTVSPropertyOp21
 70
     1
102
RTVSPropertyOp22
 70
     1
102
RTVSPropertyOp23
 70
     1
102
RTVSPropertyOp24
 70
     1
102
RTVSPropertyOp25
 70
     1
102
RTVSPropertyOp26
 70
     1
102
RTVSPropertyOp27
 70
     1
102
RTVSPropertyOp28
 70
     1
102
RTVSPropertyOp29
 70
     1
102
RTVSPropertyOp30
 70
     1
102
RTVSPropertyOp31
 70
     1
102
RTVSPropertyOp32
 70
     1
  0
XRECORD
  5
285
102
{ACAD_REACTORS
330
284
102
}
330
284
100
AcDbXrecord
280
     1
102
RTVSPropertyOp0
 70
     1
102
RTVSPropertyOp1
 70
     1
102
RTVSPropertyOp2
 70
     1
102
RTVSPropertyOp3
 70
     1
102
RTVSPropertyOp4
 70
     1
102
RTVSPropertyOp5
 70
     1
102
RTVSPropertyOp6
 70
     1
102
RTVSPropertyOp7
 70
     1
102
RTVSPropertyOp8
 70
     1
102
RTVSPropertyOp9
 70
     1
102
RTVSPropertyOp10
 70
     1
102
RTVSPropertyOp11
 70
     1
102
RTVSPropertyOp12
 70
     1
102
RTVSPropertyOp13
 70
     1
102
RTVSPropertyOp14
 70
     1
102
RTVSPropertyOp15
 70
     1
102
RTVSPropertyOp16
 70
     1
102
RTVSPropertyOp17
 70
     1
102
RTVSPropertyOp18
 70
     1
102
RTVSPropertyOp19
 70
     1
102
RTVSPropertyOp20
 70
     1
102
RTVSPropertyOp21
 70
     1
102
RTVSPropertyOp22
 70
     1
102
RTVSPropertyOp23
 70
     1
102
RTVSPropertyOp24
 70
     1
102
RTVSPropertyOp25
 70
     1
102
RTVSPropertyOp26
 70
     1
102
RTVSPropertyOp27
 70
     1
102
RTVSPropertyOp28
 70
     1
102
RTVSPropertyOp29
 70
     1
102
RTVSPropertyOp30
 70
     1
102
RTVSPropertyOp31
 70
     1
102
RTVSPropertyOp32
 70
     1
  0
XRECORD
  5
287
102
{ACAD_REACTORS
330
286
102
}
330
286
100
AcDbXrecord
280
     1
102
RTVSPropertyOp0
 70
     1
102
RTVSPropertyOp1
 70
     1
102
RTVSPropertyOp2
 70
     1
102
RTVSPropertyOp3
 70
     1
102
RTVSPropertyOp4
 70
     1
102
RTVSPropertyOp5
 70
     1
102
RTVSPropertyOp6
 70
     1
102
RTVSPropertyOp7
 70
     1
102
RTVSPropertyOp8
 70
     1
102
RTVSPropertyOp9
 70
     1
102
RTVSPropertyOp10
 70
     1
102
RTVSPropertyOp11
 70
     1
102
RTVSPropertyOp12
 70
     1
102
RTVSPropertyOp13
 70
     1
102
RTVSPropertyOp14
 70
     1
102
RTVSPropertyOp15
 70
     1
102
RTVSPropertyOp16
 70
     1
102
RTVSPropertyOp17
 70
     1
102
RTVSPropertyOp18
 70
     1
102
RTVSPropertyOp19
 70
     1
102
RTVSPropertyOp20
 70
     1
102
RTVSPropertyOp21
 70
     1
102
RTVSPropertyOp22
 70
     1
102
RTVSPropertyOp23
 70
     1
102
RTVSPropertyOp24
 70
     1
102
RTVSPropertyOp25
 70
     1
102
RTVSPropertyOp26
 70
     1
102
RTVSPropertyOp27
 70
     1
102
RTVSPropertyOp28
 70
     1
102
RTVSPropertyOp29
 70
     1
102
RTVSPropertyOp30
 70
     1
102
RTVSPropertyOp31
 70
     1
102
RTVSPropertyOp32
 70
     1
  0
XRECORD
  5
28F
102
{ACAD_REACTORS
330
28E
102
}
330
28E
100
AcDbXrecord
280
     1
102
RTVSPropertyOp0
 70
     1
102
RTVSPropertyOp1
 70
     1
102
RTVSPropertyOp2
 70
     1
102
RTVSPropertyOp3
 70
     1
102
RTVSPropertyOp4
 70
     1
102
RTVSPropertyOp5
 70
     1
102
RTVSPropertyOp6
 70
     1
102
RTVSPropertyOp7
 70
     1
102
RTVSPropertyOp8
 70
     1
102
RTVSPropertyOp9
 70
     1
102
RTVSPropertyOp10
 70
     1
102
RTVSPropertyOp11
 70
     1
102
RTVSPropertyOp12
 70
     1
102
RTVSPropertyOp13
 70
     1
102
RTVSPropertyOp14
 70
     1
102
RTVSPropertyOp15
 70
     1
102
RTVSPropertyOp16
 70
     1
102
RTVSPropertyOp17
 70
     1
102
RTVSPropertyOp18
 70
     1
102
RTVSPropertyOp19
 70
     1
102
RTVSPropertyOp20
 70
     1
102
RTVSPropertyOp21
 70
     1
102
RTVSPropertyOp22
 70
     1
102
RTVSPropertyOp23
 70
     1
102
RTVSPropertyOp24
 70
     1
102
RTVSPropertyOp25
 70
     1
102
RTVSPropertyOp26
 70
     1
102
RTVSPropertyOp27
 70
     1
102
RTVSPropertyOp28
 70
     1
102
RTVSPropertyOp29
 70
     1
102
RTVSPropertyOp30
 70
     1
102
RTVSPropertyOp31
 70
     1
102
RTVSPropertyOp32
 70
     1
  0
XRECORD
  5
273
102
{ACAD_REACTORS
330
272
102
}
330
272
100
AcDbXrecord
280
     1
102
RTVSPropertyOp0
 70
     1
102
RTVSPropertyOp1
 70
     1
102
RTVSPropertyOp2
 70
     1
102
RTVSPropertyOp3
 70
     1
102
RTVSPropertyOp4
 70
     1
102
RTVSPropertyOp5
 70
     1
102
RTVSPropertyOp6
 70
     1
102
RTVSPropertyOp7
 70
     1
102
RTVSPropertyOp8
 70
     1
102
RTVSPropertyOp9
 70
     1
102
RTVSPropertyOp10
 70
     1
102
RTVSPropertyOp11
 70
     1
102
RTVSPropertyOp12
 70
     1
102
RTVSPropertyOp13
 70
     1
102
RTVSPropertyOp14
 70
     1
102
RTVSPropertyOp15
 70
     1
102
RTVSPropertyOp16
 70
     1
102
RTVSPropertyOp17
 70
     1
102
RTVSPropertyOp18
 70
     1
102
RTVSPropertyOp19
 70
     1
102
RTVSPropertyOp20
 70
     1
102
RTVSPropertyOp21
 70
     1
102
RTVSPropertyOp22
 70
     1
102
RTVSPropertyOp23
 70
     1
102
RTVSPropertyOp24
 70
     1
102
RTVSPropertyOp25
 70
     1
102
RTVSPropertyOp26
 70
     1
102
RTVSPropertyOp27
 70
     1
102
RTVSPropertyOp28
 70
     1
102
RTVSPropertyOp29
 70
     1
102
RTVSPropertyOp30
 70
     1
102
RTVSPropertyOp31
 70
     1
102
RTVSPropertyOp32
 70
     1
  0
XRECORD
  5
275
102
{ACAD_REACTORS
330
274
102
}
330
274
100
AcDbXrecord
280
     1
102
RTVSPropertyOp0
 70
     1
102
RTVSPropertyOp1
 70
     1
102
RTVSPropertyOp2
 70
     1
102
RTVSPropertyOp3
 70
     1
102
RTVSPropertyOp4
 70
     1
102
RTVSPropertyOp5
 70
     1
102
RTVSPropertyOp6
 70
     1
102
RTVSPropertyOp7
 70
     1
102
RTVSPropertyOp8
 70
     1
102
RTVSPropertyOp9
 70
     1
102
RTVSPropertyOp10
 70
     1
102
RTVSPropertyOp11
 70
     1
102
RTVSPropertyOp12
 70
     1
102
RTVSPropertyOp13
 70
     1
102
RTVSPropertyOp14
 70
     1
102
RTVSPropertyOp15
 70
     1
102
RTVSPropertyOp16
 70
     1
102
RTVSPropertyOp17
 70
     1
102
RTVSPropertyOp18
 70
     1
102
RTVSPropertyOp19
 70
     1
102
RTVSPropertyOp20
 70
     1
102
RTVSPropertyOp21
 70
     1
102
RTVSPropertyOp22
 70
     1
102
RTVSPropertyOp23
 70
     1
102
RTVSPropertyOp24
 70
     1
102
RTVSPropertyOp25
 70
     1
102
RTVSPropertyOp26
 70
     1
102
RTVSPropertyOp27
 70
     1
102
RTVSPropertyOp28
 70
     1
102
RTVSPropertyOp29
 70
     1
102
RTVSPropertyOp30
 70
     1
102
RTVSPropertyOp31
 70
     1
102
RTVSPropertyOp32
 70
     1
  0
XRECORD
  5
277
102
{ACAD_REACTORS
330
276
102
}
330
276
100
AcDbXrecord
280
     1
102
RTVSPropertyOp0
 70
     1
102
RTVSPropertyOp1
 70
     1
102
RTVSPropertyOp2
 70
     1
102
RTVSPropertyOp3
 70
     1
102
RTVSPropertyOp4
 70
     1
102
RTVSPropertyOp5
 70
     1
102
RTVSPropertyOp6
 70
     1
102
RTVSPropertyOp7
 70
     1
102
RTVSPropertyOp8
 70
     1
102
RTVSPropertyOp9
 70
     1
102
RTVSPropertyOp10
 70
     1
102
RTVSPropertyOp11
 70
     1
102
RTVSPropertyOp12
 70
     1
102
RTVSPropertyOp13
 70
     1
102
RTVSPropertyOp14
 70
     1
102
RTVSPropertyOp15
 70
     1
102
RTVSPropertyOp16
 70
     1
102
RTVSPropertyOp17
 70
     1
102
RTVSPropertyOp18
 70
     1
102
RTVSPropertyOp19
 70
     1
102
RTVSPropertyOp20
 70
     1
102
RTVSPropertyOp21
 70
     1
102
RTVSPropertyOp22
 70
     1
102
RTVSPropertyOp23
 70
     1
102
RTVSPropertyOp24
 70
     1
102
RTVSPropertyOp25
 70
     1
102
RTVSPropertyOp26
 70
     1
102
RTVSPropertyOp27
 70
     1
102
RTVSPropertyOp28
 70
     1
102
RTVSPropertyOp29
 70
     1
102
RTVSPropertyOp30
 70
     1
102
RTVSPropertyOp31
 70
     1
102
RTVSPropertyOp32
 70
     1
  0
XRECORD
  5
279
102
{ACAD_REACTORS
330
278
102
}
330
278
100
AcDbXrecord
280
     1
102
RTVSPropertyOp0
 70
     1
102
RTVSPropertyOp1
 70
     1
102
RTVSPropertyOp2
 70
     1
102
RTVSPropertyOp3
 70
     1
102
RTVSPropertyOp4
 70
     1
102
RTVSPropertyOp5
 70
     1
102
RTVSPropertyOp6
 70
     1
102
RTVSPropertyOp7
 70
     1
102
RTVSPropertyOp8
 70
     1
102
RTVSPropertyOp9
 70
     1
102
RTVSPropertyOp10
 70
     1
102
RTVSPropertyOp11
 70
     1
102
RTVSPropertyOp12
 70
     1
102
RTVSPropertyOp13
 70
     1
102
RTVSPropertyOp14
 70
     1
102
RTVSPropertyOp15
 70
     1
102
RTVSPropertyOp16
 70
     1
102
RTVSPropertyOp17
 70
     1
102
RTVSPropertyOp18
 70
     1
102
RTVSPropertyOp19
 70
     1
102
RTVSPropertyOp20
 70
     1
102
RTVSPropertyOp21
 70
     1
102
RTVSPropertyOp22
 70
     1
102
RTVSPropertyOp23
 70
     1
102
RTVSPropertyOp24
 70
     1
102
RTVSPropertyOp25
 70
     1
102
RTVSPropertyOp26
 70
     1
102
RTVSPropertyOp27
 70
     1
102
RTVSPropertyOp28
 70
     1
102
RTVSPropertyOp29
 70
     1
102
RTVSPropertyOp30
 70
     1
102
RTVSPropertyOp31
 70
     1
102
RTVSPropertyOp32
 70
     1
  0
XRECORD
  5
28D
102
{ACAD_REACTORS
330
28C
102
}
330
28C
100
AcDbXrecord
280
     1
102
RTVSPropertyOp0
 70
     1
102
RTVSPropertyOp1
 70
     1
102
RTVSPropertyOp2
 70
     1
102
RTVSPropertyOp3
 70
     1
102
RTVSPropertyOp4
 70
     1
102
RTVSPropertyOp5
 70
     1
102
RTVSPropertyOp6
 70
     1
102
RTVSPropertyOp7
 70
     1
102
RTVSPropertyOp8
 70
     1
102
RTVSPropertyOp9
 70
     1
102
RTVSPropertyOp10
 70
     1
102
RTVSPropertyOp11
 70
     1
102
RTVSPropertyOp12
 70
     1
102
RTVSPropertyOp13
 70
     1
102
RTVSPropertyOp14
 70
     1
102
RTVSPropertyOp15
 70
     1
102
RTVSPropertyOp16
 70
     1
102
RTVSPropertyOp17
 70
     1
102
RTVSPropertyOp18
 70
     1
102
RTVSPropertyOp19
 70
     1
102
RTVSPropertyOp20
 70
     1
102
RTVSPropertyOp21
 70
     1
102
RTVSPropertyOp22
 70
     1
102
RTVSPropertyOp23
 70
     1
102
RTVSPropertyOp24
 70
     1
102
RTVSPropertyOp25
 70
     1
102
RTVSPropertyOp26
 70
     1
102
RTVSPropertyOp27
 70
     1
102
RTVSPropertyOp28
 70
     1
102
RTVSPropertyOp29
 70
     1
102
RTVSPropertyOp30
 70
     1
102
RTVSPropertyOp31
 70
     1
102
RTVSPropertyOp32
 70
     1
  0
XRECORD
  5
283
102
{ACAD_REACTORS
330
282
102
}
330
282
100
AcDbXrecord
280
     1
102
RTVSPropertyOp0
 70
     1
102
RTVSPropertyOp1
 70
     1
102
RTVSPropertyOp2
 70
     1
102
RTVSPropertyOp3
 70
     1
102
RTVSPropertyOp4
 70
     1
102
RTVSPropertyOp5
 70
     1
102
RTVSPropertyOp6
 70
     1
102
RTVSPropertyOp7
 70
     1
102
RTVSPropertyOp8
 70
     1
102
RTVSPropertyOp9
 70
     1
102
RTVSPropertyOp10
 70
     1
102
RTVSPropertyOp11
 70
     1
102
RTVSPropertyOp12
 70
     1
102
RTVSPropertyOp13
 70
     1
102
RTVSPropertyOp14
 70
     1
102
RTVSPropertyOp15
 70
     1
102
RTVSPropertyOp16
 70
     1
102
RTVSPropertyOp17
 70
     1
102
RTVSPropertyOp18
 70
     1
102
RTVSPropertyOp19
 70
     1
102
RTVSPropertyOp20
 70
     1
102
RTVSPropertyOp21
 70
     1
102
RTVSPropertyOp22
 70
     1
102
RTVSPropertyOp23
 70
     1
102
RTVSPropertyOp24
 70
     1
102
RTVSPropertyOp25
 70
     1
102
RTVSPropertyOp26
 70
     1
102
RTVSPropertyOp27
 70
     1
102
RTVSPropertyOp28
 70
     1
102
RTVSPropertyOp29
 70
     1
102
RTVSPropertyOp30
 70
     1
102
RTVSPropertyOp31
 70
     1
102
RTVSPropertyOp32
 70
     1
  0
XRECORD
  5
28B
102
{ACAD_REACTORS
330
28A
102
}
330
28A
100
AcDbXrecord
280
     1
102
RTVSPropertyOp0
 70
     1
102
RTVSPropertyOp1
 70
     1
102
RTVSPropertyOp2
 70
     1
102
RTVSPropertyOp3
 70
     1
102
RTVSPropertyOp4
 70
     1
102
RTVSPropertyOp5
 70
     1
102
RTVSPropertyOp6
 70
     1
102
RTVSPropertyOp7
 70
     1
102
RTVSPropertyOp8
 70
     1
102
RTVSPropertyOp9
 70
     1
102
RTVSPropertyOp10
 70
     1
102
RTVSPropertyOp11
 70
     1
102
RTVSPropertyOp12
 70
     1
102
RTVSPropertyOp13
 70
     1
102
RTVSPropertyOp14
 70
     1
102
RTVSPropertyOp15
 70
     1
102
RTVSPropertyOp16
 70
     1
102
RTVSPropertyOp17
 70
     1
102
RTVSPropertyOp18
 70
     1
102
RTVSPropertyOp19
 70
     1
102
RTVSPropertyOp20
 70
     1
102
RTVSPropertyOp21
 70
     1
102
RTVSPropertyOp22
 70
     1
102
RTVSPropertyOp23
 70
     1
102
RTVSPropertyOp24
 70
     1
102
RTVSPropertyOp25
 70
     1
102
RTVSPropertyOp26
 70
     1
102
RTVSPropertyOp27
 70
     1
102
RTVSPropertyOp28
 70
     1
102
RTVSPropertyOp29
 70
     1
102
RTVSPropertyOp30
 70
     1
102
RTVSPropertyOp31
 70
     1
102
RTVSPropertyOp32
 70
     1
  0
ENDSEC
  0
EOF
