  0
SECTION
  2
HEADER
  9
$ACADVER
  1
AC1009
  9
$INSBASE
 10
0
 20
0
  9
$EXTMIN
 10
937.5168288689912
 20
-580.2828494098121
  9
$EXTMAX
 10
1178.167319630545
 20
-362.347501067657
  9
$LIMMIN
 10
937.5168288689912
 20
-580.2828494098121
  9
$LIMMAX
 10
1178.167319630545
 20
-362.347501067657
  9
$VIEWCTR
 10
10
 20
10
  9
$VIEWSIZE
 40
10
  9
$SNAPMODE
 70
0
  9
$SNAPUNIT
 10
1
 20
1
  9
$SNAPBASE
 10
0
 20
0
  9
$SNAPANG
 50
0
  9
$SNAPSTYLE
 70
0
  9
$SNAPISOPAIR
 70
0
  9
$GRIDMODE
 70
0
  9
$GRIDUNIT
 10
0
 20
0
  9
$ORTHOMODE
 70
0
  9
$REGENMODE
 70
1
  9
$FILLMODE
 70
1
  9
$QTEXTMODE
 70
0
  9
$DRAGMODE
 70
2
  9
$LTSCALE
 40
1
  9
$OSMODE
 70
0
  9
$ATTMODE
 70
1
  9
$TEXTSIZE
 40
3.5
  9
$TRACEWID
 40
0.5
  9
$TEXTSTYLE
  7
STANDARD
  9
$CLAYER
  8
0
  9
$CELTYPE
  6
BYLAYER
  9
$CECOLOR
 62
256
  9
$DIMSCALE
 40
1
  9
$DIMASZ
 40
0.18
  9
$DIMEXO
 40
0.0625
  9
$DIMDLI
 40
0.38
  9
$DIMRND
 40
0
  9
$DIMDLE
 40
0
  9
$DIMEXE
 40
0.18
  9
$DIMTP
 40
0
  9
$DIMTM
 40
0
  9
$DIMTXT
 40
0.18
  9
$DIMCEN
 40
0.09
  9
$DIMTSZ
 40
0
  9
$DIMTOL
 70
0
  9
$DIMLIM
 70
0
  9
$DIMTIH
 70
1
  9
$DIMTOH
 70
1
  9
$DIMSE1
 70
0
  9
$DIMSE2
 70
0
  9
$DIMTAD
 70
0
  9
$DIMZIN
 70
0
  9
$DIMBLK
  1

  9
$DIMASO
 70
1
  9
$DIMSHO
 70
1
  9
$DIMPOST
  1

  9
$DIMAPOST
  1

  9
$DIMALT
 70
0
  9
$DIMALTD
 70
2
  9
$DIMALTF
 40
25.4
  9
$DIMLFAC
 40
1
  9
$DIMTOFL
 70
0
  9
$DIMTVP
 40
0
  9
$DIMTIX
 70
0
  9
$DIMSOXD
 70
0
  9
$DIMSAH
 70
0
  9
$DIMBLK1
  1

  9
$DIMBLK2
  1

  9
$DIMSTYLE
  2
*UNNAMED
  9
$DIMCLRD
 70
0
  9
$DIMCLRE
 70
0
  9
$DIMCLRT
 70
0
  9
$DIMTFAC
 40
1
  9
$DIMGAP
 40
0.09
  9
$LUNITS
 70
2
  9
$LUPREC
 70
4
  9
$AXISMODE
 70
0
  9
$AXISUNIT
 10
0
 20
0
  9
$SKETCHINC
 40
0.1
  9
$FILLETRAD
 40
2
  9
$AUNITS
 70
0
  9
$AUPREC
 70
0
  9
$MENU
  1
ACAD
  9
$ELEVATION
 40
0
  9
$THICKNESS
 40
0
  9
$VIEWDIR
 10
0
 20
0
 30
1
  9
$LIMCHECK
 70
0
  9
$BLIPMODE
 70
1
  9
$CHAMFERA
 40
0
  9
$CHAMFERB
 40
0
  9
$FASTZOOM
 70
1
  9
$SKPOLY
 70
0
  9
$ANGBASE
 50
0
  9
$ANGDIR
 70
0
  9
$PDMODE
 70
0
  9
$PDSIZE
 40
0
  9
$PLINEWID
 40
0
  9
$COORDS
 70
2
  0
ENDSEC
  0
SECTION
  2
TABLES
  0
TABLE
  2
DIMSTYLE
 70
6
  0
DIMSTYLE
  2
DMST_1
 70
0
  3

  4

  5

  6

  7

 40
1
 41
3.2
 42
1
 43
7
 44
1.5
 45
0
 46
0
 47
0.2
 48
0.2
140
3.2
141
0
142
0
143
25.4
144
1
145
0
146
0.6
147
0.09
 71
1
 72
0
 73
0
 74
0
 75
0
 76
0
 77
1
 78
9
170
0
171
2
172
0
173
0
174
0
175
0
176
2
177
2
178
2
  0
DIMSTYLE
  2
DMST_2
 70
0
  3

  4

  5

  6

  7

 40
1
 41
3.2
 42
1
 43
7
 44
1.5
 45
0
 46
0
 47
0
 48
0
140
3.2
141
0
142
0
143
25.4
144
1
145
0
146
1
147
0.09
 71
0
 72
0
 73
0
 74
0
 75
0
 76
0
 77
1
 78
9
170
0
171
2
172
0
173
0
174
0
175
0
176
2
177
2
178
2
  0
DIMSTYLE
  2
DMST_3
 70
0
  3
)
  4

  5

  6

  7

 40
1
 41
3.2
 42
1
 43
7
 44
1.5
 45
0
 46
0
 47
0
 48
0
140
3.2
141
0
142
0
143
25.4
144
1
145
0
146
1
147
0.09
 71
0
 72
0
 73
0
 74
0
 75
0
 76
0
 77
1
 78
9
170
0
171
2
172
0
173
0
174
0
175
0
176
2
177
2
178
2
  0
DIMSTYLE
  2
DMST_4
 70
0
  3

  4

  5

  6

  7

 40
1
 41
3.2
 42
1
 43
7
 44
1.5
 45
0
 46
0
 47
0.15
 48
0.15
140
3.2
141
0
142
0
143
25.4
144
1
145
0
146
0.6
147
0.09
 71
1
 72
0
 73
0
 74
0
 75
0
 76
0
 77
1
 78
9
170
0
171
2
172
0
173
0
174
0
175
0
176
2
177
2
178
2
  0
DIMSTYLE
  2
DMST_5
 70
0
  3

  4

  5

  6

  7

 40
1
 41
3.2
 42
1
 43
7
 44
1.5
 45
0
 46
0
 47
0
 48
0
140
3.2
141
0
142
0
143
25.4
144
1
145
0
146
0.6
147
0.09
 71
1
 72
0
 73
0
 74
0
 75
0
 76
0
 77
1
 78
9
170
0
171
2
172
0
173
0
174
0
175
0
176
2
177
2
178
2
  0
DIMSTYLE
  2
DMST_6
 70
0
  3

  4

  5

  6

  7

 40
1
 41
3.2
 42
1
 43
7
 44
1.5
 45
0
 46
0
 47
0.5
 48
0.5
140
3.2
141
0
142
0
143
25.4
144
1
145
0
146
0.6
147
0.09
 71
1
 72
0
 73
0
 74
0
 75
0
 76
0
 77
1
 78
9
170
0
171
2
172
0
173
0
174
0
175
0
176
2
177
2
178
2
  0
ENDTAB
  0
TABLE
  2
LTYPE
 70
9
  0
LTYPE
  2
CONTINUOUS
 70
64
  3
Solid line
 72
65
 73
0
 40
0
  0
LTYPE
  2
BORDER
 70
64
  3
__ __ . __ __ .
 72
65
 73
6
 40
11.08258839033472
 49
3.16645382580992
 49
-1.58322691290496
 49
3.16645382580992
 49
-1.58322691290496
 49
0
 49
-1.58322691290496
  0
LTYPE
  2
CENTER
 70
64
  3
____ _ ____ _
 72
65
 73
4
 40
12.66581530323968
 49
7.9161345645248
 49
-1.58322691290496
 49
1.58322691290496
 49
-1.58322691290496
  0
LTYPE
  2
DASHDOT
 70
64
  3
__ . __ . __ .
 72
65
 73
4
 40
6.33290765161984
 49
3.16645382580992
 49
-1.58322691290496
 49
0
 49
-1.58322691290496
  0
LTYPE
  2
DASHED
 70
64
  3
__ __ __ __ __
 72
65
 73
2
 40
4.749680738714879
 49
3.16645382580992
 49
-1.58322691290496
  0
LTYPE
  2
DIVIDE
 70
64
  3
__ . . __ . . 
 72
65
 73
6
 40
7.9161345645248
 49
3.16645382580992
 49
-1.58322691290496
 49
0
 49
-1.58322691290496
 49
0
 49
-1.58322691290496
  0
LTYPE
  2
DOT
 70
64
  3
..............
 72
65
 73
4
 40
3.16645382580992
 49
0
 49
-1.58322691290496
 49
0
 49
-1.58322691290496
  0
LTYPE
  2
HIDDEN
 70
64
  3
_ _ _ _ _ _ _
 72
65
 73
2
 40
2.37484036935744
 49
1.58322691290496
 49
-0.7916134564524799
  0
LTYPE
  2
PHANTOM
 70
64
  3
_____ _ _ _____ _ _ 
 72
65
 73
6
 40
15.8322691290496
 49
7.9161345645248
 49
-1.58322691290496
 49
1.58322691290496
 49
-1.58322691290496
 49
1.58322691290496
 49
-1.58322691290496
  0
ENDTAB
  0
TABLE
  2
LAYER
 70
3
  0
LAYER
  2
1
 70
0
 62
7
  6
CONTINUOUS
  0
LAYER
  2
0
 70
0
 62
7
  6
CONTINUOUS
  0
ENDTAB
  0
TABLE
  2
STYLE
 70
4
  0
STYLE
  2
STANDARD
 70
0
 40
0
 41
1
 50
0
 71
0
 42
3.5
  3
txt
  4

  0
STYLE
  2
SIMPLEX
 70
0
 40
0
 41
1
 50
0
 71
0
 42
3.5
  3
simplex
  4

  0
STYLE
  2
COMPLEX
 70
0
 40
0
 41
1
 50
0
 71
0
 42
3.5
  3
complex
  4

  0
STYLE
  2
ITALIC
 70
0
 40
0
 41
1
 50
0
 71
0
 42
3.5
  3
italic
  4

  0
ENDTAB
  0
TABLE
  2
VIEW
 70
0
  0
ENDTAB
  0
ENDSEC
  0
SECTION
  2
BLOCKS
  0
BLOCK
  8
0
  2
98779
 70
0
 10
969.4556970579309
 20
-505.0722587641782
 30
0
  0
LINE
  8
1
 62
1
 10
1000.668907252813
 20
-487.8883681737413
 30
0
 11
1000.668907252813
 21
-476.9817219665093
 31
0
  0
LINE
  8
1
 62
3
 10
1010.668907252813
 20
-485.9580397303033
 30
0
 11
1010.668907252813
 21
-486.9391057681052
 31
0
  0
LINE
  8
1
 62
3
 10
990.6689072528141
 20
-486.9391057681052
 30
0
 11
990.6689072528141
 21
-485.9580397303033
 31
0
  0
LINE
  8
1
 62
3
 10
1010.668907252813
 20
-486.9391057681052
 30
0
 11
990.6689072528141
 21
-486.9391057681052
 31
0
  0
LINE
  8
1
 62
2
  6
DASHED
 10
1008.968907252813
 20
-490.4580397303033
 30
0
 11
1010.668907252813
 21
-490.4580397303033
 31
0
  0
LINE
  8
1
 62
2
  6
DASHED
 10
998.9689072528132
 20
-490.4580397303033
 30
0
 11
1007.368907252813
 21
-490.4580397303033
 31
0
  0
LINE
  8
1
 62
2
  6
DASHED
 10
993.9689072528132
 20
-490.4580397303033
 30
0
 11
997.368907252813
 21
-490.4580397303033
 31
0
  0
LINE
  8
1
 62
2
  6
DASHED
 10
1008.968907252813
 20
-490.4580397303033
 30
0
 11
1008.968907252813
 21
-500.4580397303033
 31
0
  0
LINE
  8
1
 62
2
  6
DASHED
 10
1007.368907252813
 20
-490.4580397303033
 30
0
 11
1007.368907252813
 21
-500.4580397303033
 31
0
  0
LINE
  8
1
 62
2
  6
DASHED
 10
998.9689072528132
 20
-490.4580397303033
 30
0
 11
998.9689072528132
 21
-500.4580397303033
 31
0
  0
LINE
  8
1
 62
2
  6
DASHED
 10
997.368907252813
 20
-490.4580397303033
 30
0
 11
997.368907252813
 21
-500.4580397303033
 31
0
  0
LINE
  8
1
 62
2
  6
DASHED
 10
993.9689072528132
 20
-490.4580397303033
 30
0
 11
993.9689072528132
 21
-500.4580397303033
 31
0
  0
LINE
  8
1
 62
2
  6
DASHED
 10
992.368907252813
 20
-490.4580397303033
 30
0
 11
992.368907252813
 21
-500.4580397303033
 31
0
  0
LINE
  8
1
 62
3
 10
1007.618907252813
 20
-486.9391057681052
 30
0
 11
1007.618907252813
 21
-484.6080397303032
 31
0
  0
LINE
  8
1
 62
3
 10
1006.618907252813
 20
-483.6080397303032
 30
0
 11
1006.118907252813
 21
-483.6080397303032
 31
0
  0
LINE
  8
1
 62
3
 10
1006.118907252813
 20
-483.6080397303032
 30
0
 11
1006.118907252813
 21
-486.9391057681052
 31
0
  0
LINE
  8
1
 62
3
 10
993.7189072528132
 20
-484.6080397303032
 30
0
 11
993.7189072528132
 21
-486.9391057681052
 31
0
  0
LINE
  8
1
 62
3
 10
995.2189072528132
 20
-483.6080397303032
 30
0
 11
994.7189072528132
 21
-483.6080397303032
 31
0
  0
LINE
  8
1
 62
3
 10
995.2189072528132
 20
-486.9391057681052
 30
0
 11
995.2189072528132
 21
-483.6080397303032
 31
0
  0
LINE
  8
1
 62
3
 10
1010.668907252813
 20
-483.3735162580732
 30
0
 11
1010.668907252813
 21
-486.9391057681052
 31
0
  0
LINE
  8
1
 62
3
 10
1010.668907252813
 20
-486.9391057681052
 30
0
 11
1009.868907252813
 21
-486.9391057681052
 31
0
  0
LINE
  8
1
 62
3
 10
991.6689072528131
 20
-486.9391057681052
 30
0
 11
991.4689072528132
 21
-486.9391057681052
 31
0
  0
LINE
  8
1
 62
3
 10
990.6689072528141
 20
-486.9391057681052
 30
0
 11
990.6689072528131
 21
-483.3735162580732
 31
0
  0
LINE
  8
1
 62
3
 10
1009.668907252813
 20
-486.9391057681052
 30
0
 11
991.6689072528131
 21
-486.9391057681052
 31
0
  0
LINE
  8
1
 62
2
  6
DASHED
 10
990.6689072528131
 20
-490.4580397303033
 30
0
 11
992.368907252813
 21
-490.4580397303033
 31
0
  0
LINE
  8
1
 62
2
  6
DASHED
 10
1010.668907252813
 20
-490.4580397303033
 30
0
 11
1010.668907252813
 21
-489.6580397303031
 31
0
  0
LINE
  8
1
 62
2
  6
DASHED
 10
1010.668907252813
 20
-489.6580397303031
 30
0
 11
1009.868907252813
 21
-489.6580397303031
 31
0
  0
LINE
  8
1
 62
3
 10
1009.768907252813
 20
-486.9391057681052
 30
0
 11
1009.668907252813
 21
-486.9391057681052
 31
0
  0
LINE
  8
1
 62
2
  6
DASHED
 10
990.6689072528131
 20
-490.4580397303033
 30
0
 11
990.6689072528131
 21
-489.6580397303031
 31
0
  0
LINE
  8
1
 62
2
  6
DASHED
 10
990.6689072528131
 20
-489.6580397303031
 30
0
 11
991.4689072528132
 21
-489.6580397303031
 31
0
  0
LINE
  8
1
 62
2
  6
DASHED
 10
991.4689072528132
 20
-489.6580397303031
 30
0
 11
991.4689072528132
 21
-486.9391057681052
 31
0
  0
LINE
  8
1
 62
3
 10
991.4689072528132
 20
-486.9391057681052
 30
0
 11
990.6689072528141
 21
-486.9391057681052
 31
0
  0
LINE
  8
1
 62
2
  6
DASHED
 10
1009.868907252813
 20
-489.6580397303031
 30
0
 11
1009.868907252813
 21
-486.9391057681052
 31
0
  0
LINE
  8
1
 62
3
 10
1009.868907252813
 20
-486.9391057681052
 30
0
 11
1009.768907252813
 21
-486.9391057681052
 31
0
  0
LINE
  8
1
 62
3
 10
990.6689072528131
 20
-481.1401718059073
 30
0
 11
990.6689072528141
 21
-485.9580397303033
 31
0
  0
LINE
  8
1
 62
3
 10
991.5689072528131
 20
-481.1401718059073
 30
0
 11
991.5689072528131
 21
-486.9391057681052
 31
0
  0
LINE
  8
1
 62
3
 10
1010.668907252813
 20
-481.1401718059073
 30
0
 11
1010.668907252813
 21
-485.9580397303033
 31
0
  0
LINE
  8
1
 62
3
 10
1009.768907252813
 20
-481.1401718059073
 30
0
 11
1009.768907252813
 21
-486.9391057681052
 31
0
  0
ARC
  8
1
 62
3
 10
1006.618907252813
 20
-484.6080397303032
 30
0
 40
1
 50
0
 51
90
  0
ARC
  8
1
 62
3
 10
994.7189072528132
 20
-484.6080397303032
 30
0
 40
1
 50
90
 51
180
  0
TEXT
  8
1
 62
2
 10
990.6689072528129
 20
-505.0722587641782
 30
0
 40
3
  1
1
 41
0.9
 72
2
 11
993.368907252813
 21
-505.0722587641782
 31
0
  0
TEXT
  8
1
 62
2
 10
996.2689072528132
 20
-505.0722587641782
 30
0
 40
3
  1
3
 41
0.9
 72
2
 11
998.9689072528132
 21
-505.0722587641782
 31
0
  0
TEXT
  8
1
 62
2
 10
1006.268907252813
 20
-505.0722587641782
 30
0
 40
3
  1
7
 41
0.9
 72
2
 11
1008.968907252813
 21
-505.0722587641782
 31
0
  0
TEXT
  8
1
 62
2
 10
970.66694705793
 20
-505.0722587641782
 30
0
 40
3
  1
PIN NO.
 41
0.765
 72
2
 11
986.73194705793
 21
-505.0722587641782
 31
0
  0
ENDBLK
  8
0
  0
BLOCK
  8
0
  2
___M3_______
 70
0
 10
1026.218907252814
 20
-436.3901718059063
 30
0
  0
LINE
  8
1
 62
3
 10
975.9579820637429
 20
-467.2525056349172
 30
0
 11
975.237601071133
 21
-466.5321246423063
 31
0
  0
LINE
  8
1
 62
3
 10
974.2798324418822
 20
-467.2525056349172
 30
0
 11
975.0002134344931
 21
-466.5321246423063
 31
0
  0
LINE
  8
1
 62
3
 10
976.4812410818211
 20
-465.0510969949778
 30
0
 11
975.760860089211
 21
-465.7714779875885
 31
0
  0
LINE
  8
1
 62
3
 10
976.4812410818211
 20
-466.7292466168391
 30
0
 11
975.760860089211
 21
-466.0088656242284
 31
0
  0
LINE
  8
1
 62
3
 10
974.2798324418822
 20
-464.5278379768997
 30
0
 11
975.0002134344931
 21
-465.2482189695106
 31
0
  0
LINE
  8
1
 62
3
 10
975.9579820637429
 20
-464.5278379768997
 30
0
 11
975.237601071133
 21
-465.2482189695106
 31
0
  0
LINE
  8
1
 62
3
 10
973.756573423804
 20
-466.7292466168391
 30
0
 11
974.4769544164151
 21
-466.0088656242284
 31
0
  0
LINE
  8
1
 62
3
 10
973.756573423804
 20
-465.0510969949778
 30
0
 11
974.4769544164151
 21
-465.7714779875885
 31
0
  0
LINE
  8
1
 62
3
 10
1026.100213434494
 20
-466.5321246423063
 30
0
 11
1025.379832441883
 21
-467.2525056349172
 31
0
  0
LINE
  8
1
 62
3
 10
1026.337601071134
 20
-466.5321246423063
 30
0
 11
1027.057982063744
 21
-467.2525056349172
 31
0
  0
LINE
  8
1
 62
3
 10
1025.576954416416
 20
-465.7714779875885
 30
0
 11
1024.856573423805
 21
-465.0510969949778
 31
0
  0
LINE
  8
1
 62
3
 10
1025.576954416416
 20
-466.0088656242284
 30
0
 11
1024.856573423805
 21
-466.7292466168391
 31
0
  0
LINE
  8
1
 62
3
 10
1026.337601071134
 20
-465.2482189695106
 30
0
 11
1027.057982063744
 21
-464.5278379768997
 31
0
  0
LINE
  8
1
 62
3
 10
1026.100213434494
 20
-465.2482189695106
 30
0
 11
1025.379832441883
 21
-464.5278379768997
 31
0
  0
LINE
  8
1
 62
3
 10
1026.860860089212
 20
-466.0088656242284
 30
0
 11
1027.581241081823
 21
-466.7292466168391
 31
0
  0
LINE
  8
1
 62
3
 10
1026.860860089212
 20
-465.7714779875885
 30
0
 11
1027.581241081823
 21
-465.0510969949778
 31
0
  0
LINE
  8
1
 62
3
 10
975.237601071133
 20
-435.7482189695084
 30
0
 11
975.9579820637429
 21
-435.0278379768975
 31
0
  0
LINE
  8
1
 62
3
 10
975.0002134344931
 20
-435.7482189695084
 30
0
 11
974.2798324418822
 21
-435.0278379768975
 31
0
  0
LINE
  8
1
 62
3
 10
975.760860089211
 20
-436.5088656242261
 30
0
 11
976.4812410818211
 21
-437.229246616837
 31
0
  0
LINE
  8
1
 62
3
 10
975.760860089211
 20
-436.2714779875864
 30
0
 11
976.4812410818211
 21
-435.5510969949755
 31
0
  0
LINE
  8
1
 62
3
 10
975.0002134344931
 20
-437.0321246423042
 30
0
 11
974.2798324418822
 21
-437.7525056349152
 31
0
  0
LINE
  8
1
 62
3
 10
975.237601071133
 20
-437.0321246423042
 30
0
 11
975.9579820637429
 21
-437.7525056349152
 31
0
  0
LINE
  8
1
 62
3
 10
974.4769544164151
 20
-436.2714779875864
 30
0
 11
973.756573423804
 21
-435.5510969949755
 31
0
  0
LINE
  8
1
 62
3
 10
974.4769544164151
 20
-436.5088656242261
 30
0
 11
973.756573423804
 21
-437.229246616837
 31
0
  0
LINE
  8
1
 62
3
 10
1025.379832441883
 20
-435.0278379768975
 30
0
 11
1026.100213434494
 21
-435.7482189695084
 31
0
  0
LINE
  8
1
 62
3
 10
1027.057982063744
 20
-435.0278379768975
 30
0
 11
1026.337601071134
 21
-435.7482189695084
 31
0
  0
LINE
  8
1
 62
3
 10
1024.856573423805
 20
-437.229246616837
 30
0
 11
1025.576954416416
 21
-436.5088656242261
 31
0
  0
LINE
  8
1
 62
3
 10
1024.856573423805
 20
-435.5510969949755
 30
0
 11
1025.576954416416
 21
-436.2714779875864
 31
0
  0
LINE
  8
1
 62
3
 10
1027.057982063744
 20
-437.7525056349152
 30
0
 11
1026.337601071134
 21
-437.0321246423042
 31
0
  0
LINE
  8
1
 62
3
 10
1025.379832441883
 20
-437.7525056349152
 30
0
 11
1026.100213434494
 21
-437.0321246423042
 31
0
  0
LINE
  8
1
 62
3
 10
1027.581241081823
 20
-435.5510969949755
 30
0
 11
1026.860860089212
 21
-436.2714779875864
 31
0
  0
LINE
  8
1
 62
3
 10
1027.581241081823
 20
-437.229246616837
 30
0
 11
1026.860860089212
 21
-436.5088656242261
 31
0
  0
ARC
  8
1
 62
3
 10
975.118907252813
 20
-465.8901718059085
 30
0
 40
1.600000000000165
 50
211.6293243609483
 51
238.3706756390395
  0
ARC
  8
1
 62
3
 10
975.118907252813
 20
-465.8901718059085
 30
0
 40
0.6349999999999374
 50
262.541550943661
 51
277.4584490562882
  0
ARC
  8
1
 62
3
 10
975.118907252813
 20
-465.8901718059085
 30
0
 40
1.599999999999565
 50
301.6293243609328
 51
328.3706756390347
  0
ARC
  8
1
 62
3
 10
975.118907252813
 20
-465.8901718059085
 30
0
 40
0.6350000000002239
 50
352.5415509437006
 51
7.458449056304463
  0
ARC
  8
1
 62
3
 10
975.118907252813
 20
-465.8901718059085
 30
0
 40
1.59999999999945
 50
31.62932436096879
 51
58.37067563906829
  0
ARC
  8
1
 62
3
 10
975.118907252813
 20
-465.8901718059085
 30
0
 40
0.63499999999992
 50
82.54155094371254
 51
97.45844905633831
  0
ARC
  8
1
 62
3
 10
975.118907252813
 20
-465.8901718059085
 30
0
 40
1.60000000000009
 50
121.6293243609595
 51
148.3706756390483
  0
ARC
  8
1
 62
3
 10
975.118907252813
 20
-465.8901718059085
 30
0
 40
0.6349999999998931
 50
172.5415509436915
 51
187.4584490563034
  0
ARC
  8
1
 62
3
 10
1026.218907252814
 20
-465.8901718059085
 30
0
 40
1.599999999999625
 50
301.6293243609363
 51
328.3706756390517
  0
ARC
  8
1
 62
3
 10
1026.218907252814
 20
-465.8901718059085
 30
0
 40
0.6349999999999816
 50
262.5415509436305
 51
277.4584490562678
  0
ARC
  8
1
 62
3
 10
1026.218907252814
 20
-465.8901718059085
 30
0
 40
1.600000000000165
 50
211.6293243609483
 51
238.370675639036
  0
ARC
  8
1
 62
3
 10
1026.218907252814
 20
-465.8901718059085
 30
0
 40
0.6349999999998931
 50
172.5415509436915
 51
187.4584490563034
  0
ARC
  8
1
 62
3
 10
1026.218907252814
 20
-465.8901718059085
 30
0
 40
1.60000000000015
 50
121.6293243609629
 51
148.3706756390483
  0
ARC
  8
1
 62
3
 10
1026.218907252814
 20
-465.8901718059085
 30
0
 40
0.6349999999998904
 50
82.5415509437329
 51
97.45844905636882
  0
ARC
  8
1
 62
3
 10
1026.218907252814
 20
-465.8901718059085
 30
0
 40
1.600000000000224
 50
31.62932436095172
 51
58.37067563906481
  0
ARC
  8
1
 62
3
 10
1026.218907252814
 20
-465.8901718059085
 30
0
 40
0.6349999999998857
 50
352.5415509436966
 51
7.458449056308459
  0
ARC
  8
1
 62
3
 10
975.118907252813
 20
-436.3901718059063
 30
0
 40
1.60000000000009
 50
121.6293243609595
 51
148.3706756390465
  0
ARC
  8
1
 62
3
 10
975.118907252813
 20
-436.3901718059063
 30
0
 40
0.63499999999992
 50
82.54155094371254
 51
97.45844905633831
  0
ARC
  8
1
 62
3
 10
975.118907252813
 20
-436.3901718059063
 30
0
 40
1.599999999999479
 50
31.62932436097053
 51
58.37067563906829
  0
ARC
  8
1
 62
3
 10
975.118907252813
 20
-436.3901718059063
 30
0
 40
0.6350000000002386
 50
352.5415509436904
 51
7.458449056294293
  0
ARC
  8
1
 62
3
 10
975.118907252813
 20
-436.3901718059063
 30
0
 40
1.599999999999758
 50
301.6293243609285
 51
328.3706756390312
  0
ARC
  8
1
 62
3
 10
975.118907252813
 20
-436.3901718059063
 30
0
 40
0.6350000000000501
 50
262.5415509436623
 51
277.4584490562867
  0
ARC
  8
1
 62
3
 10
975.118907252813
 20
-436.3901718059063
 30
0
 40
1.600000000000224
 50
211.6293243609517
 51
238.3706756390438
  0
ARC
  8
1
 62
3
 10
975.118907252813
 20
-436.3901718059063
 30
0
 40
0.6349999999998782
 50
172.5415509437017
 51
187.4584490563136
  0
ARC
  8
1
 62
3
 10
1026.218907252814
 20
-436.3901718059063
 30
0
 40
1.600000000000254
 50
31.62932436095345
 51
58.37067563906481
  0
ARC
  8
1
 62
3
 10
1026.218907252814
 20
-436.3901718059063
 30
0
 40
0.6349999999998904
 50
82.5415509437329
 51
97.45844905636882
  0
ARC
  8
1
 62
3
 10
1026.218907252814
 20
-436.3901718059063
 30
0
 40
1.60000000000015
 50
121.6293243609629
 51
148.3706756390465
  0
ARC
  8
1
 62
3
 10
1026.218907252814
 20
-436.3901718059063
 30
0
 40
0.6349999999998782
 50
172.5415509437017
 51
187.4584490563136
  0
ARC
  8
1
 62
3
 10
1026.218907252814
 20
-436.3901718059063
 30
0
 40
1.600000000000224
 50
211.6293243609517
 51
238.3706756390403
  0
ARC
  8
1
 62
3
 10
1026.218907252814
 20
-436.3901718059063
 30
0
 40
0.6350000000000943
 50
262.5415509436318
 51
277.4584490562664
  0
ARC
  8
1
 62
3
 10
1026.218907252814
 20
-436.3901718059063
 30
0
 40
1.599999999999818
 50
301.629324360932
 51
328.3706756390483
  0
ARC
  8
1
 62
3
 10
1026.218907252814
 20
-436.3901718059063
 30
0
 40
0.6349999999999005
 50
352.5415509436865
 51
7.458449056298288
  0
CIRCLE
  8
1
 62
3
 10
975.118907252813
 20
-465.8901718059085
 30
0
 40
2.75
  0
CIRCLE
  8
1
 62
3
 10
1026.218907252814
 20
-465.8901718059085
 30
0
 40
2.75
  0
CIRCLE
  8
1
 62
3
 10
975.118907252813
 20
-436.3901718059063
 30
0
 40
2.75
  0
CIRCLE
  8
1
 62
3
 10
1026.218907252814
 20
-436.3901718059063
 30
0
 40
2.75
  0
ARC
  8
1
 62
3
 10
975.2069597772812
 20
-466.5627659361578
 30
0
 40
0.04333333333363487
 50
44.99999999973428
 51
97.45844905631569
  0
ARC
  8
1
 62
3
 10
975.0308547283441
 20
-466.5627659361578
 30
0
 40
0.04333333333342907
 50
82.54155094368431
 51
134.999999999628
  0
ARC
  8
1
 62
3
 10
975.791501383062
 20
-465.80211928144
 30
0
 40
0.04333333333315254
 50
134.999999999628
 51
187.4584490564133
  0
ARC
  8
1
 62
3
 10
975.791501383062
 20
-465.9782243303769
 30
0
 40
0.04333333333286544
 50
172.5415509435867
 51
225.000000000372
  0
ARC
  8
1
 62
3
 10
975.0308547283441
 20
-465.2175776756591
 30
0
 40
0.04333333333319273
 50
225.0000000004252
 51
277.4584490563059
  0
ARC
  8
1
 62
3
 10
975.2069597772812
 20
-465.2175776756591
 30
0
 40
0.04333333333348544
 50
262.5415509436941
 51
315.0000000002125
  0
ARC
  8
1
 62
3
 10
974.4463131225629
 20
-465.9782243303769
 30
0
 40
0.04333333333395643
 50
315.0000000006909
 51
7.458449056179104
  0
ARC
  8
1
 62
3
 10
974.4463131225629
 20
-465.80211928144
 30
0
 40
0.04333333333421815
 50
352.5415509438209
 51
44.99999999930912
  0
ARC
  8
1
 62
3
 10
1026.130854728345
 20
-466.5627659361578
 30
0
 40
0.04333333333341431
 50
82.54155094383336
 51
134.9999999995217
  0
ARC
  8
1
 62
3
 10
1026.306959777282
 20
-466.5627659361578
 30
0
 40
0.04333333333387604
 50
44.9999999994154
 51
97.45844905616663
  0
ARC
  8
1
 62
3
 10
1025.546313122564
 20
-465.80211928144
 30
0
 40
0.04333333333410542
 50
352.5415509438014
 51
44.99999999962798
  0
ARC
  8
1
 62
3
 10
1025.546313122564
 20
-465.9782243303769
 30
0
 40
0.04333333333371527
 50
315.000000000372
 51
7.458449056198617
  0
ARC
  8
1
 62
3
 10
1026.306959777282
 20
-465.2175776756591
 30
0
 40
0.04333333333347068
 50
262.5415509438431
 51
315.0000000005314
  0
ARC
  8
1
 62
3
 10
1026.130854728345
 20
-465.2175776756591
 30
0
 40
0.04333333333311235
 50
225.0000000005315
 51
277.4584490561569
  0
ARC
  8
1
 62
3
 10
1026.891501383063
 20
-465.9782243303769
 30
0
 40
0.04333333333320362
 50
172.5415509436453
 51
225.0000000004783
  0
ARC
  8
1
 62
3
 10
1026.891501383063
 20
-465.80211928144
 30
0
 40
0.04333333333307215
 50
134.9999999995217
 51
187.4584490563547
  0
ARC
  8
1
 62
3
 10
975.2069597772812
 20
-435.717577675657
 30
0
 40
0.04333333333331635
 50
262.5415509436648
 51
315.000000000372
  0
ARC
  8
1
 62
3
 10
975.0308547283441
 20
-435.717577675657
 30
0
 40
0.04333333333307215
 50
225.0000000002658
 51
277.4584490563352
  0
ARC
  8
1
 62
3
 10
975.791501383062
 20
-436.4782243303748
 30
0
 40
0.04333333333286544
 50
172.5415509435867
 51
225.0000000001595
  0
ARC
  8
1
 62
3
 10
975.791501383062
 20
-436.3021192814379
 30
0
 40
0.04333333333315254
 50
134.999999999628
 51
187.4584490564133
  0
ARC
  8
1
 62
3
 10
975.0308547283441
 20
-437.0627659361557
 30
0
 40
0.04333333333342907
 50
82.54155094368431
 51
134.999999999628
  0
ARC
  8
1
 62
3
 10
975.2069597772812
 20
-437.0627659361557
 30
0
 40
0.04333333333363487
 50
44.99999999973428
 51
97.45844905631569
  0
ARC
  8
1
 62
3
 10
974.4463131225629
 20
-436.3021192814379
 30
0
 40
0.04333333333421815
 50
352.5415509438209
 51
44.99999999930912
  0
ARC
  8
1
 62
3
 10
974.4463131225629
 20
-436.4782243303748
 30
0
 40
0.04333333333379565
 50
315.0000000009035
 51
7.458449056179104
  0
ARC
  8
1
 62
3
 10
1026.130854728345
 20
-435.717577675657
 30
0
 40
0.04333333333299177
 50
225.000000000372
 51
277.4584490561862
  0
ARC
  8
1
 62
3
 10
1026.306959777282
 20
-435.717577675657
 30
0
 40
0.04333333333330159
 50
262.5415509438139
 51
315.0000000006909
  0
ARC
  8
1
 62
3
 10
1025.546313122564
 20
-436.4782243303748
 30
0
 40
0.04333333333355448
 50
315.0000000005846
 51
7.458449056198617
  0
ARC
  8
1
 62
3
 10
1025.546313122564
 20
-436.3021192814379
 30
0
 40
0.04333333333410542
 50
352.5415509438014
 51
44.99999999962798
  0
ARC
  8
1
 62
3
 10
1026.306959777282
 20
-437.0627659361557
 30
0
 40
0.04333333333387604
 50
44.9999999994154
 51
97.45844905616663
  0
ARC
  8
1
 62
3
 10
1026.130854728345
 20
-437.0627659361557
 30
0
 40
0.04333333333341431
 50
82.54155094383336
 51
134.9999999995217
  0
ARC
  8
1
 62
3
 10
1026.891501383063
 20
-436.3021192814379
 30
0
 40
0.04333333333307215
 50
134.9999999995217
 51
187.4584490563547
  0
ARC
  8
1
 62
3
 10
1026.891501383063
 20
-436.4782243303748
 30
0
 40
0.04333333333320362
 50
172.5415509436453
 51
225.0000000002658
  0
ENDBLK
  8
0
  0
BLOCK
  8
1
  2
*X0
 70
1
 10
0
 20
0
 30
0
  0
LINE
  8
1
 62
2
 10
1125
 20
-426.7181986779871
 30
0
 11
1125
 21
-421.1812190226455
 31
0
  0
LINE
  8
1
 62
2
 10
1126
 20
-428.288895308783
 30
0
 11
1126
 21
-421.1791828065233
 31
0
  0
LINE
  8
1
 62
2
 10
1127
 20
-429.8595919395789
 30
0
 11
1127
 21
-421.1771465904012
 31
0
  0
LINE
  8
1
 62
2
 10
1128
 20
-431.4302885703748
 30
0
 11
1128
 21
-421.175110374279
 31
0
  0
LINE
  8
1
 62
2
 10
1129
 20
-433.0009852011708
 30
0
 11
1129
 21
-421.1730741581568
 31
0
  0
LINE
  8
1
 62
2
 10
1130
 20
-434.5716818319667
 30
0
 11
1130
 21
-421.1710379420346
 31
0
  0
LINE
  8
1
 62
2
 10
1131
 20
-436.1423784627626
 30
0
 11
1131
 21
-421.1690017259124
 31
0
  0
LINE
  8
1
 62
2
 10
1132
 20
-437.7130750935585
 30
0
 11
1132
 21
-421.1669655097903
 31
0
  0
ENDBLK
  8
0
  0
BLOCK
  8
1
  2
*X1
 70
1
 10
0
 20
0
 30
0
  0
LINE
  8
1
 62
2
 10
1148
 20
-481.1401718059068
 30
0
 11
1148
 21
-463.2842344179577
 31
0
  0
LINE
  8
1
 62
2
 10
1149
 20
-481.1401718059068
 30
0
 11
1149
 21
-464.8599919937153
 31
0
  0
LINE
  8
1
 62
2
 10
1150
 20
-481.1401718059068
 30
0
 11
1150
 21
-466.4357495694728
 31
0
  0
LINE
  8
1
 62
2
 10
1151
 20
-481.1401718059068
 30
0
 11
1151
 21
-468.0115071452304
 31
0
  0
LINE
  8
1
 62
2
 10
1152
 20
-481.1401718059068
 30
0
 11
1152
 21
-469.587264720988
 31
0
  0
LINE
  8
1
 62
2
 10
1153
 20
-481.1401718059068
 30
0
 11
1153
 21
-471.1630222967455
 31
0
  0
LINE
  8
1
 62
2
 10
1154
 20
-481.1401718059068
 30
0
 11
1154
 21
-472.7387798725031
 31
0
  0
LINE
  8
1
 62
2
 10
1155
 20
-481.1401718059068
 30
0
 11
1155
 21
-474.3145374482606
 31
0
  0
LINE
  8
1
 62
2
 10
1156
 20
-481.1401718059068
 30
0
 11
1156
 21
-475.8902950240182
 31
0
  0
ENDBLK
  8
0
  0
BLOCK
  8
1
  2
*D0
 70
1
 10
0
 20
0
 30
0
  0
LINE
  8
1
 62
2
 10
1020.624383645113
 20
-455.1401718059069
 30
0
 11
1020.624383645113
 21
-477.369370941533
 31
0
  0
LINE
  8
1
 62
2
 10
1020.624383645113
 20
-455.1401718059069
 30
0
 11
1020.624383645113
 21
-447.6401718059069
 31
0
  0
LINE
  8
1
 62
2
 10
1020.624383645113
 20
-441.2401718059069
 30
0
 11
1020.624383645113
 21
-447.6401718059069
 31
0
  0
LINE
  8
1
 62
2
 10
1003.605398925917
 20
-447.6401718059069
 30
0
 11
1022.124383645113
 21
-447.6401718059069
 31
0
  0
LINE
  8
1
 62
2
 10
1001.668907252813
 20
-455.1401718059069
 30
0
 11
1022.124383645113
 21
-455.1401718059069
 31
0
  0
SOLID
  8
1
 62
2
 10
1020.624383645113
 20
-455.1401718059069
 30
0
 11
1021.040383645113
 21
-458.3401718059069
 31
0
 12
1020.208383645113
 22
-458.3401718059069
 32
0
 13
1020.208383645113
 23
-458.3401718059069
 33
0
  0
SOLID
  8
1
 62
2
 10
1020.624383645113
 20
-447.6401718059069
 30
0
 11
1020.208383645113
 21
-444.4401718059069
 31
0
 12
1021.040383645113
 22
-444.4401718059069
 32
0
 13
1021.040383645113
 23
-444.4401718059069
 33
0
  0
TEXT
  8
1
 62
2
 10
1018.624383645113
 20
-477.369370941533
 30
0
 40
3.2
  1
7.5
 50
90
 41
0.9
  0
TEXT
  8
1
 62
2
 10
1017.984383645113
 20
-469.929370941533
 30
0
 40
1.92
  1
%%p0.2
 50
90
 41
0.9
  0
ENDBLK
  8
0
  0
BLOCK
  8
1
  2
*D1
 70
1
 10
0
 20
0
 30
0
  0
LINE
  8
1
 62
2
 10
1004.168907252813
 20
-429.075180797862
 30
0
 11
1019.138915503383
 21
-429.075180797862
 31
0
  0
LINE
  8
1
 62
2
 10
996.6689072528127
 20
-429.075180797862
 30
0
 11
1004.168907252813
 21
-429.075180797862
 31
0
  0
LINE
  8
1
 62
2
 10
990.2689072528127
 20
-429.075180797862
 30
0
 11
996.6689072528127
 21
-429.075180797862
 31
0
  0
LINE
  8
1
 62
2
 10
1004.168907252813
 20
-448.2036801328032
 30
0
 11
1004.168907252813
 21
-427.575180797862
 31
0
  0
LINE
  8
1
 62
2
 10
996.6689072528127
 20
-450.140171805907
 30
0
 11
996.6689072528127
 21
-427.575180797862
 31
0
  0
SOLID
  8
1
 62
2
 10
996.6689072528127
 20
-429.075180797862
 30
0
 11
993.4689072528126
 21
-429.491180797862
 31
0
 12
993.4689072528126
 22
-428.659180797862
 32
0
 13
993.4689072528126
 23
-428.659180797862
 33
0
  0
SOLID
  8
1
 62
2
 10
1004.168907252813
 20
-429.075180797862
 30
0
 11
1007.368907252813
 21
-428.659180797862
 31
0
 12
1007.368907252813
 22
-429.491180797862
 32
0
 13
1007.368907252813
 23
-429.491180797862
 33
0
  0
TEXT
  8
1
 62
2
 10
1005.890915503383
 20
-427.075180797862
 30
0
 40
3.2
  1
7.5
 41
0.9
  0
TEXT
  8
1
 62
2
 10
1013.330915503383
 20
-426.435180797862
 30
0
 40
1.92
  1
%%p0.2
 41
0.9
  0
ENDBLK
  8
0
  0
BLOCK
  8
1
  2
*D2
 70
1
 10
0
 20
0
 30
0
  0
LINE
  8
1
 62
2
 10
1051.817384007406
 20
-490.4580397303033
 30
0
 11
1051.817384007406
 21
-500.5358303476232
 31
0
  0
LINE
  8
1
 62
2
 10
1051.817384007406
 20
-490.4580397303033
 30
0
 11
1051.817384007406
 21
-481.1401718059074
 31
0
  0
LINE
  8
1
 62
2
 10
1026.668907252814
 20
-481.1401718059074
 30
0
 11
1053.317384007406
 21
-481.1401718059074
 31
0
  0
LINE
  8
1
 62
2
 10
1011.668907252813
 20
-490.4580397303033
 30
0
 11
1053.317384007406
 21
-490.4580397303033
 31
0
  0
SOLID
  8
1
 62
2
 10
1051.817384007406
 20
-481.1401718059074
 30
0
 11
1052.233384007406
 21
-484.3401718059074
 31
0
 12
1051.401384007406
 22
-484.3401718059074
 32
0
 13
1051.401384007406
 23
-484.3401718059074
 33
0
  0
SOLID
  8
1
 62
2
 10
1051.817384007406
 20
-490.4580397303033
 30
0
 11
1051.401384007406
 21
-487.2580397303033
 31
0
 12
1052.233384007406
 22
-487.2580397303033
 32
0
 13
1052.233384007406
 23
-487.2580397303033
 33
0
  0
TEXT
  8
1
 62
2
 10
1049.911052495253
 20
-500.5358303476232
 30
0
 40
3.2
  1
(9.5)
 50
90
 41
0.9
  0
ENDBLK
  8
0
  0
BLOCK
  8
1
  2
*D3
 70
1
 10
0
 20
0
 30
0
  0
LINE
  8
1
 62
2
 10
970.668907252812
 20
-391.1401718059069
 30
0
 11
1030.668907252814
 21
-391.1401718059069
 31
0
  0
LINE
  8
1
 62
2
 10
970.668907252812
 20
-425.140171805907
 30
0
 11
970.668907252812
 21
-389.6401718059069
 31
0
  0
LINE
  8
1
 62
2
 10
1030.668907252814
 20
-425.140171805907
 30
0
 11
1030.668907252814
 21
-389.6401718059069
 31
0
  0
SOLID
  8
1
 62
2
 10
1030.668907252814
 20
-391.1401718059069
 30
0
 11
1027.468907252814
 21
-391.5561718059068
 31
0
 12
1027.468907252814
 22
-390.7241718059069
 32
0
 13
1027.468907252814
 23
-390.7241718059069
 33
0
  0
SOLID
  8
1
 62
2
 10
970.668907252812
 20
-391.1401718059069
 30
0
 11
973.8689072528121
 21
-390.7241718059069
 31
0
 12
973.8689072528121
 22
-391.5561718059068
 32
0
 13
973.8689072528121
 23
-391.5561718059068
 33
0
  0
TEXT
  8
1
 62
2
 10
998.2689072528141
 20
-389.1401718059069
 30
0
 40
3.2
  1
60
 41
0.9
  0
TEXT
  8
1
 62
2
 10
996.188907252814
 20
-389.1401718059069
 30
0
 40
3.2
  1
(
 41
0.9
  0
TEXT
  8
1
 62
2
 10
1004.668907252814
 20
-389.1401718059069
 30
0
 40
3.2
  1
)
 41
0.9
  0
ENDBLK
  8
0
  0
BLOCK
  8
1
  2
*D4
 70
1
 10
0
 20
0
 30
0
  0
LINE
  8
1
 62
2
 10
1051.817384007406
 20
-481.1401718059073
 30
0
 11
1051.817384007406
 21
-421.140171805907
 31
0
  0
LINE
  8
1
 62
2
 10
1026.668907252814
 20
-421.140171805907
 30
0
 11
1053.317384007406
 21
-421.140171805907
 31
0
  0
LINE
  8
1
 62
2
 10
1026.668907252814
 20
-481.1401718059073
 30
0
 11
1053.317384007406
 21
-481.1401718059073
 31
0
  0
SOLID
  8
1
 62
2
 10
1051.817384007406
 20
-421.140171805907
 30
0
 11
1052.233384007406
 21
-424.340171805907
 31
0
 12
1051.401384007406
 22
-424.340171805907
 32
0
 13
1051.401384007406
 23
-424.340171805907
 33
0
  0
SOLID
  8
1
 62
2
 10
1051.817384007406
 20
-481.1401718059073
 30
0
 11
1051.401384007406
 21
-477.9401718059073
 31
0
 12
1052.233384007406
 22
-477.9401718059073
 32
0
 13
1052.233384007406
 23
-477.9401718059073
 33
0
  0
TEXT
  8
1
 62
2
 10
1049.817384007406
 20
-453.5401718059074
 30
0
 40
3.2
  1
60
 50
90
 41
0.9
  0
TEXT
  8
1
 62
2
 10
1049.817384007406
 20
-455.6201718059074
 30
0
 40
3.2
  1
(
 50
90
 41
0.9
  0
TEXT
  8
1
 62
2
 10
1049.817384007406
 20
-447.1401718059074
 30
0
 40
3.2
  1
)
 50
90
 41
0.9
  0
ENDBLK
  8
0
  0
BLOCK
  8
1
  2
*D5
 70
1
 10
0
 20
0
 30
0
  0
LINE
  8
1
 62
2
 10
1043.346060012558
 20
-476.1401718059071
 30
0
 11
1043.346060012558
 21
-426.1401718059063
 31
0
  0
LINE
  8
1
 62
2
 10
1022.895793480362
 20
-426.1401718059063
 30
0
 11
1044.846060012558
 21
-426.1401718059063
 31
0
  0
LINE
  8
1
 62
2
 10
1022.895793480362
 20
-476.1401718059071
 30
0
 11
1044.846060012558
 21
-476.1401718059071
 31
0
  0
SOLID
  8
1
 62
2
 10
1043.346060012558
 20
-426.1401718059063
 30
0
 11
1043.762060012558
 21
-429.3401718059063
 31
0
 12
1042.930060012558
 22
-429.3401718059063
 32
0
 13
1042.930060012558
 23
-429.3401718059063
 33
0
  0
SOLID
  8
1
 62
2
 10
1043.346060012558
 20
-476.1401718059071
 30
0
 11
1042.930060012558
 21
-472.9401718059071
 31
0
 12
1043.762060012558
 22
-472.9401718059071
 32
0
 13
1043.762060012558
 23
-472.9401718059071
 33
0
  0
TEXT
  8
1
 62
2
 10
1041.346060012558
 20
-457.8201718059074
 30
0
 40
3.2
  1
50
 50
90
 41
0.9
  0
TEXT
  8
1
 62
2
 10
1040.706060012558
 20
-451.4201718059074
 30
0
 40
1.92
  1
%%p0.15
 50
90
 41
0.9
  0
ENDBLK
  8
0
  0
BLOCK
  8
1
  2
*D6
 70
1
 10
0
 20
0
 30
0
  0
LINE
  8
1
 62
2
 10
975.6689072528125
 20
-401.1401718059069
 30
0
 11
1025.668907252814
 21
-401.1401718059069
 31
0
  0
LINE
  8
1
 62
2
 10
1025.668907252814
 20
-428.9132855783577
 30
0
 11
1025.668907252814
 21
-399.6401718059069
 31
0
  0
LINE
  8
1
 62
2
 10
975.6689072528125
 20
-428.9132855783581
 30
0
 11
975.6689072528125
 21
-399.6401718059069
 31
0
  0
SOLID
  8
1
 62
2
 10
975.6689072528125
 20
-401.1401718059069
 30
0
 11
978.8689072528125
 21
-400.7241718059069
 31
0
 12
978.8689072528125
 22
-401.5561718059068
 32
0
 13
978.8689072528125
 23
-401.5561718059068
 33
0
  0
SOLID
  8
1
 62
2
 10
1025.668907252814
 20
-401.1401718059069
 30
0
 11
1022.468907252814
 21
-401.5561718059068
 31
0
 12
1022.468907252814
 22
-400.7241718059069
 32
0
 13
1022.468907252814
 23
-400.7241718059069
 33
0
  0
TEXT
  8
1
 62
2
 10
993.9889072528141
 20
-399.1401718059069
 30
0
 40
3.2
  1
50
 41
0.9
  0
TEXT
  8
1
 62
2
 10
1000.388907252814
 20
-398.5001718059069
 30
0
 40
1.92
  1
%%p0.15
 41
0.9
  0
ENDBLK
  8
0
  0
BLOCK
  8
1
  2
*D7
 70
1
 10
0
 20
0
 30
0
  0
LINE
  8
1
 62
2
 10
965.4055594883712
 20
-481.1401718059074
 30
0
 11
965.4055594883712
 21
-462.8712049056582
 31
0
  0
LINE
  8
1
 62
2
 10
965.4055594883712
 20
-486.9391057681052
 30
0
 11
965.4055594883712
 21
-481.1401718059074
 31
0
  0
LINE
  8
1
 62
2
 10
965.4055594883712
 20
-493.3391057681052
 30
0
 11
965.4055594883712
 21
-486.9391057681052
 31
0
  0
LINE
  8
1
 62
2
 10
974.668907252813
 20
-481.1401718059074
 30
0
 11
963.9055594883712
 21
-481.1401718059074
 31
0
  0
LINE
  8
1
 62
2
 10
988.668907252813
 20
-486.9391057681052
 30
0
 11
963.9055594883712
 21
-486.9391057681052
 31
0
  0
SOLID
  8
1
 62
2
 10
965.4055594883712
 20
-481.1401718059074
 30
0
 11
964.9895594883711
 21
-477.9401718059074
 31
0
 12
965.8215594883712
 22
-477.9401718059074
 32
0
 13
965.8215594883712
 23
-477.9401718059074
 33
0
  0
SOLID
  8
1
 62
2
 10
965.4055594883712
 20
-486.9391057681052
 30
0
 11
965.8215594883712
 21
-490.1391057681052
 31
0
 12
964.9895594883711
 22
-490.1391057681052
 32
0
 13
964.9895594883711
 23
-490.1391057681052
 33
0
  0
TEXT
  8
1
 62
2
 10
963.4055594883712
 20
-470.7912049056582
 30
0
 40
3.2
  1
6.3
 50
90
 41
0.9
  0
TEXT
  8
1
 62
2
 10
963.4055594883712
 20
-472.8712049056582
 30
0
 40
3.2
  1
(
 50
90
 41
0.9
  0
TEXT
  8
1
 62
2
 10
963.4055594883712
 20
-463.3512049056582
 30
0
 40
3.2
  1
)
 50
90
 41
0.9
  0
ENDBLK
  8
0
  0
BLOCK
  8
1
  2
*D8
 70
1
 10
0
 20
0
 30
0
  0
LINE
  8
1
 62
2
 10
1112.158575650045
 20
-398.374953725579
 30
0
 11
1102.34590148962
 21
-398.374953725579
 31
0
  0
LINE
  8
1
 62
2
 10
1112.158575650045
 20
-398.374953725579
 30
0
 11
1113.658575650045
 21
-398.374953725579
 31
0
  0
LINE
  8
1
 62
2
 10
1120.058575650045
 20
-398.374953725579
 30
0
 11
1113.658575650045
 21
-398.374953725579
 31
0
  0
LINE
  8
1
 62
2
 10
1113.658575650045
 20
-420.4260289630526
 30
0
 11
1113.658575650045
 21
-396.874953725579
 31
0
  0
LINE
  8
1
 62
2
 10
1112.158575650045
 20
-432.5901718059068
 30
0
 11
1112.158575650045
 21
-396.874953725579
 31
0
  0
SOLID
  8
1
 62
2
 10
1112.158575650045
 20
-398.374953725579
 30
0
 11
1108.958575650045
 21
-398.790953725579
 31
0
 12
1108.958575650045
 22
-397.958953725579
 32
0
 13
1108.958575650045
 23
-397.958953725579
 33
0
  0
SOLID
  8
1
 62
2
 10
1113.658575650045
 20
-398.374953725579
 30
0
 11
1116.858575650045
 21
-397.958953725579
 31
0
 12
1116.858575650045
 22
-398.790953725579
 32
0
 13
1116.858575650045
 23
-398.790953725579
 33
0
  0
TEXT
  8
1
 62
2
 10
1102.34590148962
 20
-396.374953725579
 30
0
 40
3.2
  1
1.5
 41
0.9
  0
ENDBLK
  8
0
  0
BLOCK
  8
1
  2
*D9
 70
1
 10
0
 20
0
 30
0
  0
LINE
  8
1
 62
2
 10
1064.646416056015
 20
-469.1401718059069
 30
0
 11
1064.646416056015
 21
-433.1401718059069
 31
0
  0
LINE
  8
1
 62
2
 10
1111.398575650045
 20
-433.1401718059069
 30
0
 11
1063.146416056015
 21
-433.1401718059069
 31
0
  0
LINE
  8
1
 62
2
 10
1111.398575650045
 20
-469.1401718059069
 30
0
 11
1063.146416056015
 21
-469.1401718059069
 31
0
  0
SOLID
  8
1
 62
2
 10
1064.646416056015
 20
-433.1401718059069
 30
0
 11
1065.062416056015
 21
-436.3401718059069
 31
0
 12
1064.230416056015
 22
-436.3401718059069
 32
0
 13
1064.230416056015
 23
-436.3401718059069
 33
0
  0
SOLID
  8
1
 62
2
 10
1064.646416056015
 20
-469.1401718059069
 30
0
 11
1064.230416056015
 21
-465.9401718059069
 31
0
 12
1065.062416056015
 22
-465.9401718059069
 32
0
 13
1065.062416056015
 23
-465.9401718059069
 33
0
  0
TEXT
  8
1
 62
2
 10
1061.846416056015
 20
-455.9669283031699
 30
0
 40
3.2
  1
36
 50
90
 41
0.9
  0
TEXT
  8
1
 62
2
 10
1059.766416056015
 20
-448.03092830317
 30
0
 40
1.92
  1
0
 50
90
 41
0.9
  0
TEXT
  8
1
 62
2
 10
1062.646416056015
 20
-449.56692830317
 30
0
 40
1.92
  1
-0.05
 50
90
 41
0.9
  0
TEXT
  8
1
 62
2
 10
1061.846416056015
 20
-459.6113727476144
 30
0
 40
3.2
  1
φ
 50
90
 41
0.9
  0
ENDBLK
  8
0
  0
BLOCK
  8
1
  2
*D10
 70
1
 10
0
 20
0
 30
0
  0
LINE
  8
1
 62
2
 10
1113.658575650044
 20
-389.055192451144
 30
0
 11
1171.158575650044
 21
-389.055192451144
 31
0
  0
LINE
  8
1
 62
2
 10
1171.158575650044
 20
-421.1401718059068
 30
0
 11
1171.158575650044
 21
-387.555192451144
 31
0
  0
LINE
  8
1
 62
2
 10
1113.658575650044
 20
-420.4260289630526
 30
0
 11
1113.658575650044
 21
-387.555192451144
 31
0
  0
SOLID
  8
1
 62
2
 10
1113.658575650044
 20
-389.055192451144
 30
0
 11
1116.858575650045
 21
-388.639192451144
 31
0
 12
1116.858575650045
 22
-389.471192451144
 32
0
 13
1116.858575650045
 23
-389.471192451144
 33
0
  0
SOLID
  8
1
 62
2
 10
1171.158575650044
 20
-389.055192451144
 30
0
 11
1167.958575650044
 21
-389.471192451144
 31
0
 12
1167.958575650044
 22
-388.639192451144
 32
0
 13
1167.958575650044
 23
-388.639192451144
 33
0
  0
TEXT
  8
1
 62
2
 10
1139.483427294021
 20
-387.055192451144
 30
0
 40
3.2
  1
58
 41
0.9
  0
TEXT
  8
1
 62
2
 10
1137.403427294021
 20
-387.055192451144
 30
0
 40
3.2
  1
(
 41
0.9
  0
TEXT
  8
1
 62
2
 10
1145.883427294021
 20
-387.055192451144
 30
0
 40
3.2
  1
)
 41
0.9
  0
ENDBLK
  8
0
  0
BLOCK
  8
1
  2
*D11
 70
1
 10
0
 20
0
 30
0
  0
LINE
  8
1
 62
2
 10
1089.658575650045
 20
-389.055192451144
 30
0
 11
1113.658575650045
 21
-389.055192451144
 31
0
  0
LINE
  8
1
 62
2
 10
1113.658575650045
 20
-420.4260289630526
 30
0
 11
1113.658575650045
 21
-387.555192451144
 31
0
  0
LINE
  8
1
 62
2
 10
1089.658575650045
 20
-446.6401718059069
 30
0
 11
1089.658575650045
 21
-387.555192451144
 31
0
  0
SOLID
  8
1
 62
2
 10
1089.658575650045
 20
-389.055192451144
 30
0
 11
1092.858575650045
 21
-388.639192451144
 31
0
 12
1092.858575650045
 22
-389.471192451144
 32
0
 13
1092.858575650045
 23
-389.471192451144
 33
0
  0
SOLID
  8
1
 62
2
 10
1113.658575650045
 20
-389.055192451144
 30
0
 11
1110.458575650045
 21
-389.471192451144
 31
0
 12
1110.458575650045
 22
-388.639192451144
 32
0
 13
1110.458575650045
 23
-388.639192451144
 33
0
  0
TEXT
  8
1
 62
2
 10
1095.62385482145
 20
-387.055192451144
 30
0
 40
3.2
  1
24
 41
0.9
  0
TEXT
  8
1
 62
2
 10
1102.02385482145
 20
-386.415192451144
 30
0
 40
1.92
  1
%%p0.5
 41
0.9
  0
ENDBLK
  8
0
  0
BLOCK
  8
1
  2
*D12
 70
1
 10
0
 20
0
 30
0
  0
LINE
  8
1
 62
2
 10
1089.658575650045
 20
-417.9206497273842
 30
0
 11
1109.658575650045
 21
-417.9206497273842
 31
0
  0
LINE
  8
1
 62
2
 10
1109.658575650045
 20
-446.1401718059069
 30
0
 11
1109.658575650045
 21
-416.4206497273842
 31
0
  0
LINE
  8
1
 62
2
 10
1089.658575650045
 20
-446.6401718059069
 30
0
 11
1089.658575650045
 21
-416.4206497273842
 31
0
  0
SOLID
  8
1
 62
2
 10
1089.658575650045
 20
-417.9206497273842
 30
0
 11
1092.858575650045
 21
-417.5046497273842
 31
0
 12
1092.858575650045
 22
-418.3366497273842
 32
0
 13
1092.858575650045
 23
-418.3366497273842
 33
0
  0
SOLID
  8
1
 62
2
 10
1109.658575650045
 20
-417.9206497273842
 30
0
 11
1106.458575650045
 21
-418.3366497273842
 31
0
 12
1106.458575650045
 22
-417.5046497273842
 32
0
 13
1106.458575650045
 23
-417.5046497273842
 33
0
  0
TEXT
  8
1
 62
2
 10
1094.209286833775
 20
-415.9206497273842
 30
0
 40
3.2
  1
20
 41
0.9
  0
TEXT
  8
1
 62
2
 10
1100.609286833775
 20
-415.2806497273842
 30
0
 40
1.92
  1
%%p0.2
 41
0.9
  0
ENDBLK
  8
0
  0
BLOCK
  8
1
  2
*D13
 70
1
 10
0
 20
0
 30
0
  0
LINE
  8
1
 62
2
 10
1077.039913352612
 20
-447.1401718059069
 30
0
 11
1077.039913352612
 21
-440.7401718059069
 31
0
  0
LINE
  8
1
 62
2
 10
1077.039913352612
 20
-455.1401718059069
 30
0
 11
1077.039913352612
 21
-461.5401718059069
 31
0
  0
LINE
  8
1
 62
2
 10
1077.039913352612
 20
-455.1401718059069
 30
0
 11
1077.039913352612
 21
-447.1401718059069
 31
0
  0
LINE
  8
1
 62
2
 10
1108.658575650045
 20
-447.1401718059069
 30
0
 11
1075.539913352612
 21
-447.1401718059069
 31
0
  0
LINE
  8
1
 62
2
 10
1088.658575650045
 20
-455.1401718059069
 30
0
 11
1075.539913352612
 21
-455.1401718059069
 31
0
  0
SOLID
  8
1
 62
2
 10
1077.039913352612
 20
-447.1401718059069
 30
0
 11
1076.623913352612
 21
-443.9401718059069
 31
0
 12
1077.455913352612
 22
-443.9401718059069
 32
0
 13
1077.455913352612
 23
-443.9401718059069
 33
0
  0
SOLID
  8
1
 62
2
 10
1077.039913352612
 20
-455.1401718059069
 30
0
 11
1077.455913352612
 21
-458.3401718059069
 31
0
 12
1076.623913352612
 22
-458.3401718059069
 32
0
 13
1076.623913352612
 23
-458.3401718059069
 33
0
  0
TEXT
  8
1
 62
2
 10
1074.186580019278
 20
-455.0515994769455
 30
0
 40
3.2
  1
8
 50
90
 41
0.9
  0
TEXT
  8
1
 62
2
 10
1072.106580019278
 20
-451.5315994769455
 30
0
 40
1.92
  1
+0.002
 50
90
 41
0.9
  0
TEXT
  8
1
 62
2
 10
1074.986580019278
 20
-451.5315994769455
 30
0
 40
1.92
  1
-0.010
 50
90
 41
0.9
  0
TEXT
  8
1
 62
2
 10
1074.186580019278
 20
-459.0986583004749
 30
0
 40
3.2
  1
φ
 50
90
 41
0.9
  0
ENDBLK
  8
0
  0
BLOCK
  8
1
  2
*D14
 70
1
 10
0
 20
0
 30
0
  0
LINE
  8
1
 62
2
 10
1120.658575650045
 20
-497.1122732405626
 30
0
 11
1132.250217379697
 21
-497.1122732405626
 31
0
  0
LINE
  8
1
 62
2
 10
1113.658575650045
 20
-497.1122732405626
 30
0
 11
1120.658575650045
 21
-497.1122732405626
 31
0
  0
LINE
  8
1
 62
2
 10
1107.258575650046
 20
-497.1122732405626
 30
0
 11
1113.658575650045
 21
-497.1122732405626
 31
0
  0
LINE
  8
1
 62
2
 10
1120.658575650045
 20
-482.1401718059068
 30
0
 11
1120.658575650045
 21
-498.6122732405626
 31
0
  0
LINE
  8
1
 62
2
 10
1113.658575650045
 20
-481.8543146487611
 30
0
 11
1113.658575650045
 21
-498.6122732405626
 31
0
  0
SOLID
  8
1
 62
2
 10
1113.658575650045
 20
-497.1122732405626
 30
0
 11
1110.458575650045
 21
-497.5282732405626
 31
0
 12
1110.458575650045
 22
-496.6962732405626
 32
0
 13
1110.458575650045
 23
-496.6962732405626
 33
0
  0
SOLID
  8
1
 62
2
 10
1120.658575650045
 20
-497.1122732405626
 30
0
 11
1123.858575650045
 21
-496.6962732405626
 31
0
 12
1123.858575650045
 22
-497.5282732405626
 32
0
 13
1123.858575650045
 23
-497.5282732405626
 33
0
  0
TEXT
  8
1
 62
2
 10
1130.330217379697
 20
-495.1122732405626
 30
0
 40
3.2
  1
7
 41
0.9
  0
ENDBLK
  8
0
  0
BLOCK
  8
1
  2
*D15
 70
1
 10
0
 20
0
 30
0
  0
LINE
  8
1
 62
2
 10
1001.320295633449
 20
-525.7175505966335
 30
0
 11
1060.48306852477
 21
-525.7175505966335
 31
0
  0
LINE
  8
1
 62
2
 10
1060.48306852477
 20
-539.6122827347297
 30
0
 11
1060.48306852477
 21
-524.2175505966335
 31
0
  0
LINE
  8
1
 62
2
 10
1001.320295633449
 20
-546.8682827347298
 30
0
 11
1001.320295633449
 21
-524.2175505966335
 31
0
  0
SOLID
  8
1
 62
2
 10
1060.48306852477
 20
-525.7175505966335
 30
0
 11
1057.28306852477
 21
-526.1335505966335
 31
0
 12
1057.28306852477
 22
-525.3015505966334
 32
0
 13
1057.28306852477
 23
-525.3015505966334
 33
0
  0
SOLID
  8
1
 62
2
 10
1001.320295633449
 20
-525.7175505966335
 30
0
 11
1004.520295633449
 21
-525.3015505966334
 31
0
 12
1004.520295633449
 22
-526.1335505966335
 32
0
 13
1004.520295633449
 23
-526.1335505966335
 33
0
  0
TEXT
  8
1
 62
2
 10
1023.101572403606
 20
-522.9175505966335
 30
0
 40
3.2
  1
300
 41
0.9
  0
TEXT
  8
1
 62
2
 10
1032.381572403606
 20
-520.8375505966335
 30
0
 40
1.92
  1
+40
 41
0.9
  0
TEXT
  8
1
 62
2
 10
1032.381572403606
 20
-523.7175505966335
 30
0
 40
1.92
  1
0
 41
0.9
  0
ENDBLK
  8
0
  0
BLOCK
  8
1
  2
*D16
 70
1
 10
0
 20
0
 30
0
  0
LINE
  8
1
 62
2
 10
1001.32029563345
 20
-537.2572775195451
 30
0
 11
1011.32029563345
 21
-537.2572775195451
 31
0
  0
LINE
  8
1
 62
2
 10
1011.32029563345
 20
-546.8682827347298
 30
0
 11
1011.32029563345
 21
-535.7572775195451
 31
0
  0
LINE
  8
1
 62
2
 10
1001.32029563345
 20
-546.8682827347298
 30
0
 11
1001.32029563345
 21
-535.7572775195451
 31
0
  0
SOLID
  8
1
 62
2
 10
1001.32029563345
 20
-537.2572775195451
 30
0
 11
1004.52029563345
 21
-536.8412775195451
 31
0
 12
1004.52029563345
 22
-537.6732775195452
 32
0
 13
1004.52029563345
 23
-537.6732775195452
 33
0
  0
SOLID
  8
1
 62
2
 10
1011.32029563345
 20
-537.2572775195451
 30
0
 11
1008.12029563345
 21
-537.6732775195452
 31
0
 12
1008.12029563345
 22
-536.8412775195451
 32
0
 13
1008.12029563345
 23
-536.8412775195451
 33
0
  0
TEXT
  8
1
 62
2
 10
1005.208017674963
 20
-535.2572775195451
 30
0
 40
3.2
  1
10
 41
0.9
  0
TEXT
  8
1
 62
2
 10
1003.128017674963
 20
-535.2572775195451
 30
0
 40
3.2
  1
(
 41
0.9
  0
TEXT
  8
1
 62
2
 10
1010.648017674963
 20
-535.2572775195451
 30
0
 40
3.2
  1
)
 41
0.9
  0
ENDBLK
  8
0
  0
ENDSEC
  0
SECTION
  2
ENTITIES
  0
INSERT
  8
1
  2
*X0
 10
0
 20
0
 30
0
  0
INSERT
  8
1
  2
*X1
 10
0
 20
0
 30
0
  0
LINE
  8
1
 62
3
 10
1000.668907252813
 20
-481.1401718059075
 30
0
 11
983.098907252813
 21
-481.1401718059072
 31
0
  0
LINE
  8
1
 62
3
 10
970.6689072528121
 20
-451.1401718059073
 30
0
 11
970.6689072528121
 21
-476.1401718059073
 31
0
  0
LINE
  8
1
 62
3
 10
975.1189072528121
 20
-461.8901718059077
 30
0
 11
971.6689072528121
 21
-461.8901718059077
 31
0
  0
LINE
  8
1
 62
3
 10
975.1189072528121
 20
-469.8901718059077
 30
0
 11
971.6689072528121
 21
-469.8901718059075
 31
0
  0
LINE
  8
1
 62
3
 10
983.098907252813
 20
-481.1401718059072
 30
0
 11
975.6689072528131
 21
-481.1401718059073
 31
0
  0
LINE
  8
1
 62
1
 10
971.8957934803613
 20
-476.1401718059077
 30
0
 11
979.4420210252641
 21
-476.1401718059077
 31
0
  0
LINE
  8
1
 62
1
 10
975.6689072528121
 20
-479.9132855783591
 30
0
 11
975.6689072528121
 21
-472.367058033456
 31
0
  0
LINE
  8
1
 62
3
 10
970.6689072528121
 20
-426.140171805907
 30
0
 11
970.6689072528121
 21
-451.1401718059073
 31
0
  0
LINE
  8
1
 62
3
 10
1030.668907252814
 20
-451.1401718059073
 30
0
 11
1030.668907252814
 21
-476.1401718059073
 31
0
  0
LINE
  8
1
 62
3
 10
1030.668907252814
 20
-426.140171805907
 30
0
 11
1030.668907252814
 21
-451.1401718059073
 31
0
  0
LINE
  8
1
 62
3
 10
971.6689072528121
 20
-440.3901718059057
 30
0
 11
975.1189072528121
 21
-440.3901718059057
 31
0
  0
LINE
  8
1
 62
3
 10
971.6689072528121
 20
-432.3901718059057
 30
0
 11
975.1189072528121
 21
-432.3901718059057
 31
0
  0
LINE
  8
1
 62
3
 10
1029.668907252814
 20
-461.8901718059079
 30
0
 11
1026.218907252814
 21
-461.8901718059079
 31
0
  0
LINE
  8
1
 62
3
 10
1029.668907252814
 20
-469.8901718059079
 30
0
 11
1026.218907252814
 21
-469.8901718059079
 31
0
  0
LINE
  8
1
 62
3
 10
1026.218907252814
 20
-440.3901718059057
 30
0
 11
1029.668907252814
 21
-440.3901718059057
 31
0
  0
LINE
  8
1
 62
3
 10
1026.218907252814
 20
-432.3901718059057
 30
0
 11
1029.668907252814
 21
-432.3901718059057
 31
0
  0
LINE
  8
1
 62
3
 10
1000.668907252813
 20
-421.1401718059069
 30
0
 11
1018.238907252814
 21
-421.1401718059071
 31
0
  0
LINE
  8
1
 62
3
 10
1018.238907252814
 20
-421.1401718059071
 30
0
 11
1025.668907252814
 21
-421.140171805907
 31
0
  0
LINE
  8
1
 62
1
 10
1000.668907252813
 20
-415.4289381306844
 30
0
 11
1000.668907252813
 21
-451.1401718059069
 31
0
  0
LINE
  8
1
 62
1
 10
1000.668907252813
 20
-451.1401718059069
 30
0
 11
1036.380140928035
 21
-451.1401718059077
 31
0
  0
LINE
  8
1
 62
3
 10
1018.238907252814
 20
-481.1401718059071
 30
0
 11
1000.668907252813
 21
-481.1401718059075
 31
0
  0
LINE
  8
1
 62
3
 10
1025.668907252814
 20
-481.1401718059073
 30
0
 11
1018.238907252814
 21
-481.1401718059071
 31
0
  0
LINE
  8
1
 62
3
 10
983.098907252813
 20
-421.1401718059071
 30
0
 11
1000.668907252813
 21
-421.1401718059069
 31
0
  0
LINE
  8
1
 62
3
 10
975.6689072528131
 20
-421.140171805907
 30
0
 11
983.098907252813
 21
-421.1401718059071
 31
0
  0
LINE
  8
1
 62
1
 10
964.9576735775912
 20
-451.1401718059077
 30
0
 11
1000.668907252813
 21
-451.1401718059069
 31
0
  0
LINE
  8
1
 62
1
 10
1000.668907252813
 20
-451.1401718059069
 30
0
 11
1000.668907252813
 21
-486.85140548113
 31
0
  0
LINE
  8
1
 62
1
 10
1021.895793480362
 20
-476.1401718059071
 30
0
 11
1029.442021025265
 21
-476.1401718059071
 31
0
  0
LINE
  8
1
 62
1
 10
1025.668907252814
 20
-472.3670580334554
 30
0
 11
1025.668907252814
 21
-479.9132855783585
 31
0
  0
LINE
  8
1
 62
1
 10
1025.668907252813
 20
-429.9132855783576
 30
0
 11
1025.668907252813
 21
-422.3670580334545
 31
0
  0
LINE
  8
1
 62
1
 10
979.4420210252641
 20
-426.1401718059065
 30
0
 11
971.8957934803613
 21
-426.1401718059065
 31
0
  0
LINE
  8
1
 62
1
 10
1021.895793480362
 20
-426.1401718059063
 30
0
 11
1029.442021025265
 21
-426.1401718059063
 31
0
  0
LINE
  8
1
 62
1
 10
975.6689072528121
 20
-429.9132855783582
 30
0
 11
975.6689072528121
 21
-422.3670580334551
 31
0
  0
LINE
  8
1
 62
3
 10
989.1379380492951
 20
-484.6591057681051
 30
0
 11
989.6689072528131
 21
-484.6591057681051
 31
0
  0
LINE
  8
1
 62
3
 10
989.6689072528131
 20
-481.1401718059073
 30
0
 11
989.6689072528131
 21
-486.9391057681052
 31
0
  0
LINE
  8
1
 62
3
 10
989.6689072528131
 20
-486.9391057681052
 30
0
 11
1011.668907252813
 21
-486.9391057681052
 31
0
  0
LINE
  8
1
 62
3
 10
1011.668907252813
 20
-486.9391057681052
 30
0
 11
1011.668907252813
 21
-481.1401718059072
 31
0
  0
LINE
  8
1
 62
3
 10
1011.668907252813
 20
-484.6591057681051
 30
0
 11
1012.199876456331
 21
-484.6591057681051
 31
0
  0
LINE
  8
1
 62
3
 10
998.7324155797094
 20
-447.6401718059069
 30
0
 11
1002.605398925917
 21
-447.6401718059069
 31
0
  0
LINE
  8
1
 62
3
 10
1004.168907252813
 20
-449.2036801328032
 30
0
 11
1004.168907252813
 21
-453.0766634790106
 31
0
  0
LINE
  8
1
 62
1
 10
1082.828554986545
 20
-451.1401718059069
 30
0
 11
1178.167319630545
 21
-451.1401718059069
 31
0
  0
LINE
  8
1
 62
3
 10
1158.700283432615
 20
-418.198219216848
 30
0
 11
1169.20103702051
 21
-418.198219216848
 31
0
  0
LINE
  8
1
 62
2
 10
1163.862348927277
 20
-413.3409025497078
 30
0
 11
1163.862348927277
 21
-411.3409025497078
 31
0
  0
LINE
  8
1
 62
2
 10
1161.862348927277
 20
-412.1409025497079
 30
0
 11
1163.862348927277
 21
-413.3409025497078
 31
0
  0
LINE
  8
1
 62
2
 10
1165.862348927277
 20
-412.1409025497079
 30
0
 11
1161.862348927277
 21
-412.1409025497079
 31
0
  0
LINE
  8
1
 62
2
 10
1161.462348927277
 20
-409.7409025497079
 30
0
 11
1166.262348927276
 21
-409.7409025497079
 31
0
  0
LINE
  8
1
 62
2
 10
1166.262348927276
 20
-414.5409025497078
 30
0
 11
1161.462348927277
 21
-414.5409025497078
 31
0
  0
LINE
  8
1
 62
2
 10
1166.262348927276
 20
-393.7409025497079
 30
0
 11
1166.262348927276
 21
-414.5409025497078
 31
0
  0
LINE
  8
1
 62
2
 10
1161.462348927277
 20
-393.7409025497079
 30
0
 11
1166.262348927276
 21
-393.7409025497079
 31
0
  0
LINE
  8
1
 62
2
 10
1161.462348927277
 20
-414.5409025497078
 30
0
 11
1161.462348927277
 21
-393.7409025497079
 31
0
  0
LINE
  8
1
 62
3
 10
1112.158575650045
 20
-455.1401718059069
 30
0
 11
1089.658575650045
 21
-455.1401718059069
 31
0
  0
LINE
  8
1
 62
3
 10
1112.158575650045
 20
-447.1401718059069
 30
0
 11
1109.658575650045
 21
-447.1401718059069
 31
0
  0
LINE
  8
1
 62
3
 10
1163.858575650045
 20
-486.9391057681052
 30
0
 11
1163.858575650045
 21
-484.6591057681052
 31
0
  0
LINE
  8
1
 62
3
 10
1156.158575650045
 20
-486.9391057681052
 30
0
 11
1163.858575650045
 21
-486.9391057681052
 31
0
  0
LINE
  8
1
 62
3
 10
1156.158575650045
 20
-484.6591057681052
 30
0
 11
1156.158575650045
 21
-486.9391057681052
 31
0
  0
LINE
  8
1
 62
3
 10
1156.158575650045
 20
-472.1401718059069
 30
0
 11
1171.158575650045
 21
-472.1401718059068
 31
0
  0
LINE
  8
1
 62
3
 10
1156.158575650045
 20
-430.1401718059069
 30
0
 11
1171.158575650045
 21
-430.1401718059069
 31
0
  0
LINE
  8
1
 62
3
 10
1171.158575650045
 20
-451.1401718059069
 30
0
 11
1171.158575650045
 21
-483.6591057681052
 31
0
  0
LINE
  8
1
 62
3
 10
1156.158575650045
 20
-421.1401718059068
 30
0
 11
1170.158575650045
 21
-421.1401718059068
 31
0
  0
LINE
  8
1
 62
3
 10
1171.158575650045
 20
-422.1401718059068
 30
0
 11
1171.158575650045
 21
-451.1401718059069
 31
0
  0
LINE
  8
1
 62
3
 10
1171.158575650045
 20
-432.1901718059067
 30
0
 11
1171.158575650045
 21
-451.1401718059069
 31
0
  0
LINE
  8
1
 62
3
 10
1171.158575650045
 20
-451.1401718059069
 30
0
 11
1171.158575650045
 21
-470.0901718059071
 31
0
  0
LINE
  8
1
 62
3
 10
1156.158575650045
 20
-484.6591057681052
 30
0
 11
1156.158575650045
 21
-421.1401718059068
 31
0
  0
LINE
  8
1
 62
3
 10
1170.158575650045
 20
-484.6591057681052
 30
0
 11
1156.158575650045
 21
-484.6591057681052
 31
0
  0
LINE
  8
1
 62
3
 10
1114.358575650045
 20
-421.1401718059068
 30
0
 11
1124.458575650045
 21
-421.1401718059068
 31
0
  0
LINE
  8
1
 62
3
 10
1112.158575650045
 20
-451.1401718059069
 30
0
 11
1112.158575650045
 21
-433.844419447414
 31
0
  0
LINE
  8
1
 62
3
 10
1112.158575650045
 20
-433.844419447414
 30
0
 11
1112.158575650045
 21
-433.5901718059068
 31
0
  0
LINE
  8
1
 62
3
 10
1112.158575650045
 20
-433.5901718059068
 30
0
 11
1112.158575650045
 21
-433.3901718059069
 31
0
  0
LINE
  8
1
 62
3
 10
1112.243375480445
 20
-433.2371719119065
 30
0
 11
1112.398575650045
 21
-433.1401718059069
 31
0
  0
LINE
  8
1
 62
3
 10
1112.158575650045
 20
-433.2901718059069
 30
0
 11
1112.243375480445
 21
-433.2371719119065
 31
0
  0
LINE
  8
1
 62
3
 10
1112.158575650045
 20
-433.3901718059069
 30
0
 11
1112.158575650045
 21
-433.2901718059069
 31
0
  0
LINE
  8
1
 62
3
 10
1113.658575650045
 20
-421.4260289630526
 30
0
 11
1113.658575650045
 21
-433.1401718059069
 31
0
  0
LINE
  8
1
 62
3
 10
1112.398575650045
 20
-433.1401718059069
 30
0
 11
1113.658575650045
 21
-433.1401718059069
 31
0
  0
LINE
  8
1
 62
3
 10
1124.658575650045
 20
-451.1401718059069
 30
0
 11
1124.658575650045
 21
-421.1819142364113
 31
0
  0
LINE
  8
1
 62
3
 10
1113.658575650045
 20
-433.1401718059069
 30
0
 11
1113.658575650045
 21
-451.1401718059069
 31
0
  0
LINE
  8
1
 62
3
 10
1124.458575650045
 20
-481.1401718059068
 30
0
 11
1114.358575650045
 21
-481.1401718059068
 31
0
  0
LINE
  8
1
 62
3
 10
1112.158575650045
 20
-468.4359241643996
 30
0
 11
1112.158575650045
 21
-451.1401718059069
 31
0
  0
LINE
  8
1
 62
3
 10
1112.158575650045
 20
-468.6901718059069
 30
0
 11
1112.158575650045
 21
-468.4359241643996
 31
0
  0
LINE
  8
1
 62
3
 10
1112.158575650045
 20
-468.8901718059069
 30
0
 11
1112.158575650045
 21
-468.6901718059069
 31
0
  0
LINE
  8
1
 62
3
 10
1112.398575650045
 20
-469.1401718059069
 30
0
 11
1112.243375480445
 21
-469.0431716999072
 31
0
  0
LINE
  8
1
 62
3
 10
1112.243375480445
 20
-469.0431716999072
 30
0
 11
1112.158575650045
 21
-468.9901718059069
 31
0
  0
LINE
  8
1
 62
3
 10
1112.158575650045
 20
-468.9901718059069
 30
0
 11
1112.158575650045
 21
-468.8901718059069
 31
0
  0
LINE
  8
1
 62
3
 10
1113.658575650045
 20
-469.1401718059069
 30
0
 11
1113.658575650045
 21
-480.8543146487611
 31
0
  0
LINE
  8
1
 62
3
 10
1113.658575650045
 20
-469.1401718059069
 30
0
 11
1112.398575650045
 21
-469.1401718059069
 31
0
  0
LINE
  8
1
 62
3
 10
1124.658575650045
 20
-481.0984293754024
 30
0
 11
1124.658575650045
 21
-451.1401718059069
 31
0
  0
LINE
  8
1
 62
3
 10
1113.658575650045
 20
-451.1401718059069
 30
0
 11
1113.658575650045
 21
-469.1401718059069
 31
0
  0
LINE
  8
1
 62
3
 10
1113.658575650045
 20
-441.3901718059058
 30
0
 11
1114.158575650045
 21
-441.3901718059058
 31
0
  0
LINE
  8
1
 62
3
 10
1114.158575650045
 20
-441.3901718059058
 30
0
 11
1114.158575650045
 21
-431.5683923421919
 31
0
  0
LINE
  8
1
 62
3
 10
1114.158575650045
 20
-431.5683923421919
 30
0
 11
1113.658575650045
 21
-431.5683923421919
 31
0
  0
LINE
  8
1
 62
3
 10
1113.658575650045
 20
-460.8901718059079
 30
0
 11
1114.158575650045
 21
-460.8901718059079
 31
0
  0
LINE
  8
1
 62
3
 10
1114.158575650045
 20
-460.8901718059079
 30
0
 11
1114.158575650045
 21
-470.8901718059079
 31
0
  0
LINE
  8
1
 62
3
 10
1114.158575650045
 20
-470.8901718059079
 30
0
 11
1113.658575650045
 21
-470.8901718059079
 31
0
  0
LINE
  8
1
 62
3
 10
1124.658575650045
 20
-421.1819142364113
 30
0
 11
1156.158575650045
 21
-421.1401718059068
 31
0
  0
LINE
  8
1
 62
3
 10
1124.458575650045
 20
-481.1401718059068
 30
0
 11
1156.158575650045
 21
-481.1401718059068
 31
0
  0
LINE
  8
1
 62
3
 10
1124.658575650045
 20
-430.1401718059069
 30
0
 11
1156.158575650045
 21
-430.1401718059069
 31
0
  0
LINE
  8
1
 62
3
 10
1156.158575650045
 20
-472.1401718059069
 30
0
 11
1124.658575650045
 21
-472.1401718059069
 31
0
  0
LINE
  8
1
 62
3
 10
1120.658575650045
 20
-421.4260289630526
 30
0
 11
1120.658575650045
 21
-430.1401718059069
 31
0
  0
LINE
  8
1
 62
3
 10
1120.658575650045
 20
-430.1401718059069
 30
0
 11
1124.658575650045
 21
-430.1401718059069
 31
0
  0
LINE
  8
1
 62
3
 10
1124.658575650045
 20
-472.1401718059069
 30
0
 11
1120.658575650045
 21
-472.1401718059069
 31
0
  0
LINE
  8
1
 62
3
 10
1120.658575650045
 20
-472.1401718059069
 30
0
 11
1120.658575650045
 21
-481.1401718059068
 31
0
  0
LINE
  8
1
 62
3
 10
1089.658575650045
 20
-447.6401718059069
 30
0
 11
1089.658575650045
 21
-455.1401718059069
 31
0
  0
LINE
  8
1
 62
3
 10
1109.658575650045
 20
-447.1401718059069
 30
0
 11
1109.658575650045
 21
-447.6401718059069
 31
0
  0
LINE
  8
1
 62
3
 10
1109.658575650045
 20
-447.6401718059069
 30
0
 11
1089.658575650045
 21
-447.6401718059069
 31
0
  0
LINE
  8
1
 62
3
 10
1089.658575650045
 20
-449.2036801328032
 30
0
 11
1109.658575650045
 21
-449.2036801328032
 31
0
  0
LINE
  8
1
 62
3
 10
1109.658575650045
 20
-449.2036801328032
 30
0
 11
1109.658575650045
 21
-453.0766634790106
 31
0
  0
LINE
  8
1
 62
3
 10
1109.658575650045
 20
-453.0766634790106
 30
0
 11
1089.658575650045
 21
-453.0766634790106
 31
0
  0
LINE
  8
1
 62
2
 10
1089.658575650045
 20
-449.2036801328032
 30
0
 11
1109.658575650045
 21
-453.0766634790106
 31
0
  0
LINE
  8
1
 62
2
 10
1109.658575650045
 20
-449.2036801328032
 30
0
 11
1089.658575650045
 21
-453.0766634790106
 31
0
  0
LINE
  8
1
 62
2
 10
1029.890744758218
 20
-545.3482827347295
 30
0
 11
1029.890744758218
 21
-552.4682827347297
 31
0
  0
LINE
  8
1
 62
2
 10
1028.912346671592
 20
-545.3482827347295
 30
0
 11
1028.912346671592
 21
-552.4682827347297
 31
0
  0
LINE
  8
1
 62
3
 10
1029.890744758218
 20
-550.4682827347297
 30
0
 11
1048.985326283086
 21
-550.4682827347297
 31
0
  0
LINE
  8
1
 62
3
 10
1029.890744758218
 20
-549.4282827347296
 30
0
 11
1048.985326283086
 21
-549.4282827347296
 31
0
  0
LINE
  8
1
 62
3
 10
1029.890744758218
 20
-548.3882827347295
 30
0
 11
1048.985326283086
 21
-548.3882827347295
 31
0
  0
LINE
  8
1
 62
3
 10
1029.890744758218
 20
-547.3482827347295
 30
0
 11
1048.985326283086
 21
-547.3482827347295
 31
0
  0
LINE
  8
1
 62
3
 10
1059.98306852477
 20
-554.9882827347298
 30
0
 11
1060.48306852477
 21
-554.9882827347298
 31
0
  0
LINE
  8
1
 62
3
 10
1059.98306852477
 20
-541.7882827347296
 30
0
 11
1060.48306852477
 21
-541.7882827347296
 31
0
  0
LINE
  8
1
 62
3
 10
1059.98306852477
 20
-556.1642827347296
 30
0
 11
1059.98306852477
 21
-554.9882827347298
 31
0
  0
LINE
  8
1
 62
3
 10
1060.48306852477
 20
-556.1642827347296
 30
0
 11
1059.98306852477
 21
-556.1642827347296
 31
0
  0
LINE
  8
1
 62
3
 10
1059.98306852477
 20
-540.6122827347297
 30
0
 11
1060.48306852477
 21
-540.6122827347297
 31
0
  0
LINE
  8
1
 62
3
 10
1059.98306852477
 20
-541.7882827347296
 30
0
 11
1059.98306852477
 21
-540.6122827347297
 31
0
  0
LINE
  8
1
 62
3
 10
1059.98306852477
 20
-543.7882827347296
 30
0
 11
1060.48306852477
 21
-543.7882827347296
 31
0
  0
LINE
  8
1
 62
3
 10
1059.98306852477
 20
-542.9882827347298
 30
0
 11
1059.98306852477
 21
-543.7882827347296
 31
0
  0
LINE
  8
1
 62
3
 10
1060.48306852477
 20
-542.9882827347298
 30
0
 11
1059.98306852477
 21
-542.9882827347298
 31
0
  0
LINE
  8
1
 62
3
 10
1059.98306852477
 20
-545.7882827347296
 30
0
 11
1060.48306852477
 21
-545.7882827347296
 31
0
  0
LINE
  8
1
 62
3
 10
1059.98306852477
 20
-544.9882827347298
 30
0
 11
1059.98306852477
 21
-545.7882827347296
 31
0
  0
LINE
  8
1
 62
3
 10
1060.48306852477
 20
-544.9882827347298
 30
0
 11
1059.98306852477
 21
-544.9882827347298
 31
0
  0
LINE
  8
1
 62
3
 10
1059.98306852477
 20
-547.7882827347296
 30
0
 11
1060.48306852477
 21
-547.7882827347296
 31
0
  0
LINE
  8
1
 62
3
 10
1059.98306852477
 20
-546.9882827347296
 30
0
 11
1059.98306852477
 21
-547.7882827347296
 31
0
  0
LINE
  8
1
 62
3
 10
1060.48306852477
 20
-546.9882827347296
 30
0
 11
1059.98306852477
 21
-546.9882827347296
 31
0
  0
LINE
  8
1
 62
3
 10
1059.98306852477
 20
-541.7882827347296
 30
0
 11
1060.48306852477
 21
-541.7882827347296
 31
0
  0
LINE
  8
1
 62
3
 10
1059.98306852477
 20
-540.9882827347298
 30
0
 11
1059.98306852477
 21
-541.7882827347296
 31
0
  0
LINE
  8
1
 62
3
 10
1059.98306852477
 20
-543.7882827347296
 30
0
 11
1060.48306852477
 21
-543.7882827347296
 31
0
  0
LINE
  8
1
 62
3
 10
1059.98306852477
 20
-542.9882827347298
 30
0
 11
1059.98306852477
 21
-543.7882827347296
 31
0
  0
LINE
  8
1
 62
3
 10
1060.48306852477
 20
-542.9882827347298
 30
0
 11
1059.98306852477
 21
-542.9882827347298
 31
0
  0
LINE
  8
1
 62
3
 10
1059.98306852477
 20
-545.7882827347296
 30
0
 11
1060.48306852477
 21
-545.7882827347296
 31
0
  0
LINE
  8
1
 62
3
 10
1059.98306852477
 20
-544.9882827347298
 30
0
 11
1059.98306852477
 21
-545.7882827347296
 31
0
  0
LINE
  8
1
 62
3
 10
1060.48306852477
 20
-544.9882827347298
 30
0
 11
1059.98306852477
 21
-544.9882827347298
 31
0
  0
LINE
  8
1
 62
3
 10
1059.98306852477
 20
-547.7882827347296
 30
0
 11
1060.48306852477
 21
-547.7882827347296
 31
0
  0
LINE
  8
1
 62
3
 10
1059.98306852477
 20
-546.9882827347296
 30
0
 11
1059.98306852477
 21
-547.7882827347296
 31
0
  0
LINE
  8
1
 62
3
 10
1060.48306852477
 20
-546.9882827347296
 30
0
 11
1059.98306852477
 21
-546.9882827347296
 31
0
  0
LINE
  8
1
 62
3
 10
1059.98306852477
 20
-549.7882827347296
 30
0
 11
1060.48306852477
 21
-549.7882827347296
 31
0
  0
LINE
  8
1
 62
3
 10
1059.98306852477
 20
-548.9882827347296
 30
0
 11
1059.98306852477
 21
-549.7882827347296
 31
0
  0
LINE
  8
1
 62
3
 10
1060.48306852477
 20
-548.9882827347296
 30
0
 11
1059.98306852477
 21
-548.9882827347296
 31
0
  0
LINE
  8
1
 62
3
 10
1059.98306852477
 20
-551.7882827347296
 30
0
 11
1060.48306852477
 21
-551.7882827347296
 31
0
  0
LINE
  8
1
 62
3
 10
1059.98306852477
 20
-550.9882827347296
 30
0
 11
1059.98306852477
 21
-551.7882827347296
 31
0
  0
LINE
  8
1
 62
3
 10
1060.48306852477
 20
-550.9882827347296
 30
0
 11
1059.98306852477
 21
-550.9882827347296
 31
0
  0
LINE
  8
1
 62
3
 10
1059.98306852477
 20
-553.7882827347296
 30
0
 11
1060.48306852477
 21
-553.7882827347296
 31
0
  0
LINE
  8
1
 62
3
 10
1059.98306852477
 20
-552.9882827347298
 30
0
 11
1059.98306852477
 21
-553.7882827347296
 31
0
  0
LINE
  8
1
 62
3
 10
1060.48306852477
 20
-552.9882827347298
 30
0
 11
1059.98306852477
 21
-552.9882827347298
 31
0
  0
LINE
  8
1
 62
3
 10
1060.48306852477
 20
-540.6122827347297
 30
0
 11
1060.48306852477
 21
-556.1642827347296
 31
0
  0
LINE
  8
1
 62
2
 10
1036.570379445572
 20
-576.1161448343969
 30
0
 11
1085.377006378855
 21
-576.1161448343969
 31
0
  0
LINE
  8
1
 62
3
 10
1060.48306852477
 20
-553.8602827347296
 30
0
 11
1062.571068524769
 21
-553.9322827347296
 31
0
  0
LINE
  8
1
 62
3
 10
1062.571068524769
 20
-553.9322827347296
 30
0
 11
1062.93106852477
 21
-554.2202827347295
 31
0
  0
LINE
  8
1
 62
3
 10
1062.93106852477
 20
-554.2202827347295
 30
0
 11
1063.75906852477
 21
-554.2202827347295
 31
0
  0
LINE
  8
1
 62
3
 10
1063.75906852477
 20
-554.2202827347295
 30
0
 11
1064.83906852477
 21
-553.7882827347296
 31
0
  0
LINE
  8
1
 62
3
 10
1064.83906852477
 20
-553.7882827347296
 30
0
 11
1064.83906852477
 21
-553.3562827347296
 31
0
  0
LINE
  8
1
 62
3
 10
1062.571068524769
 20
-542.8442827347298
 30
0
 11
1060.48306852477
 21
-542.9162827347294
 31
0
  0
LINE
  8
1
 62
3
 10
1062.93106852477
 20
-542.5562827347295
 30
0
 11
1062.571068524769
 21
-542.8442827347298
 31
0
  0
LINE
  8
1
 62
3
 10
1063.75906852477
 20
-542.5562827347295
 30
0
 11
1062.93106852477
 21
-542.5562827347295
 31
0
  0
LINE
  8
1
 62
3
 10
1064.83906852477
 20
-542.9882827347296
 30
0
 11
1063.75906852477
 21
-542.5562827347295
 31
0
  0
LINE
  8
1
 62
3
 10
1064.83906852477
 20
-543.4202827347297
 30
0
 11
1064.83906852477
 21
-542.9882827347296
 31
0
  0
LINE
  8
1
 62
3
 10
1064.83906852477
 20
-543.4202827347297
 30
0
 11
1061.05906852477
 21
-543.4202827347297
 31
0
  0
LINE
  8
1
 62
3
 10
1064.83906852477
 20
-553.3562827347296
 30
0
 11
1061.05906852477
 21
-553.3562827347296
 31
0
  0
LINE
  8
1
 62
3
 10
1061.05906852477
 20
-553.3562827347296
 30
0
 11
1061.05906852477
 21
-543.4202827347297
 31
0
  0
LINE
  8
1
 62
3
 10
1061.05906852477
 20
-541.1882827347297
 30
0
 11
1061.05906852477
 21
-540.6122827347297
 31
0
  0
LINE
  8
1
 62
3
 10
1066.06306852477
 20
-555.5882827347296
 30
0
 11
1066.06306852477
 21
-541.1882827347297
 31
0
  0
LINE
  8
1
 62
3
 10
1061.05906852477
 20
-555.5882827347296
 30
0
 11
1066.06306852477
 21
-555.5882827347296
 31
0
  0
LINE
  8
1
 62
3
 10
1061.05906852477
 20
-541.1882827347297
 30
0
 11
1066.06306852477
 21
-541.1882827347297
 31
0
  0
LINE
  8
1
 62
3
 10
1061.05906852477
 20
-556.1642827347296
 30
0
 11
1061.05906852477
 21
-555.5882827347296
 31
0
  0
LINE
  8
1
 62
3
 10
1060.48306852477
 20
-556.1642827347296
 30
0
 11
1061.05906852477
 21
-556.1642827347296
 31
0
  0
LINE
  8
1
 62
3
 10
1060.48306852477
 20
-540.6122827347297
 30
0
 11
1060.48306852477
 21
-556.1642827347296
 31
0
  0
LINE
  8
1
 62
3
 10
1061.05906852477
 20
-540.6122827347297
 30
0
 11
1060.48306852477
 21
-540.6122827347297
 31
0
  0
LINE
  8
1
 62
3
 10
1028.912346671592
 20
-548.3882827347296
 30
0
 11
1011.320295633449
 21
-548.3882827347297
 31
0
  0
LINE
  8
1
 62
3
 10
1028.912346671592
 20
-549.4282827347296
 30
0
 11
1011.320295633449
 21
-549.4282827347297
 31
0
  0
LINE
  8
1
 62
3
 10
1011.320295633449
 20
-550.4682827347297
 30
0
 11
1028.912346671592
 21
-550.4682827347297
 31
0
  0
LINE
  8
1
 62
3
 10
1011.320295633449
 20
-547.3482827347298
 30
0
 11
1028.912346671593
 21
-547.3482827347297
 31
0
  0
LINE
  8
1
 62
3
 10
1057.23306852477
 20
-541.8682827347298
 30
0
 11
1048.985326283086
 21
-547.3482827347295
 31
0
  0
LINE
  8
1
 62
3
 10
1057.23306852477
 20
-541.8682827347298
 30
0
 11
1060.48306852477
 21
-541.8682827347298
 31
0
  0
LINE
  8
1
 62
3
 10
1048.985326283086
 20
-548.3882827347295
 30
0
 11
1057.23306852477
 21
-542.9082827347296
 31
0
  0
LINE
  8
1
 62
3
 10
1057.23306852477
 20
-542.9082827347296
 30
0
 11
1060.48306852477
 21
-542.9082827347296
 31
0
  0
LINE
  8
1
 62
3
 10
1048.985326283086
 20
-548.3882827347295
 30
0
 11
1057.23306852477
 21
-545.8682827347296
 31
0
  0
LINE
  8
1
 62
3
 10
1057.23306852477
 20
-545.8682827347296
 30
0
 11
1060.48306852477
 21
-545.8682827347296
 31
0
  0
LINE
  8
1
 62
3
 10
1048.985326283086
 20
-549.4282827347296
 30
0
 11
1057.23306852477
 21
-546.9082827347295
 31
0
  0
LINE
  8
1
 62
3
 10
1057.23306852477
 20
-546.9082827347295
 30
0
 11
1060.48306852477
 21
-546.9082827347295
 31
0
  0
LINE
  8
1
 62
3
 10
1048.985326283086
 20
-549.4282827347296
 30
0
 11
1057.23306852477
 21
-553.8682827347298
 31
0
  0
LINE
  8
1
 62
3
 10
1057.23306852477
 20
-553.8682827347298
 30
0
 11
1060.48306852477
 21
-553.8682827347296
 31
0
  0
LINE
  8
1
 62
3
 10
1048.985326283086
 20
-550.4682827347297
 30
0
 11
1057.23306852477
 21
-554.9082827347296
 31
0
  0
LINE
  8
1
 62
3
 10
1057.23306852477
 20
-554.9082827347296
 30
0
 11
1060.48306852477
 21
-554.9082827347296
 31
0
  0
LINE
  8
1
 62
2
 10
1102.596151082795
 20
-565.1115817647117
 30
0
 11
1068.952899460136
 21
-565.1115817647117
 31
0
  0
LINE
  8
1
 62
3
 10
1011.320295633449
 20
-547.3482827347298
 30
0
 11
1011.320295633449
 21
-550.4682827347297
 31
0
  0
LINE
  8
1
 62
3
 10
1011.320295633449
 20
-547.8682827347298
 30
0
 11
1001.320295633449
 21
-547.8682827347298
 31
0
  0
LINE
  8
1
 62
3
 10
1011.320295633449
 20
-549.9482827347297
 30
0
 11
1001.320295633449
 21
-549.9482827347297
 31
0
  0
LINE
  8
1
 62
3
 10
1011.320295633449
 20
-548.9082827347297
 30
0
 11
1001.320295633449
 21
-548.9082827347297
 31
0
  0
ARC
  8
1
 62
3
 10
975.1189072528121
 20
-465.8901718059077
 30
0
 40
4
 50
0
 51
90
  0
ARC
  8
1
 62
3
 10
975.1189072528121
 20
-465.8901718059077
 30
0
 40
4
 50
270
 51
0
  0
ARC
  8
1
 62
3
 10
975.1189072528121
 20
-436.3901718059057
 30
0
 40
4
 50
270
 51
0
  0
ARC
  8
1
 62
3
 10
975.1189072528121
 20
-436.3901718059057
 30
0
 40
4
 50
0
 51
90
  0
ARC
  8
1
 62
3
 10
1026.218907252814
 20
-465.8901718059079
 30
0
 40
4
 50
90
 51
180
  0
ARC
  8
1
 62
3
 10
1026.218907252814
 20
-465.8901718059079
 30
0
 40
4
 50
180
 51
270
  0
ARC
  8
1
 62
3
 10
1026.218907252814
 20
-436.3901718059057
 30
0
 40
4
 50
180
 51
270
  0
ARC
  8
1
 62
3
 10
1026.218907252814
 20
-436.3901718059057
 30
0
 40
4
 50
90
 51
180
  0
ARC
  8
1
 62
3
 10
1000.668907252809
 20
-451.1401718058975
 30
0
 40
35.4468924552661
 50
237.8154181478704
 51
251.0160860777097
  0
ARC
  8
1
 62
3
 10
1000.668907252818
 20
-451.1401718058975
 30
0
 40
35.44689245526607
 50
288.9839139222889
 51
302.1845818521298
  0
ARC
  8
1
 62
3
 10
1000.668907252813
 20
-451.1401718059069
 30
0
 40
4
 50
0
 51
180
  0
ARC
  8
1
 62
3
 10
1000.668907252813
 20
-451.1401718059069
 30
0
 40
4
 50
270
 51
0
  0
ARC
  8
1
 62
3
 10
1000.668907252813
 20
-451.1401718059069
 30
0
 40
3.999999999999886
 50
180
 51
270
  0
CIRCLE
  8
1
 62
3
 10
1000.668907252813
 20
-451.1401718059069
 30
0
 40
18
  0
CIRCLE
  8
1
 62
3
 10
975.1189072528121
 20
-465.8901718059077
 30
0
 40
3
  0
CIRCLE
  8
1
 62
3
 10
975.6689072528121
 20
-476.1401718059073
 30
0
 40
2.500000000001023
  0
CIRCLE
  8
1
 62
3
 10
975.1189072528121
 20
-436.3901718059057
 30
0
 40
3
  0
CIRCLE
  8
1
 62
3
 10
1026.218907252814
 20
-465.8901718059079
 30
0
 40
3
  0
CIRCLE
  8
1
 62
3
 10
1025.668907252814
 20
-426.140171805907
 30
0
 40
2.5
  0
CIRCLE
  8
1
 62
3
 10
1026.218907252814
 20
-436.3901718059057
 30
0
 40
3
  0
CIRCLE
  8
1
 62
3
 10
1025.668907252814
 20
-476.1401718059073
 30
0
 40
2.5
  0
CIRCLE
  8
1
 62
3
 10
975.6689072528121
 20
-426.140171805907
 30
0
 40
2.500000000001023
  0
CIRCLE
  8
1
 62
3
 10
1000.668907252813
 20
-451.1401718059069
 30
0
 40
4.5
  0
CIRCLE
  8
1
 62
3
 10
1000.668907252813
 20
-451.1401718059069
 30
0
 40
13.5
  0
CIRCLE
  8
1
 62
3
 10
1000.668907252813
 20
-451.1401718059069
 30
0
 40
16
  0
CIRCLE
  8
1
 62
3
 10
1000.668907252813
 20
-451.1401718059069
 30
0
 40
16.5
  0
ARC
  8
1
 62
3
 10
971.6689072528121
 20
-470.8901718059077
 30
0
 40
1.000000000000171
 50
90
 51
180
  0
ARC
  8
1
 62
3
 10
971.6689072528121
 20
-460.8901718059077
 30
0
 40
1
 50
180
 51
270
  0
ARC
  8
1
 62
3
 10
975.6689072528121
 20
-476.1401718059073
 30
0
 40
5
 50
180
 51
270
  0
ARC
  8
1
 62
3
 10
1029.668907252814
 20
-470.8901718059079
 30
0
 40
1
 50
0
 51
90
  0
ARC
  8
1
 62
3
 10
1029.668907252814
 20
-460.8901718059079
 30
0
 40
1
 50
270
 51
0
  0
ARC
  8
1
 62
3
 10
1029.668907252814
 20
-441.3901718059057
 30
0
 40
1
 50
0
 51
90
  0
ARC
  8
1
 62
3
 10
1029.668907252814
 20
-431.3901718059057
 30
0
 40
1
 50
270
 51
0
  0
ARC
  8
1
 62
3
 10
971.6689072528121
 20
-431.3901718059057
 30
0
 40
1
 50
180
 51
270
  0
ARC
  8
1
 62
3
 10
971.6689072528121
 20
-441.3901718059057
 30
0
 40
1
 50
90
 51
180
  0
ARC
  8
1
 62
3
 10
1025.668907252814
 20
-426.140171805907
 30
0
 40
5
 50
0
 51
90
  0
ARC
  8
1
 62
3
 10
1025.668907252814
 20
-476.1401718059073
 30
0
 40
5
 50
270
 51
0
  0
ARC
  8
1
 62
3
 10
975.6689072528121
 20
-426.140171805907
 30
0
 40
5
 50
90
 51
180
  0
ARC
  8
1
 62
3
 10
1170.158575650045
 20
-483.6591057681052
 30
0
 40
1
 50
270
 51
0
  0
ARC
  8
1
 62
3
 10
1170.158575650045
 20
-422.1401718059068
 30
0
 40
1
 50
0
 51
90
  0
ARC
  8
1
 62
3
 10
1124.458575650045
 20
-421.6401718059068
 30
0
 40
0.4999999999998643
 50
66.42182152181412
 51
90
  0
ARC
  8
1
 62
3
 10
1114.358575650045
 20
-422.1401718059068
 30
0
 40
1
 50
90
 51
134.4270040008115
  0
ARC
  8
1
 62
3
 10
1124.458575650045
 20
-480.6401718059068
 30
0
 40
0.5
 50
270
 51
293.5781784781807
  0
ARC
  8
1
 62
3
 10
1114.358575650045
 20
-480.1401718059068
 30
0
 40
1.000000000000043
 50
225.5729959991931
 51
270
  0
LINE
  8
1
 62
2
 10
1119.57899634276
 20
-406.518991857631
 30
0
 11
1143.83889901196
 21
-406.518991857631
 31
0
  0
LINE
  8
1
 62
2
 10
1143.83889901196
 20
-406.518991857631
 30
0
 11
1160.60408050752
 21
-418.198219216848
 31
0
  0
SOLID
  8
1
 62
2
 10
1157.737583589752
 20
-416.714750648638
 30
0
 11
1158.219207021934
 21
-416.0233946192799
 31
0
 12
1160.60408050752
 22
-418.198219216848
 32
0
 13
1160.60408050752
 23
-418.198219216848
 33
0
  0
LINE
  8
1
 62
2
 10
1064.15369261584
 20
-402.6615293293108
 30
0
 11
1037.974163886899
 21
-402.6615293293108
 31
0
  0
LINE
  8
1
 62
2
 10
1037.974163886899
 20
-402.6615293293108
 30
0
 11
1026.980269134906
 21
-424.0117146148418
 31
0
  0
SOLID
  8
1
 62
2
 10
1028.070689016815
 20
-420.9738752422654
 30
0
 11
1028.819784545926
 21
-421.359608541349
 31
0
 12
1026.980269134906
 22
-424.0117146148418
 32
0
 13
1026.980269134906
 23
-424.0117146148418
 33
0
  0
LINE
  8
1
 62
2
 10
1114.219491177633
 20
-569.3344588663097
 30
0
 11
1070.234325239798
 21
-569.3344588663097
 31
0
  0
LINE
  8
1
 62
2
 10
1070.234325239798
 20
-569.3344588663097
 30
0
 11
1066.06306852477
 21
-555.5882827347296
 31
0
  0
SOLID
  8
1
 62
2
 10
1067.395401096234
 20
-558.528074137441
 30
0
 11
1066.589128961103
 21
-558.7727362184163
 31
0
 12
1066.06306852477
 22
-555.5882827347296
 32
0
 13
1066.06306852477
 23
-555.5882827347296
 33
0
  0
LINE
  8
1
 62
2
 10
990.2632944018649
 20
-557.9991227184698
 30
0
 11
1029.645915528205
 21
-557.9991227184698
 31
0
  0
LINE
  8
1
 62
2
 10
1029.645915528205
 20
-557.9991227184698
 30
0
 11
1022.964410107695
 21
-550.4682827347297
 31
0
  0
SOLID
  8
1
 62
2
 10
1025.403276458706
 20
-552.5823817140462
 30
0
 11
1024.773005023925
 21
-553.141570598284
 31
0
 12
1022.964410107695
 22
-550.4682827347297
 32
0
 13
1022.964410107695
 23
-550.4682827347297
 33
0
  0
TEXT
  8
1
 62
2
 10
937.5168288689912
 20
-372.347501067657
 30
0
 40
10
  1
KT60LM(0.6°、1.2°)
 41
0.9
  0
TEXT
  8
1
 62
2
 10
1040.34854948252
 20
-408.0820199565867
 30
0
 40
4
  1
THROUGH HOLE
 41
0.45
  0
TEXT
  8
1
 62
2
 10
1044.18725525119
 20
-401.227514381012
 30
0
 40
4
  1
4-φ4.5
 41
0.7200000000000001
  0
TEXT
  8
1
 62
2
 10
1165.862348927277
 20
-415.203506100004
 30
0
 40
4.000000000000012
  1
文字ノ向キ
 50
90
 41
0.675
 72
1
 73
2
 11
1163.862348927277
 21
-401.7035061000039
 31
0
  0
TEXT
  8
1
 62
2
 10
1156.260669570645
 20
-411.7060878173039
 30
0
 40
2.5
  1
DIRECTION
 50
90
 41
0.7200000000000001
  0
TEXT
  8
1
 62
2
 10
1160.010669570645
 20
-411.7060878173039
 30
0
 40
2.5
  1
OF LETTER
 50
90
 41
0.7200000000000001
  0
TEXT
  8
1
 62
2
 10
1120.902320659981
 20
-405.9638661183492
 30
0
 40
4
  1
ネームプレート
 41
0.7200000000000001
  0
TEXT
  8
1
 62
2
 10
1120.595233284421
 20
-411.2889650342643
 30
0
 40
3
  1
NAME PLATE
 41
0.6300000000000002
  0
TEXT
  8
1
 62
2
 10
1037.906586872217
 20
-580.2828494098121
 30
0
 40
2.8
  1
ＡＴＴＡＣＨＭＥＮＴ　：　ＣＯＮＮＥＣＴＯＲ　ＬＥＡＤ
 41
0.54
  0
TEXT
  8
1
 62
2
 10
1045.936979723758
 20
-575.3310275147443
 30
0
 40
3.2
  1
付属品 : コネクタ　リード
 41
0.54
  0
TEXT
  8
1
 62
2
 10
1059.266279018131
 20
-538.5993837006298
 30
0
 40
2
  1
ＰＩＮ　ＮＯ．
 41
0.7200000000000001
 72
1
 73
2
 11
1069.346279018131
 21
-537.5993837006298
 31
0
  0
TEXT
  8
1
 62
2
 10
1068.459174197498
 20
-542.9413020541716
 30
0
 40
1.3
  1
1
 41
0.9
 72
1
 73
2
 11
1069.044174197498
 21
-542.2913020541716
 31
0
  0
TEXT
  8
1
 62
2
 10
1068.459174197498
 20
-547.0478179763495
 30
0
 40
1.3
  1
3
 41
0.9
 72
1
 73
2
 11
1069.044174197498
 21
-546.3978179763495
 31
0
  0
TEXT
  8
1
 62
2
 10
1068.459174197498
 20
-555.2443587115026
 30
0
 40
1.3
  1
7
 41
0.9
 72
1
 73
2
 11
1069.044174197498
 21
-554.5943587115027
 31
0
  0
TEXT
  8
1
 62
2
 10
1072.241219437138
 20
-564.6077382848357
 30
0
 40
3
  1
ＨＯＵＳＩＮＧ：ＸＨＰ－７　（ＪＳＴ）
 41
0.45
  0
TEXT
  8
1
 62
2
 10
1072.241219437138
 20
-568.8077382848358
 30
0
 40
3
  1
ＣＯＮＴＡＣＴ：ＳＸＨ－００１Ｔ－Ｐ０．６　（ＪＳＴ）
 41
0.45
  0
TEXT
  8
1
 62
2
 10
991.137982127485
 20
-557.1236157884218
 30
0
 40
3
  1
LEAD WIRE:UL3266,AWG22
 41
0.45
  0
DIMENSION
  8
1
  6
CONTINUOUS
 62
2
  2
*D0
  3
DMST_1
 10
1020.624383645113
 20
-455.1401718059069
 30
0
 11
1017.024383645113
 21
-470.745370941533
 31
0
 12
0
 22
0
 32
0
 70
0
 13
1002.605398925917
 23
-447.6401718059069
 33
0
 14
1000.668907252813
 24
-455.1401718059069
 34
0
 50
90
 53
0
  0
DIMENSION
  8
1
  6
CONTINUOUS
 62
2
  2
*D1
  3
DMST_1
 10
1004.168907252813
 20
-429.075180797862
 30
0
 11
1012.514915503383
 21
-425.475180797862
 31
0
 12
0
 22
0
 32
0
 70
0
 13
996.6689072528131
 23
-451.140171805907
 33
0
 14
1004.168907252813
 24
-449.2036801328032
 34
0
 53
0
  0
DIMENSION
  8
1
  6
CONTINUOUS
 62
2
  2
*D2
  3
DMST_2
 10
1051.817384007406
 20
-490.4580397303033
 30
0
 11
1048.311052495253
 21
-496.1758303476232
 31
0
 12
0
 22
0
 32
0
 70
0
  1
(9.5)
 13
1025.668907252814
 23
-481.1401718059073
 33
0
 14
1010.668907252813
 24
-490.4580397303033
 34
0
 50
90
 53
0
  0
DIMENSION
  8
1
  6
CONTINUOUS
 62
2
  2
*D3
  3
DMST_3
 10
1030.668907252814
 20
-391.1401718059069
 30
0
 11
1000.668907252814
 21
-387.5401718059069
 31
0
 12
0
 22
0
 32
0
 70
1
  1
(<>
 13
970.6689072528121
 23
-426.140171805907
 33
0
 14
1030.668907252814
 24
-426.140171805907
 34
0
 53
0
  0
DIMENSION
  8
1
  6
CONTINUOUS
 62
2
  2
*D4
  3
DMST_3
 10
1051.817384007406
 20
-481.1401718059073
 30
0
 11
1048.217384007406
 21
-451.1401718059074
 31
0
 12
0
 22
0
 32
0
 70
1
  1
(<>
 13
1025.668907252814
 23
-421.140171805907
 33
0
 14
1025.668907252814
 24
-481.1401718059073
 34
0
 53
0
  0
DIMENSION
  8
1
  6
CONTINUOUS
 62
2
  2
*D5
  3
DMST_4
 10
1043.346060012558
 20
-476.1401718059071
 30
0
 11
1039.746060012558
 21
-451.1401718059074
 31
0
 12
0
 22
0
 32
0
 70
1
 13
1021.895793480362
 23
-426.1401718059063
 33
0
 14
1021.895793480362
 24
-476.1401718059071
 34
0
 53
0
  0
DIMENSION
  8
1
  6
CONTINUOUS
 62
2
  2
*D6
  3
DMST_4
 10
1025.668907252814
 20
-401.1401718059069
 30
0
 11
1000.668907252814
 21
-397.5401718059069
 31
0
 12
0
 22
0
 32
0
 70
1
 13
975.6689072528121
 23
-429.9132855783582
 33
0
 14
1025.668907252813
 24
-429.9132855783576
 34
0
 53
0
  0
DIMENSION
  8
1
  6
CONTINUOUS
 62
2
  2
*D7
  3
DMST_3
 10
965.4055594883712
 20
-481.1401718059074
 30
0
 11
961.8055594883712
 21
-467.8712049056582
 31
0
 12
0
 22
0
 32
0
 70
0
  1
6.3
 13
989.6689072528131
 23
-486.9391057681052
 33
0
 14
975.6689072528131
 24
-481.1401718059073
 34
0
 50
90
 53
0
  0
DIMENSION
  8
1
  6
CONTINUOUS
 62
2
  2
*D8
  3
DMST_2
 10
1112.158575650045
 20
-398.374953725579
 30
0
 11
1104.78590148962
 21
-394.774953725579
 31
0
 12
0
 22
0
 32
0
 70
0
 13
1113.658575650045
 23
-421.4260289630526
 33
0
 14
1112.158575650045
 24
-433.5901718059068
 34
0
 53
0
  0
DIMENSION
  8
1
  6
CONTINUOUS
 62
2
  2
*D9
  3
DMST_5
 10
1064.646416056015
 20
-469.1401718059069
 30
0
 11
1060.246416056015
 21
-451.2051505253922
 31
0
 12
0
 22
0
 32
0
 70
1
  1
φ<>
 13
1112.398575650045
 23
-433.1401718059069
 33
0
 14
1112.398575650045
 24
-469.1401718059069
 34
0
 53
0
  0
DIMENSION
  8
1
  6
CONTINUOUS
 62
2
  2
*D10
  3
DMST_3
 10
1113.658575650044
 20
-389.055192451144
 30
0
 11
1141.883427294021
 21
-385.455192451144
 31
0
 12
0
 22
0
 32
0
 70
0
  1
58
 13
1171.158575650045
 23
-422.1401718059068
 33
0
 14
1113.658575650045
 24
-421.4260289630526
 34
0
 53
0
  0
DIMENSION
  8
1
  6
CONTINUOUS
 62
2
  2
*D11
  3
DMST_6
 10
1113.658575650045
 20
-389.055192451144
 30
0
 11
1101.72785482145
 21
-385.455192451144
 31
0
 12
0
 22
0
 32
0
 70
0
 13
1089.658575650045
 23
-447.6401718059069
 33
0
 14
1113.658575650045
 24
-421.4260289630526
 34
0
 53
0
  0
DIMENSION
  8
1
  6
CONTINUOUS
 62
2
  2
*D12
  3
DMST_1
 10
1109.658575650045
 20
-417.9206497273842
 30
0
 11
1099.881286833775
 21
-414.3206497273842
 31
0
 12
0
 22
0
 32
0
 70
0
 13
1089.658575650045
 23
-447.6401718059069
 33
0
 14
1109.658575650045
 24
-447.1401718059069
 34
0
 53
0
  0
DIMENSION
  8
1
  6
CONTINUOUS
 62
2
  2
*D13
  3
DMST_5
 10
1077.039913352612
 20
-447.1401718059069
 30
0
 11
1072.613246685945
 21
-451.0191288887102
 31
0
 12
0
 22
0
 32
0
 70
0
  1
φ<>
 13
1089.658575650045
 23
-455.1401718059069
 33
0
 14
1109.658575650045
 24
-447.1401718059069
 34
0
 50
90
 53
0
  0
DIMENSION
  8
1
  6
CONTINUOUS
 62
2
  2
*D14
  3
DMST_2
 10
1120.658575650045
 20
-497.1122732405626
 30
0
 11
1131.290217379697
 21
-493.5122732405626
 31
0
 12
0
 22
0
 32
0
 70
0
 13
1113.658575650045
 23
-480.8543146487611
 33
0
 14
1120.658575650045
 24
-481.1401718059068
 34
0
 53
0
  0
DIMENSION
  8
1
  6
CONTINUOUS
 62
2
  2
*D15
  3
DMST_5
 10
1001.320295633449
 20
-525.7175505966335
 30
0
 11
1029.949572403606
 21
-521.3175505966335
 31
0
 12
0
 22
0
 32
0
 70
0
  1
300
 13
1060.48306852477
 23
-540.6122827347297
 33
0
 14
1001.320295633449
 24
-547.8682827347298
 34
0
 53
0
  0
DIMENSION
  8
1
  6
CONTINUOUS
 62
2
  2
*D16
  3
DMST_3
 10
1011.32029563345
 20
-537.2572775195451
 30
0
 11
1007.128017674963
 21
-533.6572775195451
 31
0
 12
0
 22
0
 32
0
 70
1
  1
(<>
 13
1001.320295633449
 23
-547.8682827347298
 33
0
 14
1011.320295633449
 24
-547.8682827347298
 34
0
 53
0
  0
INSERT
  8
0
  2
98779
 10
969.4556970579309
 20
-505.0722587641782
 30
0
  0
INSERT
  8
0
  2
___M3_______
 10
1026.218907252814
 20
-436.3901718059063
 30
0
  0
ENDSEC
  0
EOF
