  0
SECTION
  2
HEADER
  9
$ACADVER
  1
AC1009
  9
$INSBASE
 10
0
 20
0
  9
$EXTMIN
 10
304.30878735899
 20
-68.99625896608177
  9
$EXTMAX
 10
541.1517072870478
 20
123.831729500141
  9
$LIMMIN
 10
304.30878735899
 20
-68.99625896608177
  9
$LIMMAX
 10
541.1517072870478
 20
123.831729500141
  9
$VIEWCTR
 10
10
 20
10
  9
$VIEWSIZE
 40
10
  9
$SNAPMODE
 70
0
  9
$SNAPUNIT
 10
1
 20
1
  9
$SNAPBASE
 10
0
 20
0
  9
$SNAPANG
 50
0
  9
$SNAPSTYLE
 70
0
  9
$SNAPISOPAIR
 70
0
  9
$GRIDMODE
 70
0
  9
$GRIDUNIT
 10
0
 20
0
  9
$ORTHOMODE
 70
0
  9
$REGENMODE
 70
1
  9
$FILLMODE
 70
1
  9
$QTEXTMODE
 70
0
  9
$DRAGMODE
 70
2
  9
$LTSCALE
 40
1
  9
$OSMODE
 70
0
  9
$ATTMODE
 70
1
  9
$TEXTSIZE
 40
3.5
  9
$TRACEWID
 40
0.5
  9
$TEXTSTYLE
  7
STANDARD
  9
$CLAYER
  8
0
  9
$CELTYPE
  6
BYLAYER
  9
$CECOLOR
 62
256
  9
$DIMSCALE
 40
1
  9
$DIMASZ
 40
0.18
  9
$DIMEXO
 40
0.0625
  9
$DIMDLI
 40
0.38
  9
$DIMRND
 40
0
  9
$DIMDLE
 40
0
  9
$DIMEXE
 40
0.18
  9
$DIMTP
 40
0
  9
$DIMTM
 40
0
  9
$DIMTXT
 40
0.18
  9
$DIMCEN
 40
0.09
  9
$DIMTSZ
 40
0
  9
$DIMTOL
 70
0
  9
$DIMLIM
 70
0
  9
$DIMTIH
 70
1
  9
$DIMTOH
 70
1
  9
$DIMSE1
 70
0
  9
$DIMSE2
 70
0
  9
$DIMTAD
 70
0
  9
$DIMZIN
 70
0
  9
$DIMBLK
  1

  9
$DIMASO
 70
1
  9
$DIMSHO
 70
1
  9
$DIMPOST
  1

  9
$DIMAPOST
  1

  9
$DIMALT
 70
0
  9
$DIMALTD
 70
2
  9
$DIMALTF
 40
25.4
  9
$DIMLFAC
 40
1
  9
$DIMTOFL
 70
0
  9
$DIMTVP
 40
0
  9
$DIMTIX
 70
0
  9
$DIMSOXD
 70
0
  9
$DIMSAH
 70
0
  9
$DIMBLK1
  1

  9
$DIMBLK2
  1

  9
$DIMSTYLE
  2
*UNNAMED
  9
$DIMCLRD
 70
0
  9
$DIMCLRE
 70
0
  9
$DIMCLRT
 70
0
  9
$DIMTFAC
 40
1
  9
$DIMGAP
 40
0.09
  9
$LUNITS
 70
2
  9
$LUPREC
 70
4
  9
$AXISMODE
 70
0
  9
$AXISUNIT
 10
0
 20
0
  9
$SKETCHINC
 40
0.1
  9
$FILLETRAD
 40
2
  9
$AUNITS
 70
0
  9
$AUPREC
 70
0
  9
$MENU
  1
ACAD
  9
$ELEVATION
 40
0
  9
$THICKNESS
 40
0
  9
$VIEWDIR
 10
0
 20
0
 30
1
  9
$LIMCHECK
 70
0
  9
$BLIPMODE
 70
1
  9
$CHAMFERA
 40
0
  9
$CHAMFERB
 40
0
  9
$FASTZOOM
 70
1
  9
$SKPOLY
 70
0
  9
$ANGBASE
 50
0
  9
$ANGDIR
 70
0
  9
$PDMODE
 70
0
  9
$PDSIZE
 40
0
  9
$PLINEWID
 40
0
  9
$COORDS
 70
2
  0
ENDSEC
  0
SECTION
  2
TABLES
  0
TABLE
  2
DIMSTYLE
 70
8
  0
DIMSTYLE
  2
DMST_1
 70
0
  3
)
  4

  5

  6

  7

 40
1
 41
3.2
 42
1
 43
7
 44
1.5
 45
0
 46
0
 47
0
 48
0
140
3.2
141
0
142
0
143
25.4
144
1
145
0
146
1
147
0.09
 71
0
 72
0
 73
0
 74
0
 75
0
 76
0
 77
1
 78
9
170
0
171
2
172
0
173
0
174
0
175
0
176
2
177
2
178
2
  0
DIMSTYLE
  2
DMST_2
 70
0
  3

  4

  5

  6

  7

 40
1
 41
3.2
 42
1
 43
7
 44
1.5
 45
0
 46
0
 47
40
 48
0
140
3.2
141
0
142
0
143
25.4
144
1
145
0
146
0.55
147
0.09
 71
1
 72
0
 73
0
 74
0
 75
0
 76
0
 77
1
 78
9
170
0
171
2
172
0
173
0
174
0
175
0
176
2
177
2
178
2
  0
DIMSTYLE
  2
DMST_3
 70
0
  3

  4

  5

  6

  7

 40
1
 41
3.2
 42
1
 43
7
 44
1.5
 45
0
 46
0
 47
0.5
 48
0.5
140
3.2
141
0
142
0
143
25.4
144
1
145
0
146
0.55
147
0.09
 71
1
 72
0
 73
0
 74
0
 75
0
 76
0
 77
1
 78
9
170
0
171
2
172
0
173
0
174
0
175
0
176
2
177
2
178
2
  0
DIMSTYLE
  2
DMST_4
 70
0
  3

  4

  5

  6

  7

 40
1
 41
3.200000000000001
 42
1
 43
7
 44
1
 45
0
 46
0
 47
0.2
 48
0.2
140
3.200000000000001
141
0
142
0
143
25.4
144
1
145
0
146
0.6
147
0.09
 71
1
 72
0
 73
0
 74
0
 75
0
 76
0
 77
1
 78
9
170
0
171
2
172
0
173
0
174
0
175
0
176
2
177
2
178
2
  0
DIMSTYLE
  2
DMST_5
 70
0
  3

  4

  5

  6

  7

 40
1
 41
3.2
 42
0
 43
7
 44
1
 45
0
 46
0
 47
0
 48
0
140
3.2
141
0
142
0
143
25.4
144
1
145
0
146
0.6
147
0.09
 71
1
 72
0
 73
0
 74
0
 75
0
 76
0
 77
1
 78
9
170
0
171
2
172
0
173
0
174
0
175
0
176
2
177
2
178
2
  0
DIMSTYLE
  2
DMST_6
 70
0
  3

  4

  5

  6

  7

 40
1
 41
3.2
 42
1
 43
7
 44
1
 45
0
 46
0
 47
0
 48
0
140
3.2
141
0
142
0
143
25.4
144
1
145
0
146
0.6
147
0.09
 71
1
 72
0
 73
0
 74
0
 75
0
 76
0
 77
1
 78
9
170
0
171
2
172
0
173
0
174
0
175
0
176
2
177
2
178
2
  0
DIMSTYLE
  2
DMST_7
 70
0
  3
)
  4

  5

  6

  7

 40
1
 41
3.2
 42
1
 43
7
 44
1
 45
0
 46
0
 47
0
 48
0
140
3.2
141
0
142
0
143
25.4
144
1
145
0
146
1
147
0.09
 71
0
 72
0
 73
0
 74
0
 75
0
 76
0
 77
1
 78
9
170
0
171
2
172
0
173
0
174
0
175
0
176
2
177
2
178
2
  0
DIMSTYLE
  2
DMST_8
 70
0
  3

  4

  5

  6

  7

 40
1
 41
3.2
 42
1
 43
7
 44
1.5
 45
0
 46
0
 47
0
 48
0
140
3.2
141
0
142
0
143
25.4
144
1
145
0
146
1
147
0.09
 71
0
 72
0
 73
0
 74
0
 75
0
 76
0
 77
1
 78
9
170
0
171
2
172
0
173
0
174
0
175
0
176
2
177
2
178
2
  0
ENDTAB
  0
TABLE
  2
LTYPE
 70
9
  0
LTYPE
  2
CONTINUOUS
 70
64
  3
Solid line
 72
65
 73
0
 40
0
  0
LTYPE
  2
BORDER
 70
64
  3
__ __ . __ __ .
 72
65
 73
6
 40
10.90723973352898
 49
3.116354209579708
 49
-1.558177104789854
 49
3.116354209579708
 49
-1.558177104789854
 49
0
 49
-1.558177104789854
  0
LTYPE
  2
CENTER
 70
64
  3
____ _ ____ _
 72
65
 73
4
 40
12.46541683831883
 49
7.790885523949269
 49
-1.558177104789854
 49
1.558177104789854
 49
-1.558177104789854
  0
LTYPE
  2
DASHDOT
 70
64
  3
__ . __ . __ .
 72
65
 73
4
 40
6.232708419159415
 49
3.116354209579708
 49
-1.558177104789854
 49
0
 49
-1.558177104789854
  0
LTYPE
  2
DASHED
 70
64
  3
__ __ __ __ __
 72
65
 73
2
 40
4.674531314369562
 49
3.116354209579708
 49
-1.558177104789854
  0
LTYPE
  2
DIVIDE
 70
64
  3
__ . . __ . . 
 72
65
 73
6
 40
7.790885523949269
 49
3.116354209579708
 49
-1.558177104789854
 49
0
 49
-1.558177104789854
 49
0
 49
-1.558177104789854
  0
LTYPE
  2
DOT
 70
64
  3
..............
 72
65
 73
4
 40
3.116354209579708
 49
0
 49
-1.558177104789854
 49
0
 49
-1.558177104789854
  0
LTYPE
  2
HIDDEN
 70
64
  3
_ _ _ _ _ _ _
 72
65
 73
2
 40
2.337265657184781
 49
1.558177104789854
 49
-0.7790885523949269
  0
LTYPE
  2
PHANTOM
 70
64
  3
_____ _ _ _____ _ _ 
 72
65
 73
6
 40
15.58177104789854
 49
7.790885523949269
 49
-1.558177104789854
 49
1.558177104789854
 49
-1.558177104789854
 49
1.558177104789854
 49
-1.558177104789854
  0
ENDTAB
  0
TABLE
  2
LAYER
 70
5
  0
LAYER
  2
1
 70
0
 62
7
  6
CONTINUOUS
  0
LAYER
  2
2
 70
0
 62
7
  6
CONTINUOUS
  0
LAYER
  2
4
 70
0
 62
7
  6
CONTINUOUS
  0
LAYER
  2
0
 70
0
 62
7
  6
CONTINUOUS
  0
ENDTAB
  0
TABLE
  2
STYLE
 70
4
  0
STYLE
  2
STANDARD
 70
0
 40
0
 41
1
 50
0
 71
0
 42
3.5
  3
txt
  4

  0
STYLE
  2
SIMPLEX
 70
0
 40
0
 41
1
 50
0
 71
0
 42
3.5
  3
simplex
  4

  0
STYLE
  2
COMPLEX
 70
0
 40
0
 41
1
 50
0
 71
0
 42
3.5
  3
complex
  4

  0
STYLE
  2
ITALIC
 70
0
 40
0
 41
1
 50
0
 71
0
 42
3.5
  3
italic
  4

  0
ENDTAB
  0
TABLE
  2
VIEW
 70
0
  0
ENDTAB
  0
ENDSEC
  0
SECTION
  2
BLOCKS
  0
BLOCK
  8
0
  2
6FGB
 70
0
 10
354.9172463808866
 20
7.484957524424232
 30
0
  0
LINE
  8
1
 62
3
 10
381.9672463808886
 20
12.19684456141832
 30
0
 11
381.9672463808886
 21
12.01684456141371
 31
0
  0
LINE
  8
1
 62
3
 10
359.9172463808795
 20
12.01684456141348
 30
0
 11
359.6172463808846
 21
12.01684456141348
 31
0
  0
LINE
  8
1
 62
3
 10
358.9172463808836
 20
12.01684456141325
 30
0
 11
358.2672463808865
 21
12.01684456141302
 31
0
  0
LINE
  8
1
 62
3
 10
382.2172463808886
 20
12.01684456141348
 30
0
 11
381.9172463808936
 21
12.01684456141348
 31
0
  0
LINE
  8
1
 62
3
 10
383.5672463808855
 20
15.81684456141321
 30
0
 11
383.5672463808855
 21
13.81684456141321
 31
0
  0
LINE
  8
1
 62
3
 10
358.2672463808865
 20
15.5168445614112
 30
0
 11
355.9708117561715
 21
15.5168445614112
 31
0
  0
LINE
  8
1
 62
3
 10
385.8636810056005
 20
15.5168445614112
 30
0
 11
383.5672463808855
 21
15.5168445614112
 31
0
  0
LINE
  8
1
 62
3
 10
358.2672463808865
 20
15.31684456141127
 30
0
 11
356.2401220364186
 21
15.31684456141127
 31
0
  0
LINE
  8
1
 62
3
 10
385.5943707253537
 20
15.31684456141127
 30
0
 11
383.5672463808855
 21
15.31684456141127
 31
0
  0
LINE
  8
1
 62
3
 10
358.2672463808865
 20
13.81684456141321
 30
0
 11
358.2672463808865
 21
15.81684456141321
 31
0
  0
LINE
  8
1
 62
3
 10
358.2672463808865
 20
12.01684456141302
 30
0
 11
357.9172463808866
 21
12.01684456141302
 31
0
  0
LINE
  8
1
 62
3
 10
359.8672463808837
 20
12.01684456141371
 30
0
 11
359.8672463808837
 21
12.19684456141832
 31
0
  0
LINE
  8
1
 62
3
 10
358.2672463808865
 20
13.81684456141321
 30
0
 11
358.2672463808865
 21
13.51684456141302
 31
0
  0
LINE
  8
1
 62
3
 10
383.9172463808866
 20
12.01684456141302
 30
0
 11
383.5672463808855
 21
12.01684456141302
 31
0
  0
LINE
  8
1
 62
3
 10
383.5672463808855
 20
12.01684456141302
 30
0
 11
382.9172463808886
 21
12.01684456141325
 31
0
  0
LINE
  8
1
 62
3
 10
383.5672463808855
 20
13.51684456141302
 30
0
 11
383.5672463808855
 21
13.81684456141321
 31
0
  0
LINE
  8
1
 62
1
 10
370.9172463808866
 20
7.484957524424232
 30
0
 11
370.9172463808866
 21
59.89242349409611
 31
0
  0
LINE
  8
1
 62
3
 10
384.9172463808866
 20
13.81684456141127
 30
0
 11
384.9172463808866
 21
13.01684456141302
 31
0
  0
LINE
  8
1
 62
3
 10
356.9172463808866
 20
13.01684456141302
 30
0
 11
356.9172463808866
 21
13.81684456141127
 31
0
  0
LINE
  8
1
 62
3
 10
383.5672463808855
 20
12.01684456141302
 30
0
 11
383.5672463808855
 21
13.21684456141318
 31
0
  0
LINE
  8
1
 62
3
 10
383.5672463808855
 20
13.21684456141318
 30
0
 11
383.5672463808855
 21
13.51684456141302
 31
0
  0
LINE
  8
1
 62
3
 10
358.2672463808865
 20
13.21684456141318
 30
0
 11
358.2672463808865
 21
12.01684456141302
 31
0
  0
LINE
  8
1
 62
3
 10
358.2672463808865
 20
13.51684456141302
 30
0
 11
358.2672463808865
 21
13.21684456141318
 31
0
  0
ARC
  8
1
 62
3
 10
370.9172463808866
 20
36.81684456141298
 30
0
 40
25.50000000000008
 50
303.3535238374842
 51
304.5603217799974
  0
ARC
  8
1
 62
3
 10
370.9172463808866
 20
36.81684456141298
 30
0
 40
25.50000000000013
 50
235.4396782200008
 51
236.6464761625157
  0
ARC
  8
1
 62
3
 10
358.5672463808867
 20
13.51684456141302
 30
0
 40
0.3000000000001819
 50
180
 51
239.9999999988538
  0
ARC
  8
1
 62
3
 10
357.9172463808866
 20
13.01684456141302
 30
0
 40
1
 50
180
 51
270
  0
ARC
  8
1
 62
3
 10
383.9172463808866
 20
13.01684456141302
 30
0
 40
1
 50
270
 51
0
  0
ARC
  8
1
 62
3
 10
386.9172463808866
 20
13.81684456141127
 30
0
 40
2
 50
90
 51
180
  0
ARC
  8
1
 62
3
 10
354.9172463808866
 20
13.81684456141127
 30
0
 40
2
 50
0
 51
90
  0
ARC
  8
1
 62
3
 10
383.2672463808856
 20
13.51684456141302
 30
0
 40
0.299999999999951
 50
300.0000000013292
 51
0
  0
ENDBLK
  8
0
  0
BLOCK
  8
0
  2
64654
 70
0
 10
321.5267066008096
 20
-20.21069923027923
 30
0
  0
LINE
  8
1
 62
3
 10
360.9172463808886
 20
15.81684456141321
 30
0
 11
360.9172463808886
 21
10.39684456142518
 31
0
  0
LINE
  8
1
 62
3
 10
363.1972463808866
 20
10.95153364871854
 30
0
 11
363.6372463808866
 21
10.95153364871854
 31
0
  0
LINE
  8
1
 62
3
 10
363.7372463808865
 20
11.32569268168473
 30
0
 11
363.7372463808865
 21
14.95153364871854
 31
0
  0
LINE
  8
1
 62
3
 10
363.7372463808865
 20
11.32569268168473
 30
0
 11
363.6372463808866
 21
10.95153364871854
 31
0
  0
LINE
  8
1
 62
3
 10
363.0972463808867
 20
11.32569268168473
 30
0
 11
363.7372463808865
 21
11.32569268168473
 31
0
  0
LINE
  8
1
 62
3
 10
363.1972463808866
 20
10.95153364871854
 30
0
 11
363.0972463808867
 21
11.32569268168473
 31
0
  0
LINE
  8
1
 62
3
 10
363.0972463808867
 20
14.95153364871854
 30
0
 11
363.0972463808867
 21
11.32569268168473
 31
0
  0
LINE
  8
1
 62
3
 10
368.1972463808866
 20
10.95153364871854
 30
0
 11
368.6372463808866
 21
10.95153364871854
 31
0
  0
LINE
  8
1
 62
3
 10
368.7372463808865
 20
11.32569268168473
 30
0
 11
368.7372463808865
 21
14.95153364871854
 31
0
  0
LINE
  8
1
 62
3
 10
368.7372463808865
 20
11.32569268168473
 30
0
 11
368.6372463808866
 21
10.95153364871854
 31
0
  0
LINE
  8
1
 62
3
 10
368.0972463808867
 20
11.32569268168473
 30
0
 11
368.7372463808865
 21
11.32569268168473
 31
0
  0
LINE
  8
1
 62
3
 10
368.1972463808866
 20
10.95153364871854
 30
0
 11
368.0972463808867
 21
11.32569268168473
 31
0
  0
LINE
  8
1
 62
3
 10
368.0972463808867
 20
14.95153364871854
 30
0
 11
368.0972463808867
 21
11.32569268168473
 31
0
  0
LINE
  8
1
 62
3
 10
373.1972463808866
 20
10.95153364871854
 30
0
 11
373.6372463808866
 21
10.95153364871854
 31
0
  0
LINE
  8
1
 62
3
 10
373.7372463808865
 20
11.32569268168473
 30
0
 11
373.7372463808865
 21
14.95153364871854
 31
0
  0
LINE
  8
1
 62
3
 10
373.7372463808865
 20
11.32569268168473
 30
0
 11
373.6372463808866
 21
10.95153364871854
 31
0
  0
LINE
  8
1
 62
3
 10
373.0972463808867
 20
11.32569268168473
 30
0
 11
373.7372463808865
 21
11.32569268168473
 31
0
  0
LINE
  8
1
 62
3
 10
373.1972463808866
 20
10.95153364871854
 30
0
 11
373.0972463808867
 21
11.32569268168473
 31
0
  0
LINE
  8
1
 62
3
 10
373.0972463808867
 20
14.95153364871854
 30
0
 11
373.0972463808867
 21
11.32569268168473
 31
0
  0
LINE
  8
1
 62
3
 10
378.1972463808866
 20
10.95153364871854
 30
0
 11
378.6372463808866
 21
10.95153364871854
 31
0
  0
LINE
  8
1
 62
3
 10
378.7372463808865
 20
11.32569268168473
 30
0
 11
378.7372463808865
 21
14.95153364871854
 31
0
  0
LINE
  8
1
 62
3
 10
378.7372463808865
 20
11.32569268168473
 30
0
 11
378.6372463808866
 21
10.95153364871854
 31
0
  0
LINE
  8
1
 62
3
 10
378.0972463808867
 20
11.32569268168473
 30
0
 11
378.7372463808865
 21
11.32569268168473
 31
0
  0
LINE
  8
1
 62
3
 10
378.1972463808866
 20
10.95153364871854
 30
0
 11
378.0972463808867
 21
11.32569268168473
 31
0
  0
LINE
  8
1
 62
3
 10
378.0972463808867
 20
14.95153364871854
 30
0
 11
378.0972463808867
 21
11.32569268168473
 31
0
  0
LINE
  8
1
 62
3
 10
379.9172463808886
 20
14.95153364871854
 30
0
 11
361.9172463808886
 21
14.95153364871854
 31
0
  0
LINE
  8
1
 62
2
 10
361.9172463808886
 20
11.19684456142491
 30
0
 11
360.9172463808886
 21
11.19684456142491
 31
0
  0
LINE
  8
1
 62
3
 10
361.9172463808886
 20
11.19684456142491
 30
0
 11
361.9172463808886
 21
10.39684456142518
 31
0
  0
LINE
  8
1
 62
3
 10
379.9172463808886
 20
11.19684456142491
 30
0
 11
379.9172463808886
 21
10.39684456142518
 31
0
  0
LINE
  8
1
 62
3
 10
379.9172463808886
 20
15.3968445614253
 30
0
 11
361.9172463808886
 21
15.39684456142473
 31
0
  0
LINE
  8
1
 62
3
 10
379.9172463808886
 20
15.3968445614253
 30
0
 11
379.9172463808886
 21
11.19684456142491
 31
0
  0
LINE
  8
1
 62
3
 10
361.9172463808886
 20
15.39684456142473
 30
0
 11
361.9172463808886
 21
11.19684456142491
 31
0
  0
LINE
  8
1
 62
1
 10
370.9172463808886
 20
6.837847948980112
 30
0
 11
370.9172463808886
 21
22.66952792517807
 31
0
  0
LINE
  8
1
 62
3
 10
380.9172463808886
 20
10.39684456142518
 30
0
 11
360.9172463808886
 21
10.39684456142518
 31
0
  0
LINE
  8
1
 62
3
 10
380.9172463808886
 20
10.39684456142518
 30
0
 11
380.9172463808886
 21
15.81684456141321
 31
0
  0
LINE
  8
1
 62
2
 10
380.9172463808886
 20
11.19684456142491
 30
0
 11
379.9172463808886
 21
11.19684456142491
 31
0
  0
ENDBLK
  8
0
  0
BLOCK
  8
0
  2
ZIUH
 70
0
 10
360.9172463808886
 20
6.837847948980112
 30
0
  0
LINE
  8
1
 62
3
 10
380.9172463808907
 20
14.09684456142182
 30
0
 11
380.9172463808886
 21
15.61684456141612
 31
0
  0
LINE
  8
1
 62
3
 10
380.9172463808966
 20
15.51684456141621
 30
0
 11
380.9172463808995
 21
14.19684456142241
 31
0
  0
LINE
  8
1
 62
1
 10
370.9172463808845
 20
26.56486577994352
 30
0
 11
370.9172463808886
 21
10.01552169783648
 31
0
  0
INSERT
  8
0
  2
64654
 10
321.5267066008096
 20
-20.21069923027923
 30
0
  0
ENDBLK
  8
0
  0
BLOCK
  8
0
  2
OKHF
 70
0
 10
361.3108357014537
 20
-3.085416654587647
 30
0
  0
LINE
  8
1
 62
1
 10
382.9172463808886
 20
11.51684456141302
 30
0
 11
382.2172463808886
 21
11.51684456141302
 31
0
  0
LINE
  8
1
 62
1
 10
359.6172463808846
 20
11.51684456141302
 30
0
 11
358.9172463808836
 21
11.51684456141302
 31
0
  0
LINE
  8
1
 62
3
 10
358.9172463808825
 20
15.81684456141321
 30
0
 11
358.9172463808816
 21
13.51684456141018
 31
0
  0
LINE
  8
1
 62
3
 10
380.9172463808886
 20
15.81684456141321
 30
0
 11
380.9172463808886
 21
11.2168445614133
 31
0
  0
LINE
  8
1
 62
3
 10
383.4172463808916
 20
15.81684456141321
 30
0
 11
383.4172463808916
 21
12.19684456141923
 31
0
  0
LINE
  8
1
 62
3
 10
359.6172463808846
 20
11.51684456141302
 30
0
 11
359.6172463808846
 21
12.19684456141332
 31
0
  0
LINE
  8
1
 62
3
 10
358.9172463808836
 20
11.51684456141302
 30
0
 11
358.9172463808836
 21
12.19684456141332
 31
0
  0
LINE
  8
1
 62
2
 10
382.2172463808886
 20
11.91684456141311
 30
0
 11
382.9172463808886
 21
11.91684456141311
 31
0
  0
LINE
  8
1
 62
2
 10
358.9172463808836
 20
11.91684456141311
 30
0
 11
359.6172463808846
 21
11.91684456141311
 31
0
  0
LINE
  8
1
 62
3
 10
358.4172463808807
 20
12.19684456141923
 30
0
 11
359.9172463808786
 21
12.19684456141832
 31
0
  0
LINE
  8
1
 62
3
 10
360.9172463808845
 20
11.2168445614133
 30
0
 11
359.9172463808845
 21
11.2168445614133
 31
0
  0
LINE
  8
1
 62
3
 10
359.9172463808845
 20
11.2168445614133
 30
0
 11
359.9172463808786
 21
12.19684456141832
 31
0
  0
LINE
  8
1
 62
3
 10
360.9172463808845
 20
11.2168445614133
 30
0
 11
360.9172463808886
 21
15.81684456141321
 31
0
  0
LINE
  8
1
 62
3
 10
358.4172463808807
 20
12.19684456141923
 30
0
 11
358.4172463808816
 21
15.81684456141321
 31
0
  0
LINE
  8
1
 62
3
 10
382.2172463808886
 20
12.19684456141332
 30
0
 11
382.2172463808886
 21
11.51684456141302
 31
0
  0
LINE
  8
1
 62
3
 10
382.9172463808886
 20
12.19684456141332
 30
0
 11
382.9172463808886
 21
11.51684456141302
 31
0
  0
LINE
  8
1
 62
3
 10
382.9172463808916
 20
13.51684456141018
 30
0
 11
382.9172463808907
 21
15.81684456141321
 31
0
  0
LINE
  8
1
 62
3
 10
381.9172463808945
 20
12.19684456141832
 30
0
 11
383.4172463808916
 21
12.19684456141923
 31
0
  0
LINE
  8
1
 62
3
 10
381.9172463808886
 20
11.2168445614133
 30
0
 11
380.9172463808886
 21
11.2168445614133
 31
0
  0
LINE
  8
1
 62
3
 10
381.9172463808945
 20
12.19684456141832
 30
0
 11
381.9172463808886
 21
11.2168445614133
 31
0
  0
LINE
  8
1
 62
3
 10
382.9172463808916
 20
13.51684456141018
 30
0
 11
383.4172463808936
 21
13.51684456141018
 31
0
  0
LINE
  8
1
 62
3
 10
358.9172463808816
 20
13.51684456141018
 30
0
 11
358.4172463808816
 21
13.51684456141018
 31
0
  0
ENDBLK
  8
0
  0
BLOCK
  8
0
  2
_2__1
 70
0
 10
519.9151852785417
 20
-55.94470772655745
 30
0
  0
LINE
  8
1
 62
4
 10
520.7320405900116
 20
-53.05411454421983
 30
0
 11
520.7320405900116
 21
-51.55411454421983
 31
0
  0
LINE
  8
1
 62
4
 10
520.7320405900116
 20
-53.05411454421983
 30
0
 11
521.3320405900117
 21
-53.05411454421983
 31
0
  0
LINE
  8
1
 62
4
 10
520.7320405900116
 20
-52.55411454421983
 30
0
 11
521.3320405900117
 21
-52.55411454421983
 31
0
  0
LINE
  8
1
 62
4
 10
520.7320405900116
 20
-52.05411454421972
 30
0
 11
521.3320405900117
 21
-52.05411454421983
 31
0
  0
LINE
  8
1
 62
4
 10
520.7320405900116
 20
-51.55411454421983
 30
0
 11
521.3320405900117
 21
-51.55411454421983
 31
0
  0
LINE
  8
1
 62
3
 10
526.3320405900115
 20
-51.55411454421983
 30
0
 11
526.3320405900115
 21
-50.55411454421972
 31
0
  0
LINE
  8
1
 62
3
 10
526.6320405900115
 20
-51.55411454421983
 30
0
 11
526.6320405900115
 21
-50.55411454421972
 31
0
  0
LINE
  8
1
 62
3
 10
522.9320405900114
 20
-51.85411454421967
 30
0
 11
522.6320405900115
 21
-52.15411454421951
 31
0
  0
LINE
  8
1
 62
3
 10
522.9320405900114
 20
-52.75411454421987
 30
0
 11
522.6320405900115
 21
-52.45411454421981
 31
0
  0
LINE
  8
1
 62
3
 10
526.6320405900115
 20
-53.05411454421983
 30
0
 11
525.6320405900115
 21
-53.05411454421983
 31
0
  0
LINE
  8
1
 62
3
 10
525.6320405900115
 20
-53.05411454421983
 30
0
 11
525.6320405900115
 21
-51.55411454421983
 31
0
  0
LINE
  8
1
 62
3
 10
525.6320405900115
 20
-51.55411454421983
 30
0
 11
526.6320405900115
 21
-51.55411454421983
 31
0
  0
LINE
  8
1
 62
3
 10
525.6320405900115
 20
-52.75411454421987
 30
0
 11
522.9320405900114
 21
-52.75411454421987
 31
0
  0
LINE
  8
1
 62
3
 10
525.6320405900115
 20
-51.85411454421967
 30
0
 11
522.9320405900114
 21
-51.85411454421967
 31
0
  0
LINE
  8
1
 62
3
 10
522.6320405900115
 20
-52.15411454421951
 30
0
 11
522.6320405900115
 21
-52.45411454421981
 31
0
  0
LINE
  8
1
 62
3
 10
520.7320405900116
 20
-54.42911454421983
 30
0
 11
521.3320405900117
 21
-54.42911454421983
 31
0
  0
LINE
  8
1
 62
3
 10
520.7320405900116
 20
-54.05411454421983
 30
0
 11
521.3320405900117
 21
-54.05411454421983
 31
0
  0
LINE
  8
1
 62
3
 10
520.7320405900116
 20
-54.80411454421983
 30
0
 11
520.7320405900116
 21
-54.05411454421983
 31
0
  0
LINE
  8
1
 62
4
 10
520.7320405900116
 20
-48.05411454421972
 30
0
 11
520.7320405900116
 21
-46.55411454421972
 31
0
  0
LINE
  8
1
 62
4
 10
520.7320405900116
 20
-48.05411454421972
 30
0
 11
521.3320405900117
 21
-48.05411454421972
 31
0
  0
LINE
  8
1
 62
4
 10
520.7320405900116
 20
-47.55411454421972
 30
0
 11
521.3320405900117
 21
-47.55411454421972
 31
0
  0
LINE
  8
1
 62
4
 10
520.7320405900116
 20
-47.05411454421972
 30
0
 11
521.3320405900117
 21
-47.05411454421972
 31
0
  0
LINE
  8
1
 62
4
 10
520.7320405900116
 20
-46.55411454421972
 30
0
 11
521.3320405900117
 21
-46.55411454421972
 31
0
  0
LINE
  8
1
 62
4
 10
520.7320405900116
 20
-41.55411454421972
 30
0
 11
521.3320405900117
 21
-41.55411454421972
 31
0
  0
LINE
  8
1
 62
4
 10
520.7320405900116
 20
-42.05411454421972
 30
0
 11
521.3320405900117
 21
-42.05411454421972
 31
0
  0
LINE
  8
1
 62
4
 10
520.7320405900116
 20
-42.55411454421972
 30
0
 11
521.3320405900117
 21
-42.55411454421972
 31
0
  0
LINE
  8
1
 62
4
 10
520.7320405900116
 20
-43.05411454421972
 30
0
 11
521.3320405900117
 21
-43.05411454421972
 31
0
  0
LINE
  8
1
 62
4
 10
520.7320405900116
 20
-41.55411454421972
 30
0
 11
520.7320405900116
 21
-43.05411454421972
 31
0
  0
LINE
  8
1
 62
3
 10
520.7320405900116
 20
-37.67911454421972
 30
0
 11
521.3320405900117
 21
-37.67911454421972
 31
0
  0
LINE
  8
1
 62
3
 10
520.7320405900116
 20
-38.05411454421972
 30
0
 11
521.3320405900117
 21
-38.05411454421972
 31
0
  0
LINE
  8
1
 62
3
 10
520.7320405900116
 20
-37.30411454421972
 30
0
 11
520.7320405900116
 21
-38.05411454421972
 31
0
  0
LINE
  8
1
 62
3
 10
522.9320405900114
 20
-37.75411454421965
 30
0
 11
522.6320405900115
 21
-37.45411454421958
 31
0
  0
LINE
  8
1
 62
3
 10
522.9320405900114
 20
-41.85411454421956
 30
0
 11
522.6320405900115
 21
-42.15411454421951
 31
0
  0
LINE
  8
1
 62
3
 10
522.9320405900114
 20
-42.75411454421965
 30
0
 11
522.6320405900115
 21
-42.45411454421958
 31
0
  0
LINE
  8
1
 62
3
 10
522.9320405900114
 20
-46.85411454421956
 30
0
 11
522.6320405900115
 21
-47.15411454421951
 31
0
  0
LINE
  8
1
 62
3
 10
522.9320405900114
 20
-47.75411454421965
 30
0
 11
522.6320405900115
 21
-47.45411454421971
 31
0
  0
LINE
  8
1
 62
3
 10
522.9320405900114
 20
-54.35411454421967
 30
0
 11
522.6320405900115
 21
-54.65411454421951
 31
0
  0
LINE
  8
1
 62
3
 10
520.7320405900116
 20
-55.80411454421983
 30
0
 11
526.6320405900115
 21
-55.80411454421983
 31
0
  0
LINE
  8
1
 62
3
 10
526.6320405900115
 20
-55.80411454421983
 30
0
 11
526.6320405900115
 21
-54.80411454421983
 31
0
  0
LINE
  8
1
 62
3
 10
526.6320405900115
 20
-54.80411454421983
 30
0
 11
520.7320405900116
 21
-54.80411454421983
 31
0
  0
LINE
  8
1
 62
3
 10
520.7320405900116
 20
-54.80411454421983
 30
0
 11
520.7320405900116
 21
-55.80411454421983
 31
0
  0
LINE
  8
1
 62
3
 10
520.7320405900116
 20
-37.30411454421972
 30
0
 11
526.6320405900115
 21
-37.30411454421972
 31
0
  0
LINE
  8
1
 62
3
 10
526.6320405900115
 20
-37.30411454421972
 30
0
 11
526.6320405900115
 21
-36.30411454421972
 31
0
  0
LINE
  8
1
 62
3
 10
526.6320405900115
 20
-36.30411454421972
 30
0
 11
520.7320405900116
 21
-36.30411454421972
 31
0
  0
LINE
  8
1
 62
3
 10
520.7320405900116
 20
-36.30411454421972
 30
0
 11
520.7320405900116
 21
-37.30411454421972
 31
0
  0
LINE
  8
1
 62
3
 10
521.3320405900117
 20
-54.80411454421983
 30
0
 11
521.3320405900117
 21
-37.30411454421972
 31
0
  0
LINE
  8
1
 62
3
 10
521.3320405900117
 20
-54.80411454421983
 30
0
 11
527.2320405900114
 21
-54.80411454421983
 31
0
  0
LINE
  8
1
 62
3
 10
527.2320405900114
 20
-54.80411454421983
 30
0
 11
527.2320405900114
 21
-37.30411454421972
 31
0
  0
LINE
  8
1
 62
3
 10
527.2320405900114
 20
-37.30411454421972
 30
0
 11
521.3320405900117
 21
-37.30411454421972
 31
0
  0
LINE
  8
1
 62
3
 10
525.6320405900115
 20
-54.80411454421983
 30
0
 11
525.6320405900115
 21
-54.05411454421983
 31
0
  0
LINE
  8
1
 62
3
 10
525.6320405900115
 20
-54.05411454421983
 30
0
 11
526.6320405900115
 21
-54.05411454421983
 31
0
  0
LINE
  8
1
 62
3
 10
526.6320405900115
 20
-54.05411454421983
 30
0
 11
526.6320405900115
 21
-53.05411454421983
 31
0
  0
LINE
  8
1
 62
3
 10
526.6320405900115
 20
-48.05411454421972
 30
0
 11
525.6320405900115
 21
-48.05411454421972
 31
0
  0
LINE
  8
1
 62
3
 10
525.6320405900115
 20
-48.05411454421972
 30
0
 11
525.6320405900115
 21
-46.55411454421972
 31
0
  0
LINE
  8
1
 62
3
 10
525.6320405900115
 20
-46.55411454421972
 30
0
 11
526.6320405900115
 21
-46.55411454421972
 31
0
  0
LINE
  8
1
 62
3
 10
526.6320405900115
 20
-46.55411454421972
 30
0
 11
526.6320405900115
 21
-45.55411454421972
 31
0
  0
LINE
  8
1
 62
3
 10
526.6320405900115
 20
-43.05411454421972
 30
0
 11
525.6320405900115
 21
-43.05411454421972
 31
0
  0
LINE
  8
1
 62
3
 10
525.6320405900115
 20
-43.05411454421972
 30
0
 11
525.6320405900115
 21
-41.55411454421972
 31
0
  0
LINE
  8
1
 62
3
 10
525.6320405900115
 20
-41.55411454421972
 30
0
 11
526.6320405900115
 21
-41.55411454421972
 31
0
  0
LINE
  8
1
 62
3
 10
526.6320405900115
 20
-41.55411454421972
 30
0
 11
526.6320405900115
 21
-40.55411454421972
 31
0
  0
LINE
  8
1
 62
3
 10
526.6320405900115
 20
-38.05411454421972
 30
0
 11
525.6320405900115
 21
-38.05411454421972
 31
0
  0
LINE
  8
1
 62
3
 10
526.3320405900115
 20
-54.05411454421983
 30
0
 11
526.3320405900115
 21
-53.05411454421983
 31
0
  0
LINE
  8
1
 62
3
 10
526.3320405900115
 20
-46.55411454421972
 30
0
 11
526.3320405900115
 21
-45.55411454421962
 31
0
  0
LINE
  8
1
 62
3
 10
526.3320405900115
 20
-41.55411454421972
 30
0
 11
526.3320405900115
 21
-40.55411454421972
 31
0
  0
LINE
  8
1
 62
3
 10
525.6320405900115
 20
-54.35411454421967
 30
0
 11
522.9320405900114
 21
-54.35411454421967
 31
0
  0
LINE
  8
1
 62
3
 10
525.6320405900115
 20
-47.75411454421965
 30
0
 11
522.9320405900114
 21
-47.75411454421965
 31
0
  0
LINE
  8
1
 62
3
 10
525.6320405900115
 20
-46.85411454421956
 30
0
 11
522.9320405900114
 21
-46.85411454421956
 31
0
  0
LINE
  8
1
 62
3
 10
525.6320405900115
 20
-42.75411454421965
 30
0
 11
522.9320405900114
 21
-42.75411454421965
 31
0
  0
LINE
  8
1
 62
3
 10
525.6320405900115
 20
-41.85411454421956
 30
0
 11
522.9320405900114
 21
-41.85411454421956
 31
0
  0
LINE
  8
1
 62
3
 10
525.6320405900115
 20
-37.75411454421965
 30
0
 11
522.9320405900114
 21
-37.75411454421965
 31
0
  0
LINE
  8
1
 62
3
 10
522.6320405900115
 20
-37.45411454421958
 30
0
 11
522.6320405900115
 21
-37.30411454421972
 31
0
  0
LINE
  8
1
 62
3
 10
522.6320405900115
 20
-42.15411454421951
 30
0
 11
522.6320405900115
 21
-42.45411454421958
 31
0
  0
LINE
  8
1
 62
3
 10
522.6320405900115
 20
-47.15411454421951
 30
0
 11
522.6320405900115
 21
-47.45411454421971
 31
0
  0
LINE
  8
1
 62
3
 10
522.6320405900115
 20
-54.65411454421951
 30
0
 11
522.6320405900115
 21
-54.80411454421983
 31
0
  0
LINE
  8
1
 62
3
 10
525.6320405900115
 20
-38.05411454421972
 30
0
 11
525.6320405900115
 21
-37.30411454421972
 31
0
  0
LINE
  8
1
 62
4
 10
519.9151852785417
 20
-46.05411454421972
 30
0
 11
528.4484860267014
 21
-46.05411454421972
 31
0
  0
LINE
  8
1
 62
3
 10
522.9320405900114
 20
-44.35411454421956
 30
0
 11
522.6320405900115
 21
-44.65411454421951
 31
0
  0
LINE
  8
1
 62
3
 10
522.9320405900114
 20
-45.25411454421965
 30
0
 11
522.6320405900115
 21
-44.95411454421958
 31
0
  0
LINE
  8
1
 62
3
 10
526.6320405900115
 20
-45.55411454421972
 30
0
 11
525.6320405900115
 21
-45.55411454421972
 31
0
  0
LINE
  8
1
 62
3
 10
525.6320405900115
 20
-45.55411454421972
 30
0
 11
525.6320405900115
 21
-44.05411454421972
 31
0
  0
LINE
  8
1
 62
3
 10
525.6320405900115
 20
-44.05411454421972
 30
0
 11
526.6320405900115
 21
-44.05411454421972
 31
0
  0
LINE
  8
1
 62
3
 10
525.6320405900115
 20
-45.25411454421942
 30
0
 11
522.9320405900114
 21
-45.25411454421965
 31
0
  0
LINE
  8
1
 62
3
 10
525.6320405900115
 20
-44.35411454421956
 30
0
 11
522.9320405900114
 21
-44.35411454421956
 31
0
  0
LINE
  8
1
 62
3
 10
522.6320405900115
 20
-44.65411454421951
 30
0
 11
522.6320405900115
 21
-44.95411454421958
 31
0
  0
LINE
  8
1
 62
3
 10
522.9320405900114
 20
-49.35411454421956
 30
0
 11
522.6320405900115
 21
-49.65411454421951
 31
0
  0
LINE
  8
1
 62
3
 10
522.9320405900114
 20
-50.25411454421965
 30
0
 11
522.6320405900115
 21
-49.95411454421971
 31
0
  0
LINE
  8
1
 62
3
 10
526.6320405900115
 20
-50.55411454421972
 30
0
 11
525.6320405900115
 21
-50.55411454421972
 31
0
  0
LINE
  8
1
 62
3
 10
525.6320405900115
 20
-50.55411454421972
 30
0
 11
525.6320405900115
 21
-49.05411454421972
 31
0
  0
LINE
  8
1
 62
3
 10
525.6320405900115
 20
-49.05411454421972
 30
0
 11
526.6320405900115
 21
-49.05411454421972
 31
0
  0
LINE
  8
1
 62
3
 10
525.6320405900115
 20
-50.25411454421965
 30
0
 11
522.9320405900114
 21
-50.25411454421965
 31
0
  0
LINE
  8
1
 62
3
 10
525.6320405900115
 20
-49.35411454421956
 30
0
 11
522.9320405900114
 21
-49.35411454421956
 31
0
  0
LINE
  8
1
 62
3
 10
522.6320405900115
 20
-49.65411454421951
 30
0
 11
522.6320405900115
 21
-49.95411454421971
 31
0
  0
LINE
  8
1
 62
4
 10
520.7320405900116
 20
-44.05411454421962
 30
0
 11
521.3320405900117
 21
-44.05411454421962
 31
0
  0
LINE
  8
1
 62
4
 10
520.7320405900116
 20
-44.55411454421962
 30
0
 11
521.3320405900117
 21
-44.55411454421962
 31
0
  0
LINE
  8
1
 62
4
 10
520.7320405900116
 20
-45.05411454421962
 30
0
 11
521.3320405900117
 21
-45.05411454421962
 31
0
  0
LINE
  8
1
 62
4
 10
520.7320405900116
 20
-45.55411454421962
 30
0
 11
521.3320405900117
 21
-45.55411454421962
 31
0
  0
LINE
  8
1
 62
4
 10
520.7320405900116
 20
-44.05411454421962
 30
0
 11
520.7320405900116
 21
-45.55411454421962
 31
0
  0
LINE
  8
1
 62
4
 10
520.7320405900116
 20
-50.55411454421972
 30
0
 11
520.7320405900116
 21
-49.05411454421972
 31
0
  0
LINE
  8
1
 62
4
 10
520.7320405900116
 20
-50.55411454421972
 30
0
 11
521.3320405900117
 21
-50.55411454421972
 31
0
  0
LINE
  8
1
 62
4
 10
520.7320405900116
 20
-50.05411454421972
 30
0
 11
521.3320405900117
 21
-50.05411454421972
 31
0
  0
LINE
  8
1
 62
4
 10
520.7320405900116
 20
-49.55411454421972
 30
0
 11
521.3320405900117
 21
-49.55411454421972
 31
0
  0
LINE
  8
1
 62
4
 10
520.7320405900116
 20
-49.05411454421972
 30
0
 11
521.3320405900117
 21
-49.05411454421972
 31
0
  0
LINE
  8
1
 62
3
 10
522.9320405900114
 20
-39.35411454421956
 30
0
 11
522.6320405900115
 21
-39.65411454421951
 31
0
  0
LINE
  8
1
 62
3
 10
522.9320405900114
 20
-40.25411454421987
 30
0
 11
522.6320405900115
 21
-39.95411454421971
 31
0
  0
LINE
  8
1
 62
3
 10
526.6320405900115
 20
-40.55411454421972
 30
0
 11
525.6320405900115
 21
-40.55411454421983
 31
0
  0
LINE
  8
1
 62
3
 10
525.6320405900115
 20
-40.55411454421983
 30
0
 11
525.6320405900115
 21
-39.05411454421972
 31
0
  0
LINE
  8
1
 62
3
 10
525.6320405900115
 20
-39.05411454421972
 30
0
 11
526.6320405900115
 21
-39.05411454421972
 31
0
  0
LINE
  8
1
 62
3
 10
525.6320405900115
 20
-40.25411454421965
 30
0
 11
522.9320405900114
 21
-40.25411454421987
 31
0
  0
LINE
  8
1
 62
3
 10
525.6320405900115
 20
-39.35411454421956
 30
0
 11
522.9320405900114
 21
-39.35411454421956
 31
0
  0
LINE
  8
1
 62
3
 10
522.6320405900115
 20
-39.65411454421951
 30
0
 11
522.6320405900115
 21
-39.95411454421971
 31
0
  0
LINE
  8
1
 62
4
 10
520.7320405900116
 20
-39.05411454421972
 30
0
 11
521.3320405900117
 21
-39.05411454421972
 31
0
  0
LINE
  8
1
 62
4
 10
520.7320405900116
 20
-39.55411454421972
 30
0
 11
521.3320405900117
 21
-39.55411454421972
 31
0
  0
LINE
  8
1
 62
4
 10
520.7320405900116
 20
-40.05411454421972
 30
0
 11
521.3320405900117
 21
-40.05411454421972
 31
0
  0
LINE
  8
1
 62
4
 10
520.7320405900116
 20
-40.55411454421972
 30
0
 11
521.3320405900117
 21
-40.55411454421972
 31
0
  0
LINE
  8
1
 62
4
 10
520.7320405900116
 20
-39.05411454421972
 30
0
 11
520.7320405900116
 21
-40.55411454421972
 31
0
  0
LINE
  8
1
 62
3
 10
526.6320405900115
 20
-44.05411454421972
 30
0
 11
526.6320405900115
 21
-43.05411454421972
 31
0
  0
LINE
  8
1
 62
3
 10
526.3320405900115
 20
-44.05411454421962
 30
0
 11
526.3320405900115
 21
-43.05411454421972
 31
0
  0
LINE
  8
1
 62
3
 10
526.3320405900115
 20
-39.05411454421972
 30
0
 11
526.3320405900115
 21
-38.05411454421972
 31
0
  0
LINE
  8
1
 62
3
 10
526.6320405900115
 20
-39.05411454421972
 30
0
 11
526.6320405900115
 21
-38.05411454421972
 31
0
  0
LINE
  8
1
 62
3
 10
526.6320405900115
 20
-49.05411454421972
 30
0
 11
526.6320405900115
 21
-48.05411454421972
 31
0
  0
LINE
  8
1
 62
3
 10
526.3320405900115
 20
-49.05411454421972
 30
0
 11
526.3320405900115
 21
-48.05411454421972
 31
0
  0
TEXT
  8
1
 62
2
 10
525.3016032640244
 20
-53.10195495837877
 30
0
 40
1
  1
JST
 50
180
 41
0.9
  0
ENDBLK
  8
0
  0
BLOCK
  8
0
  2
123__2
 70
0
 10
426.3553664482768
 20
-147.8118889509788
 30
0
  0
LINE
  8
1
 62
3
 10
451.6067909424995
 20
-47.05411454421972
 30
0
 11
457.2814532293986
 21
-47.05411454421972
 31
0
  0
LINE
  8
1
 62
3
 10
457.2814532293986
 20
-46.05411454421972
 30
0
 11
451.6067909424995
 21
-46.05411454421972
 31
0
  0
LINE
  8
1
 62
3
 10
451.6067909424995
 20
-45.05411454421972
 30
0
 11
457.2814532293986
 21
-45.05411454421972
 31
0
  0
LINE
  8
1
 62
3
 10
457.2814532293986
 20
-44.55411454421972
 30
0
 11
457.2814532293986
 21
-47.55411454421972
 31
0
  0
LINE
  8
1
 62
2
 10
486.4694157662556
 20
-49.55411454421972
 30
0
 11
486.4694157662556
 21
-42.55411454421972
 31
0
  0
LINE
  8
1
 62
2
 10
485.4694157662556
 20
-42.55411454421972
 30
0
 11
485.4694157662556
 21
-49.55411454421972
 31
0
  0
LINE
  8
1
 62
3
 10
457.2814532293986
 20
-47.55411454421972
 30
0
 11
485.4694157662556
 21
-47.55411454421972
 31
0
  0
LINE
  8
1
 62
3
 10
457.2814532293986
 20
-46.55411454421972
 30
0
 11
485.4694157662556
 21
-46.55411454421972
 31
0
  0
LINE
  8
1
 62
3
 10
457.2814532293986
 20
-45.55411454421972
 30
0
 11
485.4694157662556
 21
-45.55411454421972
 31
0
  0
LINE
  8
1
 62
3
 10
457.2814532293986
 20
-44.55411454421972
 30
0
 11
485.4694157662556
 21
-44.55411454421972
 31
0
  0
LINE
  8
1
 62
3
 10
521.3320405900117
 20
-39.05411454421972
 30
0
 11
512.6613135836376
 21
-45.55411454421972
 31
0
  0
LINE
  8
1
 62
3
 10
486.4694157662556
 20
-47.55411454421972
 30
0
 11
512.6613135836376
 21
-47.55411454421972
 31
0
  0
LINE
  8
1
 62
3
 10
512.6613135836376
 20
-46.55411454421972
 30
0
 11
486.4694157662556
 21
-46.55411454421972
 31
0
  0
LINE
  8
1
 62
3
 10
486.4694157662556
 20
-45.55411454421972
 30
0
 11
512.6613135836376
 21
-45.55411454421972
 31
0
  0
LINE
  8
1
 62
3
 10
512.6613135836376
 20
-44.55411454421972
 30
0
 11
486.4694157662556
 21
-44.55411454421972
 31
0
  0
LINE
  8
1
 62
3
 10
512.6613135836376
 20
-44.55411454421972
 30
0
 11
521.3320405900117
 21
-38.05411454421962
 31
0
  0
LINE
  8
1
 62
3
 10
521.3320405900117
 20
-43.05411454421972
 30
0
 11
512.6613135836376
 21
-45.55411454421972
 31
0
  0
LINE
  8
1
 62
3
 10
521.3320405900117
 20
-44.05411454421972
 30
0
 11
512.6613135836376
 21
-46.55411454421972
 31
0
  0
LINE
  8
1
 62
3
 10
521.3320405900117
 20
-54.05411454421983
 30
0
 11
512.6613135836376
 21
-47.55411454421972
 31
0
  0
LINE
  8
1
 62
3
 10
521.3320405900117
 20
-53.05411454421983
 30
0
 11
512.6613135836376
 21
-46.55411454421972
 31
0
  0
INSERT
  8
0
  2
_2__1
 10
519.9151852785417
 20
-55.94470772655745
 30
0
  0
ENDBLK
  8
0
  0
BLOCK
  8
0
  2
GI77377-02_KT42JM06-004________
 70
0
 10
276.7364785686027
 20
-134.7046687228112
 30
0
  0
INSERT
  8
0
  2
123__2
 10
426.3553664482768
 20
-147.8118889509788
 30
0
  0
ENDBLK
  8
0
  0
BLOCK
  8
0
  2
1__4
 70
0
 10
426.3553664482768
 20
-147.8118889509788
 30
0
  0
LINE
  8
1
 62
4
 10
451.6067909424995
 20
-47.05411454421972
 30
0
 11
451.6067909424995
 21
-45.05411454421972
 31
0
  0
LINE
  8
1
 62
3
 10
521.3320405900117
 20
-51.05411454421972
 30
0
 11
521.3320405900117
 21
-41.05411454421972
 31
0
  0
INSERT
  8
0
  2
GI77377-02_KT42JM06-004________
 10
276.7364785686027
 20
-134.7046687228112
 30
0
  0
ENDBLK
  8
0
  0
BLOCK
  8
0
  2
_2__5
 70
0
 10
380.8078395632265
 20
7.283548532713315
 30
0
  0
LINE
  8
1
 62
2
  6
DASHED
 10
362.9172463808885
 20
8.816846177525115
 30
0
 11
362.9172463808885
 21
3.816851640603787
 31
0
  0
LINE
  8
1
 62
2
  6
DASHED
 10
363.9172463808885
 20
8.816846177525115
 30
0
 11
363.9172463808885
 21
3.816851345637385
 31
0
  0
LINE
  8
1
 62
2
  6
DASHED
 10
367.9172463808885
 20
8.816846177525115
 30
0
 11
367.9172463808885
 21
3.816850165771804
 31
0
  0
LINE
  8
1
 62
2
  6
DASHED
 10
368.9172463808885
 20
8.816846177525115
 30
0
 11
368.9172463808885
 21
3.816849870805417
 31
0
  0
LINE
  8
1
 62
2
  6
DASHED
 10
377.917246380889
 20
8.816846177525115
 30
0
 11
377.917246380889
 21
3.816847216107856
 31
0
  0
LINE
  8
1
 62
2
  6
DASHED
 10
378.917246380889
 20
8.816846177525115
 30
0
 11
378.917246380889
 21
3.816846921141465
 31
0
  0
LINE
  8
1
 62
2
  6
DASHED
 10
361.1672463808885
 20
10.39684456142517
 30
0
 11
361.1672463808885
 21
8.216846177524975
 31
0
  0
LINE
  8
1
 62
2
  6
DASHED
 10
379.667246380889
 20
10.39684456142517
 30
0
 11
379.667246380889
 21
8.216846177524975
 31
0
  0
LINE
  8
1
 62
4
  6
DASHED
 10
363.9172463808885
 20
8.216846177524975
 30
0
 11
365.4172463808885
 21
8.216846177524975
 31
0
  0
LINE
  8
1
 62
4
  6
DASHED
 10
365.4172463808885
 20
8.216846177524975
 30
0
 11
365.4172463808885
 21
8.816846177525115
 31
0
  0
LINE
  8
1
 62
4
  6
DASHED
 10
364.9172463808885
 20
8.216846177524975
 30
0
 11
364.9172463808885
 21
8.816846177525115
 31
0
  0
LINE
  8
1
 62
4
  6
DASHED
 10
364.4172463808885
 20
8.216846177524975
 30
0
 11
364.4172463808885
 21
8.816846177525115
 31
0
  0
LINE
  8
1
 62
4
  6
DASHED
 10
363.9172463808885
 20
8.216846177524975
 30
0
 11
363.9172463808885
 21
8.816846177525115
 31
0
  0
LINE
  8
1
 62
4
  6
DASHED
 10
373.9172463808885
 20
8.216846177524975
 30
0
 11
373.9172463808885
 21
8.816846177525115
 31
0
  0
LINE
  8
1
 62
4
  6
DASHED
 10
374.4172463808885
 20
8.216846177524975
 30
0
 11
374.4172463808885
 21
8.816846177525115
 31
0
  0
LINE
  8
1
 62
4
  6
DASHED
 10
374.9172463808885
 20
8.216846177524975
 30
0
 11
374.9172463808885
 21
8.816846177525115
 31
0
  0
LINE
  8
1
 62
4
  6
DASHED
 10
375.4172463808885
 20
8.216846177524975
 30
0
 11
375.4172463808885
 21
8.816846177525115
 31
0
  0
LINE
  8
1
 62
4
  6
DASHED
 10
375.4172463808885
 20
8.216846177524975
 30
0
 11
373.9172463808885
 21
8.216846177524975
 31
0
  0
LINE
  8
1
 62
4
  6
DASHED
 10
368.9172463808885
 20
8.216846177524975
 30
0
 11
370.4172463808885
 21
8.216846177524975
 31
0
  0
LINE
  8
1
 62
4
  6
DASHED
 10
370.4172463808885
 20
8.216846177524975
 30
0
 11
370.4172463808885
 21
8.816846177525115
 31
0
  0
LINE
  8
1
 62
4
  6
DASHED
 10
369.9172463808885
 20
8.216846177524975
 30
0
 11
369.9172463808885
 21
8.816846177525115
 31
0
  0
LINE
  8
1
 62
4
  6
DASHED
 10
369.4172463808885
 20
8.216846177524975
 30
0
 11
369.4172463808885
 21
8.816846177525115
 31
0
  0
LINE
  8
1
 62
4
  6
DASHED
 10
368.9172463808885
 20
8.216846177524975
 30
0
 11
368.9172463808885
 21
8.816846177525115
 31
0
  0
LINE
  8
1
 62
4
 10
370.9172463808885
 20
7.399990866055067
 30
0
 11
370.9172463808885
 21
15.9332916142149
 31
0
  0
LINE
  8
1
 62
2
  6
DASHED
 10
379.667246380889
 20
8.816846177525115
 30
0
 11
362.1672463808885
 21
8.816846177525115
 31
0
  0
LINE
  8
1
 62
2
  6
DASHED
 10
361.1672463808885
 20
8.216846177524975
 30
0
 11
362.1672463808885
 21
8.216846177524975
 31
0
  0
LINE
  8
1
 62
2
  6
DASHED
 10
362.1672463808885
 20
8.216846177524975
 30
0
 11
362.1672463808885
 21
10.39684456142517
 31
0
  0
LINE
  8
1
 62
2
  6
DASHED
 10
379.667246380889
 20
8.216846177524975
 30
0
 11
380.667246380889
 21
8.216846177524975
 31
0
  0
LINE
  8
1
 62
2
  6
DASHED
 10
380.667246380889
 20
8.216846177524975
 30
0
 11
380.667246380889
 21
10.39684456142517
 31
0
  0
LINE
  8
1
 62
4
  6
DASHED
 10
362.1672463808885
 20
8.216846177524975
 30
0
 11
362.9172463808885
 21
8.216846177524975
 31
0
  0
LINE
  8
1
 62
4
  6
DASHED
 10
362.9172463808885
 20
8.216846177524975
 30
0
 11
362.9172463808885
 21
8.816846177525115
 31
0
  0
LINE
  8
1
 62
4
  6
DASHED
 10
362.5422463808885
 20
8.216846177524975
 30
0
 11
362.5422463808885
 21
8.816846177525115
 31
0
  0
LINE
  8
1
 62
4
  6
DASHED
 10
366.4172463808885
 20
8.216846177524975
 30
0
 11
367.9172463808885
 21
8.216846177524975
 31
0
  0
LINE
  8
1
 62
4
  6
DASHED
 10
367.9172463808885
 20
8.216846177524975
 30
0
 11
367.9172463808885
 21
8.816846177525115
 31
0
  0
LINE
  8
1
 62
4
  6
DASHED
 10
367.4172463808885
 20
8.216846177524975
 30
0
 11
367.4172463808885
 21
8.816846177525115
 31
0
  0
LINE
  8
1
 62
4
  6
DASHED
 10
366.9172463808885
 20
8.216846177524975
 30
0
 11
366.9172463808885
 21
8.816846177525115
 31
0
  0
LINE
  8
1
 62
4
  6
DASHED
 10
366.4172463808885
 20
8.216846177524975
 30
0
 11
366.4172463808885
 21
8.816846177525115
 31
0
  0
LINE
  8
1
 62
4
  6
DASHED
 10
371.4172463808885
 20
8.216846177524975
 30
0
 11
371.4172463808885
 21
8.816846177525115
 31
0
  0
LINE
  8
1
 62
4
  6
DASHED
 10
371.9172463808885
 20
8.216846177524975
 30
0
 11
371.9172463808885
 21
8.816846177525115
 31
0
  0
LINE
  8
1
 62
4
  6
DASHED
 10
372.4172463808885
 20
8.216846177524975
 30
0
 11
372.4172463808885
 21
8.816846177525115
 31
0
  0
LINE
  8
1
 62
4
  6
DASHED
 10
372.9172463808885
 20
8.216846177524975
 30
0
 11
372.9172463808885
 21
8.816846177525115
 31
0
  0
LINE
  8
1
 62
4
  6
DASHED
 10
372.9172463808885
 20
8.216846177524975
 30
0
 11
371.4172463808885
 21
8.216846177524975
 31
0
  0
LINE
  8
1
 62
4
  6
DASHED
 10
379.667246380889
 20
8.216846177524975
 30
0
 11
378.917246380889
 21
8.216846177524975
 31
0
  0
LINE
  8
1
 62
4
  6
DASHED
 10
378.917246380889
 20
8.216846177524975
 30
0
 11
378.917246380889
 21
8.816846177525115
 31
0
  0
LINE
  8
1
 62
4
  6
DASHED
 10
379.292246380889
 20
8.216846177524975
 30
0
 11
379.292246380889
 21
8.816846177525115
 31
0
  0
LINE
  8
1
 62
4
  6
DASHED
 10
376.417246380889
 20
8.216846177524975
 30
0
 11
376.417246380889
 21
8.816846177525115
 31
0
  0
LINE
  8
1
 62
4
  6
DASHED
 10
376.9172463808885
 20
8.216846177524975
 30
0
 11
376.917246380889
 21
8.816846177525115
 31
0
  0
LINE
  8
1
 62
4
  6
DASHED
 10
377.417246380889
 20
8.216846177524975
 30
0
 11
377.417246380889
 21
8.816846177525115
 31
0
  0
LINE
  8
1
 62
4
  6
DASHED
 10
377.917246380889
 20
8.216846177524975
 30
0
 11
377.917246380889
 21
8.816846177525115
 31
0
  0
LINE
  8
1
 62
4
  6
DASHED
 10
377.917246380889
 20
8.216846177524975
 30
0
 11
376.417246380889
 21
8.216846177524975
 31
0
  0
ENDBLK
  8
0
  0
BLOCK
  8
0
  2
123__6
 70
0
 10
207.2897723230428
 20
-91.2957726166659
 30
0
  0
INSERT
  8
0
  2
_2__5
 10
380.8078395632265
 20
7.283548532713315
 30
0
  0
ENDBLK
  8
0
  0
BLOCK
  8
0
  2
GI77377-02_KT42JM06-004_______1
 70
0
 10
57.67088444336872
 20
-78.18855238849834
 30
0
  0
INSERT
  8
0
  2
123__6
 10
207.2897723230428
 20
-91.2957726166659
 30
0
  0
ENDBLK
  8
0
  0
BLOCK
  8
0
  2
1__8
 70
0
 10
207.2897723230428
 20
-91.2957726166659
 30
0
  0
INSERT
  8
0
  2
GI77377-02_KT42JM06-004_______1
 10
57.67088444336872
 20
-78.18855238849834
 30
0
  0
ENDBLK
  8
0
  0
BLOCK
  8
0
  2
MOJINOMUKI
 70
0
 10
795.8080593291065
 20
53.3191690554984
 30
0
  0
LINE
  8
1
 62
2
 10
541.0572819496884
 20
50.3191690554984
 30
0
 11
515.0572819496884
 21
50.3191690554984
 31
0
  0
LINE
  8
1
 62
2
 10
515.0572819496884
 20
56.3191690554984
 30
0
 11
541.0572819496884
 21
56.3191690554984
 31
0
  0
LINE
  8
1
 62
2
 10
541.0572819496884
 20
56.3191690554984
 30
0
 11
541.0572819496884
 21
50.3191690554984
 31
0
  0
LINE
  8
1
 62
2
 10
516.5572819496884
 20
53.3191690554984
 30
0
 11
519.0572819496884
 21
53.3191690554984
 31
0
  0
LINE
  8
1
 62
2
 10
518.0572819496884
 20
50.8191690554984
 30
0
 11
518.0572819496884
 21
55.8191690554984
 31
0
  0
LINE
  8
1
 62
2
 10
518.0572819496884
 20
55.8191690554984
 30
0
 11
516.5572819496884
 21
53.3191690554984
 31
0
  0
LINE
  8
1
 62
2
 10
521.0572819496884
 20
56.3191690554984
 30
0
 11
521.0572819496884
 21
50.3191690554984
 31
0
  0
LINE
  8
1
 62
2
 10
515.0572819496884
 20
50.3191690554984
 30
0
 11
515.0572819496884
 21
56.3191690554984
 31
0
  0
TEXT
  8
1
 62
2
 10
516.2174814765621
 20
43.62024338890564
 30
0
 40
5
  1
(   )
 41
0.9
  0
TEXT
  8
1
 62
2
 10
519.7345627801932
 20
46.53989038930872
 30
0
 40
2
  1
DIRECTION
 41
0.9
  0
TEXT
  8
1
 62
2
 10
519.7345627801932
 20
43.53989038930872
 30
0
 40
2
  1
OF LETTER
 41
0.9
  0
TEXT
  8
1
 62
2
 10
513.1040275118186
 20
51.3191690554984
 30
0
 40
4
  1
òÂÄÜé╠î³é½
 41
0.9
 72
1
 73
2
 11
531.1040275118186
 21
53.3191690554984
 31
0
  0
ENDBLK
  8
0
  0
BLOCK
  8
1
  2
*D0
 70
1
 10
0
 20
0
 30
0
  0
LINE
  8
1
 62
2
 10
451.6067909424998
 20
-31.00483176629712
 30
0
 11
457.2814532293984
 21
-31.00483176629712
 31
0
  0
LINE
  8
1
 62
2
 10
451.6067909424998
 20
-31.00483176629712
 30
0
 11
445.2067909424997
 21
-31.00483176629712
 31
0
  0
LINE
  8
1
 62
2
 10
457.2814532293984
 20
-31.00483176629712
 30
0
 11
463.6814532293985
 21
-31.00483176629712
 31
0
  0
LINE
  8
1
 62
2
 10
451.6067909424998
 20
-44.05411454421972
 30
0
 11
451.6067909424998
 21
-29.50483176629712
 31
0
  0
LINE
  8
1
 62
2
 10
457.2814532293984
 20
-44.05411454421972
 30
0
 11
457.2814532293984
 21
-29.50483176629712
 31
0
  0
SOLID
  8
1
 62
2
 10
457.2814532293984
 20
-31.00483176629712
 30
0
 11
460.4814532293984
 21
-30.58883176629712
 31
0
 12
460.4814532293984
 22
-31.42083176629712
 32
0
 13
460.4814532293984
 23
-31.42083176629712
 33
0
  0
SOLID
  8
1
 62
2
 10
451.6067909424998
 20
-31.00483176629712
 30
0
 11
448.4067909424998
 21
-31.42083176629712
 31
0
 12
448.4067909424998
 22
-30.58883176629712
 32
0
 13
448.4067909424998
 23
-30.58883176629712
 33
0
  0
TEXT
  8
1
 62
2
 10
456.6469081272437
 20
-29.0048317662971
 30
0
 40
3.2
  1
10
 41
0.9
  0
TEXT
  8
1
 62
2
 10
454.5669081272437
 20
-29.0048317662971
 30
0
 40
3.2
  1
(
 41
0.9
  0
TEXT
  8
1
 62
2
 10
462.0869081272437
 20
-29.0048317662971
 30
0
 40
3.2
  1
)
 41
0.9
  0
ENDBLK
  8
0
  0
BLOCK
  8
1
  2
*D1
 70
1
 10
0
 20
0
 30
0
  0
LINE
  8
1
 62
2
 10
451.6067909424997
 20
-18.53357565330522
 30
0
 11
521.3320405900114
 21
-18.53357565330522
 31
0
  0
LINE
  8
1
 62
2
 10
451.6067909424997
 20
-44.05411454421972
 30
0
 11
451.6067909424997
 21
-17.03357565330522
 31
0
  0
LINE
  8
1
 62
2
 10
521.3320405900114
 20
-53.80411454421984
 30
0
 11
521.3320405900114
 21
-17.03357565330522
 31
0
  0
SOLID
  8
1
 62
2
 10
451.6067909424997
 20
-18.53357565330522
 30
0
 11
454.8067909424997
 21
-18.11757565330522
 31
0
 12
454.8067909424997
 22
-18.94957565330522
 32
0
 13
454.8067909424997
 23
-18.94957565330522
 33
0
  0
SOLID
  8
1
 62
2
 10
521.3320405900114
 20
-18.53357565330522
 30
0
 11
518.1320405900113
 21
-18.94957565330522
 31
0
 12
518.1320405900113
 22
-18.11757565330522
 32
0
 13
518.1320405900113
 23
-18.11757565330522
 33
0
  0
TEXT
  8
1
 62
2
 10
477.8227337693236
 20
-15.93357565330517
 30
0
 40
3.2
  1
300
 41
0.9
  0
TEXT
  8
1
 62
2
 10
487.1027337693236
 20
-13.89357565330517
 30
0
 40
1.76
  1
+40
 41
0.9900000000000001
  0
TEXT
  8
1
 62
2
 10
487.1027337693236
 20
-16.53357565330517
 30
0
 40
1.76
  1
 0
 41
0.9900000000000001
  0
ENDBLK
  8
0
  0
BLOCK
  8
1
  2
*D2
 70
1
 10
0
 20
0
 30
0
  0
LINE
  8
1
 62
2
 10
349.9172460269766
 20
82.33448809843745
 30
0
 11
391.9172472177959
 21
82.33448690761807
 31
0
  0
LINE
  8
1
 62
2
 10
349.9172452184204
 20
53.81684427739836
 30
0
 11
349.9172460695058
 21
83.83448809843745
 31
0
  0
LINE
  8
1
 62
2
 10
391.9172464092396
 20
53.81684308657898
 30
0
 11
391.9172472603251
 21
83.83448690761807
 31
0
  0
SOLID
  8
1
 62
2
 10
349.9172460269766
 20
82.33448809843745
 30
0
 11
353.1172460387714
 21
82.75048800770836
 31
0
 12
353.1172460151818
 22
81.91848800770835
 32
0
 13
353.1172460151818
 23
81.91848800770835
 33
0
  0
SOLID
  8
1
 62
2
 10
391.9172472177959
 20
82.33448690761807
 30
0
 11
388.7172472060011
 21
81.91848699834716
 31
0
 12
388.7172472295907
 22
82.75048699834716
 32
0
 13
388.7172472295907
 23
82.75048699834716
 33
0
  0
TEXT
  8
1
 62
2
 10
368.139318686199
 20
84.33448758178993
 30
0
 40
3.2
  1
42
 50
359.9999983755018
 41
0.9
  0
TEXT
  8
1
 62
2
 10
366.059318686199
 20
84.33448764076384
 30
0
 40
3.2
  1
(
 50
359.9999983755018
 41
0.9
  0
TEXT
  8
1
 62
2
 10
374.539318686199
 20
84.33448740033174
 30
0
 40
3.2
  1
)
 50
359.9999983755018
 41
0.9
  0
ENDBLK
  8
0
  0
BLOCK
  8
1
  2
*D3
 70
1
 10
0
 20
0
 30
0
  0
LINE
  8
1
 62
2
 10
451.4081353286511
 20
89.81684308657898
 30
0
 11
475.4081307831964
 21
89.81684308657898
 31
0
  0
LINE
  8
1
 62
2
 10
451.4081353286511
 20
40.31684308657898
 30
0
 11
451.4081353286511
 21
91.31684308657898
 31
0
  0
LINE
  8
1
 62
2
 10
475.4081307831964
 20
57.81684308657898
 30
0
 11
475.4081307831964
 21
91.31684308657898
 31
0
  0
SOLID
  8
1
 62
2
 10
475.4081307831964
 20
89.81684308657898
 30
0
 11
472.2081307831965
 21
89.40084308657899
 31
0
 12
472.2081307831965
 22
90.23284308657898
 32
0
 13
472.2081307831965
 23
90.23284308657898
 33
0
  0
SOLID
  8
1
 62
2
 10
451.4081353286511
 20
89.81684308657898
 30
0
 11
454.6081353286511
 21
90.23284308657898
 31
0
 12
454.6081353286511
 22
89.40084308657899
 32
0
 13
454.6081353286511
 23
89.40084308657899
 33
0
  0
TEXT
  8
1
 62
2
 10
458.7315998410927
 20
91.81684308657901
 30
0
 40
3.2
  1
24
 41
0.9
  0
TEXT
  8
1
 62
2
 10
465.1315998410927
 20
92.53684308657901
 30
0
 40
1.76
  1
%%p0.5
 41
0.9900000000000001
  0
ENDBLK
  8
0
  0
BLOCK
  8
1
  2
*D4
 70
1
 10
0
 20
0
 30
0
  0
LINE
  8
1
 62
2
 10
408.8177439362797
 20
21.31684308657904
 30
0
 11
408.8177439362797
 21
52.31684308657896
 31
0
  0
LINE
  8
1
 62
2
 10
389.9172463808861
 20
21.31684308657904
 30
0
 11
409.8177439362797
 21
21.31684308657904
 31
0
  0
LINE
  8
1
 62
2
 10
389.9172463808861
 20
52.31684308657896
 30
0
 11
409.8177439362797
 21
52.31684308657896
 31
0
  0
SOLID
  8
1
 62
2
 10
408.8177439362797
 20
52.31684308657896
 30
0
 11
409.2337439362797
 21
49.11684308657895
 31
0
 12
408.4017439362797
 22
49.11684308657895
 32
0
 13
408.4017439362797
 23
49.11684308657895
 33
0
  0
SOLID
  8
1
 62
2
 10
408.8177439362797
 20
21.31684308657904
 30
0
 11
408.4017439362797
 21
24.51684308657904
 31
0
 12
409.2337439362797
 22
24.51684308657904
 32
0
 13
409.2337439362797
 23
24.51684308657904
 33
0
  0
TEXT
  8
1
 62
2
 10
406.8177439362797
 20
31.70865707316276
 30
0
 40
3.200000000000001
  1
31
 50
90
 41
0.9
  0
TEXT
  8
1
 62
2
 10
406.1777439362797
 20
37.14865707316276
 30
0
 40
1.920000000000001
  1
%%p0.2
 50
90
 41
0.9
  0
ENDBLK
  8
0
  0
BLOCK
  8
0
  2
*D5
 70
1
 10
0
 20
0
 30
0
  0
LINE
  8
0
 62
2
 10
355.4172563808867
 20
72.81684308657893
 30
0
 11
386.4172463808866
 21
72.81684308657893
 31
0
  0
LINE
  8
0
 62
2
 10
355.4172563808867
 20
54.81684308657893
 30
0
 11
355.4172563808867
 21
73.81684308657893
 31
0
  0
LINE
  8
0
 62
2
 10
386.4172463808866
 20
54.81684308657893
 30
0
 11
386.4172463808866
 21
73.81684308657893
 31
0
  0
SOLID
  8
0
 62
2
 10
355.4172563808867
 20
72.81684308657893
 30
0
 11
358.6172563808867
 21
73.23284308657892
 31
0
 12
358.6172563808867
 22
72.40084308657893
 32
0
 13
358.6172563808867
 23
72.40084308657893
 33
0
  0
SOLID
  8
0
 62
2
 10
386.4172463808866
 20
72.81684308657893
 30
0
 11
383.2172463808866
 21
72.40084308657893
 31
0
 12
383.2172463808866
 22
73.23284308657892
 32
0
 13
383.2172463808866
 23
73.23284308657892
 33
0
  0
TEXT
  8
0
 62
2
 10
365.7732463808866
 20
74.41684308657892
 30
0
 40
3.2
  1
31
 41
0.9
  0
TEXT
  8
0
 62
2
 10
371.2132463808866
 20
75.05684308657892
 30
0
 40
1.92
  1
%%p0.2
 41
0.9
  0
ENDBLK
  8
0
  0
BLOCK
  8
0
  2
*D6
 70
1
 10
0
 20
0
 30
0
  0
LINE
  8
0
 62
2
 10
431.6904823442426
 20
25.81684308657904
 30
0
 11
431.6904823442426
 21
47.81684308657896
 31
0
  0
LINE
  8
0
 62
2
 10
472.4081307831971
 20
47.81684308657896
 30
0
 11
430.6904823442426
 21
47.81684308657896
 31
0
  0
LINE
  8
0
 62
2
 10
472.408030783197
 20
25.81684308657904
 30
0
 11
430.6904823442426
 21
25.81684308657904
 31
0
  0
SOLID
  8
0
 62
2
 10
431.6904823442426
 20
47.81684308657896
 30
0
 11
432.1064823442426
 21
44.61684308657895
 31
0
 12
431.2744823442426
 22
44.61684308657895
 32
0
 13
431.2744823442426
 23
44.61684308657895
 33
0
  0
SOLID
  8
0
 62
2
 10
431.6904823442426
 20
25.81684308657904
 30
0
 11
431.2744823442426
 21
29.01684308657904
 31
0
 12
432.1064823442426
 22
29.01684308657904
 32
0
 13
432.1064823442426
 23
29.01684308657904
 33
0
  0
TEXT
  8
0
 62
2
 10
429.2904823442426
 20
33.59175505671375
 30
0
 40
3.2
  1
22
 50
90
 41
0.9
  0
TEXT
  8
0
 62
2
 10
427.2104823442426
 20
39.99175505671375
 30
0
 40
1.92
  1
0
 50
90
 41
0.9
  0
TEXT
  8
0
 62
2
 10
430.0904823442426
 20
39.99175505671375
 30
0
 40
1.92
  1
-0.05
 50
90
 41
0.9
  0
TEXT
  8
0
 62
2
 10
429.2904823442426
 20
29.75175505671375
 30
0
 40
3.2
  1
%%c
 50
90
 41
0.9
  0
ENDBLK
  8
0
  0
BLOCK
  8
0
  2
*D7
 70
1
 10
0
 20
0
 30
0
  0
LINE
  8
0
 62
2
 10
467.0081307831964
 20
69.81684308657898
 30
0
 11
473.4081307831964
 21
69.81684308657898
 31
0
  0
LINE
  8
0
 62
2
 10
473.4081307831964
 20
69.81684308657898
 30
0
 11
475.4081307831964
 21
69.81684308657898
 31
0
  0
LINE
  8
0
 62
2
 10
475.4081307831964
 20
69.81684308657898
 30
0
 11
486.3764588045897
 21
69.81684308657898
 31
0
  0
LINE
  8
0
 62
2
 10
473.4081307831964
 20
48.81684308657898
 30
0
 11
473.4081307831964
 21
70.81684308657898
 31
0
  0
LINE
  8
0
 62
2
 10
475.4081307831964
 20
57.4478347961473
 30
0
 11
475.4081307831964
 21
70.81684308657898
 31
0
  0
SOLID
  8
0
 62
2
 10
473.4081307831964
 20
69.81684308657898
 30
0
 11
470.2081307831964
 21
69.40084308657899
 31
0
 12
470.2081307831964
 22
70.23284308657898
 32
0
 13
470.2081307831964
 23
70.23284308657898
 33
0
  0
SOLID
  8
0
 62
2
 10
475.4081307831964
 20
69.81684308657898
 30
0
 11
478.6081307831964
 21
70.23284308657898
 31
0
 12
478.6081307831964
 22
69.40084308657899
 32
0
 13
478.6081307831964
 23
69.40084308657899
 33
0
  0
TEXT
  8
0
 62
2
 10
478.0084588045897
 20
71.41684308657904
 30
0
 40
3.2
  1
2
 41
0.9
  0
TEXT
  8
0
 62
2
 10
481.5284588045897
 20
72.05684308657904
 30
0
 40
1.92
  1
%%p0.2
 41
0.9
  0
ENDBLK
  8
0
  0
BLOCK
  8
0
  2
*D8
 70
1
 10
0
 20
0
 30
0
  0
LINE
  8
0
 62
2
 10
475.4081307831966
 20
89.81684308657903
 30
0
 11
509.2081420978258
 21
89.81684308657903
 31
0
  0
LINE
  8
0
 62
2
 10
509.2081420978258
 20
57.81684308657898
 30
0
 11
509.2081420978258
 21
90.81684308657903
 31
0
  0
LINE
  8
0
 62
2
 10
475.4081307831966
 20
57.4478347961473
 30
0
 11
475.4081307831966
 21
90.81684308657903
 31
0
  0
SOLID
  8
0
 62
2
 10
475.4081307831966
 20
89.81684308657903
 30
0
 11
478.6081307831966
 21
90.23284308657902
 31
0
 12
478.6081307831966
 22
89.40084308657903
 32
0
 13
478.6081307831966
 23
89.40084308657903
 33
0
  0
SOLID
  8
0
 62
2
 10
509.2081420978258
 20
89.81684308657903
 30
0
 11
506.0081420978258
 21
89.40084308657903
 31
0
 12
506.0081420978258
 22
90.23284308657902
 32
0
 13
506.0081420978258
 23
90.23284308657902
 33
0
  0
TEXT
  8
0
 62
2
 10
489.351835222933
 20
91.41684308657904
 30
0
 40
3.2
  1
34
 41
0.9
  0
TEXT
  8
0
 62
2
 10
487.271835222933
 20
91.41684308657904
 30
0
 40
3.2
  1
(
 41
0.9
  0
TEXT
  8
0
 62
2
 10
495.751835222933
 20
91.41684308657904
 30
0
 40
3.2
  1
)
 41
0.9
  0
ENDBLK
  8
0
  0
BLOCK
  8
1
  2
*D9
 70
1
 10
0
 20
0
 30
0
  0
LINE
  8
1
 62
2
 10
443.5563152641822
 20
34.31684308657899
 30
0
 11
443.5563152641822
 21
39.31684308657899
 31
0
  0
LINE
  8
1
 62
2
 10
443.5563152641822
 20
34.31684308657899
 30
0
 11
443.5563152641822
 21
27.91684308657901
 31
0
  0
LINE
  8
1
 62
2
 10
443.5563152641822
 20
39.31684308657899
 30
0
 11
443.5563152641822
 21
45.71684308657897
 31
0
  0
LINE
  8
1
 62
2
 10
450.4081080559242
 20
34.31684308657899
 30
0
 11
442.0563152641822
 21
34.31684308657899
 31
0
  0
LINE
  8
1
 62
2
 10
450.4081353286517
 20
39.31684308657899
 30
0
 11
442.0563152641822
 21
39.31684308657899
 31
0
  0
SOLID
  8
1
 62
2
 10
443.5563152641822
 20
39.31684308657899
 30
0
 11
443.1403152641822
 21
42.51684308657899
 31
0
 12
443.9723152641822
 22
42.51684308657899
 32
0
 13
443.9723152641822
 23
42.51684308657899
 33
0
  0
SOLID
  8
1
 62
2
 10
443.5563152641822
 20
34.31684308657899
 30
0
 11
443.9723152641822
 21
31.11684308657899
 31
0
 12
443.1403152641822
 22
31.11684308657899
 32
0
 13
443.1403152641822
 23
31.11684308657899
 33
0
  0
TEXT
  8
1
 62
2
 10
440.7029819308489
 20
33.20680795379845
 30
0
 40
3.200000000000001
  1
5
 50
90
 41
0.9
  0
TEXT
  8
1
 62
2
 10
438.6229819308489
 20
36.72680795379845
 30
0
 40
1.920000000000001
  1
 0
 50
90
 41
0.9
  0
TEXT
  8
1
 62
2
 10
441.5029819308489
 20
36.72680795379845
 30
0
 40
1.920000000000001
  1
-0.011
 50
90
 41
0.9
  0
TEXT
  8
1
 62
2
 10
440.7029819308489
 20
29.15974913026903
 30
0
 40
3.200000000000001
  1
âË
 50
90
 41
0.9
  0
ENDBLK
  8
0
  0
BLOCK
  8
1
  2
*D10
 70
1
 10
0
 20
0
 30
0
  0
LINE
  8
1
 62
2
 10
418.945101259933
 20
22.21684456141127
 30
0
 11
418.945101259933
 21
15.81684456141127
 31
0
  0
LINE
  8
1
 62
2
 10
418.945101259933
 20
8.216846177524975
 30
0
 11
418.945101259933
 21
15.81684456141127
 31
0
  0
LINE
  8
1
 62
2
 10
418.945101259933
 20
8.216846177524975
 30
0
 11
418.945101259933
 21
-0.8760981016097702
 31
0
  0
LINE
  8
1
 62
2
 10
381.667246380889
 20
8.216846177524975
 30
0
 11
420.445101259933
 21
8.216846177524975
 31
0
  0
LINE
  8
1
 62
2
 10
387.9172449060546
 20
15.81684456141127
 30
0
 11
420.445101259933
 21
15.81684456141127
 31
0
  0
SOLID
  8
1
 62
2
 10
418.945101259933
 20
8.216846177524975
 30
0
 11
419.361101259933
 21
5.016846177524974
 31
0
 12
418.529101259933
 22
5.016846177524974
 32
0
 13
418.529101259933
 23
5.016846177524974
 33
0
  0
SOLID
  8
1
 62
2
 10
418.945101259933
 20
15.81684456141127
 30
0
 11
418.529101259933
 21
19.01684456141127
 31
0
 12
419.361101259933
 22
19.01684456141127
 32
0
 13
419.361101259933
 23
19.01684456141127
 33
0
  0
TEXT
  8
1
 62
2
 10
416.945101259933
 20
1.44390189839023
 30
0
 40
3.2
  1
7
 50
90
 41
0.9
  0
TEXT
  8
1
 62
2
 10
416.945101259933
 20
-0.8760981016097702
 30
0
 40
3.2
  1
(
 50
90
 41
1.35
  0
TEXT
  8
1
 62
2
 10
416.945101259933
 20
4.96390189839023
 30
0
 40
3.2
  1
)
 50
90
 41
0.9
  0
ENDBLK
  8
0
  0
BLOCK
  8
1
  2
*D11
 70
1
 10
0
 20
0
 30
0
  0
LINE
  8
1
 62
2
 10
418.9834956263445
 20
15.81684456141133
 30
0
 11
418.9834956263445
 21
57.81684308657893
 31
0
  0
LINE
  8
1
 62
2
 10
387.9172449060539
 20
15.81684456141133
 30
0
 11
420.4834956263445
 21
15.81684456141133
 31
0
  0
LINE
  8
1
 62
2
 10
387.9172463808858
 20
57.81684308657893
 30
0
 11
420.4834956263445
 21
57.81684308657893
 31
0
  0
SOLID
  8
1
 62
2
 10
418.9834956263445
 20
57.81684308657893
 30
0
 11
419.3994956263445
 21
54.61684308657893
 31
0
 12
418.5674956263445
 22
54.61684308657893
 32
0
 13
418.5674956263445
 23
54.61684308657893
 33
0
  0
SOLID
  8
1
 62
2
 10
418.9834956263445
 20
15.81684456141133
 30
0
 11
418.5674956263445
 21
19.01684456141133
 31
0
 12
419.3994956263445
 22
19.01684456141133
 32
0
 13
419.3994956263445
 23
19.01684456141133
 33
0
  0
TEXT
  8
1
 62
2
 10
416.9834956263445
 20
32.23067617392672
 30
0
 40
3.2
  1
(42)
 50
90
 41
0.9
  0
ENDBLK
  8
0
  0
ENDSEC
  0
SECTION
  2
ENTITIES
  0
LINE
  8
1
 62
3
 10
354.9172360939926
 20
15.81685400033851
 30
0
 11
386.9172449060545
 21
15.81684456141127
 31
0
  0
LINE
  8
1
 62
3
 10
475.4081307831966
 20
56.81684308657898
 30
0
 11
475.4081307831966
 21
16.81684348235766
 31
0
  0
LINE
  8
1
 62
3
 10
483.3081307831967
 20
21.81694308657896
 30
0
 11
483.3081307831967
 21
51.81684308657898
 31
0
  0
LINE
  8
1
 62
3
 10
499.4081315880886
 20
51.81684308657898
 30
0
 11
499.4081315880886
 21
21.81684308657898
 31
0
  0
LINE
  8
1
 62
3
 10
451.4081080559236
 20
34.31684308657898
 30
0
 11
473.4080977338056
 21
34.31684308657898
 31
0
  0
LINE
  8
1
 62
3
 10
349.9172375688247
 20
20.81685519115789
 30
0
 11
349.9172451900677
 21
52.81684427739836
 31
0
  0
LINE
  8
1
 62
3
 10
476.4081311789746
 20
15.81684348235766
 30
0
 11
499.4081315880886
 21
15.8168533372424
 31
0
  0
LINE
  8
1
 62
3
 10
476.4081307831966
 20
57.81684308657898
 30
0
 11
508.2081420978258
 21
57.81684308657898
 31
0
  0
LINE
  8
4
 62
2
 10
499.0081315880888
 20
48.1260430865789
 30
0
 11
499.0081315880888
 21
57.81684308657898
 31
0
  0
LINE
  8
4
 62
2
 10
498.2081315880888
 20
49.39584308657882
 30
0
 11
498.2081315880888
 21
57.81684308657898
 31
0
  0
LINE
  8
4
 62
2
 10
497.4081315880886
 20
50.66564308657897
 30
0
 11
497.4081315880886
 21
57.81684308657898
 31
0
  0
LINE
  8
4
 62
2
 10
496.6081315880887
 20
51.93544308657877
 30
0
 11
496.6081315880887
 21
57.81684308657898
 31
0
  0
LINE
  8
4
 62
2
 10
495.8081315880887
 20
53.20524308657892
 30
0
 11
495.8081315880887
 21
57.81684308657898
 31
0
  0
LINE
  8
4
 62
2
 10
495.0081315880888
 20
54.47494308657909
 30
0
 11
495.0081315880888
 21
57.81684308657898
 31
0
  0
LINE
  8
4
 62
2
 10
483.7080307831966
 20
25.50754308657909
 30
0
 11
483.7080307831966
 21
15.81674308657878
 31
0
  0
LINE
  8
4
 62
2
 10
484.5080307831966
 20
24.23774308657906
 30
0
 11
484.5080307831966
 21
15.81674308657878
 31
0
  0
LINE
  8
4
 62
2
 10
485.3080307831965
 20
22.96794308657903
 30
0
 11
485.3080307831965
 21
15.81674308657878
 31
0
  0
LINE
  8
4
 62
2
 10
486.1080307831967
 20
21.69814308657888
 30
0
 11
486.1080307831967
 21
15.81674308657878
 31
0
  0
LINE
  8
4
 62
2
 10
486.9080307831966
 20
20.42844308657882
 30
0
 11
486.9080307831966
 21
15.81674308657878
 31
0
  0
LINE
  8
4
 62
2
 10
487.7080307831966
 20
19.15864308657891
 30
0
 11
487.7080307831966
 21
15.81674308657878
 31
0
  0
LINE
  8
2
 62
1
 10
383.9172463808866
 20
52.31684308657898
 30
0
 11
388.9172463808866
 21
52.31684308657898
 31
0
  0
LINE
  8
2
 62
1
 10
386.4172463808866
 20
49.81684308657898
 30
0
 11
386.4172463808866
 21
54.81684308657898
 31
0
  0
LINE
  8
2
 62
1
 10
355.4172563808866
 20
49.81684308657898
 30
0
 11
355.4172563808866
 21
54.81684308657898
 31
0
  0
LINE
  8
2
 62
1
 10
357.9172463808866
 20
52.31684308657898
 30
0
 11
352.9172463808866
 21
52.31684308657898
 31
0
  0
LINE
  8
2
 62
1
 10
357.9172463808866
 20
21.31684308657898
 30
0
 11
352.9172463808866
 21
21.31684308657898
 31
0
  0
LINE
  8
2
 62
1
 10
355.4172363808866
 20
23.81684308657898
 30
0
 11
355.4172363808866
 21
18.81684308657898
 31
0
  0
LINE
  8
2
 62
1
 10
386.4172463808866
 20
23.81684308657898
 30
0
 11
386.4172463808866
 21
18.81684308657898
 31
0
  0
LINE
  8
2
 62
1
 10
383.9172463808866
 20
21.31684308657898
 30
0
 11
388.9172463808866
 21
21.31684308657898
 31
0
  0
LINE
  8
1
 62
3
 10
483.3081307831967
 20
21.81694308657896
 30
0
 11
499.4081315880886
 21
21.81684308657898
 31
0
  0
LINE
  8
1
 62
3
 10
483.3081307831967
 20
51.81684308657898
 30
0
 11
499.4081315880886
 21
51.81684308657898
 31
0
  0
LINE
  8
1
 62
3
 10
475.4081307831966
 20
56.81684308657898
 30
0
 11
475.4081307831966
 21
56.44783479614731
 31
0
  0
LINE
  8
1
 62
3
 10
386.9172463808866
 20
57.81684308657898
 30
0
 11
354.9172451900665
 21
57.81684308657898
 31
0
  0
LINE
  8
1
 62
3
 10
391.9172463808866
 20
20.81684456141116
 30
0
 11
391.9172463808866
 21
52.81684308657898
 31
0
  0
LINE
  8
1
 62
3
 10
473.4081307831966
 20
47.81684308657898
 30
0
 11
475.4081307831966
 21
47.81684308657898
 31
0
  0
LINE
  8
1
 62
3
 10
473.4080307831966
 20
25.81684308657898
 30
0
 11
475.4081307831966
 21
25.81684308657898
 31
0
  0
LINE
  8
1
 62
3
 10
473.4080307831966
 20
25.81684308657898
 30
0
 11
473.4081307831966
 21
47.81684308657898
 31
0
  0
LINE
  8
1
 62
3
 10
483.3081307831967
 20
51.81684308657898
 30
0
 11
483.3081307831967
 21
57.81684308657898
 31
0
  0
LINE
  8
1
 62
2
 10
499.4081315880886
 20
51.81684308657898
 30
0
 11
499.4081315880886
 21
57.81684308657898
 31
0
  0
LINE
  8
1
 62
2
 10
483.3081307831967
 20
21.81694308657896
 30
0
 11
483.3080307831965
 21
15.81684308657898
 31
0
  0
LINE
  8
1
 62
3
 10
509.2081420978258
 20
56.81684308657898
 30
0
 11
509.2081270978257
 21
16.81684308657898
 31
0
  0
LINE
  8
1
 62
1
 10
448.9081194195346
 20
36.81684308657898
 30
0
 11
511.2080420978247
 21
36.81684308657898
 31
0
  0
LINE
  8
1
 62
3
 10
499.4081315880886
 20
13.81684308657898
 30
0
 11
499.4081315880886
 21
21.81684308657898
 31
0
  0
LINE
  8
1
 62
3
 10
499.4081315880886
 20
13.81684308657898
 30
0
 11
508.2081305958246
 21
13.81684308657898
 31
0
  0
LINE
  8
1
 62
3
 10
509.2081305958228
 20
14.81684483557936
 30
0
 11
509.2081270978257
 21
16.81684308657898
 31
0
  0
LINE
  8
1
 62
3
 10
499.4081315880886
 20
13.81684308657898
 30
0
 11
499.4081315880886
 21
12.26684308657903
 31
0
  0
LINE
  8
1
 62
3
 10
499.4081315880886
 20
12.26684308657903
 30
0
 11
504.8081315880887
 21
12.26684308657903
 31
0
  0
LINE
  8
1
 62
3
 10
504.8081315880887
 20
12.26684308657903
 30
0
 11
504.8081315880887
 21
13.81684308657898
 31
0
  0
LINE
  8
1
 62
3
 10
504.2081315880888
 20
12.26684308657903
 30
0
 11
504.2081315880888
 21
11.26684308657903
 31
0
  0
LINE
  8
1
 62
3
 10
504.2081315880888
 20
11.26684308657903
 30
0
 11
499.4081315880886
 21
11.26684308657903
 31
0
  0
LINE
  8
1
 62
3
 10
499.4081315880886
 20
11.26684308657903
 30
0
 11
499.4081315880886
 21
12.26684308657903
 31
0
  0
LINE
  8
1
 62
4
  6
DIVIDE
 10
372.9172463808866
 20
38.31684308657898
 30
0
 11
373.3010823443447
 21
38.31684308657898
 31
0
  0
LINE
  8
1
 62
4
  6
DIVIDE
 10
370.9172463808866
 20
34.31684308657898
 30
0
 11
371.4720127558287
 21
34.31684308657898
 31
0
  0
LINE
  8
1
 62
3
 10
451.4081353286517
 20
39.31684308657898
 30
0
 11
473.4080977338056
 21
39.31684308657898
 31
0
  0
LINE
  8
1
 62
3
 10
451.4081353286517
 20
39.31684308657898
 30
0
 11
451.4081080559236
 21
34.31684308657898
 31
0
  0
LINE
  8
2
 62
1
 10
347.9172413794446
 20
36.81684308657898
 30
0
 11
393.9172463808866
 21
36.81684308657898
 31
0
  0
LINE
  8
2
 62
1
 10
370.9172463808866
 20
14.81684308657898
 30
0
 11
370.9172463808866
 21
60.81684308657898
 31
0
  0
LINE
  8
1
 62
3
 10
511.873894318598
 20
55.7363429661909
 30
0
 11
511.873894318598
 21
47.52743245645407
 31
0
  0
ARC
  8
1
 62
3
 10
508.2081420978258
 20
56.81684308657898
 30
0
 40
1
 50
0
 51
90
  0
CIRCLE
  8
1
 62
3
 10
370.9172463808866
 20
36.81684308657898
 30
0
 40
12.75
  0
CIRCLE
  8
1
 62
3
 10
370.9172463808866
 20
36.81684308657898
 30
0
 40
15
  0
CIRCLE
  8
1
 62
3
 10
370.9172463808866
 20
36.81684308657898
 30
0
 40
11
  0
CIRCLE
  8
1
 62
3
 10
370.9172463808866
 20
36.81684308657898
 30
0
 40
7.5
  0
CIRCLE
  8
1
 62
3
 10
370.9172463808866
 20
36.81684308657898
 30
0
 40
2.5
  0
CIRCLE
  8
4
 62
2
 10
355.4172463808866
 20
52.31684308657898
 30
0
 40
1.000010000000032
  0
CIRCLE
  8
4
 62
2
 10
386.4172463808866
 20
52.31684308657898
 30
0
 40
1
  0
CIRCLE
  8
4
 62
2
 10
355.4172363808866
 20
21.31684308657898
 30
0
 40
1.000009999999975
  0
CIRCLE
  8
4
 62
2
 10
386.4172463808866
 20
21.31684308657898
 30
0
 40
1
  0
CIRCLE
  8
1
 62
3
 10
386.4172463808866
 20
52.31684308657898
 30
0
 40
1.5
  0
CIRCLE
  8
1
 62
3
 10
355.4172463808866
 20
52.31684308657898
 30
0
 40
1.5
  0
CIRCLE
  8
1
 62
3
 10
355.4172363808866
 20
21.31684308657898
 30
0
 40
1.5
  0
CIRCLE
  8
1
 62
3
 10
386.4172463808866
 20
21.31684308657898
 30
0
 40
1.5
  0
CIRCLE
  8
1
 62
3
 10
370.9172463808866
 20
36.81684308657898
 30
0
 40
5
  0
ARC
  8
1
 62
3
 10
386.9172463808866
 20
52.81684308657898
 30
0
 40
5
 50
0
 51
90
  0
ARC
  8
1
 62
3
 10
354.9172451900665
 20
52.81684308657898
 30
0
 40
5
 50
90
 51
179.999986354215
  0
ARC
  8
1
 62
3
 10
354.9172375688247
 20
20.81685400033828
 30
0
 40
5.000000000000141
 50
179.9999863542124
 51
269.9999830996688
  0
ARC
  8
1
 62
3
 10
386.9172463808866
 20
20.81684456141116
 30
0
 40
5.000000000000108
 50
269.9999830996695
 51
0
  0
ARC
  8
1
 62
3
 10
476.4081307831966
 20
16.81684348235766
 30
0
 40
1
 50
180
 51
270.0000226764083
  0
ARC
  8
1
 62
3
 10
476.4081307831966
 20
56.81684308657898
 30
0
 40
1
 50
90
 51
180
  0
ARC
  8
1
 62
3
 10
508.2081305958246
 20
14.81684308657898
 30
0
 40
1
 50
270
 51
0.000100210340094563
  0
LINE
  8
1
 62
2
 10
493.6575971440526
 20
-65.67395643616112
 30
0
 11
533.9021424592454
 21
-65.67395643616112
 31
0
  0
LINE
  8
1
 62
2
 10
533.9021424592454
 20
-65.67395643616112
 30
0
 11
526.6320405900115
 21
-55.80411454421983
 31
0
  0
SOLID
  8
1
 62
2
 10
528.8690691625927
 20
-58.13074015610795
 30
0
 11
528.1906692432344
 21
-58.63044790987073
 31
0
 12
526.6320405900115
 22
-55.80411454421983
 32
0
 13
526.6320405900115
 23
-55.80411454421983
 33
0
  0
LINE
  8
1
 62
2
 10
437.3694175899155
 20
78.91385406603899
 30
0
 11
400.2126903326676
 21
78.91385406603899
 31
0
  0
LINE
  8
1
 62
2
 10
400.2126903326676
 20
78.91385406603899
 30
0
 11
387.4479885767561
 21
53.40660018137312
 31
0
  0
SOLID
  8
1
 62
2
 10
388.5033200044081
 20
56.4568065924622
 30
0
 11
389.2568119687034
 21
56.07973345698498
 31
0
 12
387.4479885767561
 22
53.40660018137312
 32
0
 13
387.4479885767561
 23
53.40660018137312
 33
0
  0
LINE
  8
1
 62
2
 10
426.3788996313288
 20
-63.47125092660394
 30
0
 11
471.0913046077336
 21
-63.47125092660394
 31
0
  0
LINE
  8
1
 62
2
 10
471.0913046077336
 20
-63.47125092660394
 30
0
 11
479.4986199003437
 21
-47.55411454421972
 31
0
  0
SOLID
  8
1
 62
2
 10
478.3765909817067
 20
-50.58042164664362
 30
0
 11
477.6315572755527
 21
-50.18690027943395
 31
0
 12
479.4986199003437
 22
-47.55411454421972
 32
0
 13
479.4986199003437
 23
-47.55411454421972
 33
0
  0
LINE
  8
1
 62
2
 10
541.1517072870478
 20
73.50772747580089
 30
0
 11
518.5419068862713
 21
73.50772747580089
 31
0
  0
LINE
  8
1
 62
2
 10
518.5419068862713
 20
73.50772747580089
 30
0
 11
511.873894318598
 21
55.7363429661909
 31
0
  0
SOLID
  8
1
 62
2
 10
512.6036056789885
 20
58.88038573036508
 30
0
 11
513.3924795133207
 21
58.58439187356728
 31
0
 12
511.873894318598
 22
55.7363429661909
 32
0
 13
511.873894318598
 23
55.7363429661909
 33
0
  0
TEXT
  8
1
 62
2
 10
304.30878735899
 20
113.831729500141
 30
0
 40
10
  1
KT42HM(0.6üïüA1.2üï)
 41
0.9
  0
TEXT
  8
1
 62
2
 10
495.6834865078687
 20
-64.21328851678175
 30
0
 40
2.5
  1
HOUSING:EHR-7(JST)
 41
0.63
  0
TEXT
  8
1
 62
2
 10
495.6834865078687
 20
-68.99625896608177
 30
0
 40
2.5
  1
CONTACT:SEH-001T-P0.6S(JST)
 41
0.54
  0
TEXT
  8
1
 62
2
 10
391.2778244069798
 20
74.67178949473207
 30
0
 40
3.499999999999999
  1
É[é(écédéoéségüjü@éSéléhémüD
 50
0.0009745374036200501
 41
0.5400000000000003
 72
1
 73
2
 11
418.6827946374645
 21
76.42225562301007
 31
0
  0
TEXT
  8
1
 62
2
 10
404.7348734616886
 20
81.43969705391089
 30
0
 40
3.5
  1
4-M3ü~0.5
 41
0.9
  0
TEXT
  8
1
 62
2
 10
427.0845837959786
 20
-60.33487686148897
 30
0
 40
2.4
  1
âèü[âhÉ³Ädùlü@ü@étékéRéQéUéUü@é`évéféQéU
 41
0.7200000000000001
  0
TEXT
  8
1
 62
2
 10
427.2414024992347
 20
-62.60874805869696
 30
0
 40
1.6
  1
LEAD WIRE
 41
0.9
  0
TEXT
  8
1
 62
2
 10
377.2922447621619
 20
-1.544251118851204
 30
0
 40
2.5
  1
1
 41
0.9
 72
1
 11
378.4172447621619
 21
-1.544251118851204
 31
0
  0
TEXT
  8
1
 62
2
 10
367.2922447621609
 20
-1.544251118851204
 30
0
 40
2.5
  1
5
 41
0.9
 72
1
 11
368.4172447621609
 21
-1.544251118851204
 31
0
  0
TEXT
  8
1
 62
2
 10
362.2922447621604
 20
-1.544251118851204
 30
0
 40
2.5
  1
7
 41
0.9
 72
1
 11
363.4172447621604
 21
-1.544251118851204
 31
0
  0
TEXT
  8
1
 62
2
 10
346.4622805840089
 20
-1.670988087139705
 30
0
 40
2.5
  1
PIN No.
 41
0.9
  0
TEXT
  8
1
 62
2
 10
518.8343552688833
 20
74.69570655724809
 30
0
 40
5
  1
âlü|âÇâvâîü|âg
 41
0.5850000000000001
  0
TEXT
  8
1
 62
2
 10
520.0363059021681
 20
69.09372540985815
 30
0
 40
3
  1
(NAME PLATE)
 41
0.5850000000000001
  0
DIMENSION
  8
1
  6
CONTINUOUS
 62
2
  2
*D0
  3
DMST_1
 10
457.2814532293984
 20
-31.00483176629712
 30
0
 11
458.5669081272437
 21
-27.4048317662971
 31
0
 12
0
 22
0
 32
0
 70
0
  1
10
 13
451.6067909424995
 23
-45.05411454421972
 33
0
 14
457.2814532293986
 24
-45.05411454421972
 34
0
 53
0
  0
DIMENSION
  8
1
  6
CONTINUOUS
 62
2
  2
*D1
  3
DMST_2
 10
451.6067909424997
 20
-18.53357565330522
 30
0
 11
484.6891337693236
 21
-14.33357565330517
 31
0
 12
0
 22
0
 32
0
 70
0
  1
300
 13
521.3320405900117
 23
-54.80411454421983
 33
0
 14
451.6067909424995
 24
-45.05411454421972
 34
0
 53
0
  0
DIMENSION
  8
1
  6
CONTINUOUS
 62
2
  2
*D2
  3
DMST_1
 10
349.9172460269766
 20
82.33448809843745
 30
0
 11
370.5393187315635
 21
85.93448751374311
 31
0
 12
0
 22
0
 32
0
 70
1
  1
(<>
 13
391.9172463808866
 23
52.81684308657898
 33
0
 14
349.9172451900677
 24
52.81684427739836
 34
0
 53
0
  0
DIMENSION
  8
1
  6
CONTINUOUS
 62
2
  2
*D3
  3
DMST_3
 10
475.4081307831964
 20
89.81684308657898
 30
0
 11
464.3757998410927
 21
93.41684308657901
 31
0
 12
0
 22
0
 32
0
 70
0
 13
451.4081353286517
 23
39.31684308657898
 33
0
 14
475.4081307831966
 24
56.81684308657898
 34
0
 53
0
  0
DIMENSION
  8
1
  6
CONTINUOUS
 62
2
  2
*D4
  3
DMST_4
 10
408.8177439362797
 20
52.31684308657896
 30
0
 11
405.2177439362797
 21
36.85265707316276
 31
0
 12
0
 22
0
 32
0
 70
0
 13
388.9172463808866
 23
21.31684308657898
 33
0
 14
388.9172463808866
 24
52.31684308657898
 34
0
 50
90
 53
0
  0
DIMENSION
  8
0
  6
CONTINUOUS
 62
2
  2
*D5
  3
DMST_5
 10
355.4172563808867
 20
72.81684308657893
 30
0
 11
370.9172463808866
 21
76.01684308657892
 31
0
 12
0
 22
0
 32
0
 70
0
 13
386.4172463808866
 23
54.81684308657898
 33
0
 14
355.4172563808866
 24
54.81684308657898
 34
0
 53
0
  0
DIMENSION
  8
0
  6
CONTINUOUS
 62
2
  2
*D6
  3
DMST_6
 10
431.6904823442426
 20
47.81684308657896
 30
0
 11
427.6904823442426
 21
38.25575505671375
 31
0
 12
0
 22
0
 32
0
 70
0
  1
%%c<>
 13
473.4080307831966
 23
25.81684308657898
 33
0
 14
473.4081307831966
 24
47.81684308657898
 34
0
 50
90
 53
0
  0
DIMENSION
  8
0
  6
CONTINUOUS
 62
2
  2
*D7
  3
DMST_6
 10
475.4081307831964
 20
69.81684308657898
 30
0
 11
482.1924588045897
 21
73.01684308657903
 31
0
 12
0
 22
0
 32
0
 70
0
 13
473.4081307831966
 23
47.81684308657898
 33
0
 14
475.4081307831966
 24
56.44783479614731
 34
0
 53
0
  0
DIMENSION
  8
0
  6
CONTINUOUS
 62
2
  2
*D8
  3
DMST_7
 10
475.4081307831966
 20
89.81684308657903
 30
0
 11
491.751835222933
 21
93.01684308657903
 31
0
 12
0
 22
0
 32
0
 70
0
  1
34
 13
509.2081420978258
 23
56.81684308657898
 33
0
 14
475.4081307831966
 24
56.44783479614731
 34
0
 53
0
  0
DIMENSION
  8
1
  6
CONTINUOUS
 62
2
  2
*D10
  3
DMST_1
 10
418.945101259933
 20
8.216846177524973
 30
0
 11
415.345101259933
 21
2.28390189839023
 31
0
 12
0
 22
0
 32
0
 70
0
  1
7
 13
386.9172449060545
 23
15.81684456141127
 33
0
 14
380.667246380889
 24
8.216846177524975
 34
0
 50
90
 53
0
  0
DIMENSION
  8
1
  6
CONTINUOUS
 62
2
  2
*D11
  3
DMST_8
 10
418.9834956263445
 20
15.81684456141133
 30
0
 11
415.3834956263445
 21
36.07067617392673
 31
0
 12
0
 22
0
 32
0
 70
0
  1
(42)
 13
386.9172463808866
 23
57.81684308657898
 33
0
 14
386.9172449060545
 24
15.81684456141127
 34
0
 50
90
 53
0
  0
INSERT
  8
0
  2
6FGB
 10
354.9172463808866
 20
7.484957524424232
 30
0
  0
INSERT
  8
0
  2
ZIUH
 10
360.9172463808886
 20
6.837847948980112
 30
0
  0
INSERT
  8
0
  2
OKHF
 10
361.3108357014537
 20
-3.085416654587647
 30
0
  0
INSERT
  8
0
  2
1__4
 10
426.3553664482768
 20
-147.8118889509788
 30
0
  0
INSERT
  8
0
  2
1__8
 10
207.2897723230428
 20
-91.2957726166659
 30
0
  0
INSERT
  8
0
  2
MOJINOMUKI
 10
795.8080593291065
 20
53.3191690554984
 30
0
  0
INSERT
  8
1
  2
*D9
 10
0
 20
0
 30
0
  0
ENDSEC
  0
EOF
