  0
SECTION
  2
HEADER
  9
$ACADVER
  1
AC1009
  9
$INSBASE
 10
0
 20
0
  9
$EXTMIN
 10
-123.8603585822785
 20
-87.47069960908421
  9
$EXTMAX
 10
184.7676497529205
 20
89.35195230863451
  9
$LIMMIN
 10
-123.8603585822785
 20
-87.47069960908421
  9
$LIMMAX
 10
184.7676497529205
 20
89.35195230863451
  9
$VIEWCTR
 10
10
 20
10
  9
$VIEWSIZE
 40
10
  9
$SNAPMODE
 70
0
  9
$SNAPUNIT
 10
1
 20
1
  9
$SNAPBASE
 10
0
 20
0
  9
$SNAPANG
 50
0
  9
$SNAPSTYLE
 70
0
  9
$SNAPISOPAIR
 70
0
  9
$GRIDMODE
 70
0
  9
$GRIDUNIT
 10
0
 20
0
  9
$ORTHOMODE
 70
0
  9
$REGENMODE
 70
1
  9
$FILLMODE
 70
1
  9
$QTEXTMODE
 70
0
  9
$DRAGMODE
 70
2
  9
$LTSCALE
 40
1
  9
$OSMODE
 70
0
  9
$ATTMODE
 70
1
  9
$TEXTSIZE
 40
3.5
  9
$TRACEWID
 40
0.5
  9
$TEXTSTYLE
  7
STANDARD
  9
$CLAYER
  8
0
  9
$CELTYPE
  6
BYLAYER
  9
$CECOLOR
 62
256
  9
$DIMSCALE
 40
1
  9
$DIMASZ
 40
0.18
  9
$DIMEXO
 40
0.0625
  9
$DIMDLI
 40
0.38
  9
$DIMRND
 40
0
  9
$DIMDLE
 40
0
  9
$DIMEXE
 40
0.18
  9
$DIMTP
 40
0
  9
$DIMTM
 40
0
  9
$DIMTXT
 40
0.18
  9
$DIMCEN
 40
0.09
  9
$DIMTSZ
 40
0
  9
$DIMTOL
 70
0
  9
$DIMLIM
 70
0
  9
$DIMTIH
 70
1
  9
$DIMTOH
 70
1
  9
$DIMSE1
 70
0
  9
$DIMSE2
 70
0
  9
$DIMTAD
 70
0
  9
$DIMZIN
 70
0
  9
$DIMBLK
  1

  9
$DIMASO
 70
1
  9
$DIMSHO
 70
1
  9
$DIMPOST
  1

  9
$DIMAPOST
  1

  9
$DIMALT
 70
0
  9
$DIMALTD
 70
2
  9
$DIMALTF
 40
25.4
  9
$DIMLFAC
 40
1
  9
$DIMTOFL
 70
0
  9
$DIMTVP
 40
0
  9
$DIMTIX
 70
0
  9
$DIMSOXD
 70
0
  9
$DIMSAH
 70
0
  9
$DIMBLK1
  1

  9
$DIMBLK2
  1

  9
$DIMSTYLE
  2
*UNNAMED
  9
$DIMCLRD
 70
0
  9
$DIMCLRE
 70
0
  9
$DIMCLRT
 70
0
  9
$DIMTFAC
 40
1
  9
$DIMGAP
 40
0.09
  9
$LUNITS
 70
2
  9
$LUPREC
 70
4
  9
$AXISMODE
 70
0
  9
$AXISUNIT
 10
0
 20
0
  9
$SKETCHINC
 40
0.1
  9
$FILLETRAD
 40
2
  9
$AUNITS
 70
0
  9
$AUPREC
 70
0
  9
$MENU
  1
ACAD
  9
$ELEVATION
 40
0
  9
$THICKNESS
 40
0
  9
$VIEWDIR
 10
0
 20
0
 30
1
  9
$LIMCHECK
 70
0
  9
$BLIPMODE
 70
1
  9
$CHAMFERA
 40
0
  9
$CHAMFERB
 40
0
  9
$FASTZOOM
 70
1
  9
$SKPOLY
 70
0
  9
$ANGBASE
 50
0
  9
$ANGDIR
 70
0
  9
$PDMODE
 70
0
  9
$PDSIZE
 40
0
  9
$PLINEWID
 40
0
  9
$COORDS
 70
2
  0
ENDSEC
  0
SECTION
  2
TABLES
  0
TABLE
  2
DIMSTYLE
 70
9
  0
DIMSTYLE
  2
DMST_1
 70
0
  3
)
  4

  5

  6

  7

 40
1
 41
3.2
 42
1
 43
7
 44
1.5
 45
0
 46
0
 47
0
 48
0
140
3.2
141
0
142
0
143
25.4
144
1
145
0
146
1
147
0.09
 71
0
 72
0
 73
0
 74
0
 75
0
 76
0
 77
1
 78
9
170
0
171
2
172
0
173
0
174
0
175
0
176
2
177
2
178
2
  0
DIMSTYLE
  2
DMST_2
 70
0
  3

  4

  5

  6

  7

 40
1
 41
3.2
 42
1
 43
7
 44
1.5
 45
0
 46
0
 47
40
 48
0
140
3.2
141
0
142
0
143
25.4
144
1
145
0
146
0.6
147
0.09
 71
1
 72
0
 73
0
 74
0
 75
0
 76
0
 77
1
 78
9
170
0
171
2
172
0
173
0
174
0
175
0
176
2
177
2
178
2
  0
DIMSTYLE
  2
DMST_3
 70
0
  3

  4

  5

  6
DOT
  7

 40
1
 41
1.6
 42
1
 43
7
 44
1
 45
0
 46
0
 47
0
 48
0
140
3.2
141
0
142
0
143
25.4
144
1
145
0
146
1
147
0.09
 71
0
 72
0
 73
0
 74
0
 75
0
 76
0
 77
1
 78
9
170
0
171
2
172
0
173
1
174
0
175
0
176
2
177
2
178
2
  0
DIMSTYLE
  2
DMST_4
 70
0
  3

  4

  5

  6

  7

 40
1
 41
3.2
 42
1
 43
7
 44
1
 45
0
 46
0
 47
0
 48
0
140
3.2
141
0
142
0
143
25.4
144
1
145
0
146
1
147
0.09
 71
0
 72
0
 73
0
 74
0
 75
0
 76
0
 77
1
 78
9
170
0
171
2
172
0
173
0
174
0
175
0
176
2
177
2
178
2
  0
DIMSTYLE
  2
DMST_5
 70
0
  3

  4

  5

  6

  7

 40
1
 41
3.2
 42
1
 43
7
 44
1
 45
0
 46
0
 47
0
 48
0.05
140
3.2
141
0
142
0
143
25.4
144
1
145
0
146
0.6
147
0.09
 71
1
 72
0
 73
0
 74
0
 75
0
 76
0
 77
1
 78
9
170
0
171
2
172
0
173
0
174
0
175
0
176
2
177
2
178
2
  0
DIMSTYLE
  2
DMST_6
 70
0
  3

  4

  5

  6

  7

 40
1
 41
3.2
 42
1
 43
7
 44
1
 45
0
 46
0
 47
0
 48
0.02
140
3.2
141
0
142
0
143
25.4
144
1
145
0
146
0.6
147
0.09
 71
1
 72
0
 73
0
 74
0
 75
0
 76
0
 77
1
 78
9
170
0
171
2
172
0
173
0
174
0
175
0
176
2
177
2
178
2
  0
DIMSTYLE
  2
DMST_7
 70
0
  3

  4

  5

  6

  7

 40
1
 41
3.2
 42
1
 43
7
 44
1
 45
0
 46
0
 47
0.1
 48
0.1
140
3.2
141
0
142
0
143
25.4
144
1
145
0
146
0.6
147
0.09
 71
1
 72
0
 73
0
 74
0
 75
0
 76
0
 77
1
 78
9
170
0
171
2
172
0
173
0
174
0
175
0
176
2
177
2
178
2
  0
DIMSTYLE
  2
DMST_8
 70
0
  3

  4

  5

  6

  7

 40
1
 41
3.2
 42
1
 43
7
 44
1
 45
0
 46
0
 47
0.2
 48
0.2
140
3.2
141
0
142
0
143
25.4
144
1
145
0
146
0.6
147
0.09
 71
1
 72
0
 73
0
 74
0
 75
0
 76
0
 77
1
 78
9
170
0
171
2
172
0
173
0
174
0
175
0
176
2
177
2
178
2
  0
DIMSTYLE
  2
DMST_9
 70
0
  3
ê╚ë║
  4

  5

  6

  7

 40
1
 41
3.2
 42
1
 43
7
 44
1.5
 45
0
 46
0
 47
0
 48
0
140
3.2
141
0
142
0
143
25.4
144
1
145
0
146
1
147
0.09
 71
0
 72
0
 73
1
 74
1
 75
0
 76
0
 77
1
 78
9
170
0
171
2
172
1
173
0
174
0
175
0
176
2
177
2
178
2
  0
ENDTAB
  0
TABLE
  2
LTYPE
 70
9
  0
LTYPE
  2
CONTINUOUS
 70
64
  3
Solid line
 72
65
 73
0
 40
0
  0
LTYPE
  2
BORDER
 70
64
  3
__ __ . __ __ .
 72
65
 73
6
 40
14.21313196280522
 49
4.060894846515777
 49
-2.030447423257888
 49
4.060894846515777
 49
-2.030447423257888
 49
0
 49
-2.030447423257888
  0
LTYPE
  2
CENTER
 70
64
  3
____ _ ____ _
 72
65
 73
4
 40
16.24357938606311
 49
10.15223711628944
 49
-2.030447423257888
 49
2.030447423257888
 49
-2.030447423257888
  0
LTYPE
  2
DASHDOT
 70
64
  3
__ . __ . __ .
 72
65
 73
4
 40
8.121789693031554
 49
4.060894846515777
 49
-2.030447423257888
 49
0
 49
-2.030447423257888
  0
LTYPE
  2
DASHED
 70
64
  3
__ __ __ __ __
 72
65
 73
2
 40
6.091342269773666
 49
4.060894846515777
 49
-2.030447423257888
  0
LTYPE
  2
DIVIDE
 70
64
  3
__ . . __ . . 
 72
65
 73
6
 40
10.15223711628944
 49
4.060894846515777
 49
-2.030447423257888
 49
0
 49
-2.030447423257888
 49
0
 49
-2.030447423257888
  0
LTYPE
  2
DOT
 70
64
  3
..............
 72
65
 73
4
 40
4.060894846515777
 49
0
 49
-2.030447423257888
 49
0
 49
-2.030447423257888
  0
LTYPE
  2
HIDDEN
 70
64
  3
_ _ _ _ _ _ _
 72
65
 73
2
 40
3.045671134886833
 49
2.030447423257888
 49
-1.015223711628944
  0
LTYPE
  2
PHANTOM
 70
64
  3
_____ _ _ _____ _ _ 
 72
65
 73
6
 40
20.30447423257888
 49
10.15223711628944
 49
-2.030447423257888
 49
2.030447423257888
 49
-2.030447423257888
 49
2.030447423257888
 49
-2.030447423257888
  0
ENDTAB
  0
TABLE
  2
LAYER
 70
3
  0
LAYER
  2
1
 70
0
 62
7
  6
CONTINUOUS
  0
LAYER
  2
0
 70
0
 62
7
  6
CONTINUOUS
  0
ENDTAB
  0
TABLE
  2
STYLE
 70
4
  0
STYLE
  2
STANDARD
 70
0
 40
0
 41
1
 50
0
 71
0
 42
3.5
  3
txt
  4

  0
STYLE
  2
SIMPLEX
 70
0
 40
0
 41
1
 50
0
 71
0
 42
3.5
  3
simplex
  4

  0
STYLE
  2
COMPLEX
 70
0
 40
0
 41
1
 50
0
 71
0
 42
3.5
  3
complex
  4

  0
STYLE
  2
ITALIC
 70
0
 40
0
 41
1
 50
0
 71
0
 42
3.5
  3
italic
  4

  0
ENDTAB
  0
TABLE
  2
VIEW
 70
0
  0
ENDTAB
  0
ENDSEC
  0
SECTION
  2
BLOCKS
  0
BLOCK
  8
1
  2
*D0
 70
1
 10
0
 20
0
 30
0
  0
LINE
  8
1
 62
2
 10
167.622950780319
 20
-58.276900219206
 30
0
 11
167.622950780319
 21
-68.07183180978259
 31
0
  0
LINE
  8
1
 62
2
 10
167.622950780319
 20
-58.276900219206
 30
0
 11
167.622950780319
 21
-53.276900219206
 31
0
  0
LINE
  8
1
 62
2
 10
167.622950780319
 20
-46.87690021920601
 30
0
 11
167.622950780319
 21
-53.276900219206
 31
0
  0
LINE
  8
1
 62
2
 10
139.0143200676
 20
-53.276900219206
 30
0
 11
169.122950780319
 21
-53.276900219206
 31
0
  0
LINE
  8
1
 62
2
 10
138.2638629093759
 20
-58.276900219206
 30
0
 11
169.122950780319
 21
-58.276900219206
 31
0
  0
SOLID
  8
1
 62
2
 10
167.622950780319
 20
-53.276900219206
 30
0
 11
167.206950780319
 21
-50.076900219206
 31
0
 12
168.038950780319
 22
-50.076900219206
 32
0
 13
168.038950780319
 23
-50.076900219206
 33
0
  0
SOLID
  8
1
 62
2
 10
167.622950780319
 20
-58.276900219206
 30
0
 11
168.038950780319
 21
-61.476900219206
 31
0
 12
167.206950780319
 22
-61.476900219206
 32
0
 13
167.206950780319
 23
-61.476900219206
 33
0
  0
TEXT
  8
1
 62
2
 10
165.956821433956
 20
-65.9918318097826
 30
0
 40
3.2
  1
5
 50
90
 41
0.9
  0
TEXT
  8
1
 62
2
 10
165.956821433956
 20
-68.07183180978261
 30
0
 40
3.2
  1
(
 50
90
 41
0.9
  0
TEXT
  8
1
 62
2
 10
165.956821433956
 20
-62.4718318097826
 30
0
 40
3.2
  1
)
 50
90
 41
0.9
  0
ENDBLK
  8
0
  0
BLOCK
  8
1
  2
*D1
 70
1
 10
0
 20
0
 30
0
  0
LINE
  8
1
 62
2
 10
167.622950780319
 20
-53.276900219206
 30
0
 11
167.622950780319
 21
9.273926916006499
 31
0
  0
LINE
  8
1
 62
2
 10
136.347457436439
 20
9.273926916006499
 30
0
 11
169.122950780319
 21
9.273926916006499
 31
0
  0
LINE
  8
1
 62
2
 10
139.0143200676
 20
-53.276900219206
 30
0
 11
169.122950780319
 21
-53.276900219206
 31
0
  0
SOLID
  8
1
 62
2
 10
167.622950780319
 20
-53.276900219206
 30
0
 11
167.206950780319
 21
-50.076900219206
 31
0
 12
168.038950780319
 22
-50.076900219206
 32
0
 13
168.038950780319
 23
-50.076900219206
 33
0
  0
SOLID
  8
1
 62
2
 10
167.622950780319
 20
9.273926916006499
 30
0
 11
168.038950780319
 21
6.073926916006498
 31
0
 12
167.206950780319
 22
6.073926916006498
 32
0
 13
167.206950780319
 23
6.073926916006498
 33
0
  0
TEXT
  8
1
 62
2
 10
164.822950780319
 20
-33.4960095643351
 30
0
 40
3.2
  1
300
 50
90
 41
0.9
  0
TEXT
  8
1
 62
2
 10
162.742950780319
 20
-24.2160095643351
 30
0
 40
1.92
  1
+40
 50
90
 41
0.9
  0
TEXT
  8
1
 62
2
 10
165.622950780319
 20
-24.2160095643351
 30
0
 40
1.92
  1
 0
 50
90
 41
0.9
  0
ENDBLK
  8
0
  0
BLOCK
  8
1
  2
*D2
 70
1
 10
0
 20
0
 30
0
  0
LINE
  8
1
 62
2
 10
112.8474574364391
 20
63.27392691600649
 30
0
 11
119.2474574364391
 21
63.27392691600649
 31
0
  0
LINE
  8
1
 62
2
 10
107.8474574364391
 20
63.27392691600649
 30
0
 11
112.8474574364391
 21
63.27392691600649
 31
0
  0
LINE
  8
1
 62
2
 10
112.8474574364391
 20
48.27392691600649
 30
0
 11
112.8474574364391
 21
64.27392691600649
 31
0
  0
LINE
  8
1
 62
2
 10
107.8474574364391
 20
49.27392691600649
 30
0
 11
107.8474574364391
 21
64.27392691600649
 31
0
  0
CIRCLE
  8
1
 62
2
 10
107.8474574364391
 20
63.27392691600649
 30
0
 40
0.8
  0
SOLID
  8
1
 62
2
 10
112.8474574364391
 20
63.27392691600649
 30
0
 11
116.0474574364391
 21
63.68992691600649
 31
0
 12
116.0474574364391
 22
62.85792691600649
 32
0
 13
116.0474574364391
 23
62.85792691600649
 33
0
  0
TEXT
  8
1
 62
2
 10
109.5494766760475
 20
65.1921842278868
 30
0
 40
3.2
  1
5
 41
0.9
  0
ENDBLK
  8
0
  0
BLOCK
  8
1
  2
*D3
 70
1
 10
0
 20
0
 30
0
  0
LINE
  8
1
 62
2
 10
93.24745743643901
 20
52.2739269160065
 30
0
 11
103.247457436439
 21
52.2739269160065
 31
0
  0
LINE
  8
1
 62
2
 10
93.24745743643901
 20
38.27392691600649
 30
0
 11
93.24745743643901
 21
53.2739269160065
 31
0
  0
LINE
  8
1
 62
2
 10
103.247457436439
 20
38.77392691600649
 30
0
 11
103.247457436439
 21
53.2739269160065
 31
0
  0
SOLID
  8
1
 62
2
 10
93.24745743643901
 20
52.2739269160065
 30
0
 11
96.44745743643901
 21
52.68992691600649
 31
0
 12
96.44745743643901
 22
51.8579269160065
 32
0
 13
96.44745743643901
 23
51.8579269160065
 33
0
  0
SOLID
  8
1
 62
2
 10
103.247457436439
 20
52.2739269160065
 30
0
 11
100.047457436439
 21
51.8579269160065
 31
0
 12
100.047457436439
 22
52.68992691600649
 32
0
 13
100.047457436439
 23
52.68992691600649
 33
0
  0
TEXT
  8
1
 62
2
 10
96.5772500451711
 20
53.9525215784029
 30
0
 40
3.2
  1
10
 41
0.9
  0
ENDBLK
  8
0
  0
BLOCK
  8
1
  2
*D4
 70
1
 10
0
 20
0
 30
0
  0
LINE
  8
1
 62
2
 10
158.147457436439
 20
4.273926916006491
 30
0
 11
158.147457436439
 21
48.27392691600649
 31
0
  0
LINE
  8
1
 62
2
 10
126.3474574364391
 20
48.27392691600649
 30
0
 11
159.147457436439
 21
48.27392691600649
 31
0
  0
LINE
  8
1
 62
2
 10
126.3474574364391
 20
4.273926916006491
 30
0
 11
159.147457436439
 21
4.273926916006491
 31
0
  0
SOLID
  8
1
 62
2
 10
158.147457436439
 20
48.27392691600649
 30
0
 11
158.563457436439
 21
45.07392691600649
 31
0
 12
157.731457436439
 22
45.07392691600649
 32
0
 13
157.731457436439
 23
45.07392691600649
 33
0
  0
SOLID
  8
1
 62
2
 10
158.147457436439
 20
4.273926916006491
 30
0
 11
157.731457436439
 21
7.473926916006493
 31
0
 12
158.563457436439
 22
7.473926916006493
 32
0
 13
158.563457436439
 23
7.473926916006493
 33
0
  0
TEXT
  8
1
 62
2
 10
156.147457436439
 20
25.69614913822871
 30
0
 40
3.2
  1
44
 50
90
 41
0.9
  0
TEXT
  8
1
 62
2
 10
156.147457436439
 20
22.05170469378427
 30
0
 40
3.2
  1
âË
 50
90
 41
0.9
  0
ENDBLK
  8
0
  0
BLOCK
  8
1
  2
*D5
 70
1
 10
0
 20
0
 30
0
  0
LINE
  8
1
 62
2
 10
63.8512595231438
 20
31.27392691600649
 30
0
 11
63.8512595231438
 21
41.27392691600649
 31
0
  0
LINE
  8
1
 62
2
 10
104.847457436439
 20
41.27392691600649
 30
0
 11
62.8512595231438
 21
41.27392691600649
 31
0
  0
LINE
  8
1
 62
2
 10
104.847457436439
 20
31.27392691600649
 30
0
 11
62.8512595231438
 21
31.27392691600649
 31
0
  0
SOLID
  8
1
 62
2
 10
63.8512595231438
 20
41.27392691600649
 30
0
 11
64.26725952314379
 21
38.07392691600649
 31
0
 12
63.4352595231438
 22
38.07392691600649
 32
0
 13
63.4352595231438
 23
38.07392691600649
 33
0
  0
SOLID
  8
1
 62
2
 10
63.8512595231438
 20
31.27392691600649
 30
0
 11
63.43525952314379
 21
34.47392691600649
 31
0
 12
64.26725952314379
 22
34.47392691600649
 32
0
 13
64.26725952314379
 23
34.47392691600649
 33
0
  0
TEXT
  8
1
 62
2
 10
61.0512595231438
 20
31.62384741762782
 30
0
 40
3.2
  1
10
 50
90
 41
0.9
  0
TEXT
  8
1
 62
2
 10
58.9712595231438
 20
37.06384741762782
 30
0
 40
1.92
  1
 0
 50
90
 41
0.9
  0
TEXT
  8
1
 62
2
 10
61.8512595231438
 20
37.06384741762782
 30
0
 40
1.92
  1
-0.05
 50
90
 41
0.9
  0
TEXT
  8
1
 62
2
 10
61.0512595231438
 20
27.97940297318338
 30
0
 40
3.2
  1
âË
 50
90
 41
0.9
  0
ENDBLK
  8
0
  0
BLOCK
  8
1
  2
*D6
 70
1
 10
0
 20
0
 30
0
  0
LINE
  8
1
 62
2
 10
74.2933859872542
 20
37.77392691600649
 30
0
 11
74.2933859872542
 21
58.03847812732801
 31
0
  0
LINE
  8
1
 62
2
 10
74.2933859872542
 20
34.77392691600649
 30
0
 11
74.2933859872542
 21
37.77392691600649
 31
0
  0
LINE
  8
1
 62
2
 10
74.2933859872542
 20
28.37392691600649
 30
0
 11
74.2933859872542
 21
34.77392691600649
 31
0
  0
LINE
  8
1
 62
2
 10
102.247457436439
 20
37.77392691600649
 30
0
 11
73.2933859872542
 21
37.77392691600649
 31
0
  0
LINE
  8
1
 62
2
 10
92.24745743643901
 20
34.77392691600649
 30
0
 11
73.2933859872542
 21
34.77392691600649
 31
0
  0
SOLID
  8
1
 62
2
 10
74.2933859872542
 20
37.77392691600649
 30
0
 11
73.8773859872542
 21
40.97392691600649
 31
0
 12
74.70938598725419
 22
40.97392691600649
 32
0
 13
74.70938598725419
 23
40.97392691600649
 33
0
  0
SOLID
  8
1
 62
2
 10
74.2933859872542
 20
34.77392691600649
 30
0
 11
74.70938598725419
 21
31.57392691600649
 31
0
 12
73.8773859872542
 22
31.57392691600649
 32
0
 13
73.8773859872542
 23
31.57392691600649
 33
0
  0
TEXT
  8
1
 62
2
 10
71.44005265392087
 20
47.65447812732801
 30
0
 40
3.2
  1
3
 50
90
 41
0.9
  0
TEXT
  8
1
 62
2
 10
69.36005265392087
 20
51.174478127328
 30
0
 40
1.92
  1
 0
 50
90
 41
0.9
  0
TEXT
  8
1
 62
2
 10
72.24005265392087
 20
51.174478127328
 30
0
 40
1.92
  1
-0.02
 50
90
 41
0.9
  0
TEXT
  8
1
 62
2
 10
71.44005265392087
 20
43.60741930379859
 30
0
 40
3.2
  1
âË
 50
90
 41
0.9
  0
ENDBLK
  8
0
  0
BLOCK
  8
1
  2
*D7
 70
1
 10
0
 20
0
 30
0
  0
LINE
  8
1
 62
2
 10
84.7355124513646
 20
37.27392691600648
 30
0
 11
84.7355124513646
 21
57.02005333727981
 31
0
  0
LINE
  8
1
 62
2
 10
84.7355124513646
 20
34.77392691600649
 30
0
 11
84.7355124513646
 21
37.27392691600648
 31
0
  0
LINE
  8
1
 62
2
 10
84.7355124513646
 20
28.37392691600649
 30
0
 11
84.7355124513646
 21
34.77392691600649
 31
0
  0
LINE
  8
1
 62
2
 10
92.24745743643901
 20
37.27392691600648
 30
0
 11
83.7355124513646
 21
37.27392691600648
 31
0
  0
LINE
  8
1
 62
2
 10
92.24745743643901
 20
34.77392691600649
 30
0
 11
83.7355124513646
 21
34.77392691600649
 31
0
  0
SOLID
  8
1
 62
2
 10
84.7355124513646
 20
37.27392691600648
 30
0
 11
84.3195124513646
 21
40.47392691600648
 31
0
 12
85.1515124513646
 22
40.47392691600648
 32
0
 13
85.1515124513646
 23
40.47392691600648
 33
0
  0
SOLID
  8
1
 62
2
 10
84.7355124513646
 20
34.77392691600649
 30
0
 11
85.1515124513646
 21
31.57392691600649
 31
0
 12
84.3195124513646
 22
31.57392691600649
 32
0
 13
84.3195124513646
 23
31.57392691600649
 33
0
  0
TEXT
  8
1
 62
2
 10
82.7355124513646
 20
45.0520533372798
 30
0
 40
3.2
  1
2.5
 50
90
 41
0.9
  0
TEXT
  8
1
 62
2
 10
82.0955124513646
 20
52.6520533372798
 30
0
 40
1.92
  1
%%p0.1
 50
90
 41
0.9
  0
ENDBLK
  8
0
  0
BLOCK
  8
1
  2
*D8
 70
1
 10
0
 20
0
 30
0
  0
LINE
  8
1
 62
2
 10
93.24745743643901
 20
73.2739269160065
 30
0
 11
107.847457436439
 21
73.2739269160065
 31
0
  0
LINE
  8
1
 62
2
 10
93.24745743643901
 20
38.27392691600649
 30
0
 11
93.24745743643901
 21
74.2739269160065
 31
0
  0
LINE
  8
1
 62
2
 10
107.847457436439
 20
49.27392691600649
 30
0
 11
107.847457436439
 21
74.2739269160065
 31
0
  0
SOLID
  8
1
 62
2
 10
107.847457436439
 20
73.2739269160065
 30
0
 11
104.647457436439
 21
72.85792691600651
 31
0
 12
104.647457436439
 22
73.6899269160065
 32
0
 13
104.647457436439
 23
73.6899269160065
 33
0
  0
SOLID
  8
1
 62
2
 10
93.24745743643901
 20
73.2739269160065
 30
0
 11
96.44745743643901
 21
73.6899269160065
 31
0
 12
96.44745743643901
 22
72.85792691600651
 32
0
 13
96.44745743643901
 23
72.85792691600651
 33
0
  0
TEXT
  8
1
 62
2
 10
96.50237255109001
 20
75.24134872586171
 30
0
 40
3.2
  1
14.6
 41
0.9
  0
ENDBLK
  8
0
  0
BLOCK
  8
1
  2
*D9
 70
1
 10
0
 20
0
 30
0
  0
LINE
  8
1
 62
2
 10
105.847457436439
 20
63.2739269160065
 30
0
 11
99.32923102371753
 21
63.2739269160065
 31
0
  0
LINE
  8
1
 62
2
 10
105.847457436439
 20
63.2739269160065
 30
0
 11
107.847457436439
 21
63.2739269160065
 31
0
  0
LINE
  8
1
 62
2
 10
107.847457436439
 20
63.2739269160065
 30
0
 11
107.847457436439
 21
63.2739269160065
 31
0
  0
LINE
  8
1
 62
2
 10
107.847457436439
 20
49.2739269160065
 30
0
 11
107.847457436439
 21
64.2739269160065
 31
0
  0
LINE
  8
1
 62
2
 10
105.847457436439
 20
42.2739269160065
 30
0
 11
105.847457436439
 21
64.2739269160065
 31
0
  0
SOLID
  8
1
 62
2
 10
105.847457436439
 20
63.2739269160065
 30
0
 11
102.647457436439
 21
62.85792691600651
 31
0
 12
102.647457436439
 22
63.6899269160065
 32
0
 13
102.647457436439
 23
63.6899269160065
 33
0
  0
TEXT
  8
1
 62
2
 10
99.32923102371751
 20
65.03249288956911
 30
0
 40
3.2
  1
2
 41
0.9
  0
ENDBLK
  8
0
  0
BLOCK
  8
1
  2
*D10
 70
1
 10
0
 20
0
 30
0
  0
LINE
  8
1
 62
2
 10
107.847457436439
 20
73.2739269160065
 30
0
 11
142.847457436439
 21
73.2739269160065
 31
0
  0
LINE
  8
1
 62
2
 10
142.847457436439
 20
45.27392691600649
 30
0
 11
142.847457436439
 21
74.2739269160065
 31
0
  0
LINE
  8
1
 62
2
 10
107.847457436439
 20
49.27392691600649
 30
0
 11
107.847457436439
 21
74.2739269160065
 31
0
  0
SOLID
  8
1
 62
2
 10
107.847457436439
 20
73.2739269160065
 30
0
 11
111.047457436439
 21
73.6899269160065
 31
0
 12
111.047457436439
 22
72.85792691600651
 32
0
 13
111.047457436439
 23
72.85792691600651
 33
0
  0
SOLID
  8
1
 62
2
 10
142.847457436439
 20
73.2739269160065
 30
0
 11
139.647457436439
 21
72.85792691600651
 31
0
 12
139.647457436439
 22
73.6899269160065
 32
0
 13
139.647457436439
 23
73.6899269160065
 33
0
  0
TEXT
  8
1
 62
2
 10
119.7783600222718
 20
75.25273854189901
 30
0
 40
3.2
  1
35ê╚ë║
 41
0.9
  0
ENDBLK
  8
0
  0
BLOCK
  8
1
  2
*D11
 70
1
 10
0
 20
0
 30
0
  0
LINE
  8
1
 62
2
 10
-108.9557463275504
 20
4.773926916006502
 30
0
 11
-108.9557463275504
 21
47.7739269160065
 31
0
  0
LINE
  8
1
 62
2
 10
-81.4557463275504
 20
47.7739269160065
 30
0
 11
-109.9557463275504
 21
47.7739269160065
 31
0
  0
LINE
  8
1
 62
2
 10
-81.4557463275504
 20
4.773926916006502
 30
0
 11
-109.9557463275504
 21
4.773926916006502
 31
0
  0
SOLID
  8
1
 62
2
 10
-108.9557463275504
 20
47.7739269160065
 30
0
 11
-108.5397463275504
 21
44.5739269160065
 31
0
 12
-109.3717463275504
 22
44.5739269160065
 32
0
 13
-109.3717463275504
 23
44.5739269160065
 33
0
  0
SOLID
  8
1
 62
2
 10
-108.9557463275504
 20
4.773926916006502
 30
0
 11
-109.3717463275504
 21
7.973926916006503
 31
0
 12
-108.5397463275504
 22
7.973926916006503
 32
0
 13
-108.5397463275504
 23
7.973926916006503
 33
0
  0
TEXT
  8
1
 62
2
 10
-110.9557463275504
 20
23.5376164425509
 30
0
 40
3.2
  1
43
 50
90
 41
0.9
  0
ENDBLK
  8
0
  0
BLOCK
  8
1
  2
*D12
 70
1
 10
0
 20
0
 30
0
  0
LINE
  8
1
 62
2
 10
-98.9557463275504
 20
8.273926916006502
 30
0
 11
-98.9557463275504
 21
44.2739269160065
 31
0
  0
LINE
  8
1
 62
2
 10
-83.2057463275504
 20
44.2739269160065
 30
0
 11
-99.9557463275504
 21
44.2739269160065
 31
0
  0
LINE
  8
1
 62
2
 10
-83.2057463275504
 20
8.273926916006502
 30
0
 11
-99.9557463275504
 21
8.273926916006502
 31
0
  0
SOLID
  8
1
 62
2
 10
-98.9557463275504
 20
44.2739269160065
 30
0
 11
-98.5397463275504
 21
41.0739269160065
 31
0
 12
-99.3717463275504
 22
41.0739269160065
 32
0
 13
-99.3717463275504
 23
41.0739269160065
 33
0
  0
SOLID
  8
1
 62
2
 10
-98.9557463275504
 20
8.273926916006502
 30
0
 11
-99.3717463275504
 21
11.4739269160065
 31
0
 12
-98.5397463275504
 22
11.4739269160065
 32
0
 13
-98.5397463275504
 23
11.4739269160065
 33
0
  0
TEXT
  8
1
 62
2
 10
-100.9557463275504
 20
19.8336164425509
 30
0
 40
3.2
  1
36
 50
90
 41
0.9
  0
TEXT
  8
1
 62
2
 10
-101.5957463275504
 20
26.2336164425509
 30
0
 40
1.92
  1
%%p0.2
 50
90
 41
0.9
  0
ENDBLK
  8
0
  0
BLOCK
  8
1
  2
*D13
 70
1
 10
0
 20
0
 30
0
  0
LINE
  8
1
 62
2
 10
-26.27994032882557
 20
26.2739269160065
 30
0
 11
-26.27994032882557
 21
36.2739269160065
 31
0
  0
LINE
  8
1
 62
2
 10
-53.86944176668356
 20
36.2739269160065
 30
0
 11
-25.27994032882557
 21
36.2739269160065
 31
0
  0
LINE
  8
1
 62
2
 10
-34.68776071603957
 20
26.2739269160065
 30
0
 11
-25.27994032882557
 21
26.2739269160065
 31
0
  0
SOLID
  8
1
 62
2
 10
-26.27994032882557
 20
36.2739269160065
 30
0
 11
-25.86394032882557
 21
33.0739269160065
 31
0
 12
-26.69594032882557
 22
33.0739269160065
 32
0
 13
-26.69594032882557
 23
33.0739269160065
 33
0
  0
SOLID
  8
1
 62
2
 10
-26.27994032882557
 20
26.2739269160065
 30
0
 11
-26.69594032882557
 21
29.4739269160065
 31
0
 12
-25.86394032882557
 22
29.4739269160065
 32
0
 13
-25.86394032882557
 23
29.4739269160065
 33
0
  0
TEXT
  8
1
 62
2
 10
-28.27994032882557
 20
27.2251441334987
 30
0
 40
3.2
  1
10
 50
90
 41
0.63
  0
TEXT
  8
1
 62
2
 10
-28.91994032882557
 20
31.5131441334987
 30
0
 40
1.92
  1
%%p0.2
 50
90
 41
0.63
  0
ENDBLK
  8
0
  0
BLOCK
  8
1
  2
*D14
 70
1
 10
0
 20
0
 30
0
  0
LINE
  8
1
 62
2
 10
-80.45574632755057
 20
62.85983649633263
 30
0
 11
-44.45574632755057
 21
62.85983649633263
 31
0
  0
LINE
  8
1
 62
2
 10
-44.45574632755057
 20
47.0239269160065
 30
0
 11
-44.45574632755057
 21
63.85983649633263
 31
0
  0
LINE
  8
1
 62
2
 10
-80.45574632755057
 20
47.0239269160065
 30
0
 11
-80.45574632755057
 21
63.85983649633263
 31
0
  0
SOLID
  8
1
 62
2
 10
-44.45574632755057
 20
62.85983649633263
 30
0
 11
-47.65574632755057
 21
62.44383649633263
 31
0
 12
-47.65574632755057
 22
63.27583649633262
 32
0
 13
-47.65574632755057
 23
63.27583649633262
 33
0
  0
SOLID
  8
1
 62
2
 10
-80.45574632755057
 20
62.85983649633263
 30
0
 11
-77.25574632755057
 21
63.27583649633262
 31
0
 12
-77.25574632755057
 22
62.44383649633263
 32
0
 13
-77.25574632755057
 23
62.44383649633263
 33
0
  0
TEXT
  8
1
 62
2
 10
-68.72999354644556
 20
64.85983649633263
 30
0
 40
3.2
  1
36
 41
0.9
  0
TEXT
  8
1
 62
2
 10
-62.32999354644556
 20
65.49983649633263
 30
0
 40
1.92
  1
%%p0.2
 41
0.9
  0
ENDBLK
  8
0
  0
BLOCK
  8
1
  2
*D15
 70
1
 10
0
 20
0
 30
0
  0
LINE
  8
1
 62
2
 10
-83.95574632755057
 20
72.75951405078564
 30
0
 11
-40.95574632755057
 21
72.75951405078564
 31
0
  0
LINE
  8
1
 62
2
 10
-40.95574632755057
 20
45.2739269160065
 30
0
 11
-40.95574632755057
 21
73.75951405078564
 31
0
  0
LINE
  8
1
 62
2
 10
-83.95574632755057
 20
45.2739269160065
 30
0
 11
-83.95574632755057
 21
73.75951405078564
 31
0
  0
SOLID
  8
1
 62
2
 10
-83.95574632755057
 20
72.75951405078564
 30
0
 11
-80.75574632755057
 21
73.17551405078564
 31
0
 12
-80.75574632755057
 22
72.34351405078564
 32
0
 13
-80.75574632755057
 23
72.34351405078564
 33
0
  0
SOLID
  8
1
 62
2
 10
-40.95574632755057
 20
72.75951405078564
 30
0
 11
-44.15574632755057
 21
72.34351405078564
 31
0
 12
-44.15574632755057
 22
73.17551405078564
 32
0
 13
-44.15574632755057
 23
73.17551405078564
 33
0
  0
TEXT
  8
1
 62
2
 10
-65.02599354644556
 20
74.75951405078564
 30
0
 40
3.2
  1
43
 41
0.9
  0
ENDBLK
  8
0
  0
BLOCK
  8
1
  2
*D16
 70
1
 10
0
 20
0
 30
0
  0
LINE
  8
1
 62
2
 10
83.60985053621164
 20
63.27392691600648
 30
0
 11
64.03503116376557
 21
63.27392691600648
 31
0
  0
LINE
  8
1
 62
2
 10
103.047583954786
 20
37.37402183603761
 30
0
 11
83.60985053621164
 21
63.27392691600648
 31
0
  0
SOLID
  8
1
 62
2
 10
103.047583954786
 20
37.37402183603761
 30
0
 11
100.7940532108311
 21
39.68370908457369
 31
0
 12
101.4594952638993
 22
40.1831196111031
 32
0
 13
101.4594952638993
 23
40.1831196111031
 33
0
  0
TEXT
  8
1
 62
2
 10
67.87503116376557
 20
64.34429907337021
 30
0
 40
3.2
  1
0.5
 41
0.9
  0
TEXT
  8
1
 62
2
 10
64.03503116376557
 20
64.34429907337021
 30
0
 40
3.2
  1
R
 41
0.9
  0
TEXT
  8
1
 62
2
 10
75.47503116376556
 20
64.34429907337021
 30
0
 40
3.2
  1
ê╚ë║
 41
0.9
  0
ENDBLK
  8
0
  0
BLOCK
  8
1
  2
*D17
 70
1
 10
0
 20
0
 30
0
  0
LINE
  8
1
 62
2
 10
-95.48137899153657
 20
59.3002239341732
 30
0
 11
-123.8603585822785
 21
59.3002239341732
 31
0
  0
LINE
  8
1
 62
2
 10
-81.69315583846544
 20
45.51139113863972
 30
0
 11
-95.48137899153657
 21
59.3002239341732
 31
0
  0
SOLID
  8
1
 62
2
 10
-81.69315583846544
 20
45.51139113863972
 30
0
 11
-84.25001043934728
 21
47.48003294200301
 31
0
 12
-83.66168459178678
 22
48.06833277804942
 32
0
 13
-83.66168459178678
 23
48.06833277804942
 33
0
  0
TEXT
  8
1
 62
2
 10
-114.3732997587491
 20
61.82635523436487
 30
0
 40
3.2
  1
3.5
 41
0.9
  0
TEXT
  8
1
 62
2
 10
-106.7732997587491
 20
62.46635523436487
 30
0
 40
1.92
  1
%%p0.1
 41
0.9
  0
TEXT
  8
1
 62
2
 10
-123.8603585822785
 20
61.82635523436487
 30
0
 40
3.2
  1
4-âË
 41
0.9
  0
TEXT
  8
1
 62
2
 10
-100.8052997587491
 20
61.82635523436487
 30
0
 40
3.2
  1
îè
 41
0.9
  0
ENDBLK
  8
0
  0
BLOCK
  8
1
  2
*D18
 70
1
 10
0
 20
0
 30
0
  0
LINE
  8
1
 62
2
 10
-44.68183417276483
 20
-4.511391985348399
 30
0
 11
-40.77916427901633
 21
-11.27101452649031
 31
0
  0
LINE
  8
1
 62
2
 10
-62.45574632755051
 20
-0.06238355744910962
 30
0
 11
-62.45574632755051
 21
-17.07923718106196
 31
0
  0
LINE
  8
1
 62
2
 10
-40.77916427901633
 20
-11.27101452649031
 30
0
 11
-40.27916427901634
 21
-12.13703993027475
 31
0
  0
LINE
  8
1
 62
2
 10
-62.45574632755051
 20
-17.07923718106196
 30
0
 11
-62.45574632755051
 21
-18.07923718106196
 31
0
  0
ARC
  8
1
 62
2
 10
-62.45574632755051
 20
26.27392691600682
 30
0
 40
43.35316409706877
 50
270
 51
299.9999999999997
  0
SOLID
  8
1
 62
2
 10
-62.45574632755051
 20
-17.07923718106196
 30
0
 11
-59.27327487578571
 21
-16.54544746712771
 31
0
 12
-59.24257589795775
 22
-17.37688091170419
 32
0
 13
-59.24257589795775
 23
-17.37688091170419
 33
0
  0
SOLID
  8
1
 62
2
 10
-40.77916427901633
 20
-11.27101452649031
 30
0
 11
-43.41302963241152
 21
-13.13536677330002
 31
0
 12
-43.80216026003053
 22
-12.3999747998268
 32
0
 13
-43.80216026003053
 23
-12.3999747998268
 33
0
  0
TEXT
  8
1
 62
2
 10
-56.27726902429711
 20
-14.91481182472522
 30
0
 40
3.2
  1
(30%%d)
 50
15.37051518952678
 41
0.9
  0
ENDBLK
  8
0
  0
ENDSEC
  0
SECTION
  2
ENTITIES
  0
LINE
  8
1
 62
2
 10
130.3974574364391
 20
-58.276900219206
 30
0
 11
130.3974574364391
 21
-53.276900219206
 31
0
  0
LINE
  8
1
 62
2
 10
130.597457436439
 20
-53.276900219206
 30
0
 11
130.597457436439
 21
-58.276900219206
 31
0
  0
LINE
  8
1
 62
2
 10
130.797457436439
 20
-58.276900219206
 30
0
 11
130.797457436439
 21
-53.276900219206
 31
0
  0
LINE
  8
1
 62
2
 10
128.2310519635021
 20
-58.276900219206
 30
0
 11
128.2310519635021
 21
-53.276900219206
 31
0
  0
LINE
  8
1
 62
2
 10
128.4310519635021
 20
-53.276900219206
 30
0
 11
128.4310519635021
 21
-58.276900219206
 31
0
  0
LINE
  8
1
 62
2
 10
128.6310519635021
 20
-58.276900219206
 30
0
 11
128.6310519635021
 21
-53.276900219206
 31
0
  0
LINE
  8
1
 62
3
 10
131.347457436439
 20
-53.276900219206
 30
0
 11
129.847457436439
 21
-53.276900219206
 31
0
  0
LINE
  8
1
 62
3
 10
129.1815091217262
 20
-53.276900219206
 30
0
 11
127.680594805278
 21
-53.276900219206
 31
0
  0
LINE
  8
1
 62
2
 10
135.2974574364389
 20
-53.276900219206
 30
0
 11
135.2974574364389
 21
-58.276900219206
 31
0
  0
LINE
  8
1
 62
2
 10
135.0974574364389
 20
-58.276900219206
 30
0
 11
135.0974574364389
 21
-53.276900219206
 31
0
  0
LINE
  8
1
 62
2
 10
134.8974574364389
 20
-53.276900219206
 30
0
 11
134.8974574364389
 21
-58.276900219206
 31
0
  0
LINE
  8
1
 62
2
 10
137.4638629093759
 20
-53.276900219206
 30
0
 11
137.4638629093759
 21
-58.276900219206
 31
0
  0
LINE
  8
1
 62
2
 10
137.2638629093759
 20
-58.276900219206
 30
0
 11
137.2638629093759
 21
-53.276900219206
 31
0
  0
LINE
  8
1
 62
2
 10
137.0638629093759
 20
-53.276900219206
 30
0
 11
137.0638629093759
 21
-58.276900219206
 31
0
  0
LINE
  8
1
 62
3
 10
136.5134057511517
 20
-53.276900219206
 30
0
 11
135.8056679118145
 21
-33.00994019404302
 31
0
  0
LINE
  8
1
 62
3
 10
135.8474574364389
 20
-53.276900219206
 30
0
 11
135.8474574364389
 21
-24.8836240855873
 31
0
  0
LINE
  8
1
 62
3
 10
134.3474574364389
 20
-53.276900219206
 30
0
 11
134.3474574364389
 21
-24.8836240855873
 31
0
  0
LINE
  8
1
 62
3
 10
135.8474574364389
 20
-53.276900219206
 30
0
 11
134.3474574364389
 21
-53.276900219206
 31
0
  0
LINE
  8
1
 62
3
 10
138.0143200676
 20
-53.276900219206
 30
0
 11
136.5134057511517
 21
-53.276900219206
 31
0
  0
LINE
  8
1
 62
3
 10
138.0143200676
 20
-53.276900219206
 30
0
 11
137.0228050166223
 21
-24.8836240855873
 31
0
  0
LINE
  8
1
 62
3
 10
136.9704238623847
 20
-23.3836240855873
 30
0
 11
135.847457436439
 21
8.773926916006495
 31
0
  0
LINE
  8
1
 62
3
 10
129.8892469610634
 20
-33.00994019404302
 30
0
 11
129.1815091217262
 21
-53.276900219206
 31
0
  0
LINE
  8
1
 62
3
 10
128.6721098562556
 20
-24.8836240855873
 30
0
 11
127.680594805278
 21
-53.276900219206
 31
0
  0
LINE
  8
1
 62
3
 10
129.847457436439
 20
8.773926916006495
 30
0
 11
128.7244910104932
 21
-23.3836240855873
 31
0
  0
LINE
  8
1
 62
3
 10
131.347457436439
 20
-24.8836240855873
 30
0
 11
131.347457436439
 21
-53.276900219206
 31
0
  0
LINE
  8
1
 62
3
 10
129.847457436439
 20
-24.8836240855873
 30
0
 11
129.847457436439
 21
-53.276900219206
 31
0
  0
LINE
  8
1
 62
2
 10
121.887240896331
 20
-24.8836240855873
 30
0
 11
143.8466051168
 21
-24.8836240855873
 31
0
  0
LINE
  8
1
 62
2
 10
121.887240896331
 20
-23.3836240855873
 30
0
 11
143.8466051168
 21
-23.3836240855873
 31
0
  0
LINE
  8
1
 62
3
 10
114.847457436439
 20
38.27392691600649
 30
0
 11
114.847457436439
 21
48.27392691600649
 31
0
  0
LINE
  8
1
 62
3
 10
124.347457436439
 20
38.27392691600649
 30
0
 11
114.847457436439
 21
38.27392691600649
 31
0
  0
LINE
  8
1
 62
3
 10
124.347457436439
 20
48.27392691600649
 30
0
 11
124.347457436439
 21
38.27392691600649
 31
0
  0
LINE
  8
1
 62
3
 10
129.847457436439
 20
8.773926916006495
 30
0
 11
129.847457436439
 21
-23.3836240855873
 31
0
  0
LINE
  8
1
 62
3
 10
112.847457436439
 20
5.273926916006495
 30
0
 11
107.847457436439
 21
5.273926916006495
 31
0
  0
LINE
  8
1
 62
3
 10
112.847457436439
 20
47.27392691600649
 30
0
 11
112.847457436439
 21
31.27392691600649
 31
0
  0
LINE
  8
1
 62
3
 10
107.847457436439
 20
47.27392691600649
 30
0
 11
112.847457436439
 21
47.27392691600649
 31
0
  0
LINE
  8
1
 62
3
 10
143.147457436439
 20
43.77392691600649
 30
0
 11
143.147457436439
 21
8.773926916006495
 31
0
  0
LINE
  8
1
 62
1
 10
113.9070227746677
 20
8.773926916006523
 30
0
 11
104.9837224150729
 21
8.773926916006523
 31
0
  0
LINE
  8
1
 62
1
 10
104.9837224150729
 20
43.77392691600649
 30
0
 11
113.9070227746677
 21
43.77392691600649
 31
0
  0
LINE
  8
1
 62
3
 10
103.247457436439
 20
37.77392691600649
 30
0
 11
103.7474574364392
 21
37.77392691600649
 31
0
  0
LINE
  8
1
 62
3
 10
-45.18183417276482
 20
-3.64536658156396
 30
0
 11
-50.04271553997353
 21
4.773926916006495
 31
0
  0
LINE
  8
1
 62
3
 10
131.347457436439
 20
5.773926916006495
 30
0
 11
131.847457436439
 21
5.773926916006495
 31
0
  0
LINE
  8
1
 62
3
 10
135.847457436439
 20
5.773926916006495
 30
0
 11
137.847457436439
 21
5.773926916006495
 31
0
  0
LINE
  8
1
 62
1
 10
90.55454380932436
 20
36.27392691600649
 30
0
 11
110.236329793783
 21
36.27392691600649
 31
0
  0
LINE
  8
1
 62
3
 10
130.347457436439
 20
9.273926916006495
 30
0
 11
130.847457436439
 21
9.273926916006495
 31
0
  0
LINE
  8
1
 62
3
 10
134.847457436439
 20
9.273926916006495
 30
0
 11
135.347457436439
 21
9.273926916006495
 31
0
  0
LINE
  8
1
 62
3
 10
135.847457436439
 20
8.773926916006495
 30
0
 11
135.847457436439
 21
-23.3836240855873
 31
0
  0
LINE
  8
1
 62
3
 10
131.347457436439
 20
8.773926916006495
 30
0
 11
131.347457436439
 21
5.773926916006495
 31
0
  0
LINE
  8
1
 62
3
 10
131.847457436439
 20
6.273926916006495
 30
0
 11
133.847457436439
 21
6.273926916006495
 31
0
  0
LINE
  8
1
 62
3
 10
137.847457436439
 20
6.273926916006495
 30
0
 11
140.847457436439
 21
6.273926916006495
 31
0
  0
LINE
  8
1
 62
3
 10
127.847457436439
 20
5.773926916006495
 30
0
 11
129.847457436439
 21
5.773926916006495
 31
0
  0
LINE
  8
1
 62
3
 10
133.847457436439
 20
5.773926916006495
 30
0
 11
134.347457436439
 21
5.773926916006495
 31
0
  0
LINE
  8
1
 62
3
 10
133.847457436439
 20
6.273926916006495
 30
0
 11
133.847457436439
 21
5.773926916006495
 31
0
  0
LINE
  8
1
 62
3
 10
131.847457436439
 20
6.273926916006495
 30
0
 11
131.847457436439
 21
5.773926916006495
 31
0
  0
LINE
  8
1
 62
3
 10
127.847457436439
 20
6.273926916006495
 30
0
 11
127.847457436439
 21
5.773926916006495
 31
0
  0
LINE
  8
1
 62
3
 10
127.847457436439
 20
11.77392691600649
 30
0
 11
137.847457436439
 21
11.77392691600649
 31
0
  0
LINE
  8
1
 62
3
 10
131.847457436439
 20
11.77392691600649
 30
0
 11
131.847457436439
 21
6.273926916006495
 31
0
  0
LINE
  8
1
 62
3
 10
133.847457436439
 20
11.77392691600649
 30
0
 11
133.847457436439
 21
6.273926916006495
 31
0
  0
LINE
  8
1
 62
3
 10
132.847457436439
 20
11.77392691600649
 30
0
 11
132.847457436439
 21
6.273926916006495
 31
0
  0
LINE
  8
1
 62
3
 10
137.847457436439
 20
11.77392691600649
 30
0
 11
137.847457436439
 21
5.773926916006495
 31
0
  0
LINE
  8
1
 62
3
 10
93.24745743643901
 20
37.27392691600649
 30
0
 11
93.24745743643901
 21
34.77392691600649
 31
0
  0
LINE
  8
1
 62
3
 10
103.7474574364392
 20
37.77392691600649
 30
0
 11
105.847457436439
 21
37.77392691600649
 31
0
  0
LINE
  8
1
 62
3
 10
93.24745743643901
 20
37.27392691600649
 30
0
 11
102.747457436439
 21
37.27392691600649
 31
0
  0
LINE
  8
1
 62
3
 10
93.24745743643901
 20
34.77392691600649
 30
0
 11
105.847457436439
 21
34.77392691600649
 31
0
  0
LINE
  8
1
 62
3
 10
105.847457436439
 20
41.27392691600649
 30
0
 11
105.847457436439
 21
31.27392691600649
 31
0
  0
LINE
  8
1
 62
3
 10
105.847457436439
 20
31.27392691600649
 30
0
 11
107.847457436439
 21
31.27392691600649
 31
0
  0
LINE
  8
1
 62
3
 10
105.847457436439
 20
41.27392691600649
 30
0
 11
107.847457436439
 21
41.27392691600649
 31
0
  0
LINE
  8
1
 62
3
 10
112.847457436439
 20
21.27392691600649
 30
0
 11
112.847457436439
 21
5.273926916006495
 31
0
  0
LINE
  8
1
 62
1
 10
101.717144392634
 20
26.27392691600649
 30
0
 11
148.4607813516488
 21
26.27392691600649
 31
0
  0
LINE
  8
1
 62
3
 10
142.847457436439
 20
44.27392691600649
 30
0
 11
142.847457436439
 21
8.273926916006495
 31
0
  0
LINE
  8
1
 62
3
 10
127.847457436439
 20
46.27392691600649
 30
0
 11
127.847457436439
 21
6.273926916006495
 31
0
  0
LINE
  8
1
 62
3
 10
127.847457436439
 20
6.273926916006495
 30
0
 11
125.347457436439
 21
4.273926916006495
 31
0
  0
LINE
  8
1
 62
3
 10
125.347457436439
 20
48.27392691600649
 30
0
 11
127.847457436439
 21
46.27392691600649
 31
0
  0
LINE
  8
1
 62
3
 10
127.847457436439
 20
46.27392691600649
 30
0
 11
140.847457436439
 21
46.27392691600649
 31
0
  0
LINE
  8
1
 62
3
 10
125.347457436439
 20
48.27392691600649
 30
0
 11
125.347457436439
 21
4.273926916006495
 31
0
  0
LINE
  8
1
 62
3
 10
107.847457436439
 20
48.27392691600649
 30
0
 11
107.847457436439
 21
4.273926916006495
 31
0
  0
LINE
  8
1
 62
3
 10
107.847457436439
 20
4.273926916006495
 30
0
 11
125.347457436439
 21
4.273926916006495
 31
0
  0
LINE
  8
1
 62
3
 10
107.847457436439
 20
48.27392691600649
 30
0
 11
125.347457436439
 21
48.27392691600649
 31
0
  0
LINE
  8
1
 62
3
 10
-48.31066473240458
 20
4.773926916006495
 30
0
 11
-43.91141175013969
 21
-2.845802764625265
 31
0
  0
LINE
  8
1
 62
3
 10
-51.77476634754248
 20
4.773926916006495
 30
0
 11
-46.50948796149313
 21
-4.345802764625335
 31
0
  0
LINE
  8
1
 62
1
 10
-82.20574632755051
 20
8.273926916006495
 30
0
 11
-82.95574632755051
 21
8.273926916006495
 31
0
  0
LINE
  8
1
 62
1
 10
-82.20574632755051
 20
44.27392691600649
 30
0
 11
-77.95574632755051
 21
44.27392691600649
 31
0
  0
LINE
  8
1
 62
1
 10
-57.45574632755051
 20
36.27392691600649
 30
0
 11
-54.86944176668362
 21
36.27392691600649
 31
0
  0
LINE
  8
1
 62
1
 10
-70.24424031770946
 20
36.27392691600649
 30
0
 11
-57.45574632755051
 21
36.27392691600649
 31
0
  0
LINE
  8
1
 62
1
 10
-80.45574632755051
 20
46.02392691600649
 30
0
 11
-80.45574632755051
 21
46.77392691600649
 31
0
  0
LINE
  8
1
 62
1
 10
-44.45574632755051
 20
46.02392691600649
 30
0
 11
-44.45574632755051
 21
41.77392691600649
 31
0
  0
LINE
  8
1
 62
1
 10
-57.45066377488752
 20
25.27392691600649
 30
0
 11
-51.79131322367357
 21
25.27392691600649
 31
0
  0
LINE
  8
1
 62
1
 10
-54.45574632755051
 20
27.987666681029
 30
0
 11
-54.45574632755051
 21
22.27392691600649
 31
0
  0
LINE
  8
1
 62
1
 10
-56.45574632755051
 20
19.00457056799139
 30
0
 11
-56.45574632755051
 21
12.9858961722562
 31
0
  0
LINE
  8
1
 62
1
 10
-59.24728299749563
 20
16.27392691600649
 30
0
 11
-53.76759436854263
 21
16.27392691600649
 31
0
  0
LINE
  8
1
 62
1
 10
-69.48801256635738
 20
15.27392691600649
 30
0
 11
-63.2896762483615
 21
15.27392691600649
 31
0
  0
LINE
  8
1
 62
1
 10
-66.45574632755051
 20
18.28592287894839
 30
0
 11
-66.45574632755051
 21
12.1774175220828
 31
0
  0
LINE
  8
1
 62
1
 10
-73.45574632755051
 20
25.27392691600649
 30
0
 11
-73.45574632755051
 21
19.3638944125129
 31
0
  0
LINE
  8
1
 62
1
 10
-76.58465849565755
 20
22.27392691600649
 30
0
 11
-70.29649121653142
 21
22.27392691600649
 31
0
  0
LINE
  8
1
 62
1
 10
-72.45574632755051
 20
36.69582205356519
 30
0
 11
-72.45574632755051
 21
29.88089419967098
 31
0
  0
LINE
  8
1
 62
1
 10
-68.94398675883133
 20
33.27392691600649
 30
0
 11
-76.00288577694528
 21
33.27392691600649
 31
0
  0
LINE
  8
1
 62
1
 10
-41.95574632755051
 20
8.273926916006481
 30
0
 11
-46.95574632755051
 21
8.273926916006495
 31
0
  0
LINE
  8
1
 62
1
 10
-80.45574632755051
 20
5.773926916006495
 30
0
 11
-80.45574632755051
 21
10.77392691600649
 31
0
  0
LINE
  8
1
 62
1
 10
-82.95574632755051
 20
44.27392691600649
 30
0
 11
-82.20574632755051
 21
44.27392691600649
 31
0
  0
LINE
  8
1
 62
1
 10
-44.45574632755051
 20
10.77392691600649
 30
0
 11
-44.45574632755051
 21
5.773926916006495
 31
0
  0
LINE
  8
1
 62
1
 10
-77.95574632755051
 20
8.273926916006495
 30
0
 11
-82.20574632755051
 21
8.273926916006495
 31
0
  0
LINE
  8
1
 62
1
 10
-80.45574632755051
 20
41.77392691600649
 30
0
 11
-80.45574632755051
 21
46.02392691600649
 31
0
  0
LINE
  8
1
 62
1
 10
-44.45574632755051
 20
46.77392691600649
 30
0
 11
-44.45574632755051
 21
46.02392691600649
 31
0
  0
LINE
  8
1
 62
1
 10
-46.95574632755051
 20
44.27392691600649
 30
0
 11
-41.95574632755051
 21
44.27392691600649
 31
0
  0
LINE
  8
1
 62
1
 10
-62.45574632755051
 20
54.434718282913
 30
0
 11
-62.45574632755051
 21
0.9376164425508833
 31
0
  0
LINE
  8
1
 62
1
 10
-90.44243697503248
 20
26.27392691600649
 30
0
 11
-35.68776071603952
 21
26.27392691600649
 31
0
  0
LINE
  8
1
 62
3
 10
-57.79205680100608
 20
47.77392691600649
 30
0
 11
-44.45574632755051
 21
47.77392691600649
 31
0
  0
LINE
  8
1
 62
3
 10
-83.95574632755051
 20
21.61023738946208
 30
0
 11
-83.95574632755051
 21
8.273926916006495
 31
0
  0
LINE
  8
1
 62
3
 10
-57.79205680100608
 20
4.773926916006495
 30
0
 11
-44.45574632755051
 21
4.773926916006495
 31
0
  0
LINE
  8
1
 62
3
 10
-40.95574632755051
 20
21.61023738946208
 30
0
 11
-40.95574632755051
 21
8.273926916006495
 31
0
  0
LINE
  8
1
 62
3
 10
-83.95574632755051
 20
44.27392691600649
 30
0
 11
-83.95574632755051
 21
30.93761644255091
 31
0
  0
LINE
  8
1
 62
3
 10
-40.95574632755051
 20
44.27392691600649
 30
0
 11
-40.95574632755051
 21
30.93761644255091
 31
0
  0
LINE
  8
1
 62
3
 10
-80.45574632755051
 20
4.773926916006495
 30
0
 11
-67.11943585409495
 21
4.773926916006495
 31
0
  0
LINE
  8
1
 62
3
 10
-80.45574632755051
 20
47.77392691600649
 30
0
 11
-67.11943585409495
 21
47.77392691600649
 31
0
  0
LINE
  8
1
 62
2
 10
152.5737634101192
 20
66.19314317526064
 30
0
 11
184.0796158292041
 21
66.19314317526064
 31
0
  0
LINE
  8
1
 62
2
 10
-18.14009485374851
 20
81.09982272430541
 30
0
 11
52.60353263163938
 21
81.09982272430541
 31
0
  0
LINE
  8
1
 62
3
 10
131.347457436439
 20
-23.3836240855873
 30
0
 11
131.347457436439
 21
5.773926916006495
 31
0
  0
LINE
  8
1
 62
3
 10
134.347457436439
 20
-23.3836240855873
 30
0
 11
134.347457436439
 21
8.773926916006495
 31
0
  0
LINE
  8
1
 62
3
 10
-63.57378031630041
 20
37.27392691600649
 30
0
 11
-61.3377123388006
 21
37.27392691600649
 31
0
  0
ARC
  8
1
 62
3
 10
-62.45574632755051
 20
26.27392691600649
 30
0
 40
22
 50
347.7612442320579
 51
12.23875576794213
  0
ARC
  8
1
 62
3
 10
-62.45574632755051
 20
26.27392691600649
 30
0
 40
22
 50
77.76124423205786
 51
102.2387557679422
  0
ARC
  8
1
 62
3
 10
-62.45574632755051
 20
26.27392691600649
 30
0
 40
22.00000000000001
 50
180
 51
192.2387557679421
  0
ARC
  8
1
 62
3
 10
-62.45574632755051
 20
26.27392691600649
 30
0
 40
22.00000000000001
 50
167.7612442320579
 51
180
  0
ARC
  8
1
 62
3
 10
-62.45574632755051
 20
26.27392691600649
 30
0
 40
22
 50
257.7612442320578
 51
282.2387557679422
  0
CIRCLE
  8
1
 62
3
 10
-62.45574632755051
 20
26.27392691600649
 30
0
 40
17.50000000000001
  0
CIRCLE
  8
1
 62
2
 10
-72.45574632755051
 20
33.27392691600649
 30
0
 40
2.75
  0
CIRCLE
  8
1
 62
3
 10
-72.45574632755051
 20
33.27392691600649
 30
0
 40
2
  0
CIRCLE
  8
1
 62
2
 10
-54.45574632755051
 20
25.27392691600649
 30
0
 40
2
  0
CIRCLE
  8
1
 62
2
 10
-56.45574632755051
 20
16.27392691600649
 30
0
 40
2
  0
CIRCLE
  8
1
 62
2
 10
-66.45574632755051
 20
15.27392691600649
 30
0
 40
2
  0
CIRCLE
  8
1
 62
2
 10
-73.45574632755051
 20
22.27392691600649
 30
0
 40
2
  0
CIRCLE
  8
1
 62
3
 10
-62.45574632755051
 20
36.27392691600649
 30
0
 40
1.5
  0
CIRCLE
  8
1
 62
3
 10
-62.45574632755051
 20
36.27392691600649
 30
0
 40
5.000000000000007
  0
CIRCLE
  8
1
 62
3
 10
-54.45574632755051
 20
25.27392691600649
 30
0
 40
1.5
  0
CIRCLE
  8
1
 62
3
 10
-56.45574632755051
 20
16.27392691600649
 30
0
 40
1.5
  0
CIRCLE
  8
1
 62
3
 10
-66.45574632755051
 20
15.27392691600649
 30
0
 40
1.5
  0
CIRCLE
  8
1
 62
3
 10
-73.45574632755051
 20
22.27392691600649
 30
0
 40
1.5
  0
CIRCLE
  8
1
 62
3
 10
-44.45574632755051
 20
8.273926916006495
 30
0
 40
1.749999999999995
  0
CIRCLE
  8
1
 62
3
 10
-80.45574632755051
 20
8.273926916006495
 30
0
 40
1.75
  0
CIRCLE
  8
1
 62
3
 10
-80.45574632755051
 20
44.27392691600649
 30
0
 40
1.75
  0
CIRCLE
  8
1
 62
3
 10
-44.45574632755051
 20
44.27392691600649
 30
0
 40
1.75
  0
CIRCLE
  8
1
 62
3
 10
-62.45574632755051
 20
26.27392691600649
 30
0
 40
21.00000000000001
  0
POLYLINE
  8
1
 62
2
 66
1
  0
VERTEX
  8
1
 10
-46.50948796149313
 20
-4.345802764625335
 30
0
 42
-0.004314614455703369
  0
VERTEX
  8
1
 10
-46.43876247903955
 20
-4.206783214863853
 30
0
 42
-0.01354317775061998
  0
VERTEX
  8
1
 10
-46.36486213829411
 20
-4.073396309621069
 30
0
 42
-0.02458213759117868
  0
VERTEX
  8
1
 10
-46.28461208096502
 20
-3.951274693415683
 30
0
 42
-0.03841395127805883
  0
VERTEX
  8
1
 10
-46.19483744876039
 20
-3.846051010766394
 30
0
 42
-0.05448871834811504
  0
VERTEX
  8
1
 10
-46.0923633833884
 20
-3.7633579061919
 30
0
 42
-0.06902465970579577
  0
VERTEX
  8
1
 10
-45.93945809187578
 20
-3.6953470631632
 30
0
 42
-0.04397799534106919
  0
VERTEX
  8
1
 10
-45.76621594679776
 20
-3.661568329696078
 30
0
 42
-0.02243317095037273
  0
VERTEX
  8
1
 10
-45.57837352641371
 20
-3.649995885280512
 30
0
 42
-0.00535064133739246
  0
VERTEX
  8
1
 10
-45.38166740898295
 20
-3.64860390940648
 30
0
 42
0.00982320359489732
  0
VERTEX
  8
1
 10
-45.18183417276482
 20
-3.64536658156396
 30
0
 42
0.02252192046389585
  0
VERTEX
  8
1
 10
-44.97331048133874
 20
-3.628464159696426
 30
0
 42
0.02463105637130721
  0
VERTEX
  8
1
 10
-44.77230421463386
 20
-3.592889462923849
 30
0
 42
0.03540620515732327
  0
VERTEX
  8
1
 10
-44.58342036213958
 20
-3.535451925050177
 30
0
 42
0.04044817290090135
  0
VERTEX
  8
1
 10
-44.41126391334529
 20
-3.452960979879359
 30
0
 42
0.08530352319563449
  0
VERTEX
  8
1
 10
-44.17845185199418
 20
-3.25770571505904
 30
0
 42
0.01928104070466321
  0
VERTEX
  8
1
 10
-44.10458543573201
 20
-3.163342493461596
 30
0
 42
0.01898832574702214
  0
VERTEX
  8
1
 10
-44.03681021158288
 20
-3.061597115283295
 30
0
 42
0.005604049863055976
  0
VERTEX
  8
1
 10
-43.97309578217578
 20
-2.954930299384423
 30
0
 42
0.006383154246090888
  0
VERTEX
  8
1
 10
-43.91141175013969
 20
-2.845802764625265
 30
0
  0
SEQEND
  8
1
  0
ARC
  8
1
 62
3
 10
102.747457436439
 20
37.77392691600649
 30
0
 40
0.5
 50
270
 51
0
  0
ARC
  8
1
 62
3
 10
130.847457436439
 20
8.773926916006495
 30
0
 40
0.5
 50
0
 51
90
  0
ARC
  8
1
 62
3
 10
130.347457436439
 20
8.773926916006495
 30
0
 40
0.5
 50
90
 51
180
  0
ARC
  8
1
 62
3
 10
134.847457436439
 20
8.773926916006495
 30
0
 40
0.5
 50
90
 51
180
  0
ARC
  8
1
 62
3
 10
135.347457436439
 20
8.773926916006495
 30
0
 40
0.5
 50
0
 51
90
  0
ARC
  8
1
 62
3
 10
140.847457436439
 20
8.273926916006495
 30
0
 40
2
 50
270
 51
0
  0
ARC
  8
1
 62
3
 10
140.847457436439
 20
44.27392691600649
 30
0
 40
2
 50
0
 51
90
  0
ARC
  8
1
 62
3
 10
-80.45574632755051
 20
44.27392691600649
 30
0
 40
3.5
 50
90
 51
180
  0
ARC
  8
1
 62
3
 10
-80.45574632755051
 20
8.273926916006495
 30
0
 40
3.5
 50
180
 51
270
  0
ARC
  8
1
 62
3
 10
-44.45574632755051
 20
8.273926916006495
 30
0
 40
3.5
 50
270
 51
0
  0
ARC
  8
1
 62
3
 10
-44.45574632755051
 20
44.27392691600649
 30
0
 40
3.5
 50
0
 51
90
  0
LINE
  8
1
 62
2
 10
152.5737634101192
 20
66.19314317526064
 30
0
 11
120.941409526832
 21
48.27392691600649
 31
0
  0
SOLID
  8
1
 62
2
 10
123.5180493404938
 20
50.217740395508
 30
0
 11
123.9333484165146
 21
49.48462310120073
 31
0
 12
120.941409526832
 22
48.27392691600649
 32
0
 13
120.941409526832
 23
48.27392691600649
 33
0
  0
LINE
  8
1
 62
2
 10
152.5737634101192
 20
66.19314317526064
 30
0
 11
143.147457436439
 21
32.68536613114868
 31
0
  0
SOLID
  8
1
 62
2
 10
143.6084882230068
 20
35.87988239911098
 30
0
 11
144.4195806299376
 21
35.65170834893171
 31
0
 12
143.147457436439
 22
32.68536613114868
 32
0
 13
143.147457436439
 23
32.68536613114868
 33
0
  0
TEXT
  8
1
 62
2
 10
150.076892773589
 20
-87.47069960908421
 30
0
 40
4
  1
KP4P15G
 41
0.9
  0
TEXT
  8
1
 62
2
 10
154.212094197365
 20
66.66525247798744
 30
0
 40
4
  1
╚░Ð╠┌░─
 41
0.9
  0
TEXT
  8
1
 62
2
 10
-17.63043406816746
 20
82.35195230863451
 30
0
 40
7
  1
û%%dïLô³î÷ìÀüFü}éOüDéT
 41
0.9
  0
DIMENSION
  8
1
  6
CONTINUOUS
 62
2
  2
*D0
  3
DMST_1
 10
167.622950780319
 20
-58.276900219206
 30
0
 11
164.356821433956
 21
-65.0318318097826
 31
0
 12
0
 22
0
 32
0
 70
0
  1
(<>
 13
138.0143200676
 23
-53.276900219206
 33
0
 14
137.2638629093759
 24
-58.276900219206
 34
0
 50
90
 53
0
  0
DIMENSION
  8
1
  6
CONTINUOUS
 62
2
  2
*D1
  3
DMST_2
 10
167.622950780319
 20
-53.276900219206
 30
0
 11
163.222950780319
 21
-26.6480095643351
 31
0
 12
0
 22
0
 32
0
 70
0
  1
300
 13
135.347457436439
 23
9.273926916006495
 33
0
 14
138.0143200676
 24
-53.276900219206
 34
0
 50
90
 53
0
  0
DIMENSION
  8
1
  6
CONTINUOUS
 62
2
  2
*D2
  3
DMST_3
 10
112.8474574364391
 20
63.27392691600649
 30
0
 11
110.5094766760475
 21
66.79218422788679
 31
0
 12
0
 22
0
 32
0
 70
0
 13
107.847457436439
 23
48.27392691600649
 33
0
 14
112.847457436439
 24
47.27392691600649
 34
0
 53
0
  0
DIMENSION
  8
1
  6
CONTINUOUS
 62
2
  2
*D3
  3
DMST_4
 10
103.247457436439
 20
52.2739269160065
 30
0
 11
98.4972500451711
 21
55.5525215784029
 31
0
 12
0
 22
0
 32
0
 70
0
 13
93.24745743643901
 23
37.27392691600649
 33
0
 14
103.247457436439
 24
37.77392691600649
 34
0
 53
0
  0
DIMENSION
  8
1
  6
CONTINUOUS
 62
2
  2
*D4
  3
DMST_4
 10
158.147457436439
 20
48.27392691600649
 30
0
 11
154.547457436439
 21
26.27392691600649
 31
0
 12
0
 22
0
 32
0
 70
0
  1
âË<>
 13
125.347457436439
 23
4.273926916006495
 33
0
 14
125.347457436439
 24
48.27392691600649
 34
0
 50
90
 53
0
  0
DIMENSION
  8
1
  6
CONTINUOUS
 62
2
  2
*D5
  3
DMST_5
 10
63.8512595231438
 20
31.27392691600649
 30
0
 11
59.4512595231438
 21
35.9056251954056
 31
0
 12
0
 22
0
 32
0
 70
0
  1
âË<>
 13
105.847457436439
 23
41.27392691600649
 33
0
 14
105.847457436439
 24
31.27392691600649
 34
0
 50
90
 53
0
  0
DIMENSION
  8
1
  6
CONTINUOUS
 62
2
  2
*D6
  3
DMST_6
 10
74.2933859872542
 20
37.77392691600649
 30
0
 11
69.86671932058754
 21
50.8229487155633
 31
0
 12
0
 22
0
 32
0
 70
0
  1
âË<>
 13
93.24745743643901
 23
34.77392691600649
 33
0
 14
103.247457436439
 24
37.77392691600649
 34
0
 50
90
 53
0
  0
DIMENSION
  8
1
  6
CONTINUOUS
 62
2
  2
*D7
  3
DMST_7
 10
84.7355124513646
 20
37.27392691600648
 30
0
 11
81.13551245136461
 21
51.0360533372798
 31
0
 12
0
 22
0
 32
0
 70
0
 13
93.24745743643901
 23
34.77392691600649
 33
0
 14
93.24745743643901
 24
37.27392691600649
 34
0
 50
90
 53
0
  0
DIMENSION
  8
1
  6
CONTINUOUS
 62
2
  2
*D8
  3
DMST_4
 10
93.24745743643901
 20
73.2739269160065
 30
0
 11
100.46237255109
 21
76.84134872586171
 31
0
 12
0
 22
0
 32
0
 70
0
 13
107.847457436439
 23
48.27392691600649
 33
0
 14
93.24745743643901
 24
37.27392691600649
 34
0
 53
0
  0
DIMENSION
  8
1
  6
CONTINUOUS
 62
2
  2
*D10
  3
DMST_4
 10
142.847457436439
 20
73.2739269160065
 30
0
 11
125.99953649286
 21
76.852738541899
 31
0
 12
0
 22
0
 32
0
 70
0
  1
35ê╚ë║
 13
107.847457436439
 23
48.27392691600649
 33
0
 14
142.847457436439
 24
44.27392691600649
 34
0
 53
0
  0
DIMENSION
  8
1
  6
CONTINUOUS
 62
2
  2
*D11
  3
DMST_4
 10
-108.9557463275504
 20
4.773926916006502
 30
0
 11
-112.5557463275504
 21
25.9376164425509
 31
0
 12
0
 22
0
 32
0
 70
0
 13
-80.45574632755051
 23
47.77392691600649
 33
0
 14
-80.45574632755051
 24
4.773926916006495
 34
0
 50
90
 53
0
  0
DIMENSION
  8
1
  6
CONTINUOUS
 62
2
  2
*D12
  3
DMST_8
 10
-98.9557463275504
 20
8.273926916006502
 30
0
 11
-102.5557463275504
 21
25.9376164425509
 31
0
 12
0
 22
0
 32
0
 70
0
 13
-82.20574632755051
 23
44.27392691600649
 33
0
 14
-82.20574632755051
 24
8.273926916006495
 34
0
 50
90
 53
0
  0
DIMENSION
  8
1
  6
CONTINUOUS
 62
2
  2
*D13
  3
DMST_8
 10
-26.27994032882557
 20
36.2739269160065
 30
0
 11
-29.87994032882557
 21
31.4019441334987
 31
0
 12
0
 22
0
 32
0
 70
0
 13
-35.68776071603952
 23
26.27392691600649
 33
0
 14
-54.86944176668362
 24
36.27392691600649
 34
0
 50
90
 53
0
  0
DIMENSION
  8
1
  6
CONTINUOUS
 62
2
  2
*D14
  3
DMST_8
 10
-80.45574632755057
 20
62.85983649633263
 30
0
 11
-62.62599354644556
 21
66.45983649633263
 31
0
 12
0
 22
0
 32
0
 70
1
 13
-44.45574632755051
 23
46.02392691600649
 33
0
 14
-80.45574632755051
 24
46.02392691600649
 34
0
 53
0
  0
DIMENSION
  8
1
  6
CONTINUOUS
 62
2
  2
*D15
  3
DMST_4
 10
-83.95574632755057
 20
72.75951405078564
 30
0
 11
-62.62599354644556
 21
76.35951405078563
 31
0
 12
0
 22
0
 32
0
 70
0
 13
-40.95574632755051
 23
44.27392691600649
 33
0
 14
-83.95574632755051
 24
44.27392691600649
 34
0
 53
0
  0
DIMENSION
  8
1
  6
CONTINUOUS
 62
2
  2
*D16
  3
DMST_9
 10
102.747457436439
 20
37.77392691600649
 30
0
 11
73.0962076343538
 21
65.9442990733702
 31
0
 12
0
 22
0
 32
0
 70
4
 15
103.047583954786
 25
37.37402183603761
 35
0
 40
0
 53
0
  0
DIMENSION
  8
1
  6
CONTINUOUS
 62
2
  2
*D18
  3
DMST_4
 10
-62.45574632755051
 20
54.434718282913
 30
0
 11
-51.91877455689774
 21
-12.05734336861777
 31
0
 12
0
 22
0
 32
0
 70
2
  1
(300)
 13
-45.18183417276482
 23
-3.64536658156396
 33
0
 14
-50.04271553997353
 24
4.773926916006495
 34
0
 15
-62.45574632755051
 25
0.9376164425508833
 35
0
 16
-51.23512179377441
 26
-15.60201393669994
 36
0
 53
0
  0
INSERT
  8
1
  2
*D9
 10
0
 20
0
 30
0
  0
INSERT
  8
1
  2
*D17
 10
0
 20
0
 30
0
  0
ENDSEC
  0
EOF
