  0
SECTION
  2
HEADER
  9
$ACADVER
  1
AC1015
  9
$ACADMAINTVER
 70
     6
  9
$DWGCODEPAGE
  3
ANSI_1252
  9
$INSBASE
 10
0.0
 20
0.0
 30
0.0
  9
$EXTMIN
 10
3002.401324030247
 20
-1814.76715699059
 30
0.0
  9
$EXTMAX
 10
3624.56721482666
 20
-1579.52031955029
 30
0.0
  9
$LIMMIN
 10
0.0
 20
0.0
  9
$LIMMAX
 10
12.0
 20
9.0
  9
$ORTHOMODE
 70
     0
  9
$REGENMODE
 70
     1
  9
$FILLMODE
 70
     1
  9
$QTEXTMODE
 70
     0
  9
$MIRRTEXT
 70
     1
  9
$LTSCALE
 40
1.0
  9
$ATTMODE
 70
     1
  9
$TEXTSIZE
 40
0.2
  9
$TRACEWID
 40
0.05
  9
$TEXTSTYLE
  7
Standard
  9
$CLAYER
  8
0
  9
$CELTYPE
  6
ByLayer
  9
$CECOLOR
 62
   256
  9
$CELTSCALE
 40
1.0
  9
$DISPSILH
 70
     0
  9
$DIMSCALE
 40
1.0
  9
$DIMASZ
 40
0.18
  9
$DIMEXO
 40
0.0625
  9
$DIMDLI
 40
0.38
  9
$DIMRND
 40
0.0
  9
$DIMDLE
 40
0.0
  9
$DIMEXE
 40
0.18
  9
$DIMTP
 40
0.0
  9
$DIMTM
 40
0.0
  9
$DIMTXT
 40
0.18
  9
$DIMCEN
 40
0.09
  9
$DIMTSZ
 40
0.0
  9
$DIMTOL
 70
     0
  9
$DIMLIM
 70
     0
  9
$DIMTIH
 70
     1
  9
$DIMTOH
 70
     1
  9
$DIMSE1
 70
     0
  9
$DIMSE2
 70
     0
  9
$DIMTAD
 70
     0
  9
$DIMZIN
 70
     0
  9
$DIMBLK
  1

  9
$DIMASO
 70
     1
  9
$DIMSHO
 70
     1
  9
$DIMPOST
  1

  9
$DIMAPOST
  1

  9
$DIMALT
 70
     0
  9
$DIMALTD
 70
     2
  9
$DIMALTF
 40
25.4
  9
$DIMLFAC
 40
1.0
  9
$DIMTOFL
 70
     0
  9
$DIMTVP
 40
0.0
  9
$DIMTIX
 70
     0
  9
$DIMSOXD
 70
     0
  9
$DIMSAH
 70
     0
  9
$DIMBLK1
  1

  9
$DIMBLK2
  1

  9
$DIMSTYLE
  2
Standard
  9
$DIMCLRD
 70
     0
  9
$DIMCLRE
 70
     0
  9
$DIMCLRT
 70
     0
  9
$DIMTFAC
 40
1.0
  9
$DIMGAP
 40
0.09
  9
$DIMJUST
 70
     0
  9
$DIMSD1
 70
     0
  9
$DIMSD2
 70
     0
  9
$DIMTOLJ
 70
     1
  9
$DIMTZIN
 70
     0
  9
$DIMALTZ
 70
     0
  9
$DIMALTTZ
 70
     0
  9
$DIMUPT
 70
     0
  9
$DIMDEC
 70
     4
  9
$DIMTDEC
 70
     4
  9
$DIMALTU
 70
     2
  9
$DIMALTTD
 70
     2
  9
$DIMTXSTY
  7
Standard
  9
$DIMAUNIT
 70
     0
  9
$DIMADEC
 70
     0
  9
$DIMALTRND
 40
0.0
  9
$DIMAZIN
 70
     0
  9
$DIMDSEP
 70
    46
  9
$DIMATFIT
 70
     3
  9
$DIMFRAC
 70
     0
  9
$DIMLDRBLK
  1

  9
$DIMLUNIT
 70
     2
  9
$DIMLWD
 70
    -2
  9
$DIMLWE
 70
    -2
  9
$DIMTMOVE
 70
     0
  9
$LUNITS
 70
     2
  9
$LUPREC
 70
     4
  9
$SKETCHINC
 40
0.1
  9
$FILLETRAD
 40
0.5
  9
$AUNITS
 70
     0
  9
$AUPREC
 70
     0
  9
$MENU
  1
.
  9
$ELEVATION
 40
0.0
  9
$PELEVATION
 40
0.0
  9
$THICKNESS
 40
0.0
  9
$LIMCHECK
 70
     0
  9
$CHAMFERA
 40
0.5
  9
$CHAMFERB
 40
0.5
  9
$CHAMFERC
 40
1.0
  9
$CHAMFERD
 40
0.0
  9
$SKPOLY
 70
     0
  9
$TDCREATE
 40
2456681.565337384
  9
$TDUCREATE
 40
2456681.190337384
  9
$TDUPDATE
 40
2456681.565340822
  9
$TDUUPDATE
 40
2456681.190340822
  9
$TDINDWG
 40
0.0000000116
  9
$TDUSRTIMER
 40
0.0000000116
  9
$USRTIMER
 70
     1
  9
$ANGBASE
 50
0.0
  9
$ANGDIR
 70
     0
  9
$PDMODE
 70
     0
  9
$PDSIZE
 40
0.0
  9
$PLINEWID
 40
0.0
  9
$SPLFRAME
 70
     0
  9
$SPLINETYPE
 70
     6
  9
$SPLINESEGS
 70
     8
  9
$HANDSEED
  5
30F
  9
$SURFTAB1
 70
     6
  9
$SURFTAB2
 70
     6
  9
$SURFTYPE
 70
     6
  9
$SURFU
 70
     6
  9
$SURFV
 70
     6
  9
$UCSBASE
  2

  9
$UCSNAME
  2

  9
$UCSORG
 10
0.0
 20
0.0
 30
0.0
  9
$UCSXDIR
 10
1.0
 20
0.0
 30
0.0
  9
$UCSYDIR
 10
0.0
 20
1.0
 30
0.0
  9
$UCSORTHOREF
  2

  9
$UCSORTHOVIEW
 70
     0
  9
$UCSORGTOP
 10
0.0
 20
0.0
 30
0.0
  9
$UCSORGBOTTOM
 10
0.0
 20
0.0
 30
0.0
  9
$UCSORGLEFT
 10
0.0
 20
0.0
 30
0.0
  9
$UCSORGRIGHT
 10
0.0
 20
0.0
 30
0.0
  9
$UCSORGFRONT
 10
0.0
 20
0.0
 30
0.0
  9
$UCSORGBACK
 10
0.0
 20
0.0
 30
0.0
  9
$PUCSBASE
  2

  9
$PUCSNAME
  2

  9
$PUCSORG
 10
0.0
 20
0.0
 30
0.0
  9
$PUCSXDIR
 10
1.0
 20
0.0
 30
0.0
  9
$PUCSYDIR
 10
0.0
 20
1.0
 30
0.0
  9
$PUCSORTHOREF
  2

  9
$PUCSORTHOVIEW
 70
     0
  9
$PUCSORGTOP
 10
0.0
 20
0.0
 30
0.0
  9
$PUCSORGBOTTOM
 10
0.0
 20
0.0
 30
0.0
  9
$PUCSORGLEFT
 10
0.0
 20
0.0
 30
0.0
  9
$PUCSORGRIGHT
 10
0.0
 20
0.0
 30
0.0
  9
$PUCSORGFRONT
 10
0.0
 20
0.0
 30
0.0
  9
$PUCSORGBACK
 10
0.0
 20
0.0
 30
0.0
  9
$USERI1
 70
     0
  9
$USERI2
 70
     0
  9
$USERI3
 70
     0
  9
$USERI4
 70
     0
  9
$USERI5
 70
     0
  9
$USERR1
 40
18.1
  9
$USERR2
 40
0.0
  9
$USERR3
 40
0.0
  9
$USERR4
 40
0.0
  9
$USERR5
 40
0.0
  9
$WORLDVIEW
 70
     1
  9
$SHADEDGE
 70
     3
  9
$SHADEDIF
 70
    70
  9
$TILEMODE
 70
     1
  9
$MAXACTVP
 70
    64
  9
$PINSBASE
 10
0.0
 20
0.0
 30
0.0
  9
$PLIMCHECK
 70
     0
  9
$PEXTMIN
 10
1.00000000000000E+20
 20
1.00000000000000E+20
 30
1.00000000000000E+20
  9
$PEXTMAX
 10
-1.00000000000000E+20
 20
-1.00000000000000E+20
 30
-1.00000000000000E+20
  9
$PLIMMIN
 10
0.0
 20
0.0
  9
$PLIMMAX
 10
12.0
 20
9.0
  9
$UNITMODE
 70
     0
  9
$VISRETAIN
 70
     1
  9
$PLINEGEN
 70
     0
  9
$PSLTSCALE
 70
     1
  9
$TREEDEPTH
 70
  3020
  9
$CMLSTYLE
  2
Standard
  9
$CMLJUST
 70
     0
  9
$CMLSCALE
 40
1.0
  9
$PROXYGRAPHICS
 70
     1
  9
$MEASUREMENT
 70
     1
  9
$CELWEIGHT
370
    -1
  9
$ENDCAPS
280
     0
  9
$JOINSTYLE
280
     0
  9
$LWDISPLAY
290
     0
  9
$INSUNITS
 70
     4
  9
$HYPERLINKBASE
  1

  9
$STYLESHEET
  1

  9
$XEDIT
290
     1
  9
$CEPSNTYPE
380
     0
  9
$PSTYLEMODE
290
     1
  9
$FINGERPRINTGUID
  2
{751A45B2-E2E3-403B-B380-A9342FCE1234}
  9
$VERSIONGUID
  2
{FAEB1C32-E019-11D5-929B-00C0DF256EC4}
  9
$EXTNAMES
290
     1
  9
$PSVPSCALE
 40
0.0
  9
$OLESTARTUP
290
     0
  0
ENDSEC
  0
SECTION
  2
CLASSES
  0
CLASS
  1
ACDBDICTIONARYWDFLT
  2
AcDbDictionaryWithDefault
  3
ObjectDBX Classes
 90
        0
280
     0
281
     0
  0
CLASS
  1
VISUALSTYLE
  2
AcDbVisualStyle
  3
ObjectDBX Classes
 90
     4095
280
     0
281
     0
  0
CLASS
  1
MATERIAL
  2
AcDbMaterial
  3
ObjectDBX Classes
 90
     1153
280
     0
281
     0
  0
CLASS
  1
DICTIONARYVAR
  2
AcDbDictionaryVar
  3
ObjectDBX Classes
 90
        0
280
     0
281
     0
  0
CLASS
  1
ACDBPLACEHOLDER
  2
AcDbPlaceHolder
  3
ObjectDBX Classes
 90
        0
280
     0
281
     0
  0
CLASS
  1
LAYOUT
  2
AcDbLayout
  3
ObjectDBX Classes
 90
        0
280
     0
281
     0
  0
ENDSEC
  0
SECTION
  2
TABLES
  0
TABLE
  2
VPORT
  5
8
330
0
100
AcDbSymbolTable
 70
     1
  0
VPORT
  5
29
330
8
100
AcDbSymbolTableRecord
100
AcDbViewportTableRecord
  2
*Active
 70
     0
 10
0.0
 20
0.0
 11
1.0
 21
1.0
 12
3313.484269428453
 22
-1697.14373827044
 13
0.0
 23
0.0
 14
0.5
 24
0.5
 15
0.5
 25
0.5
 16
0.0
 26
0.0
 36
1.0
 17
0.0
 27
0.0
 37
0.0
 40
427.0241657165354
 41
1.60267857142857
 42
50.0
 43
0.0
 44
0.0
 50
0.0
 51
0.0
 71
     0
 72
   100
 73
     1
 74
     3
 75
     0
 76
     0
 77
     0
 78
     0
281
     0
 65
     1
110
0.0
120
0.0
130
0.0
111
1.0
121
0.0
131
0.0
112
0.0
122
1.0
132
0.0
 79
     0
146
0.0
  0
ENDTAB
  0
TABLE
  2
LTYPE
  5
5
330
0
100
AcDbSymbolTable
 70
     8
  0
LTYPE
  5
14
330
5
100
AcDbSymbolTableRecord
100
AcDbLinetypeTableRecord
  2
ByBlock
 70
     0
  3

 72
    65
 73
     0
 40
0.0
  0
LTYPE
  5
15
330
5
100
AcDbSymbolTableRecord
100
AcDbLinetypeTableRecord
  2
ByLayer
 70
     0
  3

 72
    65
 73
     0
 40
0.0
  0
LTYPE
  5
16
330
5
100
AcDbSymbolTableRecord
100
AcDbLinetypeTableRecord
  2
Continuous
 70
     0
  3
Solid line
 72
    65
 73
     0
 40
0.0
  0
LTYPE
  5
3F
330
5
100
AcDbSymbolTableRecord
100
AcDbLinetypeTableRecord
  2
DASHED
 70
     0
  3
Dashed
 72
    65
 73
     2
 40
15.0
 49
7.0
 74
     0
 49
-8.0
 74
     0
  0
LTYPE
  5
40
330
5
100
AcDbSymbolTableRecord
100
AcDbLinetypeTableRecord
  2
DOTTED
 70
     0
  3
Dotted
 72
    65
 73
     2
 40
1.0
 49
0.0
 74
     0
 49
-1.0
 74
     0
  0
LTYPE
  5
41
330
5
100
AcDbSymbolTableRecord
100
AcDbLinetypeTableRecord
  2
DOT_CENTER
 70
     0
  3
Dot_Center
 72
    65
 73
     4
 40
14.0
 49
12.0
 74
     0
 49
-1.0
 74
     0
 49
0.0
 74
     0
 49
-1.0
 74
     0
  0
LTYPE
  5
42
330
5
100
AcDbSymbolTableRecord
100
AcDbLinetypeTableRecord
  2
LONG_DASHED
 70
     0
  3
Long_Dashed
 72
    65
 73
     2
 40
15.0
 49
10.0
 74
     0
 49
-5.0
 74
     0
  0
LTYPE
  5
43
330
5
100
AcDbSymbolTableRecord
100
AcDbLinetypeTableRecord
  2
DASH_CENTER
 70
     0
  3
Dash_Center
 72
    65
 73
     4
 40
14.0
 49
11.0
 74
     0
 49
-1.0
 74
     0
 49
1.0
 74
     0
 49
-1.0
 74
     0
  0
LTYPE
  5
44
330
5
100
AcDbSymbolTableRecord
100
AcDbLinetypeTableRecord
  2
PHANTOM
 70
     0
  3
Phantom
 72
    65
 73
     6
 40
13.0
 49
10.0
 74
     0
 49
-1.0
 74
     0
 49
0.0
 74
     0
 49
-1.0
 74
     0
 49
0.0
 74
     0
 49
-1.0
 74
     0
  0
LTYPE
  5
45
330
5
100
AcDbSymbolTableRecord
100
AcDbLinetypeTableRecord
  2
CENTER_DASH_DASH
 70
     0
  3
Center_Dash_Dash
 72
    65
 73
     6
 40
14.0
 49
9.0
 74
     0
 49
-1.0
 74
     0
 49
1.0
 74
     0
 49
-1.0
 74
     0
 49
1.0
 74
     0
 49
-1.0
 74
     0
  0
ENDTAB
  0
TABLE
  2
LAYER
  5
2
330
0
100
AcDbSymbolTable
 70
     2
  0
LAYER
  5
10
330
2
100
AcDbSymbolTableRecord
100
AcDbLayerTableRecord
  2
0
 70
     0
 62
     7
  6
Continuous
370
    -3
390
F
  0
LAYER
  5
46
330
2
100
AcDbSymbolTableRecord
100
AcDbLayerTableRecord
  2
1
 70
     0
 62
     7
  6
Continuous
370
    -3
390
F
  0
ENDTAB
  0
TABLE
  2
STYLE
  5
3
330
0
100
AcDbSymbolTable
 70
     5
  0
STYLE
  5
11
330
3
100
AcDbSymbolTableRecord
100
AcDbTextStyleTableRecord
  2
Standard
 70
     0
 40
0.0
 41
1.0
 50
0.0
 71
     0
 42
0.2
  3
txt
  4

  0
STYLE
  5
197
330
3
100
AcDbSymbolTableRecord
100
AcDbTextStyleTableRecord
  2
CONVERTER_11
 70
     0
 40
0.0
 41
1.07
 50
0.0
 71
     0
 42
0.2
  3
txt.shx
  4

  0
STYLE
  5
19A
330
3
100
AcDbSymbolTableRecord
100
AcDbTextStyleTableRecord
  2
CONVERTER_12
 70
     0
 40
0.0
 41
0.9
 50
0.0
 71
     0
 42
0.2
  3
txt.shx
  4

  0
STYLE
  5
1A2
330
3
100
AcDbSymbolTableRecord
100
AcDbTextStyleTableRecord
  2
CONVERTER_13
 70
     0
 40
0.0
 41
0.54
 50
0.0
 71
     0
 42
0.2
  3
txt.shx
  4

  0
STYLE
  5
1AC
330
3
100
AcDbSymbolTableRecord
100
AcDbTextStyleTableRecord
  2
CONVERTER_14
 70
     0
 40
0.0
 41
0.9
 50
0.0
 71
     0
 42
0.2
  3
txt.shx
  4

  0
ENDTAB
  0
TABLE
  2
VIEW
  5
6
330
0
100
AcDbSymbolTable
 70
     0
  0
ENDTAB
  0
TABLE
  2
UCS
  5
7
330
0
100
AcDbSymbolTable
 70
     0
  0
ENDTAB
  0
TABLE
  2
APPID
  5
9
330
0
100
AcDbSymbolTable
 70
     1
  0
APPID
  5
12
330
9
100
AcDbSymbolTableRecord
100
AcDbRegAppTableRecord
  2
ACAD
 70
     0
  0
ENDTAB
  0
TABLE
  2
DIMSTYLE
  5
A
330
0
100
AcDbSymbolTable
 70
    25
100
AcDbDimStyleTable
  0
DIMSTYLE
105
27
330
A
100
AcDbSymbolTableRecord
100
AcDbDimStyleTableRecord
  2
Standard
 70
     0
178
     0
340
11
  0
DIMSTYLE
105
1B0
102
{ACAD_REACTORS
330
1B1
102
}
330
A
100
AcDbSymbolTableRecord
100
AcDbDimStyleTableRecord
  2
ME10_DIM_10
 70
     0
 41
6.0
 42
1.0
 44
1.5
 47
1.0
 48
1.0
 71
     1
 73
     0
 74
     0
 77
     1
 78
     8
140
6.0
146
0.66666666666667
147
2.0
172
     1
173
     1
174
     1
175
     1
176
     2
177
     2
178
     2
272
     0
340
1AC
  0
DIMSTYLE
105
1BB
102
{ACAD_REACTORS
330
1BC
102
}
330
A
100
AcDbSymbolTableRecord
100
AcDbDimStyleTableRecord
  2
ME10_DIM_11
 70
     0
 41
6.0
 42
1.0
 44
1.5
 47
0.25
 48
0.25
 71
     1
 73
     0
 74
     0
 77
     1
 78
     8
140
6.0
146
0.66666666666667
147
2.0
172
     1
173
     1
174
     1
175
     1
176
     2
177
     2
178
     2
272
     2
340
1AC
  0
DIMSTYLE
105
1C8
102
{ACAD_REACTORS
330
1C9
102
}
330
A
100
AcDbSymbolTableRecord
100
AcDbDimStyleTableRecord
  2
ME10_DIM_12
 70
     0
  3
\U+03C6<>
 41
6.0
 42
1.0
 44
1.5
 48
0.018
 71
     1
 73
     0
 74
     0
 77
     1
 78
     8
140
6.0
146
0.66666666666667
147
2.0
172
     1
173
     1
174
     1
175
     1
176
     2
177
     2
178
     2
272
     0
340
1AC
  0
DIMSTYLE
105
1D5
102
{ACAD_REACTORS
330
1D6
102
}
330
A
100
AcDbSymbolTableRecord
100
AcDbDimStyleTableRecord
  2
ME10_DIM_13
 70
     0
 41
6.0
 42
1.0
 44
1.5
 47
0.5
 48
0.5
 71
     1
 73
     0
 74
     0
 77
     1
 78
     8
140
6.0
146
0.66666666666667
147
2.0
172
     1
173
     1
174
     1
175
     1
176
     2
177
     2
178
     2
272
     1
340
1AC
  0
DIMSTYLE
105
1E0
102
{ACAD_REACTORS
330
1E1
102
}
330
A
100
AcDbSymbolTableRecord
100
AcDbDimStyleTableRecord
  2
ME10_DIM_14
 70
     0
  3
\U+03C6<>
 41
6.0
 42
1.0
 44
1.5
 47
0.025
 48
0.025
 71
     1
 73
     0
 74
     0
 77
     1
 78
     8
140
6.0
146
0.66666666666667
147
2.0
172
     1
173
     1
174
     1
175
     1
176
     2
177
     2
178
     2
272
     3
340
1AC
  0
DIMSTYLE
105
1ED
102
{ACAD_REACTORS
330
1EE
102
}
330
A
100
AcDbSymbolTableRecord
100
AcDbDimStyleTableRecord
  2
ME10_DIM_15
 70
     0
 41
6.0
 42
1.0
 44
1.5
 47
0.2
 48
0.2
 71
     1
 73
     0
 74
     0
 77
     1
 78
     8
140
6.0
146
0.66666666666667
147
2.0
172
     1
173
     1
174
     1
175
     1
176
     2
177
     2
178
     2
272
     1
340
1AC
  0
DIMSTYLE
105
1F8
102
{ACAD_REACTORS
330
1F9
102
}
330
A
100
AcDbSymbolTableRecord
100
AcDbDimStyleTableRecord
  2
ME10_DIM_16
 70
     0
 41
6.0
 42
1.0
 44
1.5
 47
1.0
 48
1.0
 71
     1
 73
     0
 74
     0
 77
     1
 78
     8
140
6.0
146
0.66666666666667
147
2.0
172
     1
173
     1
174
     1
175
     1
176
     2
177
     2
178
     2
272
     0
340
1AC
  0
DIMSTYLE
105
203
102
{ACAD_REACTORS
330
204
102
}
330
A
100
AcDbSymbolTableRecord
100
AcDbDimStyleTableRecord
  2
ME10_DIM_17
 70
     0
 41
6.0
 42
1.0
 44
1.5
 47
0.5
 48
0.5
 71
     1
 73
     0
 74
     0
 77
     1
 78
     8
140
6.0
146
0.66666666666667
147
2.0
172
     1
173
     1
174
     1
175
     1
176
     2
177
     2
178
     2
272
     1
340
1AC
  0
DIMSTYLE
105
20E
102
{ACAD_REACTORS
330
20F
102
}
330
A
100
AcDbSymbolTableRecord
100
AcDbDimStyleTableRecord
  2
ME10_DIM_18
 70
     0
 41
6.0
 42
1.0
 44
1.5
 47
0.25
 48
0.25
 71
     1
 73
     0
 74
     0
 77
     1
 78
     8
140
6.0
146
0.66666666666667
147
2.0
172
     1
173
     1
174
     1
175
     1
176
     2
177
     2
178
     2
272
     2
340
1AC
  0
DIMSTYLE
105
21B
102
{ACAD_REACTORS
330
21C
102
}
330
A
100
AcDbSymbolTableRecord
100
AcDbDimStyleTableRecord
  2
ME10_DIM_19
 70
     0
  3
\U+03C6<>
 41
6.0
 42
1.0
 44
1.5
 48
0.018
 71
     1
 73
     0
 74
     0
 77
     1
 78
     8
140
6.0
146
0.66666666666667
147
2.0
172
     1
173
     1
174
     1
175
     1
176
     2
177
     2
178
     2
272
     0
340
1AC
  0
DIMSTYLE
105
226
102
{ACAD_REACTORS
330
227
102
}
330
A
100
AcDbSymbolTableRecord
100
AcDbDimStyleTableRecord
  2
ME10_DIM_20
 70
     0
 41
6.0
 42
1.0
 44
1.5
 47
0.5
 48
0.5
 71
     1
 73
     0
 74
     0
 77
     1
 78
     8
140
6.0
146
0.66666666666667
147
2.0
172
     1
173
     1
174
     1
175
     1
176
     2
177
     2
178
     2
272
     1
340
1AC
  0
DIMSTYLE
105
231
102
{ACAD_REACTORS
330
232
102
}
330
A
100
AcDbSymbolTableRecord
100
AcDbDimStyleTableRecord
  2
ME10_DIM_21
 70
     0
 41
6.0
 42
1.0
 44
1.5
 47
0.2
 48
0.2
 71
     1
 73
     0
 74
     0
 77
     1
 78
     8
140
6.0
146
0.66666666666667
147
2.0
172
     1
173
     1
174
     1
175
     1
176
     2
177
     2
178
     2
272
     1
340
1AC
  0
DIMSTYLE
105
23C
102
{ACAD_REACTORS
330
23D
102
}
330
A
100
AcDbSymbolTableRecord
100
AcDbDimStyleTableRecord
  2
ME10_DIM_22
 70
     0
 41
6.0
 42
1.0
 44
1.5
 47
0.2
 48
0.2
 71
     1
 73
     0
 74
     0
 77
     1
 78
     8
140
6.0
146
0.66666666666667
147
2.0
172
     1
173
     1
174
     1
175
     1
176
     2
177
     2
178
     2
272
     1
340
1AC
  0
DIMSTYLE
105
247
102
{ACAD_REACTORS
330
248
102
}
330
A
100
AcDbSymbolTableRecord
100
AcDbDimStyleTableRecord
  2
ME10_DIM_23
 70
     0
 41
6.0
 42
1.0
 44
1.5
 73
     0
 74
     0
 77
     1
 78
     8
140
6.0
147
2.0
172
     1
173
     1
174
     1
175
     1
176
     2
177
     2
178
     2
340
1AC
  0
DIMSTYLE
105
252
102
{ACAD_REACTORS
330
253
102
}
330
A
100
AcDbSymbolTableRecord
100
AcDbDimStyleTableRecord
  2
ME10_DIM_24
 70
     0
 41
6.0
 42
1.0
 44
1.5
 73
     0
 74
     0
 77
     1
 78
     8
140
6.0
147
2.0
172
     1
173
     1
174
     1
175
     1
176
     2
177
     2
178
     2
340
1AC
  0
DIMSTYLE
105
25D
102
{ACAD_REACTORS
330
25E
102
}
330
A
100
AcDbSymbolTableRecord
100
AcDbDimStyleTableRecord
  2
ME10_DIM_25
 70
     0
 41
6.0
 42
1.0
 44
1.5
 47
1.0
 48
1.0
 71
     1
 73
     0
 74
     0
 77
     1
 78
     8
140
6.0
146
0.66666666666667
147
2.0
172
     1
173
     1
174
     1
175
     1
176
     2
177
     2
178
     2
272
     0
340
1AC
  0
DIMSTYLE
105
26A
102
{ACAD_REACTORS
330
26B
102
}
330
A
100
AcDbSymbolTableRecord
100
AcDbDimStyleTableRecord
  2
ME10_DIM_26
 70
     0
 41
6.0
 42
1.0
 44
1.5
 47
0.2
 48
0.2
 71
     1
 73
     0
 74
     0
 77
     1
 78
     8
140
6.0
146
0.66666666666667
147
2.0
172
     1
173
     1
174
     1
175
     1
176
     2
177
     2
178
     2
272
     1
340
1AC
  0
DIMSTYLE
105
275
102
{ACAD_REACTORS
330
276
102
}
330
A
100
AcDbSymbolTableRecord
100
AcDbDimStyleTableRecord
  2
ME10_DIM_27
 70
     0
  3
\U+03C6<>
 41
6.0
 42
1.0
 44
1.5
 47
0.025
 48
0.025
 71
     1
 73
     0
 74
     0
 77
     1
 78
     8
140
6.0
146
0.66666666666667
147
2.0
172
     1
173
     1
174
     1
175
     1
176
     2
177
     2
178
     2
272
     3
340
1AC
  0
DIMSTYLE
105
282
102
{ACAD_REACTORS
330
283
102
}
330
A
100
AcDbSymbolTableRecord
100
AcDbDimStyleTableRecord
  2
ME10_DIM_28
 70
     0
 41
6.0
 42
1.0
 44
1.5
 47
0.5
 48
0.5
 71
     1
 73
     0
 74
     0
 77
     1
 78
     8
140
6.0
146
0.66666666666667
147
2.0
172
     1
173
     1
174
     1
175
     1
176
     2
177
     2
178
     2
272
     1
340
1AC
  0
DIMSTYLE
105
28F
102
{ACAD_REACTORS
330
290
102
}
330
A
100
AcDbSymbolTableRecord
100
AcDbDimStyleTableRecord
  2
ME10_DIM_29
 70
     0
  3
\U+03C6<>
 41
6.0
 42
1.0
 44
1.5
 48
0.018
 71
     1
 73
     0
 74
     0
 77
     1
 78
     8
140
6.0
146
0.66666666666667
147
2.0
172
     1
173
     1
174
     1
175
     1
176
     2
177
     2
178
     2
272
     0
340
1AC
  0
DIMSTYLE
105
29A
102
{ACAD_REACTORS
330
29B
102
}
330
A
100
AcDbSymbolTableRecord
100
AcDbDimStyleTableRecord
  2
ME10_DIM_30
 70
     0
 41
6.0
 42
1.0
 44
1.5
 47
0.25
 48
0.25
 71
     1
 73
     0
 74
     0
 77
     1
 78
     8
140
6.0
146
0.66666666666667
147
2.0
172
     1
173
     1
174
     1
175
     1
176
     2
177
     2
178
     2
272
     2
340
1AC
  0
DIMSTYLE
105
2A7
102
{ACAD_REACTORS
330
2A8
102
}
330
A
100
AcDbSymbolTableRecord
100
AcDbDimStyleTableRecord
  2
ME10_DIM_31
 70
     0
 41
6.0
 42
1.0
 44
1.5
 47
0.15
 48
0.15
 71
     1
 73
     0
 74
     0
 77
     1
 78
     8
140
6.0
146
0.66666666666667
147
2.0
172
     1
173
     1
174
     1
175
     1
176
     2
177
     2
178
     2
272
     2
340
1AC
  0
DIMSTYLE
105
2B4
102
{ACAD_REACTORS
330
2B5
102
}
330
A
100
AcDbSymbolTableRecord
100
AcDbDimStyleTableRecord
  2
ME10_DIM_32
 70
     0
 41
6.0
 42
1.0
 44
1.5
 47
0.15
 48
0.15
 71
     1
 73
     0
 74
     0
 77
     1
 78
     8
140
6.0
146
0.66666666666667
147
2.0
172
     1
173
     1
174
     1
175
     1
176
     2
177
     2
178
     2
272
     2
340
1AC
  0
DIMSTYLE
105
2C9
102
{ACAD_REACTORS
330
2CA
102
}
330
A
100
AcDbSymbolTableRecord
100
AcDbDimStyleTableRecord
  2
ME10_DIM_33
 70
     0
 41
6.0
 42
1.0
 44
1.5
 73
     0
 74
     0
 77
     1
 78
     8
140
6.0
147
2.0
172
     1
173
     1
174
     1
175
     1
176
     2
177
     2
271
     2
178
     2
271
     2
340
1AC
  0
ENDTAB
  0
TABLE
  2
BLOCK_RECORD
  5
1
330
0
100
AcDbSymbolTable
 70
    32
  0
BLOCK_RECORD
  5
1F
330
1
100
AcDbSymbolTableRecord
100
AcDbBlockTableRecord
  2
*Model_Space
340
22
  0
BLOCK_RECORD
  5
1B
330
1
100
AcDbSymbolTableRecord
100
AcDbBlockTableRecord
  2
*Paper_Space
340
1E
  0
BLOCK_RECORD
  5
23
330
1
100
AcDbSymbolTableRecord
100
AcDbBlockTableRecord
  2
*Paper_Space0
340
26
  0
BLOCK_RECORD
  5
47
330
1
100
AcDbSymbolTableRecord
100
AcDbBlockTableRecord
  2
_2__1
340
0
102
{BLKREFS
331
50
102
}
  0
BLOCK_RECORD
  5
4A
330
1
100
AcDbSymbolTableRecord
100
AcDbBlockTableRecord
  2
_2__2
340
0
102
{BLKREFS
331
51
102
}
  0
BLOCK_RECORD
  5
4D
330
1
100
AcDbSymbolTableRecord
100
AcDbBlockTableRecord
  2
»×ÈM4_Í²ÒÝ½_
340
0
102
{BLKREFS
331
52
102
}
  0
BLOCK_RECORD
  5
1A6
330
1
100
AcDbSymbolTableRecord
100
AcDbBlockTableRecord
  2
*D4
340
0
  0
BLOCK_RECORD
  5
1B2
330
1
100
AcDbSymbolTableRecord
100
AcDbBlockTableRecord
  2
*D5
340
0
  0
BLOCK_RECORD
  5
1BD
330
1
100
AcDbSymbolTableRecord
100
AcDbBlockTableRecord
  2
*D6
340
0
  0
BLOCK_RECORD
  5
1CA
330
1
100
AcDbSymbolTableRecord
100
AcDbBlockTableRecord
  2
*D7
340
0
  0
BLOCK_RECORD
  5
1D7
330
1
100
AcDbSymbolTableRecord
100
AcDbBlockTableRecord
  2
*D8
340
0
  0
BLOCK_RECORD
  5
1E2
330
1
100
AcDbSymbolTableRecord
100
AcDbBlockTableRecord
  2
*D9
340
0
  0
BLOCK_RECORD
  5
1EF
330
1
100
AcDbSymbolTableRecord
100
AcDbBlockTableRecord
  2
*D10
340
0
  0
BLOCK_RECORD
  5
1FA
330
1
100
AcDbSymbolTableRecord
100
AcDbBlockTableRecord
  2
*D11
340
0
  0
BLOCK_RECORD
  5
205
330
1
100
AcDbSymbolTableRecord
100
AcDbBlockTableRecord
  2
*D12
340
0
  0
BLOCK_RECORD
  5
210
330
1
100
AcDbSymbolTableRecord
100
AcDbBlockTableRecord
  2
*D13
340
0
  0
BLOCK_RECORD
  5
21D
330
1
100
AcDbSymbolTableRecord
100
AcDbBlockTableRecord
  2
*D14
340
0
  0
BLOCK_RECORD
  5
228
330
1
100
AcDbSymbolTableRecord
100
AcDbBlockTableRecord
  2
*D15
340
0
  0
BLOCK_RECORD
  5
233
330
1
100
AcDbSymbolTableRecord
100
AcDbBlockTableRecord
  2
*D16
340
0
  0
BLOCK_RECORD
  5
23E
330
1
100
AcDbSymbolTableRecord
100
AcDbBlockTableRecord
  2
*D17
340
0
  0
BLOCK_RECORD
  5
249
330
1
100
AcDbSymbolTableRecord
100
AcDbBlockTableRecord
  2
*D18
340
0
  0
BLOCK_RECORD
  5
254
330
1
100
AcDbSymbolTableRecord
100
AcDbBlockTableRecord
  2
*D19
340
0
  0
BLOCK_RECORD
  5
25F
330
1
100
AcDbSymbolTableRecord
100
AcDbBlockTableRecord
  2
*D20
340
0
  0
BLOCK_RECORD
  5
26C
330
1
100
AcDbSymbolTableRecord
100
AcDbBlockTableRecord
  2
*D21
340
0
  0
BLOCK_RECORD
  5
277
330
1
100
AcDbSymbolTableRecord
100
AcDbBlockTableRecord
  2
*D22
340
0
  0
BLOCK_RECORD
  5
284
330
1
100
AcDbSymbolTableRecord
100
AcDbBlockTableRecord
  2
*D23
340
0
  0
BLOCK_RECORD
  5
291
330
1
100
AcDbSymbolTableRecord
100
AcDbBlockTableRecord
  2
*D24
340
0
  0
BLOCK_RECORD
  5
29C
330
1
100
AcDbSymbolTableRecord
100
AcDbBlockTableRecord
  2
*D25
340
0
  0
BLOCK_RECORD
  5
2A9
330
1
100
AcDbSymbolTableRecord
100
AcDbBlockTableRecord
  2
*D26
340
0
  0
BLOCK_RECORD
  5
2B6
330
1
100
AcDbSymbolTableRecord
100
AcDbBlockTableRecord
  2
*D27
340
0
102
{BLKREFS
331
2BD
102
}
  0
BLOCK_RECORD
  5
2BE
330
1
100
AcDbSymbolTableRecord
100
AcDbBlockTableRecord
  2
*D28
340
0
  0
BLOCK_RECORD
  5
2CB
330
1
100
AcDbSymbolTableRecord
100
AcDbBlockTableRecord
  2
*D29
340
0
102
{BLKREFS
331
2D2
102
}
  0
BLOCK_RECORD
  5
2D3
330
1
100
AcDbSymbolTableRecord
100
AcDbBlockTableRecord
  2
*D30
340
0
102
{BLKREFS
331
2DA
102
}
  0
BLOCK_RECORD
  5
2DB
330
1
100
AcDbSymbolTableRecord
100
AcDbBlockTableRecord
  2
*D31
340
0
102
{BLKREFS
331
2E2
102
}
  0
ENDTAB
  0
ENDSEC
  0
SECTION
  2
BLOCKS
  0
BLOCK
  5
20
330
1F
100
AcDbEntity
  8
0
100
AcDbBlockBegin
  2
*Model_Space
 70
     0
 10
0.0
 20
0.0
 30
0.0
  3
*Model_Space
  1

  0
ENDBLK
  5
21
330
1F
100
AcDbEntity
  8
0
100
AcDbBlockEnd
  0
BLOCK
  5
1C
330
1B
100
AcDbEntity
 67
     1
  8
0
100
AcDbBlockBegin
  2
*Paper_Space
 70
     0
 10
0.0
 20
0.0
 30
0.0
  3
*Paper_Space
  1

  0
ENDBLK
  5
1D
330
1B
100
AcDbEntity
 67
     1
  8
0
100
AcDbBlockEnd
  0
BLOCK
  5
24
330
23
100
AcDbEntity
  8
0
100
AcDbBlockBegin
  2
*Paper_Space0
 70
     0
 10
0.0
 20
0.0
 30
0.0
  3
*Paper_Space0
  1

  0
ENDBLK
  5
25
330
23
100
AcDbEntity
  8
0
100
AcDbBlockEnd
  0
BLOCK
  5
48
330
47
100
AcDbEntity
  8
0
100
AcDbBlockBegin
  2
_2__1
 70
     0
 10
3481.06721482666
 20
-1750.729870858127
 30
0.0
  3
_2__1
  1

  0
LINE
  5
53
330
47
100
AcDbEntity
  8
1
  6
Continuous
 62
     3
100
AcDbLine
 10
3481.06721482666
 20
-1664.729870858127
 30
0.0
 11
3556.06721482666
 21
-1664.729870858127
 31
0.0
  0
LINE
  5
54
330
47
100
AcDbEntity
  8
1
  6
Continuous
 62
     3
100
AcDbLine
 10
3556.06721482666
 20
-1664.729870858127
 30
0.0
 11
3556.06721482666
 21
-1750.729870858127
 31
0.0
  0
LINE
  5
55
330
47
100
AcDbEntity
  8
1
  6
Continuous
 62
     3
100
AcDbLine
 10
3556.06721482666
 20
-1750.729870858127
 30
0.0
 11
3481.06721482666
 21
-1750.729870858127
 31
0.0
  0
LINE
  5
56
330
47
100
AcDbEntity
  8
1
  6
Continuous
 62
     3
100
AcDbLine
 10
3481.06721482666
 20
-1750.729870858127
 30
0.0
 11
3481.06721482666
 21
-1664.729870858127
 31
0.0
  0
LINE
  5
57
330
47
100
AcDbEntity
  8
1
  6
Continuous
 62
     3
100
AcDbLine
 10
3556.06721482666
 20
-1736.229870858127
 30
0.0
 11
3481.06721482666
 21
-1736.229870858127
 31
0.0
  0
LINE
  5
58
330
47
100
AcDbEntity
  8
1
  6
Continuous
 62
     3
100
AcDbLine
 10
3556.06721482666
 20
-1679.229870858127
 30
0.0
 11
3481.06721482666
 21
-1679.229870858127
 31
0.0
  0
HATCH
  5
5C
330
47
100
AcDbEntity
  8
1
  6
Continuous
 62
     2
100
AcDbHatch
 10
0.0
 20
0.0
 30
0.0
210
0.0
220
0.0
230
1.0
  2
_USER
 70
     0
 71
     0
 91
        1
 92
        1
 93
        4
 72
     1
 10
3481.06721482666
 20
-1684.729870858127
 11
3556.06721482666
 21
-1669.729870858127
 72
     1
 10
3556.06721482666
 20
-1669.729870858127
 11
3556.06721482666
 21
-1664.729870858127
 72
     1
 10
3556.06721482666
 20
-1664.729870858127
 11
3481.06721482666
 21
-1664.729870858127
 72
     1
 10
3481.06721482666
 20
-1664.729870858127
 11
3481.06721482666
 21
-1684.729870858127
 97
        0
 75
     1
 76
     0
 52
90.00000000000001
 41
2.0
 77
     0
 78
     1
 53
90.00000000000001
 43
0.0
 44
0.0
 45
-2.0
 46
-0.0000000000000008
 79
     0
 98
        1
 10
0.0
 20
0.0
  0
HATCH
  5
5D
330
47
100
AcDbEntity
  8
1
  6
Continuous
 62
     2
100
AcDbHatch
 10
0.0
 20
0.0
 30
0.0
210
0.0
220
0.0
230
1.0
  2
_USER
 70
     0
 71
     0
 91
        1
 92
        1
 93
        4
 72
     1
 10
3481.06721482666
 20
-1750.729870858127
 11
3556.06721482666
 21
-1750.729870858127
 72
     1
 10
3556.06721482666
 20
-1750.729870858127
 11
3556.06721482666
 21
-1730.729870858127
 72
     1
 10
3556.06721482666
 20
-1730.729870858127
 11
3481.06721482666
 21
-1745.729870858127
 72
     1
 10
3481.06721482666
 20
-1745.729870858127
 11
3481.06721482666
 21
-1750.729870858127
 97
        0
 75
     1
 76
     0
 52
90.00000000000001
 41
2.0
 77
     0
 78
     1
 53
90.00000000000001
 43
0.0
 44
0.0
 45
-2.0
 46
-0.0000000000000008
 79
     0
 98
        1
 10
0.0
 20
0.0
  0
ENDBLK
  5
49
330
47
100
AcDbEntity
  8
0
100
AcDbBlockEnd
  0
BLOCK
  5
4B
330
4A
100
AcDbEntity
  8
0
100
AcDbBlockBegin
  2
_2__2
 70
     0
 10
3265.091211477554
 20
-1750.729870858127
 30
0.0
  3
_2__2
  1

  0
LINE
  5
5E
330
4A
100
AcDbEntity
  8
1
  6
Continuous
 62
     3
100
AcDbLine
 10
3340.091211477554
 20
-1679.229870858127
 30
0.0
 11
3265.091211477554
 21
-1679.229870858127
 31
0.0
  0
LINE
  5
5F
330
4A
100
AcDbEntity
  8
1
  6
Continuous
 62
     3
100
AcDbLine
 10
3340.091211477554
 20
-1736.229870858127
 30
0.0
 11
3265.091211477554
 21
-1736.229870858127
 31
0.0
  0
LINE
  5
60
330
4A
100
AcDbEntity
  8
1
  6
Continuous
 62
     3
100
AcDbLine
 10
3265.091211477554
 20
-1750.729870858127
 30
0.0
 11
3265.091211477554
 21
-1664.729870858127
 31
0.0
  0
LINE
  5
61
330
4A
100
AcDbEntity
  8
1
  6
Continuous
 62
     3
100
AcDbLine
 10
3340.091211477554
 20
-1750.729870858127
 30
0.0
 11
3265.091211477554
 21
-1750.729870858127
 31
0.0
  0
LINE
  5
62
330
4A
100
AcDbEntity
  8
1
  6
Continuous
 62
     3
100
AcDbLine
 10
3340.091211477554
 20
-1664.729870858127
 30
0.0
 11
3340.091211477554
 21
-1750.729870858127
 31
0.0
  0
LINE
  5
63
330
4A
100
AcDbEntity
  8
1
  6
Continuous
 62
     3
100
AcDbLine
 10
3265.091211477554
 20
-1664.729870858127
 30
0.0
 11
3340.091211477554
 21
-1664.729870858127
 31
0.0
  0
HATCH
  5
67
330
4A
100
AcDbEntity
  8
1
  6
Continuous
 62
     2
100
AcDbHatch
 10
0.0
 20
0.0
 30
0.0
210
0.0
220
0.0
230
1.0
  2
_USER
 70
     0
 71
     0
 91
        1
 92
        1
 93
        4
 72
     1
 10
3265.091211477554
 20
-1750.729870858127
 11
3340.091211477554
 21
-1750.729870858127
 72
     1
 10
3340.091211477554
 20
-1750.729870858127
 11
3340.091211477554
 21
-1730.729870858127
 72
     1
 10
3340.091211477554
 20
-1730.729870858127
 11
3265.091211477554
 21
-1745.729870858127
 72
     1
 10
3265.091211477554
 20
-1745.729870858127
 11
3265.091211477554
 21
-1750.729870858127
 97
        0
 75
     1
 76
     0
 52
90.00000000000001
 41
2.0
 77
     0
 78
     1
 53
90.00000000000001
 43
0.0
 44
0.0
 45
-2.0
 46
-0.0000000000000008
 79
     0
 98
        1
 10
0.0
 20
0.0
  0
HATCH
  5
68
330
4A
100
AcDbEntity
  8
1
  6
Continuous
 62
     2
100
AcDbHatch
 10
0.0
 20
0.0
 30
0.0
210
0.0
220
0.0
230
1.0
  2
_USER
 70
     0
 71
     0
 91
        1
 92
        1
 93
        4
 72
     1
 10
3265.091211477554
 20
-1684.729870858127
 11
3340.091211477554
 21
-1669.729870858127
 72
     1
 10
3340.091211477554
 20
-1669.729870858127
 11
3340.091211477554
 21
-1664.729870858127
 72
     1
 10
3340.091211477554
 20
-1664.729870858127
 11
3265.091211477554
 21
-1664.729870858127
 72
     1
 10
3265.091211477554
 20
-1664.729870858127
 11
3265.091211477554
 21
-1684.729870858127
 97
        0
 75
     1
 76
     0
 52
90.00000000000001
 41
2.0
 77
     0
 78
     1
 53
90.00000000000001
 43
0.0
 44
0.0
 45
-2.0
 46
-0.0000000000000008
 79
     0
 98
        1
 10
0.0
 20
0.0
  0
ENDBLK
  5
4C
330
4A
100
AcDbEntity
  8
0
100
AcDbBlockEnd
  0
BLOCK
  5
4E
330
4D
100
AcDbEntity
  8
0
100
AcDbBlockBegin
  2
»×ÈM4_Í²ÒÝ½_
 70
     0
 10
3640.512168534573
 20
-1242.880756132746
 30
0.0
  3
»×ÈM4_Í²ÒÝ½_
  1

  0
LINE
  5
69
330
4D
100
AcDbEntity
  8
1
  6
Continuous
 62
     1
100
AcDbLine
 10
3087.951324030247
 20
-1678.569870858128
 30
0.0
 11
3087.951324030247
 21
-1689.489870858128
 31
0.0
  0
LINE
  5
6A
330
4D
100
AcDbEntity
  8
1
  6
Continuous
 62
     1
100
AcDbLine
 10
3093.411324030247
 20
-1684.029870858128
 30
0.0
 11
3082.491324030247
 21
-1684.029870858128
 31
0.0
  0
LINE
  5
6B
330
4D
100
AcDbEntity
  8
1
  6
Continuous
 62
     1
100
AcDbLine
 10
3087.951324030247
 20
-1725.969870858127
 30
0.0
 11
3087.951324030247
 21
-1736.889870858127
 31
0.0
  0
LINE
  5
6C
330
4D
100
AcDbEntity
  8
1
  6
Continuous
 62
     1
100
AcDbLine
 10
3093.411324030247
 20
-1731.429870858127
 30
0.0
 11
3082.491324030247
 21
-1731.429870858127
 31
0.0
  0
LINE
  5
6D
330
4D
100
AcDbEntity
  8
1
  6
Continuous
 62
     1
100
AcDbLine
 10
3011.751324030245
 20
-1725.969870858127
 30
0.0
 11
3011.751324030245
 21
-1736.889870858127
 31
0.0
  0
LINE
  5
6E
330
4D
100
AcDbEntity
  8
1
  6
Continuous
 62
     1
100
AcDbLine
 10
3017.211324030245
 20
-1731.429870858127
 30
0.0
 11
3006.291324030245
 21
-1731.429870858127
 31
0.0
  0
LINE
  5
6F
330
4D
100
AcDbEntity
  8
1
  6
Continuous
 62
     1
100
AcDbLine
 10
3011.751324030245
 20
-1678.569870858128
 30
0.0
 11
3011.751324030245
 21
-1689.489870858128
 31
0.0
  0
LINE
  5
70
330
4D
100
AcDbEntity
  8
1
  6
Continuous
 62
     1
100
AcDbLine
 10
3017.211324030245
 20
-1684.029870858128
 30
0.0
 11
3006.291324030245
 21
-1684.029870858128
 31
0.0
  0
LINE
  5
71
330
4D
100
AcDbEntity
  8
1
  6
Continuous
 62
     3
100
AcDbLine
 10
3089.864237553629
 20
-1685.214464396886
 30
0.0
 11
3088.868656689996
 21
-1684.218883533255
 31
0.0
  0
LINE
  5
72
330
4D
100
AcDbEntity
  8
1
  6
Continuous
 62
     3
100
AcDbLine
 10
3089.864237553629
 20
-1682.84527731937
 30
0.0
 11
3088.868656689996
 21
-1683.840858183001
 31
0.0
  0
LINE
  5
73
330
4D
100
AcDbEntity
  8
1
  6
Continuous
 62
     3
100
AcDbLine
 10
3086.76673049149
 20
-1685.942784381508
 30
0.0
 11
3087.762311355121
 21
-1684.947203517877
 31
0.0
  0
LINE
  5
74
330
4D
100
AcDbEntity
  8
1
  6
Continuous
 62
     3
100
AcDbLine
 10
3089.135917569007
 20
-1685.942784381508
 30
0.0
 11
3088.140336705375
 21
-1684.947203517877
 31
0.0
  0
LINE
  5
75
330
4D
100
AcDbEntity
  8
1
  6
Continuous
 62
     3
100
AcDbLine
 10
3086.038410506867
 20
-1682.84527731937
 30
0.0
 11
3087.0339913705
 21
-1683.840858183001
 31
0.0
  0
LINE
  5
76
330
4D
100
AcDbEntity
  8
1
  6
Continuous
 62
     3
100
AcDbLine
 10
3086.038410506867
 20
-1685.214464396886
 30
0.0
 11
3087.0339913705
 21
-1684.218883533255
 31
0.0
  0
LINE
  5
77
330
4D
100
AcDbEntity
  8
1
  6
Continuous
 62
     3
100
AcDbLine
 10
3089.135917569007
 20
-1682.116957334748
 30
0.0
 11
3088.140336705375
 21
-1683.112538198379
 31
0.0
  0
LINE
  5
78
330
4D
100
AcDbEntity
  8
1
  6
Continuous
 62
     3
100
AcDbLine
 10
3087.762311355121
 20
-1683.112538198379
 30
0.0
 11
3086.76673049149
 21
-1682.116957334748
 31
0.0
  0
LINE
  5
79
330
4D
100
AcDbEntity
  8
1
  6
Continuous
 62
     3
100
AcDbLine
 10
3087.762311355121
 20
-1730.512538198379
 30
0.0
 11
3086.76673049149
 21
-1729.516957334747
 31
0.0
  0
LINE
  5
7A
330
4D
100
AcDbEntity
  8
1
  6
Continuous
 62
     3
100
AcDbLine
 10
3089.135917569007
 20
-1729.516957334747
 30
0.0
 11
3088.140336705375
 21
-1730.512538198379
 31
0.0
  0
LINE
  5
7B
330
4D
100
AcDbEntity
  8
1
  6
Continuous
 62
     3
100
AcDbLine
 10
3086.038410506867
 20
-1732.614464396886
 30
0.0
 11
3087.0339913705
 21
-1731.618883533254
 31
0.0
  0
LINE
  5
7C
330
4D
100
AcDbEntity
  8
1
  6
Continuous
 62
     3
100
AcDbLine
 10
3086.038410506867
 20
-1730.245277319369
 30
0.0
 11
3087.0339913705
 21
-1731.240858183001
 31
0.0
  0
LINE
  5
7D
330
4D
100
AcDbEntity
  8
1
  6
Continuous
 62
     3
100
AcDbLine
 10
3089.135917569007
 20
-1733.342784381508
 30
0.0
 11
3088.140336705375
 21
-1732.347203517876
 31
0.0
  0
LINE
  5
7E
330
4D
100
AcDbEntity
  8
1
  6
Continuous
 62
     3
100
AcDbLine
 10
3086.76673049149
 20
-1733.342784381508
 30
0.0
 11
3087.762311355121
 21
-1732.347203517876
 31
0.0
  0
LINE
  5
7F
330
4D
100
AcDbEntity
  8
1
  6
Continuous
 62
     3
100
AcDbLine
 10
3089.864237553629
 20
-1730.245277319369
 30
0.0
 11
3088.868656689996
 21
-1731.240858183001
 31
0.0
  0
LINE
  5
80
330
4D
100
AcDbEntity
  8
1
  6
Continuous
 62
     3
100
AcDbLine
 10
3089.864237553629
 20
-1732.614464396886
 30
0.0
 11
3088.868656689996
 21
-1731.618883533254
 31
0.0
  0
LINE
  5
81
330
4D
100
AcDbEntity
  8
1
  6
Continuous
 62
     3
100
AcDbLine
 10
3013.664237553626
 20
-1732.614464396886
 30
0.0
 11
3012.668656689995
 21
-1731.618883533254
 31
0.0
  0
LINE
  5
82
330
4D
100
AcDbEntity
  8
1
  6
Continuous
 62
     3
100
AcDbLine
 10
3013.664237553626
 20
-1730.245277319369
 30
0.0
 11
3012.668656689995
 21
-1731.240858183001
 31
0.0
  0
LINE
  5
83
330
4D
100
AcDbEntity
  8
1
  6
Continuous
 62
     3
100
AcDbLine
 10
3010.566730491488
 20
-1733.342784381508
 30
0.0
 11
3011.562311355119
 21
-1732.347203517876
 31
0.0
  0
LINE
  5
84
330
4D
100
AcDbEntity
  8
1
  6
Continuous
 62
     3
100
AcDbLine
 10
3012.935917569004
 20
-1733.342784381508
 30
0.0
 11
3011.940336705372
 21
-1732.347203517876
 31
0.0
  0
LINE
  5
85
330
4D
100
AcDbEntity
  8
1
  6
Continuous
 62
     3
100
AcDbLine
 10
3009.838410506866
 20
-1730.245277319369
 30
0.0
 11
3010.833991370497
 21
-1731.240858183001
 31
0.0
  0
LINE
  5
86
330
4D
100
AcDbEntity
  8
1
  6
Continuous
 62
     3
100
AcDbLine
 10
3009.838410506866
 20
-1732.614464396886
 30
0.0
 11
3010.833991370497
 21
-1731.618883533254
 31
0.0
  0
LINE
  5
87
330
4D
100
AcDbEntity
  8
1
  6
Continuous
 62
     3
100
AcDbLine
 10
3012.935917569004
 20
-1729.516957334747
 30
0.0
 11
3011.940336705372
 21
-1730.512538198379
 31
0.0
  0
LINE
  5
88
330
4D
100
AcDbEntity
  8
1
  6
Continuous
 62
     3
100
AcDbLine
 10
3011.562311355119
 20
-1730.512538198379
 30
0.0
 11
3010.566730491488
 21
-1729.516957334747
 31
0.0
  0
LINE
  5
89
330
4D
100
AcDbEntity
  8
1
  6
Continuous
 62
     3
100
AcDbLine
 10
3011.562311355119
 20
-1683.112538198379
 30
0.0
 11
3010.566730491488
 21
-1682.116957334748
 31
0.0
  0
LINE
  5
8A
330
4D
100
AcDbEntity
  8
1
  6
Continuous
 62
     3
100
AcDbLine
 10
3012.935917569004
 20
-1682.116957334748
 30
0.0
 11
3011.940336705372
 21
-1683.112538198379
 31
0.0
  0
LINE
  5
8B
330
4D
100
AcDbEntity
  8
1
  6
Continuous
 62
     3
100
AcDbLine
 10
3009.838410506866
 20
-1685.214464396886
 30
0.0
 11
3010.833991370497
 21
-1684.218883533255
 31
0.0
  0
LINE
  5
8C
330
4D
100
AcDbEntity
  8
1
  6
Continuous
 62
     3
100
AcDbLine
 10
3009.838410506866
 20
-1682.84527731937
 30
0.0
 11
3010.833991370497
 21
-1683.840858183001
 31
0.0
  0
LINE
  5
8D
330
4D
100
AcDbEntity
  8
1
  6
Continuous
 62
     3
100
AcDbLine
 10
3012.935917569004
 20
-1685.942784381508
 30
0.0
 11
3011.940336705372
 21
-1684.947203517877
 31
0.0
  0
LINE
  5
8E
330
4D
100
AcDbEntity
  8
1
  6
Continuous
 62
     3
100
AcDbLine
 10
3010.566730491488
 20
-1685.942784381508
 30
0.0
 11
3011.562311355119
 21
-1684.947203517877
 31
0.0
  0
LINE
  5
8F
330
4D
100
AcDbEntity
  8
1
  6
Continuous
 62
     3
100
AcDbLine
 10
3013.664237553626
 20
-1682.84527731937
 30
0.0
 11
3012.668656689995
 21
-1683.840858183001
 31
0.0
  0
LINE
  5
90
330
4D
100
AcDbEntity
  8
1
  6
Continuous
 62
     3
100
AcDbLine
 10
3013.664237553626
 20
-1685.214464396886
 30
0.0
 11
3012.668656689995
 21
-1684.218883533255
 31
0.0
  0
ARC
  5
91
330
4D
100
AcDbEntity
  8
1
  6
Continuous
 62
     3
100
AcDbCircle
 10
3087.951324030247
 20
-1684.029870858128
 30
0.0
 40
0.9150000000001806
100
AcDbArc
 50
350.8377712759614
 51
9.16222872405267
  0
ARC
  5
92
330
4D
100
AcDbEntity
  8
1
  6
Continuous
 62
     3
100
AcDbCircle
 10
3087.951324030247
 20
-1684.029870858128
 30
0.0
 40
2.250000000000226
100
AcDbArc
 50
301.7683351757346
 51
328.2316648243321
  0
ARC
  5
93
330
4D
100
AcDbEntity
  8
1
  6
Continuous
 62
     3
100
AcDbCircle
 10
3087.951324030247
 20
-1684.029870858128
 30
0.0
 40
0.9149999999998837
100
AcDbArc
 50
260.8377712759872
 51
279.1622287240409
  0
ARC
  5
94
330
4D
100
AcDbEntity
  8
1
  6
Continuous
 62
     3
100
AcDbCircle
 10
3087.951324030247
 20
-1684.029870858128
 30
0.0
 40
2.249999999999462
100
AcDbArc
 50
211.7683351756922
 51
238.2316648243145
  0
ARC
  5
95
330
4D
100
AcDbEntity
  8
1
  6
Continuous
 62
     3
100
AcDbCircle
 10
3087.951324030247
 20
-1684.029870858128
 30
0.0
 40
0.9149999999993189
100
AcDbArc
 50
170.8377712759383
 51
189.1622287240477
  0
ARC
  5
96
330
4D
100
AcDbEntity
  8
1
  6
Continuous
 62
     3
100
AcDbCircle
 10
3087.951324030247
 20
-1684.029870858128
 30
0.0
 40
2.249999999999222
100
AcDbArc
 50
121.7683351756824
 51
148.2316648243029
  0
ARC
  5
97
330
4D
100
AcDbEntity
  8
1
  6
Continuous
 62
     3
100
AcDbCircle
 10
3087.951324030247
 20
-1684.029870858128
 30
0.0
 40
0.9150000000001806
100
AcDbArc
 50
80.83777127596139
 51
99.1622287240105
  0
ARC
  5
98
330
4D
100
AcDbEntity
  8
1
  6
Continuous
 62
     3
100
AcDbCircle
 10
3087.951324030247
 20
-1684.029870858128
 30
0.0
 40
2.250000000001128
100
AcDbArc
 50
31.76833517567277
 51
58.23166482426839
  0
ARC
  5
99
330
4D
100
AcDbEntity
  8
1
  6
Continuous
 62
     3
100
AcDbCircle
 10
3087.951324030247
 20
-1731.429870858127
 30
0.0
 40
2.250000000001128
100
AcDbArc
 50
31.76833517567277
 51
58.23166482426535
  0
ARC
  5
9A
330
4D
100
AcDbEntity
  8
1
  6
Continuous
 62
     3
100
AcDbCircle
 10
3087.951324030247
 20
-1731.429870858127
 30
0.0
 40
0.9150000000001806
100
AcDbArc
 50
80.83777127596139
 51
99.1622287240105
  0
ARC
  5
9B
330
4D
100
AcDbEntity
  8
1
  6
Continuous
 62
     3
100
AcDbCircle
 10
3087.951324030247
 20
-1731.429870858127
 30
0.0
 40
2.249999999999029
100
AcDbArc
 50
121.7683351756854
 51
148.2316648243029
  0
ARC
  5
9C
330
4D
100
AcDbEntity
  8
1
  6
Continuous
 62
     3
100
AcDbCircle
 10
3087.951324030247
 20
-1731.429870858127
 30
0.0
 40
0.914999999999174
100
AcDbArc
 50
170.8377712759945
 51
189.1622287240477
  0
ARC
  5
9D
330
4D
100
AcDbEntity
  8
1
  6
Continuous
 62
     3
100
AcDbCircle
 10
3087.951324030247
 20
-1731.429870858127
 30
0.0
 40
2.25000000000006
100
AcDbArc
 50
211.7683351757168
 51
238.2316648243267
  0
ARC
  5
9E
330
4D
100
AcDbEntity
  8
1
  6
Continuous
 62
     3
100
AcDbCircle
 10
3087.951324030247
 20
-1731.429870858127
 30
0.0
 40
0.9150000000001082
100
AcDbArc
 50
260.8377712759895
 51
279.1622287240386
  0
ARC
  5
9F
330
4D
100
AcDbEntity
  8
1
  6
Continuous
 62
     3
100
AcDbCircle
 10
3087.951324030247
 20
-1731.429870858127
 30
0.0
 40
2.250000000001
100
AcDbArc
 50
301.7683351757225
 51
328.2316648243075
  0
ARC
  5
A0
330
4D
100
AcDbEntity
  8
1
  6
Continuous
 62
     3
100
AcDbCircle
 10
3087.951324030247
 20
-1731.429870858127
 30
0.0
 40
0.9150000000001806
100
AcDbArc
 50
350.8377712759614
 51
9.16222872399645
  0
ARC
  5
A1
330
4D
100
AcDbEntity
  8
1
  6
Continuous
 62
     3
100
AcDbCircle
 10
3011.751324030245
 20
-1731.429870858127
 30
0.0
 40
0.9150000000010784
100
AcDbArc
 50
350.8377712759705
 51
9.16222872398738
  0
ARC
  5
A2
330
4D
100
AcDbEntity
  8
1
  6
Continuous
 62
     3
100
AcDbCircle
 10
3011.751324030245
 20
-1731.429870858127
 30
0.0
 40
2.25000000000052
100
AcDbArc
 50
301.7683351757028
 51
328.2316648242954
  0
ARC
  5
A3
330
4D
100
AcDbEntity
  8
1
  6
Continuous
 62
     3
100
AcDbCircle
 10
3011.751324030245
 20
-1731.429870858127
 30
0.0
 40
0.9150000000000358
100
AcDbArc
 50
260.8377712760176
 51
279.1622287240949
  0
ARC
  5
A4
330
4D
100
AcDbEntity
  8
1
  6
Continuous
 62
     3
100
AcDbCircle
 10
3011.751324030245
 20
-1731.429870858127
 30
0.0
 40
2.249999999999287
100
AcDbArc
 50
211.768335175729
 51
238.2316648243366
  0
ARC
  5
A5
330
4D
100
AcDbEntity
  8
1
  6
Continuous
 62
     3
100
AcDbCircle
 10
3011.751324030245
 20
-1731.429870858127
 30
0.0
 40
0.9149999999982762
100
AcDbArc
 50
170.8377712759854
 51
189.1622287240568
  0
ARC
  5
A6
330
4D
100
AcDbEntity
  8
1
  6
Continuous
 62
     3
100
AcDbCircle
 10
3011.751324030245
 20
-1731.429870858127
 30
0.0
 40
2.24999999999879
100
AcDbArc
 50
121.7683351756756
 51
148.2316648242906
  0
ARC
  5
A7
330
4D
100
AcDbEntity
  8
1
  6
Continuous
 62
     3
100
AcDbCircle
 10
3011.751324030245
 20
-1731.429870858127
 30
0.0
 40
0.9150000000003253
100
AcDbArc
 50
80.83777127590517
 51
99.16222872398238
  0
ARC
  5
A8
330
4D
100
AcDbEntity
  8
1
  6
Continuous
 62
     3
100
AcDbCircle
 10
3011.751324030245
 20
-1731.429870858127
 30
0.0
 40
2.250000000000355
100
AcDbArc
 50
31.76833517568496
 51
58.23166482428504
  0
ARC
  5
A9
330
4D
100
AcDbEntity
  8
1
  6
Continuous
 62
     3
100
AcDbCircle
 10
3011.751324030245
 20
-1684.029870858128
 30
0.0
 40
2.250000000000355
100
AcDbArc
 50
31.76833517568496
 51
58.23166482428808
  0
ARC
  5
AA
330
4D
100
AcDbEntity
  8
1
  6
Continuous
 62
     3
100
AcDbCircle
 10
3011.751324030245
 20
-1684.029870858128
 30
0.0
 40
0.9150000000003253
100
AcDbArc
 50
80.83777127590517
 51
99.16222872398238
  0
ARC
  5
AB
330
4D
100
AcDbEntity
  8
1
  6
Continuous
 62
     3
100
AcDbCircle
 10
3011.751324030245
 20
-1684.029870858128
 30
0.0
 40
2.249999999998983
100
AcDbArc
 50
121.7683351756725
 51
148.2316648242906
  0
ARC
  5
AC
330
4D
100
AcDbEntity
  8
1
  6
Continuous
 62
     3
100
AcDbCircle
 10
3011.751324030245
 20
-1684.029870858128
 30
0.0
 40
0.914999999998421
100
AcDbArc
 50
170.8377712759292
 51
189.1622287240568
  0
ARC
  5
AD
330
4D
100
AcDbEntity
  8
1
  6
Continuous
 62
     3
100
AcDbCircle
 10
3011.751324030245
 20
-1684.029870858128
 30
0.0
 40
2.249999999998689
100
AcDbArc
 50
211.7683351757044
 51
238.2316648243244
  0
ARC
  5
AE
330
4D
100
AcDbEntity
  8
1
  6
Continuous
 62
     3
100
AcDbCircle
 10
3011.751324030245
 20
-1684.029870858128
 30
0.0
 40
0.9149999999998113
100
AcDbArc
 50
260.8377712760154
 51
279.1622287240971
  0
ARC
  5
AF
330
4D
100
AcDbEntity
  8
1
  6
Continuous
 62
     3
100
AcDbCircle
 10
3011.751324030245
 20
-1684.029870858128
 30
0.0
 40
2.249999999999747
100
AcDbArc
 50
301.768335175715
 51
328.2316648243199
  0
ARC
  5
B0
330
4D
100
AcDbEntity
  8
1
  6
Continuous
 62
     3
100
AcDbCircle
 10
3011.751324030245
 20
-1684.029870858128
 30
0.0
 40
0.9150000000010784
100
AcDbArc
 50
350.8377712759705
 51
9.1622287240436
  0
CIRCLE
  5
B1
330
4D
100
AcDbEntity
  8
1
  6
Continuous
 62
     3
100
AcDbCircle
 10
3087.951324030247
 20
-1684.029870858128
 30
0.0
 40
4.200000000000728
  0
CIRCLE
  5
B2
330
4D
100
AcDbEntity
  8
1
  6
Continuous
 62
     3
100
AcDbCircle
 10
3087.951324030247
 20
-1731.429870858127
 30
0.0
 40
4.200000000000728
  0
CIRCLE
  5
B3
330
4D
100
AcDbEntity
  8
1
  6
Continuous
 62
     3
100
AcDbCircle
 10
3011.751324030245
 20
-1731.429870858127
 30
0.0
 40
4.200000000000728
  0
CIRCLE
  5
B4
330
4D
100
AcDbEntity
  8
1
  6
Continuous
 62
     3
100
AcDbCircle
 10
3011.751324030245
 20
-1684.029870858128
 30
0.0
 40
4.200000000000728
  0
ARC
  5
B5
330
4D
100
AcDbEntity
  8
1
  6
Continuous
 62
     3
100
AcDbCircle
 10
3088.904012029056
 20
-1684.183528194195
 30
0.0
 40
0.050000000000677
100
AcDbArc
 50
170.8377712764611
 51
224.9999999998157
  0
ARC
  5
B6
330
4D
100
AcDbEntity
  8
1
  6
Continuous
 62
     3
100
AcDbCircle
 10
3088.904012029056
 20
-1683.876213522061
 30
0.0
 40
0.0500000000010374
100
AcDbArc
 50
135.0
 51
189.1622287232817
  0
ARC
  5
B7
330
4D
100
AcDbEntity
  8
1
  6
Continuous
 62
     3
100
AcDbCircle
 10
3087.797666694181
 20
-1684.982558856936
 30
0.0
 40
0.0499999999999674
100
AcDbArc
 50
80.83777127659387
 51
135.0000000007369
  0
ARC
  5
B8
330
4D
100
AcDbEntity
  8
1
  6
Continuous
 62
     3
100
AcDbCircle
 10
3088.104981366316
 20
-1684.982558856936
 30
0.0
 40
0.0499999999994296
100
AcDbArc
 50
45.00000000036847
 51
99.16222872597841
  0
ARC
  5
B9
330
4D
100
AcDbEntity
  8
1
  6
Continuous
 62
     3
100
AcDbCircle
 10
3086.998636031439
 20
-1683.876213522061
 30
0.0
 40
0.0500000000006408
100
AcDbArc
 50
350.8377712767183
 51
44.99999999926305
  0
ARC
  5
BA
330
4D
100
AcDbEntity
  8
1
  6
Continuous
 62
     3
100
AcDbCircle
 10
3086.998636031439
 20
-1684.183528194195
 30
0.0
 40
0.0500000000015198
100
AcDbArc
 50
315.0000000009212
 51
9.1622287235389
  0
ARC
  5
BB
330
4D
100
AcDbEntity
  8
1
  6
Continuous
 62
     3
100
AcDbCircle
 10
3088.104981366316
 20
-1683.07718285932
 30
0.0
 40
0.0500000000003295
100
AcDbArc
 50
260.8377712740216
 51
314.9999999996315
  0
ARC
  5
BC
330
4D
100
AcDbEntity
  8
1
  6
Continuous
 62
     3
100
AcDbCircle
 10
3087.797666694181
 20
-1683.07718285932
 30
0.0
 40
0.0500000000003943
100
AcDbArc
 50
224.9999999992631
 51
279.1622287234061
  0
ARC
  5
BD
330
4D
100
AcDbEntity
  8
1
  6
Continuous
 62
     3
100
AcDbCircle
 10
3087.797666694181
 20
-1730.477182859319
 30
0.0
 40
0.0500000000008766
100
AcDbArc
 50
224.9999999998157
 51
279.1622287234476
  0
ARC
  5
BE
330
4D
100
AcDbEntity
  8
1
  6
Continuous
 62
     3
100
AcDbCircle
 10
3088.104981366316
 20
-1730.477182859319
 30
0.0
 40
0.050000000000105
100
AcDbArc
 50
260.8377712739801
 51
314.9999999990788
  0
ARC
  5
BF
330
4D
100
AcDbEntity
  8
1
  6
Continuous
 62
     3
100
AcDbCircle
 10
3086.998636031439
 20
-1731.583528194194
 30
0.0
 40
0.0500000000015198
100
AcDbArc
 50
315.0000000009212
 51
9.1622287235389
  0
ARC
  5
C0
330
4D
100
AcDbEntity
  8
1
  6
Continuous
 62
     3
100
AcDbCircle
 10
3086.998636031439
 20
-1731.27621352206
 30
0.0
 40
0.0500000000007856
100
AcDbArc
 50
350.8377712756894
 51
44.99999999852611
  0
ARC
  5
C1
330
4D
100
AcDbEntity
  8
1
  6
Continuous
 62
     3
100
AcDbCircle
 10
3088.104981366316
 20
-1732.382558856935
 30
0.0
 40
0.0499999999992689
100
AcDbArc
 50
45.00000000018423
 51
99.16222872601989
  0
ARC
  5
C2
330
4D
100
AcDbEntity
  8
1
  6
Continuous
 62
     3
100
AcDbCircle
 10
3087.797666694181
 20
-1732.382558856935
 30
0.0
 40
0.0499999999997429
100
AcDbArc
 50
80.83777127655239
 51
135.0000000009212
  0
ARC
  5
C3
330
4D
100
AcDbEntity
  8
1
  6
Continuous
 62
     3
100
AcDbCircle
 10
3088.904012029056
 20
-1731.27621352206
 30
0.0
 40
0.0500000000003943
100
AcDbArc
 50
135.0000000007369
 51
189.1622287243106
  0
ARC
  5
C4
330
4D
100
AcDbEntity
  8
1
  6
Continuous
 62
     3
100
AcDbCircle
 10
3088.904012029056
 20
-1731.583528194194
 30
0.0
 40
0.050000000000677
100
AcDbArc
 50
170.8377712764611
 51
224.9999999998157
  0
ARC
  5
C5
330
4D
100
AcDbEntity
  8
1
  6
Continuous
 62
     3
100
AcDbCircle
 10
3012.704012029053
 20
-1731.583528194194
 30
0.0
 40
0.0499999999988813
100
AcDbArc
 50
170.8377712761292
 51
225.0000000012896
  0
ARC
  5
C6
330
4D
100
AcDbEntity
  8
1
  6
Continuous
 62
     3
100
AcDbCircle
 10
3012.704012029053
 20
-1731.27621352206
 30
0.0
 40
0.0499999999991081
100
AcDbArc
 50
134.9999999992631
 51
189.1622287246425
  0
ARC
  5
C7
330
4D
100
AcDbEntity
  8
1
  6
Continuous
 62
     3
100
AcDbCircle
 10
3011.597666694179
 20
-1732.382558856935
 30
0.0
 40
0.0499999999997429
100
AcDbArc
 50
80.83777127655239
 51
135.0000000009212
  0
ARC
  5
C8
330
4D
100
AcDbEntity
  8
1
  6
Continuous
 62
     3
100
AcDbCircle
 10
3011.904981366313
 20
-1732.382558856935
 30
0.0
 40
0.0499999999992689
100
AcDbArc
 50
45.00000000018423
 51
99.16222872396207
  0
ARC
  5
C9
330
4D
100
AcDbEntity
  8
1
  6
Continuous
 62
     3
100
AcDbCircle
 10
3010.798636031437
 20
-1731.27621352206
 30
0.0
 40
0.0500000000016835
100
AcDbArc
 50
350.8377712758554
 51
44.99999999926305
  0
ARC
  5
CA
330
4D
100
AcDbEntity
  8
1
  6
Continuous
 62
     3
100
AcDbCircle
 10
3010.798636031437
 20
-1731.583528194194
 30
0.0
 40
0.0500000000008766
100
AcDbArc
 50
315.0000000001842
 51
9.16222872337295
  0
ARC
  5
CB
330
4D
100
AcDbEntity
  8
1
  6
Continuous
 62
     3
100
AcDbCircle
 10
3011.904981366313
 20
-1730.477182859319
 30
0.0
 40
0.0499999999998153
100
AcDbArc
 50
260.8377712760379
 51
314.9999999990788
  0
ARC
  5
CC
330
4D
100
AcDbEntity
  8
1
  6
Continuous
 62
     3
100
AcDbCircle
 10
3011.597666694179
 20
-1730.477182859319
 30
0.0
 40
0.0500000000008766
100
AcDbArc
 50
224.9999999998157
 51
279.1622287234476
  0
ARC
  5
CD
330
4D
100
AcDbEntity
  8
1
  6
Continuous
 62
     3
100
AcDbCircle
 10
3011.597666694179
 20
-1683.07718285932
 30
0.0
 40
0.0500000000003943
100
AcDbArc
 50
224.9999999992631
 51
279.1622287234061
  0
ARC
  5
CE
330
4D
100
AcDbEntity
  8
1
  6
Continuous
 62
     3
100
AcDbCircle
 10
3011.904981366313
 20
-1683.07718285932
 30
0.0
 40
0.0500000000000398
100
AcDbArc
 50
260.8377712760794
 51
314.9999999996315
  0
ARC
  5
CF
330
4D
100
AcDbEntity
  8
1
  6
Continuous
 62
     3
100
AcDbCircle
 10
3010.798636031437
 20
-1684.183528194195
 30
0.0
 40
0.0500000000008766
100
AcDbArc
 50
315.0000000001842
 51
9.16222872337295
  0
ARC
  5
D0
330
4D
100
AcDbEntity
  8
1
  6
Continuous
 62
     3
100
AcDbCircle
 10
3010.798636031437
 20
-1683.876213522061
 30
0.0
 40
0.0500000000015387
100
AcDbArc
 50
350.8377712768843
 51
45.0
  0
ARC
  5
D1
330
4D
100
AcDbEntity
  8
1
  6
Continuous
 62
     3
100
AcDbCircle
 10
3011.904981366313
 20
-1684.982558856936
 30
0.0
 40
0.0499999999994296
100
AcDbArc
 50
45.00000000036847
 51
99.16222872392059
  0
ARC
  5
D2
330
4D
100
AcDbEntity
  8
1
  6
Continuous
 62
     3
100
AcDbCircle
 10
3011.597666694179
 20
-1684.982558856936
 30
0.0
 40
0.0499999999999674
100
AcDbArc
 50
80.83777127659387
 51
135.0000000007369
  0
ARC
  5
D3
330
4D
100
AcDbEntity
  8
1
  6
Continuous
 62
     3
100
AcDbCircle
 10
3012.704012029053
 20
-1683.876213522061
 30
0.0
 40
0.0499999999997512
100
AcDbArc
 50
134.9999999985261
 51
189.1622287236136
  0
ARC
  5
D4
330
4D
100
AcDbEntity
  8
1
  6
Continuous
 62
     3
100
AcDbCircle
 10
3012.704012029053
 20
-1684.183528194195
 30
0.0
 40
0.0499999999988813
100
AcDbArc
 50
170.8377712761292
 51
225.0000000012896
  0
ENDBLK
  5
4F
330
4D
100
AcDbEntity
  8
0
100
AcDbBlockEnd
  0
BLOCK
  5
1AE
330
1A6
100
AcDbEntity
  8
0
100
AcDbBlockBegin
  2
*D4
 70
     1
 10
0.0
 20
0.0
 30
0.0
  3
*D4
  1

  0
LINE
  5
1A7
330
1A6
100
AcDbEntity
  8
1
  6
Continuous
 62
     2
100
AcDbLine
 10
3607.06721482666
 20
-1624.729870858127
 30
0.0
 11
3573.06721482666
 21
-1624.729870858127
 31
0.0
  0
LINE
  5
1A8
330
1A6
100
AcDbEntity
  8
1
  6
Continuous
 62
     2
100
AcDbLine
 10
3573.06721482666
 20
-1663.729870858127
 30
0.0
 11
3573.06721482666
 21
-1623.229870858127
 31
0.0
  0
LINE
  5
1A9
330
1A6
100
AcDbEntity
  8
1
  6
Continuous
 62
     2
100
AcDbLine
 10
3607.06721482666
 20
-1700.729870858127
 30
0.0
 11
3607.06721482666
 21
-1623.229870858127
 31
0.0
  0
SOLID
  5
1AA
330
1A6
100
AcDbEntity
  8
1
 62
     2
100
AcDbTrace
 10
3601.06721482666
 20
-1625.519785843651
 30
0.0
 11
3601.06721482666
 21
-1623.939955872603
 31
0.0
 12
3607.06721482666
 22
-1624.729870858127
 32
0.0
 13
3607.06721482666
 23
-1624.729870858127
 33
0.0
  0
SOLID
  5
1AB
330
1A6
100
AcDbEntity
  8
1
 62
     2
100
AcDbTrace
 10
3579.06721482666
 20
-1623.939955872603
 30
0.0
 11
3579.06721482666
 21
-1625.519785843651
 31
0.0
 12
3573.06721482666
 22
-1624.729870858127
 32
0.0
 13
3573.06721482666
 23
-1624.729870858127
 33
0.0
  0
MTEXT
  5
1AD
330
1A6
100
AcDbEntity
  8
1
 62
     2
100
AcDbMText
 10
3582.834422608035
 20
-1622.729870858127
 30
0.0
 40
6.0
 41
0.0
 71
     7
 72
     1
  1
\C2;34\C2;\H4;{\Fgdt;`}1
  7
CONVERTER_14
 11
0.9999999999970619
 21
2.424068405545306E-6
 31
0.0
 73
     1
 44
0.60024009603842
  0
ENDBLK
  5
1AF
330
1A6
100
AcDbEntity
  8
0
100
AcDbBlockEnd
  0
BLOCK
  5
1B9
330
1B2
100
AcDbEntity
  8
0
100
AcDbBlockBegin
  2
*D5
 70
     1
 10
0.0
 20
0.0
 30
0.0
  3
*D5
  1

  0
LINE
  5
1B3
330
1B2
100
AcDbEntity
  8
1
  6
Continuous
 62
     2
100
AcDbLine
 10
3429.06721482666
 20
-1684.729870858127
 30
0.0
 11
3454.06721482666
 21
-1684.729870858127
 31
0.0
  0
LINE
  5
1B4
330
1B2
100
AcDbEntity
  8
1
  6
Continuous
 62
     2
100
AcDbLine
 10
3429.06721482666
 20
-1700.729870858127
 30
0.0
 11
3429.06721482666
 21
-1683.229870858127
 31
0.0
  0
LINE
  5
1B5
330
1B2
100
AcDbEntity
  8
1
  6
Continuous
 62
     2
100
AcDbLine
 10
3454.06721482666
 20
-1699.729870858127
 30
0.0
 11
3454.06721482666
 21
-1683.229870858127
 31
0.0
  0
SOLID
  5
1B6
330
1B2
100
AcDbEntity
  8
1
 62
     2
100
AcDbTrace
 10
3435.06721482666
 20
-1683.939955872603
 30
0.0
 11
3435.06721482666
 21
-1685.519785843651
 31
0.0
 12
3429.06721482666
 22
-1684.729870858127
 32
0.0
 13
3429.06721482666
 23
-1684.729870858127
 33
0.0
  0
SOLID
  5
1B7
330
1B2
100
AcDbEntity
  8
1
 62
     2
100
AcDbTrace
 10
3448.06721482666
 20
-1685.519785843651
 30
0.0
 11
3448.06721482666
 21
-1683.939955872603
 31
0.0
 12
3454.06721482666
 22
-1684.729870858127
 32
0.0
 13
3454.06721482666
 23
-1684.729870858127
 33
0.0
  0
MTEXT
  5
1B8
330
1B2
100
AcDbEntity
  8
1
 62
     2
100
AcDbMText
 10
3431.34623072942
 20
-1682.729870858127
 30
0.0
 40
6.0
 41
0.0
 71
     7
 72
     1
  1
\C2;25\C2;\H4;{\Fgdt;`}0.25
  7
CONVERTER_14
 11
0.9999999999970619
 21
2.424068405545306E-6
 31
0.0
 73
     1
 44
0.60024009603842
  0
ENDBLK
  5
1BA
330
1B2
100
AcDbEntity
  8
0
100
AcDbBlockEnd
  0
BLOCK
  5
1C6
330
1BD
100
AcDbEntity
  8
0
100
AcDbBlockBegin
  2
*D6
 70
     1
 10
0.0
 20
0.0
 30
0.0
  3
*D6
  1

  0
LINE
  5
1BE
330
1BD
100
AcDbEntity
  8
1
  6
Continuous
 62
     2
100
AcDbLine
 10
3413.06721482666
 20
-1688.729870858127
 30
0.0
 11
3413.06721482666
 21
-1700.729870858127
 31
0.0
  0
LINE
  5
1BF
330
1BD
100
AcDbEntity
  8
1
  6
Continuous
 62
     2
100
AcDbLine
 10
3413.06721482666
 20
-1700.729870858127
 30
0.0
 11
3413.06721482666
 21
-1714.729870858127
 31
0.0
  0
LINE
  5
1C0
330
1BD
100
AcDbEntity
  8
1
  6
Continuous
 62
     2
100
AcDbLine
 10
3413.06721482666
 20
-1714.729870858127
 30
0.0
 11
3413.06721482666
 21
-1726.729870858127
 31
0.0
  0
LINE
  5
1C1
330
1BD
100
AcDbEntity
  8
1
  6
Continuous
 62
     2
100
AcDbLine
 10
3453.06721482666
 20
-1700.729870858127
 30
0.0
 11
3411.56721482666
 21
-1700.729870858127
 31
0.0
  0
LINE
  5
1C2
330
1BD
100
AcDbEntity
  8
1
  6
Continuous
 62
     2
100
AcDbLine
 10
3428.86721482666
 20
-1714.729870858127
 30
0.0
 11
3411.56721482666
 21
-1714.729870858127
 31
0.0
  0
SOLID
  5
1C3
330
1BD
100
AcDbEntity
  8
1
 62
     2
100
AcDbTrace
 10
3412.277299841136
 20
-1694.729870858127
 30
0.0
 11
3413.857129812184
 21
-1694.729870858127
 31
0.0
 12
3413.06721482666
 22
-1700.729870858127
 32
0.0
 13
3413.06721482666
 23
-1700.729870858127
 33
0.0
  0
SOLID
  5
1C4
330
1BD
100
AcDbEntity
  8
1
 62
     2
100
AcDbTrace
 10
3413.857129812184
 20
-1720.729870858127
 30
0.0
 11
3412.277299841136
 21
-1720.729870858127
 31
0.0
 12
3413.06721482666
 22
-1714.729870858127
 32
0.0
 13
3413.06721482666
 23
-1714.729870858127
 33
0.0
  0
MTEXT
  5
1C5
330
1BD
100
AcDbEntity
  8
1
 62
     2
100
AcDbMText
 10
3409.06721482666
 20
-1722.587370858127
 30
0.0
 40
6.0
 41
0.0
 71
     7
 72
     1
  1
\C2;\U+03c6\C2;\C2;14\C2;\H4;\S 0^ -0.018;
  7
CONVERTER_14
 11
0.0
 21
1.0
 31
0.0
 73
     1
 44
0.60024009603842
  0
ENDBLK
  5
1C7
330
1BD
100
AcDbEntity
  8
0
100
AcDbBlockEnd
  0
BLOCK
  5
1D3
330
1CA
100
AcDbEntity
  8
0
100
AcDbBlockBegin
  2
*D7
 70
     1
 10
0.0
 20
0.0
 30
0.0
  3
*D7
  1

  0
LINE
  5
1CB
330
1CA
100
AcDbEntity
  8
1
  6
Continuous
 62
     2
100
AcDbLine
 10
3495.597708307886
 20
-1656.729870858127
 30
0.0
 11
3474.06721482666
 21
-1656.729870858127
 31
0.0
  0
LINE
  5
1CC
330
1CA
100
AcDbEntity
  8
1
  6
Continuous
 62
     2
100
AcDbLine
 10
3474.06721482666
 20
-1656.729870858127
 30
0.0
 11
3466.06721482666
 21
-1656.729870858127
 31
0.0
  0
LINE
  5
1CD
330
1CA
100
AcDbEntity
  8
1
  6
Continuous
 62
     2
100
AcDbLine
 10
3466.06721482666
 20
-1656.729870858127
 30
0.0
 11
3454.06721482666
 21
-1656.729870858127
 31
0.0
  0
LINE
  5
1CE
330
1CA
100
AcDbEntity
  8
1
  6
Continuous
 62
     2
100
AcDbLine
 10
3474.06721482666
 20
-1663.729870858127
 30
0.0
 11
3474.06721482666
 21
-1655.229870858127
 31
0.0
  0
LINE
  5
1CF
330
1CA
100
AcDbEntity
  8
1
  6
Continuous
 62
     2
100
AcDbLine
 10
3466.06721482666
 20
-1663.729870858127
 30
0.0
 11
3466.06721482666
 21
-1655.229870858127
 31
0.0
  0
SOLID
  5
1D0
330
1CA
100
AcDbEntity
  8
1
 62
     2
100
AcDbTrace
 10
3480.06721482666
 20
-1655.939955872603
 30
0.0
 11
3480.06721482666
 21
-1657.519785843651
 31
0.0
 12
3474.06721482666
 22
-1656.729870858127
 32
0.0
 13
3474.06721482666
 23
-1656.729870858127
 33
0.0
  0
SOLID
  5
1D1
330
1CA
100
AcDbEntity
  8
1
 62
     2
100
AcDbTrace
 10
3460.06721482666
 20
-1657.519785843651
 30
0.0
 11
3460.06721482666
 21
-1655.939955872603
 31
0.0
 12
3466.06721482666
 22
-1656.729870858127
 32
0.0
 13
3466.06721482666
 23
-1656.729870858127
 33
0.0
  0
MTEXT
  5
1D2
330
1CA
100
AcDbEntity
  8
1
 62
     2
100
AcDbMText
 10
3478.897708307886
 20
-1654.729870858127
 30
0.0
 40
6.0
 41
0.0
 71
     7
 72
     1
  1
\C2;8\C2;\H4;{\Fgdt;`}0.5
  7
CONVERTER_14
 11
0.9999999999970619
 21
2.424068405545306E-6
 31
0.0
 73
     1
 44
0.60024009603842
  0
ENDBLK
  5
1D4
330
1CA
100
AcDbEntity
  8
0
100
AcDbBlockEnd
  0
BLOCK
  5
1DE
330
1D7
100
AcDbEntity
  8
0
100
AcDbBlockBegin
  2
*D8
 70
     1
 10
0.0
 20
0.0
 30
0.0
  3
*D8
  1

  0
LINE
  5
1D8
330
1D7
100
AcDbEntity
  8
1
  6
Continuous
 62
     2
100
AcDbLine
 10
3397.06721482666
 20
-1671.229870858127
 30
0.0
 11
3397.06721482666
 21
-1744.229870858127
 31
0.0
  0
LINE
  5
1D9
330
1D7
100
AcDbEntity
  8
1
  6
Continuous
 62
     2
100
AcDbLine
 10
3463.567214826659
 20
-1671.229870858127
 30
0.0
 11
3395.56721482666
 21
-1671.229870858127
 31
0.0
  0
LINE
  5
1DA
330
1D7
100
AcDbEntity
  8
1
  6
Continuous
 62
     2
100
AcDbLine
 10
3463.567214826659
 20
-1744.229870858127
 30
0.0
 11
3395.56721482666
 21
-1744.229870858127
 31
0.0
  0
SOLID
  5
1DB
330
1D7
100
AcDbEntity
  8
1
 62
     2
100
AcDbTrace
 10
3397.857129812184
 20
-1677.229870858127
 30
0.0
 11
3396.277299841136
 21
-1677.229870858127
 31
0.0
 12
3397.06721482666
 22
-1671.229870858127
 32
0.0
 13
3397.06721482666
 23
-1671.229870858127
 33
0.0
  0
SOLID
  5
1DC
330
1D7
100
AcDbEntity
  8
1
 62
     2
100
AcDbTrace
 10
3396.277299841136
 20
-1738.229870858127
 30
0.0
 11
3397.857129812184
 21
-1738.229870858127
 31
0.0
 12
3397.06721482666
 22
-1744.229870858127
 32
0.0
 13
3397.06721482666
 23
-1744.229870858127
 33
0.0
  0
MTEXT
  5
1DD
330
1D7
100
AcDbEntity
  8
1
 62
     2
100
AcDbMText
 10
3395.06721482666
 20
-1732.962370858127
 30
0.0
 40
6.0
 41
0.0
 71
     7
 72
     1
  1
\C2;\U+03c6\C2;\C2;73.025\C2;\H4;{\Fgdt;`}0.025
  7
CONVERTER_14
 11
0.0
 21
1.0
 31
0.0
 73
     1
 44
0.60024009603842
  0
ENDBLK
  5
1DF
330
1D7
100
AcDbEntity
  8
0
100
AcDbBlockEnd
  0
BLOCK
  5
1EB
330
1E2
100
AcDbEntity
  8
0
100
AcDbBlockBegin
  2
*D9
 70
     1
 10
0.0
 20
0.0
 30
0.0
  3
*D9
  1

  0
LINE
  5
1E3
330
1E2
100
AcDbEntity
  8
1
  6
Continuous
 62
     2
100
AcDbLine
 10
3478.06721482666
 20
-1640.729870858127
 30
0.0
 11
3466.06721482666
 21
-1640.729870858127
 31
0.0
  0
LINE
  5
1E4
330
1E2
100
AcDbEntity
  8
1
  6
Continuous
 62
     2
100
AcDbLine
 10
3466.06721482666
 20
-1640.729870858127
 30
0.0
 11
3464.56721482666
 21
-1640.729870858127
 31
0.0
  0
LINE
  5
1E5
330
1E2
100
AcDbEntity
  8
1
  6
Continuous
 62
     2
100
AcDbLine
 10
3464.56721482666
 20
-1640.729870858127
 30
0.0
 11
3439.26150112074
 21
-1640.729870858127
 31
0.0
  0
LINE
  5
1E6
330
1E2
100
AcDbEntity
  8
1
  6
Continuous
 62
     2
100
AcDbLine
 10
3466.06721482666
 20
-1663.729870858127
 30
0.0
 11
3466.06721482666
 21
-1639.229870858127
 31
0.0
  0
LINE
  5
1E7
330
1E2
100
AcDbEntity
  8
1
  6
Continuous
 62
     2
100
AcDbLine
 10
3464.56721482666
 20
-1670.229870858127
 30
0.0
 11
3464.56721482666
 21
-1639.229870858127
 31
0.0
  0
SOLID
  5
1E8
330
1E2
100
AcDbEntity
  8
1
 62
     2
100
AcDbTrace
 10
3472.06721482666
 20
-1639.939955872603
 30
0.0
 11
3472.06721482666
 21
-1641.519785843651
 31
0.0
 12
3466.06721482666
 22
-1640.729870858127
 32
0.0
 13
3466.06721482666
 23
-1640.729870858127
 33
0.0
  0
SOLID
  5
1E9
330
1E2
100
AcDbEntity
  8
1
 62
     2
100
AcDbTrace
 10
3458.56721482666
 20
-1641.519785843651
 30
0.0
 11
3458.56721482666
 21
-1639.939955872603
 31
0.0
 12
3464.56721482666
 22
-1640.729870858127
 32
0.0
 13
3464.56721482666
 23
-1640.729870858127
 33
0.0
  0
MTEXT
  5
1EA
330
1E2
100
AcDbEntity
  8
1
 62
     2
100
AcDbMText
 10
3439.26150112074
 20
-1638.729870858127
 30
0.0
 40
6.0
 41
0.0
 71
     7
 72
     1
  1
\C2;1.5\C2;\H4;{\Fgdt;`}0.2
  7
CONVERTER_14
 11
0.9999999999970619
 21
2.424068405545306E-6
 31
0.0
 73
     1
 44
0.60024009603842
  0
ENDBLK
  5
1EC
330
1E2
100
AcDbEntity
  8
0
100
AcDbBlockEnd
  0
BLOCK
  5
1F6
330
1EF
100
AcDbEntity
  8
0
100
AcDbBlockBegin
  2
*D10
 70
     1
 10
0.0
 20
0.0
 30
0.0
  3
*D10
  1

  0
LINE
  5
1F0
330
1EF
100
AcDbEntity
  8
1
  6
Continuous
 62
     2
100
AcDbLine
 10
3466.06721482666
 20
-1624.729870858127
 30
0.0
 11
3573.06721482666
 21
-1624.729870858127
 31
0.0
  0
LINE
  5
1F1
330
1EF
100
AcDbEntity
  8
1
  6
Continuous
 62
     2
100
AcDbLine
 10
3466.06721482666
 20
-1663.729870858127
 30
0.0
 11
3466.06721482666
 21
-1623.229870858127
 31
0.0
  0
LINE
  5
1F2
330
1EF
100
AcDbEntity
  8
1
  6
Continuous
 62
     2
100
AcDbLine
 10
3573.06721482666
 20
-1663.729870858127
 30
0.0
 11
3573.06721482666
 21
-1623.229870858127
 31
0.0
  0
SOLID
  5
1F3
330
1EF
100
AcDbEntity
  8
1
 62
     2
100
AcDbTrace
 10
3472.06721482666
 20
-1623.939955872603
 30
0.0
 11
3472.06721482666
 21
-1625.519785843651
 31
0.0
 12
3466.06721482666
 22
-1624.729870858127
 32
0.0
 13
3466.06721482666
 23
-1624.729870858127
 33
0.0
  0
SOLID
  5
1F4
330
1EF
100
AcDbEntity
  8
1
 62
     2
100
AcDbTrace
 10
3567.06721482666
 20
-1625.519785843651
 30
0.0
 11
3567.06721482666
 21
-1623.939955872603
 31
0.0
 12
3573.06721482666
 22
-1624.729870858127
 32
0.0
 13
3573.06721482666
 23
-1624.729870858127
 33
0.0
  0
MTEXT
  5
1F5
330
1EF
100
AcDbEntity
  8
1
 62
     2
100
AcDbMText
 10
3518.304989158756
 20
-1622.729870858127
 30
0.0
 40
6.0
 41
0.0
 71
     7
 72
     1
  1
\C2;L\C2;\H4;{\Fgdt;`}1
  7
CONVERTER_14
 11
0.9999999999970619
 21
2.424068405545306E-6
 31
0.0
 73
     1
 44
0.60024009603842
  0
ENDBLK
  5
1F7
330
1EF
100
AcDbEntity
  8
0
100
AcDbBlockEnd
  0
BLOCK
  5
201
330
1FA
100
AcDbEntity
  8
0
100
AcDbBlockBegin
  2
*D11
 70
     1
 10
0.0
 20
0.0
 30
0.0
  3
*D11
  1

  0
LINE
  5
1FB
330
1FA
100
AcDbEntity
  8
1
  6
Continuous
 62
     2
100
AcDbLine
 10
3466.06721482666
 20
-1624.729870858127
 30
0.0
 11
3429.06721482666
 21
-1624.729870858127
 31
0.0
  0
LINE
  5
1FC
330
1FA
100
AcDbEntity
  8
1
  6
Continuous
 62
     2
100
AcDbLine
 10
3466.06721482666
 20
-1663.729870858127
 30
0.0
 11
3466.06721482666
 21
-1623.229870858127
 31
0.0
  0
LINE
  5
1FD
330
1FA
100
AcDbEntity
  8
1
  6
Continuous
 62
     2
100
AcDbLine
 10
3429.06721482666
 20
-1700.729870858127
 30
0.0
 11
3429.06721482666
 21
-1623.229870858127
 31
0.0
  0
SOLID
  5
1FE
330
1FA
100
AcDbEntity
  8
1
 62
     2
100
AcDbTrace
 10
3460.06721482666
 20
-1625.519785843651
 30
0.0
 11
3460.06721482666
 21
-1623.939955872603
 31
0.0
 12
3466.06721482666
 22
-1624.729870858127
 32
0.0
 13
3466.06721482666
 23
-1624.729870858127
 33
0.0
  0
SOLID
  5
1FF
330
1FA
100
AcDbEntity
  8
1
 62
     2
100
AcDbTrace
 10
3435.06721482666
 20
-1623.939955872603
 30
0.0
 11
3435.06721482666
 21
-1625.519785843651
 31
0.0
 12
3429.06721482666
 22
-1624.729870858127
 32
0.0
 13
3429.06721482666
 23
-1624.729870858127
 33
0.0
  0
MTEXT
  5
200
330
1FA
100
AcDbEntity
  8
1
 62
     2
100
AcDbMText
 10
3440.215785566766
 20
-1622.729870858127
 30
0.0
 40
6.0
 41
0.0
 71
     7
 72
     1
  1
\C2;37\C2;\H4;{\Fgdt;`}0.5
  7
CONVERTER_14
 11
0.9999999999970619
 21
2.424068405545306E-6
 31
0.0
 73
     1
 44
0.60024009603842
  0
ENDBLK
  5
202
330
1FA
100
AcDbEntity
  8
0
100
AcDbBlockEnd
  0
BLOCK
  5
20C
330
205
100
AcDbEntity
  8
0
100
AcDbBlockBegin
  2
*D12
 70
     1
 10
0.0
 20
0.0
 30
0.0
  3
*D12
  1

  0
LINE
  5
206
330
205
100
AcDbEntity
  8
1
  6
Continuous
 62
     2
100
AcDbLine
 10
3607.067214826661
 20
-1684.729870858127
 30
0.0
 11
3582.067214826661
 21
-1684.729870858127
 31
0.0
  0
LINE
  5
207
330
205
100
AcDbEntity
  8
1
  6
Continuous
 62
     2
100
AcDbLine
 10
3582.067214826661
 20
-1699.729870858127
 30
0.0
 11
3582.067214826661
 21
-1683.229870858127
 31
0.0
  0
LINE
  5
208
330
205
100
AcDbEntity
  8
1
  6
Continuous
 62
     2
100
AcDbLine
 10
3607.067214826661
 20
-1700.729870858127
 30
0.0
 11
3607.067214826661
 21
-1683.229870858127
 31
0.0
  0
SOLID
  5
209
330
205
100
AcDbEntity
  8
1
 62
     2
100
AcDbTrace
 10
3601.067214826661
 20
-1685.519785843651
 30
0.0
 11
3601.067214826661
 21
-1683.939955872603
 31
0.0
 12
3607.067214826661
 22
-1684.729870858127
 32
0.0
 13
3607.067214826661
 23
-1684.729870858127
 33
0.0
  0
SOLID
  5
20A
330
205
100
AcDbEntity
  8
1
 62
     2
100
AcDbTrace
 10
3588.067214826661
 20
-1683.939955872603
 30
0.0
 11
3588.067214826661
 21
-1685.519785843651
 31
0.0
 12
3582.067214826661
 22
-1684.729870858127
 32
0.0
 13
3582.067214826661
 23
-1684.729870858127
 33
0.0
  0
MTEXT
  5
20B
330
205
100
AcDbEntity
  8
1
 62
     2
100
AcDbMText
 10
3579.52950377801
 20
-1682.729870858127
 30
0.0
 40
6.0
 41
0.0
 71
     7
 72
     1
  1
\C2;25\C2;\H4;{\Fgdt;`}0.25
  7
CONVERTER_14
 11
0.9999999999970619
 21
2.424068405545306E-6
 31
0.0
 73
     1
 44
0.60024009603842
  0
ENDBLK
  5
20D
330
205
100
AcDbEntity
  8
0
100
AcDbBlockEnd
  0
BLOCK
  5
219
330
210
100
AcDbEntity
  8
0
100
AcDbBlockBegin
  2
*D13
 70
     1
 10
0.0
 20
0.0
 30
0.0
  3
*D13
  1

  0
LINE
  5
211
330
210
100
AcDbEntity
  8
1
  6
Continuous
 62
     2
100
AcDbLine
 10
3623.06721482666
 20
-1714.729870858127
 30
0.0
 11
3623.06721482666
 21
-1726.729870858127
 31
0.0
  0
LINE
  5
212
330
210
100
AcDbEntity
  8
1
  6
Continuous
 62
     2
100
AcDbLine
 10
3623.06721482666
 20
-1700.729870858127
 30
0.0
 11
3623.06721482666
 21
-1714.729870858127
 31
0.0
  0
LINE
  5
213
330
210
100
AcDbEntity
  8
1
  6
Continuous
 62
     2
100
AcDbLine
 10
3623.06721482666
 20
-1661.70752658666
 30
0.0
 11
3623.06721482666
 21
-1700.729870858127
 31
0.0
  0
LINE
  5
214
330
210
100
AcDbEntity
  8
1
  6
Continuous
 62
     2
100
AcDbLine
 10
3607.26721482666
 20
-1714.729870858127
 30
0.0
 11
3624.56721482666
 21
-1714.729870858127
 31
0.0
  0
LINE
  5
215
330
210
100
AcDbEntity
  8
1
  6
Continuous
 62
     2
100
AcDbLine
 10
3583.06721482666
 20
-1700.729870858127
 30
0.0
 11
3624.56721482666
 21
-1700.729870858127
 31
0.0
  0
SOLID
  5
216
330
210
100
AcDbEntity
  8
1
 62
     2
100
AcDbTrace
 10
3622.277299841136
 20
-1694.729870858127
 30
0.0
 11
3623.857129812184
 21
-1694.729870858127
 31
0.0
 12
3623.06721482666
 22
-1700.729870858127
 32
0.0
 13
3623.06721482666
 23
-1700.729870858127
 33
0.0
  0
SOLID
  5
217
330
210
100
AcDbEntity
  8
1
 62
     2
100
AcDbTrace
 10
3623.857129812184
 20
-1720.729870858127
 30
0.0
 11
3622.277299841136
 21
-1720.729870858127
 31
0.0
 12
3623.06721482666
 22
-1714.729870858127
 32
0.0
 13
3623.06721482666
 23
-1714.729870858127
 33
0.0
  0
MTEXT
  5
218
330
210
100
AcDbEntity
  8
1
 62
     2
100
AcDbMText
 10
3619.06721482666
 20
-1693.32752658666
 30
0.0
 40
6.0
 41
0.0
 71
     7
 72
     1
  1
\C2;\U+03c6\C2;\C2;14\C2;\H4;\S 0^ -0.018;
  7
CONVERTER_14
 11
0.0
 21
1.0
 31
0.0
 73
     1
 44
0.60024009603842
  0
ENDBLK
  5
21A
330
210
100
AcDbEntity
  8
0
100
AcDbBlockEnd
  0
BLOCK
  5
224
330
21D
100
AcDbEntity
  8
0
100
AcDbBlockBegin
  2
*D14
 70
     1
 10
0.0
 20
0.0
 30
0.0
  3
*D14
  1

  0
LINE
  5
21E
330
21D
100
AcDbEntity
  8
1
  6
Continuous
 62
     2
100
AcDbLine
 10
3250.091211477554
 20
-1624.729870858127
 30
0.0
 11
3213.091211477554
 21
-1624.729870858127
 31
0.0
  0
LINE
  5
21F
330
21D
100
AcDbEntity
  8
1
  6
Continuous
 62
     2
100
AcDbLine
 10
3250.091211477554
 20
-1663.729870858127
 30
0.0
 11
3250.091211477554
 21
-1623.229870858127
 31
0.0
  0
LINE
  5
220
330
21D
100
AcDbEntity
  8
1
  6
Continuous
 62
     2
100
AcDbLine
 10
3213.091211477554
 20
-1700.729870858127
 30
0.0
 11
3213.091211477554
 21
-1623.229870858127
 31
0.0
  0
SOLID
  5
221
330
21D
100
AcDbEntity
  8
1
 62
     2
100
AcDbTrace
 10
3244.091211477554
 20
-1625.519785843651
 30
0.0
 11
3244.091211477554
 21
-1623.939955872603
 31
0.0
 12
3250.091211477554
 22
-1624.729870858127
 32
0.0
 13
3250.091211477554
 23
-1624.729870858127
 33
0.0
  0
SOLID
  5
222
330
21D
100
AcDbEntity
  8
1
 62
     2
100
AcDbTrace
 10
3219.091211477554
 20
-1623.939955872603
 30
0.0
 11
3219.091211477554
 21
-1625.519785843651
 31
0.0
 12
3213.091211477554
 22
-1624.729870858127
 32
0.0
 13
3213.091211477554
 23
-1624.729870858127
 33
0.0
  0
MTEXT
  5
223
330
21D
100
AcDbEntity
  8
1
 62
     2
100
AcDbMText
 10
3222.45300581255
 20
-1622.729870858127
 30
0.0
 40
6.0
 41
0.0
 71
     7
 72
     1
  1
\C2;37\C2;\H4;{\Fgdt;`}0.5
  7
CONVERTER_14
 11
0.9999999999970619
 21
2.424068405545306E-6
 31
0.0
 73
     1
 44
0.60024009603842
  0
ENDBLK
  5
225
330
21D
100
AcDbEntity
  8
0
100
AcDbBlockEnd
  0
BLOCK
  5
22F
330
228
100
AcDbEntity
  8
0
100
AcDbBlockBegin
  2
*D15
 70
     1
 10
0.0
 20
0.0
 30
0.0
  3
*D15
  1

  0
LINE
  5
229
330
228
100
AcDbEntity
  8
1
  6
Continuous
 62
     2
100
AcDbLine
 10
3015.051324030246
 20
-1640.729870858127
 30
0.0
 11
3084.651324030247
 21
-1640.729870858127
 31
0.0
  0
LINE
  5
22A
330
228
100
AcDbEntity
  8
1
  6
Continuous
 62
     2
100
AcDbLine
 10
3015.051324030246
 20
-1668.289870858127
 30
0.0
 11
3015.051324030246
 21
-1639.229870858127
 31
0.0
  0
LINE
  5
22B
330
228
100
AcDbEntity
  8
1
  6
Continuous
 62
     2
100
AcDbLine
 10
3084.651324030247
 20
-1668.289870858127
 30
0.0
 11
3084.651324030247
 21
-1639.229870858127
 31
0.0
  0
SOLID
  5
22C
330
228
100
AcDbEntity
  8
1
 62
     2
100
AcDbTrace
 10
3021.051324030246
 20
-1639.939955872603
 30
0.0
 11
3021.051324030246
 21
-1641.519785843651
 31
0.0
 12
3015.051324030246
 22
-1640.729870858127
 32
0.0
 13
3015.051324030246
 23
-1640.729870858127
 33
0.0
  0
SOLID
  5
22D
330
228
100
AcDbEntity
  8
1
 62
     2
100
AcDbTrace
 10
3078.651324030247
 20
-1641.519785843651
 30
0.0
 11
3078.651324030247
 21
-1639.939955872603
 31
0.0
 12
3084.651324030247
 22
-1640.729870858127
 32
0.0
 13
3084.651324030247
 23
-1640.729870858127
 33
0.0
  0
MTEXT
  5
22E
330
228
100
AcDbEntity
  8
1
 62
     2
100
AcDbMText
 10
3035.126324030247
 20
-1638.729870858127
 30
0.0
 40
6.0
 41
0.0
 71
     7
 72
     1
  1
\C2;69.6\C2;\H4;{\Fgdt;`}0.2
  7
CONVERTER_14
 11
0.9999999999970619
 21
2.424068405545306E-6
 31
0.0
 73
     1
 44
0.60024009603842
  0
ENDBLK
  5
230
330
228
100
AcDbEntity
  8
0
100
AcDbBlockEnd
  0
BLOCK
  5
23A
330
233
100
AcDbEntity
  8
0
100
AcDbBlockBegin
  2
*D16
 70
     1
 10
0.0
 20
0.0
 30
0.0
  3
*D16
  1

  0
LINE
  5
234
330
233
100
AcDbEntity
  8
1
  6
Continuous
 62
     2
100
AcDbLine
 10
3108.851324030247
 20
-1672.929870858127
 30
0.0
 11
3108.851324030247
 21
-1742.529870858128
 31
0.0
  0
LINE
  5
235
330
233
100
AcDbEntity
  8
1
  6
Continuous
 62
     2
100
AcDbLine
 10
3089.291324030246
 20
-1672.929870858127
 30
0.0
 11
3110.351324030247
 21
-1672.929870858127
 31
0.0
  0
LINE
  5
236
330
233
100
AcDbEntity
  8
1
  6
Continuous
 62
     2
100
AcDbLine
 10
3089.291324030246
 20
-1742.529870858128
 30
0.0
 11
3110.351324030247
 21
-1742.529870858128
 31
0.0
  0
SOLID
  5
237
330
233
100
AcDbEntity
  8
1
 62
     2
100
AcDbTrace
 10
3109.641239015771
 20
-1678.929870858127
 30
0.0
 11
3108.061409044722
 21
-1678.929870858127
 31
0.0
 12
3108.851324030247
 22
-1672.929870858127
 32
0.0
 13
3108.851324030247
 23
-1672.929870858127
 33
0.0
  0
SOLID
  5
238
330
233
100
AcDbEntity
  8
1
 62
     2
100
AcDbTrace
 10
3108.061409044722
 20
-1736.529870858128
 30
0.0
 11
3109.641239015771
 21
-1736.529870858128
 31
0.0
 12
3108.851324030247
 22
-1742.529870858128
 32
0.0
 13
3108.851324030247
 23
-1742.529870858128
 33
0.0
  0
MTEXT
  5
239
330
233
100
AcDbEntity
  8
1
 62
     2
100
AcDbMText
 10
3106.851324030247
 20
-1722.454870858127
 30
0.0
 40
6.0
 41
0.0
 71
     7
 72
     1
  1
\C2;69.6\C2;\H4;{\Fgdt;`}0.2
  7
CONVERTER_14
 11
0.0
 21
1.0
 31
0.0
 73
     1
 44
0.60024009603842
  0
ENDBLK
  5
23B
330
233
100
AcDbEntity
  8
0
100
AcDbBlockEnd
  0
BLOCK
  5
245
330
23E
100
AcDbEntity
  8
0
100
AcDbBlockBegin
  2
*D17
 70
     1
 10
0.0
 20
0.0
 30
0.0
  3
*D17
  1

  0
LINE
  5
23F
330
23E
100
AcDbEntity
  8
1
  6
Continuous
 62
     2
100
AcDbLine
 10
3006.851324030246
 20
-1624.729870858127
 30
0.0
 11
3092.851324030247
 21
-1624.729870858127
 31
0.0
  0
LINE
  5
240
330
23E
100
AcDbEntity
  8
1
  6
Continuous
 62
     2
100
AcDbLine
 10
3006.851324030246
 20
-1671.729870858127
 30
0.0
 11
3006.851324030246
 21
-1623.229870858127
 31
0.0
  0
LINE
  5
241
330
23E
100
AcDbEntity
  8
1
  6
Continuous
 62
     2
100
AcDbLine
 10
3092.851324030247
 20
-1671.729870858127
 30
0.0
 11
3092.851324030247
 21
-1623.229870858127
 31
0.0
  0
SOLID
  5
242
330
23E
100
AcDbEntity
  8
1
 62
     2
100
AcDbTrace
 10
3012.851324030246
 20
-1623.939955872603
 30
0.0
 11
3012.851324030246
 21
-1625.519785843651
 31
0.0
 12
3006.851324030246
 22
-1624.729870858127
 32
0.0
 13
3006.851324030246
 23
-1624.729870858127
 33
0.0
  0
SOLID
  5
243
330
23E
100
AcDbEntity
  8
1
 62
     2
100
AcDbTrace
 10
3086.851324030247
 20
-1625.519785843651
 30
0.0
 11
3086.851324030247
 21
-1623.939955872603
 31
0.0
 12
3092.851324030247
 22
-1624.729870858127
 32
0.0
 13
3092.851324030247
 23
-1624.729870858127
 33
0.0
  0
MTEXT
  5
244
330
23E
100
AcDbEntity
  8
1
 62
     2
100
AcDbMText
 10
3045.351324030247
 20
-1622.729870858127
 30
0.0
 40
6.0
 41
0.0
 71
     7
 72
     1
  1
86
  7
CONVERTER_14
 11
0.9999999999970619
 21
2.424068405545306E-6
 31
0.0
 73
     1
 44
0.60024009603842
  0
ENDBLK
  5
246
330
23E
100
AcDbEntity
  8
0
100
AcDbBlockEnd
  0
BLOCK
  5
250
330
249
100
AcDbEntity
  8
0
100
AcDbBlockBegin
  2
*D18
 70
     1
 10
0.0
 20
0.0
 30
0.0
  3
*D18
  1

  0
LINE
  5
24A
330
249
100
AcDbEntity
  8
1
  6
Continuous
 62
     2
100
AcDbLine
 10
3124.851324030247
 20
-1664.729870858127
 30
0.0
 11
3124.851324030247
 21
-1750.729870858127
 31
0.0
  0
LINE
  5
24B
330
249
100
AcDbEntity
  8
1
  6
Continuous
 62
     2
100
AcDbLine
 10
3085.851324030247
 20
-1664.729870858127
 30
0.0
 11
3126.351324030247
 21
-1664.729870858127
 31
0.0
  0
LINE
  5
24C
330
249
100
AcDbEntity
  8
1
  6
Continuous
 62
     2
100
AcDbLine
 10
3085.851324030247
 20
-1750.729870858127
 30
0.0
 11
3126.351324030247
 21
-1750.729870858127
 31
0.0
  0
SOLID
  5
24D
330
249
100
AcDbEntity
  8
1
 62
     2
100
AcDbTrace
 10
3125.641239015771
 20
-1670.729870858127
 30
0.0
 11
3124.061409044722
 21
-1670.729870858127
 31
0.0
 12
3124.851324030247
 22
-1664.729870858127
 32
0.0
 13
3124.851324030247
 23
-1664.729870858127
 33
0.0
  0
SOLID
  5
24E
330
249
100
AcDbEntity
  8
1
 62
     2
100
AcDbTrace
 10
3124.061409044722
 20
-1744.729870858127
 30
0.0
 11
3125.641239015771
 21
-1744.729870858127
 31
0.0
 12
3124.851324030247
 22
-1750.729870858127
 32
0.0
 13
3124.851324030247
 23
-1750.729870858127
 33
0.0
  0
MTEXT
  5
24F
330
249
100
AcDbEntity
  8
1
 62
     2
100
AcDbMText
 10
3122.851324030247
 20
-1712.229870858127
 30
0.0
 40
6.0
 41
0.0
 71
     7
 72
     1
  1
86
  7
CONVERTER_14
 11
0.0
 21
1.0
 31
0.0
 73
     1
 44
0.60024009603842
  0
ENDBLK
  5
251
330
249
100
AcDbEntity
  8
0
100
AcDbBlockEnd
  0
BLOCK
  5
25B
330
254
100
AcDbEntity
  8
0
100
AcDbBlockBegin
  2
*D19
 70
     1
 10
0.0
 20
0.0
 30
0.0
  3
*D19
  1

  0
LINE
  5
255
330
254
100
AcDbEntity
  8
1
  6
Continuous
 62
     2
100
AcDbLine
 10
3250.091211477554
 20
-1624.729870858127
 30
0.0
 11
3357.091211477554
 21
-1624.729870858127
 31
0.0
  0
LINE
  5
256
330
254
100
AcDbEntity
  8
1
  6
Continuous
 62
     2
100
AcDbLine
 10
3250.091211477554
 20
-1663.729870858127
 30
0.0
 11
3250.091211477554
 21
-1623.229870858127
 31
0.0
  0
LINE
  5
257
330
254
100
AcDbEntity
  8
1
  6
Continuous
 62
     2
100
AcDbLine
 10
3357.091211477554
 20
-1663.729870858127
 30
0.0
 11
3357.091211477554
 21
-1623.229870858127
 31
0.0
  0
SOLID
  5
258
330
254
100
AcDbEntity
  8
1
 62
     2
100
AcDbTrace
 10
3256.091211477554
 20
-1623.939955872603
 30
0.0
 11
3256.091211477554
 21
-1625.519785843651
 31
0.0
 12
3250.091211477554
 22
-1624.729870858127
 32
0.0
 13
3250.091211477554
 23
-1624.729870858127
 33
0.0
  0
SOLID
  5
259
330
254
100
AcDbEntity
  8
1
 62
     2
100
AcDbTrace
 10
3351.091211477554
 20
-1625.519785843651
 30
0.0
 11
3351.091211477554
 21
-1623.939955872603
 31
0.0
 12
3357.091211477554
 22
-1624.729870858127
 32
0.0
 13
3357.091211477554
 23
-1624.729870858127
 33
0.0
  0
MTEXT
  5
25A
330
254
100
AcDbEntity
  8
1
 62
     2
100
AcDbMText
 10
3302.32898580965
 20
-1622.729870858127
 30
0.0
 40
6.0
 41
0.0
 71
     7
 72
     1
  1
\C2;L\C2;\H4;{\Fgdt;`}1
  7
CONVERTER_14
 11
0.9999999999970619
 21
2.424068405545306E-6
 31
0.0
 73
     1
 44
0.60024009603842
  0
ENDBLK
  5
25C
330
254
100
AcDbEntity
  8
0
100
AcDbBlockEnd
  0
BLOCK
  5
268
330
25F
100
AcDbEntity
  8
0
100
AcDbBlockBegin
  2
*D20
 70
     1
 10
0.0
 20
0.0
 30
0.0
  3
*D20
  1

  0
LINE
  5
260
330
25F
100
AcDbEntity
  8
1
  6
Continuous
 62
     2
100
AcDbLine
 10
3262.091211477554
 20
-1640.729870858127
 30
0.0
 11
3250.091211477554
 21
-1640.729870858127
 31
0.0
  0
LINE
  5
261
330
25F
100
AcDbEntity
  8
1
  6
Continuous
 62
     2
100
AcDbLine
 10
3250.091211477554
 20
-1640.729870858127
 30
0.0
 11
3248.591211477554
 21
-1640.729870858127
 31
0.0
  0
LINE
  5
262
330
25F
100
AcDbEntity
  8
1
  6
Continuous
 62
     2
100
AcDbLine
 10
3248.591211477554
 20
-1640.729870858127
 30
0.0
 11
3225.49927086794
 21
-1640.729870858127
 31
0.0
  0
LINE
  5
263
330
25F
100
AcDbEntity
  8
1
  6
Continuous
 62
     2
100
AcDbLine
 10
3250.091211477554
 20
-1663.729870858127
 30
0.0
 11
3250.091211477554
 21
-1639.229870858127
 31
0.0
  0
LINE
  5
264
330
25F
100
AcDbEntity
  8
1
  6
Continuous
 62
     2
100
AcDbLine
 10
3248.591211477554
 20
-1670.229870858127
 30
0.0
 11
3248.591211477554
 21
-1639.229870858127
 31
0.0
  0
SOLID
  5
265
330
25F
100
AcDbEntity
  8
1
 62
     2
100
AcDbTrace
 10
3256.091211477554
 20
-1639.939955872603
 30
0.0
 11
3256.091211477554
 21
-1641.519785843651
 31
0.0
 12
3250.091211477554
 22
-1640.729870858127
 32
0.0
 13
3250.091211477554
 23
-1640.729870858127
 33
0.0
  0
SOLID
  5
266
330
25F
100
AcDbEntity
  8
1
 62
     2
100
AcDbTrace
 10
3242.591211477554
 20
-1641.519785843651
 30
0.0
 11
3242.591211477554
 21
-1639.939955872603
 31
0.0
 12
3248.591211477554
 22
-1640.729870858127
 32
0.0
 13
3248.591211477554
 23
-1640.729870858127
 33
0.0
  0
MTEXT
  5
267
330
25F
100
AcDbEntity
  8
1
 62
     2
100
AcDbMText
 10
3225.49927086794
 20
-1638.729870858127
 30
0.0
 40
6.0
 41
0.0
 71
     7
 72
     1
  1
\C2;1.5\C2;\H4;{\Fgdt;`}0.2
  7
CONVERTER_14
 11
0.9999999999970619
 21
2.424068405545306E-6
 31
0.0
 73
     1
 44
0.60024009603842
  0
ENDBLK
  5
269
330
25F
100
AcDbEntity
  8
0
100
AcDbBlockEnd
  0
BLOCK
  5
273
330
26C
100
AcDbEntity
  8
0
100
AcDbBlockBegin
  2
*D21
 70
     1
 10
0.0
 20
0.0
 30
0.0
  3
*D21
  1

  0
LINE
  5
26D
330
26C
100
AcDbEntity
  8
1
  6
Continuous
 62
     2
100
AcDbLine
 10
3181.091211477554
 20
-1671.229870858127
 30
0.0
 11
3181.091211477554
 21
-1744.229870858127
 31
0.0
  0
LINE
  5
26E
330
26C
100
AcDbEntity
  8
1
  6
Continuous
 62
     2
100
AcDbLine
 10
3247.591211477554
 20
-1671.229870858127
 30
0.0
 11
3179.591211477554
 21
-1671.229870858127
 31
0.0
  0
LINE
  5
26F
330
26C
100
AcDbEntity
  8
1
  6
Continuous
 62
     2
100
AcDbLine
 10
3247.591211477554
 20
-1744.229870858127
 30
0.0
 11
3179.591211477554
 21
-1744.229870858127
 31
0.0
  0
SOLID
  5
270
330
26C
100
AcDbEntity
  8
1
 62
     2
100
AcDbTrace
 10
3181.881126463079
 20
-1677.229870858127
 30
0.0
 11
3180.30129649203
 21
-1677.229870858127
 31
0.0
 12
3181.091211477554
 22
-1671.229870858127
 32
0.0
 13
3181.091211477554
 23
-1671.229870858127
 33
0.0
  0
SOLID
  5
271
330
26C
100
AcDbEntity
  8
1
 62
     2
100
AcDbTrace
 10
3180.30129649203
 20
-1738.229870858127
 30
0.0
 11
3181.881126463079
 21
-1738.229870858127
 31
0.0
 12
3181.091211477554
 22
-1744.229870858127
 32
0.0
 13
3181.091211477554
 23
-1744.229870858127
 33
0.0
  0
MTEXT
  5
272
330
26C
100
AcDbEntity
  8
1
 62
     2
100
AcDbMText
 10
3179.091211477554
 20
-1732.962370858127
 30
0.0
 40
6.0
 41
0.0
 71
     7
 72
     1
  1
\C2;\U+03c6\C2;\C2;73.025\C2;\H4;{\Fgdt;`}0.025
  7
CONVERTER_14
 11
0.0
 21
1.0
 31
0.0
 73
     1
 44
0.60024009603842
  0
ENDBLK
  5
274
330
26C
100
AcDbEntity
  8
0
100
AcDbBlockEnd
  0
BLOCK
  5
280
330
277
100
AcDbEntity
  8
0
100
AcDbBlockBegin
  2
*D22
 70
     1
 10
0.0
 20
0.0
 30
0.0
  3
*D22
  1

  0
LINE
  5
278
330
277
100
AcDbEntity
  8
1
  6
Continuous
 62
     2
100
AcDbLine
 10
3279.62170495878
 20
-1656.729870858127
 30
0.0
 11
3258.091211477554
 21
-1656.729870858127
 31
0.0
  0
LINE
  5
279
330
277
100
AcDbEntity
  8
1
  6
Continuous
 62
     2
100
AcDbLine
 10
3258.091211477554
 20
-1656.729870858127
 30
0.0
 11
3250.091211477554
 21
-1656.729870858127
 31
0.0
  0
LINE
  5
27A
330
277
100
AcDbEntity
  8
1
  6
Continuous
 62
     2
100
AcDbLine
 10
3250.091211477554
 20
-1656.729870858127
 30
0.0
 11
3238.091211477554
 21
-1656.729870858127
 31
0.0
  0
LINE
  5
27B
330
277
100
AcDbEntity
  8
1
  6
Continuous
 62
     2
100
AcDbLine
 10
3258.091211477554
 20
-1663.729870858127
 30
0.0
 11
3258.091211477554
 21
-1655.229870858127
 31
0.0
  0
LINE
  5
27C
330
277
100
AcDbEntity
  8
1
  6
Continuous
 62
     2
100
AcDbLine
 10
3250.091211477554
 20
-1663.729870858127
 30
0.0
 11
3250.091211477554
 21
-1655.229870858127
 31
0.0
  0
SOLID
  5
27D
330
277
100
AcDbEntity
  8
1
 62
     2
100
AcDbTrace
 10
3264.091211477554
 20
-1655.939955872603
 30
0.0
 11
3264.091211477554
 21
-1657.519785843651
 31
0.0
 12
3258.091211477554
 22
-1656.729870858127
 32
0.0
 13
3258.091211477554
 23
-1656.729870858127
 33
0.0
  0
SOLID
  5
27E
330
277
100
AcDbEntity
  8
1
 62
     2
100
AcDbTrace
 10
3244.091211477554
 20
-1657.519785843651
 30
0.0
 11
3244.091211477554
 21
-1655.939955872603
 31
0.0
 12
3250.091211477554
 22
-1656.729870858127
 32
0.0
 13
3250.091211477554
 23
-1656.729870858127
 33
0.0
  0
MTEXT
  5
27F
330
277
100
AcDbEntity
  8
1
 62
     2
100
AcDbMText
 10
3262.92170495878
 20
-1654.729870858127
 30
0.0
 40
6.0
 41
0.0
 71
     7
 72
     1
  1
\C2;8\C2;\H4;{\Fgdt;`}0.5
  7
CONVERTER_14
 11
0.9999999999970619
 21
2.424068405545306E-6
 31
0.0
 73
     1
 44
0.60024009603842
  0
ENDBLK
  5
281
330
277
100
AcDbEntity
  8
0
100
AcDbBlockEnd
  0
BLOCK
  5
28D
330
284
100
AcDbEntity
  8
0
100
AcDbBlockBegin
  2
*D23
 70
     1
 10
0.0
 20
0.0
 30
0.0
  3
*D23
  1

  0
LINE
  5
285
330
284
100
AcDbEntity
  8
1
  6
Continuous
 62
     2
100
AcDbLine
 10
3197.091211477554
 20
-1688.729870858127
 30
0.0
 11
3197.091211477554
 21
-1700.729870858127
 31
0.0
  0
LINE
  5
286
330
284
100
AcDbEntity
  8
1
  6
Continuous
 62
     2
100
AcDbLine
 10
3197.091211477554
 20
-1700.729870858127
 30
0.0
 11
3197.091211477554
 21
-1714.729870858127
 31
0.0
  0
LINE
  5
287
330
284
100
AcDbEntity
  8
1
  6
Continuous
 62
     2
100
AcDbLine
 10
3197.091211477554
 20
-1714.729870858127
 30
0.0
 11
3197.091211477554
 21
-1726.729870858127
 31
0.0
  0
LINE
  5
288
330
284
100
AcDbEntity
  8
1
  6
Continuous
 62
     2
100
AcDbLine
 10
3237.091211477554
 20
-1700.729870858127
 30
0.0
 11
3195.591211477554
 21
-1700.729870858127
 31
0.0
  0
LINE
  5
289
330
284
100
AcDbEntity
  8
1
  6
Continuous
 62
     2
100
AcDbLine
 10
3212.891211477554
 20
-1714.729870858127
 30
0.0
 11
3195.591211477554
 21
-1714.729870858127
 31
0.0
  0
SOLID
  5
28A
330
284
100
AcDbEntity
  8
1
 62
     2
100
AcDbTrace
 10
3196.30129649203
 20
-1694.729870858127
 30
0.0
 11
3197.881126463079
 21
-1694.729870858127
 31
0.0
 12
3197.091211477554
 22
-1700.729870858127
 32
0.0
 13
3197.091211477554
 23
-1700.729870858127
 33
0.0
  0
SOLID
  5
28B
330
284
100
AcDbEntity
  8
1
 62
     2
100
AcDbTrace
 10
3197.881126463079
 20
-1720.729870858127
 30
0.0
 11
3196.30129649203
 21
-1720.729870858127
 31
0.0
 12
3197.091211477554
 22
-1714.729870858127
 32
0.0
 13
3197.091211477554
 23
-1714.729870858127
 33
0.0
  0
MTEXT
  5
28C
330
284
100
AcDbEntity
  8
1
 62
     2
100
AcDbMText
 10
3193.091211477554
 20
-1722.587370858127
 30
0.0
 40
6.0
 41
0.0
 71
     7
 72
     1
  1
\C2;\U+03c6\C2;\C2;14\C2;\H4;\S 0^ -0.018;
  7
CONVERTER_14
 11
0.0
 21
1.0
 31
0.0
 73
     1
 44
0.60024009603842
  0
ENDBLK
  5
28E
330
284
100
AcDbEntity
  8
0
100
AcDbBlockEnd
  0
BLOCK
  5
298
330
291
100
AcDbEntity
  8
0
100
AcDbBlockBegin
  2
*D24
 70
     1
 10
0.0
 20
0.0
 30
0.0
  3
*D24
  1

  0
LINE
  5
292
330
291
100
AcDbEntity
  8
1
  6
Continuous
 62
     2
100
AcDbLine
 10
3213.091211477554
 20
-1684.729870858127
 30
0.0
 11
3238.091211477554
 21
-1684.729870858127
 31
0.0
  0
LINE
  5
293
330
291
100
AcDbEntity
  8
1
  6
Continuous
 62
     2
100
AcDbLine
 10
3213.091211477554
 20
-1700.729870858127
 30
0.0
 11
3213.091211477554
 21
-1683.229870858127
 31
0.0
  0
LINE
  5
294
330
291
100
AcDbEntity
  8
1
  6
Continuous
 62
     2
100
AcDbLine
 10
3238.091211477554
 20
-1699.729870858127
 30
0.0
 11
3238.091211477554
 21
-1683.229870858127
 31
0.0
  0
SOLID
  5
295
330
291
100
AcDbEntity
  8
1
 62
     2
100
AcDbTrace
 10
3219.091211477554
 20
-1683.939955872603
 30
0.0
 11
3219.091211477554
 21
-1685.519785843651
 31
0.0
 12
3213.091211477554
 22
-1684.729870858127
 32
0.0
 13
3213.091211477554
 23
-1684.729870858127
 33
0.0
  0
SOLID
  5
296
330
291
100
AcDbEntity
  8
1
 62
     2
100
AcDbTrace
 10
3232.091211477554
 20
-1685.519785843651
 30
0.0
 11
3232.091211477554
 21
-1683.939955872603
 31
0.0
 12
3238.091211477554
 22
-1684.729870858127
 32
0.0
 13
3238.091211477554
 23
-1684.729870858127
 33
0.0
  0
MTEXT
  5
297
330
291
100
AcDbEntity
  8
1
 62
     2
100
AcDbMText
 10
3215.05928716019
 20
-1682.729870858127
 30
0.0
 40
6.0
 41
0.0
 71
     7
 72
     1
  1
\C2;25\C2;\H4;{\Fgdt;`}0.25
  7
CONVERTER_14
 11
0.9999999999970619
 21
2.424068405545306E-6
 31
0.0
 73
     1
 44
0.60024009603842
  0
ENDBLK
  5
299
330
291
100
AcDbEntity
  8
0
100
AcDbBlockEnd
  0
BLOCK
  5
2A5
330
29C
100
AcDbEntity
  8
0
100
AcDbBlockBegin
  2
*D25
 70
     1
 10
0.0
 20
0.0
 30
0.0
  3
*D25
  1

  0
LINE
  5
29D
330
29C
100
AcDbEntity
  8
1
  6
Continuous
 62
     2
100
AcDbLine
 10
3199.42349910317
 20
-1777.76715699059
 30
0.0
 11
3199.42349910317
 21
-1789.76715699059
 31
0.0
  0
LINE
  5
29E
330
29C
100
AcDbEntity
  8
1
  6
Continuous
 62
     2
100
AcDbLine
 10
3199.42349910317
 20
-1789.76715699059
 30
0.0
 11
3199.42349910317
 21
-1802.76715699059
 31
0.0
  0
LINE
  5
29F
330
29C
100
AcDbEntity
  8
1
  6
Continuous
 62
     2
100
AcDbLine
 10
3199.42349910317
 20
-1802.76715699059
 30
0.0
 11
3199.42349910317
 21
-1814.76715699059
 31
0.0
  0
LINE
  5
2A0
330
29C
100
AcDbEntity
  8
1
  6
Continuous
 62
     2
100
AcDbLine
 10
3216.817947827706
 20
-1789.76715699059
 30
0.0
 11
3197.92349910317
 21
-1789.76715699059
 31
0.0
  0
LINE
  5
2A1
330
29C
100
AcDbEntity
  8
1
  6
Continuous
 62
     2
100
AcDbLine
 10
3220.42349910317
 20
-1802.76715699059
 30
0.0
 11
3197.92349910317
 21
-1802.76715699059
 31
0.0
  0
SOLID
  5
2A2
330
29C
100
AcDbEntity
  8
1
 62
     2
100
AcDbTrace
 10
3198.633584117646
 20
-1783.76715699059
 30
0.0
 11
3200.213414088694
 21
-1783.76715699059
 31
0.0
 12
3199.42349910317
 22
-1789.76715699059
 32
0.0
 13
3199.42349910317
 23
-1789.76715699059
 33
0.0
  0
SOLID
  5
2A3
330
29C
100
AcDbEntity
  8
1
 62
     2
100
AcDbTrace
 10
3200.213414088694
 20
-1808.76715699059
 30
0.0
 11
3198.633584117646
 21
-1808.76715699059
 31
0.0
 12
3199.42349910317
 22
-1802.76715699059
 32
0.0
 13
3199.42349910317
 23
-1802.76715699059
 33
0.0
  0
MTEXT
  5
2A4
330
29C
100
AcDbEntity
  8
1
 62
     2
100
AcDbMText
 10
3197.42349910317
 20
-1813.75802247225
 30
0.0
 40
6.0
 41
0.0
 71
     7
 72
     1
  1
\C2;13\C2;\H4;{\Fgdt;`}0.15
  7
CONVERTER_14
 11
0.0
 21
1.0
 31
0.0
 73
     1
 44
0.60024009603842
  0
ENDBLK
  5
2A6
330
29C
100
AcDbEntity
  8
0
100
AcDbBlockEnd
  0
BLOCK
  5
2B2
330
2A9
100
AcDbEntity
  8
0
100
AcDbBlockBegin
  2
*D26
 70
     1
 10
0.0
 20
0.0
 30
0.0
  3
*D26
  1

  0
LINE
  5
2AA
330
2A9
100
AcDbEntity
  8
1
  6
Continuous
 62
     2
100
AcDbLine
 10
3203.42349910317
 20
-1773.76715699059
 30
0.0
 11
3215.42349910317
 21
-1773.76715699059
 31
0.0
  0
LINE
  5
2AB
330
2A9
100
AcDbEntity
  8
1
  6
Continuous
 62
     2
100
AcDbLine
 10
3215.42349910317
 20
-1773.76715699059
 30
0.0
 11
3228.42349910317
 21
-1773.76715699059
 31
0.0
  0
LINE
  5
2AC
330
2A9
100
AcDbEntity
  8
1
  6
Continuous
 62
     2
100
AcDbLine
 10
3228.42349910317
 20
-1773.76715699059
 30
0.0
 11
3240.42349910317
 21
-1773.76715699059
 31
0.0
  0
LINE
  5
2AD
330
2A9
100
AcDbEntity
  8
1
  6
Continuous
 62
     2
100
AcDbLine
 10
3215.42349910317
 20
-1791.161605715126
 30
0.0
 11
3215.42349910317
 21
-1772.26715699059
 31
0.0
  0
LINE
  5
2AE
330
2A9
100
AcDbEntity
  8
1
  6
Continuous
 62
     2
100
AcDbLine
 10
3228.42349910317
 20
-1794.76715699059
 30
0.0
 11
3228.42349910317
 21
-1772.26715699059
 31
0.0
  0
SOLID
  5
2AF
330
2A9
100
AcDbEntity
  8
1
 62
     2
100
AcDbTrace
 10
3209.42349910317
 20
-1774.557071976114
 30
0.0
 11
3209.42349910317
 21
-1772.977242005066
 31
0.0
 12
3215.42349910317
 22
-1773.76715699059
 32
0.0
 13
3215.42349910317
 23
-1773.76715699059
 33
0.0
  0
SOLID
  5
2B0
330
2A9
100
AcDbEntity
  8
1
 62
     2
100
AcDbTrace
 10
3234.42349910317
 20
-1772.977242005066
 30
0.0
 11
3234.42349910317
 21
-1774.557071976114
 31
0.0
 12
3228.42349910317
 22
-1773.76715699059
 32
0.0
 13
3228.42349910317
 23
-1773.76715699059
 33
0.0
  0
MTEXT
  5
2B1
330
2A9
100
AcDbEntity
  8
1
 62
     2
100
AcDbMText
 10
3215.93530951871
 20
-1771.76715699059
 30
0.0
 40
6.0
 41
0.0
 71
     7
 72
     1
  1
\C2;13\C2;\H4;{\Fgdt;`}0.15
  7
CONVERTER_14
 11
0.9999999999970619
 21
2.424068405545306E-6
 31
0.0
 73
     1
 44
0.60024009603842
  0
ENDBLK
  5
2B3
330
2A9
100
AcDbEntity
  8
0
100
AcDbBlockEnd
  0
BLOCK
  5
2BB
330
2B6
100
AcDbEntity
  8
0
100
AcDbBlockBegin
  2
*D27
 70
     1
 10
0.0
 20
0.0
 30
0.0
  3
*D27
  1

  0
LINE
  5
2B7
330
2B6
100
AcDbEntity
  8
1
  6
Continuous
 62
     2
100
AcDbLine
 10
3085.945463654282
 20
-1670.446888249752
 30
0.0
 11
3101.43408189306
 21
-1640.729870858127
 31
0.0
  0
LINE
  5
2B8
330
2B6
100
AcDbEntity
  8
1
  6
Continuous
 62
     2
100
AcDbLine
 10
3101.43408189306
 20
-1640.729870858127
 30
0.0
 11
3147.15908189306
 21
-1640.729870858127
 31
0.0
  0
SOLID
  5
2B9
330
2B6
100
AcDbEntity
  8
1
 62
     2
100
AcDbTrace
 10
3088.018139573233
 20
-1664.761118273807
 30
0.0
 11
3089.419100409771
 21
-1665.491304189797
 31
0.0
 12
3085.945463654282
 22
-1670.446888249752
 32
0.0
 13
3085.945463654282
 23
-1670.446888249752
 33
0.0
  0
MTEXT
  5
2BA
330
2B6
100
AcDbEntity
  8
1
 62
     2
100
AcDbMText
 10
3113.274081893104
 20
-1638.729906637377
 30
0.0
 40
6.0
 41
0.0
 71
     7
 72
     1
  1
\C2;4\U+00d7{\Fgdt;n}\C2;5.6\C2;\U+7a74
  7
CONVERTER_14
 11
0.9999999999970619
 21
2.424068405545306E-6
 31
0.0
 73
     1
 44
0.60024009603842
  0
ENDBLK
  5
2BC
330
2B6
100
AcDbEntity
  8
0
100
AcDbBlockEnd
  0
BLOCK
  5
2C7
330
2BE
100
AcDbEntity
  8
0
100
AcDbBlockBegin
  2
*D28
 70
     1
 10
0.0
 20
0.0
 30
0.0
  3
*D28
  1

  0
LINE
  5
2BF
330
2BE
100
AcDbEntity
  8
1
  6
Continuous
 62
     2
100
AcDbLine
 10
3215.42349910317
 20
-1765.420711746308
 30
0.0
 11
3215.42349910317
 21
-1763.920711746308
 31
0.0
  0
LINE
  5
2C0
330
2BE
100
AcDbEntity
  8
1
  6
Continuous
 62
     2
100
AcDbLine
 10
3191.077053858889
 20
-1789.76715699059
 30
0.0
 11
3189.577053858889
 21
-1789.76715699059
 31
0.0
  0
LINE
  5
2C1
330
2BE
100
AcDbEntity
  8
1
  6
Continuous
 62
     2
100
AcDbLine
 10
3215.42349910317
 20
-1791.161605715126
 30
0.0
 11
3215.42349910317
 21
-1765.420711746308
 31
0.0
  0
LINE
  5
2C2
330
2BE
100
AcDbEntity
  8
1
  6
Continuous
 62
     2
100
AcDbLine
 10
3216.817947827706
 20
-1789.76715699059
 30
0.0
 11
3191.077053858889
 21
-1789.76715699059
 31
0.0
  0
ARC
  5
2C3
330
2BE
100
AcDbEntity
  8
1
  6
Continuous
 62
     2
100
AcDbCircle
 10
3215.42349910317
 20
-1789.76715699059
 30
0.0
 40
24.34644524428131
100
AcDbArc
 50
90.0
 51
180.0
  0
SOLID
  5
2C4
330
2BE
100
AcDbEntity
  8
1
 62
     2
100
AcDbTrace
 10
3209.566080150318
 20
-1766.942095621313
 30
0.0
 11
3209.371903739452
 21
-1765.374244142732
 31
0.0
 12
3215.42349910317
 22
-1765.420711746308
 32
0.0
 13
3215.42349910317
 23
-1765.420711746308
 33
0.0
  0
SOLID
  5
2C5
330
2BE
100
AcDbEntity
  8
1
 62
     2
100
AcDbTrace
 10
3191.030586255313
 20
-1783.715561626872
 30
0.0
 11
3192.598437733893
 21
-1783.909738037737
 31
0.0
 12
3191.077053858889
 22
-1789.76715699059
 32
0.0
 13
3191.077053858889
 23
-1789.76715699059
 33
0.0
  0
MTEXT
  5
2C6
330
2BE
100
AcDbEntity
  8
1
 62
     2
100
AcDbMText
 10
3192.258228301022
 20
-1775.587403619212
 30
0.0
 40
6.0
 41
0.0
 71
     7
 72
     1
  1
90{\Fgdt;~}
  7
CONVERTER_14
 11
0.7136780874785474
 21
0.7004738306696138
 31
0.0
 73
     1
 44
0.60024009603842
  0
ENDBLK
  5
2C8
330
2BE
100
AcDbEntity
  8
0
100
AcDbBlockEnd
  0
BLOCK
  5
2D0
330
2CB
100
AcDbEntity
  8
0
100
AcDbBlockBegin
  2
*D29
 70
     1
 10
0.0
 20
0.0
 30
0.0
  3
*D29
  1

  0
LINE
  5
2CC
330
2CB
100
AcDbEntity
  8
1
  6
Continuous
 62
     2
100
AcDbLine
 10
3434.281036945752
 20
-1719.143692977211
 30
0.0
 11
3425.59844477868
 21
-1727.826285144295
 31
0.0
  0
LINE
  5
2CD
330
2CB
100
AcDbEntity
  8
1
  6
Continuous
 62
     2
100
AcDbLine
 10
3430.574321607848
 20
-1715.436977639313
 30
0.0
 11
3435.341697117532
 21
-1720.20435314899
 31
0.0
  0
SOLID
  5
2CE
330
2CB
100
AcDbEntity
  8
1
 62
     2
100
AcDbTrace
 10
3432.31619084213
 20
-1721.704330273183
 30
0.0
 11
3431.720399649782
 21
-1721.108539080836
 31
0.0
 12
3434.281036945752
 22
-1719.143692977211
 32
0.0
 13
3434.281036945752
 23
-1719.143692977211
 33
0.0
  0
MTEXT
  5
2CF
330
2CB
100
AcDbEntity
  8
1
 62
     2
100
AcDbMText
 10
3424.817798892248
 20
-1725.77850390598
 30
0.0
 40
3.2
 41
0.0
 71
     7
 72
     1
  1
\C2;C\C2;0.8
  7
CONVERTER_14
 11
0.7071067811860383
 21
0.7071067811870567
 31
0.0
 73
     1
 44
0.60024009603842
  0
ENDBLK
  5
2D1
330
2CB
100
AcDbEntity
  8
0
100
AcDbBlockEnd
  0
BLOCK
  5
2D8
330
2D3
100
AcDbEntity
  8
0
100
AcDbBlockBegin
  2
*D30
 70
     1
 10
0.0
 20
0.0
 30
0.0
  3
*D30
  1

  0
LINE
  5
2D4
330
2D3
100
AcDbEntity
  8
1
  6
Continuous
 62
     2
100
AcDbLine
 10
3604.935657225843
 20
-1716.061428458945
 30
0.0
 11
3614.947644458934
 21
-1726.073415692032
 31
0.0
  0
LINE
  5
2D5
330
2D3
100
AcDbEntity
  8
1
  6
Continuous
 62
     2
100
AcDbLine
 10
3605.560108045474
 20
-1715.436977639314
 30
0.0
 11
3603.874997054064
 21
-1717.122088630725
 31
0.0
  0
SOLID
  5
2D6
330
2D3
100
AcDbEntity
  8
1
 62
     2
100
AcDbTrace
 10
3607.496294521814
 20
-1718.026274562568
 30
0.0
 11
3606.900503329467
 21
-1718.622065754915
 31
0.0
 12
3604.935657225843
 22
-1716.061428458945
 32
0.0
 13
3604.935657225843
 23
-1716.061428458945
 33
0.0
  0
MTEXT
  5
2D7
330
2D3
100
AcDbEntity
  8
1
 62
     2
100
AcDbMText
 10
3610.376906225343
 20
-1718.674250333697
 30
0.0
 40
3.2
 41
0.0
 71
     7
 72
     1
  1
\C2;C\C2;0.8
  7
CONVERTER_14
 11
0.7071067811866519
 21
-0.7071067811864431
 31
0.0
 73
     1
 44
0.60024009603842
  0
ENDBLK
  5
2D9
330
2D3
100
AcDbEntity
  8
0
100
AcDbBlockEnd
  0
BLOCK
  5
2E0
330
2DB
100
AcDbEntity
  8
0
100
AcDbBlockBegin
  2
*D31
 70
     1
 10
0.0
 20
0.0
 30
0.0
  3
*D31
  1

  0
LINE
  5
2DC
330
2DB
100
AcDbEntity
  8
1
  6
Continuous
 62
     2
100
AcDbLine
 10
3217.265663017956
 20
-1718.104322398527
 30
0.0
 11
3206.195474391698
 21
-1729.174511024795
 31
0.0
  0
LINE
  5
2DD
330
2DB
100
AcDbEntity
  8
1
  6
Continuous
 62
     2
100
AcDbLine
 10
3214.59831825874
 20
-1715.436977639314
 30
0.0
 11
3218.326323189737
 21
-1719.164982570307
 31
0.0
  0
SOLID
  5
2DE
330
2DB
100
AcDbEntity
  8
1
 62
     2
100
AcDbTrace
 10
3215.300816914334
 20
-1720.664959694499
 30
0.0
 11
3214.705025721987
 21
-1720.069168502152
 31
0.0
 12
3217.265663017956
 22
-1718.104322398527
 32
0.0
 13
3217.265663017956
 23
-1718.104322398527
 33
0.0
  0
MTEXT
  5
2DF
330
2DB
100
AcDbEntity
  8
1
 62
     2
100
AcDbMText
 10
3205.414828505267
 20
-1727.126729786479
 30
0.0
 40
3.2
 41
0.0
 71
     7
 72
     1
  1
\C2;C\C2;0.8
  7
CONVERTER_14
 11
0.7071067811862642
 21
0.7071067811868307
 31
0.0
 73
     1
 44
0.60024009603842
  0
ENDBLK
  5
2E1
330
2DB
100
AcDbEntity
  8
0
100
AcDbBlockEnd
  0
ENDSEC
  0
SECTION
  2
ENTITIES
  0
INSERT
  5
50
330
1F
100
AcDbEntity
  8
1
100
AcDbBlockReference
  2
_2__1
 10
3481.06721482666
 20
-1750.729870858127
 30
0.0
  0
INSERT
  5
51
330
1F
100
AcDbEntity
  8
1
100
AcDbBlockReference
  2
_2__2
 10
3265.091211477554
 20
-1750.729870858127
 30
0.0
  0
INSERT
  5
52
330
1F
100
AcDbEntity
  8
1
100
AcDbBlockReference
  2
»×ÈM4_Í²ÒÝ½_
 10
3640.512168534573
 20
-1242.880756132746
 30
0.0
  0
LINE
  5
D5
330
1F
100
AcDbEntity
  8
1
  6
Continuous
 62
     3
100
AcDbLine
 10
3437.399502452276
 20
-1719.729870858127
 30
0.0
 11
3437.399502452276
 21
-1725.729870858127
 31
0.0
  0
LINE
  5
D6
330
1F
100
AcDbEntity
  8
1
  6
Continuous
 62
     1
100
AcDbLine
 10
3437.399502452276
 20
-1695.729870858127
 30
0.0
 11
3437.399502452276
 21
-1719.729870858127
 31
0.0
  0
LINE
  5
D7
330
1F
100
AcDbEntity
  8
1
  6
Continuous
 62
     3
100
AcDbLine
 10
3437.399502452276
 20
-1689.729870858127
 30
0.0
 11
3437.399502452276
 21
-1695.729870858127
 31
0.0
  0
LINE
  5
D8
330
1F
100
AcDbEntity
  8
1
  6
Continuous
 62
     3
100
AcDbLine
 10
3454.06721482666
 20
-1701.729870858127
 30
0.0
 11
3429.06721482666
 21
-1701.729870858127
 31
0.0
  0
LINE
  5
D9
330
1F
100
AcDbEntity
  8
1
  6
Continuous
 62
     3
100
AcDbLine
 10
3454.06721482666
 20
-1700.729870858127
 30
0.0
 11
3454.06721482666
 21
-1701.729870858127
 31
0.0
  0
LINE
  5
DA
330
1F
100
AcDbEntity
  8
1
  6
Continuous
 62
     3
100
AcDbLine
 10
3429.86721482666
 20
-1711.335422133591
 30
0.0
 11
3429.86721482666
 21
-1714.729870858127
 31
0.0
  0
LINE
  5
DB
330
1F
100
AcDbEntity
  8
1
  6
Continuous
 62
     3
100
AcDbLine
 10
3454.06721482666
 20
-1711.335422133591
 30
0.0
 11
3429.06721482666
 21
-1711.335422133591
 31
0.0
  0
LINE
  5
DC
330
1F
100
AcDbEntity
  8
1
  6
Continuous
 62
     3
100
AcDbLine
 10
3454.06721482666
 20
-1704.124319582663
 30
0.0
 11
3454.06721482666
 21
-1711.335422133591
 31
0.0
  0
LINE
  5
DD
330
1F
100
AcDbEntity
  8
1
  6
Continuous
 62
     3
100
AcDbLine
 10
3429.06721482666
 20
-1704.124319582663
 30
0.0
 11
3454.06721482666
 21
-1704.124319582663
 31
0.0
  0
LINE
  5
DE
330
1F
100
AcDbEntity
  8
1
  6
Continuous
 62
     2
100
AcDbLine
 10
3454.06721482666
 20
-1704.124319582663
 30
0.0
 11
3429.06721482666
 21
-1711.335422133591
 31
0.0
  0
LINE
  5
DF
330
1F
100
AcDbEntity
  8
1
  6
Continuous
 62
     2
100
AcDbLine
 10
3429.06721482666
 20
-1704.124319582663
 30
0.0
 11
3454.06721482666
 21
-1711.335422133591
 31
0.0
  0
LINE
  5
E0
330
1F
100
AcDbEntity
  8
1
  6
Continuous
 62
     3
100
AcDbLine
 10
3464.56721482666
 20
-1714.729870858127
 30
0.0
 11
3429.86721482666
 21
-1714.729870858127
 31
0.0
  0
LINE
  5
E1
330
1F
100
AcDbEntity
  8
1
  6
Continuous
 62
     3
100
AcDbLine
 10
3429.86721482666
 20
-1701.729870858127
 30
0.0
 11
3429.86721482666
 21
-1704.124319582663
 31
0.0
  0
LINE
  5
E2
330
1F
100
AcDbEntity
  8
1
  6
Continuous
 62
     3
100
AcDbLine
 10
3464.56721482666
 20
-1700.729870858127
 30
0.0
 11
3454.06721482666
 21
-1700.729870858127
 31
0.0
  0
LINE
  5
E3
330
1F
100
AcDbEntity
  8
1
  6
Continuous
 62
     3
100
AcDbLine
 10
3429.06721482666
 20
-1713.929870858128
 30
0.0
 11
3429.86721482666
 21
-1714.729870858127
 31
0.0
  0
LINE
  5
E4
330
1F
100
AcDbEntity
  8
1
  6
Continuous
 62
     3
100
AcDbLine
 10
3429.06721482666
 20
-1701.729870858127
 30
0.0
 11
3429.06721482666
 21
-1713.929870858128
 31
0.0
  0
LINE
  5
E5
330
1F
100
AcDbEntity
  8
1
  6
Continuous
 62
     1
100
AcDbLine
 10
3419.254486657534
 20
-1707.729870858127
 30
0.0
 11
3612.06721482666
 21
-1707.729870858127
 31
0.0
  0
LINE
  5
E6
330
1F
100
AcDbEntity
  8
1
  6
Continuous
 62
     1
100
AcDbLine
 10
3478.887248938243
 20
-1742.529870858127
 30
0.0
 11
3458.737048670442
 21
-1742.529870858127
 31
0.0
  0
LINE
  5
E7
330
1F
100
AcDbEntity
  8
1
  6
Continuous
 62
     1
100
AcDbLine
 10
3458.737048670442
 20
-1672.929870858127
 30
0.0
 11
3478.887248938243
 21
-1672.929870858127
 31
0.0
  0
LINE
  5
E8
330
1F
100
AcDbEntity
  8
1
  6
Continuous
 62
     3
100
AcDbLine
 10
3565.667214826659
 20
-1752.229870858127
 30
0.0
 11
3565.667214826659
 21
-1762.521065671824
 31
0.0
  0
LINE
  5
E9
330
1F
100
AcDbEntity
  8
1
  6
Continuous
 62
     3
100
AcDbLine
 10
3562.467214826658
 20
-1752.229870858127
 30
0.0
 11
3562.467214826658
 21
-1761.717168124672
 31
0.0
  0
LINE
  5
EA
330
1F
100
AcDbEntity
  8
1
  6
Continuous
 62
     3
100
AcDbLine
 10
3566.567214826658
 20
-1752.229870858127
 30
0.0
 11
3566.567214826658
 21
-1762.264732101928
 31
0.0
  0
LINE
  5
EB
330
1F
100
AcDbEntity
  8
1
  6
Continuous
 62
     3
100
AcDbLine
 10
3561.567214826658
 20
-1752.229870858127
 30
0.0
 11
3561.567214826658
 21
-1761.747539870478
 31
0.0
  0
LINE
  5
EC
330
1F
100
AcDbEntity
  8
1
  6
Continuous
 62
     3
100
AcDbLine
 10
3564.067214826658
 20
-1752.229870858127
 30
0.0
 11
3564.067214826658
 21
-1762.208990638807
 31
0.0
  0
LINE
  5
ED
330
1F
100
AcDbEntity
  8
1
  6
Continuous
 62
     3
100
AcDbLine
 10
3558.56721482666
 20
-1752.229870858127
 30
0.0
 11
3558.56721482666
 21
-1750.729870858127
 31
0.0
  0
LINE
  5
EE
330
1F
100
AcDbEntity
  8
1
  6
Continuous
 62
     3
100
AcDbLine
 10
3569.56721482666
 20
-1752.229870858127
 30
0.0
 11
3558.56721482666
 21
-1752.229870858127
 31
0.0
  0
LINE
  5
EF
330
1F
100
AcDbEntity
  8
1
  6
Continuous
 62
     3
100
AcDbLine
 10
3569.56721482666
 20
-1750.729870858127
 30
0.0
 11
3569.56721482666
 21
-1752.229870858127
 31
0.0
  0
LINE
  5
F0
330
1F
100
AcDbEntity
  8
1
  6
Continuous
 62
     3
100
AcDbLine
 10
3573.06721482666
 20
-1736.229870858127
 30
0.0
 11
3556.06721482666
 21
-1736.229870858127
 31
0.0
  0
LINE
  5
F1
330
1F
100
AcDbEntity
  8
1
  6
Continuous
 62
     3
100
AcDbLine
 10
3573.06721482666
 20
-1679.229870858127
 30
0.0
 11
3556.06721482666
 21
-1679.229870858127
 31
0.0
  0
LINE
  5
F2
330
1F
100
AcDbEntity
  8
1
  6
Continuous
 62
     3
100
AcDbLine
 10
3556.06721482666
 20
-1750.729870858127
 30
0.0
 11
3556.06721482666
 21
-1664.729870858127
 31
0.0
  0
LINE
  5
F3
330
1F
100
AcDbEntity
  8
1
  6
Continuous
 62
     3
100
AcDbLine
 10
3573.06721482666
 20
-1750.729870858127
 30
0.0
 11
3556.06721482666
 21
-1750.729870858127
 31
0.0
  0
LINE
  5
F4
330
1F
100
AcDbEntity
  8
1
  6
Continuous
 62
     3
100
AcDbLine
 10
3573.06721482666
 20
-1664.729870858127
 30
0.0
 11
3573.06721482666
 21
-1750.729870858127
 31
0.0
  0
LINE
  5
F5
330
1F
100
AcDbEntity
  8
1
  6
Continuous
 62
     3
100
AcDbLine
 10
3556.06721482666
 20
-1664.729870858127
 30
0.0
 11
3573.06721482666
 21
-1664.729870858127
 31
0.0
  0
LINE
  5
F6
330
1F
100
AcDbEntity
  8
1
  6
Continuous
 62
     3
100
AcDbLine
 10
3474.06721482666
 20
-1736.229870858127
 30
0.0
 11
3474.06721482666
 21
-1750.729870858127
 31
0.0
  0
LINE
  5
F7
330
1F
100
AcDbEntity
  8
1
  6
Continuous
 62
     3
100
AcDbLine
 10
3481.06721482666
 20
-1736.229870858127
 30
0.0
 11
3474.06721482666
 21
-1736.229870858127
 31
0.0
  0
LINE
  5
F8
330
1F
100
AcDbEntity
  8
1
  6
Continuous
 62
     3
100
AcDbLine
 10
3474.06721482666
 20
-1679.229870858127
 30
0.0
 11
3481.06721482666
 21
-1679.229870858127
 31
0.0
  0
LINE
  5
F9
330
1F
100
AcDbEntity
  8
1
  6
Continuous
 62
     3
100
AcDbLine
 10
3474.06721482666
 20
-1664.729870858127
 30
0.0
 11
3474.06721482666
 21
-1679.229870858127
 31
0.0
  0
LINE
  5
FA
330
1F
100
AcDbEntity
  8
1
  6
Continuous
 62
     3
100
AcDbLine
 10
3464.56721482666
 20
-1744.229870858127
 30
0.0
 11
3466.06721482666
 21
-1744.229870858127
 31
0.0
  0
LINE
  5
FB
330
1F
100
AcDbEntity
  8
1
  6
Continuous
 62
     3
100
AcDbLine
 10
3464.56721482666
 20
-1671.229870858127
 30
0.0
 11
3464.56721482666
 21
-1744.229870858127
 31
0.0
  0
LINE
  5
FC
330
1F
100
AcDbEntity
  8
1
  6
Continuous
 62
     3
100
AcDbLine
 10
3466.06721482666
 20
-1671.229870858127
 30
0.0
 11
3464.56721482666
 21
-1671.229870858127
 31
0.0
  0
LINE
  5
FD
330
1F
100
AcDbEntity
  8
1
  6
Continuous
 62
     3
100
AcDbLine
 10
3466.06721482666
 20
-1750.729870858127
 30
0.0
 11
3466.06721482666
 21
-1664.729870858127
 31
0.0
  0
LINE
  5
FE
330
1F
100
AcDbEntity
  8
1
  6
Continuous
 62
     3
100
AcDbLine
 10
3481.06721482666
 20
-1750.729870858127
 30
0.0
 11
3466.06721482666
 21
-1750.729870858127
 31
0.0
  0
LINE
  5
FF
330
1F
100
AcDbEntity
  8
1
  6
Continuous
 62
     3
100
AcDbLine
 10
3481.06721482666
 20
-1664.729870858127
 30
0.0
 11
3481.06721482666
 21
-1750.729870858127
 31
0.0
  0
LINE
  5
100
330
1F
100
AcDbEntity
  8
1
  6
Continuous
 62
     3
100
AcDbLine
 10
3466.06721482666
 20
-1664.729870858127
 30
0.0
 11
3481.06721482666
 21
-1664.729870858127
 31
0.0
  0
LINE
  5
101
330
1F
100
AcDbEntity
  8
1
  6
Continuous
 62
     3
100
AcDbLine
 10
3607.06721482666
 20
-1713.929870858128
 30
0.0
 11
3607.06721482666
 21
-1701.729870858127
 31
0.0
  0
LINE
  5
102
330
1F
100
AcDbEntity
  8
1
  6
Continuous
 62
     3
100
AcDbLine
 10
3606.267214826661
 20
-1714.729870858127
 30
0.0
 11
3607.06721482666
 21
-1713.929870858128
 31
0.0
  0
LINE
  5
103
330
1F
100
AcDbEntity
  8
1
  6
Continuous
 62
     3
100
AcDbLine
 10
3582.06721482666
 20
-1700.729870858127
 30
0.0
 11
3573.06721482666
 21
-1700.729870858127
 31
0.0
  0
LINE
  5
104
330
1F
100
AcDbEntity
  8
1
  6
Continuous
 62
     3
100
AcDbLine
 10
3606.267214826661
 20
-1704.124319582663
 30
0.0
 11
3606.267214826661
 21
-1701.729870858127
 31
0.0
  0
LINE
  5
105
330
1F
100
AcDbEntity
  8
1
  6
Continuous
 62
     3
100
AcDbLine
 10
3606.267214826661
 20
-1714.729870858127
 30
0.0
 11
3573.06721482666
 21
-1714.729870858127
 31
0.0
  0
LINE
  5
106
330
1F
100
AcDbEntity
  8
1
  6
Continuous
 62
     2
100
AcDbLine
 10
3582.06721482666
 20
-1711.335422133591
 30
0.0
 11
3607.06721482666
 21
-1704.124319582663
 31
0.0
  0
LINE
  5
107
330
1F
100
AcDbEntity
  8
1
  6
Continuous
 62
     2
100
AcDbLine
 10
3607.06721482666
 20
-1711.335422133591
 30
0.0
 11
3582.06721482666
 21
-1704.124319582663
 31
0.0
  0
LINE
  5
108
330
1F
100
AcDbEntity
  8
1
  6
Continuous
 62
     3
100
AcDbLine
 10
3582.06721482666
 20
-1704.124319582663
 30
0.0
 11
3607.06721482666
 21
-1704.124319582663
 31
0.0
  0
LINE
  5
109
330
1F
100
AcDbEntity
  8
1
  6
Continuous
 62
     3
100
AcDbLine
 10
3582.06721482666
 20
-1711.335422133591
 30
0.0
 11
3582.06721482666
 21
-1704.124319582663
 31
0.0
  0
LINE
  5
10A
330
1F
100
AcDbEntity
  8
1
  6
Continuous
 62
     3
100
AcDbLine
 10
3607.06721482666
 20
-1711.335422133591
 30
0.0
 11
3582.06721482666
 21
-1711.335422133591
 31
0.0
  0
LINE
  5
10B
330
1F
100
AcDbEntity
  8
1
  6
Continuous
 62
     3
100
AcDbLine
 10
3606.267214826661
 20
-1714.729870858127
 30
0.0
 11
3606.267214826661
 21
-1711.335422133591
 31
0.0
  0
LINE
  5
10C
330
1F
100
AcDbEntity
  8
1
  6
Continuous
 62
     3
100
AcDbLine
 10
3582.06721482666
 20
-1701.729870858127
 30
0.0
 11
3582.06721482666
 21
-1700.729870858127
 31
0.0
  0
LINE
  5
10D
330
1F
100
AcDbEntity
  8
1
  6
Continuous
 62
     3
100
AcDbLine
 10
3607.06721482666
 20
-1701.729870858127
 30
0.0
 11
3582.06721482666
 21
-1701.729870858127
 31
0.0
  0
LINE
  5
10E
330
1F
100
AcDbEntity
  8
1
  6
Continuous
 62
     3
100
AcDbLine
 10
3594.734927201045
 20
-1689.729870858127
 30
0.0
 11
3594.734927201045
 21
-1695.729870858127
 31
0.0
  0
LINE
  5
10F
330
1F
100
AcDbEntity
  8
1
  6
Continuous
 62
     1
100
AcDbLine
 10
3594.734927201045
 20
-1719.729870858127
 30
0.0
 11
3594.734927201045
 21
-1695.729870858127
 31
0.0
  0
LINE
  5
110
330
1F
100
AcDbEntity
  8
1
  6
Continuous
 62
     3
100
AcDbLine
 10
3594.734927201045
 20
-1719.729870858127
 30
0.0
 11
3594.734927201045
 21
-1725.729870858127
 31
0.0
  0
LINE
  5
111
330
1F
100
AcDbEntity
  8
1
  6
Continuous
 62
     3
100
AcDbLine
 10
3250.091211477554
 20
-1664.729870858127
 30
0.0
 11
3265.091211477554
 21
-1664.729870858127
 31
0.0
  0
LINE
  5
112
330
1F
100
AcDbEntity
  8
1
  6
Continuous
 62
     3
100
AcDbLine
 10
3265.091211477554
 20
-1664.729870858127
 30
0.0
 11
3265.091211477554
 21
-1750.729870858127
 31
0.0
  0
LINE
  5
113
330
1F
100
AcDbEntity
  8
1
  6
Continuous
 62
     3
100
AcDbLine
 10
3265.091211477554
 20
-1750.729870858127
 30
0.0
 11
3250.091211477554
 21
-1750.729870858127
 31
0.0
  0
LINE
  5
114
330
1F
100
AcDbEntity
  8
1
  6
Continuous
 62
     3
100
AcDbLine
 10
3250.091211477554
 20
-1750.729870858127
 30
0.0
 11
3250.091211477554
 21
-1664.729870858127
 31
0.0
  0
LINE
  5
115
330
1F
100
AcDbEntity
  8
1
  6
Continuous
 62
     3
100
AcDbLine
 10
3250.091211477554
 20
-1671.229870858127
 30
0.0
 11
3248.591211477554
 21
-1671.229870858127
 31
0.0
  0
LINE
  5
116
330
1F
100
AcDbEntity
  8
1
  6
Continuous
 62
     3
100
AcDbLine
 10
3248.591211477554
 20
-1671.229870858127
 30
0.0
 11
3248.591211477554
 21
-1744.229870858127
 31
0.0
  0
LINE
  5
117
330
1F
100
AcDbEntity
  8
1
  6
Continuous
 62
     3
100
AcDbLine
 10
3248.591211477554
 20
-1744.229870858127
 30
0.0
 11
3250.091211477554
 21
-1744.229870858127
 31
0.0
  0
LINE
  5
118
330
1F
100
AcDbEntity
  8
1
  6
Continuous
 62
     3
100
AcDbLine
 10
3258.091211477554
 20
-1664.729870858127
 30
0.0
 11
3258.091211477554
 21
-1679.229870858127
 31
0.0
  0
LINE
  5
119
330
1F
100
AcDbEntity
  8
1
  6
Continuous
 62
     3
100
AcDbLine
 10
3258.091211477554
 20
-1679.229870858127
 30
0.0
 11
3265.091211477554
 21
-1679.229870858127
 31
0.0
  0
LINE
  5
11A
330
1F
100
AcDbEntity
  8
1
  6
Continuous
 62
     3
100
AcDbLine
 10
3265.091211477554
 20
-1736.229870858127
 30
0.0
 11
3258.091211477554
 21
-1736.229870858127
 31
0.0
  0
LINE
  5
11B
330
1F
100
AcDbEntity
  8
1
  6
Continuous
 62
     3
100
AcDbLine
 10
3258.091211477554
 20
-1736.229870858127
 30
0.0
 11
3258.091211477554
 21
-1750.729870858127
 31
0.0
  0
LINE
  5
11C
330
1F
100
AcDbEntity
  8
1
  6
Continuous
 62
     3
100
AcDbLine
 10
3340.091211477554
 20
-1664.729870858127
 30
0.0
 11
3357.091211477554
 21
-1664.729870858127
 31
0.0
  0
LINE
  5
11D
330
1F
100
AcDbEntity
  8
1
  6
Continuous
 62
     3
100
AcDbLine
 10
3357.091211477554
 20
-1664.729870858127
 30
0.0
 11
3357.091211477554
 21
-1750.729870858127
 31
0.0
  0
LINE
  5
11E
330
1F
100
AcDbEntity
  8
1
  6
Continuous
 62
     3
100
AcDbLine
 10
3357.091211477554
 20
-1750.729870858127
 30
0.0
 11
3340.091211477554
 21
-1750.729870858127
 31
0.0
  0
LINE
  5
11F
330
1F
100
AcDbEntity
  8
1
  6
Continuous
 62
     3
100
AcDbLine
 10
3340.091211477554
 20
-1750.729870858127
 30
0.0
 11
3340.091211477554
 21
-1664.729870858127
 31
0.0
  0
LINE
  5
120
330
1F
100
AcDbEntity
  8
1
  6
Continuous
 62
     3
100
AcDbLine
 10
3357.091211477554
 20
-1679.229870858127
 30
0.0
 11
3340.091211477554
 21
-1679.229870858127
 31
0.0
  0
LINE
  5
121
330
1F
100
AcDbEntity
  8
1
  6
Continuous
 62
     3
100
AcDbLine
 10
3357.091211477554
 20
-1736.229870858127
 30
0.0
 11
3340.091211477554
 21
-1736.229870858127
 31
0.0
  0
LINE
  5
122
330
1F
100
AcDbEntity
  8
1
  6
Continuous
 62
     3
100
AcDbLine
 10
3353.591211477554
 20
-1750.729870858127
 30
0.0
 11
3353.591211477554
 21
-1752.229870858127
 31
0.0
  0
LINE
  5
123
330
1F
100
AcDbEntity
  8
1
  6
Continuous
 62
     3
100
AcDbLine
 10
3353.591211477554
 20
-1752.229870858127
 30
0.0
 11
3342.591211477554
 21
-1752.229870858127
 31
0.0
  0
LINE
  5
124
330
1F
100
AcDbEntity
  8
1
  6
Continuous
 62
     3
100
AcDbLine
 10
3342.591211477554
 20
-1752.229870858127
 30
0.0
 11
3342.591211477554
 21
-1750.729870858127
 31
0.0
  0
LINE
  5
125
330
1F
100
AcDbEntity
  8
1
  6
Continuous
 62
     3
100
AcDbLine
 10
3014.851324030246
 20
-1664.729870858127
 30
0.0
 11
3084.851324030247
 21
-1664.729870858127
 31
0.0
  0
LINE
  5
126
330
1F
100
AcDbEntity
  8
1
  6
Continuous
 62
     3
100
AcDbLine
 10
3092.851324030247
 20
-1672.729870858127
 30
0.0
 11
3092.851324030247
 21
-1742.729870858127
 31
0.0
  0
LINE
  5
127
330
1F
100
AcDbEntity
  8
1
  6
Continuous
 62
     3
100
AcDbLine
 10
3084.851324030247
 20
-1750.729870858127
 30
0.0
 11
3014.851324030246
 21
-1750.729870858127
 31
0.0
  0
LINE
  5
128
330
1F
100
AcDbEntity
  8
1
  6
Continuous
 62
     3
100
AcDbLine
 10
3006.851324030246
 20
-1742.729870858127
 30
0.0
 11
3006.851324030246
 21
-1672.729870858127
 31
0.0
  0
LINE
  5
129
330
1F
100
AcDbEntity
  8
1
  6
Continuous
 62
     3
100
AcDbLine
 10
3092.851324030247
 20
-1678.529870858128
 30
0.0
 11
3087.951324030247
 21
-1678.529870858128
 31
0.0
  0
LINE
  5
12A
330
1F
100
AcDbEntity
  8
1
  6
Continuous
 62
     3
100
AcDbLine
 10
3087.951324030247
 20
-1689.529870858128
 30
0.0
 11
3092.851324030247
 21
-1689.529870858128
 31
0.0
  0
LINE
  5
12B
330
1F
100
AcDbEntity
  8
1
  6
Continuous
 62
     3
100
AcDbLine
 10
3092.851324030247
 20
-1725.929870858127
 30
0.0
 11
3087.951324030247
 21
-1725.929870858127
 31
0.0
  0
LINE
  5
12C
330
1F
100
AcDbEntity
  8
1
  6
Continuous
 62
     3
100
AcDbLine
 10
3087.951324030247
 20
-1736.929870858127
 30
0.0
 11
3092.851324030247
 21
-1736.929870858127
 31
0.0
  0
LINE
  5
12D
330
1F
100
AcDbEntity
  8
1
  6
Continuous
 62
     3
100
AcDbLine
 10
3011.751324030246
 20
-1678.529870858128
 30
0.0
 11
3006.851324030247
 21
-1678.529870858128
 31
0.0
  0
LINE
  5
12E
330
1F
100
AcDbEntity
  8
1
  6
Continuous
 62
     3
100
AcDbLine
 10
3006.851324030247
 20
-1689.529870858128
 30
0.0
 11
3011.751324030246
 21
-1689.529870858128
 31
0.0
  0
LINE
  5
12F
330
1F
100
AcDbEntity
  8
1
  6
Continuous
 62
     3
100
AcDbLine
 10
3011.751324030246
 20
-1725.929870858127
 30
0.0
 11
3006.851324030247
 21
-1725.929870858127
 31
0.0
  0
LINE
  5
130
330
1F
100
AcDbEntity
  8
1
  6
Continuous
 62
     3
100
AcDbLine
 10
3006.851324030247
 20
-1736.929870858127
 30
0.0
 11
3011.751324030246
 21
-1736.929870858127
 31
0.0
  0
LINE
  5
131
330
1F
100
AcDbEntity
  8
1
  6
Continuous
 62
     3
100
AcDbLine
 10
3055.351324030247
 20
-1750.729870858127
 30
0.0
 11
3055.351324030247
 21
-1752.229870858127
 31
0.0
  0
LINE
  5
132
330
1F
100
AcDbEntity
  8
1
  6
Continuous
 62
     3
100
AcDbLine
 10
3044.351324030247
 20
-1752.229870858127
 30
0.0
 11
3044.351324030247
 21
-1750.729870858127
 31
0.0
  0
LINE
  5
133
330
1F
100
AcDbEntity
  8
1
  6
Continuous
 62
     1
100
AcDbLine
 10
3097.301324030246
 20
-1707.729870858127
 30
0.0
 11
3002.401324030247
 21
-1707.729870858127
 31
0.0
  0
LINE
  5
134
330
1F
100
AcDbEntity
  8
1
  6
Continuous
 62
     1
100
AcDbLine
 10
3049.851324030247
 20
-1660.279870858127
 30
0.0
 11
3049.851324030247
 21
-1755.179870858127
 31
0.0
  0
LINE
  5
135
330
1F
100
AcDbEntity
  8
1
  6
Continuous
 62
     1
100
AcDbLine
 10
3088.291324030246
 20
-1672.929870858127
 30
0.0
 11
3081.011324030246
 21
-1672.929870858127
 31
0.0
  0
LINE
  5
136
330
1F
100
AcDbEntity
  8
1
  6
Continuous
 62
     1
100
AcDbLine
 10
3084.651324030247
 20
-1669.289870858127
 30
0.0
 11
3084.651324030247
 21
-1676.569870858128
 31
0.0
  0
LINE
  5
137
330
1F
100
AcDbEntity
  8
1
  6
Continuous
 62
     1
100
AcDbLine
 10
3088.291324030246
 20
-1742.529870858128
 30
0.0
 11
3081.011324030246
 21
-1742.529870858128
 31
0.0
  0
LINE
  5
138
330
1F
100
AcDbEntity
  8
1
  6
Continuous
 62
     1
100
AcDbLine
 10
3084.651324030247
 20
-1738.889870858128
 30
0.0
 11
3084.651324030247
 21
-1746.169870858128
 31
0.0
  0
LINE
  5
139
330
1F
100
AcDbEntity
  8
1
  6
Continuous
 62
     1
100
AcDbLine
 10
3018.691324030247
 20
-1672.929870858127
 30
0.0
 11
3011.411324030247
 21
-1672.929870858127
 31
0.0
  0
LINE
  5
13A
330
1F
100
AcDbEntity
  8
1
  6
Continuous
 62
     1
100
AcDbLine
 10
3015.051324030246
 20
-1669.289870858127
 30
0.0
 11
3015.051324030246
 21
-1676.569870858128
 31
0.0
  0
LINE
  5
13B
330
1F
100
AcDbEntity
  8
1
  6
Continuous
 62
     1
100
AcDbLine
 10
3018.691324030247
 20
-1742.529870858128
 30
0.0
 11
3011.411324030247
 21
-1742.529870858128
 31
0.0
  0
LINE
  5
13C
330
1F
100
AcDbEntity
  8
1
  6
Continuous
 62
     1
100
AcDbLine
 10
3015.051324030246
 20
-1738.889870858128
 30
0.0
 11
3015.051324030246
 21
-1746.169870858128
 31
0.0
  0
LINE
  5
13D
330
1F
100
AcDbEntity
  8
1
  6
Continuous
 62
     1
100
AcDbLine
 10
3093.801324030247
 20
-1731.429870858127
 30
0.0
 11
3082.101324030247
 21
-1731.429870858127
 31
0.0
  0
LINE
  5
13E
330
1F
100
AcDbEntity
  8
1
  6
Continuous
 62
     1
100
AcDbLine
 10
3087.951324030247
 20
-1725.579870858128
 30
0.0
 11
3087.951324030247
 21
-1737.279870858127
 31
0.0
  0
LINE
  5
13F
330
1F
100
AcDbEntity
  8
1
  6
Continuous
 62
     1
100
AcDbLine
 10
3093.801324030247
 20
-1684.029870858128
 30
0.0
 11
3082.101324030247
 21
-1684.029870858128
 31
0.0
  0
LINE
  5
140
330
1F
100
AcDbEntity
  8
1
  6
Continuous
 62
     1
100
AcDbLine
 10
3087.951324030247
 20
-1678.179870858128
 30
0.0
 11
3087.951324030247
 21
-1689.879870858128
 31
0.0
  0
LINE
  5
141
330
1F
100
AcDbEntity
  8
1
  6
Continuous
 62
     1
100
AcDbLine
 10
3017.601324030246
 20
-1684.029870858128
 30
0.0
 11
3005.901324030245
 21
-1684.029870858128
 31
0.0
  0
LINE
  5
142
330
1F
100
AcDbEntity
  8
1
  6
Continuous
 62
     1
100
AcDbLine
 10
3011.751324030245
 20
-1678.179870858128
 30
0.0
 11
3011.751324030245
 21
-1689.879870858128
 31
0.0
  0
LINE
  5
143
330
1F
100
AcDbEntity
  8
1
  6
Continuous
 62
     1
100
AcDbLine
 10
3017.601324030246
 20
-1731.429870858127
 30
0.0
 11
3005.901324030245
 21
-1731.429870858127
 31
0.0
  0
LINE
  5
144
330
1F
100
AcDbEntity
  8
1
  6
Continuous
 62
     1
100
AcDbLine
 10
3011.751324030245
 20
-1725.579870858128
 30
0.0
 11
3011.751324030245
 21
-1737.279870858127
 31
0.0
  0
LINE
  5
145
330
1F
100
AcDbEntity
  8
1
  6
Continuous
 62
     3
100
AcDbLine
 10
3348.091211477552
 20
-1752.229870858127
 30
0.0
 11
3348.091211477552
 21
-1762.208990638807
 31
0.0
  0
LINE
  5
146
330
1F
100
AcDbEntity
  8
1
  6
Continuous
 62
     3
100
AcDbLine
 10
3345.591211477552
 20
-1752.229870858127
 30
0.0
 11
3345.591211477552
 21
-1761.747539870478
 31
0.0
  0
LINE
  5
147
330
1F
100
AcDbEntity
  8
1
  6
Continuous
 62
     3
100
AcDbLine
 10
3350.591211477552
 20
-1752.229870858127
 30
0.0
 11
3350.591211477552
 21
-1762.264732101928
 31
0.0
  0
LINE
  5
148
330
1F
100
AcDbEntity
  8
1
  6
Continuous
 62
     3
100
AcDbLine
 10
3346.491211477552
 20
-1752.229870858127
 30
0.0
 11
3346.491211477552
 21
-1761.717168124672
 31
0.0
  0
LINE
  5
149
330
1F
100
AcDbEntity
  8
1
  6
Continuous
 62
     3
100
AcDbLine
 10
3349.691211477553
 20
-1752.229870858127
 30
0.0
 11
3349.691211477553
 21
-1762.521065671824
 31
0.0
  0
LINE
  5
14A
330
1F
100
AcDbEntity
  8
1
  6
Continuous
 62
     3
100
AcDbLine
 10
3051.451324030246
 20
-1752.229870858127
 30
0.0
 11
3051.451324030246
 21
-1761.521065671824
 31
0.0
  0
LINE
  5
14B
330
1F
100
AcDbEntity
  8
1
  6
Continuous
 62
     3
100
AcDbLine
 10
3048.251324030246
 20
-1752.229870858127
 30
0.0
 11
3048.251324030246
 21
-1760.717168124672
 31
0.0
  0
LINE
  5
14C
330
1F
100
AcDbEntity
  8
1
  6
Continuous
 62
     3
100
AcDbLine
 10
3052.351324030245
 20
-1752.229870858127
 30
0.0
 11
3052.351324030245
 21
-1761.264732101928
 31
0.0
  0
LINE
  5
14D
330
1F
100
AcDbEntity
  8
1
  6
Continuous
 62
     3
100
AcDbLine
 10
3047.351324030245
 20
-1752.229870858127
 30
0.0
 11
3047.351324030245
 21
-1760.747539870478
 31
0.0
  0
LINE
  5
14E
330
1F
100
AcDbEntity
  8
1
  6
Continuous
 62
     3
100
AcDbLine
 10
3049.851324030245
 20
-1752.229870858127
 30
0.0
 11
3049.851324030245
 21
-1761.208990638807
 31
0.0
  0
LINE
  5
14F
330
1F
100
AcDbEntity
  8
1
  6
Continuous
 62
     3
100
AcDbLine
 10
3055.351324030247
 20
-1752.229870858127
 30
0.0
 11
3044.351324030247
 21
-1752.229870858127
 31
0.0
  0
LINE
  5
150
330
1F
100
AcDbEntity
  8
1
  6
Continuous
 62
     1
100
AcDbLine
 10
3242.761045321336
 20
-1672.929870858127
 30
0.0
 11
3262.911245589137
 21
-1672.929870858127
 31
0.0
  0
LINE
  5
151
330
1F
100
AcDbEntity
  8
1
  6
Continuous
 62
     1
100
AcDbLine
 10
3262.911245589137
 20
-1742.529870858127
 30
0.0
 11
3242.761045321336
 21
-1742.529870858127
 31
0.0
  0
LINE
  5
152
330
1F
100
AcDbEntity
  8
1
  6
Continuous
 62
     1
100
AcDbLine
 10
3203.278483308428
 20
-1707.729870858127
 30
0.0
 11
3362.091211477554
 21
-1707.729870858127
 31
0.0
  0
LINE
  5
153
330
1F
100
AcDbEntity
  8
1
  6
Continuous
 62
     3
100
AcDbLine
 10
3213.091211477554
 20
-1701.729870858127
 30
0.0
 11
3213.091211477554
 21
-1713.929870858128
 31
0.0
  0
LINE
  5
154
330
1F
100
AcDbEntity
  8
1
  6
Continuous
 62
     3
100
AcDbLine
 10
3213.091211477554
 20
-1713.929870858128
 30
0.0
 11
3213.891211477554
 21
-1714.729870858127
 31
0.0
  0
LINE
  5
155
330
1F
100
AcDbEntity
  8
1
  6
Continuous
 62
     3
100
AcDbLine
 10
3248.591211477554
 20
-1700.729870858127
 30
0.0
 11
3238.091211477554
 21
-1700.729870858127
 31
0.0
  0
LINE
  5
156
330
1F
100
AcDbEntity
  8
1
  6
Continuous
 62
     3
100
AcDbLine
 10
3213.891211477554
 20
-1701.729870858127
 30
0.0
 11
3213.891211477554
 21
-1704.124319582663
 31
0.0
  0
LINE
  5
157
330
1F
100
AcDbEntity
  8
1
  6
Continuous
 62
     3
100
AcDbLine
 10
3248.591211477554
 20
-1714.729870858127
 30
0.0
 11
3213.891211477554
 21
-1714.729870858127
 31
0.0
  0
LINE
  5
158
330
1F
100
AcDbEntity
  8
1
  6
Continuous
 62
     3
100
AcDbLine
 10
3046.245772754783
 20
-1701.729870858127
 30
0.0
 11
3053.456875305711
 21
-1701.729870858127
 31
0.0
  0
LINE
  5
159
330
1F
100
AcDbEntity
  8
1
  6
Continuous
 62
     3
100
AcDbLine
 10
3055.851324030247
 20
-1704.124319582663
 30
0.0
 11
3055.851324030247
 21
-1711.335422133591
 31
0.0
  0
LINE
  5
15A
330
1F
100
AcDbEntity
  8
1
  6
Continuous
 62
     2
100
AcDbLine
 10
3213.091211477554
 20
-1704.124319582663
 30
0.0
 11
3238.091211477554
 21
-1711.335422133591
 31
0.0
  0
LINE
  5
15B
330
1F
100
AcDbEntity
  8
1
  6
Continuous
 62
     2
100
AcDbLine
 10
3238.091211477554
 20
-1704.124319582663
 30
0.0
 11
3213.091211477554
 21
-1711.335422133591
 31
0.0
  0
LINE
  5
15C
330
1F
100
AcDbEntity
  8
1
  6
Continuous
 62
     3
100
AcDbLine
 10
3213.091211477554
 20
-1704.124319582663
 30
0.0
 11
3238.091211477554
 21
-1704.124319582663
 31
0.0
  0
LINE
  5
15D
330
1F
100
AcDbEntity
  8
1
  6
Continuous
 62
     3
100
AcDbLine
 10
3238.091211477554
 20
-1704.124319582663
 30
0.0
 11
3238.091211477554
 21
-1711.335422133591
 31
0.0
  0
LINE
  5
15E
330
1F
100
AcDbEntity
  8
1
  6
Continuous
 62
     3
100
AcDbLine
 10
3238.091211477554
 20
-1711.335422133591
 30
0.0
 11
3213.091211477554
 21
-1711.335422133591
 31
0.0
  0
LINE
  5
15F
330
1F
100
AcDbEntity
  8
1
  6
Continuous
 62
     3
100
AcDbLine
 10
3213.891211477554
 20
-1711.335422133591
 30
0.0
 11
3213.891211477554
 21
-1714.729870858127
 31
0.0
  0
LINE
  5
160
330
1F
100
AcDbEntity
  8
1
  6
Continuous
 62
     3
100
AcDbLine
 10
3238.091211477554
 20
-1700.729870858127
 30
0.0
 11
3238.091211477554
 21
-1701.729870858127
 31
0.0
  0
LINE
  5
161
330
1F
100
AcDbEntity
  8
1
  6
Continuous
 62
     3
100
AcDbLine
 10
3238.091211477554
 20
-1701.729870858127
 30
0.0
 11
3213.091211477554
 21
-1701.729870858127
 31
0.0
  0
LINE
  5
162
330
1F
100
AcDbEntity
  8
1
  6
Continuous
 62
     3
100
AcDbLine
 10
3221.42349910317
 20
-1689.729870858127
 30
0.0
 11
3221.42349910317
 21
-1695.729870858127
 31
0.0
  0
LINE
  5
163
330
1F
100
AcDbEntity
  8
1
  6
Continuous
 62
     1
100
AcDbLine
 10
3221.42349910317
 20
-1695.729870858127
 30
0.0
 11
3221.42349910317
 21
-1719.729870858127
 31
0.0
  0
LINE
  5
164
330
1F
100
AcDbEntity
  8
1
  6
Continuous
 62
     3
100
AcDbLine
 10
3221.42349910317
 20
-1719.729870858127
 30
0.0
 11
3221.42349910317
 21
-1725.729870858127
 31
0.0
  0
LINE
  5
165
102
{ACAD_REACTORS
330
2E3
102
}
330
1F
100
AcDbEntity
  8
1
  6
Continuous
 62
     3
100
AcDbLine
 10
3225.029050378634
 20
-1789.76715699059
 30
0.0
 11
3217.817947827706
 21
-1789.76715699059
 31
0.0
  0
LINE
  5
166
102
{ACAD_REACTORS
330
2E3
102
}
330
1F
100
AcDbEntity
  8
1
  6
Continuous
 62
     3
100
AcDbLine
 10
3215.42349910317
 20
-1792.161605715126
 30
0.0
 11
3215.42349910317
 21
-1799.372708266054
 31
0.0
  0
LINE
  5
167
330
1F
100
AcDbEntity
  8
1
  6
Continuous
 62
     1
100
AcDbLine
 10
3230.52349910317
 20
-1795.76715699059
 30
0.0
 11
3212.32349910317
 21
-1795.76715699059
 31
0.0
  0
LINE
  5
168
330
1F
100
AcDbEntity
  8
1
  6
Continuous
 62
     1
100
AcDbLine
 10
3221.42349910317
 20
-1786.66715699059
 30
0.0
 11
3221.42349910317
 21
-1804.86715699059
 31
0.0
  0
ARC
  5
169
330
1F
100
AcDbEntity
  8
1
  6
Continuous
 62
     3
100
AcDbCircle
 10
3087.951324030247
 20
-1684.029870858128
 30
0.0
 40
5.5
100
AcDbArc
 50
90.0
 51
270.0
  0
ARC
  5
16A
330
1F
100
AcDbEntity
  8
1
  6
Continuous
 62
     3
100
AcDbCircle
 10
3087.951324030247
 20
-1731.429870858127
 30
0.0
 40
5.5
100
AcDbArc
 50
90.0
 51
270.0
  0
ARC
  5
16B
330
1F
100
AcDbEntity
  8
1
  6
Continuous
 62
     3
100
AcDbCircle
 10
3011.751324030245
 20
-1684.029870858128
 30
0.0
 40
5.5
100
AcDbArc
 50
270.0000000000095
 51
89.99999999999054
  0
ARC
  5
16C
330
1F
100
AcDbEntity
  8
1
  6
Continuous
 62
     3
100
AcDbCircle
 10
3011.751324030246
 20
-1731.429870858127
 30
0.0
 40
5.5
100
AcDbArc
 50
270.0
 51
90.0
  0
ARC
  5
16D
330
1F
100
AcDbEntity
  8
1
  6
Continuous
 62
     3
100
AcDbCircle
 10
3049.851324030247
 20
-1707.729870858127
 30
0.0
 40
6.200000000000889
100
AcDbArc
 50
104.592550602065
 51
345.407449397933
  0
ARC
  5
16E
330
1F
100
AcDbEntity
  8
1
  6
Continuous
 62
     3
100
AcDbCircle
 10
3049.851324030247
 20
-1707.729870858127
 30
0.0
 40
6.200000000000946
100
AcDbArc
 50
14.59255060206701
 51
75.40744939793096
  0
ARC
  5
16F
102
{ACAD_REACTORS
330
2E3
102
}
330
1F
100
AcDbEntity
  8
1
  6
Continuous
 62
     3
100
AcDbCircle
 10
3221.42349910317
 20
-1795.76715699059
 30
0.0
 40
6.999999999999885
100
AcDbArc
 50
121.0027191338724
 51
148.997280866126
  0
ARC
  5
170
102
{ACAD_REACTORS
330
2E3
102
}
330
1F
100
AcDbEntity
  8
1
  6
Continuous
 62
     3
100
AcDbCircle
 10
3221.42349910317
 20
-1795.76715699059
 30
0.0
 40
7.0
100
AcDbArc
 50
0.0
 51
58.99728086612438
  0
ARC
  5
171
102
{ACAD_REACTORS
330
2E3
102
}
330
1F
100
AcDbEntity
  8
1
  6
Continuous
 62
     3
100
AcDbCircle
 10
3221.42349910317
 20
-1795.76715699059
 30
0.0
 40
7.0
100
AcDbArc
 50
270.0
 51
0.0
  0
ARC
  5
172
102
{ACAD_REACTORS
330
2E3
102
}
330
1F
100
AcDbEntity
  8
1
  6
Continuous
 62
     3
100
AcDbCircle
 10
3221.42349910317
 20
-1795.76715699059
 30
0.0
 40
7.000000000000003
100
AcDbArc
 50
211.002719133874
 51
270.0
  0
CIRCLE
  5
173
330
1F
100
AcDbEntity
  8
1
  6
Continuous
 62
     3
100
AcDbCircle
 10
3049.851324030247
 20
-1707.729870858127
 30
0.0
 40
7.5
  0
CIRCLE
  5
174
330
1F
100
AcDbEntity
  8
1
  6
Continuous
 62
     3
100
AcDbCircle
 10
3049.851324030247
 20
-1707.729870858127
 30
0.0
 40
24.0
  0
CIRCLE
  5
175
330
1F
100
AcDbEntity
  8
1
  6
Continuous
 62
     3
100
AcDbCircle
 10
3049.851324030247
 20
-1707.729870858127
 30
0.0
 40
23.5
  0
CIRCLE
  5
176
330
1F
100
AcDbEntity
  8
1
  6
Continuous
 62
     3
100
AcDbCircle
 10
3049.851324030247
 20
-1707.729870858127
 30
0.0
 40
20.0
  0
CIRCLE
  5
177
330
1F
100
AcDbEntity
  8
1
  6
Continuous
 62
     3
100
AcDbCircle
 10
3049.851324030247
 20
-1707.729870858127
 30
0.0
 40
36.5
  0
CIRCLE
  5
178
330
1F
100
AcDbEntity
  8
1
  6
Continuous
 62
     3
100
AcDbCircle
 10
3049.851324030247
 20
-1707.729870858127
 30
0.0
 40
9.0
  0
CIRCLE
  5
179
330
1F
100
AcDbEntity
  8
1
  6
Continuous
 62
     3
100
AcDbCircle
 10
3084.651324030247
 20
-1672.929870858127
 30
0.0
 40
2.799999999998818
  0
CIRCLE
  5
17A
330
1F
100
AcDbEntity
  8
1
  6
Continuous
 62
     3
100
AcDbCircle
 10
3084.651324030247
 20
-1742.529870858128
 30
0.0
 40
2.799999999998818
  0
CIRCLE
  5
17B
330
1F
100
AcDbEntity
  8
1
  6
Continuous
 62
     3
100
AcDbCircle
 10
3015.051324030246
 20
-1672.929870858127
 30
0.0
 40
2.800000000000637
  0
CIRCLE
  5
17C
330
1F
100
AcDbEntity
  8
1
  6
Continuous
 62
     3
100
AcDbCircle
 10
3015.051324030246
 20
-1742.529870858128
 30
0.0
 40
2.800000000000637
  0
CIRCLE
  5
17D
330
1F
100
AcDbEntity
  8
1
  6
Continuous
 62
     3
100
AcDbCircle
 10
3087.951324030247
 20
-1731.429870858127
 30
0.0
 40
4.5
  0
CIRCLE
  5
17E
330
1F
100
AcDbEntity
  8
1
  6
Continuous
 62
     3
100
AcDbCircle
 10
3087.951324030247
 20
-1684.029870858128
 30
0.0
 40
4.5
  0
CIRCLE
  5
17F
330
1F
100
AcDbEntity
  8
1
  6
Continuous
 62
     3
100
AcDbCircle
 10
3011.751324030245
 20
-1684.029870858128
 30
0.0
 40
4.5
  0
CIRCLE
  5
180
330
1F
100
AcDbEntity
  8
1
  6
Continuous
 62
     3
100
AcDbCircle
 10
3011.751324030246
 20
-1731.429870858127
 30
0.0
 40
4.500000000000909
  0
CIRCLE
  5
181
330
1F
100
AcDbEntity
  8
1
  6
Continuous
 62
     3
100
AcDbCircle
 10
3049.851324030247
 20
-1707.729870858127
 30
0.0
 40
7.0
  0
SPLINE
  5
182
330
1F
100
AcDbEntity
  8
1
  6
Continuous
 62
     2
100
AcDbSpline
210
0.0
220
0.0
230
1.0
 70
     8
 71
     3
 72
     9
 73
     5
 74
     3
 42
0.000000001
 43
0.0000000001
 44
0.00000001
 40
0.0
 40
0.0
 40
0.0
 40
0.0
 40
3.037156820217402
 40
6.202882036423425
 40
6.202882036423425
 40
6.202882036423425
 40
6.202882036423425
 10
3560.82932981801
 20
-1762.121706891707
 30
0.0
 10
3561.842145552166
 20
-1762.142909785922
 30
0.0
 10
3563.910651360341
 20
-1762.186213111605
 30
0.0
 10
3565.973614542727
 20
-1762.027924270655
 30
0.0
 10
3567.02647586195
 20
-1761.947139397507
 30
0.0
 11
3560.82932981801
 21
-1762.121706891707
 31
0.0
 11
3563.866448210361
 21
-1762.136985092156
 31
0.0
 11
3567.02647586195
 21
-1761.947139397507
 31
0.0
  0
SPLINE
  5
183
330
1F
100
AcDbEntity
  8
1
  6
Continuous
 62
     2
100
AcDbSpline
210
0.0
220
0.0
230
1.0
 70
     8
 71
     3
 72
     9
 73
     5
 74
     3
 42
0.000000001
 43
0.0000000001
 44
0.00000001
 40
0.0
 40
0.0
 40
0.0
 40
0.0
 40
3.037156820217857
 40
6.202882036423425
 40
6.202882036423425
 40
6.202882036423425
 40
6.202882036423425
 10
3344.853326468904
 20
-1762.121706891707
 30
0.0
 10
3345.86614220306
 20
-1762.142909785922
 30
0.0
 10
3347.934648011235
 20
-1762.186213111605
 30
0.0
 10
3349.99761119362
 20
-1762.027924270654
 30
0.0
 10
3351.050472512844
 20
-1761.947139397507
 30
0.0
 11
3344.853326468904
 21
-1762.121706891707
 31
0.0
 11
3347.890444861256
 21
-1762.136985092156
 31
0.0
 11
3351.050472512844
 21
-1761.947139397507
 31
0.0
  0
SPLINE
  5
184
330
1F
100
AcDbEntity
  8
1
  6
Continuous
 62
     2
100
AcDbSpline
210
0.0
220
0.0
230
1.0
 70
     8
 71
     3
 72
     9
 73
     5
 74
     3
 42
0.000000001
 43
0.0000000001
 44
0.00000001
 40
0.0
 40
0.0
 40
0.0
 40
0.0
 40
3.037156820218312
 40
6.202882036423427
 40
6.202882036423427
 40
6.202882036423427
 40
6.202882036423427
 10
3046.613439021597
 20
-1761.121706891707
 30
0.0
 10
3047.626254755752
 20
-1761.142909785922
 30
0.0
 10
3049.694760563929
 20
-1761.186213111605
 30
0.0
 10
3051.757723746315
 20
-1761.027924270655
 30
0.0
 10
3052.810585065537
 20
-1760.947139397507
 30
0.0
 11
3046.613439021597
 21
-1761.121706891707
 31
0.0
 11
3049.650557413949
 21
-1761.136985092156
 31
0.0
 11
3052.810585065537
 21
-1760.947139397507
 31
0.0
  0
ARC
  5
185
330
1F
100
AcDbEntity
  8
1
  6
Continuous
 62
     3
100
AcDbCircle
 10
3084.851324030247
 20
-1672.729870858127
 30
0.0
 40
8.0
100
AcDbArc
 50
0.0
 51
90.0
  0
ARC
  5
186
330
1F
100
AcDbEntity
  8
1
  6
Continuous
 62
     3
100
AcDbCircle
 10
3014.851324030246
 20
-1672.729870858127
 30
0.0
 40
8.0
100
AcDbArc
 50
90.0
 51
180.0
  0
ARC
  5
187
330
1F
100
AcDbEntity
  8
1
  6
Continuous
 62
     3
100
AcDbCircle
 10
3014.851324030246
 20
-1742.729870858127
 30
0.0
 40
8.0
100
AcDbArc
 50
180.0
 51
270.0
  0
ARC
  5
188
330
1F
100
AcDbEntity
  8
1
  6
Continuous
 62
     3
100
AcDbCircle
 10
3084.851324030247
 20
-1742.729870858127
 30
0.0
 40
8.0
100
AcDbArc
 50
270.0
 51
0.0
  0
SOLID
  5
189
330
1F
100
AcDbEntity
  8
1
 62
     2
100
AcDbTrace
 10
3440.599502452276
 20
-1722.308582865847
 30
0.0
 11
3440.599502452276
 21
-1723.151158850407
 31
0.0
 12
3437.399502452276
 22
-1722.729870858127
 32
0.0
 13
3437.399502452276
 23
-1722.729870858127
 33
0.0
  0
LEADER
  5
18A
330
1F
100
AcDbEntity
  8
1
  6
Continuous
 62
     2
100
AcDbLeader
  3
Standard
 71
     0
 76
     2
 10
3437.399502452276
 20
-1722.729870858127
 30
0.0
 10
3445.399502452276
 20
-1722.729870858127
 30
0.0
  0
SOLID
  5
18B
330
1F
100
AcDbEntity
  8
1
 62
     2
100
AcDbTrace
 10
3440.599502452276
 20
-1692.308582865847
 30
0.0
 11
3440.599502452276
 21
-1693.151158850407
 31
0.0
 12
3437.399502452276
 22
-1692.729870858127
 32
0.0
 13
3437.399502452276
 23
-1692.729870858127
 33
0.0
  0
LEADER
  5
18C
330
1F
100
AcDbEntity
  8
1
  6
Continuous
 62
     2
100
AcDbLeader
  3
Standard
 71
     0
 76
     2
 10
3437.399502452276
 20
-1692.729870858127
 30
0.0
 10
3445.399502452276
 20
-1692.729870858127
 30
0.0
  0
SOLID
  5
18D
330
1F
100
AcDbEntity
  8
1
 62
     2
100
AcDbTrace
 10
3597.934927201045
 20
-1692.308582865847
 30
0.0
 11
3597.934927201045
 21
-1693.151158850407
 31
0.0
 12
3594.734927201045
 22
-1692.729870858127
 32
0.0
 13
3594.734927201045
 23
-1692.729870858127
 33
0.0
  0
LEADER
  5
18E
330
1F
100
AcDbEntity
  8
1
  6
Continuous
 62
     2
100
AcDbLeader
  3
Standard
 71
     0
 76
     2
 10
3594.734927201045
 20
-1692.729870858127
 30
0.0
 10
3602.734927201044
 20
-1692.729870858127
 30
0.0
  0
SOLID
  5
18F
330
1F
100
AcDbEntity
  8
1
 62
     2
100
AcDbTrace
 10
3597.934927201045
 20
-1722.308582865847
 30
0.0
 11
3597.934927201045
 21
-1723.151158850407
 31
0.0
 12
3594.734927201045
 22
-1722.729870858127
 32
0.0
 13
3594.734927201045
 23
-1722.729870858127
 33
0.0
  0
LEADER
  5
190
330
1F
100
AcDbEntity
  8
1
  6
Continuous
 62
     2
100
AcDbLeader
  3
Standard
 71
     0
 76
     2
 10
3594.734927201045
 20
-1722.729870858127
 30
0.0
 10
3602.734927201044
 20
-1722.729870858127
 30
0.0
  0
SOLID
  5
191
330
1F
100
AcDbEntity
  8
1
 62
     2
100
AcDbTrace
 10
3224.62349910317
 20
-1692.308582865847
 30
0.0
 11
3224.62349910317
 21
-1693.151158850407
 31
0.0
 12
3221.42349910317
 22
-1692.729870858127
 32
0.0
 13
3221.42349910317
 23
-1692.729870858127
 33
0.0
  0
LEADER
  5
192
330
1F
100
AcDbEntity
  8
1
  6
Continuous
 62
     2
100
AcDbLeader
  3
Standard
 71
     0
 76
     2
 10
3221.42349910317
 20
-1692.729870858127
 30
0.0
 10
3229.42349910317
 20
-1692.729870858127
 30
0.0
  0
SOLID
  5
193
330
1F
100
AcDbEntity
  8
1
 62
     2
100
AcDbTrace
 10
3224.62349910317
 20
-1722.308582865847
 30
0.0
 11
3224.62349910317
 21
-1723.151158850407
 31
0.0
 12
3221.42349910317
 22
-1722.729870858127
 32
0.0
 13
3221.42349910317
 23
-1722.729870858127
 33
0.0
  0
LEADER
  5
194
330
1F
100
AcDbEntity
  8
1
  6
Continuous
 62
     2
100
AcDbLeader
  3
Standard
 71
     0
 76
     2
 10
3221.42349910317
 20
-1722.729870858127
 30
0.0
 10
3229.42349910317
 20
-1722.729870858127
 30
0.0
  0
SOLID
  5
195
330
1F
100
AcDbEntity
  8
1
 62
     2
100
AcDbTrace
 10
3045.502896729611
 20
-1759.36606161113
 30
0.0
 11
3044.881070401752
 21
-1758.797496480527
 31
0.0
 12
3047.351324030245
 22
-1756.72015910221
 32
0.0
 13
3047.351324030245
 23
-1756.72015910221
 33
0.0
  0
LEADER
  5
196
330
1F
100
AcDbEntity
  8
1
  6
Continuous
 62
     2
100
AcDbLeader
  3
Standard
 71
     0
 76
     3
 10
3047.351324030245
 20
-1756.72015910221
 30
0.0
 10
3028.31659816132
 20
-1777.53799166316
 30
0.0
 10
3145.15528180929
 20
-1777.53799166316
 30
0.0
  0
MTEXT
  5
198
330
1F
100
AcDbEntity
  8
1
 62
     2
100
AcDbMText
 10
3423.30459192273
 20
-1591.90149174529
 30
0.0
 40
10.0
 41
0.0
 71
     7
 72
     1
  1
[\U+4e21\U+8ef8]
  7
CONVERTER_11
 73
     1
 44
1.05042016806723
  0
MTEXT
  5
199
330
1F
100
AcDbEntity
  8
1
 62
     2
100
AcDbMText
 10
3203.69821291725
 20
-1590.52031955029
 30
0.0
 40
10.0
 41
0.0
 71
     7
 72
     1
  1
[\U+7247\U+8ef8]
  7
CONVERTER_11
 73
     1
 44
1.05042016806723
  0
MTEXT
  5
19B
330
1F
100
AcDbEntity
  8
1
 62
     2
100
AcDbMText
 10
3443.693319032926
 20
-1719.729870858127
 30
0.0
 40
3.0
 41
0.0
 71
     5
 72
     1
  1
A'
  7
CONVERTER_12
 73
     1
 44
0.79545454545455
  0
MTEXT
  5
19C
330
1F
100
AcDbEntity
  8
1
 62
     2
100
AcDbMText
 10
3443.621284568196
 20
-1689.729870858127
 30
0.0
 40
3.0
 41
0.0
 71
     5
 72
     1
  1
A
  7
CONVERTER_12
 73
     1
 44
0.79545454545455
  0
MTEXT
  5
19D
330
1F
100
AcDbEntity
  8
1
 62
     2
100
AcDbMText
 10
3600.956709316964
 20
-1689.729870858127
 30
0.0
 40
3.0
 41
0.0
 71
     5
 72
     1
  1
A
  7
CONVERTER_12
 73
     1
 44
0.79545454545455
  0
MTEXT
  5
19E
330
1F
100
AcDbEntity
  8
1
 62
     2
100
AcDbMText
 10
3601.028743781694
 20
-1719.729870858127
 30
0.0
 40
3.0
 41
0.0
 71
     5
 72
     1
  1
A'
  7
CONVERTER_12
 73
     1
 44
0.79545454545455
  0
MTEXT
  5
19F
330
1F
100
AcDbEntity
  8
1
 62
     2
100
AcDbMText
 10
3227.64528121909
 20
-1689.729870858127
 30
0.0
 40
3.0
 41
0.0
 71
     5
 72
     1
  1
A
  7
CONVERTER_12
 73
     1
 44
0.79545454545455
  0
MTEXT
  5
1A0
330
1F
100
AcDbEntity
  8
1
 62
     2
100
AcDbMText
 10
3227.71731568382
 20
-1719.729870858127
 30
0.0
 40
3.0
 41
0.0
 71
     5
 72
     1
  1
A'
  7
CONVERTER_12
 73
     1
 44
0.79545454545455
  0
MTEXT
  5
1A1
330
1F
100
AcDbEntity
  8
1
 62
     2
100
AcDbMText
 10
3221.29112942478
 20
-1810.15850090422
 30
0.0
 40
4.0
 41
0.0
 71
     5
 72
     1
  1
A-A'
  7
CONVERTER_12
 73
     1
 44
0.79545454545455
  0
TEXT
  5
1A3
330
1F
100
AcDbEntity
  8
1
 62
     2
100
AcDbText
 10
3084.76211429811
 20
-1775.95420183263
 30
0.0
 40
7.0
  1
 AWG#22,UL3266
 41
0.54
  7
CONVERTER_13
100
AcDbText
  0
MTEXT
  5
1A4
330
1F
100
AcDbEntity
  8
1
 62
     2
100
AcDbMText
 10
3055.5873152185
 20
-1775.95420183263
 30
0.0
 40
7.0
 41
0.0
 71
     7
 72
     1
  1
\U+30ea\U+30fc\U+30c9\U+7dda
  7
CONVERTER_11
 73
     1
 44
1.05042016806723
  0
MTEXT
  5
1A5
330
1F
100
AcDbEntity
  8
1
 62
     2
100
AcDbMText
 10
3070.08777032431
 20
-1786.90132244106
 30
0.0
 40
7.0
 41
0.0
 71
     7
 72
     1
  1
\U+9577\U+3055300mm\U+4ee5\U+4e0a
  7
CONVERTER_11
 73
     1
 44
1.05042016806723
  0
DIMENSION
  5
1B1
330
1F
100
AcDbEntity
  8
1
100
AcDbDimension
  2
*D4
 10
3607.06721482666
 20
-1624.729870858127
 30
0.0
 11
3590.834422608035
 21
-1619.729870858127
 31
0.0
 70
    32
  1
<>
 71
     5
 42
-1.0
 53
0.00013888888889
  3
ME10_DIM_10
100
AcDbAlignedDimension
 13
3573.06721482666
 23
-1664.729870858127
 33
0.0
 14
3607.06721482666
 24
-1701.729870858127
 34
0.0
100
AcDbRotatedDimension
  0
DIMENSION
  5
1BC
330
1F
100
AcDbEntity
  8
1
100
AcDbDimension
  2
*D5
 10
3429.06721482666
 20
-1684.729870858127
 30
0.0
 11
3444.19623072942
 21
-1679.729870858127
 31
0.0
 70
    32
  1
<>
 71
     5
 42
-1.0
 53
0.00013888888889
  3
ME10_DIM_11
100
AcDbAlignedDimension
 13
3454.06721482666
 23
-1700.729870858127
 33
0.0
 14
3429.06721482666
 24
-1701.729870858127
 34
0.0
100
AcDbRotatedDimension
  0
DIMENSION
  5
1C9
330
1F
100
AcDbEntity
  8
1
100
AcDbDimension
  2
*D6
 10
3413.06721482666
 20
-1700.729870858127
 30
0.0
 11
3406.06721482666
 21
-1707.729870858127
 31
0.0
 70
    32
  1
<>
 71
     5
 42
-1.0
 53
90.0
  3
ME10_DIM_12
100
AcDbAlignedDimension
 13
3429.86721482666
 23
-1714.729870858127
 33
0.0
 14
3454.06721482666
 24
-1700.729870858127
 34
0.0
 50
90.0
100
AcDbRotatedDimension
  0
DIMENSION
  5
1D6
330
1F
100
AcDbEntity
  8
1
100
AcDbDimension
  2
*D7
 10
3474.06721482666
 20
-1656.729870858127
 30
0.0
 11
3487.247708307886
 21
-1651.729870858127
 31
0.0
 70
    32
  1
<>
 71
     5
 42
-1.0
 53
0.00013888888889
  3
ME10_DIM_13
100
AcDbAlignedDimension
 13
3466.06721482666
 23
-1664.729870858127
 33
0.0
 14
3474.06721482666
 24
-1664.729870858127
 34
0.0
100
AcDbRotatedDimension
  0
DIMENSION
  5
1E1
330
1F
100
AcDbEntity
  8
1
100
AcDbDimension
  2
*D8
 10
3397.06721482666
 20
-1671.229870858127
 30
0.0
 11
3392.06721482666
 21
-1707.729870858127
 31
0.0
 70
    32
  1
\U+03C673.025
 71
     5
 42
-1.0
 53
90.0
  3
ME10_DIM_14
100
AcDbAlignedDimension
 13
3464.56721482666
 23
-1744.229870858127
 33
0.0
 14
3464.56721482666
 24
-1671.229870858127
 34
0.0
 50
90.0
100
AcDbRotatedDimension
  0
DIMENSION
  5
1EE
330
1F
100
AcDbEntity
  8
1
100
AcDbDimension
  2
*D9
 10
3466.06721482666
 20
-1640.729870858127
 30
0.0
 11
3450.38650112074
 21
-1635.729870858127
 31
0.0
 70
    32
  1
<>
 71
     5
 42
-1.0
 53
0.00013888888889
  3
ME10_DIM_15
100
AcDbAlignedDimension
 13
3464.56721482666
 23
-1671.229870858127
 33
0.0
 14
3466.06721482666
 24
-1664.729870858127
 34
0.0
100
AcDbRotatedDimension
  0
DIMENSION
  5
1F9
330
1F
100
AcDbEntity
  8
1
100
AcDbDimension
  2
*D10
 10
3466.06721482666
 20
-1624.729870858127
 30
0.0
 11
3523.604989158756
 21
-1619.729870858127
 31
0.0
 70
    32
  1
L
 71
     5
 42
-1.0
 53
0.00013888888889
  3
ME10_DIM_16
100
AcDbAlignedDimension
 13
3573.06721482666
 23
-1664.729870858127
 33
0.0
 14
3466.06721482666
 24
-1664.729870858127
 34
0.0
100
AcDbRotatedDimension
  0
DIMENSION
  5
204
330
1F
100
AcDbEntity
  8
1
100
AcDbDimension
  2
*D11
 10
3466.06721482666
 20
-1624.729870858127
 30
0.0
 11
3451.265785566766
 21
-1619.729870858127
 31
0.0
 70
    32
  1
<>
 71
     5
 42
-1.0
 53
0.00013888888889
  3
ME10_DIM_17
100
AcDbAlignedDimension
 13
3429.06721482666
 23
-1701.729870858127
 33
0.0
 14
3466.06721482666
 24
-1664.729870858127
 34
0.0
100
AcDbRotatedDimension
  0
DIMENSION
  5
20F
330
1F
100
AcDbEntity
  8
1
100
AcDbDimension
  2
*D12
 10
3607.067214826661
 20
-1684.729870858127
 30
0.0
 11
3592.37950377801
 21
-1679.729870858127
 31
0.0
 70
    32
  1
<>
 71
     5
 42
-1.0
 53
0.00013888888889
  3
ME10_DIM_18
100
AcDbAlignedDimension
 13
3582.06721482666
 23
-1700.729870858127
 33
0.0
 14
3607.06721482666
 24
-1701.729870858127
 34
0.0
100
AcDbRotatedDimension
  0
DIMENSION
  5
21C
330
1F
100
AcDbEntity
  8
1
100
AcDbDimension
  2
*D13
 10
3623.06721482666
 20
-1700.729870858127
 30
0.0
 11
3616.06721482666
 21
-1678.47002658666
 31
0.0
 70
    32
  1
<>
 71
     5
 42
-1.0
 53
90.0
  3
ME10_DIM_19
100
AcDbAlignedDimension
 13
3606.267214826661
 23
-1714.729870858127
 33
0.0
 14
3582.06721482666
 24
-1700.729870858127
 34
0.0
 50
90.0
100
AcDbRotatedDimension
  0
DIMENSION
  5
227
330
1F
100
AcDbEntity
  8
1
100
AcDbDimension
  2
*D14
 10
3250.091211477554
 20
-1624.729870858127
 30
0.0
 11
3233.50300581255
 21
-1619.729870858127
 31
0.0
 70
    32
  1
<>
 71
     5
 42
-1.0
 53
0.00013888888889
  3
ME10_DIM_20
100
AcDbAlignedDimension
 13
3213.091211477554
 23
-1701.729870858127
 33
0.0
 14
3250.091211477554
 24
-1664.729870858127
 34
0.0
100
AcDbRotatedDimension
  0
DIMENSION
  5
232
330
1F
100
AcDbEntity
  8
1
100
AcDbDimension
  2
*D15
 10
3015.051324030246
 20
-1640.729870858127
 30
0.0
 11
3049.851324030247
 21
-1635.729870858127
 31
0.0
 70
    32
  1
<>
 71
     5
 42
-1.0
 53
0.00013888888889
  3
ME10_DIM_21
100
AcDbAlignedDimension
 13
3084.651324030247
 23
-1669.289870858127
 33
0.0
 14
3015.051324030246
 24
-1669.289870858127
 34
0.0
100
AcDbRotatedDimension
  0
DIMENSION
  5
23D
330
1F
100
AcDbEntity
  8
1
100
AcDbDimension
  2
*D16
 10
3108.851324030247
 20
-1672.929870858127
 30
0.0
 11
3103.851324030247
 21
-1707.729870858127
 31
0.0
 70
    32
  1
<>
 71
     5
 42
-1.0
 53
90.0
  3
ME10_DIM_22
100
AcDbAlignedDimension
 13
3088.291324030246
 23
-1742.529870858128
 33
0.0
 14
3088.291324030246
 24
-1672.929870858127
 34
0.0
 50
90.0
100
AcDbRotatedDimension
  0
DIMENSION
  5
248
330
1F
100
AcDbEntity
  8
1
100
AcDbDimension
  2
*D17
 10
3006.851324030246
 20
-1624.729870858127
 30
0.0
 11
3049.851324030247
 21
-1619.729870858127
 31
0.0
 70
    32
  1
<>
 71
     5
 42
-1.0
 53
0.00013888888889
  3
ME10_DIM_23
100
AcDbAlignedDimension
 13
3092.851324030247
 23
-1672.729870858127
 33
0.0
 14
3006.851324030246
 24
-1672.729870858127
 34
0.0
100
AcDbRotatedDimension
  0
DIMENSION
  5
253
330
1F
100
AcDbEntity
  8
1
100
AcDbDimension
  2
*D18
 10
3124.851324030247
 20
-1664.729870858127
 30
0.0
 11
3119.851324030247
 21
-1707.729870858127
 31
0.0
 70
    32
  1
<>
 71
     5
 42
-1.0
 53
90.0
  3
ME10_DIM_24
100
AcDbAlignedDimension
 13
3084.851324030247
 23
-1750.729870858127
 33
0.0
 14
3084.851324030247
 24
-1664.729870858127
 34
0.0
 50
90.0
100
AcDbRotatedDimension
  0
DIMENSION
  5
25E
330
1F
100
AcDbEntity
  8
1
100
AcDbDimension
  2
*D19
 10
3250.091211477554
 20
-1624.729870858127
 30
0.0
 11
3307.62898580965
 21
-1619.729870858127
 31
0.0
 70
    32
  1
L
 71
     5
 42
-1.0
 53
0.00013888888889
  3
ME10_DIM_25
100
AcDbAlignedDimension
 13
3357.091211477554
 23
-1664.729870858127
 33
0.0
 14
3250.091211477554
 24
-1664.729870858127
 34
0.0
100
AcDbRotatedDimension
  0
DIMENSION
  5
26B
330
1F
100
AcDbEntity
  8
1
100
AcDbDimension
  2
*D20
 10
3250.091211477554
 20
-1640.729870858127
 30
0.0
 11
3236.62427086794
 21
-1635.729870858127
 31
0.0
 70
    32
  1
<>
 71
     5
 42
-1.0
 53
0.00013888888889
  3
ME10_DIM_26
100
AcDbAlignedDimension
 13
3248.591211477554
 23
-1671.229870858127
 33
0.0
 14
3250.091211477554
 24
-1664.729870858127
 34
0.0
100
AcDbRotatedDimension
  0
DIMENSION
  5
276
330
1F
100
AcDbEntity
  8
1
100
AcDbDimension
  2
*D21
 10
3181.091211477554
 20
-1671.229870858127
 30
0.0
 11
3176.091211477554
 21
-1707.729870858127
 31
0.0
 70
    32
  1
\U+03C673.025
 71
     5
 42
-1.0
 53
90.0
  3
ME10_DIM_27
100
AcDbAlignedDimension
 13
3248.591211477554
 23
-1744.229870858127
 33
0.0
 14
3248.591211477554
 24
-1671.229870858127
 34
0.0
 50
90.0
100
AcDbRotatedDimension
  0
DIMENSION
  5
283
330
1F
100
AcDbEntity
  8
1
100
AcDbDimension
  2
*D22
 10
3258.091211477554
 20
-1656.729870858127
 30
0.0
 11
3271.27170495878
 21
-1651.729870858127
 31
0.0
 70
    32
  1
<>
 71
     5
 42
-1.0
 53
0.00013888888889
  3
ME10_DIM_28
100
AcDbAlignedDimension
 13
3250.091211477554
 23
-1664.729870858127
 33
0.0
 14
3258.091211477554
 24
-1664.729870858127
 34
0.0
100
AcDbRotatedDimension
  0
DIMENSION
  5
290
330
1F
100
AcDbEntity
  8
1
100
AcDbDimension
  2
*D23
 10
3197.091211477554
 20
-1700.729870858127
 30
0.0
 11
3190.091211477554
 21
-1707.729870858127
 31
0.0
 70
    32
  1
<>
 71
     5
 42
-1.0
 53
90.0
  3
ME10_DIM_29
100
AcDbAlignedDimension
 13
3213.891211477554
 23
-1714.729870858127
 33
0.0
 14
3238.091211477554
 24
-1700.729870858127
 34
0.0
 50
90.0
100
AcDbRotatedDimension
  0
DIMENSION
  5
29B
330
1F
100
AcDbEntity
  8
1
100
AcDbDimension
  2
*D24
 10
3213.091211477554
 20
-1684.729870858127
 30
0.0
 11
3227.90928716019
 21
-1679.729870858127
 31
0.0
 70
    32
  1
<>
 71
     5
 42
-1.0
 53
0.00013888888889
  3
ME10_DIM_30
100
AcDbAlignedDimension
 13
3238.091211477554
 23
-1700.729870858127
 33
0.0
 14
3213.091211477554
 24
-1701.729870858127
 34
0.0
100
AcDbRotatedDimension
  0
DIMENSION
  5
2A8
330
1F
100
AcDbEntity
  8
1
100
AcDbDimension
  2
*D25
 10
3199.42349910317
 20
-1789.76715699059
 30
0.0
 11
3194.42349910317
 21
-1802.40802247225
 31
0.0
 70
    32
  1
<>
 71
     5
 42
-1.0
 53
90.0
  3
ME10_DIM_31
100
AcDbAlignedDimension
 13
3221.42349910317
 23
-1802.76715699059
 33
0.0
 14
3217.817947827706
 24
-1789.76715699059
 34
0.0
 50
90.0
100
AcDbRotatedDimension
  0
DIMENSION
  5
2B5
330
1F
100
AcDbEntity
  8
1
100
AcDbDimension
  2
*D26
 10
3215.42349910317
 20
-1773.76715699059
 30
0.0
 11
3227.28530951871
 21
-1768.76715699059
 31
0.0
 70
    32
  1
<>
 71
     5
 42
-1.0
 53
0.00013888888889
  3
ME10_DIM_32
100
AcDbAlignedDimension
 13
3228.42349910317
 23
-1795.76715699059
 33
0.0
 14
3215.42349910317
 24
-1792.161605715126
 34
0.0
100
AcDbRotatedDimension
  0
INSERT
  5
2BD
330
1F
100
AcDbEntity
  8
1
100
AcDbBlockReference
  2
*D27
 10
0.0
 20
0.0
 30
0.0
  0
DIMENSION
  5
2CA
330
1F
100
AcDbEntity
  8
1
100
AcDbDimension
  2
*D28
 10
3198.207962573152
 20
-1772.551620460571
 30
0.0
 11
3194.867082186372
 21
-1768.823242074357
 31
0.0
 70
    37
  1
<>
 71
     5
 42
-1.0
  3
ME10_DIM_33
100
AcDb3PointAngularDimension
 13
3215.42349910317
 23
-1787.332512466161
 33
0.0
 14
3212.988854578742
 24
-1789.76715699059
 34
0.0
 15
3215.42349910317
 25
-1789.76715699059
 35
0.0
  0
INSERT
  5
2D2
330
1F
100
AcDbEntity
  8
1
100
AcDbBlockReference
  2
*D29
 10
0.0
 20
0.0
 30
0.0
  0
INSERT
  5
2DA
330
1F
100
AcDbEntity
  8
1
100
AcDbBlockReference
  2
*D30
 10
0.0
 20
0.0
 30
0.0
  0
INSERT
  5
2E2
330
1F
100
AcDbEntity
  8
1
100
AcDbBlockReference
  2
*D31
 10
0.0
 20
0.0
 30
0.0
  0
HATCH
  5
2E3
330
1F
100
AcDbEntity
  8
1
  6
Continuous
 62
     2
100
AcDbHatch
 10
0.0
 20
0.0
 30
0.0
210
0.0
220
0.0
230
1.0
  2
_USER
 70
     0
 71
     1
 91
        1
 92
        1
 93
        6
 72
     1
 10
3225.029050378634
 20
-1789.76715699059
 11
3217.817947827706
 21
-1789.76715699059
 72
     2
 10
3221.42349910317
 20
-1795.76715699059
 40
6.999999999999885
 50
121.0027191338724
 51
148.997280866126
 73
     1
 72
     1
 10
3215.42349910317
 20
-1792.161605715126
 11
3215.42349910317
 21
-1799.372708266054
 72
     2
 10
3221.42349910317
 20
-1795.76715699059
 40
7.000000000000003
 50
211.002719133874
 51
270.0
 73
     1
 72
     2
 10
3221.42349910317
 20
-1795.76715699059
 40
7.0
 50
270.0
 51
360.0
 73
     1
 72
     2
 10
3221.42349910317
 20
-1795.76715699059
 40
7.0
 50
0.0
 51
58.99728086612438
 73
     1
 97
        6
330
165
330
16F
330
166
330
172
330
171
330
170
 75
     1
 76
     0
 52
45.0
 41
2.0
 77
     0
 78
     1
 53
45.0
 43
0.0
 44
0.0
 45
-1.414213562373095
 46
1.414213562373095
 79
     0
 98
        1
 10
0.0
 20
0.0
  0
ENDSEC
  0
SECTION
  2
OBJECTS
  0
DICTIONARY
  5
C
330
0
100
AcDbDictionary
281
     1
  3
ACAD_GROUP
350
D
  3
ACAD_LAYOUT
350
1A
  3
ACAD_MATERIAL
350
3B
  3
ACAD_MLEADERSTYLE
350
2E6
  3
ACAD_MLINESTYLE
350
17
  3
ACAD_PLOTSETTINGS
350
19
  3
ACAD_PLOTSTYLENAME
350
E
  3
ACAD_VISUALSTYLE
350
2A
  3
AcDbVariableDictionary
350
2E4
  0
DICTIONARY
  5
D
102
{ACAD_REACTORS
330
C
102
}
330
C
100
AcDbDictionary
281
     1
  0
DICTIONARY
  5
1A
102
{ACAD_REACTORS
330
C
102
}
330
C
100
AcDbDictionary
281
     1
  3
Layout1
350
1E
  3
Layout2
350
26
  3
Model
350
22
  0
DICTIONARY
  5
3B
102
{ACAD_REACTORS
330
C
102
}
330
C
100
AcDbDictionary
281
     1
  3
ByBlock
350
3D
  3
ByLayer
350
3C
  3
Global
350
3E
  0
DICTIONARY
  5
2E6
102
{ACAD_REACTORS
330
C
102
}
330
C
100
AcDbDictionary
281
     1
  0
DICTIONARY
  5
17
102
{ACAD_REACTORS
330
C
102
}
330
C
100
AcDbDictionary
281
     1
  3
Standard
350
18
  0
DICTIONARY
  5
19
102
{ACAD_REACTORS
330
C
102
}
330
C
100
AcDbDictionary
281
     1
  0
ACDBDICTIONARYWDFLT
  5
E
102
{ACAD_REACTORS
330
C
102
}
330
C
100
AcDbDictionary
281
     1
  3
Normal
350
F
100
AcDbDictionaryWithDefault
340
F
  0
DICTIONARY
  5
2A
102
{ACAD_REACTORS
330
C
102
}
330
C
100
AcDbDictionary
281
     1
  3
2dWireframe
350
2F
  3
3D Hidden
350
31
  3
3dWireframe
350
30
  3
Basic
350
32
  3
Brighten
350
36
  3
ColorChange
350
3A
  3
Conceptual
350
34
  3
Dim
350
35
  3
Facepattern
350
39
  3
Flat
350
2B
  3
FlatWithEdges
350
2C
  3
Gouraud
350
2D
  3
GouraudWithEdges
350
2E
  3
Linepattern
350
38
  3
Realistic
350
33
  3
Thicken
350
37
  0
DICTIONARY
  5
2E4
102
{ACAD_REACTORS
330
C
102
}
330
C
100
AcDbDictionary
281
     1
  3
DIMASSOC
350
2E7
  3
HIDETEXT
350
2E8
  0
LAYOUT
  5
1E
102
{ACAD_REACTORS
330
1A
102
}
330
1A
100
AcDbPlotSettings
  1

  2
none_device
  4

  6

 40
0.0
 41
0.0
 42
0.0
 43
0.0
 44
0.0
 45
0.0
 46
0.0
 47
0.0
 48
0.0
 49
0.0
140
0.0
141
0.0
142
1.0
143
1.0
 70
   688
 72
     0
 73
     0
 74
     5
  7

 75
    16
147
1.0
148
0.0
149
0.0
100
AcDbLayout
  1
Layout1
 70
     1
 71
     1
 10
0.0
 20
0.0
 11
12.0
 21
9.0
 12
0.0
 22
0.0
 32
0.0
 14
1.00000000000000E+20
 24
1.00000000000000E+20
 34
1.00000000000000E+20
 15
-1.00000000000000E+20
 25
-1.00000000000000E+20
 35
-1.00000000000000E+20
146
0.0
 13
0.0
 23
0.0
 33
0.0
 16
1.0
 26
0.0
 36
0.0
 17
0.0
 27
1.0
 37
0.0
 76
     0
330
1B
  0
LAYOUT
  5
26
102
{ACAD_REACTORS
330
1A
102
}
330
1A
100
AcDbPlotSettings
  1

  2
none_device
  4

  6

 40
0.0
 41
0.0
 42
0.0
 43
0.0
 44
0.0
 45
0.0
 46
0.0
 47
0.0
 48
0.0
 49
0.0
140
0.0
141
0.0
142
1.0
143
1.0
 70
   688
 72
     0
 73
     0
 74
     5
  7

 75
    16
147
1.0
148
0.0
149
0.0
100
AcDbLayout
  1
Layout2
 70
     1
 71
     2
 10
0.0
 20
0.0
 11
0.0
 21
0.0
 12
0.0
 22
0.0
 32
0.0
 14
0.0
 24
0.0
 34
0.0
 15
0.0
 25
0.0
 35
0.0
146
0.0
 13
0.0
 23
0.0
 33
0.0
 16
1.0
 26
0.0
 36
0.0
 17
0.0
 27
1.0
 37
0.0
 76
     0
330
23
  0
LAYOUT
  5
22
102
{ACAD_REACTORS
330
1A
102
}
330
1A
100
AcDbPlotSettings
  1

  2
none_device
  4

  6

 40
0.0
 41
0.0
 42
0.0
 43
0.0
 44
0.0
 45
0.0
 46
0.0
 47
0.0
 48
0.0
 49
0.0
140
0.0
141
0.0
142
1.0
143
1.0
 70
  1712
 72
     0
 73
     0
 74
     0
  7

 75
     0
147
1.0
148
0.0
149
0.0
100
AcDbLayout
  1
Model
 70
     1
 71
     0
 10
0.0
 20
0.0
 11
12.0
 21
9.0
 12
0.0
 22
0.0
 32
0.0
 14
3002.401324030247
 24
-1814.76715699059
 34
0.0
 15
3624.56721482666
 25
-1579.52031955029
 35
0.0
146
0.0
 13
0.0
 23
0.0
 33
0.0
 16
1.0
 26
0.0
 36
0.0
 17
0.0
 27
1.0
 37
0.0
 76
     0
330
1F
331
29
  0
MATERIAL
  5
3D
102
{ACAD_REACTORS
330
3B
102
}
102
{ACAD_XDICTIONARY
360
30B
102
}
330
3B
100
AcDbMaterial
  1
ByBlock
  0
MATERIAL
  5
3C
102
{ACAD_REACTORS
330
3B
102
}
102
{ACAD_XDICTIONARY
360
309
102
}
330
3B
100
AcDbMaterial
  1
ByLayer
  0
MATERIAL
  5
3E
102
{ACAD_REACTORS
330
3B
102
}
102
{ACAD_XDICTIONARY
360
30D
102
}
330
3B
100
AcDbMaterial
  1
Global
  0
MLINESTYLE
  5
18
102
{ACAD_REACTORS
330
17
102
}
330
17
100
AcDbMlineStyle
  2
Standard
 70
     0
  3

 62
   256
 51
90.0
 52
90.0
 71
     2
 49
0.5
 62
   256
  6
BYLAYER
 49
-0.5
 62
   256
  6
BYLAYER
  0
ACDBPLACEHOLDER
  5
F
102
{ACAD_REACTORS
330
E
102
}
330
E
  0
VISUALSTYLE
  5
2F
102
{ACAD_REACTORS
330
2A
102
}
102
{ACAD_XDICTIONARY
360
2F1
102
}
330
2A
100
AcDbVisualStyle
  2
2dWireframe
 70
     4
 71
     0
 72
     2
 73
     0
 90
        0
 40
-0.6
 41
-30.0
 62
     5
 63
     7
 74
     1
 91
        4
 64
     7
 65
   257
 75
     1
175
     1
 42
1.0
 92
        0
 66
   257
 43
1.0
 76
     1
 77
     6
 78
     2
 67
     7
 79
     5
170
     0
171
     0
290
     0
174
     0
 93
        1
 44
0.0
173
     0
291
     0
 45
0.0
1001
ACAD
1000
AcDbSavedByObjectVersion
1070
     0
  0
VISUALSTYLE
  5
31
102
{ACAD_REACTORS
330
2A
102
}
102
{ACAD_XDICTIONARY
360
2F5
102
}
330
2A
100
AcDbVisualStyle
  2
3D Hidden
 70
     6
 71
     1
 72
     2
 73
     2
 90
        0
 40
-0.6
 41
-30.0
 62
     5
 63
     7
 74
     2
 91
        2
 64
     7
 65
   257
 75
     2
175
     1
 42
40.0
 92
        0
 66
   257
 43
1.0
 76
     1
 77
     6
 78
     2
 67
     7
 79
     3
170
     0
171
     0
290
     0
174
     0
 93
        1
 44
0.0
173
     0
291
     0
 45
0.0
1001
ACAD
1000
AcDbSavedByObjectVersion
1070
     0
  0
VISUALSTYLE
  5
30
102
{ACAD_REACTORS
330
2A
102
}
102
{ACAD_XDICTIONARY
360
2F3
102
}
330
2A
100
AcDbVisualStyle
  2
3dWireframe
 70
     5
 71
     0
 72
     2
 73
     0
 90
        0
 40
-0.6
 41
-30.0
 62
     5
 63
     7
 74
     1
 91
        4
 64
     7
 65
   257
 75
     1
175
     1
 42
1.0
 92
        0
 66
   257
 43
1.0
 76
     1
 77
     6
 78
     2
 67
     7
 79
     5
170
     0
171
     0
290
     0
174
     0
 93
        1
 44
0.0
173
     0
291
     0
 45
0.0
1001
ACAD
1000
AcDbSavedByObjectVersion
1070
     0
  0
VISUALSTYLE
  5
32
102
{ACAD_REACTORS
330
2A
102
}
102
{ACAD_XDICTIONARY
360
2F7
102
}
330
2A
100
AcDbVisualStyle
  2
Basic
 70
     7
 71
     1
 72
     0
 73
     1
 90
        0
 40
-0.6
 41
-30.0
 62
     5
 63
     7
 74
     0
 91
        4
 64
     7
 65
   257
 75
     1
175
     1
 42
1.0
 92
        8
 66
     7
 43
1.0
 76
     1
 77
     6
 78
     2
 67
     7
 79
     5
170
     0
171
     0
290
     0
174
     0
 93
        1
 44
0.0
173
     0
291
     1
 45
0.0
1001
ACAD
1000
AcDbSavedByObjectVersion
1070
     0
  0
VISUALSTYLE
  5
36
102
{ACAD_REACTORS
330
2A
102
}
102
{ACAD_XDICTIONARY
360
2FF
102
}
330
2A
100
AcDbVisualStyle
  2
Brighten
 70
    12
 71
     2
 72
     2
 73
     0
 90
        0
 40
-0.6
 41
-30.0
 62
     5
 63
     7
 74
     1
 91
        4
 64
     7
 65
   257
 75
     1
175
     1
 42
1.0
 92
        8
 66
     7
 43
1.0
 76
     1
 77
     6
 78
     2
 67
     7
 79
     5
170
     0
171
     0
290
     0
174
     0
 93
        1
 44
50.0
173
     0
291
     1
 45
0.0
1001
ACAD
1000
AcDbSavedByObjectVersion
1070
     0
  0
VISUALSTYLE
  5
3A
102
{ACAD_REACTORS
330
2A
102
}
102
{ACAD_XDICTIONARY
360
307
102
}
330
2A
100
AcDbVisualStyle
  2
ColorChange
 70
    16
 71
     2
 72
     2
 73
     3
 90
        0
 40
-0.6
 41
-30.0
 62
     5
 63
     8
 74
     1
 91
        4
 64
     7
 65
   257
 75
     1
175
     1
 42
1.0
 92
        8
 66
     8
 43
1.0
 76
     1
 77
     6
 78
     2
 67
     7
 79
     5
170
     0
171
     0
290
     0
174
     0
 93
        1
 44
0.0
173
     0
291
     1
 45
0.0
1001
ACAD
1000
AcDbSavedByObjectVersion
1070
     0
  0
VISUALSTYLE
  5
34
102
{ACAD_REACTORS
330
2A
102
}
102
{ACAD_XDICTIONARY
360
2FB
102
}
330
2A
100
AcDbVisualStyle
  2
Conceptual
 70
     9
 71
     3
 72
     2
 73
     0
 90
        0
 40
-0.6
 41
-30.0
 62
     5
 63
     7
 74
     2
 91
        2
 64
     7
 65
   257
 75
     1
175
     1
 42
40.0
 92
        8
 66
     7
 43
1.0
 76
     1
 77
     6
 78
     2
 67
     7
 79
     3
170
     0
171
     0
290
     0
174
     0
 93
        1
 44
0.0
173
     0
291
     0
 45
0.0
1001
ACAD
1000
AcDbSavedByObjectVersion
1070
     0
  0
VISUALSTYLE
  5
35
102
{ACAD_REACTORS
330
2A
102
}
102
{ACAD_XDICTIONARY
360
2FD
102
}
330
2A
100
AcDbVisualStyle
  2
Dim
 70
    11
 71
     2
 72
     2
 73
     0
 90
        0
 40
-0.6
 41
-30.0
 62
     5
 63
     7
 74
     1
 91
        4
 64
     7
 65
   257
 75
     1
175
     1
 42
1.0
 92
        8
 66
     7
 43
1.0
 76
     1
 77
     6
 78
     2
 67
     7
 79
     5
170
     0
171
     0
290
     0
174
     0
 93
        1
 44
-50.0
173
     0
291
     1
 45
0.0
1001
ACAD
1000
AcDbSavedByObjectVersion
1070
     0
  0
VISUALSTYLE
  5
39
102
{ACAD_REACTORS
330
2A
102
}
102
{ACAD_XDICTIONARY
360
305
102
}
330
2A
100
AcDbVisualStyle
  2
Facepattern
 70
    15
 71
     2
 72
     2
 73
     0
 90
        0
 40
-0.6
 41
-30.0
 62
     5
 63
     7
 74
     1
 91
        4
 64
     7
 65
   257
 75
     1
175
     1
 42
1.0
 92
        8
 66
     7
 43
1.0
 76
     1
 77
     6
 78
     2
 67
     7
 79
     5
170
     0
171
     0
290
     0
174
     0
 93
        1
 44
0.0
173
     0
291
     1
 45
0.0
1001
ACAD
1000
AcDbSavedByObjectVersion
1070
     0
  0
VISUALSTYLE
  5
2B
102
{ACAD_REACTORS
330
2A
102
}
102
{ACAD_XDICTIONARY
360
2E9
102
}
330
2A
100
AcDbVisualStyle
  2
Flat
 70
     0
 71
     2
 72
     1
 73
     1
 90
        2
 40
-0.6
 41
30.0
 62
     5
 63
     7
 74
     0
 91
        4
 64
     7
 65
   257
 75
     1
175
     1
 42
1.0
 92
        8
 66
     7
 43
1.0
 76
     1
 77
     6
 78
     2
 67
     7
 79
     5
170
     0
171
     0
290
     0
174
     0
 93
       13
 44
0.0
173
     0
291
     1
 45
0.0
1001
ACAD
1000
AcDbSavedByObjectVersion
1070
     0
  0
VISUALSTYLE
  5
2C
102
{ACAD_REACTORS
330
2A
102
}
102
{ACAD_XDICTIONARY
360
2EB
102
}
330
2A
100
AcDbVisualStyle
  2
FlatWithEdges
 70
     1
 71
     2
 72
     1
 73
     1
 90
        2
 40
-0.6
 41
30.0
 62
     5
 63
     7
 74
     1
 91
        4
 64
     7
 65
   257
 75
     1
175
     1
 42
1.0
 92
        0
 66
   257
 43
1.0
 76
     1
 77
     6
 78
     2
 67
     7
 79
     5
170
     0
171
     0
290
     0
174
     0
 93
       13
 44
0.0
173
     0
291
     1
 45
0.0
1001
ACAD
1000
AcDbSavedByObjectVersion
1070
     0
  0
VISUALSTYLE
  5
2D
102
{ACAD_REACTORS
330
2A
102
}
102
{ACAD_XDICTIONARY
360
2ED
102
}
330
2A
100
AcDbVisualStyle
  2
Gouraud
 70
     2
 71
     2
 72
     2
 73
     1
 90
        2
 40
-0.6
 41
30.0
 62
     5
 63
     7
 74
     0
 91
        4
 64
     7
 65
   257
 75
     1
175
     1
 42
1.0
 92
        0
 66
     7
 43
1.0
 76
     1
 77
     6
 78
     2
 67
     7
 79
     5
170
     0
171
     0
290
     0
174
     0
 93
       13
 44
0.0
173
     0
291
     1
 45
0.0
1001
ACAD
1000
AcDbSavedByObjectVersion
1070
     0
  0
VISUALSTYLE
  5
2E
102
{ACAD_REACTORS
330
2A
102
}
102
{ACAD_XDICTIONARY
360
2EF
102
}
330
2A
100
AcDbVisualStyle
  2
GouraudWithEdges
 70
     3
 71
     2
 72
     2
 73
     1
 90
        2
 40
-0.6
 41
30.0
 62
     5
 63
     7
 74
     1
 91
        4
 64
     7
 65
   257
 75
     1
175
     1
 42
1.0
 92
        0
 66
   257
 43
1.0
 76
     1
 77
     6
 78
     2
 67
     7
 79
     5
170
     0
171
     0
290
     0
174
     0
 93
       13
 44
0.0
173
     0
291
     1
 45
0.0
1001
ACAD
1000
AcDbSavedByObjectVersion
1070
     0
  0
VISUALSTYLE
  5
38
102
{ACAD_REACTORS
330
2A
102
}
102
{ACAD_XDICTIONARY
360
303
102
}
330
2A
100
AcDbVisualStyle
  2
Linepattern
 70
    14
 71
     2
 72
     2
 73
     0
 90
        0
 40
-0.6
 41
-30.0
 62
     5
 63
     7
 74
     1
 91
        4
 64
     7
 65
   257
 75
     7
175
     7
 42
1.0
 92
        8
 66
     7
 43
1.0
 76
     1
 77
     6
 78
     2
 67
     7
 79
     5
170
     0
171
     0
290
     0
174
     0
 93
        1
 44
0.0
173
     0
291
     1
 45
0.0
1001
ACAD
1000
AcDbSavedByObjectVersion
1070
     0
  0
VISUALSTYLE
  5
33
102
{ACAD_REACTORS
330
2A
102
}
102
{ACAD_XDICTIONARY
360
2F9
102
}
330
2A
100
AcDbVisualStyle
  2
Realistic
 70
     8
 71
     2
 72
     2
 73
     0
 90
        0
 40
-0.6
 41
-30.0
 62
     5
 63
     7
 74
     1
 91
        0
 64
     7
 65
   257
 75
     1
175
     1
 42
1.0
 92
        8
 66
     8
 43
1.0
 76
     1
 77
     6
 78
     2
 67
     7
 79
     5
170
     0
171
     0
290
     0
174
     0
 93
       13
 44
0.0
173
     0
291
     0
 45
0.0
1001
ACAD
1000
AcDbSavedByObjectVersion
1070
     0
  0
VISUALSTYLE
  5
37
102
{ACAD_REACTORS
330
2A
102
}
102
{ACAD_XDICTIONARY
360
301
102
}
330
2A
100
AcDbVisualStyle
  2
Thicken
 70
    13
 71
     2
 72
     2
 73
     0
 90
        0
 40
-0.6
 41
-30.0
 62
     5
 63
     7
 74
     1
 91
        4
 64
     7
 65
   257
 75
     1
175
     1
 42
1.0
 92
       12
 66
     7
 43
1.0
 76
     1
 77
     6
 78
     2
 67
     7
 79
     5
170
     0
171
     0
290
     0
174
     0
 93
        1
 44
0.0
173
     0
291
     1
 45
0.0
1001
ACAD
1000
AcDbSavedByObjectVersion
1070
     0
  0
DICTIONARYVAR
  5
2E7
102
{ACAD_REACTORS
330
2E4
102
}
330
2E4
100
DictionaryVariables
280
     0
  1
2
  0
DICTIONARYVAR
  5
2E8
102
{ACAD_REACTORS
330
2E4
102
}
330
2E4
100
DictionaryVariables
280
     0
  1
1
  0
DICTIONARY
  5
30B
330
3D
100
AcDbDictionary
280
     1
281
     1
  3
ACAD_XREC_ROUNDTRIP
360
30C
  0
DICTIONARY
  5
309
330
3C
100
AcDbDictionary
280
     1
281
     1
  3
ACAD_XREC_ROUNDTRIP
360
30A
  0
DICTIONARY
  5
30D
330
3E
100
AcDbDictionary
280
     1
281
     1
  3
ACAD_XREC_ROUNDTRIP
360
30E
  0
DICTIONARY
  5
2F1
330
2F
100
AcDbDictionary
280
     1
281
     1
  3
ACAD_XREC_ROUNDTRIP
360
2F2
  0
DICTIONARY
  5
2F5
330
31
100
AcDbDictionary
280
     1
281
     1
  3
ACAD_XREC_ROUNDTRIP
360
2F6
  0
DICTIONARY
  5
2F3
330
30
100
AcDbDictionary
280
     1
281
     1
  3
ACAD_XREC_ROUNDTRIP
360
2F4
  0
DICTIONARY
  5
2F7
330
32
100
AcDbDictionary
280
     1
281
     1
  3
ACAD_XREC_ROUNDTRIP
360
2F8
  0
DICTIONARY
  5
2FF
330
36
100
AcDbDictionary
280
     1
281
     1
  3
ACAD_XREC_ROUNDTRIP
360
300
  0
DICTIONARY
  5
307
330
3A
100
AcDbDictionary
280
     1
281
     1
  3
ACAD_XREC_ROUNDTRIP
360
308
  0
DICTIONARY
  5
2FB
330
34
100
AcDbDictionary
280
     1
281
     1
  3
ACAD_XREC_ROUNDTRIP
360
2FC
  0
DICTIONARY
  5
2FD
330
35
100
AcDbDictionary
280
     1
281
     1
  3
ACAD_XREC_ROUNDTRIP
360
2FE
  0
DICTIONARY
  5
305
330
39
100
AcDbDictionary
280
     1
281
     1
  3
ACAD_XREC_ROUNDTRIP
360
306
  0
DICTIONARY
  5
2E9
330
2B
100
AcDbDictionary
280
     1
281
     1
  3
ACAD_XREC_ROUNDTRIP
360
2EA
  0
DICTIONARY
  5
2EB
330
2C
100
AcDbDictionary
280
     1
281
     1
  3
ACAD_XREC_ROUNDTRIP
360
2EC
  0
DICTIONARY
  5
2ED
330
2D
100
AcDbDictionary
280
     1
281
     1
  3
ACAD_XREC_ROUNDTRIP
360
2EE
  0
DICTIONARY
  5
2EF
330
2E
100
AcDbDictionary
280
     1
281
     1
  3
ACAD_XREC_ROUNDTRIP
360
2F0
  0
DICTIONARY
  5
303
330
38
100
AcDbDictionary
280
     1
281
     1
  3
ACAD_XREC_ROUNDTRIP
360
304
  0
DICTIONARY
  5
2F9
330
33
100
AcDbDictionary
280
     1
281
     1
  3
ACAD_XREC_ROUNDTRIP
360
2FA
  0
DICTIONARY
  5
301
330
37
100
AcDbDictionary
280
     1
281
     1
  3
ACAD_XREC_ROUNDTRIP
360
302
  0
XRECORD
  5
30C
102
{ACAD_REACTORS
330
30B
102
}
330
30B
100
AcDbXrecord
280
     1
102
MATERIAL
148
0.0
149
0.0
149
0.0
 93
        0
 94
      127
282
     0
 72
     1
 77
     1
171
     1
175
     1
179
     1
273
     0
  0
XRECORD
  5
30A
102
{ACAD_REACTORS
330
309
102
}
330
309
100
AcDbXrecord
280
     1
102
MATERIAL
148
0.0
149
0.0
149
0.0
 93
        0
 94
      127
282
     0
 72
     1
 77
     1
171
     1
175
     1
179
     1
273
     0
  0
XRECORD
  5
30E
102
{ACAD_REACTORS
330
30D
102
}
330
30D
100
AcDbXrecord
280
     1
102
MATERIAL
148
0.0
149
0.0
149
0.0
 93
        0
 94
      127
282
     0
 72
     1
 77
     1
171
     1
175
     1
179
     1
273
     0
  0
XRECORD
  5
2F2
102
{ACAD_REACTORS
330
2F1
102
}
330
2F1
100
AcDbXrecord
280
     1
102
RTVSPropertyOp0
 70
     1
102
RTVSPropertyOp1
 70
     1
102
RTVSPropertyOp2
 70
     1
102
RTVSPropertyOp3
 70
     1
102
RTVSPropertyOp4
 70
     1
102
RTVSPropertyOp5
 70
     1
102
RTVSPropertyOp6
 70
     1
102
RTVSPropertyOp7
 70
     1
102
RTVSPropertyOp8
 70
     1
102
RTVSPropertyOp9
 70
     1
102
RTVSPropertyOp10
 70
     1
102
RTVSPropertyOp11
 70
     1
102
RTVSPropertyOp12
 70
     1
102
RTVSPropertyOp13
 70
     1
102
RTVSPropertyOp14
 70
     1
102
RTVSPropertyOp15
 70
     1
102
RTVSPropertyOp16
 70
     1
102
RTVSPropertyOp17
 70
     1
102
RTVSPropertyOp18
 70
     1
102
RTVSPropertyOp19
 70
     1
102
RTVSPropertyOp20
 70
     1
102
RTVSPropertyOp21
 70
     1
102
RTVSPropertyOp22
 70
     1
102
RTVSPropertyOp23
 70
     1
102
RTVSPropertyOp24
 70
     1
102
RTVSPropertyOp25
 70
     1
102
RTVSPropertyOp26
 70
     1
102
RTVSPropertyOp27
 70
     1
102
RTVSPropertyOp28
 70
     1
102
RTVSPropertyOp29
 70
     1
102
RTVSPropertyOp30
 70
     1
102
RTVSPropertyOp31
 70
     1
102
RTVSPropertyOp32
 70
     1
  0
XRECORD
  5
2F6
102
{ACAD_REACTORS
330
2F5
102
}
330
2F5
100
AcDbXrecord
280
     1
102
RTVSPropertyOp0
 70
     1
102
RTVSPropertyOp1
 70
     1
102
RTVSPropertyOp2
 70
     1
102
RTVSPropertyOp3
 70
     1
102
RTVSPropertyOp4
 70
     1
102
RTVSPropertyOp5
 70
     1
102
RTVSPropertyOp6
 70
     1
102
RTVSPropertyOp7
 70
     1
102
RTVSPropertyOp8
 70
     1
102
RTVSPropertyOp9
 70
     1
102
RTVSPropertyOp10
 70
     1
102
RTVSPropertyOp11
 70
     1
102
RTVSPropertyOp12
 70
     1
102
RTVSPropertyOp13
 70
     1
102
RTVSPropertyOp14
 70
     1
102
RTVSPropertyOp15
 70
     1
102
RTVSPropertyOp16
 70
     1
102
RTVSPropertyOp17
 70
     1
102
RTVSPropertyOp18
 70
     1
102
RTVSPropertyOp19
 70
     1
102
RTVSPropertyOp20
 70
     1
102
RTVSPropertyOp21
 70
     1
102
RTVSPropertyOp22
 70
     1
102
RTVSPropertyOp23
 70
     1
102
RTVSPropertyOp24
 70
     1
102
RTVSPropertyOp25
 70
     1
102
RTVSPropertyOp26
 70
     1
102
RTVSPropertyOp27
 70
     1
102
RTVSPropertyOp28
 70
     1
102
RTVSPropertyOp29
 70
     1
102
RTVSPropertyOp30
 70
     1
102
RTVSPropertyOp31
 70
     1
102
RTVSPropertyOp32
 70
     1
  0
XRECORD
  5
2F4
102
{ACAD_REACTORS
330
2F3
102
}
330
2F3
100
AcDbXrecord
280
     1
102
RTVSPropertyOp0
 70
     1
102
RTVSPropertyOp1
 70
     1
102
RTVSPropertyOp2
 70
     1
102
RTVSPropertyOp3
 70
     1
102
RTVSPropertyOp4
 70
     1
102
RTVSPropertyOp5
 70
     1
102
RTVSPropertyOp6
 70
     1
102
RTVSPropertyOp7
 70
     1
102
RTVSPropertyOp8
 70
     1
102
RTVSPropertyOp9
 70
     1
102
RTVSPropertyOp10
 70
     1
102
RTVSPropertyOp11
 70
     1
102
RTVSPropertyOp12
 70
     1
102
RTVSPropertyOp13
 70
     1
102
RTVSPropertyOp14
 70
     1
102
RTVSPropertyOp15
 70
     1
102
RTVSPropertyOp16
 70
     1
102
RTVSPropertyOp17
 70
     1
102
RTVSPropertyOp18
 70
     1
102
RTVSPropertyOp19
 70
     1
102
RTVSPropertyOp20
 70
     1
102
RTVSPropertyOp21
 70
     1
102
RTVSPropertyOp22
 70
     1
102
RTVSPropertyOp23
 70
     1
102
RTVSPropertyOp24
 70
     1
102
RTVSPropertyOp25
 70
     1
102
RTVSPropertyOp26
 70
     1
102
RTVSPropertyOp27
 70
     1
102
RTVSPropertyOp28
 70
     1
102
RTVSPropertyOp29
 70
     1
102
RTVSPropertyOp30
 70
     1
102
RTVSPropertyOp31
 70
     1
102
RTVSPropertyOp32
 70
     1
  0
XRECORD
  5
2F8
102
{ACAD_REACTORS
330
2F7
102
}
330
2F7
100
AcDbXrecord
280
     1
102
RTVSPropertyOp0
 70
     1
102
RTVSPropertyOp1
 70
     1
102
RTVSPropertyOp2
 70
     1
102
RTVSPropertyOp3
 70
     1
102
RTVSPropertyOp4
 70
     1
102
RTVSPropertyOp5
 70
     1
102
RTVSPropertyOp6
 70
     1
102
RTVSPropertyOp7
 70
     1
102
RTVSPropertyOp8
 70
     1
102
RTVSPropertyOp9
 70
     1
102
RTVSPropertyOp10
 70
     1
102
RTVSPropertyOp11
 70
     1
102
RTVSPropertyOp12
 70
     1
102
RTVSPropertyOp13
 70
     1
102
RTVSPropertyOp14
 70
     1
102
RTVSPropertyOp15
 70
     1
102
RTVSPropertyOp16
 70
     1
102
RTVSPropertyOp17
 70
     1
102
RTVSPropertyOp18
 70
     1
102
RTVSPropertyOp19
 70
     1
102
RTVSPropertyOp20
 70
     1
102
RTVSPropertyOp21
 70
     1
102
RTVSPropertyOp22
 70
     1
102
RTVSPropertyOp23
 70
     1
102
RTVSPropertyOp24
 70
     1
102
RTVSPropertyOp25
 70
     1
102
RTVSPropertyOp26
 70
     1
102
RTVSPropertyOp27
 70
     1
102
RTVSPropertyOp28
 70
     1
102
RTVSPropertyOp29
 70
     1
102
RTVSPropertyOp30
 70
     1
102
RTVSPropertyOp31
 70
     1
102
RTVSPropertyOp32
 70
     1
  0
XRECORD
  5
300
102
{ACAD_REACTORS
330
2FF
102
}
330
2FF
100
AcDbXrecord
280
     1
102
RTVSPropertyOp0
 70
     1
102
RTVSPropertyOp1
 70
     1
102
RTVSPropertyOp2
 70
     1
102
RTVSPropertyOp3
 70
     1
102
RTVSPropertyOp4
 70
     1
102
RTVSPropertyOp5
 70
     1
102
RTVSPropertyOp6
 70
     1
102
RTVSPropertyOp7
 70
     1
102
RTVSPropertyOp8
 70
     1
102
RTVSPropertyOp9
 70
     1
102
RTVSPropertyOp10
 70
     1
102
RTVSPropertyOp11
 70
     1
102
RTVSPropertyOp12
 70
     1
102
RTVSPropertyOp13
 70
     1
102
RTVSPropertyOp14
 70
     1
102
RTVSPropertyOp15
 70
     1
102
RTVSPropertyOp16
 70
     1
102
RTVSPropertyOp17
 70
     1
102
RTVSPropertyOp18
 70
     1
102
RTVSPropertyOp19
 70
     1
102
RTVSPropertyOp20
 70
     1
102
RTVSPropertyOp21
 70
     1
102
RTVSPropertyOp22
 70
     1
102
RTVSPropertyOp23
 70
     1
102
RTVSPropertyOp24
 70
     1
102
RTVSPropertyOp25
 70
     1
102
RTVSPropertyOp26
 70
     1
102
RTVSPropertyOp27
 70
     1
102
RTVSPropertyOp28
 70
     1
102
RTVSPropertyOp29
 70
     1
102
RTVSPropertyOp30
 70
     1
102
RTVSPropertyOp31
 70
     1
102
RTVSPropertyOp32
 70
     1
  0
XRECORD
  5
308
102
{ACAD_REACTORS
330
307
102
}
330
307
100
AcDbXrecord
280
     1
102
RTVSPropertyOp0
 70
     1
102
RTVSPropertyOp1
 70
     1
102
RTVSPropertyOp2
 70
     1
102
RTVSPropertyOp3
 70
     1
102
RTVSPropertyOp4
 70
     1
102
RTVSPropertyOp5
 70
     1
102
RTVSPropertyOp6
 70
     1
102
RTVSPropertyOp7
 70
     1
102
RTVSPropertyOp8
 70
     1
102
RTVSPropertyOp9
 70
     1
102
RTVSPropertyOp10
 70
     1
102
RTVSPropertyOp11
 70
     1
102
RTVSPropertyOp12
 70
     1
102
RTVSPropertyOp13
 70
     1
102
RTVSPropertyOp14
 70
     1
102
RTVSPropertyOp15
 70
     1
102
RTVSPropertyOp16
 70
     1
102
RTVSPropertyOp17
 70
     1
102
RTVSPropertyOp18
 70
     1
102
RTVSPropertyOp19
 70
     1
102
RTVSPropertyOp20
 70
     1
102
RTVSPropertyOp21
 70
     1
102
RTVSPropertyOp22
 70
     1
102
RTVSPropertyOp23
 70
     1
102
RTVSPropertyOp24
 70
     1
102
RTVSPropertyOp25
 70
     1
102
RTVSPropertyOp26
 70
     1
102
RTVSPropertyOp27
 70
     1
102
RTVSPropertyOp28
 70
     1
102
RTVSPropertyOp29
 70
     1
102
RTVSPropertyOp30
 70
     1
102
RTVSPropertyOp31
 70
     1
102
RTVSPropertyOp32
 70
     1
  0
XRECORD
  5
2FC
102
{ACAD_REACTORS
330
2FB
102
}
330
2FB
100
AcDbXrecord
280
     1
102
RTVSPropertyOp0
 70
     1
102
RTVSPropertyOp1
 70
     1
102
RTVSPropertyOp2
 70
     1
102
RTVSPropertyOp3
 70
     1
102
RTVSPropertyOp4
 70
     1
102
RTVSPropertyOp5
 70
     1
102
RTVSPropertyOp6
 70
     1
102
RTVSPropertyOp7
 70
     1
102
RTVSPropertyOp8
 70
     1
102
RTVSPropertyOp9
 70
     1
102
RTVSPropertyOp10
 70
     1
102
RTVSPropertyOp11
 70
     1
102
RTVSPropertyOp12
 70
     1
102
RTVSPropertyOp13
 70
     1
102
RTVSPropertyOp14
 70
     1
102
RTVSPropertyOp15
 70
     1
102
RTVSPropertyOp16
 70
     1
102
RTVSPropertyOp17
 70
     1
102
RTVSPropertyOp18
 70
     1
102
RTVSPropertyOp19
 70
     1
102
RTVSPropertyOp20
 70
     1
102
RTVSPropertyOp21
 70
     1
102
RTVSPropertyOp22
 70
     1
102
RTVSPropertyOp23
 70
     1
102
RTVSPropertyOp24
 70
     1
102
RTVSPropertyOp25
 70
     1
102
RTVSPropertyOp26
 70
     1
102
RTVSPropertyOp27
 70
     1
102
RTVSPropertyOp28
 70
     1
102
RTVSPropertyOp29
 70
     1
102
RTVSPropertyOp30
 70
     1
102
RTVSPropertyOp31
 70
     1
102
RTVSPropertyOp32
 70
     1
  0
XRECORD
  5
2FE
102
{ACAD_REACTORS
330
2FD
102
}
330
2FD
100
AcDbXrecord
280
     1
102
RTVSPropertyOp0
 70
     1
102
RTVSPropertyOp1
 70
     1
102
RTVSPropertyOp2
 70
     1
102
RTVSPropertyOp3
 70
     1
102
RTVSPropertyOp4
 70
     1
102
RTVSPropertyOp5
 70
     1
102
RTVSPropertyOp6
 70
     1
102
RTVSPropertyOp7
 70
     1
102
RTVSPropertyOp8
 70
     1
102
RTVSPropertyOp9
 70
     1
102
RTVSPropertyOp10
 70
     1
102
RTVSPropertyOp11
 70
     1
102
RTVSPropertyOp12
 70
     1
102
RTVSPropertyOp13
 70
     1
102
RTVSPropertyOp14
 70
     1
102
RTVSPropertyOp15
 70
     1
102
RTVSPropertyOp16
 70
     1
102
RTVSPropertyOp17
 70
     1
102
RTVSPropertyOp18
 70
     1
102
RTVSPropertyOp19
 70
     1
102
RTVSPropertyOp20
 70
     1
102
RTVSPropertyOp21
 70
     1
102
RTVSPropertyOp22
 70
     1
102
RTVSPropertyOp23
 70
     1
102
RTVSPropertyOp24
 70
     1
102
RTVSPropertyOp25
 70
     1
102
RTVSPropertyOp26
 70
     1
102
RTVSPropertyOp27
 70
     1
102
RTVSPropertyOp28
 70
     1
102
RTVSPropertyOp29
 70
     1
102
RTVSPropertyOp30
 70
     1
102
RTVSPropertyOp31
 70
     1
102
RTVSPropertyOp32
 70
     1
  0
XRECORD
  5
306
102
{ACAD_REACTORS
330
305
102
}
330
305
100
AcDbXrecord
280
     1
102
RTVSPropertyOp0
 70
     1
102
RTVSPropertyOp1
 70
     1
102
RTVSPropertyOp2
 70
     1
102
RTVSPropertyOp3
 70
     1
102
RTVSPropertyOp4
 70
     1
102
RTVSPropertyOp5
 70
     1
102
RTVSPropertyOp6
 70
     1
102
RTVSPropertyOp7
 70
     1
102
RTVSPropertyOp8
 70
     1
102
RTVSPropertyOp9
 70
     1
102
RTVSPropertyOp10
 70
     1
102
RTVSPropertyOp11
 70
     1
102
RTVSPropertyOp12
 70
     1
102
RTVSPropertyOp13
 70
     1
102
RTVSPropertyOp14
 70
     1
102
RTVSPropertyOp15
 70
     1
102
RTVSPropertyOp16
 70
     1
102
RTVSPropertyOp17
 70
     1
102
RTVSPropertyOp18
 70
     1
102
RTVSPropertyOp19
 70
     1
102
RTVSPropertyOp20
 70
     1
102
RTVSPropertyOp21
 70
     1
102
RTVSPropertyOp22
 70
     1
102
RTVSPropertyOp23
 70
     1
102
RTVSPropertyOp24
 70
     1
102
RTVSPropertyOp25
 70
     1
102
RTVSPropertyOp26
 70
     1
102
RTVSPropertyOp27
 70
     1
102
RTVSPropertyOp28
 70
     1
102
RTVSPropertyOp29
 70
     1
102
RTVSPropertyOp30
 70
     1
102
RTVSPropertyOp31
 70
     1
102
RTVSPropertyOp32
 70
     1
  0
XRECORD
  5
2EA
102
{ACAD_REACTORS
330
2E9
102
}
330
2E9
100
AcDbXrecord
280
     1
102
RTVSPropertyOp0
 70
     1
102
RTVSPropertyOp1
 70
     1
102
RTVSPropertyOp2
 70
     1
102
RTVSPropertyOp3
 70
     1
102
RTVSPropertyOp4
 70
     1
102
RTVSPropertyOp5
 70
     1
102
RTVSPropertyOp6
 70
     1
102
RTVSPropertyOp7
 70
     1
102
RTVSPropertyOp8
 70
     1
102
RTVSPropertyOp9
 70
     1
102
RTVSPropertyOp10
 70
     1
102
RTVSPropertyOp11
 70
     1
102
RTVSPropertyOp12
 70
     1
102
RTVSPropertyOp13
 70
     1
102
RTVSPropertyOp14
 70
     1
102
RTVSPropertyOp15
 70
     1
102
RTVSPropertyOp16
 70
     1
102
RTVSPropertyOp17
 70
     1
102
RTVSPropertyOp18
 70
     1
102
RTVSPropertyOp19
 70
     1
102
RTVSPropertyOp20
 70
     1
102
RTVSPropertyOp21
 70
     1
102
RTVSPropertyOp22
 70
     1
102
RTVSPropertyOp23
 70
     1
102
RTVSPropertyOp24
 70
     1
102
RTVSPropertyOp25
 70
     1
102
RTVSPropertyOp26
 70
     1
102
RTVSPropertyOp27
 70
     1
102
RTVSPropertyOp28
 70
     1
102
RTVSPropertyOp29
 70
     1
102
RTVSPropertyOp30
 70
     1
102
RTVSPropertyOp31
 70
     1
102
RTVSPropertyOp32
 70
     1
  0
XRECORD
  5
2EC
102
{ACAD_REACTORS
330
2EB
102
}
330
2EB
100
AcDbXrecord
280
     1
102
RTVSPropertyOp0
 70
     1
102
RTVSPropertyOp1
 70
     1
102
RTVSPropertyOp2
 70
     1
102
RTVSPropertyOp3
 70
     1
102
RTVSPropertyOp4
 70
     1
102
RTVSPropertyOp5
 70
     1
102
RTVSPropertyOp6
 70
     1
102
RTVSPropertyOp7
 70
     1
102
RTVSPropertyOp8
 70
     1
102
RTVSPropertyOp9
 70
     1
102
RTVSPropertyOp10
 70
     1
102
RTVSPropertyOp11
 70
     1
102
RTVSPropertyOp12
 70
     1
102
RTVSPropertyOp13
 70
     1
102
RTVSPropertyOp14
 70
     1
102
RTVSPropertyOp15
 70
     1
102
RTVSPropertyOp16
 70
     1
102
RTVSPropertyOp17
 70
     1
102
RTVSPropertyOp18
 70
     1
102
RTVSPropertyOp19
 70
     1
102
RTVSPropertyOp20
 70
     1
102
RTVSPropertyOp21
 70
     1
102
RTVSPropertyOp22
 70
     1
102
RTVSPropertyOp23
 70
     1
102
RTVSPropertyOp24
 70
     1
102
RTVSPropertyOp25
 70
     1
102
RTVSPropertyOp26
 70
     1
102
RTVSPropertyOp27
 70
     1
102
RTVSPropertyOp28
 70
     1
102
RTVSPropertyOp29
 70
     1
102
RTVSPropertyOp30
 70
     1
102
RTVSPropertyOp31
 70
     1
102
RTVSPropertyOp32
 70
     1
  0
XRECORD
  5
2EE
102
{ACAD_REACTORS
330
2ED
102
}
330
2ED
100
AcDbXrecord
280
     1
102
RTVSPropertyOp0
 70
     1
102
RTVSPropertyOp1
 70
     1
102
RTVSPropertyOp2
 70
     1
102
RTVSPropertyOp3
 70
     1
102
RTVSPropertyOp4
 70
     1
102
RTVSPropertyOp5
 70
     1
102
RTVSPropertyOp6
 70
     1
102
RTVSPropertyOp7
 70
     1
102
RTVSPropertyOp8
 70
     1
102
RTVSPropertyOp9
 70
     1
102
RTVSPropertyOp10
 70
     1
102
RTVSPropertyOp11
 70
     1
102
RTVSPropertyOp12
 70
     1
102
RTVSPropertyOp13
 70
     1
102
RTVSPropertyOp14
 70
     1
102
RTVSPropertyOp15
 70
     1
102
RTVSPropertyOp16
 70
     1
102
RTVSPropertyOp17
 70
     1
102
RTVSPropertyOp18
 70
     1
102
RTVSPropertyOp19
 70
     1
102
RTVSPropertyOp20
 70
     1
102
RTVSPropertyOp21
 70
     1
102
RTVSPropertyOp22
 70
     1
102
RTVSPropertyOp23
 70
     1
102
RTVSPropertyOp24
 70
     1
102
RTVSPropertyOp25
 70
     1
102
RTVSPropertyOp26
 70
     1
102
RTVSPropertyOp27
 70
     1
102
RTVSPropertyOp28
 70
     1
102
RTVSPropertyOp29
 70
     1
102
RTVSPropertyOp30
 70
     1
102
RTVSPropertyOp31
 70
     1
102
RTVSPropertyOp32
 70
     1
  0
XRECORD
  5
2F0
102
{ACAD_REACTORS
330
2EF
102
}
330
2EF
100
AcDbXrecord
280
     1
102
RTVSPropertyOp0
 70
     1
102
RTVSPropertyOp1
 70
     1
102
RTVSPropertyOp2
 70
     1
102
RTVSPropertyOp3
 70
     1
102
RTVSPropertyOp4
 70
     1
102
RTVSPropertyOp5
 70
     1
102
RTVSPropertyOp6
 70
     1
102
RTVSPropertyOp7
 70
     1
102
RTVSPropertyOp8
 70
     1
102
RTVSPropertyOp9
 70
     1
102
RTVSPropertyOp10
 70
     1
102
RTVSPropertyOp11
 70
     1
102
RTVSPropertyOp12
 70
     1
102
RTVSPropertyOp13
 70
     1
102
RTVSPropertyOp14
 70
     1
102
RTVSPropertyOp15
 70
     1
102
RTVSPropertyOp16
 70
     1
102
RTVSPropertyOp17
 70
     1
102
RTVSPropertyOp18
 70
     1
102
RTVSPropertyOp19
 70
     1
102
RTVSPropertyOp20
 70
     1
102
RTVSPropertyOp21
 70
     1
102
RTVSPropertyOp22
 70
     1
102
RTVSPropertyOp23
 70
     1
102
RTVSPropertyOp24
 70
     1
102
RTVSPropertyOp25
 70
     1
102
RTVSPropertyOp26
 70
     1
102
RTVSPropertyOp27
 70
     1
102
RTVSPropertyOp28
 70
     1
102
RTVSPropertyOp29
 70
     1
102
RTVSPropertyOp30
 70
     1
102
RTVSPropertyOp31
 70
     1
102
RTVSPropertyOp32
 70
     1
  0
XRECORD
  5
304
102
{ACAD_REACTORS
330
303
102
}
330
303
100
AcDbXrecord
280
     1
102
RTVSPropertyOp0
 70
     1
102
RTVSPropertyOp1
 70
     1
102
RTVSPropertyOp2
 70
     1
102
RTVSPropertyOp3
 70
     1
102
RTVSPropertyOp4
 70
     1
102
RTVSPropertyOp5
 70
     1
102
RTVSPropertyOp6
 70
     1
102
RTVSPropertyOp7
 70
     1
102
RTVSPropertyOp8
 70
     1
102
RTVSPropertyOp9
 70
     1
102
RTVSPropertyOp10
 70
     1
102
RTVSPropertyOp11
 70
     1
102
RTVSPropertyOp12
 70
     1
102
RTVSPropertyOp13
 70
     1
102
RTVSPropertyOp14
 70
     1
102
RTVSPropertyOp15
 70
     1
102
RTVSPropertyOp16
 70
     1
102
RTVSPropertyOp17
 70
     1
102
RTVSPropertyOp18
 70
     1
102
RTVSPropertyOp19
 70
     1
102
RTVSPropertyOp20
 70
     1
102
RTVSPropertyOp21
 70
     1
102
RTVSPropertyOp22
 70
     1
102
RTVSPropertyOp23
 70
     1
102
RTVSPropertyOp24
 70
     1
102
RTVSPropertyOp25
 70
     1
102
RTVSPropertyOp26
 70
     1
102
RTVSPropertyOp27
 70
     1
102
RTVSPropertyOp28
 70
     1
102
RTVSPropertyOp29
 70
     1
102
RTVSPropertyOp30
 70
     1
102
RTVSPropertyOp31
 70
     1
102
RTVSPropertyOp32
 70
     1
  0
XRECORD
  5
2FA
102
{ACAD_REACTORS
330
2F9
102
}
330
2F9
100
AcDbXrecord
280
     1
102
RTVSPropertyOp0
 70
     1
102
RTVSPropertyOp1
 70
     1
102
RTVSPropertyOp2
 70
     1
102
RTVSPropertyOp3
 70
     1
102
RTVSPropertyOp4
 70
     1
102
RTVSPropertyOp5
 70
     1
102
RTVSPropertyOp6
 70
     1
102
RTVSPropertyOp7
 70
     1
102
RTVSPropertyOp8
 70
     1
102
RTVSPropertyOp9
 70
     1
102
RTVSPropertyOp10
 70
     1
102
RTVSPropertyOp11
 70
     1
102
RTVSPropertyOp12
 70
     1
102
RTVSPropertyOp13
 70
     1
102
RTVSPropertyOp14
 70
     1
102
RTVSPropertyOp15
 70
     1
102
RTVSPropertyOp16
 70
     1
102
RTVSPropertyOp17
 70
     1
102
RTVSPropertyOp18
 70
     1
102
RTVSPropertyOp19
 70
     1
102
RTVSPropertyOp20
 70
     1
102
RTVSPropertyOp21
 70
     1
102
RTVSPropertyOp22
 70
     1
102
RTVSPropertyOp23
 70
     1
102
RTVSPropertyOp24
 70
     1
102
RTVSPropertyOp25
 70
     1
102
RTVSPropertyOp26
 70
     1
102
RTVSPropertyOp27
 70
     1
102
RTVSPropertyOp28
 70
     1
102
RTVSPropertyOp29
 70
     1
102
RTVSPropertyOp30
 70
     1
102
RTVSPropertyOp31
 70
     1
102
RTVSPropertyOp32
 70
     1
  0
XRECORD
  5
302
102
{ACAD_REACTORS
330
301
102
}
330
301
100
AcDbXrecord
280
     1
102
RTVSPropertyOp0
 70
     1
102
RTVSPropertyOp1
 70
     1
102
RTVSPropertyOp2
 70
     1
102
RTVSPropertyOp3
 70
     1
102
RTVSPropertyOp4
 70
     1
102
RTVSPropertyOp5
 70
     1
102
RTVSPropertyOp6
 70
     1
102
RTVSPropertyOp7
 70
     1
102
RTVSPropertyOp8
 70
     1
102
RTVSPropertyOp9
 70
     1
102
RTVSPropertyOp10
 70
     1
102
RTVSPropertyOp11
 70
     1
102
RTVSPropertyOp12
 70
     1
102
RTVSPropertyOp13
 70
     1
102
RTVSPropertyOp14
 70
     1
102
RTVSPropertyOp15
 70
     1
102
RTVSPropertyOp16
 70
     1
102
RTVSPropertyOp17
 70
     1
102
RTVSPropertyOp18
 70
     1
102
RTVSPropertyOp19
 70
     1
102
RTVSPropertyOp20
 70
     1
102
RTVSPropertyOp21
 70
     1
102
RTVSPropertyOp22
 70
     1
102
RTVSPropertyOp23
 70
     1
102
RTVSPropertyOp24
 70
     1
102
RTVSPropertyOp25
 70
     1
102
RTVSPropertyOp26
 70
     1
102
RTVSPropertyOp27
 70
     1
102
RTVSPropertyOp28
 70
     1
102
RTVSPropertyOp29
 70
     1
102
RTVSPropertyOp30
 70
     1
102
RTVSPropertyOp31
 70
     1
102
RTVSPropertyOp32
 70
     1
  0
ENDSEC
  0
EOF
