  0
SECTION
  2
HEADER
  9
$ACADVER
  1
AC1015
  9
$ACADMAINTVER
 70
     6
  9
$DWGCODEPAGE
  3
ANSI_932
  9
$INSBASE
 10
0.0
 20
0.0
 30
0.0
  9
$EXTMIN
 10
3134.142189600428
 20
-1684.694423116817
 30
0.0
  9
$EXTMAX
 10
3378.269850599389
 20
-1549.494423116817
 30
0.0
  9
$LIMMIN
 10
0.0
 20
0.0
  9
$LIMMAX
 10
12.0
 20
9.0
  9
$ORTHOMODE
 70
     0
  9
$REGENMODE
 70
     1
  9
$FILLMODE
 70
     1
  9
$QTEXTMODE
 70
     0
  9
$MIRRTEXT
 70
     1
  9
$LTSCALE
 40
1.0
  9
$ATTMODE
 70
     1
  9
$TEXTSIZE
 40
0.2
  9
$TRACEWID
 40
0.05
  9
$TEXTSTYLE
  7
Standard
  9
$CLAYER
  8
0
  9
$CELTYPE
  6
ByLayer
  9
$CECOLOR
 62
   256
  9
$CELTSCALE
 40
1.0
  9
$DISPSILH
 70
     0
  9
$DIMSCALE
 40
1.0
  9
$DIMASZ
 40
0.18
  9
$DIMEXO
 40
0.0625
  9
$DIMDLI
 40
0.38
  9
$DIMRND
 40
0.0
  9
$DIMDLE
 40
0.0
  9
$DIMEXE
 40
0.18
  9
$DIMTP
 40
0.0
  9
$DIMTM
 40
0.0
  9
$DIMTXT
 40
0.18
  9
$DIMCEN
 40
0.09
  9
$DIMTSZ
 40
0.0
  9
$DIMTOL
 70
     0
  9
$DIMLIM
 70
     0
  9
$DIMTIH
 70
     1
  9
$DIMTOH
 70
     1
  9
$DIMSE1
 70
     0
  9
$DIMSE2
 70
     0
  9
$DIMTAD
 70
     0
  9
$DIMZIN
 70
     0
  9
$DIMBLK
  1

  9
$DIMASO
 70
     1
  9
$DIMSHO
 70
     1
  9
$DIMPOST
  1

  9
$DIMAPOST
  1

  9
$DIMALT
 70
     0
  9
$DIMALTD
 70
     2
  9
$DIMALTF
 40
25.4
  9
$DIMLFAC
 40
1.0
  9
$DIMTOFL
 70
     0
  9
$DIMTVP
 40
0.0
  9
$DIMTIX
 70
     0
  9
$DIMSOXD
 70
     0
  9
$DIMSAH
 70
     0
  9
$DIMBLK1
  1

  9
$DIMBLK2
  1

  9
$DIMSTYLE
  2
Standard
  9
$DIMCLRD
 70
     0
  9
$DIMCLRE
 70
     0
  9
$DIMCLRT
 70
     0
  9
$DIMTFAC
 40
1.0
  9
$DIMGAP
 40
0.09
  9
$DIMJUST
 70
     0
  9
$DIMSD1
 70
     0
  9
$DIMSD2
 70
     0
  9
$DIMTOLJ
 70
     1
  9
$DIMTZIN
 70
     0
  9
$DIMALTZ
 70
     0
  9
$DIMALTTZ
 70
     0
  9
$DIMUPT
 70
     0
  9
$DIMDEC
 70
     4
  9
$DIMTDEC
 70
     4
  9
$DIMALTU
 70
     2
  9
$DIMALTTD
 70
     2
  9
$DIMTXSTY
  7
Standard
  9
$DIMAUNIT
 70
     0
  9
$DIMADEC
 70
     0
  9
$DIMALTRND
 40
0.0
  9
$DIMAZIN
 70
     0
  9
$DIMDSEP
 70
    46
  9
$DIMATFIT
 70
     3
  9
$DIMFRAC
 70
     0
  9
$DIMLDRBLK
  1

  9
$DIMLUNIT
 70
     2
  9
$DIMLWD
 70
    -2
  9
$DIMLWE
 70
    -2
  9
$DIMTMOVE
 70
     0
  9
$LUNITS
 70
     2
  9
$LUPREC
 70
     4
  9
$SKETCHINC
 40
0.1
  9
$FILLETRAD
 40
0.5
  9
$AUNITS
 70
     0
  9
$AUPREC
 70
     0
  9
$MENU
  1
.
  9
$ELEVATION
 40
0.0
  9
$PELEVATION
 40
0.0
  9
$THICKNESS
 40
0.0
  9
$LIMCHECK
 70
     0
  9
$CHAMFERA
 40
0.5
  9
$CHAMFERB
 40
0.5
  9
$CHAMFERC
 40
1.0
  9
$CHAMFERD
 40
0.0
  9
$SKPOLY
 70
     0
  9
$TDCREATE
 40
2457743.589170567
  9
$TDUCREATE
 40
2457743.214170567
  9
$TDUPDATE
 40
2457743.589171875
  9
$TDUUPDATE
 40
2457743.214171875
  9
$TDINDWG
 40
0.0000000116
  9
$TDUSRTIMER
 40
0.0000000116
  9
$USRTIMER
 70
     1
  9
$ANGBASE
 50
0.0
  9
$ANGDIR
 70
     0
  9
$PDMODE
 70
     0
  9
$PDSIZE
 40
0.0
  9
$PLINEWID
 40
0.0
  9
$SPLFRAME
 70
     0
  9
$SPLINETYPE
 70
     6
  9
$SPLINESEGS
 70
     8
  9
$HANDSEED
  5
212
  9
$SURFTAB1
 70
     6
  9
$SURFTAB2
 70
     6
  9
$SURFTYPE
 70
     6
  9
$SURFU
 70
     6
  9
$SURFV
 70
     6
  9
$UCSBASE
  2

  9
$UCSNAME
  2

  9
$UCSORG
 10
0.0
 20
0.0
 30
0.0
  9
$UCSXDIR
 10
1.0
 20
0.0
 30
0.0
  9
$UCSYDIR
 10
0.0
 20
1.0
 30
0.0
  9
$UCSORTHOREF
  2

  9
$UCSORTHOVIEW
 70
     0
  9
$UCSORGTOP
 10
0.0
 20
0.0
 30
0.0
  9
$UCSORGBOTTOM
 10
0.0
 20
0.0
 30
0.0
  9
$UCSORGLEFT
 10
0.0
 20
0.0
 30
0.0
  9
$UCSORGRIGHT
 10
0.0
 20
0.0
 30
0.0
  9
$UCSORGFRONT
 10
0.0
 20
0.0
 30
0.0
  9
$UCSORGBACK
 10
0.0
 20
0.0
 30
0.0
  9
$PUCSBASE
  2

  9
$PUCSNAME
  2

  9
$PUCSORG
 10
0.0
 20
0.0
 30
0.0
  9
$PUCSXDIR
 10
1.0
 20
0.0
 30
0.0
  9
$PUCSYDIR
 10
0.0
 20
1.0
 30
0.0
  9
$PUCSORTHOREF
  2

  9
$PUCSORTHOVIEW
 70
     0
  9
$PUCSORGTOP
 10
0.0
 20
0.0
 30
0.0
  9
$PUCSORGBOTTOM
 10
0.0
 20
0.0
 30
0.0
  9
$PUCSORGLEFT
 10
0.0
 20
0.0
 30
0.0
  9
$PUCSORGRIGHT
 10
0.0
 20
0.0
 30
0.0
  9
$PUCSORGFRONT
 10
0.0
 20
0.0
 30
0.0
  9
$PUCSORGBACK
 10
0.0
 20
0.0
 30
0.0
  9
$USERI1
 70
     0
  9
$USERI2
 70
     0
  9
$USERI3
 70
     0
  9
$USERI4
 70
     0
  9
$USERI5
 70
     0
  9
$USERR1
 40
18.1
  9
$USERR2
 40
0.0
  9
$USERR3
 40
0.0
  9
$USERR4
 40
0.0
  9
$USERR5
 40
0.0
  9
$WORLDVIEW
 70
     1
  9
$SHADEDGE
 70
     3
  9
$SHADEDIF
 70
    70
  9
$TILEMODE
 70
     1
  9
$MAXACTVP
 70
    64
  9
$PINSBASE
 10
0.0
 20
0.0
 30
0.0
  9
$PLIMCHECK
 70
     0
  9
$PEXTMIN
 10
1.00000000000000E+20
 20
1.00000000000000E+20
 30
1.00000000000000E+20
  9
$PEXTMAX
 10
-1.00000000000000E+20
 20
-1.00000000000000E+20
 30
-1.00000000000000E+20
  9
$PLIMMIN
 10
0.0
 20
0.0
  9
$PLIMMAX
 10
12.0
 20
9.0
  9
$UNITMODE
 70
     0
  9
$VISRETAIN
 70
     1
  9
$PLINEGEN
 70
     0
  9
$PSLTSCALE
 70
     1
  9
$TREEDEPTH
 70
  3020
  9
$CMLSTYLE
  2
Standard
  9
$CMLJUST
 70
     0
  9
$CMLSCALE
 40
1.0
  9
$PROXYGRAPHICS
 70
     1
  9
$MEASUREMENT
 70
     1
  9
$CELWEIGHT
370
    -1
  9
$ENDCAPS
280
     0
  9
$JOINSTYLE
280
     0
  9
$LWDISPLAY
290
     0
  9
$INSUNITS
 70
     4
  9
$HYPERLINKBASE
  1

  9
$STYLESHEET
  1

  9
$XEDIT
290
     1
  9
$CEPSNTYPE
380
     0
  9
$PSTYLEMODE
290
     1
  9
$FINGERPRINTGUID
  2
{D4A044BF-FE12-45A6-A2BE-B4CA34637314}
  9
$VERSIONGUID
  2
{FAEB1C32-E019-11D5-929B-00C0DF256EC4}
  9
$EXTNAMES
290
     1
  9
$PSVPSCALE
 40
0.0
  9
$OLESTARTUP
290
     0
  0
ENDSEC
  0
SECTION
  2
CLASSES
  0
CLASS
  1
ACDBDICTIONARYWDFLT
  2
AcDbDictionaryWithDefault
  3
ObjectDBX Classes
 90
        0
280
     0
281
     0
  0
CLASS
  1
VISUALSTYLE
  2
AcDbVisualStyle
  3
ObjectDBX Classes
 90
     4095
280
     0
281
     0
  0
CLASS
  1
MATERIAL
  2
AcDbMaterial
  3
ObjectDBX Classes
 90
     1153
280
     0
281
     0
  0
CLASS
  1
DICTIONARYVAR
  2
AcDbDictionaryVar
  3
ObjectDBX Classes
 90
        0
280
     0
281
     0
  0
CLASS
  1
ACDBPLACEHOLDER
  2
AcDbPlaceHolder
  3
ObjectDBX Classes
 90
        0
280
     0
281
     0
  0
CLASS
  1
LAYOUT
  2
AcDbLayout
  3
ObjectDBX Classes
 90
        0
280
     0
281
     0
  0
ENDSEC
  0
SECTION
  2
TABLES
  0
TABLE
  2
VPORT
  5
8
330
0
100
AcDbSymbolTable
 70
     1
  0
VPORT
  5
29
330
8
100
AcDbSymbolTableRecord
100
AcDbViewportTableRecord
  2
*Active
 70
     0
 10
0.0
 20
0.0
 11
1.0
 21
1.0
 12
3256.206020099909
 22
-1617.094423116817
 13
0.0
 23
0.0
 14
0.5
 24
0.5
 15
0.5
 25
0.5
 16
0.0
 26
0.0
 36
1.0
 17
0.0
 27
0.0
 37
0.0
 40
167.5572581341058
 41
1.60267857142857
 42
50.0
 43
0.0
 44
0.0
 50
0.0
 51
0.0
 71
     0
 72
   100
 73
     1
 74
     3
 75
     0
 76
     0
 77
     0
 78
     0
281
     0
 65
     1
110
0.0
120
0.0
130
0.0
111
1.0
121
0.0
131
0.0
112
0.0
122
1.0
132
0.0
 79
     0
146
0.0
  0
ENDTAB
  0
TABLE
  2
LTYPE
  5
5
330
0
100
AcDbSymbolTable
 70
     8
  0
LTYPE
  5
14
330
5
100
AcDbSymbolTableRecord
100
AcDbLinetypeTableRecord
  2
ByBlock
 70
     0
  3

 72
    65
 73
     0
 40
0.0
  0
LTYPE
  5
15
330
5
100
AcDbSymbolTableRecord
100
AcDbLinetypeTableRecord
  2
ByLayer
 70
     0
  3

 72
    65
 73
     0
 40
0.0
  0
LTYPE
  5
16
330
5
100
AcDbSymbolTableRecord
100
AcDbLinetypeTableRecord
  2
Continuous
 70
     0
  3
Solid line
 72
    65
 73
     0
 40
0.0
  0
LTYPE
  5
3F
330
5
100
AcDbSymbolTableRecord
100
AcDbLinetypeTableRecord
  2
DASHED
 70
     0
  3
Dashed
 72
    65
 73
     2
 40
15.0
 49
7.0
 74
     0
 49
-8.0
 74
     0
  0
LTYPE
  5
40
330
5
100
AcDbSymbolTableRecord
100
AcDbLinetypeTableRecord
  2
DOTTED
 70
     0
  3
Dotted
 72
    65
 73
     2
 40
1.0
 49
0.0
 74
     0
 49
-1.0
 74
     0
  0
LTYPE
  5
41
330
5
100
AcDbSymbolTableRecord
100
AcDbLinetypeTableRecord
  2
DOT_CENTER
 70
     0
  3
Dot_Center
 72
    65
 73
     4
 40
14.0
 49
12.0
 74
     0
 49
-1.0
 74
     0
 49
0.0
 74
     0
 49
-1.0
 74
     0
  0
LTYPE
  5
42
330
5
100
AcDbSymbolTableRecord
100
AcDbLinetypeTableRecord
  2
LONG_DASHED
 70
     0
  3
Long_Dashed
 72
    65
 73
     2
 40
15.0
 49
10.0
 74
     0
 49
-5.0
 74
     0
  0
LTYPE
  5
43
330
5
100
AcDbSymbolTableRecord
100
AcDbLinetypeTableRecord
  2
DASH_CENTER
 70
     0
  3
Dash_Center
 72
    65
 73
     4
 40
14.0
 49
11.0
 74
     0
 49
-1.0
 74
     0
 49
1.0
 74
     0
 49
-1.0
 74
     0
  0
LTYPE
  5
44
330
5
100
AcDbSymbolTableRecord
100
AcDbLinetypeTableRecord
  2
PHANTOM
 70
     0
  3
Phantom
 72
    65
 73
     6
 40
13.0
 49
10.0
 74
     0
 49
-1.0
 74
     0
 49
0.0
 74
     0
 49
-1.0
 74
     0
 49
0.0
 74
     0
 49
-1.0
 74
     0
  0
LTYPE
  5
45
330
5
100
AcDbSymbolTableRecord
100
AcDbLinetypeTableRecord
  2
CENTER_DASH_DASH
 70
     0
  3
Center_Dash_Dash
 72
    65
 73
     6
 40
14.0
 49
9.0
 74
     0
 49
-1.0
 74
     0
 49
1.0
 74
     0
 49
-1.0
 74
     0
 49
1.0
 74
     0
 49
-1.0
 74
     0
  0
ENDTAB
  0
TABLE
  2
LAYER
  5
2
330
0
100
AcDbSymbolTable
 70
     2
  0
LAYER
  5
10
330
2
100
AcDbSymbolTableRecord
100
AcDbLayerTableRecord
  2
0
 70
     0
 62
     7
  6
Continuous
370
    -3
390
F
  0
LAYER
  5
46
330
2
100
AcDbSymbolTableRecord
100
AcDbLayerTableRecord
  2
1
 70
     0
 62
     7
  6
Continuous
370
    -3
390
F
  0
ENDTAB
  0
TABLE
  2
STYLE
  5
3
330
0
100
AcDbSymbolTable
 70
     3
  0
STYLE
  5
11
330
3
100
AcDbSymbolTableRecord
100
AcDbTextStyleTableRecord
  2
Standard
 70
     0
 40
0.0
 41
1.0
 50
0.0
 71
     0
 42
0.2
  3
txt
  4

  0
STYLE
  5
13A
330
3
100
AcDbSymbolTableRecord
100
AcDbTextStyleTableRecord
  2
CONVERTER_11
 70
     0
 40
0.0
 41
0.856
 50
0.0
 71
     0
 42
0.2
  3
txt.shx
  4

  0
STYLE
  5
142
330
3
100
AcDbSymbolTableRecord
100
AcDbTextStyleTableRecord
  2
CONVERTER_12
 70
     0
 40
0.0
 41
0.9
 50
0.0
 71
     0
 42
0.2
  3
txt.shx
  4

  0
ENDTAB
  0
TABLE
  2
VIEW
  5
6
330
0
100
AcDbSymbolTable
 70
     0
  0
ENDTAB
  0
TABLE
  2
UCS
  5
7
330
0
100
AcDbSymbolTable
 70
     0
  0
ENDTAB
  0
TABLE
  2
APPID
  5
9
330
0
100
AcDbSymbolTable
 70
     1
  0
APPID
  5
12
330
9
100
AcDbSymbolTableRecord
100
AcDbRegAppTableRecord
  2
ACAD
 70
     0
  0
ENDTAB
  0
TABLE
  2
DIMSTYLE
  5
A
330
0
100
AcDbSymbolTable
 70
    15
100
AcDbDimStyleTable
  0
DIMSTYLE
105
27
330
A
100
AcDbSymbolTableRecord
100
AcDbDimStyleTableRecord
  2
Standard
 70
     0
178
     0
340
11
  0
DIMSTYLE
105
146
102
{ACAD_REACTORS
330
147
102
}
330
A
100
AcDbSymbolTableRecord
100
AcDbDimStyleTableRecord
  2
ME10_DIM_10
 70
     0
 41
3.2
 42
1.0
 44
1.5
 47
40.0
 71
     1
 73
     0
 74
     0
 77
     1
 78
     8
140
3.2
146
0.6
147
2.0
172
     1
173
     1
174
     1
175
     1
176
     2
177
     2
178
     2
272
     0
340
142
  0
DIMSTYLE
105
151
102
{ACAD_REACTORS
330
152
102
}
330
A
100
AcDbSymbolTableRecord
100
AcDbDimStyleTableRecord
  2
ME10_DIM_11
 70
     0
  3
(<>)
 41
3.2
 42
1.0
 44
1.5
 73
     0
 74
     0
 77
     1
 78
     8
140
3.2
147
2.0
172
     1
173
     1
174
     1
175
     1
176
     2
177
     2
178
     2
340
142
  0
DIMSTYLE
105
15C
102
{ACAD_REACTORS
330
15D
102
}
330
A
100
AcDbSymbolTableRecord
100
AcDbDimStyleTableRecord
  2
ME10_DIM_12
 70
     0
 41
3.2
 42
1.0
 44
1.5
 47
0.2
 48
0.2
 71
     1
 73
     0
 74
     0
 77
     1
 78
     8
140
3.2
146
0.6
147
2.0
172
     1
173
     1
174
     1
175
     1
176
     2
177
     2
178
     2
272
     1
340
142
  0
DIMSTYLE
105
169
102
{ACAD_REACTORS
330
16A
102
}
330
A
100
AcDbSymbolTableRecord
100
AcDbDimStyleTableRecord
  2
ME10_DIM_13
 70
     0
  3
φ<>
 41
3.2
 42
1.0
 44
1.5
 48
0.015
 71
     1
 73
     0
 74
     0
 77
     1
 78
     8
140
3.2
146
0.6
147
2.0
172
     1
173
     1
174
     1
175
     1
176
     2
177
     2
178
     2
272
     0
340
142
  0
DIMSTYLE
105
176
102
{ACAD_REACTORS
330
177
102
}
330
A
100
AcDbSymbolTableRecord
100
AcDbDimStyleTableRecord
  2
ME10_DIM_14
 70
     0
 41
3.2
 42
1.0
 44
1.5
 47
0.15
 48
0.15
 71
     1
 73
     0
 74
     0
 77
     1
 78
     8
140
3.2
146
0.6
147
2.0
172
     1
173
     1
174
     1
175
     1
176
     2
177
     2
178
     2
272
     2
340
142
  0
DIMSTYLE
105
183
102
{ACAD_REACTORS
330
184
102
}
330
A
100
AcDbSymbolTableRecord
100
AcDbDimStyleTableRecord
  2
ME10_DIM_15
 70
     0
 41
3.2
 42
1.0
 44
1.5
 73
     0
 74
     0
 77
     1
 78
     8
140
3.2
147
2.0
172
     1
173
     1
174
     1
175
     1
176
     2
177
     2
178
     2
340
142
  0
DIMSTYLE
105
190
102
{ACAD_REACTORS
330
191
102
}
330
A
100
AcDbSymbolTableRecord
100
AcDbDimStyleTableRecord
  2
ME10_DIM_16
 70
     0
 41
3.2
 42
1.0
 44
1.5
 73
     0
 74
     0
 77
     1
 78
     8
140
3.2
147
2.0
172
     1
173
     1
174
     1
175
     1
176
     2
177
     2
178
     2
340
142
  0
DIMSTYLE
105
19B
102
{ACAD_REACTORS
330
19C
102
}
330
A
100
AcDbSymbolTableRecord
100
AcDbDimStyleTableRecord
  2
ME10_DIM_17
 70
     0
 41
3.2
 42
1.0
 44
1.5
 47
0.25
 48
0.25
 71
     1
 73
     0
 74
     0
 77
     1
 78
     8
140
3.2
146
0.6
147
2.0
172
     1
173
     1
174
     1
175
     1
176
     2
177
     2
178
     2
272
     2
340
142
  0
DIMSTYLE
105
1A6
102
{ACAD_REACTORS
330
1A7
102
}
330
A
100
AcDbSymbolTableRecord
100
AcDbDimStyleTableRecord
  2
ME10_DIM_18
 70
     0
 41
3.2
 42
1.0
 44
1.5
 47
1.0
 48
1.0
 71
     1
 73
     0
 74
     0
 77
     1
 78
     8
140
3.2
146
0.6
147
2.0
172
     1
173
     1
174
     1
175
     1
176
     2
177
     2
178
     2
272
     0
340
142
  0
DIMSTYLE
105
1B1
102
{ACAD_REACTORS
330
1B2
102
}
330
A
100
AcDbSymbolTableRecord
100
AcDbDimStyleTableRecord
  2
ME10_DIM_19
 70
     0
  3
(<>)
 41
3.2
 42
1.0
 44
1.5
 73
     0
 74
     0
 77
     1
 78
     8
140
3.2
147
2.0
172
     1
173
     1
174
     1
175
     1
176
     2
177
     2
178
     2
340
142
  0
DIMSTYLE
105
1BC
102
{ACAD_REACTORS
330
1BD
102
}
330
A
100
AcDbSymbolTableRecord
100
AcDbDimStyleTableRecord
  2
ME10_DIM_20
 70
     0
  3
(<>)
 41
3.2
 42
1.0
 44
1.5
 73
     0
 74
     0
 77
     1
 78
     8
140
3.2
147
2.0
172
     1
173
     1
174
     1
175
     1
176
     2
177
     2
178
     2
340
142
  0
DIMSTYLE
105
1C7
102
{ACAD_REACTORS
330
1C8
102
}
330
A
100
AcDbSymbolTableRecord
100
AcDbDimStyleTableRecord
  2
ME10_DIM_21
 70
     0
 41
3.2
 42
1.0
 44
1.5
 47
0.2
 48
0.2
 71
     1
 73
     0
 74
     0
 77
     1
 78
     8
140
3.2
146
0.6
147
2.0
172
     1
173
     1
174
     1
175
     1
176
     2
177
     2
178
     2
272
     1
340
142
  0
DIMSTYLE
105
1D2
102
{ACAD_REACTORS
330
1D3
102
}
330
A
100
AcDbSymbolTableRecord
100
AcDbDimStyleTableRecord
  2
ME10_DIM_22
 70
     0
  3
(<>)
 41
3.2
 42
1.0
 44
1.5
 73
     0
 74
     0
 77
     1
 78
     8
140
3.2
147
2.0
172
     1
173
     1
174
     1
175
     1
176
     2
177
     2
178
     2
340
142
  0
DIMSTYLE
105
1DD
102
{ACAD_REACTORS
330
1DE
102
}
330
A
100
AcDbSymbolTableRecord
100
AcDbDimStyleTableRecord
  2
ME10_DIM_23
 70
     0
  3
φ<>
 41
3.2
 42
1.0
 44
1.5
 48
0.05
 71
     1
 73
     0
 74
     0
 77
     1
 78
     8
140
3.2
146
0.6
147
2.0
172
     1
173
     1
174
     1
175
     1
176
     2
177
     2
178
     2
272
     0
340
142
  0
ENDTAB
  0
TABLE
  2
BLOCK_RECORD
  5
1
330
0
100
AcDbSymbolTable
 70
    20
  0
BLOCK_RECORD
  5
1F
330
1
100
AcDbSymbolTableRecord
100
AcDbBlockTableRecord
  2
*Model_Space
340
22
  0
BLOCK_RECORD
  5
1B
330
1
100
AcDbSymbolTableRecord
100
AcDbBlockTableRecord
  2
*Paper_Space
340
1E
  0
BLOCK_RECORD
  5
23
330
1
100
AcDbSymbolTableRecord
100
AcDbBlockTableRecord
  2
*Paper_Space0
340
26
  0
BLOCK_RECORD
  5
47
330
1
100
AcDbSymbolTableRecord
100
AcDbBlockTableRecord
  2
\U+00C5\U+00CD\U+00DE\U+00C8M3_\U+00CD\U+00B2\U+00D2\U+00DD_\U+00DE__1
340
0
102
{BLKREFS
331
53
102
}
  0
BLOCK_RECORD
  5
4A
330
1
100
AcDbSymbolTableRecord
100
AcDbBlockTableRecord
  2
\U+00C5\U+00CD\U+00DE\U+00C8M3_\U+00CD\U+00B2\U+00D2\U+00DD_\U+00DE__2
340
0
102
{BLKREFS
331
54
102
}
  0
BLOCK_RECORD
  5
4D
330
1
100
AcDbSymbolTableRecord
100
AcDbBlockTableRecord
  2
\U+00C5\U+00CD\U+00DE\U+00C8M3_\U+00CD\U+00B2\U+00D2\U+00DD_\U+00DE__3
340
0
102
{BLKREFS
331
55
102
}
  0
BLOCK_RECORD
  5
50
330
1
100
AcDbSymbolTableRecord
100
AcDbBlockTableRecord
  2
\U+00C5\U+00CD\U+00DE\U+00C8M3_\U+00CD\U+00B2\U+00D2\U+00DD_\U+00DE__4
340
0
102
{BLKREFS
331
56
102
}
  0
BLOCK_RECORD
  5
13C
330
1
100
AcDbSymbolTableRecord
100
AcDbBlockTableRecord
  2
*D5
340
0
  0
BLOCK_RECORD
  5
148
330
1
100
AcDbSymbolTableRecord
100
AcDbBlockTableRecord
  2
*D6
340
0
  0
BLOCK_RECORD
  5
153
330
1
100
AcDbSymbolTableRecord
100
AcDbBlockTableRecord
  2
*D7
340
0
  0
BLOCK_RECORD
  5
15E
330
1
100
AcDbSymbolTableRecord
100
AcDbBlockTableRecord
  2
*D8
340
0
  0
BLOCK_RECORD
  5
16B
330
1
100
AcDbSymbolTableRecord
100
AcDbBlockTableRecord
  2
*D9
340
0
  0
BLOCK_RECORD
  5
178
330
1
100
AcDbSymbolTableRecord
100
AcDbBlockTableRecord
  2
*D10
340
0
  0
BLOCK_RECORD
  5
185
330
1
100
AcDbSymbolTableRecord
100
AcDbBlockTableRecord
  2
*D11
340
0
  0
BLOCK_RECORD
  5
192
330
1
100
AcDbSymbolTableRecord
100
AcDbBlockTableRecord
  2
*D12
340
0
  0
BLOCK_RECORD
  5
19D
330
1
100
AcDbSymbolTableRecord
100
AcDbBlockTableRecord
  2
*D13
340
0
  0
BLOCK_RECORD
  5
1A8
330
1
100
AcDbSymbolTableRecord
100
AcDbBlockTableRecord
  2
*D14
340
0
  0
BLOCK_RECORD
  5
1B3
330
1
100
AcDbSymbolTableRecord
100
AcDbBlockTableRecord
  2
*D15
340
0
  0
BLOCK_RECORD
  5
1BE
330
1
100
AcDbSymbolTableRecord
100
AcDbBlockTableRecord
  2
*D16
340
0
  0
BLOCK_RECORD
  5
1C9
330
1
100
AcDbSymbolTableRecord
100
AcDbBlockTableRecord
  2
*D17
340
0
  0
BLOCK_RECORD
  5
1D4
330
1
100
AcDbSymbolTableRecord
100
AcDbBlockTableRecord
  2
*D18
340
0
  0
BLOCK_RECORD
  5
1DF
330
1
100
AcDbSymbolTableRecord
100
AcDbBlockTableRecord
  2
*D19
340
0
102
{BLKREFS
331
1E6
102
}
  0
ENDTAB
  0
ENDSEC
  0
SECTION
  2
BLOCKS
  0
BLOCK
  5
20
330
1F
100
AcDbEntity
  8
0
100
AcDbBlockBegin
  2
*Model_Space
 70
     0
 10
0.0
 20
0.0
 30
0.0
  3
*Model_Space
  1

  0
ENDBLK
  5
21
330
1F
100
AcDbEntity
  8
0
100
AcDbBlockEnd
  0
BLOCK
  5
1C
330
1B
100
AcDbEntity
 67
     1
  8
0
100
AcDbBlockBegin
  2
*Paper_Space
 70
     0
 10
0.0
 20
0.0
 30
0.0
  3
*Paper_Space
  1

  0
ENDBLK
  5
1D
330
1B
100
AcDbEntity
 67
     1
  8
0
100
AcDbBlockEnd
  0
BLOCK
  5
24
330
23
100
AcDbEntity
  8
0
100
AcDbBlockBegin
  2
*Paper_Space0
 70
     0
 10
0.0
 20
0.0
 30
0.0
  3
*Paper_Space0
  1

  0
ENDBLK
  5
25
330
23
100
AcDbEntity
  8
0
100
AcDbBlockEnd
  0
BLOCK
  5
48
330
47
100
AcDbEntity
  8
0
100
AcDbBlockBegin
  2
\U+00C5\U+00CD\U+00DE\U+00C8M3_\U+00CD\U+00B2\U+00D2\U+00DD_\U+00DE__1
 70
     0
 10
3203.080454787728
 20
-1631.694423116817
 30
0.0
  3
\U+00C5\U+00CD\U+00DE\U+00C8M3_\U+00CD\U+00B2\U+00D2\U+00DD_\U+00DE__1
  1

  0
LINE
  5
57
330
47
100
AcDbEntity
  8
1
  6
Continuous
 62
     3
100
AcDbLine
 10
3204.333446995278
 20
-1630.964689927347
 30
0.0
 11
3203.722407624128
 21
-1631.575729298497
 31
0.0
  0
LINE
  5
58
330
47
100
AcDbEntity
  8
1
  6
Continuous
 62
     3
100
AcDbLine
 10
3204.333446995278
 20
-1632.424156306287
 30
0.0
 11
3203.722407624128
 21
-1631.813116935137
 31
0.0
  0
LINE
  5
59
330
47
100
AcDbEntity
  8
1
  6
Continuous
 62
     3
100
AcDbLine
 10
3202.350721598258
 20
-1630.441430909267
 30
0.0
 11
3202.961760969408
 21
-1631.052470280417
 31
0.0
  0
LINE
  5
5A
330
47
100
AcDbEntity
  8
1
  6
Continuous
 62
     3
100
AcDbLine
 10
3203.810187977198
 20
-1630.441430909267
 30
0.0
 11
3203.199148606048
 21
-1631.052470280417
 31
0.0
  0
LINE
  5
5B
330
47
100
AcDbEntity
  8
1
  6
Continuous
 62
     3
100
AcDbLine
 10
3202.438501951328
 20
-1631.813116935137
 30
0.0
 11
3202.432367001508
 21
-1631.819251884957
 31
0.0
  0
LINE
  5
5C
330
47
100
AcDbEntity
  8
1
  6
Continuous
 62
     3
100
AcDbLine
 10
3202.432367001508
 20
-1631.819251884957
 30
0.0
 11
3201.827462580178
 21
-1632.424156306287
 31
0.0
  0
LINE
  5
5D
330
47
100
AcDbEntity
  8
1
  6
Continuous
 62
     3
100
AcDbLine
 10
3201.827462580178
 20
-1630.964689927347
 30
0.0
 11
3202.438501951328
 21
-1631.575729298497
 31
0.0
  0
LINE
  5
5E
330
47
100
AcDbEntity
  8
1
  6
Continuous
 62
     3
100
AcDbLine
 10
3203.810187977198
 20
-1632.947415324367
 30
0.0
 11
3203.199148606048
 21
-1632.336375953217
 31
0.0
  0
LINE
  5
5F
330
47
100
AcDbEntity
  8
1
  6
Continuous
 62
     3
100
AcDbLine
 10
3202.350721598258
 20
-1632.947415324367
 30
0.0
 11
3202.961760969408
 21
-1632.336375953217
 31
0.0
  0
ARC
  5
60
330
47
100
AcDbEntity
  8
1
  6
Continuous
 62
     3
100
AcDbCircle
 10
3203.753048917978
 20
-1631.606370592347
 30
0.0
 40
0.0433333333312634
100
AcDbArc
 50
134.9999999997874
 51
187.458449051511
  0
ARC
  5
61
330
47
100
AcDbEntity
  8
1
  6
Continuous
 62
     3
100
AcDbCircle
 10
3203.753048917978
 20
-1631.782475641287
 30
0.0
 40
0.0433333333388383
100
AcDbArc
 50
172.541550935373
 51
225.0000000002126
  0
ARC
  5
62
330
47
100
AcDbEntity
  8
1
  6
Continuous
 62
     3
100
AcDbCircle
 10
3202.992402263258
 20
-1631.021828986567
 30
0.0
 40
0.043333333331585
100
AcDbArc
 50
224.9999999997874
 51
277.458449064627
  0
ARC
  5
63
330
47
100
AcDbEntity
  8
1
  6
Continuous
 62
     3
100
AcDbCircle
 10
3203.168507312198
 20
-1631.021828986567
 30
0.0
 40
0.0433333333375396
100
AcDbArc
 50
262.541550948489
 51
314.9999999997875
  0
ARC
  5
64
330
47
100
AcDbEntity
  8
1
  6
Continuous
 62
     3
100
AcDbCircle
 10
3202.407860657478
 20
-1631.782475641287
 30
0.0
 40
0.0433333333312634
100
AcDbArc
 50
314.9999999997875
 51
7.45844906462701
  0
ARC
  5
65
330
47
100
AcDbEntity
  8
1
  6
Continuous
 62
     3
100
AcDbCircle
 10
3202.407860657478
 20
-1631.606370592347
 30
0.0
 40
0.0433333333375396
100
AcDbArc
 50
352.541550948489
 51
45.00000000021258
  0
ARC
  5
66
330
47
100
AcDbEntity
  8
1
  6
Continuous
 62
     3
100
AcDbCircle
 10
3203.168507312198
 20
-1632.367017247067
 30
0.0
 40
0.0433333333312634
100
AcDbArc
 50
45.00000000021258
 51
97.45844905151095
  0
ARC
  5
67
330
47
100
AcDbEntity
  8
1
  6
Continuous
 62
     3
100
AcDbCircle
 10
3202.992402263258
 20
-1632.367017247067
 30
0.0
 40
0.0433333333388383
100
AcDbArc
 50
82.54155093537298
 51
135.0000000002126
  0
ARC
  5
68
330
47
100
AcDbEntity
  8
1
  6
Continuous
 62
     3
100
AcDbCircle
 10
3203.080454787728
 20
-1631.694423116817
 30
0.0
 40
1.449999999998425
100
AcDbArc
 50
300.2161982851808
 51
329.7838017148268
  0
ARC
  5
69
330
47
100
AcDbEntity
  8
1
  6
Continuous
 62
     3
100
AcDbCircle
 10
3203.080454787728
 20
-1631.694423116817
 30
0.0
 40
0.6349999999955775
100
AcDbArc
 50
352.5415509441372
 51
7.45844905675791
  0
ARC
  5
6A
330
47
100
AcDbEntity
  8
1
  6
Continuous
 62
     3
100
AcDbCircle
 10
3203.080454787728
 20
-1631.694423116817
 30
0.0
 40
1.44999999999831
100
AcDbArc
 50
30.21619828517312
 51
59.78380171481911
  0
ARC
  5
6B
330
47
100
AcDbEntity
  8
1
  6
Continuous
 62
     3
100
AcDbCircle
 10
3203.080454787728
 20
-1631.694423116817
 30
0.0
 40
0.6349999999966802
100
AcDbArc
 50
82.5415509432191
 51
97.4584490558452
  0
ARC
  5
6C
330
47
100
AcDbEntity
  8
1
  6
Continuous
 62
     3
100
AcDbCircle
 10
3203.080454787728
 20
-1631.694423116817
 30
0.0
 40
1.449999999998196
100
AcDbArc
 50
120.2161982851654
 51
149.7838017148269
  0
ARC
  5
6D
330
47
100
AcDbEntity
  8
1
  6
Continuous
 62
     3
100
AcDbCircle
 10
3203.080454787728
 20
-1631.694423116817
 30
0.0
 40
0.6349999999964252
100
AcDbArc
 50
172.5415509432368
 51
187.4584490558682
  0
ARC
  5
6E
330
47
100
AcDbEntity
  8
1
  6
Continuous
 62
     3
100
AcDbCircle
 10
3203.080454787728
 20
-1631.694423116817
 30
0.0
 40
1.44999999999831
100
AcDbArc
 50
210.2161982851731
 51
239.7838017148347
  0
ARC
  5
6F
330
47
100
AcDbEntity
  8
1
  6
Continuous
 62
     3
100
AcDbCircle
 10
3203.080454787728
 20
-1631.694423116817
 30
0.0
 40
0.6349999999953225
100
AcDbArc
 50
262.5415509441548
 51
277.4584490567809
  0
CIRCLE
  5
70
330
47
100
AcDbEntity
  8
1
  6
Continuous
 62
     3
100
AcDbCircle
 10
3203.080454787728
 20
-1631.694423116817
 30
0.0
 40
2.800000000000182
  0
ENDBLK
  5
49
330
47
100
AcDbEntity
  8
0
100
AcDbBlockEnd
  0
BLOCK
  5
4B
330
4A
100
AcDbEntity
  8
0
100
AcDbBlockBegin
  2
\U+00C5\U+00CD\U+00DE\U+00C8M3_\U+00CD\U+00B2\U+00D2\U+00DD_\U+00DE__2
 70
     0
 10
3159.480454787728
 20
-1621.294423116817
 30
0.0
  3
\U+00C5\U+00CD\U+00DE\U+00C8M3_\U+00CD\U+00B2\U+00D2\U+00DD_\U+00DE__2
  1

  0
LINE
  5
71
330
4A
100
AcDbEntity
  8
1
  6
Continuous
 62
     3
100
AcDbLine
 10
3158.227462580178
 20
-1620.564689927347
 30
0.0
 11
3158.838501951328
 21
-1621.175729298497
 31
0.0
  0
LINE
  5
72
330
4A
100
AcDbEntity
  8
1
  6
Continuous
 62
     3
100
AcDbLine
 10
3158.227462580178
 20
-1622.024156306287
 30
0.0
 11
3158.838501951328
 21
-1621.413116935137
 31
0.0
  0
LINE
  5
73
330
4A
100
AcDbEntity
  8
1
  6
Continuous
 62
     3
100
AcDbLine
 10
3160.210187977198
 20
-1620.041430909267
 30
0.0
 11
3159.599148606048
 21
-1620.652470280417
 31
0.0
  0
LINE
  5
74
330
4A
100
AcDbEntity
  8
1
  6
Continuous
 62
     3
100
AcDbLine
 10
3159.355626019588
 20
-1620.646335330597
 30
0.0
 11
3158.750721598259
 21
-1620.041430909267
 31
0.0
  0
LINE
  5
75
330
4A
100
AcDbEntity
  8
1
  6
Continuous
 62
     3
100
AcDbLine
 10
3159.361760969408
 20
-1620.652470280417
 30
0.0
 11
3159.355626019588
 21
-1620.646335330597
 31
0.0
  0
LINE
  5
76
330
4A
100
AcDbEntity
  8
1
  6
Continuous
 62
     3
100
AcDbLine
 10
3160.733446995278
 20
-1622.024156306287
 30
0.0
 11
3160.122407624129
 21
-1621.413116935137
 31
0.0
  0
LINE
  5
77
330
4A
100
AcDbEntity
  8
1
  6
Continuous
 62
     3
100
AcDbLine
 10
3160.733446995278
 20
-1620.564689927347
 30
0.0
 11
3160.122407624129
 21
-1621.175729298497
 31
0.0
  0
LINE
  5
78
330
4A
100
AcDbEntity
  8
1
  6
Continuous
 62
     3
100
AcDbLine
 10
3158.750721598259
 20
-1622.547415324367
 30
0.0
 11
3159.361760969408
 21
-1621.936375953217
 31
0.0
  0
LINE
  5
79
330
4A
100
AcDbEntity
  8
1
  6
Continuous
 62
     3
100
AcDbLine
 10
3160.210187977198
 20
-1622.547415324367
 30
0.0
 11
3159.599148606048
 21
-1621.936375953217
 31
0.0
  0
ARC
  5
7A
330
4A
100
AcDbEntity
  8
1
  6
Continuous
 62
     3
100
AcDbCircle
 10
3158.807860657478
 20
-1621.206370592347
 30
0.0
 40
0.0433333333388383
100
AcDbArc
 50
352.541550935373
 51
45.00000000021258
  0
ARC
  5
7B
330
4A
100
AcDbEntity
  8
1
  6
Continuous
 62
     3
100
AcDbCircle
 10
3158.807860657478
 20
-1621.382475641287
 30
0.0
 40
0.0433333333311026
100
AcDbArc
 50
315.0
 51
7.45844905151095
  0
ARC
  5
7C
330
4A
100
AcDbEntity
  8
1
  6
Continuous
 62
     3
100
AcDbCircle
 10
3159.568507312198
 20
-1620.621828986567
 30
0.0
 40
0.0433333333377651
100
AcDbArc
 50
262.5415509485281
 51
314.9999999997875
  0
ARC
  5
7D
330
4A
100
AcDbEntity
  8
1
  6
Continuous
 62
     3
100
AcDbCircle
 10
3159.392402263258
 20
-1620.621828986567
 30
0.0
 40
0.043333333331585
100
AcDbArc
 50
224.9999999997874
 51
277.4584490657804
  0
ARC
  5
7E
330
4A
100
AcDbEntity
  8
1
  6
Continuous
 62
     3
100
AcDbCircle
 10
3160.153048917978
 20
-1621.382475641287
 30
0.0
 40
0.0433333333375396
100
AcDbArc
 50
172.5415509484891
 51
225.0000000008503
  0
ARC
  5
7F
330
4A
100
AcDbEntity
  8
1
  6
Continuous
 62
     3
100
AcDbCircle
 10
3160.153048917978
 20
-1621.206370592347
 30
0.0
 40
0.0433333333306203
100
AcDbArc
 50
134.9999999989371
 51
187.458449064627
  0
ARC
  5
80
330
4A
100
AcDbEntity
  8
1
  6
Continuous
 62
     3
100
AcDbCircle
 10
3159.392402263258
 20
-1621.967017247067
 30
0.0
 40
0.0433333333389563
100
AcDbArc
 50
82.54155093418063
 51
135.0000000004252
  0
ARC
  5
81
330
4A
100
AcDbEntity
  8
1
  6
Continuous
 62
     3
100
AcDbCircle
 10
3159.568507312198
 20
-1621.967017247067
 30
0.0
 40
0.0433333333311026
100
AcDbArc
 50
45.0
 51
97.45844905151095
  0
ARC
  5
82
330
4A
100
AcDbEntity
  8
1
  6
Continuous
 62
     3
100
AcDbCircle
 10
3159.480454787728
 20
-1621.294423116817
 30
0.0
 40
0.6349999999951266
100
AcDbArc
 50
172.5415509441318
 51
187.4584490567836
  0
ARC
  5
83
330
4A
100
AcDbEntity
  8
1
  6
Continuous
 62
     3
100
AcDbCircle
 10
3159.480454787728
 20
-1621.294423116817
 30
0.0
 40
1.449999999997542
100
AcDbArc
 50
120.2161982851388
 51
149.7838017148269
  0
ARC
  5
84
330
4A
100
AcDbEntity
  8
1
  6
Continuous
 62
     3
100
AcDbCircle
 10
3159.480454787728
 20
-1621.294423116817
 30
0.0
 40
0.6349999999964547
100
AcDbArc
 50
82.54155094321641
 51
97.45844905576647
  0
ARC
  5
85
330
4A
100
AcDbEntity
  8
1
  6
Continuous
 62
     3
100
AcDbCircle
 10
3159.480454787728
 20
-1621.294423116817
 30
0.0
 40
1.44999999999831
100
AcDbArc
 50
30.21619828517312
 51
59.7838017148146
  0
ARC
  5
86
330
4A
100
AcDbEntity
  8
1
  6
Continuous
 62
     3
100
AcDbCircle
 10
3159.480454787728
 20
-1621.294423116817
 30
0.0
 40
0.6349999999969057
100
AcDbArc
 50
352.5415509432218
 51
7.45844905586285
  0
ARC
  5
87
330
4A
100
AcDbEntity
  8
1
  6
Continuous
 62
     3
100
AcDbCircle
 10
3159.480454787728
 20
-1621.294423116817
 30
0.0
 40
1.449999999998425
100
AcDbArc
 50
300.2161982851808
 51
329.7838017148192
  0
ARC
  5
88
330
4A
100
AcDbEntity
  8
1
  6
Continuous
 62
     3
100
AcDbCircle
 10
3159.480454787728
 20
-1621.294423116817
 30
0.0
 40
0.6349999999952045
100
AcDbArc
 50
262.5415509442362
 51
277.4584490567809
  0
ARC
  5
89
330
4A
100
AcDbEntity
  8
1
  6
Continuous
 62
     3
100
AcDbCircle
 10
3159.480454787728
 20
-1621.294423116817
 30
0.0
 40
1.449999999998425
100
AcDbArc
 50
210.2161982851809
 51
239.7838017148657
  0
CIRCLE
  5
8A
330
4A
100
AcDbEntity
  8
1
  6
Continuous
 62
     3
100
AcDbCircle
 10
3159.480454787728
 20
-1621.294423116817
 30
0.0
 40
2.800000000000182
  0
ENDBLK
  5
4C
330
4A
100
AcDbEntity
  8
0
100
AcDbBlockEnd
  0
BLOCK
  5
4E
330
4D
100
AcDbEntity
  8
0
100
AcDbBlockBegin
  2
\U+00C5\U+00CD\U+00DE\U+00C8M3_\U+00CD\U+00B2\U+00D2\U+00DD_\U+00DE__3
 70
     0
 10
3169.880454787728
 20
-1577.694423116817
 30
0.0
  3
\U+00C5\U+00CD\U+00DE\U+00C8M3_\U+00CD\U+00B2\U+00D2\U+00DD_\U+00DE__3
  1

  0
LINE
  5
8B
330
4D
100
AcDbEntity
  8
1
  6
Continuous
 62
     3
100
AcDbLine
 10
3168.627462580178
 20
-1578.424156306287
 30
0.0
 11
3169.238501951328
 21
-1577.813116935137
 31
0.0
  0
LINE
  5
8C
330
4D
100
AcDbEntity
  8
1
  6
Continuous
 62
     3
100
AcDbLine
 10
3168.627462580178
 20
-1576.964689927347
 30
0.0
 11
3169.238501951328
 21
-1577.575729298497
 31
0.0
  0
LINE
  5
8D
330
4D
100
AcDbEntity
  8
1
  6
Continuous
 62
     3
100
AcDbLine
 10
3170.610187977199
 20
-1578.947415324367
 30
0.0
 11
3169.999148606048
 21
-1578.336375953217
 31
0.0
  0
LINE
  5
8E
330
4D
100
AcDbEntity
  8
1
  6
Continuous
 62
     3
100
AcDbLine
 10
3169.150721598258
 20
-1578.947415324367
 30
0.0
 11
3169.761760969408
 21
-1578.336375953217
 31
0.0
  0
LINE
  5
8F
330
4D
100
AcDbEntity
  8
1
  6
Continuous
 62
     3
100
AcDbLine
 10
3170.522407624128
 20
-1577.575729298497
 30
0.0
 11
3170.528542573948
 21
-1577.569594348677
 31
0.0
  0
LINE
  5
90
330
4D
100
AcDbEntity
  8
1
  6
Continuous
 62
     3
100
AcDbLine
 10
3170.528542573948
 20
-1577.569594348677
 30
0.0
 11
3171.133446995278
 21
-1576.964689927347
 31
0.0
  0
LINE
  5
91
330
4D
100
AcDbEntity
  8
1
  6
Continuous
 62
     3
100
AcDbLine
 10
3171.133446995278
 20
-1578.424156306287
 30
0.0
 11
3170.522407624128
 21
-1577.813116935137
 31
0.0
  0
LINE
  5
92
330
4D
100
AcDbEntity
  8
1
  6
Continuous
 62
     3
100
AcDbLine
 10
3169.150721598258
 20
-1576.441430909267
 30
0.0
 11
3169.761760969408
 21
-1577.052470280417
 31
0.0
  0
LINE
  5
93
330
4D
100
AcDbEntity
  8
1
  6
Continuous
 62
     3
100
AcDbLine
 10
3170.610187977199
 20
-1576.441430909267
 30
0.0
 11
3169.999148606048
 21
-1577.052470280417
 31
0.0
  0
ARC
  5
94
330
4D
100
AcDbEntity
  8
1
  6
Continuous
 62
     3
100
AcDbCircle
 10
3169.207860657479
 20
-1577.782475641287
 30
0.0
 40
0.0433333333306203
100
AcDbArc
 50
314.9999999989371
 51
7.45844905166705
  0
ARC
  5
95
330
4D
100
AcDbEntity
  8
1
  6
Continuous
 62
     3
100
AcDbCircle
 10
3169.207860657479
 20
-1577.606370592347
 30
0.0
 40
0.0433333333379365
100
AcDbArc
 50
352.5415509352169
 51
45.00000000106291
  0
ARC
  5
96
330
4D
100
AcDbEntity
  8
1
  6
Continuous
 62
     3
100
AcDbCircle
 10
3169.968507312198
 20
-1578.367017247067
 30
0.0
 40
0.0433333333312634
100
AcDbArc
 50
45.00000000021258
 51
97.45844905031859
  0
ARC
  5
97
330
4D
100
AcDbEntity
  8
1
  6
Continuous
 62
     3
100
AcDbCircle
 10
3169.792402263259
 20
-1578.367017247067
 30
0.0
 40
0.0433333333386612
100
AcDbArc
 50
82.54155093716155
 51
135.0000000010629
  0
ARC
  5
98
330
4D
100
AcDbEntity
  8
1
  6
Continuous
 62
     3
100
AcDbCircle
 10
3170.553048917978
 20
-1577.606370592347
 30
0.0
 40
0.0433333333312634
100
AcDbArc
 50
134.9999999997874
 51
187.4584490648612
  0
ARC
  5
99
330
4D
100
AcDbEntity
  8
1
  6
Continuous
 62
     3
100
AcDbCircle
 10
3170.553048917978
 20
-1577.782475641287
 30
0.0
 40
0.0433333333361869
100
AcDbArc
 50
172.5415509482549
 51
225.0000000002126
  0
ARC
  5
9A
330
4D
100
AcDbEntity
  8
1
  6
Continuous
 62
     3
100
AcDbCircle
 10
3169.792402263259
 20
-1577.021828986567
 30
0.0
 40
0.0433333333322281
100
AcDbArc
 50
224.9999999989371
 51
277.4584490628384
  0
ARC
  5
9B
330
4D
100
AcDbEntity
  8
1
  6
Continuous
 62
     3
100
AcDbCircle
 10
3169.968507312198
 20
-1577.021828986567
 30
0.0
 40
0.0433333333374216
100
AcDbArc
 50
262.5415509496814
 51
314.9999999997875
  0
ARC
  5
9C
330
4D
100
AcDbEntity
  8
1
  6
Continuous
 62
     3
100
AcDbCircle
 10
3169.880454787728
 20
-1577.694423116817
 30
0.0
 40
1.449999999998425
100
AcDbArc
 50
120.2161982851809
 51
149.7838017148269
  0
ARC
  5
9D
330
4D
100
AcDbEntity
  8
1
  6
Continuous
 62
     3
100
AcDbCircle
 10
3169.880454787728
 20
-1577.694423116817
 30
0.0
 40
0.6349999999951266
100
AcDbArc
 50
172.5415509441318
 51
187.4584490567632
  0
ARC
  5
9E
330
4D
100
AcDbEntity
  8
1
  6
Continuous
 62
     3
100
AcDbCircle
 10
3169.880454787728
 20
-1577.694423116817
 30
0.0
 40
1.44999999999831
100
AcDbArc
 50
210.2161982851731
 51
239.7838017148191
  0
ARC
  5
9F
330
4D
100
AcDbEntity
  8
1
  6
Continuous
 62
     3
100
AcDbCircle
 10
3169.880454787728
 20
-1577.694423116817
 30
0.0
 40
0.6349999999953816
100
AcDbArc
 50
262.5415509441141
 51
277.4584490568623
  0
ARC
  5
A0
330
4D
100
AcDbEntity
  8
1
  6
Continuous
 62
     3
100
AcDbCircle
 10
3169.880454787728
 20
-1577.694423116817
 30
0.0
 40
1.449999999998882
100
AcDbArc
 50
300.2161982852119
 51
329.7838017148268
  0
ARC
  5
A1
330
4D
100
AcDbEntity
  8
1
  6
Continuous
 62
     3
100
AcDbCircle
 10
3169.880454787728
 20
-1577.694423116817
 30
0.0
 40
0.634999999997778
100
AcDbArc
 50
352.5415509432527
 51
7.4584490558522
  0
ARC
  5
A2
330
4D
100
AcDbEntity
  8
1
  6
Continuous
 62
     3
100
AcDbCircle
 10
3169.880454787728
 20
-1577.694423116817
 30
0.0
 40
1.44999999999831
100
AcDbArc
 50
30.21619828517312
 51
59.78380171478806
  0
ARC
  5
A3
330
4D
100
AcDbEntity
  8
1
  6
Continuous
 62
     3
100
AcDbCircle
 10
3169.880454787728
 20
-1577.694423116817
 30
0.0
 40
0.6349999999967982
100
AcDbArc
 50
82.54155094313772
 51
97.45844905588585
  0
CIRCLE
  5
A4
330
4D
100
AcDbEntity
  8
1
  6
Continuous
 62
     3
100
AcDbCircle
 10
3169.880454787728
 20
-1577.694423116817
 30
0.0
 40
2.800000000000182
  0
ENDBLK
  5
4F
330
4D
100
AcDbEntity
  8
0
100
AcDbBlockEnd
  0
BLOCK
  5
51
330
50
100
AcDbEntity
  8
0
100
AcDbBlockBegin
  2
\U+00C5\U+00CD\U+00DE\U+00C8M3_\U+00CD\U+00B2\U+00D2\U+00DD_\U+00DE__4
 70
     0
 10
3213.480454787728
 20
-1588.094423116817
 30
0.0
  3
\U+00C5\U+00CD\U+00DE\U+00C8M3_\U+00CD\U+00B2\U+00D2\U+00DD_\U+00DE__4
  1

  0
LINE
  5
A5
330
50
100
AcDbEntity
  8
1
  6
Continuous
 62
     3
100
AcDbLine
 10
3214.733446995278
 20
-1588.824156306287
 30
0.0
 11
3214.122407624128
 21
-1588.213116935137
 31
0.0
  0
LINE
  5
A6
330
50
100
AcDbEntity
  8
1
  6
Continuous
 62
     3
100
AcDbLine
 10
3214.733446995278
 20
-1587.364689927347
 30
0.0
 11
3214.122407624128
 21
-1587.975729298497
 31
0.0
  0
LINE
  5
A7
330
50
100
AcDbEntity
  8
1
  6
Continuous
 62
     3
100
AcDbLine
 10
3212.750721598258
 20
-1589.347415324367
 30
0.0
 11
3213.361760969408
 21
-1588.736375953217
 31
0.0
  0
LINE
  5
A8
330
50
100
AcDbEntity
  8
1
  6
Continuous
 62
     3
100
AcDbLine
 10
3213.605283555868
 20
-1588.742510903037
 30
0.0
 11
3214.210187977198
 21
-1589.347415324367
 31
0.0
  0
LINE
  5
A9
330
50
100
AcDbEntity
  8
1
  6
Continuous
 62
     3
100
AcDbLine
 10
3213.599148606048
 20
-1588.736375953217
 30
0.0
 11
3213.605283555868
 21
-1588.742510903037
 31
0.0
  0
LINE
  5
AA
330
50
100
AcDbEntity
  8
1
  6
Continuous
 62
     3
100
AcDbLine
 10
3212.227462580178
 20
-1587.364689927347
 30
0.0
 11
3212.838501951328
 21
-1587.975729298497
 31
0.0
  0
LINE
  5
AB
330
50
100
AcDbEntity
  8
1
  6
Continuous
 62
     3
100
AcDbLine
 10
3212.227462580178
 20
-1588.824156306287
 30
0.0
 11
3212.838501951328
 21
-1588.213116935137
 31
0.0
  0
LINE
  5
AC
330
50
100
AcDbEntity
  8
1
  6
Continuous
 62
     3
100
AcDbLine
 10
3214.210187977198
 20
-1586.841430909267
 30
0.0
 11
3213.599148606048
 21
-1587.452470280417
 31
0.0
  0
LINE
  5
AD
330
50
100
AcDbEntity
  8
1
  6
Continuous
 62
     3
100
AcDbLine
 10
3212.750721598258
 20
-1586.841430909267
 30
0.0
 11
3213.361760969408
 21
-1587.452470280417
 31
0.0
  0
ARC
  5
AE
330
50
100
AcDbEntity
  8
1
  6
Continuous
 62
     3
100
AcDbCircle
 10
3214.153048917978
 20
-1588.182475641287
 30
0.0
 40
0.0433333333375396
100
AcDbArc
 50
172.5415509484891
 51
224.9999999995748
  0
ARC
  5
AF
330
50
100
AcDbEntity
  8
1
  6
Continuous
 62
     3
100
AcDbCircle
 10
3214.153048917978
 20
-1588.006370592347
 30
0.0
 40
0.0433333333314242
100
AcDbArc
 50
135.0000000004252
 51
187.458449051511
  0
ARC
  5
B0
330
50
100
AcDbEntity
  8
1
  6
Continuous
 62
     3
100
AcDbCircle
 10
3213.392402263259
 20
-1588.767017247067
 30
0.0
 40
0.043333333337647
100
AcDbArc
 50
82.54155094972045
 51
135.0000000010629
  0
ARC
  5
B1
330
50
100
AcDbEntity
  8
1
  6
Continuous
 62
     3
100
AcDbCircle
 10
3213.568507312198
 20
-1588.767017247067
 30
0.0
 40
0.0433333333312634
100
AcDbArc
 50
45.00000000021258
 51
97.45844905147193
  0
ARC
  5
B2
330
50
100
AcDbEntity
  8
1
  6
Continuous
 62
     3
100
AcDbCircle
 10
3212.807860657479
 20
-1588.006370592347
 30
0.0
 40
0.0433333333366378
100
AcDbArc
 50
352.5415509483329
 51
45.00000000085033
  0
ARC
  5
B3
330
50
100
AcDbEntity
  8
1
  6
Continuous
 62
     3
100
AcDbCircle
 10
3212.807860657479
 20
-1588.182475641287
 30
0.0
 40
0.0433333333304595
100
AcDbArc
 50
314.9999999991497
 51
7.45844905166705
  0
ARC
  5
B4
330
50
100
AcDbEntity
  8
1
  6
Continuous
 62
     3
100
AcDbCircle
 10
3213.568507312198
 20
-1587.421828986567
 30
0.0
 40
0.0433333333375396
100
AcDbArc
 50
262.541550948489
 51
315.0
  0
ARC
  5
B5
330
50
100
AcDbEntity
  8
1
  6
Continuous
 62
     3
100
AcDbCircle
 10
3213.392402263259
 20
-1587.421828986567
 30
0.0
 40
0.0433333333320673
100
AcDbArc
 50
224.9999999987245
 51
277.4584490503186
  0
ARC
  5
B6
330
50
100
AcDbEntity
  8
1
  6
Continuous
 62
     3
100
AcDbCircle
 10
3213.480454787728
 20
-1588.094423116817
 30
0.0
 40
0.6349999999968762
100
AcDbArc
 50
352.5415509432421
 51
7.45844905677825
  0
ARC
  5
B7
330
50
100
AcDbEntity
  8
1
  6
Continuous
 62
     3
100
AcDbCircle
 10
3213.480454787728
 20
-1588.094423116817
 30
0.0
 40
1.449999999998228
100
AcDbArc
 50
300.2161982851854
 51
329.7838017148268
  0
ARC
  5
B8
330
50
100
AcDbEntity
  8
1
  6
Continuous
 62
     3
100
AcDbCircle
 10
3213.480454787728
 20
-1588.094423116817
 30
0.0
 40
0.6349999999963958
100
AcDbArc
 50
262.5415509432571
 51
277.4584490567836
  0
ARC
  5
B9
330
50
100
AcDbEntity
  8
1
  6
Continuous
 62
     3
100
AcDbCircle
 10
3213.480454787728
 20
-1588.094423116817
 30
0.0
 40
1.44999999999831
100
AcDbArc
 50
210.2161982851731
 51
239.7838017148301
  0
ARC
  5
BA
330
50
100
AcDbEntity
  8
1
  6
Continuous
 62
     3
100
AcDbCircle
 10
3213.480454787728
 20
-1588.094423116817
 30
0.0
 40
0.6349999999964547
100
AcDbArc
 50
172.5415509432164
 51
187.4584490567632
  0
ARC
  5
BB
330
50
100
AcDbEntity
  8
1
  6
Continuous
 62
     3
100
AcDbCircle
 10
3213.480454787728
 20
-1588.094423116817
 30
0.0
 40
1.449999999998196
100
AcDbArc
 50
120.2161982851654
 51
149.7838017148191
  0
ARC
  5
BC
330
50
100
AcDbEntity
  8
1
  6
Continuous
 62
     3
100
AcDbCircle
 10
3213.480454787728
 20
-1588.094423116817
 30
0.0
 40
0.6349999999966802
100
AcDbArc
 50
82.5415509432191
 51
97.45844905674024
  0
ARC
  5
BD
330
50
100
AcDbEntity
  8
1
  6
Continuous
 62
     3
100
AcDbCircle
 10
3213.480454787728
 20
-1588.094423116817
 30
0.0
 40
1.449999999998425
100
AcDbArc
 50
30.21619828518088
 51
59.78380171481911
  0
CIRCLE
  5
BE
330
50
100
AcDbEntity
  8
1
  6
Continuous
 62
     3
100
AcDbCircle
 10
3213.480454787728
 20
-1588.094423116817
 30
0.0
 40
2.800000000000182
  0
ENDBLK
  5
52
330
50
100
AcDbEntity
  8
0
100
AcDbBlockEnd
  0
BLOCK
  5
144
330
13C
100
AcDbEntity
  8
0
100
AcDbBlockBegin
  2
*D5
 70
     1
 10
0.0
 20
0.0
 30
0.0
  3
*D5
  1

  0
LINE
  5
13D
330
13C
100
AcDbEntity
  8
1
  6
Continuous
 62
     2
100
AcDbLine
 10
3236.480454787728
 20
-1684.694423116817
 30
0.0
 11
3236.480454787728
 21
-1634.694423116817
 31
0.0
  0
LINE
  5
13E
330
13C
100
AcDbEntity
  8
1
  6
Continuous
 62
     2
100
AcDbLine
 10
3191.880454787728
 20
-1634.694423116817
 30
0.0
 11
3237.980454787728
 21
-1634.694423116817
 31
0.0
  0
LINE
  5
13F
330
13C
100
AcDbEntity
  8
1
  6
Continuous
 62
     2
100
AcDbLine
 10
3191.480454787728
 20
-1684.694423116817
 30
0.0
 11
3237.980454787728
 21
-1684.694423116817
 31
0.0
  0
SOLID
  5
140
330
13C
100
AcDbEntity
  8
1
 62
     2
100
AcDbTrace
 10
3236.059166795448
 20
-1681.494423116817
 30
0.0
 11
3236.901742780008
 21
-1681.494423116817
 31
0.0
 12
3236.480454787728
 22
-1684.694423116817
 32
0.0
 13
3236.480454787728
 23
-1684.694423116817
 33
0.0
  0
SOLID
  5
141
330
13C
100
AcDbEntity
  8
1
 62
     2
100
AcDbTrace
 10
3236.901742780008
 20
-1637.894423116817
 30
0.0
 11
3236.059166795448
 21
-1637.894423116817
 31
0.0
 12
3236.480454787728
 22
-1634.694423116817
 32
0.0
 13
3236.480454787728
 23
-1634.694423116817
 33
0.0
  0
MTEXT
  5
143
330
13C
100
AcDbEntity
  8
1
 62
     2
100
AcDbMText
 10
3233.680454787728
 20
-1668.9835801322
 30
0.0
 40
3.2
 41
0.0
 71
     7
 72
     1
  1
\C2;300\C2;\H1.92;\S+40^  0;
  7
CONVERTER_12
 11
0.0
 21
1.0
 31
0.0
 73
     1
 44
0.60024009603842
  0
ENDBLK
  5
145
330
13C
100
AcDbEntity
  8
0
100
AcDbBlockEnd
  0
BLOCK
  5
14F
330
148
100
AcDbEntity
  8
0
100
AcDbBlockBegin
  2
*D6
 70
     1
 10
0.0
 20
0.0
 30
0.0
  3
*D6
  1

  0
LINE
  5
149
330
148
100
AcDbEntity
  8
1
  6
Continuous
 62
     2
100
AcDbLine
 10
3206.03759577256
 20
-1684.694423116817
 30
0.0
 11
3206.03759577256
 21
-1674.694423116817
 31
0.0
  0
LINE
  5
14A
330
148
100
AcDbEntity
  8
1
  6
Continuous
 62
     2
100
AcDbLine
 10
3191.880454787728
 20
-1674.694423116817
 30
0.0
 11
3207.53759577256
 21
-1674.694423116817
 31
0.0
  0
LINE
  5
14B
330
148
100
AcDbEntity
  8
1
  6
Continuous
 62
     2
100
AcDbLine
 10
3191.480454787728
 20
-1684.694423116817
 30
0.0
 11
3207.53759577256
 21
-1684.694423116817
 31
0.0
  0
SOLID
  5
14C
330
148
100
AcDbEntity
  8
1
 62
     2
100
AcDbTrace
 10
3205.61630778028
 20
-1681.494423116817
 30
0.0
 11
3206.45888376484
 21
-1681.494423116817
 31
0.0
 12
3206.03759577256
 22
-1684.694423116817
 32
0.0
 13
3206.03759577256
 23
-1684.694423116817
 33
0.0
  0
SOLID
  5
14D
330
148
100
AcDbEntity
  8
1
 62
     2
100
AcDbTrace
 10
3206.45888376484
 20
-1677.894423116817
 30
0.0
 11
3205.61630778028
 21
-1677.894423116817
 31
0.0
 12
3206.03759577256
 22
-1674.694423116817
 32
0.0
 13
3206.03759577256
 23
-1674.694423116817
 33
0.0
  0
MTEXT
  5
14E
330
148
100
AcDbEntity
  8
1
 62
     2
100
AcDbMText
 10
3204.03759577256
 20
-1684.3928070717
 30
0.0
 40
3.2
 41
0.0
 71
     7
 72
     1
  1
\C2;(\C2;10\C2;)
  7
CONVERTER_12
 11
0.0
 21
1.0
 31
0.0
 73
     1
 44
0.60024009603842
  0
ENDBLK
  5
150
330
148
100
AcDbEntity
  8
0
100
AcDbBlockEnd
  0
BLOCK
  5
15A
330
153
100
AcDbEntity
  8
0
100
AcDbBlockBegin
  2
*D7
 70
     1
 10
0.0
 20
0.0
 30
0.0
  3
*D7
  1

  0
LINE
  5
154
330
153
100
AcDbEntity
  8
1
  6
Continuous
 62
     2
100
AcDbLine
 10
3226.480454787728
 20
-1629.694423116816
 30
0.0
 11
3226.480454787728
 21
-1579.694423116817
 31
0.0
  0
LINE
  5
155
330
153
100
AcDbEntity
  8
1
  6
Continuous
 62
     2
100
AcDbLine
 10
3215.980454787728
 20
-1579.694423116817
 30
0.0
 11
3227.980454787728
 21
-1579.694423116817
 31
0.0
  0
LINE
  5
156
330
153
100
AcDbEntity
  8
1
  6
Continuous
 62
     2
100
AcDbLine
 10
3215.980454787728
 20
-1629.694423116816
 30
0.0
 11
3227.980454787728
 21
-1629.694423116816
 31
0.0
  0
SOLID
  5
157
330
153
100
AcDbEntity
  8
1
 62
     2
100
AcDbTrace
 10
3226.059166795448
 20
-1626.494423116816
 30
0.0
 11
3226.901742780008
 21
-1626.494423116816
 31
0.0
 12
3226.480454787728
 22
-1629.694423116816
 32
0.0
 13
3226.480454787728
 23
-1629.694423116816
 33
0.0
  0
SOLID
  5
158
330
153
100
AcDbEntity
  8
1
 62
     2
100
AcDbTrace
 10
3226.901742780008
 20
-1582.894423116817
 30
0.0
 11
3226.059166795448
 21
-1582.894423116817
 31
0.0
 12
3226.480454787728
 22
-1579.694423116817
 32
0.0
 13
3226.480454787728
 23
-1579.694423116817
 33
0.0
  0
MTEXT
  5
159
330
153
100
AcDbEntity
  8
1
 62
     2
100
AcDbMText
 10
3225.76551058153
 20
-1609.33669123232
 30
0.0
 40
3.2
 41
0.0
 71
     7
 72
     1
  1
\C2;50\C2;\H1.92;{\Fgdt;`}0.2
  7
CONVERTER_12
 11
0.0
 21
1.0
 31
0.0
 73
     1
 44
0.60024009603842
  0
ENDBLK
  5
15B
330
153
100
AcDbEntity
  8
0
100
AcDbBlockEnd
  0
BLOCK
  5
167
330
15E
100
AcDbEntity
  8
0
100
AcDbBlockBegin
  2
*D8
 70
     1
 10
0.0
 20
0.0
 30
0.0
  3
*D8
  1

  0
LINE
  5
15F
330
15E
100
AcDbEntity
  8
1
  6
Continuous
 62
     2
100
AcDbLine
 10
3271.419095969638
 20
-1615.094423116818
 30
0.0
 11
3271.419095969638
 21
-1608.694423116818
 31
0.0
  0
LINE
  5
160
330
15E
100
AcDbEntity
  8
1
  6
Continuous
 62
     2
100
AcDbLine
 10
3271.419095969638
 20
-1608.694423116818
 30
0.0
 11
3271.419095969638
 21
-1600.694423116817
 31
0.0
  0
LINE
  5
161
330
15E
100
AcDbEntity
  8
1
  6
Continuous
 62
     2
100
AcDbLine
 10
3271.419095969638
 20
-1600.694423116817
 30
0.0
 11
3271.419095969638
 21
-1569.06879417155
 31
0.0
  0
LINE
  5
162
330
15E
100
AcDbEntity
  8
1
  6
Continuous
 62
     2
100
AcDbLine
 10
3295.919095969638
 20
-1608.694423116818
 30
0.0
 11
3269.919095969638
 21
-1608.694423116818
 31
0.0
  0
LINE
  5
163
330
15E
100
AcDbEntity
  8
1
  6
Continuous
 62
     2
100
AcDbLine
 10
3315.419095969638
 20
-1600.694423116817
 30
0.0
 11
3269.919095969638
 21
-1600.694423116817
 31
0.0
  0
SOLID
  5
164
330
15E
100
AcDbEntity
  8
1
 62
     2
100
AcDbTrace
 10
3271.840383961918
 20
-1611.894423116818
 30
0.0
 11
3270.997807977358
 21
-1611.894423116818
 31
0.0
 12
3271.419095969638
 22
-1608.694423116818
 32
0.0
 13
3271.419095969638
 23
-1608.694423116818
 33
0.0
  0
SOLID
  5
165
330
15E
100
AcDbEntity
  8
1
 62
     2
100
AcDbTrace
 10
3270.997807977358
 20
-1597.494423116817
 30
0.0
 11
3271.840383961918
 21
-1597.494423116817
 31
0.0
 12
3271.419095969638
 22
-1600.694423116817
 32
0.0
 13
3271.419095969638
 23
-1600.694423116817
 33
0.0
  0
MTEXT
  5
166
330
15E
100
AcDbEntity
  8
1
 62
     2
100
AcDbMText
 10
3268.619095969638
 20
-1583.13279417155
 30
0.0
 40
3.2
 41
0.0
 71
     7
 72
     1
  1
\C2;\U+03c6\C2;\C2;8\C2;\H1.92;\S 0^ -0.015;
  7
CONVERTER_12
 11
0.0
 21
1.0
 31
0.0
 73
     1
 44
0.60024009603842
  0
ENDBLK
  5
168
330
15E
100
AcDbEntity
  8
0
100
AcDbBlockEnd
  0
BLOCK
  5
174
330
16B
100
AcDbEntity
  8
0
100
AcDbBlockBegin
  2
*D9
 70
     1
 10
0.0
 20
0.0
 30
0.0
  3
*D9
  1

  0
LINE
  5
16C
330
16B
100
AcDbEntity
  8
1
  6
Continuous
 62
     2
100
AcDbLine
 10
3286.419095969638
 20
-1615.094423116818
 30
0.0
 11
3286.419095969638
 21
-1608.694423116818
 31
0.0
  0
LINE
  5
16D
330
16B
100
AcDbEntity
  8
1
  6
Continuous
 62
     2
100
AcDbLine
 10
3286.419095969638
 20
-1608.694423116818
 30
0.0
 11
3286.419095969638
 21
-1601.194423116817
 31
0.0
  0
LINE
  5
16E
330
16B
100
AcDbEntity
  8
1
  6
Continuous
 62
     2
100
AcDbLine
 10
3286.419095969638
 20
-1601.194423116817
 30
0.0
 11
3286.419095969638
 21
-1566.50728594383
 31
0.0
  0
LINE
  5
16F
330
16B
100
AcDbEntity
  8
1
  6
Continuous
 62
     2
100
AcDbLine
 10
3295.919095969638
 20
-1608.694423116818
 30
0.0
 11
3284.919095969638
 21
-1608.694423116818
 31
0.0
  0
LINE
  5
170
330
16B
100
AcDbEntity
  8
1
  6
Continuous
 62
     2
100
AcDbLine
 10
3295.419095969638
 20
-1601.194423116817
 30
0.0
 11
3284.919095969638
 21
-1601.194423116817
 31
0.0
  0
SOLID
  5
171
330
16B
100
AcDbEntity
  8
1
 62
     2
100
AcDbTrace
 10
3286.840383961918
 20
-1611.894423116818
 30
0.0
 11
3285.997807977358
 21
-1611.894423116818
 31
0.0
 12
3286.419095969638
 22
-1608.694423116818
 32
0.0
 13
3286.419095969638
 23
-1608.694423116818
 33
0.0
  0
SOLID
  5
172
330
16B
100
AcDbEntity
  8
1
 62
     2
100
AcDbTrace
 10
3285.997807977358
 20
-1597.994423116817
 30
0.0
 11
3286.840383961918
 21
-1597.994423116817
 31
0.0
 12
3286.419095969638
 22
-1601.194423116817
 32
0.0
 13
3286.419095969638
 23
-1601.194423116817
 33
0.0
  0
MTEXT
  5
173
330
16B
100
AcDbEntity
  8
1
 62
     2
100
AcDbMText
 10
3284.27061111968
 20
-1579.94728594383
 30
0.0
 40
3.2
 41
0.0
 71
     7
 72
     1
  1
\C2;7.5\C2;\H1.92;{\Fgdt;`}0.15
  7
CONVERTER_12
 11
0.0
 21
1.0
 31
0.0
 73
     1
 44
0.60024009603842
  0
ENDBLK
  5
175
330
16B
100
AcDbEntity
  8
0
100
AcDbBlockEnd
  0
BLOCK
  5
181
330
178
100
AcDbEntity
  8
0
100
AcDbBlockBegin
  2
*D10
 70
     1
 10
0.0
 20
0.0
 30
0.0
  3
*D10
  1

  0
LINE
  5
179
330
178
100
AcDbEntity
  8
1
  6
Continuous
 62
     2
100
AcDbLine
 10
3333.819095969638
 20
-1644.694423116817
 30
0.0
 11
3327.419095969638
 21
-1644.694423116817
 31
0.0
  0
LINE
  5
17A
330
178
100
AcDbEntity
  8
1
  6
Continuous
 62
     2
100
AcDbLine
 10
3327.419095969638
 20
-1644.694423116817
 30
0.0
 11
3320.419095969638
 21
-1644.694423116817
 31
0.0
  0
LINE
  5
17B
330
178
100
AcDbEntity
  8
1
  6
Continuous
 62
     2
100
AcDbLine
 10
3320.419095969638
 20
-1644.694423116817
 30
0.0
 11
3314.019095969638
 21
-1644.694423116817
 31
0.0
  0
LINE
  5
17C
330
178
100
AcDbEntity
  8
1
  6
Continuous
 62
     2
100
AcDbLine
 10
3327.419095969638
 20
-1635.694423116817
 30
0.0
 11
3327.419095969638
 21
-1646.194423116817
 31
0.0
  0
LINE
  5
17D
330
178
100
AcDbEntity
  8
1
  6
Continuous
 62
     2
100
AcDbLine
 10
3320.419095969638
 20
-1635.694423116817
 30
0.0
 11
3320.419095969638
 21
-1646.194423116817
 31
0.0
  0
SOLID
  5
17E
330
178
100
AcDbEntity
  8
1
 62
     2
100
AcDbTrace
 10
3330.619095969638
 20
-1644.273135124537
 30
0.0
 11
3330.619095969638
 21
-1645.115711109097
 31
0.0
 12
3327.419095969638
 22
-1644.694423116817
 32
0.0
 13
3327.419095969638
 23
-1644.694423116817
 33
0.0
  0
SOLID
  5
17F
330
178
100
AcDbEntity
  8
1
 62
     2
100
AcDbTrace
 10
3317.219095969638
 20
-1645.115711109097
 30
0.0
 11
3317.219095969638
 21
-1644.273135124537
 31
0.0
 12
3320.419095969638
 22
-1644.694423116817
 32
0.0
 13
3320.419095969638
 23
-1644.694423116817
 33
0.0
  0
MTEXT
  5
180
330
178
100
AcDbEntity
  8
1
 62
     2
100
AcDbMText
 10
3322.9436538337
 20
-1642.694423116817
 30
0.0
 40
3.2
 41
0.0
 71
     7
 72
     1
  1
7
  7
CONVERTER_12
 11
0.9999999999970619
 21
2.424068405545306E-6
 31
0.0
 73
     1
 44
0.60024009603842
  0
ENDBLK
  5
182
330
178
100
AcDbEntity
  8
0
100
AcDbBlockEnd
  0
BLOCK
  5
18E
330
185
100
AcDbEntity
  8
0
100
AcDbBlockBegin
  2
*D11
 70
     1
 10
0.0
 20
0.0
 30
0.0
  3
*D11
  1

  0
LINE
  5
186
330
185
100
AcDbEntity
  8
1
  6
Continuous
 62
     2
100
AcDbLine
 10
3326.819095969638
 20
-1564.694423116817
 30
0.0
 11
3320.419095969638
 21
-1564.694423116817
 31
0.0
  0
LINE
  5
187
330
185
100
AcDbEntity
  8
1
  6
Continuous
 62
     2
100
AcDbLine
 10
3320.419095969638
 20
-1564.694423116817
 30
0.0
 11
3318.819095969638
 21
-1564.694423116817
 31
0.0
  0
LINE
  5
188
330
185
100
AcDbEntity
  8
1
  6
Continuous
 62
     2
100
AcDbLine
 10
3318.819095969638
 20
-1564.694423116817
 30
0.0
 11
3311.0370840006
 21
-1564.694423116817
 31
0.0
  0
LINE
  5
189
330
185
100
AcDbEntity
  8
1
  6
Continuous
 62
     2
100
AcDbLine
 10
3320.419095969638
 20
-1573.694423116817
 30
0.0
 11
3320.419095969638
 21
-1563.194423116817
 31
0.0
  0
LINE
  5
18A
330
185
100
AcDbEntity
  8
1
  6
Continuous
 62
     2
100
AcDbLine
 10
3318.819095969639
 20
-1585.694423116817
 30
0.0
 11
3318.819095969639
 21
-1563.194423116817
 31
0.0
  0
SOLID
  5
18B
330
185
100
AcDbEntity
  8
1
 62
     2
100
AcDbTrace
 10
3323.619095969638
 20
-1564.273135124537
 30
0.0
 11
3323.619095969638
 21
-1565.115711109097
 31
0.0
 12
3320.419095969638
 22
-1564.694423116817
 32
0.0
 13
3320.419095969638
 23
-1564.694423116817
 33
0.0
  0
SOLID
  5
18C
330
185
100
AcDbEntity
  8
1
 62
     2
100
AcDbTrace
 10
3315.619095969638
 20
-1565.115711109097
 30
0.0
 11
3315.619095969638
 21
-1564.273135124537
 31
0.0
 12
3318.819095969638
 22
-1564.694423116817
 32
0.0
 13
3318.819095969638
 23
-1564.694423116817
 33
0.0
  0
MTEXT
  5
18D
330
185
100
AcDbEntity
  8
1
 62
     2
100
AcDbMText
 10
3311.0370840006
 20
-1562.694423116817
 30
0.0
 40
3.2
 41
0.0
 71
     7
 72
     1
  1
1.6
  7
CONVERTER_12
 11
0.9999999999970619
 21
2.424068405545306E-6
 31
0.0
 73
     1
 44
0.60024009603842
  0
ENDBLK
  5
18F
330
185
100
AcDbEntity
  8
0
100
AcDbBlockEnd
  0
BLOCK
  5
199
330
192
100
AcDbEntity
  8
0
100
AcDbBlockBegin
  2
*D12
 70
     1
 10
0.0
 20
0.0
 30
0.0
  3
*D12
  1

  0
LINE
  5
193
330
192
100
AcDbEntity
  8
1
  6
Continuous
 62
     2
100
AcDbLine
 10
3316.419095969638
 20
-1574.694423116817
 30
0.0
 11
3296.419095969638
 21
-1574.694423116817
 31
0.0
  0
LINE
  5
194
330
192
100
AcDbEntity
  8
1
  6
Continuous
 62
     2
100
AcDbLine
 10
3316.419095969638
 20
-1599.694423116817
 30
0.0
 11
3316.419095969638
 21
-1573.194423116817
 31
0.0
  0
LINE
  5
195
330
192
100
AcDbEntity
  8
1
  6
Continuous
 62
     2
100
AcDbLine
 10
3296.419095969638
 20
-1600.194423116817
 30
0.0
 11
3296.419095969638
 21
-1573.194423116817
 31
0.0
  0
SOLID
  5
196
330
192
100
AcDbEntity
  8
1
 62
     2
100
AcDbTrace
 10
3313.219095969638
 20
-1575.115711109097
 30
0.0
 11
3313.219095969638
 21
-1574.273135124537
 31
0.0
 12
3316.419095969638
 22
-1574.694423116817
 32
0.0
 13
3316.419095969638
 23
-1574.694423116817
 33
0.0
  0
SOLID
  5
197
330
192
100
AcDbEntity
  8
1
 62
     2
100
AcDbTrace
 10
3299.619095969638
 20
-1574.273135124537
 30
0.0
 11
3299.619095969638
 21
-1575.115711109097
 31
0.0
 12
3296.419095969638
 22
-1574.694423116817
 32
0.0
 13
3296.419095969638
 23
-1574.694423116817
 33
0.0
  0
MTEXT
  5
198
330
192
100
AcDbEntity
  8
1
 62
     2
100
AcDbMText
 10
3300.30719796456
 20
-1572.694423116817
 30
0.0
 40
3.2
 41
0.0
 71
     7
 72
     1
  1
\C2;20\C2;\H1.92;{\Fgdt;`}0.25
  7
CONVERTER_12
 11
0.9999999999970619
 21
2.424068405545306E-6
 31
0.0
 73
     1
 44
0.60024009603842
  0
ENDBLK
  5
19A
330
192
100
AcDbEntity
  8
0
100
AcDbBlockEnd
  0
BLOCK
  5
1A4
330
19D
100
AcDbEntity
  8
0
100
AcDbBlockBegin
  2
*D13
 70
     1
 10
0.0
 20
0.0
 30
0.0
  3
*D13
  1

  0
LINE
  5
19E
330
19D
100
AcDbEntity
  8
1
  6
Continuous
 62
     2
100
AcDbLine
 10
3320.419095969638
 20
-1554.694423116817
 30
0.0
 11
3296.419095969638
 21
-1554.694423116817
 31
0.0
  0
LINE
  5
19F
330
19D
100
AcDbEntity
  8
1
  6
Continuous
 62
     2
100
AcDbLine
 10
3320.419095969638
 20
-1573.694423116817
 30
0.0
 11
3320.419095969638
 21
-1553.194423116817
 31
0.0
  0
LINE
  5
1A0
330
19D
100
AcDbEntity
  8
1
  6
Continuous
 62
     2
100
AcDbLine
 10
3296.419095969638
 20
-1600.194423116817
 30
0.0
 11
3296.419095969638
 21
-1553.194423116817
 31
0.0
  0
SOLID
  5
1A1
330
19D
100
AcDbEntity
  8
1
 62
     2
100
AcDbTrace
 10
3317.219095969639
 20
-1555.115711109097
 30
0.0
 11
3317.219095969639
 21
-1554.273135124537
 31
0.0
 12
3320.419095969638
 22
-1554.694423116817
 32
0.0
 13
3320.419095969638
 23
-1554.694423116817
 33
0.0
  0
SOLID
  5
1A2
330
19D
100
AcDbEntity
  8
1
 62
     2
100
AcDbTrace
 10
3299.619095969638
 20
-1554.273135124537
 30
0.0
 11
3299.619095969638
 21
-1555.115711109097
 31
0.0
 12
3296.419095969638
 22
-1554.694423116817
 32
0.0
 13
3296.419095969638
 23
-1554.694423116817
 33
0.0
  0
MTEXT
  5
1A3
330
19D
100
AcDbEntity
  8
1
 62
     2
100
AcDbMText
 10
3304.93209628945
 20
-1552.694423116817
 30
0.0
 40
3.2
 41
0.0
 71
     7
 72
     1
  1
\C2;24\C2;\H1.92;{\Fgdt;`}1
  7
CONVERTER_12
 11
0.9999999999970619
 21
2.424068405545306E-6
 31
0.0
 73
     1
 44
0.60024009603842
  0
ENDBLK
  5
1A5
330
19D
100
AcDbEntity
  8
0
100
AcDbBlockEnd
  0
BLOCK
  5
1AF
330
1A8
100
AcDbEntity
  8
0
100
AcDbBlockBegin
  2
*D14
 70
     1
 10
0.0
 20
0.0
 30
0.0
  3
*D14
  1

  0
LINE
  5
1A9
330
1A8
100
AcDbEntity
  8
1
  6
Continuous
 62
     2
100
AcDbLine
 10
3320.419095969639
 20
-1554.694423116817
 30
0.0
 11
3374.419095969639
 21
-1554.694423116817
 31
0.0
  0
LINE
  5
1AA
330
1A8
100
AcDbEntity
  8
1
  6
Continuous
 62
     2
100
AcDbLine
 10
3374.419095969639
 20
-1574.494423116817
 30
0.0
 11
3374.419095969639
 21
-1553.194423116817
 31
0.0
  0
LINE
  5
1AB
330
1A8
100
AcDbEntity
  8
1
  6
Continuous
 62
     2
100
AcDbLine
 10
3320.419095969639
 20
-1573.694423116817
 30
0.0
 11
3320.419095969639
 21
-1553.194423116817
 31
0.0
  0
SOLID
  5
1AC
330
1A8
100
AcDbEntity
  8
1
 62
     2
100
AcDbTrace
 10
3323.619095969639
 20
-1554.273135124537
 30
0.0
 11
3323.619095969639
 21
-1555.115711109097
 31
0.0
 12
3320.419095969639
 22
-1554.694423116817
 32
0.0
 13
3320.419095969639
 23
-1554.694423116817
 33
0.0
  0
SOLID
  5
1AD
330
1A8
100
AcDbEntity
  8
1
 62
     2
100
AcDbTrace
 10
3371.219095969639
 20
-1555.115711109097
 30
0.0
 11
3371.219095969639
 21
-1554.273135124537
 31
0.0
 12
3374.419095969639
 22
-1554.694423116817
 32
0.0
 13
3374.419095969639
 23
-1554.694423116817
 33
0.0
  0
MTEXT
  5
1AE
330
1A8
100
AcDbEntity
  8
1
 62
     2
100
AcDbMText
 10
3341.862514180839
 20
-1552.694429477573
 30
0.0
 40
3.2
 41
0.0
 71
     7
 72
     1
  1
\C2;(\C2;54\C2;)
  7
CONVERTER_12
 11
0.9999999999970619
 21
2.424068405545306E-6
 31
0.0
 73
     1
 44
0.60024009603842
  0
ENDBLK
  5
1B0
330
1A8
100
AcDbEntity
  8
0
100
AcDbBlockEnd
  0
BLOCK
  5
1BA
330
1B3
100
AcDbEntity
  8
0
100
AcDbBlockBegin
  2
*D15
 70
     1
 10
0.0
 20
0.0
 30
0.0
  3
*D15
  1

  0
LINE
  5
1B4
330
1B3
100
AcDbEntity
  8
1
  6
Continuous
 62
     2
100
AcDbLine
 10
3236.480454787728
 20
-1574.694423116817
 30
0.0
 11
3236.480454787728
 21
-1634.694423116817
 31
0.0
  0
LINE
  5
1B5
330
1B3
100
AcDbEntity
  8
1
  6
Continuous
 62
     2
100
AcDbLine
 10
3212.480454787728
 20
-1574.694423116817
 30
0.0
 11
3237.980454787728
 21
-1574.694423116817
 31
0.0
  0
LINE
  5
1B6
330
1B3
100
AcDbEntity
  8
1
  6
Continuous
 62
     2
100
AcDbLine
 10
3212.480454787728
 20
-1634.694423116817
 30
0.0
 11
3237.980454787728
 21
-1634.694423116817
 31
0.0
  0
SOLID
  5
1B7
330
1B3
100
AcDbEntity
  8
1
 62
     2
100
AcDbTrace
 10
3236.901742780008
 20
-1577.894423116817
 30
0.0
 11
3236.059166795448
 21
-1577.894423116817
 31
0.0
 12
3236.480454787728
 22
-1574.694423116817
 32
0.0
 13
3236.480454787728
 23
-1574.694423116817
 33
0.0
  0
SOLID
  5
1B8
330
1B3
100
AcDbEntity
  8
1
 62
     2
100
AcDbTrace
 10
3236.059166795448
 20
-1631.494423116817
 30
0.0
 11
3236.901742780008
 21
-1631.494423116817
 31
0.0
 12
3236.480454787728
 22
-1634.694423116817
 32
0.0
 13
3236.480454787728
 23
-1634.694423116817
 33
0.0
  0
MTEXT
  5
1B9
330
1B3
100
AcDbEntity
  8
1
 62
     2
100
AcDbMText
 10
3234.480454787728
 20
-1609.718423116817
 30
0.0
 40
3.2
 41
0.0
 71
     7
 72
     1
  1
\C2;(\C2;60\C2;)
  7
CONVERTER_12
 11
0.0
 21
1.0
 31
0.0
 73
     1
 44
0.60024009603842
  0
ENDBLK
  5
1BB
330
1B3
100
AcDbEntity
  8
0
100
AcDbBlockEnd
  0
BLOCK
  5
1C5
330
1BE
100
AcDbEntity
  8
0
100
AcDbBlockBegin
  2
*D16
 70
     1
 10
0.0
 20
0.0
 30
0.0
  3
*D16
  1

  0
LINE
  5
1BF
330
1BE
100
AcDbEntity
  8
1
  6
Continuous
 62
     2
100
AcDbLine
 10
3161.480454787728
 20
-1564.694423116817
 30
0.0
 11
3211.480454787728
 21
-1564.694423116817
 31
0.0
  0
LINE
  5
1C0
330
1BE
100
AcDbEntity
  8
1
  6
Continuous
 62
     2
100
AcDbLine
 10
3211.480454787728
 20
-1575.194423116817
 30
0.0
 11
3211.480454787728
 21
-1563.194423116817
 31
0.0
  0
LINE
  5
1C1
330
1BE
100
AcDbEntity
  8
1
  6
Continuous
 62
     2
100
AcDbLine
 10
3161.480454787728
 20
-1575.194423116817
 30
0.0
 11
3161.480454787728
 21
-1563.194423116817
 31
0.0
  0
SOLID
  5
1C2
330
1BE
100
AcDbEntity
  8
1
 62
     2
100
AcDbTrace
 10
3164.680454787728
 20
-1564.273135124537
 30
0.0
 11
3164.680454787728
 21
-1565.115711109097
 31
0.0
 12
3161.480454787728
 22
-1564.694423116817
 32
0.0
 13
3161.480454787728
 23
-1564.694423116817
 33
0.0
  0
SOLID
  5
1C3
330
1BE
100
AcDbEntity
  8
1
 62
     2
100
AcDbTrace
 10
3208.280454787728
 20
-1565.115711109097
 30
0.0
 11
3208.280454787728
 21
-1564.273135124537
 31
0.0
 12
3211.480454787728
 22
-1564.694423116817
 32
0.0
 13
3211.480454787728
 23
-1564.694423116817
 33
0.0
  0
MTEXT
  5
1C4
330
1BE
100
AcDbEntity
  8
1
 62
     2
100
AcDbMText
 10
3180.67551850323
 20
-1563.41840212441
 30
0.0
 40
3.2
 41
0.0
 71
     7
 72
     1
  1
\C2;50\C2;\H1.92;{\Fgdt;`}0.2
  7
CONVERTER_12
 11
0.9999999999970619
 21
2.424068405545306E-6
 31
0.0
 73
     1
 44
0.60024009603842
  0
ENDBLK
  5
1C6
330
1BE
100
AcDbEntity
  8
0
100
AcDbBlockEnd
  0
BLOCK
  5
1D0
330
1C9
100
AcDbEntity
  8
0
100
AcDbBlockBegin
  2
*D17
 70
     1
 10
0.0
 20
0.0
 30
0.0
  3
*D17
  1

  0
LINE
  5
1CA
330
1C9
100
AcDbEntity
  8
1
  6
Continuous
 62
     2
100
AcDbLine
 10
3216.480454787728
 20
-1554.694423116817
 30
0.0
 11
3156.480454787728
 21
-1554.694423116817
 31
0.0
  0
LINE
  5
1CB
330
1C9
100
AcDbEntity
  8
1
  6
Continuous
 62
     2
100
AcDbLine
 10
3216.480454787728
 20
-1578.694423116817
 30
0.0
 11
3216.480454787728
 21
-1553.194423116817
 31
0.0
  0
LINE
  5
1CC
330
1C9
100
AcDbEntity
  8
1
  6
Continuous
 62
     2
100
AcDbLine
 10
3156.480454787728
 20
-1578.694423116817
 30
0.0
 11
3156.480454787728
 21
-1553.194423116817
 31
0.0
  0
SOLID
  5
1CD
330
1C9
100
AcDbEntity
  8
1
 62
     2
100
AcDbTrace
 10
3213.280454787728
 20
-1555.115711109097
 30
0.0
 11
3213.280454787728
 21
-1554.273135124537
 31
0.0
 12
3216.480454787728
 22
-1554.694423116817
 32
0.0
 13
3216.480454787728
 23
-1554.694423116817
 33
0.0
  0
SOLID
  5
1CE
330
1C9
100
AcDbEntity
  8
1
 62
     2
100
AcDbTrace
 10
3159.680454787728
 20
-1554.273135124537
 30
0.0
 11
3159.680454787728
 21
-1555.115711109097
 31
0.0
 12
3156.480454787728
 22
-1554.694423116817
 32
0.0
 13
3156.480454787728
 23
-1554.694423116817
 33
0.0
  0
MTEXT
  5
1CF
330
1C9
100
AcDbEntity
  8
1
 62
     2
100
AcDbMText
 10
3181.456454787736
 20
-1552.694429477573
 30
0.0
 40
3.2
 41
0.0
 71
     7
 72
     1
  1
\C2;(\C2;60\C2;)
  7
CONVERTER_12
 11
0.9999999999970619
 21
2.424068405545306E-6
 31
0.0
 73
     1
 44
0.60024009603842
  0
ENDBLK
  5
1D1
330
1C9
100
AcDbEntity
  8
0
100
AcDbBlockEnd
  0
BLOCK
  5
1DB
330
1D4
100
AcDbEntity
  8
0
100
AcDbBlockBegin
  2
*D18
 70
     1
 10
0.0
 20
0.0
 30
0.0
  3
*D18
  1

  0
LINE
  5
1D5
330
1D4
100
AcDbEntity
  8
1
  6
Continuous
 62
     2
100
AcDbLine
 10
3261.419095969639
 20
-1622.694423116817
 30
0.0
 11
3261.419095969639
 21
-1586.694423116817
 31
0.0
  0
LINE
  5
1D6
330
1D4
100
AcDbEntity
  8
1
  6
Continuous
 62
     2
100
AcDbLine
 10
3317.819095969639
 20
-1622.694423116817
 30
0.0
 11
3259.919095969639
 21
-1622.694423116817
 31
0.0
  0
LINE
  5
1D7
330
1D4
100
AcDbEntity
  8
1
  6
Continuous
 62
     2
100
AcDbLine
 10
3317.819095969639
 20
-1586.694423116817
 30
0.0
 11
3259.919095969639
 21
-1586.694423116817
 31
0.0
  0
SOLID
  5
1D8
330
1D4
100
AcDbEntity
  8
1
 62
     2
100
AcDbTrace
 10
3260.997807977359
 20
-1619.494423116817
 30
0.0
 11
3261.840383961919
 21
-1619.494423116817
 31
0.0
 12
3261.419095969639
 22
-1622.694423116817
 32
0.0
 13
3261.419095969639
 23
-1622.694423116817
 33
0.0
  0
SOLID
  5
1D9
330
1D4
100
AcDbEntity
  8
1
 62
     2
100
AcDbTrace
 10
3261.840383961919
 20
-1589.894423116818
 30
0.0
 11
3260.997807977359
 21
-1589.894423116818
 31
0.0
 12
3261.419095969639
 22
-1586.694423116817
 32
0.0
 13
3261.419095969639
 23
-1586.694423116817
 33
0.0
  0
MTEXT
  5
1DA
330
1D4
100
AcDbEntity
  8
1
 62
     2
100
AcDbMText
 10
3258.619095969639
 20
-1610.975036729992
 30
0.0
 40
3.2
 41
0.0
 71
     7
 72
     1
  1
\C2;\U+03c6\C2;\C2;36\C2;\H1.92;\S 0^ -0.05;
  7
CONVERTER_12
 11
0.0
 21
1.0
 31
0.0
 73
     1
 44
0.60024009603842
  0
ENDBLK
  5
1DC
330
1D4
100
AcDbEntity
  8
0
100
AcDbBlockEnd
  0
BLOCK
  5
1E4
330
1DF
100
AcDbEntity
  8
0
100
AcDbBlockBegin
  2
*D19
 70
     1
 10
0.0
 20
0.0
 30
0.0
  3
*D19
  1

  0
LINE
  5
1E0
330
1DF
100
AcDbEntity
  8
1
  6
Continuous
 62
     2
100
AcDbLine
 10
3212.734770418984
 20
-1577.826485136801
 30
0.0
 11
3222.51315825112
 21
-1563.264423116817
 31
0.0
  0
LINE
  5
1E1
330
1DF
100
AcDbEntity
  8
1
  6
Continuous
 62
     2
100
AcDbLine
 10
3222.51315825112
 20
-1563.264423116817
 30
0.0
 11
3255.75315825112
 21
-1563.264423116817
 31
0.0
  0
SOLID
  5
1E2
330
1DF
100
AcDbEntity
  8
1
 62
     2
100
AcDbTrace
 10
3214.168934942857
 20
-1574.935005292343
 30
0.0
 11
3214.868437024016
 21
-1575.404719171434
 31
0.0
 12
3212.734770418984
 22
-1577.826485136801
 32
0.0
 13
3212.734770418984
 23
-1577.826485136801
 33
0.0
  0
MTEXT
  5
1E3
330
1DF
100
AcDbEntity
  8
1
 62
     2
100
AcDbMText
 10
3228.921158251143
 20
-1561.264442199084
 30
0.0
 40
3.2
 41
0.0
 71
     7
 72
     1
  1
\C2;4-\U+03c6\C2;4.5\C2;HOLE
  7
CONVERTER_12
 11
0.9999999999970619
 21
2.424068405545306E-6
 31
0.0
 73
     1
 44
0.60024009603842
  0
ENDBLK
  5
1E5
330
1DF
100
AcDbEntity
  8
0
100
AcDbBlockEnd
  0
ENDSEC
  0
SECTION
  2
ENTITIES
  0
INSERT
  5
53
330
1F
100
AcDbEntity
  8
1
100
AcDbBlockReference
  2
\U+00C5\U+00CD\U+00DE\U+00C8M3_\U+00CD\U+00B2\U+00D2\U+00DD_\U+00DE__1
 10
3203.080454787728
 20
-1631.694423116817
 30
0.0
  0
INSERT
  5
54
330
1F
100
AcDbEntity
  8
1
100
AcDbBlockReference
  2
\U+00C5\U+00CD\U+00DE\U+00C8M3_\U+00CD\U+00B2\U+00D2\U+00DD_\U+00DE__2
 10
3159.480454787728
 20
-1621.294423116817
 30
0.0
  0
INSERT
  5
55
330
1F
100
AcDbEntity
  8
1
100
AcDbBlockReference
  2
\U+00C5\U+00CD\U+00DE\U+00C8M3_\U+00CD\U+00B2\U+00D2\U+00DD_\U+00DE__3
 10
3169.880454787728
 20
-1577.694423116817
 30
0.0
  0
INSERT
  5
56
330
1F
100
AcDbEntity
  8
1
100
AcDbBlockReference
  2
\U+00C5\U+00CD\U+00DE\U+00C8M3_\U+00CD\U+00B2\U+00D2\U+00DD_\U+00DE__4
 10
3213.480454787728
 20
-1588.094423116817
 30
0.0
  0
LINE
  5
BF
330
1F
100
AcDbEntity
  8
1
  6
Continuous
 62
     1
100
AcDbLine
 10
3328.866489124298
 20
-1629.694423116817
 30
0.0
 11
3319.589945864588
 21
-1629.694423116817
 31
0.0
  0
LINE
  5
C0
330
1F
100
AcDbEntity
  8
1
  6
Continuous
 62
     1
100
AcDbLine
 10
3328.866489124298
 20
-1579.694423116817
 30
0.0
 11
3319.589945864588
 21
-1579.694423116817
 31
0.0
  0
LINE
  5
C1
330
1F
100
AcDbEntity
  8
1
  6
Continuous
 62
     3
100
AcDbLine
 10
3296.419095969638
 20
-1601.194423116817
 30
0.0
 11
3296.419095969638
 21
-1608.194423116817
 31
0.0
  0
LINE
  5
C2
330
1F
100
AcDbEntity
  8
1
  6
Continuous
 62
     3
100
AcDbLine
 10
3296.919095969638
 20
-1608.694423116818
 30
0.0
 11
3318.819095969639
 21
-1608.694423116817
 31
0.0
  0
LINE
  5
C3
330
1F
100
AcDbEntity
  8
1
  6
Continuous
 62
     3
100
AcDbLine
 10
3296.919095969638
 20
-1608.694423116818
 30
0.0
 11
3296.419095969638
 21
-1608.194423116817
 31
0.0
  0
LINE
  5
C4
330
1F
100
AcDbEntity
  8
1
  6
Continuous
 62
     3
100
AcDbLine
 10
3296.919095969638
 20
-1601.194423116817
 30
0.0
 11
3296.919095969638
 21
-1608.694423116818
 31
0.0
  0
LINE
  5
C5
330
1F
100
AcDbEntity
  8
1
  6
Continuous
 62
     3
100
AcDbLine
 10
3316.419095969638
 20
-1601.194423116817
 30
0.0
 11
3296.419095969638
 21
-1601.194423116817
 31
0.0
  0
LINE
  5
C6
330
1F
100
AcDbEntity
  8
1
  6
Continuous
 62
     3
100
AcDbLine
 10
3316.419095969638
 20
-1601.194423116817
 30
0.0
 11
3316.419095969638
 21
-1600.694423116817
 31
0.0
  0
LINE
  5
C7
330
1F
100
AcDbEntity
  8
1
  6
Continuous
 62
     2
100
AcDbLine
 10
3374.717498886349
 20
-1654.745871857109
 30
0.0
 11
3365.472104651158
 21
-1654.745871857109
 31
0.0
  0
LINE
  5
C8
330
1F
100
AcDbEntity
  8
1
  6
Continuous
 62
     3
100
AcDbLine
 10
3371.21909596964
 20
-1634.694423116817
 30
0.0
 11
3371.21909596964
 21
-1654.745871857109
 31
0.0
  0
LINE
  5
C9
330
1F
100
AcDbEntity
  8
1
  6
Continuous
 62
     3
100
AcDbLine
 10
3369.619095969639
 20
-1654.745871857109
 30
0.0
 11
3369.619095969639
 21
-1634.694423116817
 31
0.0
  0
LINE
  5
CA
330
1F
100
AcDbEntity
  8
1
  6
Continuous
 62
     2
100
AcDbLine
 10
3189.680454787729
 20
-1674.694423116817
 30
0.0
 11
3189.680454787729
 21
-1684.694423116817
 31
0.0
  0
LINE
  5
CB
330
1F
100
AcDbEntity
  8
1
  6
Continuous
 62
     2
100
AcDbLine
 10
3190.080454787729
 20
-1674.694423116817
 30
0.0
 11
3190.080454787729
 21
-1684.694423116817
 31
0.0
  0
LINE
  5
CC
330
1F
100
AcDbEntity
  8
1
  6
Continuous
 62
     2
100
AcDbLine
 10
3190.480454787728
 20
-1674.694423116817
 30
0.0
 11
3190.480454787728
 21
-1684.694423116817
 31
0.0
  0
LINE
  5
CD
330
1F
100
AcDbEntity
  8
1
  6
Continuous
 62
     3
100
AcDbLine
 10
3189.280454787728
 20
-1656.251099682687
 30
0.0
 11
3189.280454787728
 21
-1674.694423116817
 31
0.0
  0
LINE
  5
CE
330
1F
100
AcDbEntity
  8
1
  6
Continuous
 62
     3
100
AcDbLine
 10
3189.280454787728
 20
-1674.694423116817
 30
0.0
 11
3190.880454787728
 21
-1674.694423116817
 31
0.0
  0
LINE
  5
CF
330
1F
100
AcDbEntity
  8
1
  6
Continuous
 62
     3
100
AcDbLine
 10
3190.880454787728
 20
-1674.694423116817
 30
0.0
 11
3190.880454787728
 21
-1656.251099682687
 31
0.0
  0
LINE
  5
D0
330
1F
100
AcDbEntity
  8
1
  6
Continuous
 62
     3
100
AcDbLine
 10
3189.280454787728
 20
-1634.694423116817
 30
0.0
 11
3189.280454787728
 21
-1654.745871857109
 31
0.0
  0
LINE
  5
D1
330
1F
100
AcDbEntity
  8
1
  6
Continuous
 62
     3
100
AcDbLine
 10
3190.880454787728
 20
-1654.745871857109
 30
0.0
 11
3190.880454787728
 21
-1634.694423116817
 31
0.0
  0
LINE
  5
D2
330
1F
100
AcDbEntity
  8
1
  6
Continuous
 62
     3
100
AcDbLine
 10
3188.880454787728
 20
-1654.745871857109
 30
0.0
 11
3188.880454787728
 21
-1634.694423116817
 31
0.0
  0
LINE
  5
D3
330
1F
100
AcDbEntity
  8
1
  6
Continuous
 62
     3
100
AcDbLine
 10
3187.280454787728
 20
-1634.694423116817
 30
0.0
 11
3187.280454787728
 21
-1654.745871857109
 31
0.0
  0
LINE
  5
D4
330
1F
100
AcDbEntity
  8
1
  6
Continuous
 62
     3
100
AcDbLine
 10
3188.880454787728
 20
-1674.694423116817
 30
0.0
 11
3188.880454787728
 21
-1656.251099682687
 31
0.0
  0
LINE
  5
D5
330
1F
100
AcDbEntity
  8
1
  6
Continuous
 62
     3
100
AcDbLine
 10
3187.280454787728
 20
-1674.694423116817
 30
0.0
 11
3188.880454787728
 21
-1674.694423116817
 31
0.0
  0
LINE
  5
D6
330
1F
100
AcDbEntity
  8
1
  6
Continuous
 62
     3
100
AcDbLine
 10
3187.280454787728
 20
-1656.251099682687
 30
0.0
 11
3187.280454787728
 21
-1674.694423116817
 31
0.0
  0
LINE
  5
D7
330
1F
100
AcDbEntity
  8
1
  6
Continuous
 62
     2
100
AcDbLine
 10
3188.480454787728
 20
-1674.694423116817
 30
0.0
 11
3188.480454787728
 21
-1684.694423116817
 31
0.0
  0
LINE
  5
D8
330
1F
100
AcDbEntity
  8
1
  6
Continuous
 62
     2
100
AcDbLine
 10
3188.080454787729
 20
-1674.694423116817
 30
0.0
 11
3188.080454787729
 21
-1684.694423116817
 31
0.0
  0
LINE
  5
D9
330
1F
100
AcDbEntity
  8
1
  6
Continuous
 62
     2
100
AcDbLine
 10
3187.680454787729
 20
-1674.694423116817
 30
0.0
 11
3187.680454787729
 21
-1684.694423116817
 31
0.0
  0
LINE
  5
DA
330
1F
100
AcDbEntity
  8
1
  6
Continuous
 62
     2
100
AcDbLine
 10
3185.280454787728
 20
-1684.694423116817
 30
0.0
 11
3185.280454787728
 21
-1674.694423116817
 31
0.0
  0
LINE
  5
DB
330
1F
100
AcDbEntity
  8
1
  6
Continuous
 62
     2
100
AcDbLine
 10
3184.880454787728
 20
-1684.694423116817
 30
0.0
 11
3184.880454787728
 21
-1674.694423116817
 31
0.0
  0
LINE
  5
DC
330
1F
100
AcDbEntity
  8
1
  6
Continuous
 62
     2
100
AcDbLine
 10
3184.480454787728
 20
-1684.694423116817
 30
0.0
 11
3184.480454787728
 21
-1674.694423116817
 31
0.0
  0
LINE
  5
DD
330
1F
100
AcDbEntity
  8
1
  6
Continuous
 62
     3
100
AcDbLine
 10
3185.680454787728
 20
-1674.694423116817
 30
0.0
 11
3185.680454787728
 21
-1656.251099682687
 31
0.0
  0
LINE
  5
DE
330
1F
100
AcDbEntity
  8
1
  6
Continuous
 62
     3
100
AcDbLine
 10
3184.080454787728
 20
-1674.694423116817
 30
0.0
 11
3185.680454787728
 21
-1674.694423116817
 31
0.0
  0
LINE
  5
DF
330
1F
100
AcDbEntity
  8
1
  6
Continuous
 62
     3
100
AcDbLine
 10
3184.080454787728
 20
-1656.251099682687
 30
0.0
 11
3184.080454787728
 21
-1674.694423116817
 31
0.0
  0
LINE
  5
E0
330
1F
100
AcDbEntity
  8
1
  6
Continuous
 62
     3
100
AcDbLine
 10
3185.680454787728
 20
-1654.745871857109
 30
0.0
 11
3185.680454787728
 21
-1634.694423116817
 31
0.0
  0
LINE
  5
E1
330
1F
100
AcDbEntity
  8
1
  6
Continuous
 62
     3
100
AcDbLine
 10
3184.080454787728
 20
-1634.694423116817
 30
0.0
 11
3184.080454787728
 21
-1654.745871857109
 31
0.0
  0
LINE
  5
E2
330
1F
100
AcDbEntity
  8
1
  6
Continuous
 62
     3
100
AcDbLine
 10
3182.080454787728
 20
-1634.694423116817
 30
0.0
 11
3182.080454787728
 21
-1654.745871857109
 31
0.0
  0
LINE
  5
E3
330
1F
100
AcDbEntity
  8
1
  6
Continuous
 62
     3
100
AcDbLine
 10
3183.680454787728
 20
-1654.745871857109
 30
0.0
 11
3183.680454787728
 21
-1634.694423116817
 31
0.0
  0
LINE
  5
E4
330
1F
100
AcDbEntity
  8
1
  6
Continuous
 62
     3
100
AcDbLine
 10
3182.080454787728
 20
-1656.251099682687
 30
0.0
 11
3182.080454787728
 21
-1674.694423116817
 31
0.0
  0
LINE
  5
E5
330
1F
100
AcDbEntity
  8
1
  6
Continuous
 62
     3
100
AcDbLine
 10
3182.080454787728
 20
-1674.694423116817
 30
0.0
 11
3183.680454787728
 21
-1674.694423116817
 31
0.0
  0
LINE
  5
E6
330
1F
100
AcDbEntity
  8
1
  6
Continuous
 62
     3
100
AcDbLine
 10
3183.680454787728
 20
-1674.694423116817
 30
0.0
 11
3183.680454787728
 21
-1656.251099682687
 31
0.0
  0
LINE
  5
E7
330
1F
100
AcDbEntity
  8
1
  6
Continuous
 62
     2
100
AcDbLine
 10
3182.480454787728
 20
-1684.694423116817
 30
0.0
 11
3182.480454787728
 21
-1674.694423116817
 31
0.0
  0
LINE
  5
E8
330
1F
100
AcDbEntity
  8
1
  6
Continuous
 62
     2
100
AcDbLine
 10
3182.880454787728
 20
-1684.694423116817
 30
0.0
 11
3182.880454787728
 21
-1674.694423116817
 31
0.0
  0
LINE
  5
E9
330
1F
100
AcDbEntity
  8
1
  6
Continuous
 62
     2
100
AcDbLine
 10
3183.280454787728
 20
-1684.694423116817
 30
0.0
 11
3183.280454787728
 21
-1674.694423116817
 31
0.0
  0
LINE
  5
EA
330
1F
100
AcDbEntity
  8
1
  6
Continuous
 62
     1
100
AcDbLine
 10
3211.480454787728
 20
-1576.194423116817
 30
0.0
 11
3211.480454787728
 21
-1583.194423116817
 31
0.0
  0
LINE
  5
EB
330
1F
100
AcDbEntity
  8
1
  6
Continuous
 62
     1
100
AcDbLine
 10
3214.980454787728
 20
-1629.694423116817
 30
0.0
 11
3207.980454787728
 21
-1629.694423116817
 31
0.0
  0
LINE
  5
EC
330
1F
100
AcDbEntity
  8
1
  6
Continuous
 62
     1
100
AcDbLine
 10
3161.480454787728
 20
-1633.194423116817
 30
0.0
 11
3161.480454787728
 21
-1626.194423116817
 31
0.0
  0
LINE
  5
ED
330
1F
100
AcDbEntity
  8
1
  6
Continuous
 62
     1
100
AcDbLine
 10
3207.980454787728
 20
-1579.694423116817
 30
0.0
 11
3214.980454787728
 21
-1579.694423116817
 31
0.0
  0
LINE
  5
EE
330
1F
100
AcDbEntity
  8
1
  6
Continuous
 62
     1
100
AcDbLine
 10
3211.480454787728
 20
-1626.194423116817
 30
0.0
 11
3211.480454787728
 21
-1633.194423116817
 31
0.0
  0
LINE
  5
EF
330
1F
100
AcDbEntity
  8
1
  6
Continuous
 62
     1
100
AcDbLine
 10
3164.980454787728
 20
-1629.694423116817
 30
0.0
 11
3157.980454787728
 21
-1629.694423116817
 31
0.0
  0
LINE
  5
F0
330
1F
100
AcDbEntity
  8
1
  6
Continuous
 62
     1
100
AcDbLine
 10
3213.480454787728
 20
-1583.094423116817
 30
0.0
 11
3213.480454787728
 21
-1593.094423116817
 31
0.0
  0
LINE
  5
F1
330
1F
100
AcDbEntity
  8
1
  6
Continuous
 62
     1
100
AcDbLine
 10
3208.080454787729
 20
-1631.694423116817
 30
0.0
 11
3198.080454787729
 21
-1631.694423116818
 31
0.0
  0
LINE
  5
F2
330
1F
100
AcDbEntity
  8
1
  6
Continuous
 62
     1
100
AcDbLine
 10
3159.480454787728
 20
-1626.294423116818
 30
0.0
 11
3159.480454787728
 21
-1616.294423116818
 31
0.0
  0
LINE
  5
F3
330
1F
100
AcDbEntity
  8
1
  6
Continuous
 62
     1
100
AcDbLine
 10
3218.480454787728
 20
-1588.094423116817
 30
0.0
 11
3208.480454787728
 21
-1588.094423116817
 31
0.0
  0
LINE
  5
F4
330
1F
100
AcDbEntity
  8
1
  6
Continuous
 62
     1
100
AcDbLine
 10
3203.080454787729
 20
-1636.694423116817
 30
0.0
 11
3203.080454787729
 21
-1626.694423116817
 31
0.0
  0
LINE
  5
F5
330
1F
100
AcDbEntity
  8
1
  6
Continuous
 62
     1
100
AcDbLine
 10
3154.480454787728
 20
-1621.294423116817
 30
0.0
 11
3164.480454787728
 21
-1621.294423116817
 31
0.0
  0
LINE
  5
F6
330
1F
100
AcDbEntity
  8
1
  6
Continuous
 62
     3
100
AcDbLine
 10
3213.480454787728
 20
-1591.594423116817
 30
0.0
 11
3215.480454787728
 21
-1591.594423116817
 31
0.0
  0
LINE
  5
F7
330
1F
100
AcDbEntity
  8
1
  6
Continuous
 62
     3
100
AcDbLine
 10
3199.580454787728
 20
-1631.694423116817
 30
0.0
 11
3199.580454787728
 21
-1633.694423116818
 31
0.0
  0
LINE
  5
F8
330
1F
100
AcDbEntity
  8
1
  6
Continuous
 62
     3
100
AcDbLine
 10
3159.480454787728
 20
-1617.794423116817
 30
0.0
 11
3157.480454787728
 21
-1617.794423116817
 31
0.0
  0
LINE
  5
F9
330
1F
100
AcDbEntity
  8
1
  6
Continuous
 62
     3
100
AcDbLine
 10
3213.480454787728
 20
-1584.594423116817
 30
0.0
 11
3215.480454787728
 21
-1584.594423116817
 31
0.0
  0
LINE
  5
FA
330
1F
100
AcDbEntity
  8
1
  6
Continuous
 62
     3
100
AcDbLine
 10
3206.580454787728
 20
-1631.694423116817
 30
0.0
 11
3206.580454787728
 21
-1633.694423116817
 31
0.0
  0
LINE
  5
FB
330
1F
100
AcDbEntity
  8
1
  6
Continuous
 62
     3
100
AcDbLine
 10
3159.480454787728
 20
-1624.794423116817
 30
0.0
 11
3157.480454787728
 21
-1624.794423116817
 31
0.0
  0
LINE
  5
FC
330
1F
100
AcDbEntity
  8
1
  6
Continuous
 62
     2
100
AcDbLine
 10
3198.980454787728
 20
-1656.251099682687
 30
0.0
 11
3173.980454787728
 21
-1656.251099682687
 31
0.0
  0
LINE
  5
FD
330
1F
100
AcDbEntity
  8
1
  6
Continuous
 62
     2
100
AcDbLine
 10
3173.980454787728
 20
-1654.745871857109
 30
0.0
 11
3198.980454787728
 21
-1654.745871857109
 31
0.0
  0
LINE
  5
FE
330
1F
100
AcDbEntity
  8
1
  6
Continuous
 62
     1
100
AcDbLine
 10
3169.880454787728
 20
-1572.694423116817
 30
0.0
 11
3169.880454787728
 21
-1582.694423116817
 31
0.0
  0
LINE
  5
FF
330
1F
100
AcDbEntity
  8
1
  6
Continuous
 62
     1
100
AcDbLine
 10
3164.880454787728
 20
-1577.694423116817
 30
0.0
 11
3174.880454787728
 21
-1577.694423116817
 31
0.0
  0
LINE
  5
100
330
1F
100
AcDbEntity
  8
1
  6
Continuous
 62
     1
100
AcDbLine
 10
3161.480454787728
 20
-1583.194423116817
 30
0.0
 11
3161.480454787728
 21
-1576.194423116817
 31
0.0
  0
LINE
  5
101
330
1F
100
AcDbEntity
  8
1
  6
Continuous
 62
     1
100
AcDbLine
 10
3157.980454787728
 20
-1579.694423116817
 30
0.0
 11
3164.980454787728
 21
-1579.694423116817
 31
0.0
  0
LINE
  5
102
330
1F
100
AcDbEntity
  8
1
  6
Continuous
 62
     3
100
AcDbLine
 10
3184.543963114624
 20
-1601.194423116817
 30
0.0
 11
3188.416946460832
 21
-1601.194423116817
 31
0.0
  0
LINE
  5
103
330
1F
100
AcDbEntity
  8
1
  6
Continuous
 62
     1
100
AcDbLine
 10
3154.480454787728
 20
-1621.294423116817
 30
0.0
 11
3164.480454787728
 21
-1621.294423116817
 31
0.0
  0
LINE
  5
104
330
1F
100
AcDbEntity
  8
1
  6
Continuous
 62
     3
100
AcDbLine
 10
3174.380454787728
 20
-1574.694423116817
 30
0.0
 11
3211.480454787728
 21
-1574.694423116817
 31
0.0
  0
LINE
  5
105
330
1F
100
AcDbEntity
  8
1
  6
Continuous
 62
     3
100
AcDbLine
 10
3165.380454170829
 20
-1574.694423116817
 30
0.0
 11
3174.380454787728
 21
-1574.694423116817
 31
0.0
  0
LINE
  5
106
330
1F
100
AcDbEntity
  8
1
  6
Continuous
 62
     1
100
AcDbLine
 10
3186.480454787728
 20
-1569.694423116817
 30
0.0
 11
3186.480454787728
 21
-1641.472871372257
 31
0.0
  0
LINE
  5
107
330
1F
100
AcDbEntity
  8
1
  6
Continuous
 62
     1
100
AcDbLine
 10
3151.480454787728
 20
-1604.694423116817
 30
0.0
 11
3221.480454787728
 21
-1604.694423116817
 31
0.0
  0
LINE
  5
108
330
1F
100
AcDbEntity
  8
1
  6
Continuous
 62
     3
100
AcDbLine
 10
3161.480454787728
 20
-1574.694423116817
 30
0.0
 11
3165.380454787728
 21
-1574.694423116817
 31
0.0
  0
LINE
  5
109
330
1F
100
AcDbEntity
  8
1
  6
Continuous
 62
     3
100
AcDbLine
 10
3216.480454787728
 20
-1579.694423116817
 30
0.0
 11
3216.480454787728
 21
-1629.694423116817
 31
0.0
  0
LINE
  5
10A
330
1F
100
AcDbEntity
  8
1
  6
Continuous
 62
     3
100
AcDbLine
 10
3211.480454787728
 20
-1634.694423116817
 30
0.0
 11
3161.480454787728
 21
-1634.694423116817
 31
0.0
  0
LINE
  5
10B
330
1F
100
AcDbEntity
  8
1
  6
Continuous
 62
     3
100
AcDbLine
 10
3156.480454787728
 20
-1629.694423116817
 30
0.0
 11
3156.480454787728
 21
-1579.694423116817
 31
0.0
  0
LINE
  5
10C
330
1F
100
AcDbEntity
  8
1
  6
Continuous
 62
     3
100
AcDbLine
 10
3173.380454787728
 20
-1577.694423116817
 30
0.0
 11
3173.380454787728
 21
-1575.694423116817
 31
0.0
  0
LINE
  5
10D
330
1F
100
AcDbEntity
  8
1
  6
Continuous
 62
     3
100
AcDbLine
 10
3166.380454787728
 20
-1577.694423116817
 30
0.0
 11
3166.380454787728
 21
-1575.694423116817
 31
0.0
  0
LINE
  5
10E
330
1F
100
AcDbEntity
  8
1
  6
Continuous
 62
     3
100
AcDbLine
 10
3320.419095969638
 20
-1574.694423116817
 30
0.0
 11
3373.619095969638
 21
-1574.694423116817
 31
0.0
  0
LINE
  5
10F
330
1F
100
AcDbEntity
  8
1
  6
Continuous
 62
     3
100
AcDbLine
 10
3374.419095969638
 20
-1575.494423116817
 30
0.0
 11
3374.419095969638
 21
-1633.894423116817
 31
0.0
  0
LINE
  5
110
330
1F
100
AcDbEntity
  8
1
  6
Continuous
 62
     3
100
AcDbLine
 10
3373.619095969638
 20
-1634.694423116817
 30
0.0
 11
3320.419095969638
 21
-1634.694423116817
 31
0.0
  0
LINE
  5
111
330
1F
100
AcDbEntity
  8
1
  6
Continuous
 62
     3
100
AcDbLine
 10
3320.419095969638
 20
-1634.694423116817
 30
0.0
 11
3320.419095969638
 21
-1574.694423116817
 31
0.0
  0
LINE
  5
112
330
1F
100
AcDbEntity
  8
1
  6
Continuous
 62
     3
100
AcDbLine
 10
3330.419095969638
 20
-1574.694423116817
 30
0.0
 11
3330.419095969638
 21
-1634.694423116817
 31
0.0
  0
LINE
  5
113
330
1F
100
AcDbEntity
  8
1
  6
Continuous
 62
     3
100
AcDbLine
 10
3364.419095969638
 20
-1634.694423116817
 30
0.0
 11
3364.419095969638
 21
-1574.694423116817
 31
0.0
  0
LINE
  5
114
330
1F
100
AcDbEntity
  8
1
  6
Continuous
 62
     3
100
AcDbLine
 10
3318.819095969639
 20
-1600.694423116817
 30
0.0
 11
3316.419095969638
 21
-1600.694423116817
 31
0.0
  0
LINE
  5
115
330
1F
100
AcDbEntity
  8
1
  6
Continuous
 62
     1
100
AcDbLine
 10
3292.45737342605
 20
-1604.694423116817
 30
0.0
 11
3378.269850599389
 21
-1604.694423116817
 31
0.0
  0
LINE
  5
116
330
1F
100
AcDbEntity
  8
1
  6
Continuous
 62
     3
100
AcDbLine
 10
3320.419095969638
 20
-1586.694423116817
 30
0.0
 11
3318.819095969639
 21
-1586.694423116817
 31
0.0
  0
LINE
  5
117
330
1F
100
AcDbEntity
  8
1
  6
Continuous
 62
     3
100
AcDbLine
 10
3318.819095969639
 20
-1586.694423116817
 30
0.0
 11
3318.819095969639
 21
-1622.694423116817
 31
0.0
  0
LINE
  5
118
330
1F
100
AcDbEntity
  8
1
  6
Continuous
 62
     3
100
AcDbLine
 10
3318.819095969639
 20
-1622.694423116817
 30
0.0
 11
3320.419095969638
 21
-1622.694423116817
 31
0.0
  0
LINE
  5
119
330
1F
100
AcDbEntity
  8
1
  6
Continuous
 62
     3
100
AcDbLine
 10
3327.419095969638
 20
-1574.694423116817
 30
0.0
 11
3327.419095969638
 21
-1585.094423116817
 31
0.0
  0
LINE
  5
11A
330
1F
100
AcDbEntity
  8
1
  6
Continuous
 62
     3
100
AcDbLine
 10
3327.419095969638
 20
-1585.094423116817
 30
0.0
 11
3374.419095969638
 21
-1585.094423116817
 31
0.0
  0
LINE
  5
11B
330
1F
100
AcDbEntity
  8
1
  6
Continuous
 62
     3
100
AcDbLine
 10
3327.419095969638
 20
-1634.694423116817
 30
0.0
 11
3327.419095969638
 21
-1624.294423116817
 31
0.0
  0
LINE
  5
11C
330
1F
100
AcDbEntity
  8
1
  6
Continuous
 62
     3
100
AcDbLine
 10
3327.419095969638
 20
-1624.294423116817
 30
0.0
 11
3374.419095969638
 21
-1624.294423116817
 31
0.0
  0
ARC
  5
11D
330
1F
100
AcDbEntity
  8
1
  6
Continuous
 62
     3
100
AcDbCircle
 10
3161.480454787728
 20
-1579.694423116817
 30
0.0
 40
5.0
100
AcDbArc
 50
90.0
 51
180.0
  0
ARC
  5
11E
330
1F
100
AcDbEntity
  8
1
  6
Continuous
 62
     3
100
AcDbCircle
 10
3161.480454787728
 20
-1629.694423116817
 30
0.0
 40
5.0
100
AcDbArc
 50
180.0
 51
270.0
  0
ARC
  5
11F
330
1F
100
AcDbEntity
  8
1
  6
Continuous
 62
     3
100
AcDbCircle
 10
3211.480454787728
 20
-1629.694423116816
 30
0.0
 40
5.000000000000909
100
AcDbArc
 50
270.0
 51
359.9999999999895
  0
ARC
  5
120
330
1F
100
AcDbEntity
  8
1
  6
Continuous
 62
     3
100
AcDbCircle
 10
3211.480454787728
 20
-1579.694423116817
 30
0.0
 40
5.0
100
AcDbArc
 50
0.0
 51
90.0
  0
ARC
  5
121
330
1F
100
AcDbEntity
  8
1
  6
Continuous
 62
     3
100
AcDbCircle
 10
3213.480454787728
 20
-1588.094423116817
 30
0.0
 40
3.5
100
AcDbArc
 50
90.0
 51
270.0
  0
ARC
  5
122
330
1F
100
AcDbEntity
  8
1
  6
Continuous
 62
     3
100
AcDbCircle
 10
3169.880454787728
 20
-1577.694423116817
 30
0.0
 40
3.5
100
AcDbArc
 50
180.0
 51
0.0
  0
ARC
  5
123
330
1F
100
AcDbEntity
  8
1
  6
Continuous
 62
     3
100
AcDbCircle
 10
3159.480454787728
 20
-1621.294423116817
 30
0.0
 40
3.5
100
AcDbArc
 50
270.0
 51
90.0
  0
ARC
  5
124
330
1F
100
AcDbEntity
  8
1
  6
Continuous
 62
     3
100
AcDbCircle
 10
3203.080454787728
 20
-1631.694423116817
 30
0.0
 40
3.5
100
AcDbArc
 50
0.0
 51
180.0
  0
CIRCLE
  5
125
330
1F
100
AcDbEntity
  8
1
  6
Continuous
 62
     3
100
AcDbCircle
 10
3186.480454787728
 20
-1604.694423116817
 30
0.0
 40
4.0
  0
CIRCLE
  5
126
330
1F
100
AcDbEntity
  8
1
  6
Continuous
 62
     3
100
AcDbCircle
 10
3186.480454787728
 20
-1604.694423116817
 30
0.0
 40
4.75
  0
CIRCLE
  5
127
330
1F
100
AcDbEntity
  8
1
  6
Continuous
 62
     3
100
AcDbCircle
 10
3186.480454787728
 20
-1604.694423116817
 30
0.0
 40
14.5
  0
CIRCLE
  5
128
330
1F
100
AcDbEntity
  8
1
  6
Continuous
 62
     3
100
AcDbCircle
 10
3186.480454787728
 20
-1604.694423116817
 30
0.0
 40
19.05000000000018
  0
CIRCLE
  5
129
330
1F
100
AcDbEntity
  8
1
  6
Continuous
 62
     3
100
AcDbCircle
 10
3186.480454787728
 20
-1604.694423116817
 30
0.0
 40
17.5
  0
CIRCLE
  5
12A
330
1F
100
AcDbEntity
  8
1
  6
Continuous
 62
     3
100
AcDbCircle
 10
3211.480454787728
 20
-1579.694423116817
 30
0.0
 40
2.249999999999091
  0
CIRCLE
  5
12B
330
1F
100
AcDbEntity
  8
1
  6
Continuous
 62
     3
100
AcDbCircle
 10
3161.480454787728
 20
-1579.694423116817
 30
0.0
 40
2.250000000000909
  0
CIRCLE
  5
12C
330
1F
100
AcDbEntity
  8
1
  6
Continuous
 62
     3
100
AcDbCircle
 10
3161.480454787728
 20
-1629.694423116817
 30
0.0
 40
2.250000000000909
  0
CIRCLE
  5
12D
330
1F
100
AcDbEntity
  8
1
  6
Continuous
 62
     3
100
AcDbCircle
 10
3211.480454787728
 20
-1629.694423116816
 30
0.0
 40
2.25
  0
ARC
  5
12E
330
1F
100
AcDbEntity
  8
1
  6
Continuous
 62
     3
100
AcDbCircle
 10
3373.619095969638
 20
-1633.894423116817
 30
0.0
 40
0.7999999999999545
100
AcDbArc
 50
270.0
 51
0.0
  0
ARC
  5
12F
330
1F
100
AcDbEntity
  8
1
  6
Continuous
 62
     3
100
AcDbCircle
 10
3373.619095969638
 20
-1575.494423116817
 30
0.0
 40
0.8000000000001819
100
AcDbArc
 50
0.0
 51
90.0
  0
ARC
  5
130
330
1F
100
AcDbEntity
  8
1
  6
Continuous
 62
     3
100
AcDbCircle
 10
3215.480454787728
 20
-1592.594423116817
 30
0.0
 40
1.0
100
AcDbArc
 50
0.0
 51
90.0
  0
ARC
  5
131
330
1F
100
AcDbEntity
  8
1
  6
Continuous
 62
     3
100
AcDbCircle
 10
3198.580454787728
 20
-1633.694423116817
 30
0.0
 40
1.0
100
AcDbArc
 50
270.0
 51
359.9999999999479
  0
ARC
  5
132
330
1F
100
AcDbEntity
  8
1
  6
Continuous
 62
     3
100
AcDbCircle
 10
3157.480454787728
 20
-1616.794423116817
 30
0.0
 40
1.0
100
AcDbArc
 50
180.0
 51
270.0
  0
ARC
  5
133
330
1F
100
AcDbEntity
  8
1
  6
Continuous
 62
     3
100
AcDbCircle
 10
3215.480454787728
 20
-1583.594423116817
 30
0.0
 40
1.0
100
AcDbArc
 50
270.0
 51
0.0
  0
ARC
  5
134
330
1F
100
AcDbEntity
  8
1
  6
Continuous
 62
     3
100
AcDbCircle
 10
3207.580454787728
 20
-1633.694423116817
 30
0.0
 40
1.0
100
AcDbArc
 50
180.0
 51
270.0
  0
ARC
  5
135
330
1F
100
AcDbEntity
  8
1
  6
Continuous
 62
     3
100
AcDbCircle
 10
3157.480454787728
 20
-1625.794423116817
 30
0.0
 40
1.0
100
AcDbArc
 50
90.0
 51
180.0
  0
ARC
  5
136
330
1F
100
AcDbEntity
  8
1
  6
Continuous
 62
     3
100
AcDbCircle
 10
3174.380454787728
 20
-1575.694423116817
 30
0.0
 40
1.0
100
AcDbArc
 50
90.0
 51
180.0
  0
ARC
  5
137
330
1F
100
AcDbEntity
  8
1
  6
Continuous
 62
     3
100
AcDbCircle
 10
3165.380454787728
 20
-1575.694423116817
 30
0.0
 40
1.0
100
AcDbArc
 50
0.0
 51
90.0
  0
SOLID
  5
138
330
1F
100
AcDbEntity
  8
1
 62
     2
100
AcDbTrace
 10
3179.851099012233
 20
-1645.89896297194
 30
0.0
 11
3179.392538950618
 21
-1645.255776875816
 31
0.0
 12
3182.064560698868
 22
-1643.835815186907
 32
0.0
 13
3182.064560698868
 23
-1643.835815186907
 33
0.0
  0
LEADER
  5
139
330
1F
100
AcDbEntity
  8
1
  6
Continuous
 62
     2
100
AcDbLeader
  3
Standard
 71
     0
 76
     3
 10
3182.064560698868
 20
-1643.835815186907
 30
0.0
 10
3167.500552690578
 20
-1654.219236796737
 30
0.0
 10
3134.142189600428
 20
-1654.219236796737
 30
0.0
  0
TEXT
  5
13B
330
1F
100
AcDbEntity
  8
1
 62
     2
100
AcDbText
 10
3134.862255695444
 20
-1652.894516307079
 30
0.0
 40
3.2
  1
UL3266 AWG22
 41
0.856
  7
CONVERTER_11
100
AcDbText
  0
DIMENSION
  5
147
330
1F
100
AcDbEntity
  8
1
100
AcDbDimension
  2
*D5
 10
3236.480454787728
 20
-1684.694423116817
 30
0.0
 11
3232.080454787728
 21
-1662.1355801322
 31
0.0
 70
    32
  1
300
 71
     5
 42
-1.0
 53
90.0
  3
ME10_DIM_10
100
AcDbAlignedDimension
 13
3190.880454787728
 23
-1634.694423116817
 33
0.0
 14
3190.480454787728
 24
-1684.694423116817
 34
0.0
 50
90.0
100
AcDbRotatedDimension
  0
DIMENSION
  5
152
330
1F
100
AcDbEntity
  8
1
100
AcDbDimension
  2
*D6
 10
3206.03759577256
 20
-1684.694423116817
 30
0.0
 11
3202.43759577256
 21
-1679.8488070717
 31
0.0
 70
    32
  1
<>)
 71
     5
 42
-1.0
 53
90.0
  3
ME10_DIM_11
100
AcDbAlignedDimension
 13
3190.880454787728
 23
-1674.694423116817
 33
0.0
 14
3190.480454787728
 24
-1684.694423116817
 34
0.0
 50
90.0
100
AcDbRotatedDimension
  0
DIMENSION
  5
15D
330
1F
100
AcDbEntity
  8
1
100
AcDbDimension
  2
*D7
 10
3226.480454787728
 20
-1629.694423116816
 30
0.0
 11
3224.16551058153
 21
-1603.71269123232
 31
0.0
 70
    32
  1
<>
 71
     5
 42
-1.0
 53
90.0
  3
ME10_DIM_12
100
AcDbAlignedDimension
 13
3214.980454787728
 23
-1579.694423116817
 33
0.0
 14
3214.980454787728
 24
-1629.694423116817
 34
0.0
 50
90.0
100
AcDbRotatedDimension
  0
DIMENSION
  5
16A
330
1F
100
AcDbEntity
  8
1
100
AcDbDimension
  2
*D8
 10
3271.419095969638
 20
-1608.694423116818
 30
0.0
 11
3267.019095969638
 21
-1576.60879417155
 31
0.0
 70
    32
  1
<>
 71
     5
 42
-1.0
 53
90.0
  3
ME10_DIM_13
100
AcDbAlignedDimension
 13
3316.419095969638
 23
-1600.694423116817
 33
0.0
 14
3296.919095969638
 24
-1608.694423116818
 34
0.0
 50
90.0
100
AcDbRotatedDimension
  0
DIMENSION
  5
177
330
1F
100
AcDbEntity
  8
1
100
AcDbDimension
  2
*D9
 10
3286.419095969638
 20
-1608.694423116818
 30
0.0
 11
3282.67061111968
 21
-1573.22728594383
 31
0.0
 70
    32
  1
<>
 71
     5
 42
-1.0
 53
90.0
  3
ME10_DIM_14
100
AcDbAlignedDimension
 13
3296.419095969638
 23
-1601.194423116817
 33
0.0
 14
3296.919095969638
 24
-1608.694423116818
 34
0.0
 50
90.0
100
AcDbRotatedDimension
  0
DIMENSION
  5
184
330
1F
100
AcDbEntity
  8
1
100
AcDbDimension
  2
*D10
 10
3327.419095969638
 20
-1644.694423116817
 30
0.0
 11
3323.9036538337
 21
-1641.094423116817
 31
0.0
 70
    32
  1
<>
 71
     5
 42
-1.0
 53
0.00013888888889
  3
ME10_DIM_15
100
AcDbAlignedDimension
 13
3320.419095969638
 23
-1634.694423116817
 33
0.0
 14
3327.419095969638
 24
-1634.694423116817
 34
0.0
100
AcDbRotatedDimension
  0
DIMENSION
  5
191
330
1F
100
AcDbEntity
  8
1
100
AcDbDimension
  2
*D11
 10
3320.419095969638
 20
-1564.694423116817
 30
0.0
 11
3313.4770840006
 21
-1561.094423116817
 31
0.0
 70
    32
  1
<>
 71
     5
 42
-1.0
 53
0.00013888888889
  3
ME10_DIM_16
100
AcDbAlignedDimension
 13
3318.819095969639
 23
-1586.694423116817
 33
0.0
 14
3320.419095969638
 24
-1574.694423116817
 34
0.0
100
AcDbRotatedDimension
  0
DIMENSION
  5
19C
330
1F
100
AcDbEntity
  8
1
100
AcDbDimension
  2
*D12
 10
3316.419095969638
 20
-1574.694423116817
 30
0.0
 11
3306.79519796456
 21
-1571.094423116817
 31
0.0
 70
    32
  1
<>
 71
     5
 42
-1.0
 53
0.00013888888889
  3
ME10_DIM_17
100
AcDbAlignedDimension
 13
3296.419095969638
 23
-1601.194423116817
 33
0.0
 14
3316.419095969638
 24
-1600.694423116817
 34
0.0
100
AcDbRotatedDimension
  0
DIMENSION
  5
1A7
330
1F
100
AcDbEntity
  8
1
100
AcDbDimension
  2
*D13
 10
3320.419095969638
 20
-1554.694423116817
 30
0.0
 11
3309.09209628945
 21
-1551.094423116817
 31
0.0
 70
    32
  1
<>
 71
     5
 42
-1.0
 53
0.00013888888889
  3
ME10_DIM_18
100
AcDbAlignedDimension
 13
3296.419095969638
 23
-1601.194423116817
 33
0.0
 14
3320.419095969638
 24
-1574.694423116817
 34
0.0
100
AcDbRotatedDimension
  0
DIMENSION
  5
1B2
330
1F
100
AcDbEntity
  8
1
100
AcDbDimension
  2
*D14
 10
3320.419095969639
 20
-1554.694423116817
 30
0.0
 11
3346.886514180831
 21
-1551.094423116817
 31
0.0
 70
    32
  1
<>)
 71
     5
 42
-1.0
 53
0.00013888888889
  3
ME10_DIM_19
100
AcDbAlignedDimension
 13
3374.419095969638
 23
-1575.494423116817
 33
0.0
 14
3320.419095969638
 24
-1574.694423116817
 34
0.0
100
AcDbRotatedDimension
  0
DIMENSION
  5
1BD
330
1F
100
AcDbEntity
  8
1
100
AcDbDimension
  2
*D15
 10
3236.480454787728
 20
-1574.694423116817
 30
0.0
 11
3232.880454787728
 21
-1604.694423116817
 31
0.0
 70
    32
  1
<>)
 71
     5
 42
-1.0
 53
90.0
  3
ME10_DIM_20
100
AcDbAlignedDimension
 13
3211.480454787728
 23
-1634.694423116817
 33
0.0
 14
3211.480454787728
 24
-1574.694423116817
 34
0.0
 50
90.0
100
AcDbRotatedDimension
  0
DIMENSION
  5
1C8
330
1F
100
AcDbEntity
  8
1
100
AcDbDimension
  2
*D16
 10
3161.480454787728
 20
-1564.694423116817
 30
0.0
 11
3186.29951850323
 21
-1561.81840212441
 31
0.0
 70
    32
  1
<>
 71
     5
 42
-1.0
 53
0.00013888888889
  3
ME10_DIM_21
100
AcDbAlignedDimension
 13
3211.480454787728
 23
-1576.194423116817
 33
0.0
 14
3161.480454787728
 24
-1576.194423116817
 34
0.0
100
AcDbRotatedDimension
  0
DIMENSION
  5
1D3
330
1F
100
AcDbEntity
  8
1
100
AcDbDimension
  2
*D17
 10
3216.480454787728
 20
-1554.694423116817
 30
0.0
 11
3186.480454787728
 21
-1551.094423116817
 31
0.0
 70
    32
  1
<>)
 71
     5
 42
-1.0
 53
0.00013888888889
  3
ME10_DIM_22
100
AcDbAlignedDimension
 13
3156.480454787728
 23
-1579.694423116817
 33
0.0
 14
3216.480454787728
 24
-1579.694423116817
 34
0.0
100
AcDbRotatedDimension
  0
DIMENSION
  5
1DE
330
1F
100
AcDbEntity
  8
1
100
AcDbDimension
  2
*D18
 10
3261.419095969639
 20
-1622.694423116817
 30
0.0
 11
3257.019095969639
 21
-1603.587036729992
 31
0.0
 70
    32
  1
<>
 71
     5
 42
-1.0
 53
90.0
  3
ME10_DIM_23
100
AcDbAlignedDimension
 13
3318.819095969639
 23
-1586.694423116817
 33
0.0
 14
3318.819095969639
 24
-1622.694423116817
 34
0.0
 50
90.0
100
AcDbRotatedDimension
  0
INSERT
  5
1E6
330
1F
100
AcDbEntity
  8
1
100
AcDbBlockReference
  2
*D19
 10
0.0
 20
0.0
 30
0.0
  0
ENDSEC
  0
SECTION
  2
OBJECTS
  0
DICTIONARY
  5
C
330
0
100
AcDbDictionary
281
     1
  3
ACAD_GROUP
350
D
  3
ACAD_LAYOUT
350
1A
  3
ACAD_MATERIAL
350
3B
  3
ACAD_MLEADERSTYLE
350
1E9
  3
ACAD_MLINESTYLE
350
17
  3
ACAD_PLOTSETTINGS
350
19
  3
ACAD_PLOTSTYLENAME
350
E
  3
ACAD_VISUALSTYLE
350
2A
  3
AcDbVariableDictionary
350
1E7
  0
DICTIONARY
  5
D
102
{ACAD_REACTORS
330
C
102
}
330
C
100
AcDbDictionary
281
     1
  0
DICTIONARY
  5
1A
102
{ACAD_REACTORS
330
C
102
}
330
C
100
AcDbDictionary
281
     1
  3
Layout1
350
1E
  3
Layout2
350
26
  3
Model
350
22
  0
DICTIONARY
  5
3B
102
{ACAD_REACTORS
330
C
102
}
330
C
100
AcDbDictionary
281
     1
  3
ByBlock
350
3D
  3
ByLayer
350
3C
  3
Global
350
3E
  0
DICTIONARY
  5
1E9
102
{ACAD_REACTORS
330
C
102
}
330
C
100
AcDbDictionary
281
     1
  0
DICTIONARY
  5
17
102
{ACAD_REACTORS
330
C
102
}
330
C
100
AcDbDictionary
281
     1
  3
Standard
350
18
  0
DICTIONARY
  5
19
102
{ACAD_REACTORS
330
C
102
}
330
C
100
AcDbDictionary
281
     1
  0
ACDBDICTIONARYWDFLT
  5
E
102
{ACAD_REACTORS
330
C
102
}
330
C
100
AcDbDictionary
281
     1
  3
Normal
350
F
100
AcDbDictionaryWithDefault
340
F
  0
DICTIONARY
  5
2A
102
{ACAD_REACTORS
330
C
102
}
330
C
100
AcDbDictionary
281
     1
  3
2dWireframe
350
2F
  3
3D Hidden
350
31
  3
3dWireframe
350
30
  3
Basic
350
32
  3
Brighten
350
36
  3
ColorChange
350
3A
  3
Conceptual
350
34
  3
Dim
350
35
  3
Facepattern
350
39
  3
Flat
350
2B
  3
FlatWithEdges
350
2C
  3
Gouraud
350
2D
  3
GouraudWithEdges
350
2E
  3
Linepattern
350
38
  3
Realistic
350
33
  3
Thicken
350
37
  0
DICTIONARY
  5
1E7
102
{ACAD_REACTORS
330
C
102
}
330
C
100
AcDbDictionary
281
     1
  3
DIMASSOC
350
1EA
  3
HIDETEXT
350
1EB
  0
LAYOUT
  5
1E
102
{ACAD_REACTORS
330
1A
102
}
330
1A
100
AcDbPlotSettings
  1

  2
none_device
  4

  6

 40
0.0
 41
0.0
 42
0.0
 43
0.0
 44
0.0
 45
0.0
 46
0.0
 47
0.0
 48
0.0
 49
0.0
140
0.0
141
0.0
142
1.0
143
1.0
 70
   688
 72
     0
 73
     0
 74
     5
  7

 75
    16
147
1.0
148
0.0
149
0.0
100
AcDbLayout
  1
Layout1
 70
     1
 71
     1
 10
0.0
 20
0.0
 11
12.0
 21
9.0
 12
0.0
 22
0.0
 32
0.0
 14
1.00000000000000E+20
 24
1.00000000000000E+20
 34
1.00000000000000E+20
 15
-1.00000000000000E+20
 25
-1.00000000000000E+20
 35
-1.00000000000000E+20
146
0.0
 13
0.0
 23
0.0
 33
0.0
 16
1.0
 26
0.0
 36
0.0
 17
0.0
 27
1.0
 37
0.0
 76
     0
330
1B
  0
LAYOUT
  5
26
102
{ACAD_REACTORS
330
1A
102
}
330
1A
100
AcDbPlotSettings
  1

  2
none_device
  4

  6

 40
0.0
 41
0.0
 42
0.0
 43
0.0
 44
0.0
 45
0.0
 46
0.0
 47
0.0
 48
0.0
 49
0.0
140
0.0
141
0.0
142
1.0
143
1.0
 70
   688
 72
     0
 73
     0
 74
     5
  7

 75
    16
147
1.0
148
0.0
149
0.0
100
AcDbLayout
  1
Layout2
 70
     1
 71
     2
 10
0.0
 20
0.0
 11
0.0
 21
0.0
 12
0.0
 22
0.0
 32
0.0
 14
0.0
 24
0.0
 34
0.0
 15
0.0
 25
0.0
 35
0.0
146
0.0
 13
0.0
 23
0.0
 33
0.0
 16
1.0
 26
0.0
 36
0.0
 17
0.0
 27
1.0
 37
0.0
 76
     0
330
23
  0
LAYOUT
  5
22
102
{ACAD_REACTORS
330
1A
102
}
330
1A
100
AcDbPlotSettings
  1

  2
none_device
  4

  6

 40
0.0
 41
0.0
 42
0.0
 43
0.0
 44
0.0
 45
0.0
 46
0.0
 47
0.0
 48
0.0
 49
0.0
140
0.0
141
0.0
142
1.0
143
1.0
 70
  1712
 72
     0
 73
     0
 74
     0
  7

 75
     0
147
1.0
148
0.0
149
0.0
100
AcDbLayout
  1
Model
 70
     1
 71
     0
 10
0.0
 20
0.0
 11
12.0
 21
9.0
 12
0.0
 22
0.0
 32
0.0
 14
3134.142189600428
 24
-1684.694423116817
 34
0.0
 15
3378.269850599389
 25
-1549.494423116817
 35
0.0
146
0.0
 13
0.0
 23
0.0
 33
0.0
 16
1.0
 26
0.0
 36
0.0
 17
0.0
 27
1.0
 37
0.0
 76
     0
330
1F
331
29
  0
MATERIAL
  5
3D
102
{ACAD_REACTORS
330
3B
102
}
102
{ACAD_XDICTIONARY
360
20E
102
}
330
3B
100
AcDbMaterial
  1
ByBlock
  0
MATERIAL
  5
3C
102
{ACAD_REACTORS
330
3B
102
}
102
{ACAD_XDICTIONARY
360
20C
102
}
330
3B
100
AcDbMaterial
  1
ByLayer
  0
MATERIAL
  5
3E
102
{ACAD_REACTORS
330
3B
102
}
102
{ACAD_XDICTIONARY
360
210
102
}
330
3B
100
AcDbMaterial
  1
Global
  0
MLINESTYLE
  5
18
102
{ACAD_REACTORS
330
17
102
}
330
17
100
AcDbMlineStyle
  2
Standard
 70
     0
  3

 62
   256
 51
90.0
 52
90.0
 71
     2
 49
0.5
 62
   256
  6
BYLAYER
 49
-0.5
 62
   256
  6
BYLAYER
  0
ACDBPLACEHOLDER
  5
F
102
{ACAD_REACTORS
330
E
102
}
330
E
  0
VISUALSTYLE
  5
2F
102
{ACAD_REACTORS
330
2A
102
}
102
{ACAD_XDICTIONARY
360
1F4
102
}
330
2A
100
AcDbVisualStyle
  2
2dWireframe
 70
     4
 71
     0
 72
     2
 73
     0
 90
        0
 40
-0.6
 41
-30.0
 62
     5
 63
     7
 74
     1
 91
        4
 64
     7
 65
   257
 75
     1
175
     1
 42
1.0
 92
        0
 66
   257
 43
1.0
 76
     1
 77
     6
 78
     2
 67
     7
 79
     5
170
     0
171
     0
290
     0
174
     0
 93
        1
 44
0.0
173
     0
291
     0
 45
0.0
1001
ACAD
1000
AcDbSavedByObjectVersion
1070
     0
  0
VISUALSTYLE
  5
31
102
{ACAD_REACTORS
330
2A
102
}
102
{ACAD_XDICTIONARY
360
1F8
102
}
330
2A
100
AcDbVisualStyle
  2
3D Hidden
 70
     6
 71
     1
 72
     2
 73
     2
 90
        0
 40
-0.6
 41
-30.0
 62
     5
 63
     7
 74
     2
 91
        2
 64
     7
 65
   257
 75
     2
175
     1
 42
40.0
 92
        0
 66
   257
 43
1.0
 76
     1
 77
     6
 78
     2
 67
     7
 79
     3
170
     0
171
     0
290
     0
174
     0
 93
        1
 44
0.0
173
     0
291
     0
 45
0.0
1001
ACAD
1000
AcDbSavedByObjectVersion
1070
     0
  0
VISUALSTYLE
  5
30
102
{ACAD_REACTORS
330
2A
102
}
102
{ACAD_XDICTIONARY
360
1F6
102
}
330
2A
100
AcDbVisualStyle
  2
3dWireframe
 70
     5
 71
     0
 72
     2
 73
     0
 90
        0
 40
-0.6
 41
-30.0
 62
     5
 63
     7
 74
     1
 91
        4
 64
     7
 65
   257
 75
     1
175
     1
 42
1.0
 92
        0
 66
   257
 43
1.0
 76
     1
 77
     6
 78
     2
 67
     7
 79
     5
170
     0
171
     0
290
     0
174
     0
 93
        1
 44
0.0
173
     0
291
     0
 45
0.0
1001
ACAD
1000
AcDbSavedByObjectVersion
1070
     0
  0
VISUALSTYLE
  5
32
102
{ACAD_REACTORS
330
2A
102
}
102
{ACAD_XDICTIONARY
360
1FA
102
}
330
2A
100
AcDbVisualStyle
  2
Basic
 70
     7
 71
     1
 72
     0
 73
     1
 90
        0
 40
-0.6
 41
-30.0
 62
     5
 63
     7
 74
     0
 91
        4
 64
     7
 65
   257
 75
     1
175
     1
 42
1.0
 92
        8
 66
     7
 43
1.0
 76
     1
 77
     6
 78
     2
 67
     7
 79
     5
170
     0
171
     0
290
     0
174
     0
 93
        1
 44
0.0
173
     0
291
     1
 45
0.0
1001
ACAD
1000
AcDbSavedByObjectVersion
1070
     0
  0
VISUALSTYLE
  5
36
102
{ACAD_REACTORS
330
2A
102
}
102
{ACAD_XDICTIONARY
360
202
102
}
330
2A
100
AcDbVisualStyle
  2
Brighten
 70
    12
 71
     2
 72
     2
 73
     0
 90
        0
 40
-0.6
 41
-30.0
 62
     5
 63
     7
 74
     1
 91
        4
 64
     7
 65
   257
 75
     1
175
     1
 42
1.0
 92
        8
 66
     7
 43
1.0
 76
     1
 77
     6
 78
     2
 67
     7
 79
     5
170
     0
171
     0
290
     0
174
     0
 93
        1
 44
50.0
173
     0
291
     1
 45
0.0
1001
ACAD
1000
AcDbSavedByObjectVersion
1070
     0
  0
VISUALSTYLE
  5
3A
102
{ACAD_REACTORS
330
2A
102
}
102
{ACAD_XDICTIONARY
360
20A
102
}
330
2A
100
AcDbVisualStyle
  2
ColorChange
 70
    16
 71
     2
 72
     2
 73
     3
 90
        0
 40
-0.6
 41
-30.0
 62
     5
 63
     8
 74
     1
 91
        4
 64
     7
 65
   257
 75
     1
175
     1
 42
1.0
 92
        8
 66
     8
 43
1.0
 76
     1
 77
     6
 78
     2
 67
     7
 79
     5
170
     0
171
     0
290
     0
174
     0
 93
        1
 44
0.0
173
     0
291
     1
 45
0.0
1001
ACAD
1000
AcDbSavedByObjectVersion
1070
     0
  0
VISUALSTYLE
  5
34
102
{ACAD_REACTORS
330
2A
102
}
102
{ACAD_XDICTIONARY
360
1FE
102
}
330
2A
100
AcDbVisualStyle
  2
Conceptual
 70
     9
 71
     3
 72
     2
 73
     0
 90
        0
 40
-0.6
 41
-30.0
 62
     5
 63
     7
 74
     2
 91
        2
 64
     7
 65
   257
 75
     1
175
     1
 42
40.0
 92
        8
 66
     7
 43
1.0
 76
     1
 77
     6
 78
     2
 67
     7
 79
     3
170
     0
171
     0
290
     0
174
     0
 93
        1
 44
0.0
173
     0
291
     0
 45
0.0
1001
ACAD
1000
AcDbSavedByObjectVersion
1070
     0
  0
VISUALSTYLE
  5
35
102
{ACAD_REACTORS
330
2A
102
}
102
{ACAD_XDICTIONARY
360
200
102
}
330
2A
100
AcDbVisualStyle
  2
Dim
 70
    11
 71
     2
 72
     2
 73
     0
 90
        0
 40
-0.6
 41
-30.0
 62
     5
 63
     7
 74
     1
 91
        4
 64
     7
 65
   257
 75
     1
175
     1
 42
1.0
 92
        8
 66
     7
 43
1.0
 76
     1
 77
     6
 78
     2
 67
     7
 79
     5
170
     0
171
     0
290
     0
174
     0
 93
        1
 44
-50.0
173
     0
291
     1
 45
0.0
1001
ACAD
1000
AcDbSavedByObjectVersion
1070
     0
  0
VISUALSTYLE
  5
39
102
{ACAD_REACTORS
330
2A
102
}
102
{ACAD_XDICTIONARY
360
208
102
}
330
2A
100
AcDbVisualStyle
  2
Facepattern
 70
    15
 71
     2
 72
     2
 73
     0
 90
        0
 40
-0.6
 41
-30.0
 62
     5
 63
     7
 74
     1
 91
        4
 64
     7
 65
   257
 75
     1
175
     1
 42
1.0
 92
        8
 66
     7
 43
1.0
 76
     1
 77
     6
 78
     2
 67
     7
 79
     5
170
     0
171
     0
290
     0
174
     0
 93
        1
 44
0.0
173
     0
291
     1
 45
0.0
1001
ACAD
1000
AcDbSavedByObjectVersion
1070
     0
  0
VISUALSTYLE
  5
2B
102
{ACAD_REACTORS
330
2A
102
}
102
{ACAD_XDICTIONARY
360
1EC
102
}
330
2A
100
AcDbVisualStyle
  2
Flat
 70
     0
 71
     2
 72
     1
 73
     1
 90
        2
 40
-0.6
 41
30.0
 62
     5
 63
     7
 74
     0
 91
        4
 64
     7
 65
   257
 75
     1
175
     1
 42
1.0
 92
        8
 66
     7
 43
1.0
 76
     1
 77
     6
 78
     2
 67
     7
 79
     5
170
     0
171
     0
290
     0
174
     0
 93
       13
 44
0.0
173
     0
291
     1
 45
0.0
1001
ACAD
1000
AcDbSavedByObjectVersion
1070
     0
  0
VISUALSTYLE
  5
2C
102
{ACAD_REACTORS
330
2A
102
}
102
{ACAD_XDICTIONARY
360
1EE
102
}
330
2A
100
AcDbVisualStyle
  2
FlatWithEdges
 70
     1
 71
     2
 72
     1
 73
     1
 90
        2
 40
-0.6
 41
30.0
 62
     5
 63
     7
 74
     1
 91
        4
 64
     7
 65
   257
 75
     1
175
     1
 42
1.0
 92
        0
 66
   257
 43
1.0
 76
     1
 77
     6
 78
     2
 67
     7
 79
     5
170
     0
171
     0
290
     0
174
     0
 93
       13
 44
0.0
173
     0
291
     1
 45
0.0
1001
ACAD
1000
AcDbSavedByObjectVersion
1070
     0
  0
VISUALSTYLE
  5
2D
102
{ACAD_REACTORS
330
2A
102
}
102
{ACAD_XDICTIONARY
360
1F0
102
}
330
2A
100
AcDbVisualStyle
  2
Gouraud
 70
     2
 71
     2
 72
     2
 73
     1
 90
        2
 40
-0.6
 41
30.0
 62
     5
 63
     7
 74
     0
 91
        4
 64
     7
 65
   257
 75
     1
175
     1
 42
1.0
 92
        0
 66
     7
 43
1.0
 76
     1
 77
     6
 78
     2
 67
     7
 79
     5
170
     0
171
     0
290
     0
174
     0
 93
       13
 44
0.0
173
     0
291
     1
 45
0.0
1001
ACAD
1000
AcDbSavedByObjectVersion
1070
     0
  0
VISUALSTYLE
  5
2E
102
{ACAD_REACTORS
330
2A
102
}
102
{ACAD_XDICTIONARY
360
1F2
102
}
330
2A
100
AcDbVisualStyle
  2
GouraudWithEdges
 70
     3
 71
     2
 72
     2
 73
     1
 90
        2
 40
-0.6
 41
30.0
 62
     5
 63
     7
 74
     1
 91
        4
 64
     7
 65
   257
 75
     1
175
     1
 42
1.0
 92
        0
 66
   257
 43
1.0
 76
     1
 77
     6
 78
     2
 67
     7
 79
     5
170
     0
171
     0
290
     0
174
     0
 93
       13
 44
0.0
173
     0
291
     1
 45
0.0
1001
ACAD
1000
AcDbSavedByObjectVersion
1070
     0
  0
VISUALSTYLE
  5
38
102
{ACAD_REACTORS
330
2A
102
}
102
{ACAD_XDICTIONARY
360
206
102
}
330
2A
100
AcDbVisualStyle
  2
Linepattern
 70
    14
 71
     2
 72
     2
 73
     0
 90
        0
 40
-0.6
 41
-30.0
 62
     5
 63
     7
 74
     1
 91
        4
 64
     7
 65
   257
 75
     7
175
     7
 42
1.0
 92
        8
 66
     7
 43
1.0
 76
     1
 77
     6
 78
     2
 67
     7
 79
     5
170
     0
171
     0
290
     0
174
     0
 93
        1
 44
0.0
173
     0
291
     1
 45
0.0
1001
ACAD
1000
AcDbSavedByObjectVersion
1070
     0
  0
VISUALSTYLE
  5
33
102
{ACAD_REACTORS
330
2A
102
}
102
{ACAD_XDICTIONARY
360
1FC
102
}
330
2A
100
AcDbVisualStyle
  2
Realistic
 70
     8
 71
     2
 72
     2
 73
     0
 90
        0
 40
-0.6
 41
-30.0
 62
     5
 63
     7
 74
     1
 91
        0
 64
     7
 65
   257
 75
     1
175
     1
 42
1.0
 92
        8
 66
     8
 43
1.0
 76
     1
 77
     6
 78
     2
 67
     7
 79
     5
170
     0
171
     0
290
     0
174
     0
 93
       13
 44
0.0
173
     0
291
     0
 45
0.0
1001
ACAD
1000
AcDbSavedByObjectVersion
1070
     0
  0
VISUALSTYLE
  5
37
102
{ACAD_REACTORS
330
2A
102
}
102
{ACAD_XDICTIONARY
360
204
102
}
330
2A
100
AcDbVisualStyle
  2
Thicken
 70
    13
 71
     2
 72
     2
 73
     0
 90
        0
 40
-0.6
 41
-30.0
 62
     5
 63
     7
 74
     1
 91
        4
 64
     7
 65
   257
 75
     1
175
     1
 42
1.0
 92
       12
 66
     7
 43
1.0
 76
     1
 77
     6
 78
     2
 67
     7
 79
     5
170
     0
171
     0
290
     0
174
     0
 93
        1
 44
0.0
173
     0
291
     1
 45
0.0
1001
ACAD
1000
AcDbSavedByObjectVersion
1070
     0
  0
DICTIONARYVAR
  5
1EA
102
{ACAD_REACTORS
330
1E7
102
}
330
1E7
100
DictionaryVariables
280
     0
  1
2
  0
DICTIONARYVAR
  5
1EB
102
{ACAD_REACTORS
330
1E7
102
}
330
1E7
100
DictionaryVariables
280
     0
  1
1
  0
DICTIONARY
  5
20E
330
3D
100
AcDbDictionary
280
     1
281
     1
  3
ACAD_XREC_ROUNDTRIP
360
20F
  0
DICTIONARY
  5
20C
330
3C
100
AcDbDictionary
280
     1
281
     1
  3
ACAD_XREC_ROUNDTRIP
360
20D
  0
DICTIONARY
  5
210
330
3E
100
AcDbDictionary
280
     1
281
     1
  3
ACAD_XREC_ROUNDTRIP
360
211
  0
DICTIONARY
  5
1F4
330
2F
100
AcDbDictionary
280
     1
281
     1
  3
ACAD_XREC_ROUNDTRIP
360
1F5
  0
DICTIONARY
  5
1F8
330
31
100
AcDbDictionary
280
     1
281
     1
  3
ACAD_XREC_ROUNDTRIP
360
1F9
  0
DICTIONARY
  5
1F6
330
30
100
AcDbDictionary
280
     1
281
     1
  3
ACAD_XREC_ROUNDTRIP
360
1F7
  0
DICTIONARY
  5
1FA
330
32
100
AcDbDictionary
280
     1
281
     1
  3
ACAD_XREC_ROUNDTRIP
360
1FB
  0
DICTIONARY
  5
202
330
36
100
AcDbDictionary
280
     1
281
     1
  3
ACAD_XREC_ROUNDTRIP
360
203
  0
DICTIONARY
  5
20A
330
3A
100
AcDbDictionary
280
     1
281
     1
  3
ACAD_XREC_ROUNDTRIP
360
20B
  0
DICTIONARY
  5
1FE
330
34
100
AcDbDictionary
280
     1
281
     1
  3
ACAD_XREC_ROUNDTRIP
360
1FF
  0
DICTIONARY
  5
200
330
35
100
AcDbDictionary
280
     1
281
     1
  3
ACAD_XREC_ROUNDTRIP
360
201
  0
DICTIONARY
  5
208
330
39
100
AcDbDictionary
280
     1
281
     1
  3
ACAD_XREC_ROUNDTRIP
360
209
  0
DICTIONARY
  5
1EC
330
2B
100
AcDbDictionary
280
     1
281
     1
  3
ACAD_XREC_ROUNDTRIP
360
1ED
  0
DICTIONARY
  5
1EE
330
2C
100
AcDbDictionary
280
     1
281
     1
  3
ACAD_XREC_ROUNDTRIP
360
1EF
  0
DICTIONARY
  5
1F0
330
2D
100
AcDbDictionary
280
     1
281
     1
  3
ACAD_XREC_ROUNDTRIP
360
1F1
  0
DICTIONARY
  5
1F2
330
2E
100
AcDbDictionary
280
     1
281
     1
  3
ACAD_XREC_ROUNDTRIP
360
1F3
  0
DICTIONARY
  5
206
330
38
100
AcDbDictionary
280
     1
281
     1
  3
ACAD_XREC_ROUNDTRIP
360
207
  0
DICTIONARY
  5
1FC
330
33
100
AcDbDictionary
280
     1
281
     1
  3
ACAD_XREC_ROUNDTRIP
360
1FD
  0
DICTIONARY
  5
204
330
37
100
AcDbDictionary
280
     1
281
     1
  3
ACAD_XREC_ROUNDTRIP
360
205
  0
XRECORD
  5
20F
102
{ACAD_REACTORS
330
20E
102
}
330
20E
100
AcDbXrecord
280
     1
102
MATERIAL
148
0.0
149
0.0
149
0.0
 93
        0
 94
      127
282
     0
 72
     1
 77
     1
171
     1
175
     1
179
     1
273
     0
  0
XRECORD
  5
20D
102
{ACAD_REACTORS
330
20C
102
}
330
20C
100
AcDbXrecord
280
     1
102
MATERIAL
148
0.0
149
0.0
149
0.0
 93
        0
 94
      127
282
     0
 72
     1
 77
     1
171
     1
175
     1
179
     1
273
     0
  0
XRECORD
  5
211
102
{ACAD_REACTORS
330
210
102
}
330
210
100
AcDbXrecord
280
     1
102
MATERIAL
148
0.0
149
0.0
149
0.0
 93
        0
 94
      127
282
     0
 72
     1
 77
     1
171
     1
175
     1
179
     1
273
     0
  0
XRECORD
  5
1F5
102
{ACAD_REACTORS
330
1F4
102
}
330
1F4
100
AcDbXrecord
280
     1
102
RTVSPropertyOp0
 70
     1
102
RTVSPropertyOp1
 70
     1
102
RTVSPropertyOp2
 70
     1
102
RTVSPropertyOp3
 70
     1
102
RTVSPropertyOp4
 70
     1
102
RTVSPropertyOp5
 70
     1
102
RTVSPropertyOp6
 70
     1
102
RTVSPropertyOp7
 70
     1
102
RTVSPropertyOp8
 70
     1
102
RTVSPropertyOp9
 70
     1
102
RTVSPropertyOp10
 70
     1
102
RTVSPropertyOp11
 70
     1
102
RTVSPropertyOp12
 70
     1
102
RTVSPropertyOp13
 70
     1
102
RTVSPropertyOp14
 70
     1
102
RTVSPropertyOp15
 70
     1
102
RTVSPropertyOp16
 70
     1
102
RTVSPropertyOp17
 70
     1
102
RTVSPropertyOp18
 70
     1
102
RTVSPropertyOp19
 70
     1
102
RTVSPropertyOp20
 70
     1
102
RTVSPropertyOp21
 70
     1
102
RTVSPropertyOp22
 70
     1
102
RTVSPropertyOp23
 70
     1
102
RTVSPropertyOp24
 70
     1
102
RTVSPropertyOp25
 70
     1
102
RTVSPropertyOp26
 70
     1
102
RTVSPropertyOp27
 70
     1
102
RTVSPropertyOp28
 70
     1
102
RTVSPropertyOp29
 70
     1
102
RTVSPropertyOp30
 70
     1
102
RTVSPropertyOp31
 70
     1
102
RTVSPropertyOp32
 70
     1
  0
XRECORD
  5
1F9
102
{ACAD_REACTORS
330
1F8
102
}
330
1F8
100
AcDbXrecord
280
     1
102
RTVSPropertyOp0
 70
     1
102
RTVSPropertyOp1
 70
     1
102
RTVSPropertyOp2
 70
     1
102
RTVSPropertyOp3
 70
     1
102
RTVSPropertyOp4
 70
     1
102
RTVSPropertyOp5
 70
     1
102
RTVSPropertyOp6
 70
     1
102
RTVSPropertyOp7
 70
     1
102
RTVSPropertyOp8
 70
     1
102
RTVSPropertyOp9
 70
     1
102
RTVSPropertyOp10
 70
     1
102
RTVSPropertyOp11
 70
     1
102
RTVSPropertyOp12
 70
     1
102
RTVSPropertyOp13
 70
     1
102
RTVSPropertyOp14
 70
     1
102
RTVSPropertyOp15
 70
     1
102
RTVSPropertyOp16
 70
     1
102
RTVSPropertyOp17
 70
     1
102
RTVSPropertyOp18
 70
     1
102
RTVSPropertyOp19
 70
     1
102
RTVSPropertyOp20
 70
     1
102
RTVSPropertyOp21
 70
     1
102
RTVSPropertyOp22
 70
     1
102
RTVSPropertyOp23
 70
     1
102
RTVSPropertyOp24
 70
     1
102
RTVSPropertyOp25
 70
     1
102
RTVSPropertyOp26
 70
     1
102
RTVSPropertyOp27
 70
     1
102
RTVSPropertyOp28
 70
     1
102
RTVSPropertyOp29
 70
     1
102
RTVSPropertyOp30
 70
     1
102
RTVSPropertyOp31
 70
     1
102
RTVSPropertyOp32
 70
     1
  0
XRECORD
  5
1F7
102
{ACAD_REACTORS
330
1F6
102
}
330
1F6
100
AcDbXrecord
280
     1
102
RTVSPropertyOp0
 70
     1
102
RTVSPropertyOp1
 70
     1
102
RTVSPropertyOp2
 70
     1
102
RTVSPropertyOp3
 70
     1
102
RTVSPropertyOp4
 70
     1
102
RTVSPropertyOp5
 70
     1
102
RTVSPropertyOp6
 70
     1
102
RTVSPropertyOp7
 70
     1
102
RTVSPropertyOp8
 70
     1
102
RTVSPropertyOp9
 70
     1
102
RTVSPropertyOp10
 70
     1
102
RTVSPropertyOp11
 70
     1
102
RTVSPropertyOp12
 70
     1
102
RTVSPropertyOp13
 70
     1
102
RTVSPropertyOp14
 70
     1
102
RTVSPropertyOp15
 70
     1
102
RTVSPropertyOp16
 70
     1
102
RTVSPropertyOp17
 70
     1
102
RTVSPropertyOp18
 70
     1
102
RTVSPropertyOp19
 70
     1
102
RTVSPropertyOp20
 70
     1
102
RTVSPropertyOp21
 70
     1
102
RTVSPropertyOp22
 70
     1
102
RTVSPropertyOp23
 70
     1
102
RTVSPropertyOp24
 70
     1
102
RTVSPropertyOp25
 70
     1
102
RTVSPropertyOp26
 70
     1
102
RTVSPropertyOp27
 70
     1
102
RTVSPropertyOp28
 70
     1
102
RTVSPropertyOp29
 70
     1
102
RTVSPropertyOp30
 70
     1
102
RTVSPropertyOp31
 70
     1
102
RTVSPropertyOp32
 70
     1
  0
XRECORD
  5
1FB
102
{ACAD_REACTORS
330
1FA
102
}
330
1FA
100
AcDbXrecord
280
     1
102
RTVSPropertyOp0
 70
     1
102
RTVSPropertyOp1
 70
     1
102
RTVSPropertyOp2
 70
     1
102
RTVSPropertyOp3
 70
     1
102
RTVSPropertyOp4
 70
     1
102
RTVSPropertyOp5
 70
     1
102
RTVSPropertyOp6
 70
     1
102
RTVSPropertyOp7
 70
     1
102
RTVSPropertyOp8
 70
     1
102
RTVSPropertyOp9
 70
     1
102
RTVSPropertyOp10
 70
     1
102
RTVSPropertyOp11
 70
     1
102
RTVSPropertyOp12
 70
     1
102
RTVSPropertyOp13
 70
     1
102
RTVSPropertyOp14
 70
     1
102
RTVSPropertyOp15
 70
     1
102
RTVSPropertyOp16
 70
     1
102
RTVSPropertyOp17
 70
     1
102
RTVSPropertyOp18
 70
     1
102
RTVSPropertyOp19
 70
     1
102
RTVSPropertyOp20
 70
     1
102
RTVSPropertyOp21
 70
     1
102
RTVSPropertyOp22
 70
     1
102
RTVSPropertyOp23
 70
     1
102
RTVSPropertyOp24
 70
     1
102
RTVSPropertyOp25
 70
     1
102
RTVSPropertyOp26
 70
     1
102
RTVSPropertyOp27
 70
     1
102
RTVSPropertyOp28
 70
     1
102
RTVSPropertyOp29
 70
     1
102
RTVSPropertyOp30
 70
     1
102
RTVSPropertyOp31
 70
     1
102
RTVSPropertyOp32
 70
     1
  0
XRECORD
  5
203
102
{ACAD_REACTORS
330
202
102
}
330
202
100
AcDbXrecord
280
     1
102
RTVSPropertyOp0
 70
     1
102
RTVSPropertyOp1
 70
     1
102
RTVSPropertyOp2
 70
     1
102
RTVSPropertyOp3
 70
     1
102
RTVSPropertyOp4
 70
     1
102
RTVSPropertyOp5
 70
     1
102
RTVSPropertyOp6
 70
     1
102
RTVSPropertyOp7
 70
     1
102
RTVSPropertyOp8
 70
     1
102
RTVSPropertyOp9
 70
     1
102
RTVSPropertyOp10
 70
     1
102
RTVSPropertyOp11
 70
     1
102
RTVSPropertyOp12
 70
     1
102
RTVSPropertyOp13
 70
     1
102
RTVSPropertyOp14
 70
     1
102
RTVSPropertyOp15
 70
     1
102
RTVSPropertyOp16
 70
     1
102
RTVSPropertyOp17
 70
     1
102
RTVSPropertyOp18
 70
     1
102
RTVSPropertyOp19
 70
     1
102
RTVSPropertyOp20
 70
     1
102
RTVSPropertyOp21
 70
     1
102
RTVSPropertyOp22
 70
     1
102
RTVSPropertyOp23
 70
     1
102
RTVSPropertyOp24
 70
     1
102
RTVSPropertyOp25
 70
     1
102
RTVSPropertyOp26
 70
     1
102
RTVSPropertyOp27
 70
     1
102
RTVSPropertyOp28
 70
     1
102
RTVSPropertyOp29
 70
     1
102
RTVSPropertyOp30
 70
     1
102
RTVSPropertyOp31
 70
     1
102
RTVSPropertyOp32
 70
     1
  0
XRECORD
  5
20B
102
{ACAD_REACTORS
330
20A
102
}
330
20A
100
AcDbXrecord
280
     1
102
RTVSPropertyOp0
 70
     1
102
RTVSPropertyOp1
 70
     1
102
RTVSPropertyOp2
 70
     1
102
RTVSPropertyOp3
 70
     1
102
RTVSPropertyOp4
 70
     1
102
RTVSPropertyOp5
 70
     1
102
RTVSPropertyOp6
 70
     1
102
RTVSPropertyOp7
 70
     1
102
RTVSPropertyOp8
 70
     1
102
RTVSPropertyOp9
 70
     1
102
RTVSPropertyOp10
 70
     1
102
RTVSPropertyOp11
 70
     1
102
RTVSPropertyOp12
 70
     1
102
RTVSPropertyOp13
 70
     1
102
RTVSPropertyOp14
 70
     1
102
RTVSPropertyOp15
 70
     1
102
RTVSPropertyOp16
 70
     1
102
RTVSPropertyOp17
 70
     1
102
RTVSPropertyOp18
 70
     1
102
RTVSPropertyOp19
 70
     1
102
RTVSPropertyOp20
 70
     1
102
RTVSPropertyOp21
 70
     1
102
RTVSPropertyOp22
 70
     1
102
RTVSPropertyOp23
 70
     1
102
RTVSPropertyOp24
 70
     1
102
RTVSPropertyOp25
 70
     1
102
RTVSPropertyOp26
 70
     1
102
RTVSPropertyOp27
 70
     1
102
RTVSPropertyOp28
 70
     1
102
RTVSPropertyOp29
 70
     1
102
RTVSPropertyOp30
 70
     1
102
RTVSPropertyOp31
 70
     1
102
RTVSPropertyOp32
 70
     1
  0
XRECORD
  5
1FF
102
{ACAD_REACTORS
330
1FE
102
}
330
1FE
100
AcDbXrecord
280
     1
102
RTVSPropertyOp0
 70
     1
102
RTVSPropertyOp1
 70
     1
102
RTVSPropertyOp2
 70
     1
102
RTVSPropertyOp3
 70
     1
102
RTVSPropertyOp4
 70
     1
102
RTVSPropertyOp5
 70
     1
102
RTVSPropertyOp6
 70
     1
102
RTVSPropertyOp7
 70
     1
102
RTVSPropertyOp8
 70
     1
102
RTVSPropertyOp9
 70
     1
102
RTVSPropertyOp10
 70
     1
102
RTVSPropertyOp11
 70
     1
102
RTVSPropertyOp12
 70
     1
102
RTVSPropertyOp13
 70
     1
102
RTVSPropertyOp14
 70
     1
102
RTVSPropertyOp15
 70
     1
102
RTVSPropertyOp16
 70
     1
102
RTVSPropertyOp17
 70
     1
102
RTVSPropertyOp18
 70
     1
102
RTVSPropertyOp19
 70
     1
102
RTVSPropertyOp20
 70
     1
102
RTVSPropertyOp21
 70
     1
102
RTVSPropertyOp22
 70
     1
102
RTVSPropertyOp23
 70
     1
102
RTVSPropertyOp24
 70
     1
102
RTVSPropertyOp25
 70
     1
102
RTVSPropertyOp26
 70
     1
102
RTVSPropertyOp27
 70
     1
102
RTVSPropertyOp28
 70
     1
102
RTVSPropertyOp29
 70
     1
102
RTVSPropertyOp30
 70
     1
102
RTVSPropertyOp31
 70
     1
102
RTVSPropertyOp32
 70
     1
  0
XRECORD
  5
201
102
{ACAD_REACTORS
330
200
102
}
330
200
100
AcDbXrecord
280
     1
102
RTVSPropertyOp0
 70
     1
102
RTVSPropertyOp1
 70
     1
102
RTVSPropertyOp2
 70
     1
102
RTVSPropertyOp3
 70
     1
102
RTVSPropertyOp4
 70
     1
102
RTVSPropertyOp5
 70
     1
102
RTVSPropertyOp6
 70
     1
102
RTVSPropertyOp7
 70
     1
102
RTVSPropertyOp8
 70
     1
102
RTVSPropertyOp9
 70
     1
102
RTVSPropertyOp10
 70
     1
102
RTVSPropertyOp11
 70
     1
102
RTVSPropertyOp12
 70
     1
102
RTVSPropertyOp13
 70
     1
102
RTVSPropertyOp14
 70
     1
102
RTVSPropertyOp15
 70
     1
102
RTVSPropertyOp16
 70
     1
102
RTVSPropertyOp17
 70
     1
102
RTVSPropertyOp18
 70
     1
102
RTVSPropertyOp19
 70
     1
102
RTVSPropertyOp20
 70
     1
102
RTVSPropertyOp21
 70
     1
102
RTVSPropertyOp22
 70
     1
102
RTVSPropertyOp23
 70
     1
102
RTVSPropertyOp24
 70
     1
102
RTVSPropertyOp25
 70
     1
102
RTVSPropertyOp26
 70
     1
102
RTVSPropertyOp27
 70
     1
102
RTVSPropertyOp28
 70
     1
102
RTVSPropertyOp29
 70
     1
102
RTVSPropertyOp30
 70
     1
102
RTVSPropertyOp31
 70
     1
102
RTVSPropertyOp32
 70
     1
  0
XRECORD
  5
209
102
{ACAD_REACTORS
330
208
102
}
330
208
100
AcDbXrecord
280
     1
102
RTVSPropertyOp0
 70
     1
102
RTVSPropertyOp1
 70
     1
102
RTVSPropertyOp2
 70
     1
102
RTVSPropertyOp3
 70
     1
102
RTVSPropertyOp4
 70
     1
102
RTVSPropertyOp5
 70
     1
102
RTVSPropertyOp6
 70
     1
102
RTVSPropertyOp7
 70
     1
102
RTVSPropertyOp8
 70
     1
102
RTVSPropertyOp9
 70
     1
102
RTVSPropertyOp10
 70
     1
102
RTVSPropertyOp11
 70
     1
102
RTVSPropertyOp12
 70
     1
102
RTVSPropertyOp13
 70
     1
102
RTVSPropertyOp14
 70
     1
102
RTVSPropertyOp15
 70
     1
102
RTVSPropertyOp16
 70
     1
102
RTVSPropertyOp17
 70
     1
102
RTVSPropertyOp18
 70
     1
102
RTVSPropertyOp19
 70
     1
102
RTVSPropertyOp20
 70
     1
102
RTVSPropertyOp21
 70
     1
102
RTVSPropertyOp22
 70
     1
102
RTVSPropertyOp23
 70
     1
102
RTVSPropertyOp24
 70
     1
102
RTVSPropertyOp25
 70
     1
102
RTVSPropertyOp26
 70
     1
102
RTVSPropertyOp27
 70
     1
102
RTVSPropertyOp28
 70
     1
102
RTVSPropertyOp29
 70
     1
102
RTVSPropertyOp30
 70
     1
102
RTVSPropertyOp31
 70
     1
102
RTVSPropertyOp32
 70
     1
  0
XRECORD
  5
1ED
102
{ACAD_REACTORS
330
1EC
102
}
330
1EC
100
AcDbXrecord
280
     1
102
RTVSPropertyOp0
 70
     1
102
RTVSPropertyOp1
 70
     1
102
RTVSPropertyOp2
 70
     1
102
RTVSPropertyOp3
 70
     1
102
RTVSPropertyOp4
 70
     1
102
RTVSPropertyOp5
 70
     1
102
RTVSPropertyOp6
 70
     1
102
RTVSPropertyOp7
 70
     1
102
RTVSPropertyOp8
 70
     1
102
RTVSPropertyOp9
 70
     1
102
RTVSPropertyOp10
 70
     1
102
RTVSPropertyOp11
 70
     1
102
RTVSPropertyOp12
 70
     1
102
RTVSPropertyOp13
 70
     1
102
RTVSPropertyOp14
 70
     1
102
RTVSPropertyOp15
 70
     1
102
RTVSPropertyOp16
 70
     1
102
RTVSPropertyOp17
 70
     1
102
RTVSPropertyOp18
 70
     1
102
RTVSPropertyOp19
 70
     1
102
RTVSPropertyOp20
 70
     1
102
RTVSPropertyOp21
 70
     1
102
RTVSPropertyOp22
 70
     1
102
RTVSPropertyOp23
 70
     1
102
RTVSPropertyOp24
 70
     1
102
RTVSPropertyOp25
 70
     1
102
RTVSPropertyOp26
 70
     1
102
RTVSPropertyOp27
 70
     1
102
RTVSPropertyOp28
 70
     1
102
RTVSPropertyOp29
 70
     1
102
RTVSPropertyOp30
 70
     1
102
RTVSPropertyOp31
 70
     1
102
RTVSPropertyOp32
 70
     1
  0
XRECORD
  5
1EF
102
{ACAD_REACTORS
330
1EE
102
}
330
1EE
100
AcDbXrecord
280
     1
102
RTVSPropertyOp0
 70
     1
102
RTVSPropertyOp1
 70
     1
102
RTVSPropertyOp2
 70
     1
102
RTVSPropertyOp3
 70
     1
102
RTVSPropertyOp4
 70
     1
102
RTVSPropertyOp5
 70
     1
102
RTVSPropertyOp6
 70
     1
102
RTVSPropertyOp7
 70
     1
102
RTVSPropertyOp8
 70
     1
102
RTVSPropertyOp9
 70
     1
102
RTVSPropertyOp10
 70
     1
102
RTVSPropertyOp11
 70
     1
102
RTVSPropertyOp12
 70
     1
102
RTVSPropertyOp13
 70
     1
102
RTVSPropertyOp14
 70
     1
102
RTVSPropertyOp15
 70
     1
102
RTVSPropertyOp16
 70
     1
102
RTVSPropertyOp17
 70
     1
102
RTVSPropertyOp18
 70
     1
102
RTVSPropertyOp19
 70
     1
102
RTVSPropertyOp20
 70
     1
102
RTVSPropertyOp21
 70
     1
102
RTVSPropertyOp22
 70
     1
102
RTVSPropertyOp23
 70
     1
102
RTVSPropertyOp24
 70
     1
102
RTVSPropertyOp25
 70
     1
102
RTVSPropertyOp26
 70
     1
102
RTVSPropertyOp27
 70
     1
102
RTVSPropertyOp28
 70
     1
102
RTVSPropertyOp29
 70
     1
102
RTVSPropertyOp30
 70
     1
102
RTVSPropertyOp31
 70
     1
102
RTVSPropertyOp32
 70
     1
  0
XRECORD
  5
1F1
102
{ACAD_REACTORS
330
1F0
102
}
330
1F0
100
AcDbXrecord
280
     1
102
RTVSPropertyOp0
 70
     1
102
RTVSPropertyOp1
 70
     1
102
RTVSPropertyOp2
 70
     1
102
RTVSPropertyOp3
 70
     1
102
RTVSPropertyOp4
 70
     1
102
RTVSPropertyOp5
 70
     1
102
RTVSPropertyOp6
 70
     1
102
RTVSPropertyOp7
 70
     1
102
RTVSPropertyOp8
 70
     1
102
RTVSPropertyOp9
 70
     1
102
RTVSPropertyOp10
 70
     1
102
RTVSPropertyOp11
 70
     1
102
RTVSPropertyOp12
 70
     1
102
RTVSPropertyOp13
 70
     1
102
RTVSPropertyOp14
 70
     1
102
RTVSPropertyOp15
 70
     1
102
RTVSPropertyOp16
 70
     1
102
RTVSPropertyOp17
 70
     1
102
RTVSPropertyOp18
 70
     1
102
RTVSPropertyOp19
 70
     1
102
RTVSPropertyOp20
 70
     1
102
RTVSPropertyOp21
 70
     1
102
RTVSPropertyOp22
 70
     1
102
RTVSPropertyOp23
 70
     1
102
RTVSPropertyOp24
 70
     1
102
RTVSPropertyOp25
 70
     1
102
RTVSPropertyOp26
 70
     1
102
RTVSPropertyOp27
 70
     1
102
RTVSPropertyOp28
 70
     1
102
RTVSPropertyOp29
 70
     1
102
RTVSPropertyOp30
 70
     1
102
RTVSPropertyOp31
 70
     1
102
RTVSPropertyOp32
 70
     1
  0
XRECORD
  5
1F3
102
{ACAD_REACTORS
330
1F2
102
}
330
1F2
100
AcDbXrecord
280
     1
102
RTVSPropertyOp0
 70
     1
102
RTVSPropertyOp1
 70
     1
102
RTVSPropertyOp2
 70
     1
102
RTVSPropertyOp3
 70
     1
102
RTVSPropertyOp4
 70
     1
102
RTVSPropertyOp5
 70
     1
102
RTVSPropertyOp6
 70
     1
102
RTVSPropertyOp7
 70
     1
102
RTVSPropertyOp8
 70
     1
102
RTVSPropertyOp9
 70
     1
102
RTVSPropertyOp10
 70
     1
102
RTVSPropertyOp11
 70
     1
102
RTVSPropertyOp12
 70
     1
102
RTVSPropertyOp13
 70
     1
102
RTVSPropertyOp14
 70
     1
102
RTVSPropertyOp15
 70
     1
102
RTVSPropertyOp16
 70
     1
102
RTVSPropertyOp17
 70
     1
102
RTVSPropertyOp18
 70
     1
102
RTVSPropertyOp19
 70
     1
102
RTVSPropertyOp20
 70
     1
102
RTVSPropertyOp21
 70
     1
102
RTVSPropertyOp22
 70
     1
102
RTVSPropertyOp23
 70
     1
102
RTVSPropertyOp24
 70
     1
102
RTVSPropertyOp25
 70
     1
102
RTVSPropertyOp26
 70
     1
102
RTVSPropertyOp27
 70
     1
102
RTVSPropertyOp28
 70
     1
102
RTVSPropertyOp29
 70
     1
102
RTVSPropertyOp30
 70
     1
102
RTVSPropertyOp31
 70
     1
102
RTVSPropertyOp32
 70
     1
  0
XRECORD
  5
207
102
{ACAD_REACTORS
330
206
102
}
330
206
100
AcDbXrecord
280
     1
102
RTVSPropertyOp0
 70
     1
102
RTVSPropertyOp1
 70
     1
102
RTVSPropertyOp2
 70
     1
102
RTVSPropertyOp3
 70
     1
102
RTVSPropertyOp4
 70
     1
102
RTVSPropertyOp5
 70
     1
102
RTVSPropertyOp6
 70
     1
102
RTVSPropertyOp7
 70
     1
102
RTVSPropertyOp8
 70
     1
102
RTVSPropertyOp9
 70
     1
102
RTVSPropertyOp10
 70
     1
102
RTVSPropertyOp11
 70
     1
102
RTVSPropertyOp12
 70
     1
102
RTVSPropertyOp13
 70
     1
102
RTVSPropertyOp14
 70
     1
102
RTVSPropertyOp15
 70
     1
102
RTVSPropertyOp16
 70
     1
102
RTVSPropertyOp17
 70
     1
102
RTVSPropertyOp18
 70
     1
102
RTVSPropertyOp19
 70
     1
102
RTVSPropertyOp20
 70
     1
102
RTVSPropertyOp21
 70
     1
102
RTVSPropertyOp22
 70
     1
102
RTVSPropertyOp23
 70
     1
102
RTVSPropertyOp24
 70
     1
102
RTVSPropertyOp25
 70
     1
102
RTVSPropertyOp26
 70
     1
102
RTVSPropertyOp27
 70
     1
102
RTVSPropertyOp28
 70
     1
102
RTVSPropertyOp29
 70
     1
102
RTVSPropertyOp30
 70
     1
102
RTVSPropertyOp31
 70
     1
102
RTVSPropertyOp32
 70
     1
  0
XRECORD
  5
1FD
102
{ACAD_REACTORS
330
1FC
102
}
330
1FC
100
AcDbXrecord
280
     1
102
RTVSPropertyOp0
 70
     1
102
RTVSPropertyOp1
 70
     1
102
RTVSPropertyOp2
 70
     1
102
RTVSPropertyOp3
 70
     1
102
RTVSPropertyOp4
 70
     1
102
RTVSPropertyOp5
 70
     1
102
RTVSPropertyOp6
 70
     1
102
RTVSPropertyOp7
 70
     1
102
RTVSPropertyOp8
 70
     1
102
RTVSPropertyOp9
 70
     1
102
RTVSPropertyOp10
 70
     1
102
RTVSPropertyOp11
 70
     1
102
RTVSPropertyOp12
 70
     1
102
RTVSPropertyOp13
 70
     1
102
RTVSPropertyOp14
 70
     1
102
RTVSPropertyOp15
 70
     1
102
RTVSPropertyOp16
 70
     1
102
RTVSPropertyOp17
 70
     1
102
RTVSPropertyOp18
 70
     1
102
RTVSPropertyOp19
 70
     1
102
RTVSPropertyOp20
 70
     1
102
RTVSPropertyOp21
 70
     1
102
RTVSPropertyOp22
 70
     1
102
RTVSPropertyOp23
 70
     1
102
RTVSPropertyOp24
 70
     1
102
RTVSPropertyOp25
 70
     1
102
RTVSPropertyOp26
 70
     1
102
RTVSPropertyOp27
 70
     1
102
RTVSPropertyOp28
 70
     1
102
RTVSPropertyOp29
 70
     1
102
RTVSPropertyOp30
 70
     1
102
RTVSPropertyOp31
 70
     1
102
RTVSPropertyOp32
 70
     1
  0
XRECORD
  5
205
102
{ACAD_REACTORS
330
204
102
}
330
204
100
AcDbXrecord
280
     1
102
RTVSPropertyOp0
 70
     1
102
RTVSPropertyOp1
 70
     1
102
RTVSPropertyOp2
 70
     1
102
RTVSPropertyOp3
 70
     1
102
RTVSPropertyOp4
 70
     1
102
RTVSPropertyOp5
 70
     1
102
RTVSPropertyOp6
 70
     1
102
RTVSPropertyOp7
 70
     1
102
RTVSPropertyOp8
 70
     1
102
RTVSPropertyOp9
 70
     1
102
RTVSPropertyOp10
 70
     1
102
RTVSPropertyOp11
 70
     1
102
RTVSPropertyOp12
 70
     1
102
RTVSPropertyOp13
 70
     1
102
RTVSPropertyOp14
 70
     1
102
RTVSPropertyOp15
 70
     1
102
RTVSPropertyOp16
 70
     1
102
RTVSPropertyOp17
 70
     1
102
RTVSPropertyOp18
 70
     1
102
RTVSPropertyOp19
 70
     1
102
RTVSPropertyOp20
 70
     1
102
RTVSPropertyOp21
 70
     1
102
RTVSPropertyOp22
 70
     1
102
RTVSPropertyOp23
 70
     1
102
RTVSPropertyOp24
 70
     1
102
RTVSPropertyOp25
 70
     1
102
RTVSPropertyOp26
 70
     1
102
RTVSPropertyOp27
 70
     1
102
RTVSPropertyOp28
 70
     1
102
RTVSPropertyOp29
 70
     1
102
RTVSPropertyOp30
 70
     1
102
RTVSPropertyOp31
 70
     1
102
RTVSPropertyOp32
 70
     1
  0
ENDSEC
  0
EOF
