  0
SECTION
  2
HEADER
  9
$ACADVER
  1
AC1015
  9
$ACADMAINTVER
 70
     6
  9
$DWGCODEPAGE
  3
ANSI_932
  9
$INSBASE
 10
0.0
 20
0.0
 30
0.0
  9
$EXTMIN
 10
2838.509242120308
 20
-1500.974157299547
 30
0.0
  9
$EXTMAX
 10
3082.636903119269
 20
-1365.774157299547
 30
0.0
  9
$LIMMIN
 10
0.0
 20
0.0
  9
$LIMMAX
 10
12.0
 20
9.0
  9
$ORTHOMODE
 70
     0
  9
$REGENMODE
 70
     1
  9
$FILLMODE
 70
     1
  9
$QTEXTMODE
 70
     0
  9
$MIRRTEXT
 70
     1
  9
$LTSCALE
 40
1.0
  9
$ATTMODE
 70
     1
  9
$TEXTSIZE
 40
0.2
  9
$TRACEWID
 40
0.05
  9
$TEXTSTYLE
  7
Standard
  9
$CLAYER
  8
0
  9
$CELTYPE
  6
ByLayer
  9
$CECOLOR
 62
   256
  9
$CELTSCALE
 40
1.0
  9
$DISPSILH
 70
     0
  9
$DIMSCALE
 40
1.0
  9
$DIMASZ
 40
0.18
  9
$DIMEXO
 40
0.0625
  9
$DIMDLI
 40
0.38
  9
$DIMRND
 40
0.0
  9
$DIMDLE
 40
0.0
  9
$DIMEXE
 40
0.18
  9
$DIMTP
 40
0.0
  9
$DIMTM
 40
0.0
  9
$DIMTXT
 40
0.18
  9
$DIMCEN
 40
0.09
  9
$DIMTSZ
 40
0.0
  9
$DIMTOL
 70
     0
  9
$DIMLIM
 70
     0
  9
$DIMTIH
 70
     1
  9
$DIMTOH
 70
     1
  9
$DIMSE1
 70
     0
  9
$DIMSE2
 70
     0
  9
$DIMTAD
 70
     0
  9
$DIMZIN
 70
     0
  9
$DIMBLK
  1

  9
$DIMASO
 70
     1
  9
$DIMSHO
 70
     1
  9
$DIMPOST
  1

  9
$DIMAPOST
  1

  9
$DIMALT
 70
     0
  9
$DIMALTD
 70
     2
  9
$DIMALTF
 40
25.4
  9
$DIMLFAC
 40
1.0
  9
$DIMTOFL
 70
     0
  9
$DIMTVP
 40
0.0
  9
$DIMTIX
 70
     0
  9
$DIMSOXD
 70
     0
  9
$DIMSAH
 70
     0
  9
$DIMBLK1
  1

  9
$DIMBLK2
  1

  9
$DIMSTYLE
  2
Standard
  9
$DIMCLRD
 70
     0
  9
$DIMCLRE
 70
     0
  9
$DIMCLRT
 70
     0
  9
$DIMTFAC
 40
1.0
  9
$DIMGAP
 40
0.09
  9
$DIMJUST
 70
     0
  9
$DIMSD1
 70
     0
  9
$DIMSD2
 70
     0
  9
$DIMTOLJ
 70
     1
  9
$DIMTZIN
 70
     0
  9
$DIMALTZ
 70
     0
  9
$DIMALTTZ
 70
     0
  9
$DIMUPT
 70
     0
  9
$DIMDEC
 70
     4
  9
$DIMTDEC
 70
     4
  9
$DIMALTU
 70
     2
  9
$DIMALTTD
 70
     2
  9
$DIMTXSTY
  7
Standard
  9
$DIMAUNIT
 70
     0
  9
$DIMADEC
 70
     0
  9
$DIMALTRND
 40
0.0
  9
$DIMAZIN
 70
     0
  9
$DIMDSEP
 70
    46
  9
$DIMATFIT
 70
     3
  9
$DIMFRAC
 70
     0
  9
$DIMLDRBLK
  1

  9
$DIMLUNIT
 70
     2
  9
$DIMLWD
 70
    -2
  9
$DIMLWE
 70
    -2
  9
$DIMTMOVE
 70
     0
  9
$LUNITS
 70
     2
  9
$LUPREC
 70
     4
  9
$SKETCHINC
 40
0.1
  9
$FILLETRAD
 40
0.5
  9
$AUNITS
 70
     0
  9
$AUPREC
 70
     0
  9
$MENU
  1
.
  9
$ELEVATION
 40
0.0
  9
$PELEVATION
 40
0.0
  9
$THICKNESS
 40
0.0
  9
$LIMCHECK
 70
     0
  9
$CHAMFERA
 40
0.5
  9
$CHAMFERB
 40
0.5
  9
$CHAMFERC
 40
1.0
  9
$CHAMFERD
 40
0.0
  9
$SKPOLY
 70
     0
  9
$TDCREATE
 40
2457743.582552465
  9
$TDUCREATE
 40
2457743.207552465
  9
$TDUPDATE
 40
2457743.582553426
  9
$TDUUPDATE
 40
2457743.207553426
  9
$TDINDWG
 40
0.0000000116
  9
$TDUSRTIMER
 40
0.0000000116
  9
$USRTIMER
 70
     1
  9
$ANGBASE
 50
0.0
  9
$ANGDIR
 70
     0
  9
$PDMODE
 70
     0
  9
$PDSIZE
 40
0.0
  9
$PLINEWID
 40
0.0
  9
$SPLFRAME
 70
     0
  9
$SPLINETYPE
 70
     6
  9
$SPLINESEGS
 70
     8
  9
$HANDSEED
  5
224
  9
$SURFTAB1
 70
     6
  9
$SURFTAB2
 70
     6
  9
$SURFTYPE
 70
     6
  9
$SURFU
 70
     6
  9
$SURFV
 70
     6
  9
$UCSBASE
  2

  9
$UCSNAME
  2

  9
$UCSORG
 10
0.0
 20
0.0
 30
0.0
  9
$UCSXDIR
 10
1.0
 20
0.0
 30
0.0
  9
$UCSYDIR
 10
0.0
 20
1.0
 30
0.0
  9
$UCSORTHOREF
  2

  9
$UCSORTHOVIEW
 70
     0
  9
$UCSORGTOP
 10
0.0
 20
0.0
 30
0.0
  9
$UCSORGBOTTOM
 10
0.0
 20
0.0
 30
0.0
  9
$UCSORGLEFT
 10
0.0
 20
0.0
 30
0.0
  9
$UCSORGRIGHT
 10
0.0
 20
0.0
 30
0.0
  9
$UCSORGFRONT
 10
0.0
 20
0.0
 30
0.0
  9
$UCSORGBACK
 10
0.0
 20
0.0
 30
0.0
  9
$PUCSBASE
  2

  9
$PUCSNAME
  2

  9
$PUCSORG
 10
0.0
 20
0.0
 30
0.0
  9
$PUCSXDIR
 10
1.0
 20
0.0
 30
0.0
  9
$PUCSYDIR
 10
0.0
 20
1.0
 30
0.0
  9
$PUCSORTHOREF
  2

  9
$PUCSORTHOVIEW
 70
     0
  9
$PUCSORGTOP
 10
0.0
 20
0.0
 30
0.0
  9
$PUCSORGBOTTOM
 10
0.0
 20
0.0
 30
0.0
  9
$PUCSORGLEFT
 10
0.0
 20
0.0
 30
0.0
  9
$PUCSORGRIGHT
 10
0.0
 20
0.0
 30
0.0
  9
$PUCSORGFRONT
 10
0.0
 20
0.0
 30
0.0
  9
$PUCSORGBACK
 10
0.0
 20
0.0
 30
0.0
  9
$USERI1
 70
     0
  9
$USERI2
 70
     0
  9
$USERI3
 70
     0
  9
$USERI4
 70
     0
  9
$USERI5
 70
     0
  9
$USERR1
 40
18.1
  9
$USERR2
 40
0.0
  9
$USERR3
 40
0.0
  9
$USERR4
 40
0.0
  9
$USERR5
 40
0.0
  9
$WORLDVIEW
 70
     1
  9
$SHADEDGE
 70
     3
  9
$SHADEDIF
 70
    70
  9
$TILEMODE
 70
     1
  9
$MAXACTVP
 70
    64
  9
$PINSBASE
 10
0.0
 20
0.0
 30
0.0
  9
$PLIMCHECK
 70
     0
  9
$PEXTMIN
 10
1.00000000000000E+20
 20
1.00000000000000E+20
 30
1.00000000000000E+20
  9
$PEXTMAX
 10
-1.00000000000000E+20
 20
-1.00000000000000E+20
 30
-1.00000000000000E+20
  9
$PLIMMIN
 10
0.0
 20
0.0
  9
$PLIMMAX
 10
12.0
 20
9.0
  9
$UNITMODE
 70
     0
  9
$VISRETAIN
 70
     1
  9
$PLINEGEN
 70
     0
  9
$PSLTSCALE
 70
     1
  9
$TREEDEPTH
 70
  3020
  9
$CMLSTYLE
  2
Standard
  9
$CMLJUST
 70
     0
  9
$CMLSCALE
 40
1.0
  9
$PROXYGRAPHICS
 70
     1
  9
$MEASUREMENT
 70
     1
  9
$CELWEIGHT
370
    -1
  9
$ENDCAPS
280
     0
  9
$JOINSTYLE
280
     0
  9
$LWDISPLAY
290
     0
  9
$INSUNITS
 70
     4
  9
$HYPERLINKBASE
  1

  9
$STYLESHEET
  1

  9
$XEDIT
290
     1
  9
$CEPSNTYPE
380
     0
  9
$PSTYLEMODE
290
     1
  9
$FINGERPRINTGUID
  2
{1B31ED55-D852-4AA9-B888-03039C510E9A}
  9
$VERSIONGUID
  2
{FAEB1C32-E019-11D5-929B-00C0DF256EC4}
  9
$EXTNAMES
290
     1
  9
$PSVPSCALE
 40
0.0
  9
$OLESTARTUP
290
     0
  0
ENDSEC
  0
SECTION
  2
CLASSES
  0
CLASS
  1
ACDBDICTIONARYWDFLT
  2
AcDbDictionaryWithDefault
  3
ObjectDBX Classes
 90
        0
280
     0
281
     0
  0
CLASS
  1
VISUALSTYLE
  2
AcDbVisualStyle
  3
ObjectDBX Classes
 90
     4095
280
     0
281
     0
  0
CLASS
  1
MATERIAL
  2
AcDbMaterial
  3
ObjectDBX Classes
 90
     1153
280
     0
281
     0
  0
CLASS
  1
DICTIONARYVAR
  2
AcDbDictionaryVar
  3
ObjectDBX Classes
 90
        0
280
     0
281
     0
  0
CLASS
  1
ACDBPLACEHOLDER
  2
AcDbPlaceHolder
  3
ObjectDBX Classes
 90
        0
280
     0
281
     0
  0
CLASS
  1
LAYOUT
  2
AcDbLayout
  3
ObjectDBX Classes
 90
        0
280
     0
281
     0
  0
ENDSEC
  0
SECTION
  2
TABLES
  0
TABLE
  2
VPORT
  5
8
330
0
100
AcDbSymbolTable
 70
     1
  0
VPORT
  5
29
330
8
100
AcDbSymbolTableRecord
100
AcDbViewportTableRecord
  2
*Active
 70
     0
 10
0.0
 20
0.0
 11
1.0
 21
1.0
 12
2960.573072619788
 22
-1433.374157299547
 13
0.0
 23
0.0
 14
0.5
 24
0.5
 15
0.5
 25
0.5
 16
0.0
 26
0.0
 36
1.0
 17
0.0
 27
0.0
 37
0.0
 40
167.5572581341058
 41
1.60267857142857
 42
50.0
 43
0.0
 44
0.0
 50
0.0
 51
0.0
 71
     0
 72
   100
 73
     1
 74
     3
 75
     0
 76
     0
 77
     0
 78
     0
281
     0
 65
     1
110
0.0
120
0.0
130
0.0
111
1.0
121
0.0
131
0.0
112
0.0
122
1.0
132
0.0
 79
     0
146
0.0
  0
ENDTAB
  0
TABLE
  2
LTYPE
  5
5
330
0
100
AcDbSymbolTable
 70
     8
  0
LTYPE
  5
14
330
5
100
AcDbSymbolTableRecord
100
AcDbLinetypeTableRecord
  2
ByBlock
 70
     0
  3

 72
    65
 73
     0
 40
0.0
  0
LTYPE
  5
15
330
5
100
AcDbSymbolTableRecord
100
AcDbLinetypeTableRecord
  2
ByLayer
 70
     0
  3

 72
    65
 73
     0
 40
0.0
  0
LTYPE
  5
16
330
5
100
AcDbSymbolTableRecord
100
AcDbLinetypeTableRecord
  2
Continuous
 70
     0
  3
Solid line
 72
    65
 73
     0
 40
0.0
  0
LTYPE
  5
3F
330
5
100
AcDbSymbolTableRecord
100
AcDbLinetypeTableRecord
  2
DASHED
 70
     0
  3
Dashed
 72
    65
 73
     2
 40
15.0
 49
7.0
 74
     0
 49
-8.0
 74
     0
  0
LTYPE
  5
40
330
5
100
AcDbSymbolTableRecord
100
AcDbLinetypeTableRecord
  2
DOTTED
 70
     0
  3
Dotted
 72
    65
 73
     2
 40
1.0
 49
0.0
 74
     0
 49
-1.0
 74
     0
  0
LTYPE
  5
41
330
5
100
AcDbSymbolTableRecord
100
AcDbLinetypeTableRecord
  2
DOT_CENTER
 70
     0
  3
Dot_Center
 72
    65
 73
     4
 40
14.0
 49
12.0
 74
     0
 49
-1.0
 74
     0
 49
0.0
 74
     0
 49
-1.0
 74
     0
  0
LTYPE
  5
42
330
5
100
AcDbSymbolTableRecord
100
AcDbLinetypeTableRecord
  2
LONG_DASHED
 70
     0
  3
Long_Dashed
 72
    65
 73
     2
 40
15.0
 49
10.0
 74
     0
 49
-5.0
 74
     0
  0
LTYPE
  5
43
330
5
100
AcDbSymbolTableRecord
100
AcDbLinetypeTableRecord
  2
DASH_CENTER
 70
     0
  3
Dash_Center
 72
    65
 73
     4
 40
14.0
 49
11.0
 74
     0
 49
-1.0
 74
     0
 49
1.0
 74
     0
 49
-1.0
 74
     0
  0
LTYPE
  5
44
330
5
100
AcDbSymbolTableRecord
100
AcDbLinetypeTableRecord
  2
PHANTOM
 70
     0
  3
Phantom
 72
    65
 73
     6
 40
13.0
 49
10.0
 74
     0
 49
-1.0
 74
     0
 49
0.0
 74
     0
 49
-1.0
 74
     0
 49
0.0
 74
     0
 49
-1.0
 74
     0
  0
LTYPE
  5
45
330
5
100
AcDbSymbolTableRecord
100
AcDbLinetypeTableRecord
  2
CENTER_DASH_DASH
 70
     0
  3
Center_Dash_Dash
 72
    65
 73
     6
 40
14.0
 49
9.0
 74
     0
 49
-1.0
 74
     0
 49
1.0
 74
     0
 49
-1.0
 74
     0
 49
1.0
 74
     0
 49
-1.0
 74
     0
  0
ENDTAB
  0
TABLE
  2
LAYER
  5
2
330
0
100
AcDbSymbolTable
 70
     2
  0
LAYER
  5
10
330
2
100
AcDbSymbolTableRecord
100
AcDbLayerTableRecord
  2
0
 70
     0
 62
     7
  6
Continuous
370
    -3
390
F
  0
LAYER
  5
46
330
2
100
AcDbSymbolTableRecord
100
AcDbLayerTableRecord
  2
1
 70
     0
 62
     7
  6
Continuous
370
    -3
390
F
  0
ENDTAB
  0
TABLE
  2
STYLE
  5
3
330
0
100
AcDbSymbolTable
 70
     4
  0
STYLE
  5
11
330
3
100
AcDbSymbolTableRecord
100
AcDbTextStyleTableRecord
  2
Standard
 70
     0
 40
0.0
 41
1.0
 50
0.0
 71
     0
 42
0.2
  3
txt
  4

  0
STYLE
  5
14A
330
3
100
AcDbSymbolTableRecord
100
AcDbTextStyleTableRecord
  2
CONVERTER_11
 70
     0
 40
0.0
 41
0.642
 50
0.0
 71
     0
 42
0.2
  3
txt.shx
  4

  0
STYLE
  5
14C
330
3
100
AcDbSymbolTableRecord
100
AcDbTextStyleTableRecord
  2
CONVERTER_12
 70
     0
 40
0.0
 41
0.856
 50
0.0
 71
     0
 42
0.2
  3
txt.shx
  4

  0
STYLE
  5
154
330
3
100
AcDbSymbolTableRecord
100
AcDbTextStyleTableRecord
  2
CONVERTER_13
 70
     0
 40
0.0
 41
0.9
 50
0.0
 71
     0
 42
0.2
  3
txt.shx
  4

  0
ENDTAB
  0
TABLE
  2
VIEW
  5
6
330
0
100
AcDbSymbolTable
 70
     0
  0
ENDTAB
  0
TABLE
  2
UCS
  5
7
330
0
100
AcDbSymbolTable
 70
     0
  0
ENDTAB
  0
TABLE
  2
APPID
  5
9
330
0
100
AcDbSymbolTable
 70
     1
  0
APPID
  5
12
330
9
100
AcDbSymbolTableRecord
100
AcDbRegAppTableRecord
  2
ACAD
 70
     0
  0
ENDTAB
  0
TABLE
  2
DIMSTYLE
  5
A
330
0
100
AcDbSymbolTable
 70
    15
100
AcDbDimStyleTable
  0
DIMSTYLE
105
27
330
A
100
AcDbSymbolTableRecord
100
AcDbDimStyleTableRecord
  2
Standard
 70
     0
178
     0
340
11
  0
DIMSTYLE
105
158
102
{ACAD_REACTORS
330
159
102
}
330
A
100
AcDbSymbolTableRecord
100
AcDbDimStyleTableRecord
  2
ME10_DIM_10
 70
     0
 41
3.2
 42
1.0
 44
1.5
 47
0.2
 48
0.2
 71
     1
 73
     0
 74
     0
 77
     1
 78
     8
140
3.2
146
0.6
147
2.0
172
     1
173
     1
174
     1
175
     1
176
     2
177
     2
178
     2
272
     1
340
154
  0
DIMSTYLE
105
163
102
{ACAD_REACTORS
330
164
102
}
330
A
100
AcDbSymbolTableRecord
100
AcDbDimStyleTableRecord
  2
ME10_DIM_11
 70
     0
  3
φ<>
 41
3.2
 42
1.0
 44
1.5
 47
0.03
 48
0.03
 71
     1
 73
     0
 74
     0
 77
     1
 78
     8
140
3.2
146
0.6
147
2.0
172
     1
173
     1
174
     1
175
     1
176
     2
177
     2
178
     2
272
     2
340
154
  0
DIMSTYLE
105
16E
102
{ACAD_REACTORS
330
16F
102
}
330
A
100
AcDbSymbolTableRecord
100
AcDbDimStyleTableRecord
  2
ME10_DIM_12
 70
     0
  3
(<>)
 41
3.2
 42
1.0
 44
1.5
 73
     0
 74
     0
 77
     1
 78
     8
140
3.2
147
2.0
172
     1
173
     1
174
     1
175
     1
176
     2
177
     2
178
     2
340
154
  0
DIMSTYLE
105
179
102
{ACAD_REACTORS
330
17A
102
}
330
A
100
AcDbSymbolTableRecord
100
AcDbDimStyleTableRecord
  2
ME10_DIM_13
 70
     0
 41
3.2
 42
1.0
 44
1.5
 47
0.2
 48
0.2
 71
     1
 73
     0
 74
     0
 77
     1
 78
     8
140
3.2
146
0.6
147
2.0
172
     1
173
     1
174
     1
175
     1
176
     2
177
     2
178
     2
272
     1
340
154
  0
DIMSTYLE
105
184
102
{ACAD_REACTORS
330
185
102
}
330
A
100
AcDbSymbolTableRecord
100
AcDbDimStyleTableRecord
  2
ME10_DIM_14
 70
     0
  3
(<>)
 41
3.2
 42
1.0
 44
1.5
 73
     0
 74
     0
 77
     1
 78
     8
140
3.2
147
2.0
172
     1
173
     1
174
     1
175
     1
176
     2
177
     2
178
     2
340
154
  0
DIMSTYLE
105
18F
102
{ACAD_REACTORS
330
190
102
}
330
A
100
AcDbSymbolTableRecord
100
AcDbDimStyleTableRecord
  2
ME10_DIM_15
 70
     0
  3
(<>)
 41
3.2
 42
1.0
 44
1.5
 73
     0
 74
     0
 77
     1
 78
     8
140
3.2
147
2.0
172
     1
173
     1
174
     1
175
     1
176
     2
177
     2
178
     2
340
154
  0
DIMSTYLE
105
19A
102
{ACAD_REACTORS
330
19B
102
}
330
A
100
AcDbSymbolTableRecord
100
AcDbDimStyleTableRecord
  2
ME10_DIM_16
 70
     0
 41
3.2
 42
1.0
 44
1.5
 47
1.0
 48
1.0
 71
     1
 73
     0
 74
     0
 77
     1
 78
     8
140
3.2
146
0.6
147
2.0
172
     1
173
     1
174
     1
175
     1
176
     2
177
     2
178
     2
272
     0
340
154
  0
DIMSTYLE
105
1A5
102
{ACAD_REACTORS
330
1A6
102
}
330
A
100
AcDbSymbolTableRecord
100
AcDbDimStyleTableRecord
  2
ME10_DIM_17
 70
     0
 41
3.2
 42
1.0
 44
1.5
 47
0.25
 48
0.25
 71
     1
 73
     0
 74
     0
 77
     1
 78
     8
140
3.2
146
0.6
147
2.0
172
     1
173
     1
174
     1
175
     1
176
     2
177
     2
178
     2
272
     2
340
154
  0
DIMSTYLE
105
1B2
102
{ACAD_REACTORS
330
1B3
102
}
330
A
100
AcDbSymbolTableRecord
100
AcDbDimStyleTableRecord
  2
ME10_DIM_18
 70
     0
 41
3.2
 42
1.0
 44
1.5
 73
     0
 74
     0
 77
     1
 78
     8
140
3.2
147
2.0
172
     1
173
     1
174
     1
175
     1
176
     2
177
     2
178
     2
340
154
  0
DIMSTYLE
105
1BF
102
{ACAD_REACTORS
330
1C0
102
}
330
A
100
AcDbSymbolTableRecord
100
AcDbDimStyleTableRecord
  2
ME10_DIM_19
 70
     0
 41
3.2
 42
1.0
 44
1.5
 73
     0
 74
     0
 77
     1
 78
     8
140
3.2
147
2.0
172
     1
173
     1
174
     1
175
     1
176
     2
177
     2
178
     2
340
154
  0
DIMSTYLE
105
1CC
102
{ACAD_REACTORS
330
1CD
102
}
330
A
100
AcDbSymbolTableRecord
100
AcDbDimStyleTableRecord
  2
ME10_DIM_20
 70
     0
 41
3.2
 42
1.0
 44
1.5
 47
0.15
 48
0.15
 71
     1
 73
     0
 74
     0
 77
     1
 78
     8
140
3.2
146
0.6
147
2.0
172
     1
173
     1
174
     1
175
     1
176
     2
177
     2
178
     2
272
     2
340
154
  0
DIMSTYLE
105
1D9
102
{ACAD_REACTORS
330
1DA
102
}
330
A
100
AcDbSymbolTableRecord
100
AcDbDimStyleTableRecord
  2
ME10_DIM_21
 70
     0
  3
φ<>
 41
3.2
 42
1.0
 44
1.5
 48
0.015
 71
     1
 73
     0
 74
     0
 77
     1
 78
     8
140
3.2
146
0.6
147
2.0
172
     1
173
     1
174
     1
175
     1
176
     2
177
     2
178
     2
272
     0
340
154
  0
DIMSTYLE
105
1E4
102
{ACAD_REACTORS
330
1E5
102
}
330
A
100
AcDbSymbolTableRecord
100
AcDbDimStyleTableRecord
  2
ME10_DIM_22
 70
     0
 41
3.2
 42
1.0
 44
1.5
 47
40.0
 71
     1
 73
     0
 74
     0
 77
     1
 78
     8
140
3.2
146
0.6
147
2.0
172
     1
173
     1
174
     1
175
     1
176
     2
177
     2
178
     2
272
     0
340
154
  0
DIMSTYLE
105
1EF
102
{ACAD_REACTORS
330
1F0
102
}
330
A
100
AcDbSymbolTableRecord
100
AcDbDimStyleTableRecord
  2
ME10_DIM_23
 70
     0
  3
(<>)
 41
3.2
 42
1.0
 44
1.5
 73
     0
 74
     0
 77
     1
 78
     8
140
3.2
147
2.0
172
     1
173
     1
174
     1
175
     1
176
     2
177
     2
178
     2
340
154
  0
ENDTAB
  0
TABLE
  2
BLOCK_RECORD
  5
1
330
0
100
AcDbSymbolTable
 70
    20
  0
BLOCK_RECORD
  5
1F
330
1
100
AcDbSymbolTableRecord
100
AcDbBlockTableRecord
  2
*Model_Space
340
22
  0
BLOCK_RECORD
  5
1B
330
1
100
AcDbSymbolTableRecord
100
AcDbBlockTableRecord
  2
*Paper_Space
340
1E
  0
BLOCK_RECORD
  5
23
330
1
100
AcDbSymbolTableRecord
100
AcDbBlockTableRecord
  2
*Paper_Space0
340
26
  0
BLOCK_RECORD
  5
47
330
1
100
AcDbSymbolTableRecord
100
AcDbBlockTableRecord
  2
\U+00C5\U+00CD\U+00DE\U+00C8M3_\U+00CD\U+00B2\U+00D2\U+00DD_\U+00DE__1
340
0
102
{BLKREFS
331
53
102
}
  0
BLOCK_RECORD
  5
4A
330
1
100
AcDbSymbolTableRecord
100
AcDbBlockTableRecord
  2
\U+00C5\U+00CD\U+00DE\U+00C8M3_\U+00CD\U+00B2\U+00D2\U+00DD_\U+00DE__2
340
0
102
{BLKREFS
331
54
102
}
  0
BLOCK_RECORD
  5
4D
330
1
100
AcDbSymbolTableRecord
100
AcDbBlockTableRecord
  2
\U+00C5\U+00CD\U+00DE\U+00C8M3_\U+00CD\U+00B2\U+00D2\U+00DD_\U+00DE__3
340
0
102
{BLKREFS
331
55
102
}
  0
BLOCK_RECORD
  5
50
330
1
100
AcDbSymbolTableRecord
100
AcDbBlockTableRecord
  2
\U+00C5\U+00CD\U+00DE\U+00C8M3_\U+00CD\U+00B2\U+00D2\U+00DD_\U+00DE__4
340
0
102
{BLKREFS
331
56
102
}
  0
BLOCK_RECORD
  5
14E
330
1
100
AcDbSymbolTableRecord
100
AcDbBlockTableRecord
  2
*D5
340
0
  0
BLOCK_RECORD
  5
15A
330
1
100
AcDbSymbolTableRecord
100
AcDbBlockTableRecord
  2
*D6
340
0
  0
BLOCK_RECORD
  5
165
330
1
100
AcDbSymbolTableRecord
100
AcDbBlockTableRecord
  2
*D7
340
0
  0
BLOCK_RECORD
  5
170
330
1
100
AcDbSymbolTableRecord
100
AcDbBlockTableRecord
  2
*D8
340
0
  0
BLOCK_RECORD
  5
17B
330
1
100
AcDbSymbolTableRecord
100
AcDbBlockTableRecord
  2
*D9
340
0
  0
BLOCK_RECORD
  5
186
330
1
100
AcDbSymbolTableRecord
100
AcDbBlockTableRecord
  2
*D10
340
0
  0
BLOCK_RECORD
  5
191
330
1
100
AcDbSymbolTableRecord
100
AcDbBlockTableRecord
  2
*D11
340
0
  0
BLOCK_RECORD
  5
19C
330
1
100
AcDbSymbolTableRecord
100
AcDbBlockTableRecord
  2
*D12
340
0
  0
BLOCK_RECORD
  5
1A7
330
1
100
AcDbSymbolTableRecord
100
AcDbBlockTableRecord
  2
*D13
340
0
  0
BLOCK_RECORD
  5
1B4
330
1
100
AcDbSymbolTableRecord
100
AcDbBlockTableRecord
  2
*D14
340
0
  0
BLOCK_RECORD
  5
1C1
330
1
100
AcDbSymbolTableRecord
100
AcDbBlockTableRecord
  2
*D15
340
0
  0
BLOCK_RECORD
  5
1CE
330
1
100
AcDbSymbolTableRecord
100
AcDbBlockTableRecord
  2
*D16
340
0
  0
BLOCK_RECORD
  5
1DB
330
1
100
AcDbSymbolTableRecord
100
AcDbBlockTableRecord
  2
*D17
340
0
  0
BLOCK_RECORD
  5
1E6
330
1
100
AcDbSymbolTableRecord
100
AcDbBlockTableRecord
  2
*D18
340
0
  0
BLOCK_RECORD
  5
1F1
330
1
100
AcDbSymbolTableRecord
100
AcDbBlockTableRecord
  2
*D19
340
0
102
{BLKREFS
331
1F8
102
}
  0
ENDTAB
  0
ENDSEC
  0
SECTION
  2
BLOCKS
  0
BLOCK
  5
20
330
1F
100
AcDbEntity
  8
0
100
AcDbBlockBegin
  2
*Model_Space
 70
     0
 10
0.0
 20
0.0
 30
0.0
  3
*Model_Space
  1

  0
ENDBLK
  5
21
330
1F
100
AcDbEntity
  8
0
100
AcDbBlockEnd
  0
BLOCK
  5
1C
330
1B
100
AcDbEntity
 67
     1
  8
0
100
AcDbBlockBegin
  2
*Paper_Space
 70
     0
 10
0.0
 20
0.0
 30
0.0
  3
*Paper_Space
  1

  0
ENDBLK
  5
1D
330
1B
100
AcDbEntity
 67
     1
  8
0
100
AcDbBlockEnd
  0
BLOCK
  5
24
330
23
100
AcDbEntity
  8
0
100
AcDbBlockBegin
  2
*Paper_Space0
 70
     0
 10
0.0
 20
0.0
 30
0.0
  3
*Paper_Space0
  1

  0
ENDBLK
  5
25
330
23
100
AcDbEntity
  8
0
100
AcDbBlockEnd
  0
BLOCK
  5
48
330
47
100
AcDbEntity
  8
0
100
AcDbBlockBegin
  2
\U+00C5\U+00CD\U+00DE\U+00C8M3_\U+00CD\U+00B2\U+00D2\U+00DD_\U+00DE__1
 70
     0
 10
2917.847507307608
 20
-1404.374157299547
 30
0.0
  3
\U+00C5\U+00CD\U+00DE\U+00C8M3_\U+00CD\U+00B2\U+00D2\U+00DD_\U+00DE__1
  1

  0
LINE
  5
57
330
47
100
AcDbEntity
  8
1
  6
Continuous
 62
     3
100
AcDbLine
 10
2917.117774118138
 20
-1403.121165091997
 30
0.0
 11
2917.728813489288
 21
-1403.732204463147
 31
0.0
  0
LINE
  5
58
330
47
100
AcDbEntity
  8
1
  6
Continuous
 62
     3
100
AcDbLine
 10
2918.577240497078
 20
-1403.121165091997
 30
0.0
 11
2917.966201125928
 21
-1403.732204463147
 31
0.0
  0
LINE
  5
59
330
47
100
AcDbEntity
  8
1
  6
Continuous
 62
     3
100
AcDbLine
 10
2916.594515100058
 20
-1405.103890489017
 30
0.0
 11
2917.205554471208
 21
-1404.492851117867
 31
0.0
  0
LINE
  5
5A
330
47
100
AcDbEntity
  8
1
  6
Continuous
 62
     3
100
AcDbLine
 10
2916.594515100058
 20
-1403.644424110077
 30
0.0
 11
2917.205554471208
 21
-1404.255463481227
 31
0.0
  0
LINE
  5
5B
330
47
100
AcDbEntity
  8
1
  6
Continuous
 62
     3
100
AcDbLine
 10
2917.966201125928
 20
-1405.016110135947
 30
0.0
 11
2917.972336075748
 21
-1405.022245085767
 31
0.0
  0
LINE
  5
5C
330
47
100
AcDbEntity
  8
1
  6
Continuous
 62
     3
100
AcDbLine
 10
2917.972336075748
 20
-1405.022245085767
 30
0.0
 11
2918.577240497078
 21
-1405.627149507097
 31
0.0
  0
LINE
  5
5D
330
47
100
AcDbEntity
  8
1
  6
Continuous
 62
     3
100
AcDbLine
 10
2917.117774118138
 20
-1405.627149507097
 30
0.0
 11
2917.728813489288
 21
-1405.016110135947
 31
0.0
  0
LINE
  5
5E
330
47
100
AcDbEntity
  8
1
  6
Continuous
 62
     3
100
AcDbLine
 10
2919.100499515158
 20
-1403.644424110077
 30
0.0
 11
2918.489460144008
 21
-1404.255463481227
 31
0.0
  0
LINE
  5
5F
330
47
100
AcDbEntity
  8
1
  6
Continuous
 62
     3
100
AcDbLine
 10
2919.100499515158
 20
-1405.103890489017
 30
0.0
 11
2918.489460144008
 21
-1404.492851117867
 31
0.0
  0
ARC
  5
60
330
47
100
AcDbEntity
  8
1
  6
Continuous
 62
     3
100
AcDbCircle
 10
2917.847507307608
 20
-1404.374157299547
 30
0.0
 40
1.449999999998425
100
AcDbArc
 50
30.21619828518088
 51
59.78380171481911
  0
ARC
  5
61
330
47
100
AcDbEntity
  8
1
  6
Continuous
 62
     3
100
AcDbCircle
 10
2917.847507307608
 20
-1404.374157299547
 30
0.0
 40
0.6349999999966802
100
AcDbArc
 50
82.5415509432191
 51
97.45844905674024
  0
ARC
  5
62
330
47
100
AcDbEntity
  8
1
  6
Continuous
 62
     3
100
AcDbCircle
 10
2917.847507307608
 20
-1404.374157299547
 30
0.0
 40
1.449999999998196
100
AcDbArc
 50
120.2161982851654
 51
149.7838017148191
  0
ARC
  5
63
330
47
100
AcDbEntity
  8
1
  6
Continuous
 62
     3
100
AcDbCircle
 10
2917.847507307608
 20
-1404.374157299547
 30
0.0
 40
0.6349999999964252
100
AcDbArc
 50
172.5415509432368
 51
187.4584490567632
  0
ARC
  5
64
330
47
100
AcDbEntity
  8
1
  6
Continuous
 62
     3
100
AcDbCircle
 10
2917.847507307608
 20
-1404.374157299547
 30
0.0
 40
1.44999999999831
100
AcDbArc
 50
210.2161982851731
 51
239.7838017148347
  0
ARC
  5
65
330
47
100
AcDbEntity
  8
1
  6
Continuous
 62
     3
100
AcDbCircle
 10
2917.847507307608
 20
-1404.374157299547
 30
0.0
 40
0.6349999999966212
100
AcDbArc
 50
262.5415509432598
 51
277.4584490567809
  0
ARC
  5
66
330
47
100
AcDbEntity
  8
1
  6
Continuous
 62
     3
100
AcDbCircle
 10
2917.847507307608
 20
-1404.374157299547
 30
0.0
 40
1.449999999998425
100
AcDbArc
 50
300.2161982851808
 51
329.7838017148268
  0
ARC
  5
67
330
47
100
AcDbEntity
  8
1
  6
Continuous
 62
     3
100
AcDbCircle
 10
2917.847507307608
 20
-1404.374157299547
 30
0.0
 40
0.6349999999968762
100
AcDbArc
 50
352.5415509432421
 51
7.45844905675791
  0
ARC
  5
68
330
47
100
AcDbEntity
  8
1
  6
Continuous
 62
     3
100
AcDbCircle
 10
2917.759454783139
 20
-1403.701563169297
 30
0.0
 40
0.0433333333320673
100
AcDbArc
 50
224.9999999987245
 51
277.4584490503186
  0
ARC
  5
69
330
47
100
AcDbEntity
  8
1
  6
Continuous
 62
     3
100
AcDbCircle
 10
2917.935559832078
 20
-1403.701563169297
 30
0.0
 40
0.0433333333375396
100
AcDbArc
 50
262.541550948489
 51
315.0
  0
ARC
  5
6A
330
47
100
AcDbEntity
  8
1
  6
Continuous
 62
     3
100
AcDbCircle
 10
2917.174913177359
 20
-1404.462209824017
 30
0.0
 40
0.0433333333306203
100
AcDbArc
 50
314.9999999989371
 51
7.45844905166705
  0
ARC
  5
6B
330
47
100
AcDbEntity
  8
1
  6
Continuous
 62
     3
100
AcDbCircle
 10
2917.174913177359
 20
-1404.286104775077
 30
0.0
 40
0.0433333333366378
100
AcDbArc
 50
352.5415509483329
 51
45.00000000106291
  0
ARC
  5
6C
330
47
100
AcDbEntity
  8
1
  6
Continuous
 62
     3
100
AcDbCircle
 10
2917.935559832078
 20
-1405.046751429797
 30
0.0
 40
0.0433333333312634
100
AcDbArc
 50
45.00000000021258
 51
97.45844905151095
  0
ARC
  5
6D
330
47
100
AcDbEntity
  8
1
  6
Continuous
 62
     3
100
AcDbCircle
 10
2917.759454783139
 20
-1405.046751429797
 30
0.0
 40
0.0433333333374216
100
AcDbArc
 50
82.54155094968142
 51
135.0000000010629
  0
ARC
  5
6E
330
47
100
AcDbEntity
  8
1
  6
Continuous
 62
     3
100
AcDbCircle
 10
2918.520101437858
 20
-1404.286104775077
 30
0.0
 40
0.043333333331585
100
AcDbArc
 50
135.0000000002126
 51
187.458449051511
  0
ARC
  5
6F
330
47
100
AcDbEntity
  8
1
  6
Continuous
 62
     3
100
AcDbCircle
 10
2918.520101437858
 20
-1404.462209824017
 30
0.0
 40
0.0433333333375396
100
AcDbArc
 50
172.5415509484891
 51
224.9999999997874
  0
CIRCLE
  5
70
330
47
100
AcDbEntity
  8
1
  6
Continuous
 62
     3
100
AcDbCircle
 10
2917.847507307608
 20
-1404.374157299547
 30
0.0
 40
2.800000000000182
  0
ENDBLK
  5
49
330
47
100
AcDbEntity
  8
0
100
AcDbBlockEnd
  0
BLOCK
  5
4B
330
4A
100
AcDbEntity
  8
0
100
AcDbBlockBegin
  2
\U+00C5\U+00CD\U+00DE\U+00C8M3_\U+00CD\U+00B2\U+00D2\U+00DD_\U+00DE__2
 70
     0
 10
2874.247507307608
 20
-1393.974157299547
 30
0.0
  3
\U+00C5\U+00CD\U+00DE\U+00C8M3_\U+00CD\U+00B2\U+00D2\U+00DD_\U+00DE__2
  1

  0
LINE
  5
71
330
4A
100
AcDbEntity
  8
1
  6
Continuous
 62
     3
100
AcDbLine
 10
2874.977240497079
 20
-1392.721165091997
 30
0.0
 11
2874.366201125928
 21
-1393.332204463147
 31
0.0
  0
LINE
  5
72
330
4A
100
AcDbEntity
  8
1
  6
Continuous
 62
     3
100
AcDbLine
 10
2873.517774118138
 20
-1392.721165091997
 30
0.0
 11
2874.128813489288
 21
-1393.332204463147
 31
0.0
  0
LINE
  5
73
330
4A
100
AcDbEntity
  8
1
  6
Continuous
 62
     3
100
AcDbLine
 10
2875.500499515158
 20
-1394.703890489017
 30
0.0
 11
2874.889460144008
 21
-1394.092851117867
 31
0.0
  0
LINE
  5
74
330
4A
100
AcDbEntity
  8
1
  6
Continuous
 62
     3
100
AcDbLine
 10
2874.895595093828
 20
-1393.849328531407
 30
0.0
 11
2875.500499515158
 21
-1393.244424110077
 31
0.0
  0
LINE
  5
75
330
4A
100
AcDbEntity
  8
1
  6
Continuous
 62
     3
100
AcDbLine
 10
2874.889460144008
 20
-1393.855463481227
 30
0.0
 11
2874.895595093828
 21
-1393.849328531407
 31
0.0
  0
LINE
  5
76
330
4A
100
AcDbEntity
  8
1
  6
Continuous
 62
     3
100
AcDbLine
 10
2873.517774118138
 20
-1395.227149507097
 30
0.0
 11
2874.128813489288
 21
-1394.616110135947
 31
0.0
  0
LINE
  5
77
330
4A
100
AcDbEntity
  8
1
  6
Continuous
 62
     3
100
AcDbLine
 10
2874.977240497079
 20
-1395.227149507097
 30
0.0
 11
2874.366201125928
 21
-1394.616110135947
 31
0.0
  0
LINE
  5
78
330
4A
100
AcDbEntity
  8
1
  6
Continuous
 62
     3
100
AcDbLine
 10
2872.994515100058
 20
-1393.244424110077
 30
0.0
 11
2873.605554471208
 21
-1393.855463481227
 31
0.0
  0
LINE
  5
79
330
4A
100
AcDbEntity
  8
1
  6
Continuous
 62
     3
100
AcDbLine
 10
2872.994515100058
 20
-1394.703890489017
 30
0.0
 11
2873.605554471208
 21
-1394.092851117867
 31
0.0
  0
ARC
  5
7A
330
4A
100
AcDbEntity
  8
1
  6
Continuous
 62
     3
100
AcDbCircle
 10
2874.247507307608
 20
-1393.974157299547
 30
0.0
 40
0.6349999999967982
100
AcDbArc
 50
82.54155094313772
 51
97.45844905588585
  0
ARC
  5
7B
330
4A
100
AcDbEntity
  8
1
  6
Continuous
 62
     3
100
AcDbCircle
 10
2874.247507307608
 20
-1393.974157299547
 30
0.0
 40
1.44999999999831
100
AcDbArc
 50
30.21619828517312
 51
59.78380171478806
  0
ARC
  5
7C
330
4A
100
AcDbEntity
  8
1
  6
Continuous
 62
     3
100
AcDbCircle
 10
2874.247507307608
 20
-1393.974157299547
 30
0.0
 40
0.634999999997778
100
AcDbArc
 50
352.5415509432527
 51
7.4584490558522
  0
ARC
  5
7D
330
4A
100
AcDbEntity
  8
1
  6
Continuous
 62
     3
100
AcDbCircle
 10
2874.247507307608
 20
-1393.974157299547
 30
0.0
 40
1.449999999998882
100
AcDbArc
 50
300.2161982852119
 51
329.7838017148192
  0
ARC
  5
7E
330
4A
100
AcDbEntity
  8
1
  6
Continuous
 62
     3
100
AcDbCircle
 10
2874.247507307608
 20
-1393.974157299547
 30
0.0
 40
0.6349999999953816
100
AcDbArc
 50
262.5415509441141
 51
277.4584490568623
  0
ARC
  5
7F
330
4A
100
AcDbEntity
  8
1
  6
Continuous
 62
     3
100
AcDbCircle
 10
2874.247507307608
 20
-1393.974157299547
 30
0.0
 40
1.449999999998425
100
AcDbArc
 50
210.2161982851809
 51
239.7838017148191
  0
ARC
  5
80
330
4A
100
AcDbEntity
  8
1
  6
Continuous
 62
     3
100
AcDbCircle
 10
2874.247507307608
 20
-1393.974157299547
 30
0.0
 40
0.6349999999951266
100
AcDbArc
 50
172.5415509441318
 51
187.4584490567632
  0
ARC
  5
81
330
4A
100
AcDbEntity
  8
1
  6
Continuous
 62
     3
100
AcDbCircle
 10
2874.247507307608
 20
-1393.974157299547
 30
0.0
 40
1.449999999998425
100
AcDbArc
 50
120.2161982851809
 51
149.7838017148269
  0
ARC
  5
82
330
4A
100
AcDbEntity
  8
1
  6
Continuous
 62
     3
100
AcDbCircle
 10
2874.335559832078
 20
-1393.301563169297
 30
0.0
 40
0.0433333333374216
100
AcDbArc
 50
262.5415509496814
 51
314.9999999997875
  0
ARC
  5
83
330
4A
100
AcDbEntity
  8
1
  6
Continuous
 62
     3
100
AcDbCircle
 10
2874.159454783139
 20
-1393.301563169297
 30
0.0
 40
0.0433333333322281
100
AcDbArc
 50
224.9999999989371
 51
277.4584490628384
  0
ARC
  5
84
330
4A
100
AcDbEntity
  8
1
  6
Continuous
 62
     3
100
AcDbCircle
 10
2874.920101437858
 20
-1394.062209824017
 30
0.0
 40
0.0433333333366378
100
AcDbArc
 50
172.541550948333
 51
224.9999999997874
  0
ARC
  5
85
330
4A
100
AcDbEntity
  8
1
  6
Continuous
 62
     3
100
AcDbCircle
 10
2874.920101437858
 20
-1393.886104775077
 30
0.0
 40
0.043333333331585
100
AcDbArc
 50
135.0000000002126
 51
187.4584490647831
  0
ARC
  5
86
330
4A
100
AcDbEntity
  8
1
  6
Continuous
 62
     3
100
AcDbCircle
 10
2874.159454783139
 20
-1394.646751429797
 30
0.0
 40
0.0433333333386612
100
AcDbArc
 50
82.54155093716155
 51
135.0000000012755
  0
ARC
  5
87
330
4A
100
AcDbEntity
  8
1
  6
Continuous
 62
     3
100
AcDbCircle
 10
2874.335559832078
 20
-1394.646751429797
 30
0.0
 40
0.0433333333311026
100
AcDbArc
 50
45.0
 51
97.45844905031859
  0
ARC
  5
88
330
4A
100
AcDbEntity
  8
1
  6
Continuous
 62
     3
100
AcDbCircle
 10
2873.574913177359
 20
-1393.886104775077
 30
0.0
 40
0.0433333333379365
100
AcDbArc
 50
352.5415509352169
 51
45.00000000106291
  0
ARC
  5
89
330
4A
100
AcDbEntity
  8
1
  6
Continuous
 62
     3
100
AcDbCircle
 10
2873.574913177359
 20
-1394.062209824017
 30
0.0
 40
0.0433333333306203
100
AcDbArc
 50
314.9999999989371
 51
7.45844905166705
  0
CIRCLE
  5
8A
330
4A
100
AcDbEntity
  8
1
  6
Continuous
 62
     3
100
AcDbCircle
 10
2874.247507307608
 20
-1393.974157299547
 30
0.0
 40
2.800000000000182
  0
ENDBLK
  5
4C
330
4A
100
AcDbEntity
  8
0
100
AcDbBlockEnd
  0
BLOCK
  5
4E
330
4D
100
AcDbEntity
  8
0
100
AcDbBlockBegin
  2
\U+00C5\U+00CD\U+00DE\U+00C8M3_\U+00CD\U+00B2\U+00D2\U+00DD_\U+00DE__3
 70
     0
 10
2863.847507307608
 20
-1437.574157299547
 30
0.0
  3
\U+00C5\U+00CD\U+00DE\U+00C8M3_\U+00CD\U+00B2\U+00D2\U+00DD_\U+00DE__3
  1

  0
LINE
  5
8B
330
4D
100
AcDbEntity
  8
1
  6
Continuous
 62
     3
100
AcDbLine
 10
2864.577240497078
 20
-1438.827149507097
 30
0.0
 11
2863.966201125928
 21
-1438.216110135947
 31
0.0
  0
LINE
  5
8C
330
4D
100
AcDbEntity
  8
1
  6
Continuous
 62
     3
100
AcDbLine
 10
2863.117774118139
 20
-1438.827149507097
 30
0.0
 11
2863.728813489288
 21
-1438.216110135947
 31
0.0
  0
LINE
  5
8D
330
4D
100
AcDbEntity
  8
1
  6
Continuous
 62
     3
100
AcDbLine
 10
2865.100499515158
 20
-1436.844424110077
 30
0.0
 11
2864.489460144009
 21
-1437.455463481227
 31
0.0
  0
LINE
  5
8E
330
4D
100
AcDbEntity
  8
1
  6
Continuous
 62
     3
100
AcDbLine
 10
2865.100499515158
 20
-1438.303890489017
 30
0.0
 11
2864.489460144009
 21
-1437.692851117867
 31
0.0
  0
LINE
  5
8F
330
4D
100
AcDbEntity
  8
1
  6
Continuous
 62
     3
100
AcDbLine
 10
2863.728813489288
 20
-1436.932204463147
 30
0.0
 11
2863.722678539468
 21
-1436.926069513327
 31
0.0
  0
LINE
  5
90
330
4D
100
AcDbEntity
  8
1
  6
Continuous
 62
     3
100
AcDbLine
 10
2863.722678539468
 20
-1436.926069513327
 30
0.0
 11
2863.117774118139
 21
-1436.321165091997
 31
0.0
  0
LINE
  5
91
330
4D
100
AcDbEntity
  8
1
  6
Continuous
 62
     3
100
AcDbLine
 10
2864.577240497078
 20
-1436.321165091997
 30
0.0
 11
2863.966201125928
 21
-1436.932204463147
 31
0.0
  0
LINE
  5
92
330
4D
100
AcDbEntity
  8
1
  6
Continuous
 62
     3
100
AcDbLine
 10
2862.594515100058
 20
-1438.303890489017
 30
0.0
 11
2863.205554471208
 21
-1437.692851117867
 31
0.0
  0
LINE
  5
93
330
4D
100
AcDbEntity
  8
1
  6
Continuous
 62
     3
100
AcDbLine
 10
2862.594515100058
 20
-1436.844424110077
 30
0.0
 11
2863.205554471208
 21
-1437.455463481227
 31
0.0
  0
ARC
  5
94
330
4D
100
AcDbEntity
  8
1
  6
Continuous
 62
     3
100
AcDbCircle
 10
2863.847507307608
 20
-1437.574157299547
 30
0.0
 40
1.44999999999831
100
AcDbArc
 50
210.2161982851731
 51
239.7838017148611
  0
ARC
  5
95
330
4D
100
AcDbEntity
  8
1
  6
Continuous
 62
     3
100
AcDbCircle
 10
2863.847507307608
 20
-1437.574157299547
 30
0.0
 40
0.634999999994979
100
AcDbArc
 50
262.5415509442335
 51
277.4584490567836
  0
ARC
  5
96
330
4D
100
AcDbEntity
  8
1
  6
Continuous
 62
     3
100
AcDbCircle
 10
2863.847507307608
 20
-1437.574157299547
 30
0.0
 40
1.449999999998228
100
AcDbArc
 50
300.2161982851854
 51
329.7838017148268
  0
ARC
  5
97
330
4D
100
AcDbEntity
  8
1
  6
Continuous
 62
     3
100
AcDbCircle
 10
2863.847507307608
 20
-1437.574157299547
 30
0.0
 40
0.6349999999968762
100
AcDbArc
 50
352.5415509432421
 51
7.4584490558832
  0
ARC
  5
98
330
4D
100
AcDbEntity
  8
1
  6
Continuous
 62
     3
100
AcDbCircle
 10
2863.847507307608
 20
-1437.574157299547
 30
0.0
 40
1.449999999998425
100
AcDbArc
 50
30.21619828518088
 51
59.78380171481911
  0
ARC
  5
99
330
4D
100
AcDbEntity
  8
1
  6
Continuous
 62
     3
100
AcDbCircle
 10
2863.847507307608
 20
-1437.574157299547
 30
0.0
 40
0.6349999999966802
100
AcDbArc
 50
82.5415509432191
 51
97.45844905576381
  0
ARC
  5
9A
330
4D
100
AcDbEntity
  8
1
  6
Continuous
 62
     3
100
AcDbCircle
 10
2863.847507307608
 20
-1437.574157299547
 30
0.0
 40
1.449999999997738
100
AcDbArc
 50
120.2161982851343
 51
149.7838017148191
  0
ARC
  5
9B
330
4D
100
AcDbEntity
  8
1
  6
Continuous
 62
     3
100
AcDbCircle
 10
2863.847507307608
 20
-1437.574157299547
 30
0.0
 40
0.6349999999951561
100
AcDbArc
 50
172.5415509441115
 51
187.4584490567632
  0
ARC
  5
9C
330
4D
100
AcDbEntity
  8
1
  6
Continuous
 62
     3
100
AcDbCircle
 10
2863.935559832078
 20
-1438.246751429797
 30
0.0
 40
0.0433333333312634
100
AcDbArc
 50
45.00000000021258
 51
97.45844905147193
  0
ARC
  5
9D
330
4D
100
AcDbEntity
  8
1
  6
Continuous
 62
     3
100
AcDbCircle
 10
2863.759454783138
 20
-1438.246751429797
 30
0.0
 40
0.0433333333391818
100
AcDbArc
 50
82.54155093421966
 51
135.0000000002126
  0
ARC
  5
9E
330
4D
100
AcDbEntity
  8
1
  6
Continuous
 62
     3
100
AcDbCircle
 10
2864.520101437858
 20
-1437.486104775077
 30
0.0
 40
0.0433333333304595
100
AcDbArc
 50
134.9999999991497
 51
187.458449064627
  0
ARC
  5
9F
330
4D
100
AcDbEntity
  8
1
  6
Continuous
 62
     3
100
AcDbCircle
 10
2864.520101437858
 20
-1437.662209824017
 30
0.0
 40
0.0433333333375396
100
AcDbArc
 50
172.5415509484891
 51
225.0000000008503
  0
ARC
  5
A0
330
4D
100
AcDbEntity
  8
1
  6
Continuous
 62
     3
100
AcDbCircle
 10
2863.759454783138
 20
-1436.901563169297
 30
0.0
 40
0.0433333333314242
100
AcDbArc
 50
224.9999999995748
 51
277.4584490658194
  0
ARC
  5
A1
330
4D
100
AcDbEntity
  8
1
  6
Continuous
 62
     3
100
AcDbCircle
 10
2863.935559832078
 20
-1436.901563169297
 30
0.0
 40
0.0433333333375396
100
AcDbArc
 50
262.541550948489
 51
315.0
  0
ARC
  5
A2
330
4D
100
AcDbEntity
  8
1
  6
Continuous
 62
     3
100
AcDbCircle
 10
2863.174913177358
 20
-1437.662209824017
 30
0.0
 40
0.0433333333311026
100
AcDbArc
 50
315.0
 51
7.45844905151095
  0
ARC
  5
A3
330
4D
100
AcDbEntity
  8
1
  6
Continuous
 62
     3
100
AcDbCircle
 10
2863.174913177358
 20
-1437.486104775077
 30
0.0
 40
0.0433333333388383
100
AcDbArc
 50
352.541550935373
 51
45.0
  0
CIRCLE
  5
A4
330
4D
100
AcDbEntity
  8
1
  6
Continuous
 62
     3
100
AcDbCircle
 10
2863.847507307608
 20
-1437.574157299547
 30
0.0
 40
2.800000000000182
  0
ENDBLK
  5
4F
330
4D
100
AcDbEntity
  8
0
100
AcDbBlockEnd
  0
BLOCK
  5
51
330
50
100
AcDbEntity
  8
0
100
AcDbBlockBegin
  2
\U+00C5\U+00CD\U+00DE\U+00C8M3_\U+00CD\U+00B2\U+00D2\U+00DD_\U+00DE__4
 70
     0
 10
2907.447507307608
 20
-1447.974157299547
 30
0.0
  3
\U+00C5\U+00CD\U+00DE\U+00C8M3_\U+00CD\U+00B2\U+00D2\U+00DD_\U+00DE__4
  1

  0
LINE
  5
A5
330
50
100
AcDbEntity
  8
1
  6
Continuous
 62
     3
100
AcDbLine
 10
2906.717774118138
 20
-1449.227149507097
 30
0.0
 11
2907.328813489288
 21
-1448.616110135947
 31
0.0
  0
LINE
  5
A6
330
50
100
AcDbEntity
  8
1
  6
Continuous
 62
     3
100
AcDbLine
 10
2908.177240497078
 20
-1449.227149507097
 30
0.0
 11
2907.566201125928
 21
-1448.616110135947
 31
0.0
  0
LINE
  5
A7
330
50
100
AcDbEntity
  8
1
  6
Continuous
 62
     3
100
AcDbLine
 10
2906.194515100058
 20
-1447.244424110077
 30
0.0
 11
2906.805554471208
 21
-1447.855463481227
 31
0.0
  0
LINE
  5
A8
330
50
100
AcDbEntity
  8
1
  6
Continuous
 62
     3
100
AcDbLine
 10
2906.799419521388
 20
-1448.098986067687
 30
0.0
 11
2906.194515100058
 21
-1448.703890489017
 31
0.0
  0
LINE
  5
A9
330
50
100
AcDbEntity
  8
1
  6
Continuous
 62
     3
100
AcDbLine
 10
2906.805554471208
 20
-1448.092851117867
 30
0.0
 11
2906.799419521388
 21
-1448.098986067687
 31
0.0
  0
LINE
  5
AA
330
50
100
AcDbEntity
  8
1
  6
Continuous
 62
     3
100
AcDbLine
 10
2908.177240497078
 20
-1446.721165091997
 30
0.0
 11
2907.566201125928
 21
-1447.332204463147
 31
0.0
  0
LINE
  5
AB
330
50
100
AcDbEntity
  8
1
  6
Continuous
 62
     3
100
AcDbLine
 10
2906.717774118138
 20
-1446.721165091997
 30
0.0
 11
2907.328813489288
 21
-1447.332204463147
 31
0.0
  0
LINE
  5
AC
330
50
100
AcDbEntity
  8
1
  6
Continuous
 62
     3
100
AcDbLine
 10
2908.700499515158
 20
-1448.703890489017
 30
0.0
 11
2908.089460144008
 21
-1448.092851117867
 31
0.0
  0
LINE
  5
AD
330
50
100
AcDbEntity
  8
1
  6
Continuous
 62
     3
100
AcDbLine
 10
2908.700499515158
 20
-1447.244424110077
 30
0.0
 11
2908.089460144008
 21
-1447.855463481227
 31
0.0
  0
ARC
  5
AE
330
50
100
AcDbEntity
  8
1
  6
Continuous
 62
     3
100
AcDbCircle
 10
2907.447507307608
 20
-1447.974157299547
 30
0.0
 40
0.6349999999953225
100
AcDbArc
 50
262.5415509441548
 51
277.4584490567809
  0
ARC
  5
AF
330
50
100
AcDbEntity
  8
1
  6
Continuous
 62
     3
100
AcDbCircle
 10
2907.447507307608
 20
-1447.974157299547
 30
0.0
 40
1.449999999998032
100
AcDbArc
 50
210.2161982851899
 51
239.7838017148347
  0
ARC
  5
B0
330
50
100
AcDbEntity
  8
1
  6
Continuous
 62
     3
100
AcDbCircle
 10
2907.447507307608
 20
-1447.974157299547
 30
0.0
 40
0.6349999999964252
100
AcDbArc
 50
172.5415509432368
 51
187.4584490558682
  0
ARC
  5
B1
330
50
100
AcDbEntity
  8
1
  6
Continuous
 62
     3
100
AcDbCircle
 10
2907.447507307608
 20
-1447.974157299547
 30
0.0
 40
1.449999999998196
100
AcDbArc
 50
120.2161982851654
 51
149.7838017148178
  0
ARC
  5
B2
330
50
100
AcDbEntity
  8
1
  6
Continuous
 62
     3
100
AcDbCircle
 10
2907.447507307608
 20
-1447.974157299547
 30
0.0
 40
0.6349999999966802
100
AcDbArc
 50
82.5415509432191
 51
97.4584490558452
  0
ARC
  5
B3
330
50
100
AcDbEntity
  8
1
  6
Continuous
 62
     3
100
AcDbCircle
 10
2907.447507307608
 20
-1447.974157299547
 30
0.0
 40
1.44999999999831
100
AcDbArc
 50
30.21619828517312
 51
59.78380171481911
  0
ARC
  5
B4
330
50
100
AcDbEntity
  8
1
  6
Continuous
 62
     3
100
AcDbCircle
 10
2907.447507307608
 20
-1447.974157299547
 30
0.0
 40
0.6349999999955775
100
AcDbArc
 50
352.5415509441372
 51
7.45844905675791
  0
ARC
  5
B5
330
50
100
AcDbEntity
  8
1
  6
Continuous
 62
     3
100
AcDbCircle
 10
2907.447507307608
 20
-1447.974157299547
 30
0.0
 40
1.449999999998425
100
AcDbArc
 50
300.2161982851808
 51
329.7838017148192
  0
ARC
  5
B6
330
50
100
AcDbEntity
  8
1
  6
Continuous
 62
     3
100
AcDbCircle
 10
2907.359454783138
 20
-1448.646751429797
 30
0.0
 40
0.0433333333388383
100
AcDbArc
 50
82.54155093537298
 51
135.0
  0
ARC
  5
B7
330
50
100
AcDbEntity
  8
1
  6
Continuous
 62
     3
100
AcDbCircle
 10
2907.535559832078
 20
-1448.646751429797
 30
0.0
 40
0.0433333333311026
100
AcDbArc
 50
45.0
 51
97.45844905151095
  0
ARC
  5
B8
330
50
100
AcDbEntity
  8
1
  6
Continuous
 62
     3
100
AcDbCircle
 10
2906.774913177358
 20
-1447.886104775077
 30
0.0
 40
0.0433333333375396
100
AcDbArc
 50
352.541550948489
 51
45.00000000021258
  0
ARC
  5
B9
330
50
100
AcDbEntity
  8
1
  6
Continuous
 62
     3
100
AcDbCircle
 10
2906.774913177358
 20
-1448.062209824017
 30
0.0
 40
0.0433333333312634
100
AcDbArc
 50
314.9999999997875
 51
7.45844906462701
  0
ARC
  5
BA
330
50
100
AcDbEntity
  8
1
  6
Continuous
 62
     3
100
AcDbCircle
 10
2907.535559832078
 20
-1447.301563169297
 30
0.0
 40
0.0433333333375396
100
AcDbArc
 50
262.541550948489
 51
314.9999999997875
  0
ARC
  5
BB
330
50
100
AcDbEntity
  8
1
  6
Continuous
 62
     3
100
AcDbCircle
 10
2907.359454783138
 20
-1447.301563169297
 30
0.0
 40
0.0433333333312634
100
AcDbArc
 50
225.0000000002126
 51
277.458449064627
  0
ARC
  5
BC
330
50
100
AcDbEntity
  8
1
  6
Continuous
 62
     3
100
AcDbCircle
 10
2908.120101437858
 20
-1448.062209824017
 30
0.0
 40
0.0433333333388383
100
AcDbArc
 50
172.541550935373
 51
225.0000000002126
  0
ARC
  5
BD
330
50
100
AcDbEntity
  8
1
  6
Continuous
 62
     3
100
AcDbCircle
 10
2908.120101437858
 20
-1447.886104775077
 30
0.0
 40
0.0433333333312634
100
AcDbArc
 50
134.9999999997874
 51
187.458449051511
  0
CIRCLE
  5
BE
330
50
100
AcDbEntity
  8
1
  6
Continuous
 62
     3
100
AcDbCircle
 10
2907.447507307608
 20
-1447.974157299547
 30
0.0
 40
2.800000000000182
  0
ENDBLK
  5
52
330
50
100
AcDbEntity
  8
0
100
AcDbBlockEnd
  0
BLOCK
  5
156
330
14E
100
AcDbEntity
  8
0
100
AcDbBlockBegin
  2
*D5
 70
     1
 10
0.0
 20
0.0
 30
0.0
  3
*D5
  1

  0
LINE
  5
14F
330
14E
100
AcDbEntity
  8
1
  6
Continuous
 62
     2
100
AcDbLine
 10
2930.847507307608
 20
-1444.544157299548
 30
0.0
 11
2930.847507307608
 21
-1397.404157299547
 31
0.0
  0
LINE
  5
150
330
14E
100
AcDbEntity
  8
1
  6
Continuous
 62
     2
100
AcDbLine
 10
2918.917507307608
 20
-1444.544157299548
 30
0.0
 11
2932.347507307608
 21
-1444.544157299548
 31
0.0
  0
LINE
  5
151
330
14E
100
AcDbEntity
  8
1
  6
Continuous
 62
     2
100
AcDbLine
 10
2918.917507307609
 20
-1397.404157299547
 30
0.0
 11
2932.347507307608
 21
-1397.404157299547
 31
0.0
  0
SOLID
  5
152
330
14E
100
AcDbEntity
  8
1
 62
     2
100
AcDbTrace
 10
2930.426219315328
 20
-1441.344157299548
 30
0.0
 11
2931.268795299888
 21
-1441.344157299548
 31
0.0
 12
2930.847507307608
 22
-1444.544157299548
 32
0.0
 13
2930.847507307608
 23
-1444.544157299548
 33
0.0
  0
SOLID
  5
153
330
14E
100
AcDbEntity
  8
1
 62
     2
100
AcDbTrace
 10
2931.268795299888
 20
-1400.604157299547
 30
0.0
 11
2930.426219315328
 21
-1400.604157299547
 31
0.0
 12
2930.847507307608
 22
-1397.404157299547
 32
0.0
 13
2930.847507307608
 23
-1397.404157299547
 33
0.0
  0
MTEXT
  5
155
330
14E
100
AcDbEntity
  8
1
 62
     2
100
AcDbMText
 10
2929.63419533575
 20
-1429.65399751276
 30
0.0
 40
3.2
 41
0.0
 71
     7
 72
     1
  1
\C2;47.14\C2;\H1.92;{\Fgdt;`}0.2
  7
CONVERTER_13
 11
0.0
 21
1.0
 31
0.0
 73
     1
 44
0.60024009603842
  0
ENDBLK
  5
157
330
14E
100
AcDbEntity
  8
0
100
AcDbBlockEnd
  0
BLOCK
  5
161
330
15A
100
AcDbEntity
  8
0
100
AcDbBlockBegin
  2
*D6
 70
     1
 10
0.0
 20
0.0
 30
0.0
  3
*D6
  1

  0
LINE
  5
15B
330
15A
100
AcDbEntity
  8
1
  6
Continuous
 62
     2
100
AcDbLine
 10
2965.786148489519
 20
-1440.024157299547
 30
0.0
 11
2965.786148489519
 21
-1401.924157299547
 31
0.0
  0
LINE
  5
15C
330
15A
100
AcDbEntity
  8
1
  6
Continuous
 62
     2
100
AcDbLine
 10
3022.186148489519
 20
-1401.924157299547
 30
0.0
 11
2964.286148489519
 21
-1401.924157299547
 31
0.0
  0
LINE
  5
15D
330
15A
100
AcDbEntity
  8
1
  6
Continuous
 62
     2
100
AcDbLine
 10
3022.186148489519
 20
-1440.024157299547
 30
0.0
 11
2964.286148489519
 21
-1440.024157299547
 31
0.0
  0
SOLID
  5
15E
330
15A
100
AcDbEntity
  8
1
 62
     2
100
AcDbTrace
 10
2965.364860497239
 20
-1436.824157299547
 30
0.0
 11
2966.207436481799
 21
-1436.824157299547
 31
0.0
 12
2965.786148489519
 22
-1440.024157299547
 32
0.0
 13
2965.786148489519
 23
-1440.024157299547
 33
0.0
  0
SOLID
  5
15F
330
15A
100
AcDbEntity
  8
1
 62
     2
100
AcDbTrace
 10
2966.207436481799
 20
-1405.124157299547
 30
0.0
 11
2965.364860497239
 21
-1405.124157299547
 31
0.0
 12
2965.786148489519
 22
-1401.924157299547
 32
0.0
 13
2965.786148489519
 23
-1401.924157299547
 33
0.0
  0
MTEXT
  5
160
330
15A
100
AcDbEntity
  8
1
 62
     2
100
AcDbMText
 10
2963.786148489519
 20
-1428.57417337349
 30
0.0
 40
3.2
 41
0.0
 71
     7
 72
     1
  1
\C2;\U+03c6\C2;\C2;38.1\C2;\H1.92;{\Fgdt;`}0.03
  7
CONVERTER_13
 11
0.0
 21
1.0
 31
0.0
 73
     1
 44
0.60024009603842
  0
ENDBLK
  5
162
330
15A
100
AcDbEntity
  8
0
100
AcDbBlockEnd
  0
BLOCK
  5
16C
330
165
100
AcDbEntity
  8
0
100
AcDbBlockBegin
  2
*D7
 70
     1
 10
0.0
 20
0.0
 30
0.0
  3
*D7
  1

  0
LINE
  5
166
330
165
100
AcDbEntity
  8
1
  6
Continuous
 62
     2
100
AcDbLine
 10
2920.847507307608
 20
-1370.974157299547
 30
0.0
 11
2860.847507307608
 21
-1370.974157299547
 31
0.0
  0
LINE
  5
167
330
165
100
AcDbEntity
  8
1
  6
Continuous
 62
     2
100
AcDbLine
 10
2860.847507307608
 20
-1394.974157299547
 30
0.0
 11
2860.847507307608
 21
-1369.474157299547
 31
0.0
  0
LINE
  5
168
330
165
100
AcDbEntity
  8
1
  6
Continuous
 62
     2
100
AcDbLine
 10
2920.847507307608
 20
-1394.974157299547
 30
0.0
 11
2920.847507307608
 21
-1369.474157299547
 31
0.0
  0
SOLID
  5
169
330
165
100
AcDbEntity
  8
1
 62
     2
100
AcDbTrace
 10
2917.647507307608
 20
-1371.395445291827
 30
0.0
 11
2917.647507307608
 21
-1370.552869307267
 31
0.0
 12
2920.847507307608
 22
-1370.974157299547
 32
0.0
 13
2920.847507307608
 23
-1370.974157299547
 33
0.0
  0
SOLID
  5
16A
330
165
100
AcDbEntity
  8
1
 62
     2
100
AcDbTrace
 10
2864.047507307608
 20
-1370.552869307267
 30
0.0
 11
2864.047507307608
 21
-1371.395445291827
 31
0.0
 12
2860.847507307608
 22
-1370.974157299547
 32
0.0
 13
2860.847507307608
 23
-1370.974157299547
 33
0.0
  0
MTEXT
  5
16B
330
165
100
AcDbEntity
  8
1
 62
     2
100
AcDbMText
 10
2885.823507307616
 20
-1368.974163660303
 30
0.0
 40
3.2
 41
0.0
 71
     7
 72
     1
  1
\C2;(\C2;60\C2;)
  7
CONVERTER_13
 11
0.9999999999970619
 21
2.424068405545306E-6
 31
0.0
 73
     1
 44
0.60024009603842
  0
ENDBLK
  5
16D
330
165
100
AcDbEntity
  8
0
100
AcDbBlockEnd
  0
BLOCK
  5
177
330
170
100
AcDbEntity
  8
0
100
AcDbBlockBegin
  2
*D8
 70
     1
 10
0.0
 20
0.0
 30
0.0
  3
*D8
  1

  0
LINE
  5
171
330
170
100
AcDbEntity
  8
1
  6
Continuous
 62
     2
100
AcDbLine
 10
2867.277507307608
 20
-1380.974157299547
 30
0.0
 11
2914.417507307609
 21
-1380.974157299547
 31
0.0
  0
LINE
  5
172
330
170
100
AcDbEntity
  8
1
  6
Continuous
 62
     2
100
AcDbLine
 10
2867.277507307608
 20
-1392.904157299547
 30
0.0
 11
2867.277507307608
 21
-1379.474157299547
 31
0.0
  0
LINE
  5
173
330
170
100
AcDbEntity
  8
1
  6
Continuous
 62
     2
100
AcDbLine
 10
2914.417507307609
 20
-1392.904157299547
 30
0.0
 11
2914.417507307609
 21
-1379.474157299547
 31
0.0
  0
SOLID
  5
174
330
170
100
AcDbEntity
  8
1
 62
     2
100
AcDbTrace
 10
2870.477507307608
 20
-1380.552869307267
 30
0.0
 11
2870.477507307608
 21
-1381.395445291827
 31
0.0
 12
2867.277507307608
 22
-1380.974157299547
 32
0.0
 13
2867.277507307608
 23
-1380.974157299547
 33
0.0
  0
SOLID
  5
175
330
170
100
AcDbEntity
  8
1
 62
     2
100
AcDbTrace
 10
2911.217507307609
 20
-1381.395445291827
 30
0.0
 11
2911.217507307609
 21
-1380.552869307267
 31
0.0
 12
2914.417507307609
 22
-1380.974157299547
 32
0.0
 13
2914.417507307609
 23
-1380.974157299547
 33
0.0
  0
MTEXT
  5
176
330
170
100
AcDbEntity
  8
1
 62
     2
100
AcDbMText
 10
2882.19975201454
 20
-1379.52383192733
 30
0.0
 40
3.2
 41
0.0
 71
     7
 72
     1
  1
\C2;47.14\C2;\H1.92;{\Fgdt;`}0.2
  7
CONVERTER_13
 11
0.9999999999970619
 21
2.424068405545306E-6
 31
0.0
 73
     1
 44
0.60024009603842
  0
ENDBLK
  5
178
330
170
100
AcDbEntity
  8
0
100
AcDbBlockEnd
  0
BLOCK
  5
182
330
17B
100
AcDbEntity
  8
0
100
AcDbBlockBegin
  2
*D9
 70
     1
 10
0.0
 20
0.0
 30
0.0
  3
*D9
  1

  0
LINE
  5
17C
330
17B
100
AcDbEntity
  8
1
  6
Continuous
 62
     2
100
AcDbLine
 10
2940.847507307608
 20
-1390.974157299547
 30
0.0
 11
2940.847507307608
 21
-1450.974157299547
 31
0.0
  0
LINE
  5
17D
330
17B
100
AcDbEntity
  8
1
  6
Continuous
 62
     2
100
AcDbLine
 10
2916.847507307608
 20
-1450.974157299547
 30
0.0
 11
2942.347507307608
 21
-1450.974157299547
 31
0.0
  0
LINE
  5
17E
330
17B
100
AcDbEntity
  8
1
  6
Continuous
 62
     2
100
AcDbLine
 10
2916.847507307608
 20
-1390.974157299547
 30
0.0
 11
2942.347507307608
 21
-1390.974157299547
 31
0.0
  0
SOLID
  5
17F
330
17B
100
AcDbEntity
  8
1
 62
     2
100
AcDbTrace
 10
2941.268795299888
 20
-1394.174157299547
 30
0.0
 11
2940.426219315328
 21
-1394.174157299547
 31
0.0
 12
2940.847507307608
 22
-1390.974157299547
 32
0.0
 13
2940.847507307608
 23
-1390.974157299547
 33
0.0
  0
SOLID
  5
180
330
17B
100
AcDbEntity
  8
1
 62
     2
100
AcDbTrace
 10
2940.426219315328
 20
-1447.774157299547
 30
0.0
 11
2941.268795299888
 21
-1447.774157299547
 31
0.0
 12
2940.847507307608
 22
-1450.974157299547
 32
0.0
 13
2940.847507307608
 23
-1450.974157299547
 33
0.0
  0
MTEXT
  5
181
330
17B
100
AcDbEntity
  8
1
 62
     2
100
AcDbMText
 10
2938.847507307608
 20
-1425.998157299547
 30
0.0
 40
3.2
 41
0.0
 71
     7
 72
     1
  1
\C2;(\C2;60\C2;)
  7
CONVERTER_13
 11
0.0
 21
1.0
 31
0.0
 73
     1
 44
0.60024009603842
  0
ENDBLK
  5
183
330
17B
100
AcDbEntity
  8
0
100
AcDbBlockEnd
  0
BLOCK
  5
18D
330
186
100
AcDbEntity
  8
0
100
AcDbBlockBegin
  2
*D10
 70
     1
 10
0.0
 20
0.0
 30
0.0
  3
*D10
  1

  0
LINE
  5
187
330
186
100
AcDbEntity
  8
1
  6
Continuous
 62
     2
100
AcDbLine
 10
3024.786148489519
 20
-1370.974157299547
 30
0.0
 11
3078.786148489519
 21
-1370.974157299547
 31
0.0
  0
LINE
  5
188
330
186
100
AcDbEntity
  8
1
  6
Continuous
 62
     2
100
AcDbLine
 10
3024.786148489519
 20
-1389.974157299547
 30
0.0
 11
3024.786148489519
 21
-1369.474157299547
 31
0.0
  0
LINE
  5
189
330
186
100
AcDbEntity
  8
1
  6
Continuous
 62
     2
100
AcDbLine
 10
3078.786148489519
 20
-1390.774157299547
 30
0.0
 11
3078.786148489519
 21
-1369.474157299547
 31
0.0
  0
SOLID
  5
18A
330
186
100
AcDbEntity
  8
1
 62
     2
100
AcDbTrace
 10
3027.986148489519
 20
-1370.552869307267
 30
0.0
 11
3027.986148489519
 21
-1371.395445291827
 31
0.0
 12
3024.786148489519
 22
-1370.974157299547
 32
0.0
 13
3024.786148489519
 23
-1370.974157299547
 33
0.0
  0
SOLID
  5
18B
330
186
100
AcDbEntity
  8
1
 62
     2
100
AcDbTrace
 10
3075.586148489519
 20
-1371.395445291827
 30
0.0
 11
3075.586148489519
 21
-1370.552869307267
 31
0.0
 12
3078.786148489519
 22
-1370.974157299547
 32
0.0
 13
3078.786148489519
 23
-1370.974157299547
 33
0.0
  0
MTEXT
  5
18C
330
186
100
AcDbEntity
  8
1
 62
     2
100
AcDbMText
 10
3046.229566700719
 20
-1368.974163660303
 30
0.0
 40
3.2
 41
0.0
 71
     7
 72
     1
  1
\C2;(\C2;54\C2;)
  7
CONVERTER_13
 11
0.9999999999970619
 21
2.424068405545306E-6
 31
0.0
 73
     1
 44
0.60024009603842
  0
ENDBLK
  5
18E
330
186
100
AcDbEntity
  8
0
100
AcDbBlockEnd
  0
BLOCK
  5
198
330
191
100
AcDbEntity
  8
0
100
AcDbBlockBegin
  2
*D11
 70
     1
 10
0.0
 20
0.0
 30
0.0
  3
*D11
  1

  0
LINE
  5
192
330
191
100
AcDbEntity
  8
1
  6
Continuous
 62
     2
100
AcDbLine
 10
3024.786148489518
 20
-1370.974157299547
 30
0.0
 11
3000.786148489518
 21
-1370.974157299547
 31
0.0
  0
LINE
  5
193
330
191
100
AcDbEntity
  8
1
  6
Continuous
 62
     2
100
AcDbLine
 10
3000.786148489518
 20
-1416.474157299547
 30
0.0
 11
3000.786148489518
 21
-1369.474157299547
 31
0.0
  0
LINE
  5
194
330
191
100
AcDbEntity
  8
1
  6
Continuous
 62
     2
100
AcDbLine
 10
3024.786148489518
 20
-1389.974157299547
 30
0.0
 11
3024.786148489518
 21
-1369.474157299547
 31
0.0
  0
SOLID
  5
195
330
191
100
AcDbEntity
  8
1
 62
     2
100
AcDbTrace
 10
3021.586148489519
 20
-1371.395445291827
 30
0.0
 11
3021.586148489519
 21
-1370.552869307267
 31
0.0
 12
3024.786148489518
 22
-1370.974157299547
 32
0.0
 13
3024.786148489518
 23
-1370.974157299547
 33
0.0
  0
SOLID
  5
196
330
191
100
AcDbEntity
  8
1
 62
     2
100
AcDbTrace
 10
3003.986148489518
 20
-1370.552869307267
 30
0.0
 11
3003.986148489518
 21
-1371.395445291827
 31
0.0
 12
3000.786148489518
 22
-1370.974157299547
 32
0.0
 13
3000.786148489518
 23
-1370.974157299547
 33
0.0
  0
MTEXT
  5
197
330
191
100
AcDbEntity
  8
1
 62
     2
100
AcDbMText
 10
3009.29914880933
 20
-1368.974157299547
 30
0.0
 40
3.2
 41
0.0
 71
     7
 72
     1
  1
\C2;24\C2;\H1.92;{\Fgdt;`}1
  7
CONVERTER_13
 11
0.9999999999970619
 21
2.424068405545306E-6
 31
0.0
 73
     1
 44
0.60024009603842
  0
ENDBLK
  5
199
330
191
100
AcDbEntity
  8
0
100
AcDbBlockEnd
  0
BLOCK
  5
1A3
330
19C
100
AcDbEntity
  8
0
100
AcDbBlockBegin
  2
*D12
 70
     1
 10
0.0
 20
0.0
 30
0.0
  3
*D12
  1

  0
LINE
  5
19D
330
19C
100
AcDbEntity
  8
1
  6
Continuous
 62
     2
100
AcDbLine
 10
3020.786148489518
 20
-1390.974157299547
 30
0.0
 11
3000.786148489518
 21
-1390.974157299547
 31
0.0
  0
LINE
  5
19E
330
19C
100
AcDbEntity
  8
1
  6
Continuous
 62
     2
100
AcDbLine
 10
3000.786148489518
 20
-1416.474157299547
 30
0.0
 11
3000.786148489518
 21
-1389.474157299547
 31
0.0
  0
LINE
  5
19F
330
19C
100
AcDbEntity
  8
1
  6
Continuous
 62
     2
100
AcDbLine
 10
3020.786148489518
 20
-1415.974157299547
 30
0.0
 11
3020.786148489518
 21
-1389.474157299547
 31
0.0
  0
SOLID
  5
1A0
330
19C
100
AcDbEntity
  8
1
 62
     2
100
AcDbTrace
 10
3017.586148489518
 20
-1391.395445291827
 30
0.0
 11
3017.586148489518
 21
-1390.552869307267
 31
0.0
 12
3020.786148489518
 22
-1390.974157299547
 32
0.0
 13
3020.786148489518
 23
-1390.974157299547
 33
0.0
  0
SOLID
  5
1A1
330
19C
100
AcDbEntity
  8
1
 62
     2
100
AcDbTrace
 10
3003.986148489518
 20
-1390.552869307267
 30
0.0
 11
3003.986148489518
 21
-1391.395445291827
 31
0.0
 12
3000.786148489518
 22
-1390.974157299547
 32
0.0
 13
3000.786148489518
 23
-1390.974157299547
 33
0.0
  0
MTEXT
  5
1A2
330
19C
100
AcDbEntity
  8
1
 62
     2
100
AcDbMText
 10
3004.67425048444
 20
-1388.974157299547
 30
0.0
 40
3.2
 41
0.0
 71
     7
 72
     1
  1
\C2;20\C2;\H1.92;{\Fgdt;`}0.25
  7
CONVERTER_13
 11
0.9999999999970619
 21
2.424068405545306E-6
 31
0.0
 73
     1
 44
0.60024009603842
  0
ENDBLK
  5
1A4
330
19C
100
AcDbEntity
  8
0
100
AcDbBlockEnd
  0
BLOCK
  5
1B0
330
1A7
100
AcDbEntity
  8
0
100
AcDbBlockBegin
  2
*D13
 70
     1
 10
0.0
 20
0.0
 30
0.0
  3
*D13
  1

  0
LINE
  5
1A8
330
1A7
100
AcDbEntity
  8
1
  6
Continuous
 62
     2
100
AcDbLine
 10
3023.186148489518
 20
-1380.974157299547
 30
0.0
 11
3015.40413652048
 21
-1380.974157299547
 31
0.0
  0
LINE
  5
1A9
330
1A7
100
AcDbEntity
  8
1
  6
Continuous
 62
     2
100
AcDbLine
 10
3024.786148489518
 20
-1380.974157299547
 30
0.0
 11
3023.186148489518
 21
-1380.974157299547
 31
0.0
  0
LINE
  5
1AA
330
1A7
100
AcDbEntity
  8
1
  6
Continuous
 62
     2
100
AcDbLine
 10
3031.186148489518
 20
-1380.974157299547
 30
0.0
 11
3024.786148489518
 21
-1380.974157299547
 31
0.0
  0
LINE
  5
1AB
330
1A7
100
AcDbEntity
  8
1
  6
Continuous
 62
     2
100
AcDbLine
 10
3023.186148489518
 20
-1400.924157299547
 30
0.0
 11
3023.186148489518
 21
-1379.474157299547
 31
0.0
  0
LINE
  5
1AC
330
1A7
100
AcDbEntity
  8
1
  6
Continuous
 62
     2
100
AcDbLine
 10
3024.786148489518
 20
-1389.974157299547
 30
0.0
 11
3024.786148489518
 21
-1379.474157299547
 31
0.0
  0
SOLID
  5
1AD
330
1A7
100
AcDbEntity
  8
1
 62
     2
100
AcDbTrace
 10
3027.986148489518
 20
-1380.552869307267
 30
0.0
 11
3027.986148489518
 21
-1381.395445291827
 31
0.0
 12
3024.786148489518
 22
-1380.974157299547
 32
0.0
 13
3024.786148489518
 23
-1380.974157299547
 33
0.0
  0
SOLID
  5
1AE
330
1A7
100
AcDbEntity
  8
1
 62
     2
100
AcDbTrace
 10
3019.986148489518
 20
-1381.395445291827
 30
0.0
 11
3019.986148489518
 21
-1380.552869307267
 31
0.0
 12
3023.186148489518
 22
-1380.974157299547
 32
0.0
 13
3023.186148489518
 23
-1380.974157299547
 33
0.0
  0
MTEXT
  5
1AF
330
1A7
100
AcDbEntity
  8
1
 62
     2
100
AcDbMText
 10
3015.40413652048
 20
-1378.974157299547
 30
0.0
 40
3.2
 41
0.0
 71
     7
 72
     1
  1
1.6
  7
CONVERTER_13
 11
0.9999999999970619
 21
2.424068405545306E-6
 31
0.0
 73
     1
 44
0.60024009603842
  0
ENDBLK
  5
1B1
330
1A7
100
AcDbEntity
  8
0
100
AcDbBlockEnd
  0
BLOCK
  5
1BD
330
1B4
100
AcDbEntity
  8
0
100
AcDbBlockBegin
  2
*D14
 70
     1
 10
0.0
 20
0.0
 30
0.0
  3
*D14
  1

  0
LINE
  5
1B5
330
1B4
100
AcDbEntity
  8
1
  6
Continuous
 62
     2
100
AcDbLine
 10
3024.786148489518
 20
-1460.974157299547
 30
0.0
 11
3018.386148489518
 21
-1460.974157299547
 31
0.0
  0
LINE
  5
1B6
330
1B4
100
AcDbEntity
  8
1
  6
Continuous
 62
     2
100
AcDbLine
 10
3031.786148489518
 20
-1460.974157299547
 30
0.0
 11
3024.786148489518
 21
-1460.974157299547
 31
0.0
  0
LINE
  5
1B7
330
1B4
100
AcDbEntity
  8
1
  6
Continuous
 62
     2
100
AcDbLine
 10
3038.186148489518
 20
-1460.974157299547
 30
0.0
 11
3031.786148489518
 21
-1460.974157299547
 31
0.0
  0
LINE
  5
1B8
330
1B4
100
AcDbEntity
  8
1
  6
Continuous
 62
     2
100
AcDbLine
 10
3024.786148489518
 20
-1451.974157299547
 30
0.0
 11
3024.786148489518
 21
-1462.474157299547
 31
0.0
  0
LINE
  5
1B9
330
1B4
100
AcDbEntity
  8
1
  6
Continuous
 62
     2
100
AcDbLine
 10
3031.786148489518
 20
-1451.974157299547
 30
0.0
 11
3031.786148489518
 21
-1462.474157299547
 31
0.0
  0
SOLID
  5
1BA
330
1B4
100
AcDbEntity
  8
1
 62
     2
100
AcDbTrace
 10
3034.986148489518
 20
-1460.552869307267
 30
0.0
 11
3034.986148489518
 21
-1461.395445291827
 31
0.0
 12
3031.786148489518
 22
-1460.974157299547
 32
0.0
 13
3031.786148489518
 23
-1460.974157299547
 33
0.0
  0
SOLID
  5
1BB
330
1B4
100
AcDbEntity
  8
1
 62
     2
100
AcDbTrace
 10
3021.586148489518
 20
-1461.395445291827
 30
0.0
 11
3021.586148489518
 21
-1460.552869307267
 31
0.0
 12
3024.786148489518
 22
-1460.974157299547
 32
0.0
 13
3024.786148489518
 23
-1460.974157299547
 33
0.0
  0
MTEXT
  5
1BC
330
1B4
100
AcDbEntity
  8
1
 62
     2
100
AcDbMText
 10
3027.31070635358
 20
-1458.974157299547
 30
0.0
 40
3.2
 41
0.0
 71
     7
 72
     1
  1
7
  7
CONVERTER_13
 11
0.9999999999970619
 21
2.424068405545306E-6
 31
0.0
 73
     1
 44
0.60024009603842
  0
ENDBLK
  5
1BE
330
1B4
100
AcDbEntity
  8
0
100
AcDbBlockEnd
  0
BLOCK
  5
1CA
330
1C1
100
AcDbEntity
  8
0
100
AcDbBlockBegin
  2
*D15
 70
     1
 10
0.0
 20
0.0
 30
0.0
  3
*D15
  1

  0
LINE
  5
1C2
330
1C1
100
AcDbEntity
  8
1
  6
Continuous
 62
     2
100
AcDbLine
 10
2990.786148489518
 20
-1417.474157299547
 30
0.0
 11
2990.786148489518
 21
-1382.78702012656
 31
0.0
  0
LINE
  5
1C3
330
1C1
100
AcDbEntity
  8
1
  6
Continuous
 62
     2
100
AcDbLine
 10
2990.786148489518
 20
-1424.974157299548
 30
0.0
 11
2990.786148489518
 21
-1417.474157299547
 31
0.0
  0
LINE
  5
1C4
330
1C1
100
AcDbEntity
  8
1
  6
Continuous
 62
     2
100
AcDbLine
 10
2990.786148489518
 20
-1431.374157299548
 30
0.0
 11
2990.786148489518
 21
-1424.974157299548
 31
0.0
  0
LINE
  5
1C5
330
1C1
100
AcDbEntity
  8
1
  6
Continuous
 62
     2
100
AcDbLine
 10
2999.786148489518
 20
-1417.474157299547
 30
0.0
 11
2989.286148489518
 21
-1417.474157299547
 31
0.0
  0
LINE
  5
1C6
330
1C1
100
AcDbEntity
  8
1
  6
Continuous
 62
     2
100
AcDbLine
 10
3000.286148489518
 20
-1424.974157299548
 30
0.0
 11
2989.286148489518
 21
-1424.974157299548
 31
0.0
  0
SOLID
  5
1C7
330
1C1
100
AcDbEntity
  8
1
 62
     2
100
AcDbTrace
 10
2991.207436481798
 20
-1428.174157299548
 30
0.0
 11
2990.364860497238
 21
-1428.174157299548
 31
0.0
 12
2990.786148489518
 22
-1424.974157299548
 32
0.0
 13
2990.786148489518
 23
-1424.974157299548
 33
0.0
  0
SOLID
  5
1C8
330
1C1
100
AcDbEntity
  8
1
 62
     2
100
AcDbTrace
 10
2990.364860497238
 20
-1414.274157299547
 30
0.0
 11
2991.207436481798
 21
-1414.274157299547
 31
0.0
 12
2990.786148489518
 22
-1417.474157299547
 32
0.0
 13
2990.786148489518
 23
-1417.474157299547
 33
0.0
  0
MTEXT
  5
1C9
330
1C1
100
AcDbEntity
  8
1
 62
     2
100
AcDbMText
 10
2988.63766363956
 20
-1396.22702012656
 30
0.0
 40
3.2
 41
0.0
 71
     7
 72
     1
  1
\C2;7.5\C2;\H1.92;{\Fgdt;`}0.15
  7
CONVERTER_13
 11
0.0
 21
1.0
 31
0.0
 73
     1
 44
0.60024009603842
  0
ENDBLK
  5
1CB
330
1C1
100
AcDbEntity
  8
0
100
AcDbBlockEnd
  0
BLOCK
  5
1D7
330
1CE
100
AcDbEntity
  8
0
100
AcDbBlockBegin
  2
*D16
 70
     1
 10
0.0
 20
0.0
 30
0.0
  3
*D16
  1

  0
LINE
  5
1CF
330
1CE
100
AcDbEntity
  8
1
  6
Continuous
 62
     2
100
AcDbLine
 10
2975.786148489518
 20
-1416.974157299547
 30
0.0
 11
2975.786148489518
 21
-1385.34852835428
 31
0.0
  0
LINE
  5
1D0
330
1CE
100
AcDbEntity
  8
1
  6
Continuous
 62
     2
100
AcDbLine
 10
2975.786148489518
 20
-1424.974157299548
 30
0.0
 11
2975.786148489518
 21
-1416.974157299547
 31
0.0
  0
LINE
  5
1D1
330
1CE
100
AcDbEntity
  8
1
  6
Continuous
 62
     2
100
AcDbLine
 10
2975.786148489518
 20
-1431.374157299548
 30
0.0
 11
2975.786148489518
 21
-1424.974157299548
 31
0.0
  0
LINE
  5
1D2
330
1CE
100
AcDbEntity
  8
1
  6
Continuous
 62
     2
100
AcDbLine
 10
3019.786148489518
 20
-1416.974157299547
 30
0.0
 11
2974.286148489518
 21
-1416.974157299547
 31
0.0
  0
LINE
  5
1D3
330
1CE
100
AcDbEntity
  8
1
  6
Continuous
 62
     2
100
AcDbLine
 10
3000.286148489518
 20
-1424.974157299548
 30
0.0
 11
2974.286148489518
 21
-1424.974157299548
 31
0.0
  0
SOLID
  5
1D4
330
1CE
100
AcDbEntity
  8
1
 62
     2
100
AcDbTrace
 10
2976.207436481798
 20
-1428.174157299548
 30
0.0
 11
2975.364860497238
 21
-1428.174157299548
 31
0.0
 12
2975.786148489518
 22
-1424.974157299548
 32
0.0
 13
2975.786148489518
 23
-1424.974157299548
 33
0.0
  0
SOLID
  5
1D5
330
1CE
100
AcDbEntity
  8
1
 62
     2
100
AcDbTrace
 10
2975.364860497238
 20
-1413.774157299547
 30
0.0
 11
2976.207436481798
 21
-1413.774157299547
 31
0.0
 12
2975.786148489518
 22
-1416.974157299547
 32
0.0
 13
2975.786148489518
 23
-1416.974157299547
 33
0.0
  0
MTEXT
  5
1D6
330
1CE
100
AcDbEntity
  8
1
 62
     2
100
AcDbMText
 10
2972.986148489518
 20
-1399.41252835428
 30
0.0
 40
3.2
 41
0.0
 71
     7
 72
     1
  1
\C2;\U+03c6\C2;\C2;8\C2;\H1.92;\S 0^ -0.015;
  7
CONVERTER_13
 11
0.0
 21
1.0
 31
0.0
 73
     1
 44
0.60024009603842
  0
ENDBLK
  5
1D8
330
1CE
100
AcDbEntity
  8
0
100
AcDbBlockEnd
  0
BLOCK
  5
1E2
330
1DB
100
AcDbEntity
  8
0
100
AcDbBlockBegin
  2
*D17
 70
     1
 10
0.0
 20
0.0
 30
0.0
  3
*D17
  1

  0
LINE
  5
1DC
330
1DB
100
AcDbEntity
  8
1
  6
Continuous
 62
     2
100
AcDbLine
 10
2940.847507307608
 20
-1450.974157299547
 30
0.0
 11
2940.847507307608
 21
-1500.974157299547
 31
0.0
  0
LINE
  5
1DD
330
1DB
100
AcDbEntity
  8
1
  6
Continuous
 62
     2
100
AcDbLine
 10
2916.847507307608
 20
-1450.974157299547
 30
0.0
 11
2942.347507307608
 21
-1450.974157299547
 31
0.0
  0
LINE
  5
1DE
330
1DB
100
AcDbEntity
  8
1
  6
Continuous
 62
     2
100
AcDbLine
 10
2897.847507307608
 20
-1500.974157299547
 30
0.0
 11
2942.347507307608
 21
-1500.974157299547
 31
0.0
  0
SOLID
  5
1DF
330
1DB
100
AcDbEntity
  8
1
 62
     2
100
AcDbTrace
 10
2941.268795299888
 20
-1454.174157299547
 30
0.0
 11
2940.426219315328
 21
-1454.174157299547
 31
0.0
 12
2940.847507307608
 22
-1450.974157299547
 32
0.0
 13
2940.847507307608
 23
-1450.974157299547
 33
0.0
  0
SOLID
  5
1E0
330
1DB
100
AcDbEntity
  8
1
 62
     2
100
AcDbTrace
 10
2940.426219315328
 20
-1497.774157299547
 30
0.0
 11
2941.268795299888
 21
-1497.774157299547
 31
0.0
 12
2940.847507307608
 22
-1500.974157299547
 32
0.0
 13
2940.847507307608
 23
-1500.974157299547
 33
0.0
  0
MTEXT
  5
1E1
330
1DB
100
AcDbEntity
  8
1
 62
     2
100
AcDbMText
 10
2938.047507307608
 20
-1484.168789300328
 30
0.0
 40
3.2
 41
0.0
 71
     7
 72
     1
  1
\C2;300\C2;\H1.92;\S+40^  0;
  7
CONVERTER_13
 11
0.0
 21
1.0
 31
0.0
 73
     1
 44
0.60024009603842
  0
ENDBLK
  5
1E3
330
1DB
100
AcDbEntity
  8
0
100
AcDbBlockEnd
  0
BLOCK
  5
1ED
330
1E6
100
AcDbEntity
  8
0
100
AcDbBlockBegin
  2
*D18
 70
     1
 10
0.0
 20
0.0
 30
0.0
  3
*D18
  1

  0
LINE
  5
1E7
330
1E6
100
AcDbEntity
  8
1
  6
Continuous
 62
     2
100
AcDbLine
 10
2920.847507307608
 20
-1500.974157299547
 30
0.0
 11
2920.847507307608
 21
-1490.974157299547
 31
0.0
  0
LINE
  5
1E8
330
1E6
100
AcDbEntity
  8
1
  6
Continuous
 62
     2
100
AcDbLine
 10
2897.847507307608
 20
-1500.974157299547
 30
0.0
 11
2922.347507307608
 21
-1500.974157299547
 31
0.0
  0
LINE
  5
1E9
330
1E6
100
AcDbEntity
  8
1
  6
Continuous
 62
     2
100
AcDbLine
 10
2898.247507307608
 20
-1490.974157299547
 30
0.0
 11
2922.347507307608
 21
-1490.974157299547
 31
0.0
  0
SOLID
  5
1EA
330
1E6
100
AcDbEntity
  8
1
 62
     2
100
AcDbTrace
 10
2920.426219315328
 20
-1497.774157299547
 30
0.0
 11
2921.268795299888
 21
-1497.774157299547
 31
0.0
 12
2920.847507307608
 22
-1500.974157299547
 32
0.0
 13
2920.847507307608
 23
-1500.974157299547
 33
0.0
  0
SOLID
  5
1EB
330
1E6
100
AcDbEntity
  8
1
 62
     2
100
AcDbTrace
 10
2921.268795299888
 20
-1494.174157299547
 30
0.0
 11
2920.426219315328
 21
-1494.174157299547
 31
0.0
 12
2920.847507307608
 22
-1490.974157299547
 32
0.0
 13
2920.847507307608
 23
-1490.974157299547
 33
0.0
  0
MTEXT
  5
1EC
330
1E6
100
AcDbEntity
  8
1
 62
     2
100
AcDbMText
 10
2918.847507307608
 20
-1500.314460060848
 30
0.0
 40
3.2
 41
0.0
 71
     7
 72
     1
  1
\C2;(\C2;10\C2;)
  7
CONVERTER_13
 11
0.0
 21
1.0
 31
0.0
 73
     1
 44
0.60024009603842
  0
ENDBLK
  5
1EE
330
1E6
100
AcDbEntity
  8
0
100
AcDbBlockEnd
  0
BLOCK
  5
1F6
330
1F1
100
AcDbEntity
  8
0
100
AcDbBlockBegin
  2
*D19
 70
     1
 10
0.0
 20
0.0
 30
0.0
  3
*D19
  1

  0
LINE
  5
1F2
330
1F1
100
AcDbEntity
  8
1
  6
Continuous
 62
     2
100
AcDbLine
 10
2925.450210771
 20
-1380.974157299547
 30
0.0
 11
2958.690210771
 21
-1380.974157299547
 31
0.0
  0
LINE
  5
1F3
330
1F1
100
AcDbEntity
  8
1
  6
Continuous
 62
     2
100
AcDbLine
 10
2915.671822938863
 20
-1395.536219319531
 30
0.0
 11
2925.450210771
 21
-1380.974157299547
 31
0.0
  0
SOLID
  5
1F4
330
1F1
100
AcDbEntity
  8
1
 62
     2
100
AcDbTrace
 10
2917.105987462736
 20
-1392.644739475073
 30
0.0
 11
2917.805489543895
 21
-1393.114453354164
 31
0.0
 12
2915.671822938863
 22
-1395.536219319531
 32
0.0
 13
2915.671822938863
 23
-1395.536219319531
 33
0.0
  0
MTEXT
  5
1F5
330
1F1
100
AcDbEntity
  8
1
 62
     2
100
AcDbMText
 10
2931.858210771023
 20
-1378.974176381814
 30
0.0
 40
3.2
 41
0.0
 71
     7
 72
     1
  1
\C2;4-\U+03c6\C2;4.5\C2;HOLE
  7
CONVERTER_13
 11
0.9999999999970619
 21
2.424068405545306E-6
 31
0.0
 73
     1
 44
0.60024009603842
  0
ENDBLK
  5
1F7
330
1F1
100
AcDbEntity
  8
0
100
AcDbBlockEnd
  0
ENDSEC
  0
SECTION
  2
ENTITIES
  0
INSERT
  5
53
330
1F
100
AcDbEntity
  8
1
100
AcDbBlockReference
  2
\U+00C5\U+00CD\U+00DE\U+00C8M3_\U+00CD\U+00B2\U+00D2\U+00DD_\U+00DE__1
 10
2917.847507307608
 20
-1404.374157299547
 30
0.0
  0
INSERT
  5
54
330
1F
100
AcDbEntity
  8
1
100
AcDbBlockReference
  2
\U+00C5\U+00CD\U+00DE\U+00C8M3_\U+00CD\U+00B2\U+00D2\U+00DD_\U+00DE__2
 10
2874.247507307608
 20
-1393.974157299547
 30
0.0
  0
INSERT
  5
55
330
1F
100
AcDbEntity
  8
1
100
AcDbBlockReference
  2
\U+00C5\U+00CD\U+00DE\U+00C8M3_\U+00CD\U+00B2\U+00D2\U+00DD_\U+00DE__3
 10
2863.847507307608
 20
-1437.574157299547
 30
0.0
  0
INSERT
  5
56
330
1F
100
AcDbEntity
  8
1
100
AcDbBlockReference
  2
\U+00C5\U+00CD\U+00DE\U+00C8M3_\U+00CD\U+00B2\U+00D2\U+00DD_\U+00DE__4
 10
2907.447507307608
 20
-1447.974157299547
 30
0.0
  0
LINE
  5
BF
330
1F
100
AcDbEntity
  8
1
  6
Continuous
 62
     3
100
AcDbLine
 10
3031.786148489518
 20
-1440.574157299547
 30
0.0
 11
3078.786148489518
 21
-1440.574157299547
 31
0.0
  0
LINE
  5
C0
330
1F
100
AcDbEntity
  8
1
  6
Continuous
 62
     3
100
AcDbLine
 10
3031.786148489518
 20
-1450.974157299547
 30
0.0
 11
3031.786148489518
 21
-1440.574157299547
 31
0.0
  0
LINE
  5
C1
330
1F
100
AcDbEntity
  8
1
  6
Continuous
 62
     3
100
AcDbLine
 10
3031.786148489518
 20
-1401.374157299547
 30
0.0
 11
3078.786148489518
 21
-1401.374157299547
 31
0.0
  0
LINE
  5
C2
330
1F
100
AcDbEntity
  8
1
  6
Continuous
 62
     3
100
AcDbLine
 10
3031.786148489518
 20
-1390.974157299547
 30
0.0
 11
3031.786148489518
 21
-1401.374157299547
 31
0.0
  0
LINE
  5
C3
330
1F
100
AcDbEntity
  8
1
  6
Continuous
 62
     3
100
AcDbLine
 10
3023.186148489519
 20
-1440.024157299547
 30
0.0
 11
3024.786148489518
 21
-1440.024157299547
 31
0.0
  0
LINE
  5
C4
330
1F
100
AcDbEntity
  8
1
  6
Continuous
 62
     3
100
AcDbLine
 10
3023.186148489519
 20
-1401.924157299547
 30
0.0
 11
3023.186148489519
 21
-1440.024157299547
 31
0.0
  0
LINE
  5
C5
330
1F
100
AcDbEntity
  8
1
  6
Continuous
 62
     3
100
AcDbLine
 10
3024.786148489518
 20
-1401.924157299547
 30
0.0
 11
3023.186148489519
 21
-1401.924157299547
 31
0.0
  0
LINE
  5
C6
330
1F
100
AcDbEntity
  8
1
  6
Continuous
 62
     1
100
AcDbLine
 10
2996.82442594593
 20
-1420.974157299547
 30
0.0
 11
3082.636903119269
 21
-1420.974157299547
 31
0.0
  0
LINE
  5
C7
330
1F
100
AcDbEntity
  8
1
  6
Continuous
 62
     3
100
AcDbLine
 10
3023.186148489519
 20
-1416.974157299547
 30
0.0
 11
3020.786148489518
 21
-1416.974157299547
 31
0.0
  0
LINE
  5
C8
330
1F
100
AcDbEntity
  8
1
  6
Continuous
 62
     3
100
AcDbLine
 10
3068.786148489518
 20
-1450.974157299547
 30
0.0
 11
3068.786148489518
 21
-1390.974157299547
 31
0.0
  0
LINE
  5
C9
330
1F
100
AcDbEntity
  8
1
  6
Continuous
 62
     3
100
AcDbLine
 10
3034.786148489518
 20
-1390.974157299547
 30
0.0
 11
3034.786148489518
 21
-1450.974157299547
 31
0.0
  0
LINE
  5
CA
330
1F
100
AcDbEntity
  8
1
  6
Continuous
 62
     3
100
AcDbLine
 10
3024.786148489518
 20
-1450.974157299547
 30
0.0
 11
3024.786148489518
 21
-1390.974157299547
 31
0.0
  0
LINE
  5
CB
330
1F
100
AcDbEntity
  8
1
  6
Continuous
 62
     3
100
AcDbLine
 10
3077.986148489518
 20
-1450.974157299547
 30
0.0
 11
3024.786148489518
 21
-1450.974157299547
 31
0.0
  0
LINE
  5
CC
330
1F
100
AcDbEntity
  8
1
  6
Continuous
 62
     3
100
AcDbLine
 10
3078.786148489518
 20
-1391.774157299547
 30
0.0
 11
3078.786148489518
 21
-1450.174157299547
 31
0.0
  0
LINE
  5
CD
330
1F
100
AcDbEntity
  8
1
  6
Continuous
 62
     3
100
AcDbLine
 10
3024.786148489518
 20
-1390.974157299547
 30
0.0
 11
3077.986148489518
 21
-1390.974157299547
 31
0.0
  0
LINE
  5
CE
330
1F
100
AcDbEntity
  8
1
  6
Continuous
 62
     3
100
AcDbLine
 10
2870.747507307608
 20
-1393.974157299547
 30
0.0
 11
2870.747507307608
 21
-1391.974157299547
 31
0.0
  0
LINE
  5
CF
330
1F
100
AcDbEntity
  8
1
  6
Continuous
 62
     3
100
AcDbLine
 10
2877.747507307608
 20
-1393.974157299547
 30
0.0
 11
2877.747507307608
 21
-1391.974157299547
 31
0.0
  0
LINE
  5
D0
330
1F
100
AcDbEntity
  8
1
  6
Continuous
 62
     3
100
AcDbLine
 10
2860.847507307608
 20
-1445.974157299547
 30
0.0
 11
2860.847507307608
 21
-1395.974157299547
 31
0.0
  0
LINE
  5
D1
330
1F
100
AcDbEntity
  8
1
  6
Continuous
 62
     3
100
AcDbLine
 10
2915.847507307608
 20
-1450.974157299547
 30
0.0
 11
2865.847507307608
 21
-1450.974157299547
 31
0.0
  0
LINE
  5
D2
330
1F
100
AcDbEntity
  8
1
  6
Continuous
 62
     3
100
AcDbLine
 10
2920.847507307608
 20
-1395.974157299547
 30
0.0
 11
2920.847507307608
 21
-1445.974157299547
 31
0.0
  0
LINE
  5
D3
330
1F
100
AcDbEntity
  8
1
  6
Continuous
 62
     3
100
AcDbLine
 10
2865.847507307608
 20
-1390.974157299547
 30
0.0
 11
2869.747507307608
 21
-1390.974157299547
 31
0.0
  0
LINE
  5
D4
330
1F
100
AcDbEntity
  8
1
  6
Continuous
 62
     1
100
AcDbLine
 10
2855.847507307608
 20
-1420.974157299547
 30
0.0
 11
2925.847507307608
 21
-1420.974157299547
 31
0.0
  0
LINE
  5
D5
330
1F
100
AcDbEntity
  8
1
  6
Continuous
 62
     1
100
AcDbLine
 10
2890.847507307608
 20
-1385.974157299547
 30
0.0
 11
2890.847507307608
 21
-1457.752605554987
 31
0.0
  0
LINE
  5
D6
330
1F
100
AcDbEntity
  8
1
  6
Continuous
 62
     3
100
AcDbLine
 10
2869.747506690709
 20
-1390.974157299547
 30
0.0
 11
2878.747507307608
 21
-1390.974157299547
 31
0.0
  0
LINE
  5
D7
330
1F
100
AcDbEntity
  8
1
  6
Continuous
 62
     3
100
AcDbLine
 10
2878.747507307608
 20
-1390.974157299547
 30
0.0
 11
2915.847507307608
 21
-1390.974157299547
 31
0.0
  0
LINE
  5
D8
330
1F
100
AcDbEntity
  8
1
  6
Continuous
 62
     1
100
AcDbLine
 10
2858.847507307608
 20
-1437.574157299547
 30
0.0
 11
2868.847507307608
 21
-1437.574157299547
 31
0.0
  0
LINE
  5
D9
330
1F
100
AcDbEntity
  8
1
  6
Continuous
 62
     3
100
AcDbLine
 10
2888.911015634504
 20
-1417.474157299547
 30
0.0
 11
2892.783998980712
 21
-1417.474157299547
 31
0.0
  0
LINE
  5
DA
330
1F
100
AcDbEntity
  8
1
  6
Continuous
 62
     1
100
AcDbLine
 10
2863.777507307608
 20
-1397.404157299547
 30
0.0
 11
2870.777507307608
 21
-1397.404157299547
 31
0.0
  0
LINE
  5
DB
330
1F
100
AcDbEntity
  8
1
  6
Continuous
 62
     1
100
AcDbLine
 10
2867.277507307608
 20
-1400.904157299547
 30
0.0
 11
2867.277507307608
 21
-1393.904157299547
 31
0.0
  0
LINE
  5
DC
330
1F
100
AcDbEntity
  8
1
  6
Continuous
 62
     1
100
AcDbLine
 10
2869.247507307608
 20
-1393.974157299547
 30
0.0
 11
2879.247507307608
 21
-1393.974157299547
 31
0.0
  0
LINE
  5
DD
330
1F
100
AcDbEntity
  8
1
  6
Continuous
 62
     1
100
AcDbLine
 10
2874.247507307608
 20
-1388.974157299547
 30
0.0
 11
2874.247507307608
 21
-1398.974157299547
 31
0.0
  0
LINE
  5
DE
330
1F
100
AcDbEntity
  8
1
  6
Continuous
 62
     2
100
AcDbLine
 10
2878.347507307608
 20
-1471.025606039839
 30
0.0
 11
2903.347507307608
 21
-1471.025606039839
 31
0.0
  0
LINE
  5
DF
330
1F
100
AcDbEntity
  8
1
  6
Continuous
 62
     2
100
AcDbLine
 10
2903.347507307608
 20
-1472.530833865417
 30
0.0
 11
2878.347507307608
 21
-1472.530833865417
 31
0.0
  0
LINE
  5
E0
330
1F
100
AcDbEntity
  8
1
  6
Continuous
 62
     3
100
AcDbLine
 10
2863.847507307608
 20
-1441.074157299547
 30
0.0
 11
2861.847507307608
 21
-1441.074157299547
 31
0.0
  0
LINE
  5
E1
330
1F
100
AcDbEntity
  8
1
  6
Continuous
 62
     3
100
AcDbLine
 10
2910.947507307608
 20
-1447.974157299547
 30
0.0
 11
2910.947507307608
 21
-1449.974157299547
 31
0.0
  0
LINE
  5
E2
330
1F
100
AcDbEntity
  8
1
  6
Continuous
 62
     3
100
AcDbLine
 10
2917.847507307608
 20
-1400.874157299547
 30
0.0
 11
2919.847507307608
 21
-1400.874157299547
 31
0.0
  0
LINE
  5
E3
330
1F
100
AcDbEntity
  8
1
  6
Continuous
 62
     3
100
AcDbLine
 10
2863.847507307608
 20
-1434.074157299547
 30
0.0
 11
2861.847507307608
 21
-1434.074157299547
 31
0.0
  0
LINE
  5
E4
330
1F
100
AcDbEntity
  8
1
  6
Continuous
 62
     3
100
AcDbLine
 10
2903.947507307608
 20
-1447.974157299547
 30
0.0
 11
2903.947507307608
 21
-1449.974157299547
 31
0.0
  0
LINE
  5
E5
330
1F
100
AcDbEntity
  8
1
  6
Continuous
 62
     3
100
AcDbLine
 10
2917.847507307608
 20
-1407.874157299547
 30
0.0
 11
2919.847507307608
 21
-1407.874157299547
 31
0.0
  0
LINE
  5
E6
330
1F
100
AcDbEntity
  8
1
  6
Continuous
 62
     1
100
AcDbLine
 10
2858.847507307608
 20
-1437.574157299547
 30
0.0
 11
2868.847507307608
 21
-1437.574157299547
 31
0.0
  0
LINE
  5
E7
330
1F
100
AcDbEntity
  8
1
  6
Continuous
 62
     1
100
AcDbLine
 10
2907.447507307609
 20
-1452.974157299547
 30
0.0
 11
2907.447507307609
 21
-1442.974157299547
 31
0.0
  0
LINE
  5
E8
330
1F
100
AcDbEntity
  8
1
  6
Continuous
 62
     1
100
AcDbLine
 10
2922.847507307608
 20
-1404.374157299547
 30
0.0
 11
2912.847507307608
 21
-1404.374157299547
 31
0.0
  0
LINE
  5
E9
330
1F
100
AcDbEntity
  8
1
  6
Continuous
 62
     1
100
AcDbLine
 10
2863.847507307608
 20
-1442.574157299548
 30
0.0
 11
2863.847507307608
 21
-1432.574157299548
 31
0.0
  0
LINE
  5
EA
330
1F
100
AcDbEntity
  8
1
  6
Continuous
 62
     1
100
AcDbLine
 10
2912.447507307609
 20
-1447.974157299547
 30
0.0
 11
2902.447507307609
 21
-1447.974157299547
 31
0.0
  0
LINE
  5
EB
330
1F
100
AcDbEntity
  8
1
  6
Continuous
 62
     1
100
AcDbLine
 10
2917.847507307608
 20
-1399.374157299547
 30
0.0
 11
2917.847507307608
 21
-1409.374157299547
 31
0.0
  0
LINE
  5
EC
330
1F
100
AcDbEntity
  8
1
  6
Continuous
 62
     1
100
AcDbLine
 10
2870.777507307608
 20
-1444.544157299547
 30
0.0
 11
2863.777507307608
 21
-1444.544157299547
 31
0.0
  0
LINE
  5
ED
330
1F
100
AcDbEntity
  8
1
  6
Continuous
 62
     1
100
AcDbLine
 10
2914.417507307608
 20
-1441.044157299548
 30
0.0
 11
2914.417507307608
 21
-1448.044157299548
 31
0.0
  0
LINE
  5
EE
330
1F
100
AcDbEntity
  8
1
  6
Continuous
 62
     1
100
AcDbLine
 10
2910.917507307609
 20
-1397.404157299547
 30
0.0
 11
2917.917507307609
 21
-1397.404157299547
 31
0.0
  0
LINE
  5
EF
330
1F
100
AcDbEntity
  8
1
  6
Continuous
 62
     1
100
AcDbLine
 10
2867.277507307608
 20
-1448.044157299547
 30
0.0
 11
2867.277507307608
 21
-1441.044157299547
 31
0.0
  0
LINE
  5
F0
330
1F
100
AcDbEntity
  8
1
  6
Continuous
 62
     1
100
AcDbLine
 10
2917.917507307608
 20
-1444.544157299548
 30
0.0
 11
2910.917507307608
 21
-1444.544157299548
 31
0.0
  0
LINE
  5
F1
330
1F
100
AcDbEntity
  8
1
  6
Continuous
 62
     1
100
AcDbLine
 10
2914.417507307609
 20
-1393.904157299547
 30
0.0
 11
2914.417507307609
 21
-1400.904157299547
 31
0.0
  0
LINE
  5
F2
330
1F
100
AcDbEntity
  8
1
  6
Continuous
 62
     2
100
AcDbLine
 10
2887.647507307608
 20
-1500.974157299547
 30
0.0
 11
2887.647507307608
 21
-1490.974157299547
 31
0.0
  0
LINE
  5
F3
330
1F
100
AcDbEntity
  8
1
  6
Continuous
 62
     2
100
AcDbLine
 10
2887.247507307608
 20
-1500.974157299547
 30
0.0
 11
2887.247507307608
 21
-1490.974157299547
 31
0.0
  0
LINE
  5
F4
330
1F
100
AcDbEntity
  8
1
  6
Continuous
 62
     2
100
AcDbLine
 10
2886.847507307608
 20
-1500.974157299547
 30
0.0
 11
2886.847507307608
 21
-1490.974157299547
 31
0.0
  0
LINE
  5
F5
330
1F
100
AcDbEntity
  8
1
  6
Continuous
 62
     3
100
AcDbLine
 10
2888.047507307608
 20
-1490.974157299547
 30
0.0
 11
2888.047507307608
 21
-1472.530833865417
 31
0.0
  0
LINE
  5
F6
330
1F
100
AcDbEntity
  8
1
  6
Continuous
 62
     3
100
AcDbLine
 10
2886.447507307608
 20
-1490.974157299547
 30
0.0
 11
2888.047507307608
 21
-1490.974157299547
 31
0.0
  0
LINE
  5
F7
330
1F
100
AcDbEntity
  8
1
  6
Continuous
 62
     3
100
AcDbLine
 10
2886.447507307608
 20
-1472.530833865417
 30
0.0
 11
2886.447507307608
 21
-1490.974157299547
 31
0.0
  0
LINE
  5
F8
330
1F
100
AcDbEntity
  8
1
  6
Continuous
 62
     3
100
AcDbLine
 10
2888.047507307608
 20
-1471.025606039839
 30
0.0
 11
2888.047507307608
 21
-1450.974157299547
 31
0.0
  0
LINE
  5
F9
330
1F
100
AcDbEntity
  8
1
  6
Continuous
 62
     3
100
AcDbLine
 10
2886.447507307608
 20
-1450.974157299547
 30
0.0
 11
2886.447507307608
 21
-1471.025606039839
 31
0.0
  0
LINE
  5
FA
330
1F
100
AcDbEntity
  8
1
  6
Continuous
 62
     3
100
AcDbLine
 10
2888.447507307608
 20
-1450.974157299547
 30
0.0
 11
2888.447507307608
 21
-1471.025606039839
 31
0.0
  0
LINE
  5
FB
330
1F
100
AcDbEntity
  8
1
  6
Continuous
 62
     3
100
AcDbLine
 10
2890.047507307608
 20
-1471.025606039839
 30
0.0
 11
2890.047507307608
 21
-1450.974157299547
 31
0.0
  0
LINE
  5
FC
330
1F
100
AcDbEntity
  8
1
  6
Continuous
 62
     3
100
AcDbLine
 10
2888.447507307608
 20
-1472.530833865417
 30
0.0
 11
2888.447507307608
 21
-1490.974157299547
 31
0.0
  0
LINE
  5
FD
330
1F
100
AcDbEntity
  8
1
  6
Continuous
 62
     3
100
AcDbLine
 10
2888.447507307608
 20
-1490.974157299547
 30
0.0
 11
2890.047507307608
 21
-1490.974157299547
 31
0.0
  0
LINE
  5
FE
330
1F
100
AcDbEntity
  8
1
  6
Continuous
 62
     3
100
AcDbLine
 10
2890.047507307608
 20
-1490.974157299547
 30
0.0
 11
2890.047507307608
 21
-1472.530833865417
 31
0.0
  0
LINE
  5
FF
330
1F
100
AcDbEntity
  8
1
  6
Continuous
 62
     2
100
AcDbLine
 10
2888.847507307608
 20
-1500.974157299547
 30
0.0
 11
2888.847507307608
 21
-1490.974157299547
 31
0.0
  0
LINE
  5
100
330
1F
100
AcDbEntity
  8
1
  6
Continuous
 62
     2
100
AcDbLine
 10
2889.247507307608
 20
-1500.974157299547
 30
0.0
 11
2889.247507307608
 21
-1490.974157299547
 31
0.0
  0
LINE
  5
101
330
1F
100
AcDbEntity
  8
1
  6
Continuous
 62
     2
100
AcDbLine
 10
2889.647507307608
 20
-1500.974157299547
 30
0.0
 11
2889.647507307608
 21
-1490.974157299547
 31
0.0
  0
LINE
  5
102
330
1F
100
AcDbEntity
  8
1
  6
Continuous
 62
     2
100
AcDbLine
 10
2892.047507307609
 20
-1490.974157299547
 30
0.0
 11
2892.047507307609
 21
-1500.974157299547
 31
0.0
  0
LINE
  5
103
330
1F
100
AcDbEntity
  8
1
  6
Continuous
 62
     2
100
AcDbLine
 10
2892.447507307609
 20
-1490.974157299547
 30
0.0
 11
2892.447507307609
 21
-1500.974157299547
 31
0.0
  0
LINE
  5
104
330
1F
100
AcDbEntity
  8
1
  6
Continuous
 62
     2
100
AcDbLine
 10
2892.847507307608
 20
-1490.974157299547
 30
0.0
 11
2892.847507307608
 21
-1500.974157299547
 31
0.0
  0
LINE
  5
105
330
1F
100
AcDbEntity
  8
1
  6
Continuous
 62
     3
100
AcDbLine
 10
2891.647507307608
 20
-1472.530833865417
 30
0.0
 11
2891.647507307608
 21
-1490.974157299547
 31
0.0
  0
LINE
  5
106
330
1F
100
AcDbEntity
  8
1
  6
Continuous
 62
     3
100
AcDbLine
 10
2891.647507307608
 20
-1490.974157299547
 30
0.0
 11
2893.247507307608
 21
-1490.974157299547
 31
0.0
  0
LINE
  5
107
330
1F
100
AcDbEntity
  8
1
  6
Continuous
 62
     3
100
AcDbLine
 10
2893.247507307608
 20
-1490.974157299547
 30
0.0
 11
2893.247507307608
 21
-1472.530833865417
 31
0.0
  0
LINE
  5
108
330
1F
100
AcDbEntity
  8
1
  6
Continuous
 62
     3
100
AcDbLine
 10
2891.647507307608
 20
-1450.974157299547
 30
0.0
 11
2891.647507307608
 21
-1471.025606039839
 31
0.0
  0
LINE
  5
109
330
1F
100
AcDbEntity
  8
1
  6
Continuous
 62
     3
100
AcDbLine
 10
2893.247507307608
 20
-1471.025606039839
 30
0.0
 11
2893.247507307608
 21
-1450.974157299547
 31
0.0
  0
LINE
  5
10A
330
1F
100
AcDbEntity
  8
1
  6
Continuous
 62
     3
100
AcDbLine
 10
2895.247507307608
 20
-1471.025606039839
 30
0.0
 11
2895.247507307608
 21
-1450.974157299547
 31
0.0
  0
LINE
  5
10B
330
1F
100
AcDbEntity
  8
1
  6
Continuous
 62
     3
100
AcDbLine
 10
2893.647507307608
 20
-1450.974157299547
 30
0.0
 11
2893.647507307608
 21
-1471.025606039839
 31
0.0
  0
LINE
  5
10C
330
1F
100
AcDbEntity
  8
1
  6
Continuous
 62
     3
100
AcDbLine
 10
2895.247507307608
 20
-1490.974157299547
 30
0.0
 11
2895.247507307608
 21
-1472.530833865417
 31
0.0
  0
LINE
  5
10D
330
1F
100
AcDbEntity
  8
1
  6
Continuous
 62
     3
100
AcDbLine
 10
2893.647507307608
 20
-1490.974157299547
 30
0.0
 11
2895.247507307608
 21
-1490.974157299547
 31
0.0
  0
LINE
  5
10E
330
1F
100
AcDbEntity
  8
1
  6
Continuous
 62
     3
100
AcDbLine
 10
2893.647507307608
 20
-1472.530833865417
 30
0.0
 11
2893.647507307608
 21
-1490.974157299547
 31
0.0
  0
LINE
  5
10F
330
1F
100
AcDbEntity
  8
1
  6
Continuous
 62
     2
100
AcDbLine
 10
2894.847507307608
 20
-1490.974157299547
 30
0.0
 11
2894.847507307608
 21
-1500.974157299547
 31
0.0
  0
LINE
  5
110
330
1F
100
AcDbEntity
  8
1
  6
Continuous
 62
     2
100
AcDbLine
 10
2894.447507307609
 20
-1490.974157299547
 30
0.0
 11
2894.447507307609
 21
-1500.974157299547
 31
0.0
  0
LINE
  5
111
330
1F
100
AcDbEntity
  8
1
  6
Continuous
 62
     2
100
AcDbLine
 10
2894.047507307609
 20
-1490.974157299547
 30
0.0
 11
2894.047507307609
 21
-1500.974157299547
 31
0.0
  0
LINE
  5
112
330
1F
100
AcDbEntity
  8
1
  6
Continuous
 62
     3
100
AcDbLine
 10
3073.986148489519
 20
-1471.025606039839
 30
0.0
 11
3073.986148489519
 21
-1450.974157299547
 31
0.0
  0
LINE
  5
113
330
1F
100
AcDbEntity
  8
1
  6
Continuous
 62
     3
100
AcDbLine
 10
3075.58614848952
 20
-1450.974157299547
 30
0.0
 11
3075.58614848952
 21
-1471.025606039839
 31
0.0
  0
LINE
  5
114
330
1F
100
AcDbEntity
  8
1
  6
Continuous
 62
     2
100
AcDbLine
 10
3079.084551406229
 20
-1471.025606039839
 30
0.0
 11
3069.839157171038
 21
-1471.025606039839
 31
0.0
  0
LINE
  5
115
330
1F
100
AcDbEntity
  8
1
  6
Continuous
 62
     3
100
AcDbLine
 10
3020.786148489518
 20
-1417.474157299547
 30
0.0
 11
3020.786148489518
 21
-1416.974157299547
 31
0.0
  0
LINE
  5
116
330
1F
100
AcDbEntity
  8
1
  6
Continuous
 62
     3
100
AcDbLine
 10
3020.786148489518
 20
-1417.474157299547
 30
0.0
 11
3000.786148489518
 21
-1417.474157299547
 31
0.0
  0
LINE
  5
117
330
1F
100
AcDbEntity
  8
1
  6
Continuous
 62
     3
100
AcDbLine
 10
3001.286148489518
 20
-1417.474157299547
 30
0.0
 11
3001.286148489518
 21
-1424.974157299548
 31
0.0
  0
LINE
  5
118
330
1F
100
AcDbEntity
  8
1
  6
Continuous
 62
     3
100
AcDbLine
 10
3001.286148489518
 20
-1424.974157299548
 30
0.0
 11
3000.786148489518
 21
-1424.474157299547
 31
0.0
  0
LINE
  5
119
330
1F
100
AcDbEntity
  8
1
  6
Continuous
 62
     3
100
AcDbLine
 10
3001.286148489518
 20
-1424.974157299548
 30
0.0
 11
3023.186148489519
 21
-1424.974157299547
 31
0.0
  0
LINE
  5
11A
330
1F
100
AcDbEntity
  8
1
  6
Continuous
 62
     3
100
AcDbLine
 10
3000.786148489518
 20
-1417.474157299547
 30
0.0
 11
3000.786148489518
 21
-1424.474157299547
 31
0.0
  0
LINE
  5
11B
330
1F
100
AcDbEntity
  8
1
  6
Continuous
 62
     1
100
AcDbLine
 10
3033.233541644178
 20
-1397.404157299547
 30
0.0
 11
3023.956998384468
 21
-1397.404157299547
 31
0.0
  0
LINE
  5
11C
330
1F
100
AcDbEntity
  8
1
  6
Continuous
 62
     1
100
AcDbLine
 10
3033.233541644178
 20
-1444.544157299547
 30
0.0
 11
3023.956998384468
 21
-1444.544157299547
 31
0.0
  0
LINE
  5
11D
330
1F
100
AcDbEntity
  8
1
  6
Continuous
 62
     3
100
AcDbLine
 10
2886.047507307608
 20
-1471.025606039839
 30
0.0
 11
2886.047507307608
 21
-1450.974157299547
 31
0.0
  0
LINE
  5
11E
330
1F
100
AcDbEntity
  8
1
  6
Continuous
 62
     3
100
AcDbLine
 10
2884.447507307608
 20
-1450.974157299547
 30
0.0
 11
2884.447507307608
 21
-1471.025606039839
 31
0.0
  0
LINE
  5
11F
330
1F
100
AcDbEntity
  8
1
  6
Continuous
 62
     3
100
AcDbLine
 10
2886.047507307608
 20
-1490.974157299547
 30
0.0
 11
2886.047507307608
 21
-1472.530833865417
 31
0.0
  0
LINE
  5
120
330
1F
100
AcDbEntity
  8
1
  6
Continuous
 62
     2
100
AcDbLine
 10
2885.647507307608
 20
-1500.974157299547
 30
0.0
 11
2885.647507307608
 21
-1490.974157299547
 31
0.0
  0
LINE
  5
121
330
1F
100
AcDbEntity
  8
1
  6
Continuous
 62
     2
100
AcDbLine
 10
2884.847507307608
 20
-1500.974157299547
 30
0.0
 11
2884.847507307608
 21
-1490.974157299547
 31
0.0
  0
LINE
  5
122
330
1F
100
AcDbEntity
  8
1
  6
Continuous
 62
     2
100
AcDbLine
 10
2885.247507307608
 20
-1500.974157299547
 30
0.0
 11
2885.247507307608
 21
-1490.974157299547
 31
0.0
  0
LINE
  5
123
330
1F
100
AcDbEntity
  8
1
  6
Continuous
 62
     3
100
AcDbLine
 10
2884.447507307608
 20
-1472.530833865417
 30
0.0
 11
2884.447507307608
 21
-1490.974157299547
 31
0.0
  0
LINE
  5
124
330
1F
100
AcDbEntity
  8
1
  6
Continuous
 62
     3
100
AcDbLine
 10
2884.447507307608
 20
-1490.974157299547
 30
0.0
 11
2886.047507307608
 21
-1490.974157299547
 31
0.0
  0
LINE
  5
125
330
1F
100
AcDbEntity
  8
1
  6
Continuous
 62
     2
100
AcDbLine
 10
2896.047507307609
 20
-1490.974157299547
 30
0.0
 11
2896.047507307609
 21
-1500.974157299547
 31
0.0
  0
LINE
  5
126
330
1F
100
AcDbEntity
  8
1
  6
Continuous
 62
     2
100
AcDbLine
 10
2896.447507307609
 20
-1490.974157299547
 30
0.0
 11
2896.447507307609
 21
-1500.974157299547
 31
0.0
  0
LINE
  5
127
330
1F
100
AcDbEntity
  8
1
  6
Continuous
 62
     2
100
AcDbLine
 10
2896.847507307608
 20
-1490.974157299547
 30
0.0
 11
2896.847507307608
 21
-1500.974157299547
 31
0.0
  0
LINE
  5
128
330
1F
100
AcDbEntity
  8
1
  6
Continuous
 62
     3
100
AcDbLine
 10
2895.647507307608
 20
-1490.974157299547
 30
0.0
 11
2897.247507307608
 21
-1490.974157299547
 31
0.0
  0
LINE
  5
129
330
1F
100
AcDbEntity
  8
1
  6
Continuous
 62
     3
100
AcDbLine
 10
2895.647507307608
 20
-1472.530833865417
 30
0.0
 11
2895.647507307608
 21
-1490.974157299547
 31
0.0
  0
LINE
  5
12A
330
1F
100
AcDbEntity
  8
1
  6
Continuous
 62
     3
100
AcDbLine
 10
2897.247507307608
 20
-1490.974157299547
 30
0.0
 11
2897.247507307608
 21
-1472.530833865417
 31
0.0
  0
LINE
  5
12B
330
1F
100
AcDbEntity
  8
1
  6
Continuous
 62
     3
100
AcDbLine
 10
2895.647507307608
 20
-1450.974157299547
 30
0.0
 11
2895.647507307608
 21
-1471.025606039839
 31
0.0
  0
LINE
  5
12C
330
1F
100
AcDbEntity
  8
1
  6
Continuous
 62
     3
100
AcDbLine
 10
2897.247507307608
 20
-1471.025606039839
 30
0.0
 11
2897.247507307608
 21
-1450.974157299547
 31
0.0
  0
ARC
  5
12D
330
1F
100
AcDbEntity
  8
1
  6
Continuous
 62
     3
100
AcDbCircle
 10
2907.447507307608
 20
-1447.974157299547
 30
0.0
 40
3.5
100
AcDbArc
 50
0.0
 51
180.0
  0
ARC
  5
12E
330
1F
100
AcDbEntity
  8
1
  6
Continuous
 62
     3
100
AcDbCircle
 10
2863.847507307608
 20
-1437.574157299547
 30
0.0
 40
3.5
100
AcDbArc
 50
270.0
 51
90.0
  0
ARC
  5
12F
330
1F
100
AcDbEntity
  8
1
  6
Continuous
 62
     3
100
AcDbCircle
 10
2874.247507307608
 20
-1393.974157299547
 30
0.0
 40
3.5
100
AcDbArc
 50
180.0
 51
0.0
  0
ARC
  5
130
330
1F
100
AcDbEntity
  8
1
  6
Continuous
 62
     3
100
AcDbCircle
 10
2917.847507307608
 20
-1404.374157299547
 30
0.0
 40
3.5
100
AcDbArc
 50
90.0
 51
270.0
  0
ARC
  5
131
330
1F
100
AcDbEntity
  8
1
  6
Continuous
 62
     3
100
AcDbCircle
 10
2915.847507307608
 20
-1395.974157299547
 30
0.0
 40
5.0
100
AcDbArc
 50
0.0
 51
90.0
  0
ARC
  5
132
330
1F
100
AcDbEntity
  8
1
  6
Continuous
 62
     3
100
AcDbCircle
 10
2915.847507307608
 20
-1445.974157299547
 30
0.0
 40
5.0
100
AcDbArc
 50
270.0
 51
0.0
  0
ARC
  5
133
330
1F
100
AcDbEntity
  8
1
  6
Continuous
 62
     3
100
AcDbCircle
 10
2865.847507307608
 20
-1445.974157299547
 30
0.0
 40
5.0
100
AcDbArc
 50
180.0
 51
270.0
  0
ARC
  5
134
330
1F
100
AcDbEntity
  8
1
  6
Continuous
 62
     3
100
AcDbCircle
 10
2865.847507307608
 20
-1395.974157299547
 30
0.0
 40
5.0
100
AcDbArc
 50
90.0
 51
180.0
  0
CIRCLE
  5
135
330
1F
100
AcDbEntity
  8
1
  6
Continuous
 62
     3
100
AcDbCircle
 10
2914.417507307608
 20
-1444.544157299547
 30
0.0
 40
2.25
  0
CIRCLE
  5
136
330
1F
100
AcDbEntity
  8
1
  6
Continuous
 62
     3
100
AcDbCircle
 10
2867.277507307609
 20
-1444.544157299547
 30
0.0
 40
2.25
  0
CIRCLE
  5
137
330
1F
100
AcDbEntity
  8
1
  6
Continuous
 62
     3
100
AcDbCircle
 10
2867.277507307609
 20
-1397.404157299547
 30
0.0
 40
2.25
  0
CIRCLE
  5
138
330
1F
100
AcDbEntity
  8
1
  6
Continuous
 62
     3
100
AcDbCircle
 10
2914.417507307608
 20
-1397.404157299547
 30
0.0
 40
2.25
  0
CIRCLE
  5
139
330
1F
100
AcDbEntity
  8
1
  6
Continuous
 62
     3
100
AcDbCircle
 10
2890.847507307608
 20
-1420.974157299547
 30
0.0
 40
17.5
  0
CIRCLE
  5
13A
330
1F
100
AcDbEntity
  8
1
  6
Continuous
 62
     3
100
AcDbCircle
 10
2890.847507307608
 20
-1420.974157299547
 30
0.0
 40
19.05000000000018
  0
CIRCLE
  5
13B
330
1F
100
AcDbEntity
  8
1
  6
Continuous
 62
     3
100
AcDbCircle
 10
2890.847507307608
 20
-1420.974157299547
 30
0.0
 40
14.5
  0
CIRCLE
  5
13C
330
1F
100
AcDbEntity
  8
1
  6
Continuous
 62
     3
100
AcDbCircle
 10
2890.847507307608
 20
-1420.974157299547
 30
0.0
 40
4.75
  0
CIRCLE
  5
13D
330
1F
100
AcDbEntity
  8
1
  6
Continuous
 62
     3
100
AcDbCircle
 10
2890.847507307608
 20
-1420.974157299547
 30
0.0
 40
4.0
  0
ARC
  5
13E
330
1F
100
AcDbEntity
  8
1
  6
Continuous
 62
     3
100
AcDbCircle
 10
2869.747507307608
 20
-1391.974157299547
 30
0.0
 40
1.0
100
AcDbArc
 50
0.0
 51
90.0
  0
ARC
  5
13F
330
1F
100
AcDbEntity
  8
1
  6
Continuous
 62
     3
100
AcDbCircle
 10
2878.747507307608
 20
-1391.974157299547
 30
0.0
 40
1.0
100
AcDbArc
 50
90.0
 51
180.0
  0
ARC
  5
140
330
1F
100
AcDbEntity
  8
1
  6
Continuous
 62
     3
100
AcDbCircle
 10
2861.847507307608
 20
-1442.074157299547
 30
0.0
 40
1.0
100
AcDbArc
 50
90.0
 51
180.0
  0
ARC
  5
141
330
1F
100
AcDbEntity
  8
1
  6
Continuous
 62
     3
100
AcDbCircle
 10
2911.947507307608
 20
-1449.974157299547
 30
0.0
 40
1.0
100
AcDbArc
 50
180.0
 51
270.0
  0
ARC
  5
142
330
1F
100
AcDbEntity
  8
1
  6
Continuous
 62
     3
100
AcDbCircle
 10
2919.847507307608
 20
-1399.874157299547
 30
0.0
 40
1.0
100
AcDbArc
 50
270.0
 51
0.0
  0
ARC
  5
143
330
1F
100
AcDbEntity
  8
1
  6
Continuous
 62
     3
100
AcDbCircle
 10
2861.847507307608
 20
-1433.074157299547
 30
0.0
 40
1.0
100
AcDbArc
 50
180.0
 51
270.0
  0
ARC
  5
144
330
1F
100
AcDbEntity
  8
1
  6
Continuous
 62
     3
100
AcDbCircle
 10
2902.947507307608
 20
-1449.974157299547
 30
0.0
 40
1.0
100
AcDbArc
 50
270.0
 51
0.0
  0
ARC
  5
145
330
1F
100
AcDbEntity
  8
1
  6
Continuous
 62
     3
100
AcDbCircle
 10
2919.847507307608
 20
-1408.874157299547
 30
0.0
 40
1.0
100
AcDbArc
 50
0.0
 51
90.0
  0
ARC
  5
146
330
1F
100
AcDbEntity
  8
1
  6
Continuous
 62
     3
100
AcDbCircle
 10
3077.986148489518
 20
-1391.774157299547
 30
0.0
 40
0.7999999999997272
100
AcDbArc
 50
0.0
 51
90.0
  0
ARC
  5
147
330
1F
100
AcDbEntity
  8
1
  6
Continuous
 62
     3
100
AcDbCircle
 10
3077.986148489518
 20
-1450.174157299547
 30
0.0
 40
0.7999999999999545
100
AcDbArc
 50
270.0
 51
0.0
  0
SOLID
  5
148
330
1F
100
AcDbEntity
  8
1
 62
     2
100
AcDbTrace
 10
2882.216509429438
 20
-1463.735335064177
 30
0.0
 11
2881.763458147845
 21
-1463.088256845874
 31
0.0
 12
2884.447507307608
 22
-1461.691162887307
 32
0.0
 13
2884.447507307608
 23
-1461.691162887307
 33
0.0
  0
LEADER
  5
149
330
1F
100
AcDbEntity
  8
1
  6
Continuous
 62
     2
100
AcDbLeader
  3
Standard
 71
     0
 76
     3
 10
2884.447507307608
 20
-1461.691162887307
 30
0.0
 10
2871.867605210458
 20
-1470.498970979467
 30
0.0
 10
2838.509242120308
 20
-1470.498970979467
 30
0.0
  0
TEXT
  5
14B
330
1F
100
AcDbEntity
  8
1
 62
     2
100
AcDbText
 10
3022.799607885962
 20
-1466.477333013639
 30
0.0
 40
2.5
  1
[0.275]
 41
0.642
  7
CONVERTER_11
100
AcDbText
  0
TEXT
  5
14D
330
1F
100
AcDbEntity
  8
1
 62
     2
100
AcDbText
 10
2839.229308215324
 20
-1469.174250489809
 30
0.0
 40
3.2
  1
UL3266 AWG22
 41
0.856
  7
CONVERTER_12
100
AcDbText
  0
DIMENSION
  5
159
330
1F
100
AcDbEntity
  8
1
100
AcDbDimension
  2
*D5
 10
2930.847507307608
 20
-1444.544157299548
 30
0.0
 11
2928.03419533575
 21
-1421.10999751276
 31
0.0
 70
    32
  1
<>
 71
     5
 42
-1.0
 53
90.0
  3
ME10_DIM_10
100
AcDbAlignedDimension
 13
2917.917507307609
 23
-1397.404157299547
 33
0.0
 14
2917.917507307608
 24
-1444.544157299548
 34
0.0
 50
90.0
100
AcDbRotatedDimension
  0
DIMENSION
  5
164
330
1F
100
AcDbEntity
  8
1
100
AcDbDimension
  2
*D6
 10
2965.786148489519
 20
-1440.024157299547
 30
0.0
 11
2962.186148489519
 21
-1419.80217337349
 31
0.0
 70
    32
  1
<>
 71
     5
 42
-1.0
 53
90.0
  3
ME10_DIM_11
100
AcDbAlignedDimension
 13
3023.186148489519
 23
-1401.924157299547
 33
0.0
 14
3023.186148489519
 24
-1440.024157299547
 34
0.0
 50
90.0
100
AcDbRotatedDimension
  0
DIMENSION
  5
16F
330
1F
100
AcDbEntity
  8
1
100
AcDbDimension
  2
*D7
 10
2920.847507307608
 20
-1370.974157299547
 30
0.0
 11
2890.847507307608
 21
-1367.374157299547
 31
0.0
 70
    32
  1
<>)
 71
     5
 42
-1.0
 53
0.00013888888889
  3
ME10_DIM_12
100
AcDbAlignedDimension
 13
2860.847507307608
 23
-1395.974157299547
 33
0.0
 14
2920.847507307608
 24
-1395.974157299547
 34
0.0
100
AcDbRotatedDimension
  0
DIMENSION
  5
17A
330
1F
100
AcDbEntity
  8
1
100
AcDbDimension
  2
*D8
 10
2867.277507307608
 20
-1380.974157299547
 30
0.0
 11
2890.74375201454
 21
-1377.92383192733
 31
0.0
 70
    32
  1
<>
 71
     5
 42
-1.0
 53
0.00013888888889
  3
ME10_DIM_13
100
AcDbAlignedDimension
 13
2914.417507307609
 23
-1393.904157299547
 33
0.0
 14
2867.277507307608
 24
-1393.904157299547
 34
0.0
100
AcDbRotatedDimension
  0
DIMENSION
  5
185
330
1F
100
AcDbEntity
  8
1
100
AcDbDimension
  2
*D9
 10
2940.847507307608
 20
-1390.974157299547
 30
0.0
 11
2937.247507307608
 21
-1420.974157299547
 31
0.0
 70
    32
  1
<>)
 71
     5
 42
-1.0
 53
90.0
  3
ME10_DIM_14
100
AcDbAlignedDimension
 13
2915.847507307608
 23
-1450.974157299547
 33
0.0
 14
2915.847507307608
 24
-1390.974157299547
 34
0.0
 50
90.0
100
AcDbRotatedDimension
  0
DIMENSION
  5
190
330
1F
100
AcDbEntity
  8
1
100
AcDbDimension
  2
*D10
 10
3024.786148489519
 20
-1370.974157299547
 30
0.0
 11
3051.253566700711
 21
-1367.374157299547
 31
0.0
 70
    32
  1
<>)
 71
     5
 42
-1.0
 53
0.00013888888889
  3
ME10_DIM_15
100
AcDbAlignedDimension
 13
3078.786148489518
 23
-1391.774157299547
 33
0.0
 14
3024.786148489518
 24
-1390.974157299547
 34
0.0
100
AcDbRotatedDimension
  0
DIMENSION
  5
19B
330
1F
100
AcDbEntity
  8
1
100
AcDbDimension
  2
*D11
 10
3024.786148489518
 20
-1370.974157299547
 30
0.0
 11
3013.45914880933
 21
-1367.374157299547
 31
0.0
 70
    32
  1
<>
 71
     5
 42
-1.0
 53
0.00013888888889
  3
ME10_DIM_16
100
AcDbAlignedDimension
 13
3000.786148489518
 23
-1417.474157299547
 33
0.0
 14
3024.786148489518
 24
-1390.974157299547
 34
0.0
100
AcDbRotatedDimension
  0
DIMENSION
  5
1A6
330
1F
100
AcDbEntity
  8
1
100
AcDbDimension
  2
*D12
 10
3020.786148489518
 20
-1390.974157299547
 30
0.0
 11
3011.16225048444
 21
-1387.374157299547
 31
0.0
 70
    32
  1
<>
 71
     5
 42
-1.0
 53
0.00013888888889
  3
ME10_DIM_17
100
AcDbAlignedDimension
 13
3000.786148489518
 23
-1417.474157299547
 33
0.0
 14
3020.786148489518
 24
-1416.974157299547
 34
0.0
100
AcDbRotatedDimension
  0
DIMENSION
  5
1B3
330
1F
100
AcDbEntity
  8
1
100
AcDbDimension
  2
*D13
 10
3024.786148489518
 20
-1380.974157299547
 30
0.0
 11
3017.84413652048
 21
-1377.374157299547
 31
0.0
 70
    32
  1
<>
 71
     5
 42
-1.0
 53
0.00013888888889
  3
ME10_DIM_18
100
AcDbAlignedDimension
 13
3023.186148489519
 23
-1401.924157299547
 33
0.0
 14
3024.786148489518
 24
-1390.974157299547
 34
0.0
100
AcDbRotatedDimension
  0
DIMENSION
  5
1C0
330
1F
100
AcDbEntity
  8
1
100
AcDbDimension
  2
*D14
 10
3031.786148489518
 20
-1460.974157299547
 30
0.0
 11
3028.27070635358
 21
-1457.374157299547
 31
0.0
 70
    32
  1
<>
 71
     5
 42
-1.0
 53
0.00013888888889
  3
ME10_DIM_19
100
AcDbAlignedDimension
 13
3024.786148489518
 23
-1450.974157299547
 33
0.0
 14
3031.786148489518
 24
-1450.974157299547
 34
0.0
100
AcDbRotatedDimension
  0
DIMENSION
  5
1CD
330
1F
100
AcDbEntity
  8
1
100
AcDbDimension
  2
*D15
 10
2990.786148489518
 20
-1424.974157299548
 30
0.0
 11
2987.03766363956
 21
-1389.50702012656
 31
0.0
 70
    32
  1
<>
 71
     5
 42
-1.0
 53
90.0
  3
ME10_DIM_20
100
AcDbAlignedDimension
 13
3000.786148489518
 23
-1417.474157299547
 33
0.0
 14
3001.286148489518
 24
-1424.974157299548
 34
0.0
 50
90.0
100
AcDbRotatedDimension
  0
DIMENSION
  5
1DA
330
1F
100
AcDbEntity
  8
1
100
AcDbDimension
  2
*D16
 10
2975.786148489518
 20
-1424.974157299548
 30
0.0
 11
2971.386148489518
 21
-1392.88852835428
 31
0.0
 70
    32
  1
<>
 71
     5
 42
-1.0
 53
90.0
  3
ME10_DIM_21
100
AcDbAlignedDimension
 13
3020.786148489518
 23
-1416.974157299547
 33
0.0
 14
3001.286148489518
 24
-1424.974157299548
 34
0.0
 50
90.0
100
AcDbRotatedDimension
  0
DIMENSION
  5
1E5
330
1F
100
AcDbEntity
  8
1
100
AcDbDimension
  2
*D17
 10
2940.847507307608
 20
-1450.974157299547
 30
0.0
 11
2936.447507307608
 21
-1477.320789300328
 31
0.0
 70
    32
  1
300
 71
     5
 42
-1.0
 53
90.0
  3
ME10_DIM_22
100
AcDbAlignedDimension
 13
2896.847507307608
 23
-1500.974157299547
 33
0.0
 14
2915.847507307608
 24
-1450.974157299547
 34
0.0
 50
90.0
100
AcDbRotatedDimension
  0
DIMENSION
  5
1F0
330
1F
100
AcDbEntity
  8
1
100
AcDbDimension
  2
*D18
 10
2920.847507307608
 20
-1500.974157299547
 30
0.0
 11
2917.247507307608
 21
-1495.770460060848
 31
0.0
 70
    32
  1
<>)
 71
     5
 42
-1.0
 53
90.0
  3
ME10_DIM_23
100
AcDbAlignedDimension
 13
2897.247507307608
 23
-1490.974157299547
 33
0.0
 14
2896.847507307608
 24
-1500.974157299547
 34
0.0
 50
90.0
100
AcDbRotatedDimension
  0
INSERT
  5
1F8
330
1F
100
AcDbEntity
  8
1
100
AcDbBlockReference
  2
*D19
 10
0.0
 20
0.0
 30
0.0
  0
ENDSEC
  0
SECTION
  2
OBJECTS
  0
DICTIONARY
  5
C
330
0
100
AcDbDictionary
281
     1
  3
ACAD_GROUP
350
D
  3
ACAD_LAYOUT
350
1A
  3
ACAD_MATERIAL
350
3B
  3
ACAD_MLEADERSTYLE
350
1FB
  3
ACAD_MLINESTYLE
350
17
  3
ACAD_PLOTSETTINGS
350
19
  3
ACAD_PLOTSTYLENAME
350
E
  3
ACAD_VISUALSTYLE
350
2A
  3
AcDbVariableDictionary
350
1F9
  0
DICTIONARY
  5
D
102
{ACAD_REACTORS
330
C
102
}
330
C
100
AcDbDictionary
281
     1
  0
DICTIONARY
  5
1A
102
{ACAD_REACTORS
330
C
102
}
330
C
100
AcDbDictionary
281
     1
  3
Layout1
350
1E
  3
Layout2
350
26
  3
Model
350
22
  0
DICTIONARY
  5
3B
102
{ACAD_REACTORS
330
C
102
}
330
C
100
AcDbDictionary
281
     1
  3
ByBlock
350
3D
  3
ByLayer
350
3C
  3
Global
350
3E
  0
DICTIONARY
  5
1FB
102
{ACAD_REACTORS
330
C
102
}
330
C
100
AcDbDictionary
281
     1
  0
DICTIONARY
  5
17
102
{ACAD_REACTORS
330
C
102
}
330
C
100
AcDbDictionary
281
     1
  3
Standard
350
18
  0
DICTIONARY
  5
19
102
{ACAD_REACTORS
330
C
102
}
330
C
100
AcDbDictionary
281
     1
  0
ACDBDICTIONARYWDFLT
  5
E
102
{ACAD_REACTORS
330
C
102
}
330
C
100
AcDbDictionary
281
     1
  3
Normal
350
F
100
AcDbDictionaryWithDefault
340
F
  0
DICTIONARY
  5
2A
102
{ACAD_REACTORS
330
C
102
}
330
C
100
AcDbDictionary
281
     1
  3
2dWireframe
350
2F
  3
3D Hidden
350
31
  3
3dWireframe
350
30
  3
Basic
350
32
  3
Brighten
350
36
  3
ColorChange
350
3A
  3
Conceptual
350
34
  3
Dim
350
35
  3
Facepattern
350
39
  3
Flat
350
2B
  3
FlatWithEdges
350
2C
  3
Gouraud
350
2D
  3
GouraudWithEdges
350
2E
  3
Linepattern
350
38
  3
Realistic
350
33
  3
Thicken
350
37
  0
DICTIONARY
  5
1F9
102
{ACAD_REACTORS
330
C
102
}
330
C
100
AcDbDictionary
281
     1
  3
DIMASSOC
350
1FC
  3
HIDETEXT
350
1FD
  0
LAYOUT
  5
1E
102
{ACAD_REACTORS
330
1A
102
}
330
1A
100
AcDbPlotSettings
  1

  2
none_device
  4

  6

 40
0.0
 41
0.0
 42
0.0
 43
0.0
 44
0.0
 45
0.0
 46
0.0
 47
0.0
 48
0.0
 49
0.0
140
0.0
141
0.0
142
1.0
143
1.0
 70
   688
 72
     0
 73
     0
 74
     5
  7

 75
    16
147
1.0
148
0.0
149
0.0
100
AcDbLayout
  1
Layout1
 70
     1
 71
     1
 10
0.0
 20
0.0
 11
12.0
 21
9.0
 12
0.0
 22
0.0
 32
0.0
 14
1.00000000000000E+20
 24
1.00000000000000E+20
 34
1.00000000000000E+20
 15
-1.00000000000000E+20
 25
-1.00000000000000E+20
 35
-1.00000000000000E+20
146
0.0
 13
0.0
 23
0.0
 33
0.0
 16
1.0
 26
0.0
 36
0.0
 17
0.0
 27
1.0
 37
0.0
 76
     0
330
1B
  0
LAYOUT
  5
26
102
{ACAD_REACTORS
330
1A
102
}
330
1A
100
AcDbPlotSettings
  1

  2
none_device
  4

  6

 40
0.0
 41
0.0
 42
0.0
 43
0.0
 44
0.0
 45
0.0
 46
0.0
 47
0.0
 48
0.0
 49
0.0
140
0.0
141
0.0
142
1.0
143
1.0
 70
   688
 72
     0
 73
     0
 74
     5
  7

 75
    16
147
1.0
148
0.0
149
0.0
100
AcDbLayout
  1
Layout2
 70
     1
 71
     2
 10
0.0
 20
0.0
 11
0.0
 21
0.0
 12
0.0
 22
0.0
 32
0.0
 14
0.0
 24
0.0
 34
0.0
 15
0.0
 25
0.0
 35
0.0
146
0.0
 13
0.0
 23
0.0
 33
0.0
 16
1.0
 26
0.0
 36
0.0
 17
0.0
 27
1.0
 37
0.0
 76
     0
330
23
  0
LAYOUT
  5
22
102
{ACAD_REACTORS
330
1A
102
}
330
1A
100
AcDbPlotSettings
  1

  2
none_device
  4

  6

 40
0.0
 41
0.0
 42
0.0
 43
0.0
 44
0.0
 45
0.0
 46
0.0
 47
0.0
 48
0.0
 49
0.0
140
0.0
141
0.0
142
1.0
143
1.0
 70
  1712
 72
     0
 73
     0
 74
     0
  7

 75
     0
147
1.0
148
0.0
149
0.0
100
AcDbLayout
  1
Model
 70
     1
 71
     0
 10
0.0
 20
0.0
 11
12.0
 21
9.0
 12
0.0
 22
0.0
 32
0.0
 14
2838.509242120308
 24
-1500.974157299547
 34
0.0
 15
3082.636903119269
 25
-1365.774157299547
 35
0.0
146
0.0
 13
0.0
 23
0.0
 33
0.0
 16
1.0
 26
0.0
 36
0.0
 17
0.0
 27
1.0
 37
0.0
 76
     0
330
1F
331
29
  0
MATERIAL
  5
3D
102
{ACAD_REACTORS
330
3B
102
}
102
{ACAD_XDICTIONARY
360
220
102
}
330
3B
100
AcDbMaterial
  1
ByBlock
  0
MATERIAL
  5
3C
102
{ACAD_REACTORS
330
3B
102
}
102
{ACAD_XDICTIONARY
360
21E
102
}
330
3B
100
AcDbMaterial
  1
ByLayer
  0
MATERIAL
  5
3E
102
{ACAD_REACTORS
330
3B
102
}
102
{ACAD_XDICTIONARY
360
222
102
}
330
3B
100
AcDbMaterial
  1
Global
  0
MLINESTYLE
  5
18
102
{ACAD_REACTORS
330
17
102
}
330
17
100
AcDbMlineStyle
  2
Standard
 70
     0
  3

 62
   256
 51
90.0
 52
90.0
 71
     2
 49
0.5
 62
   256
  6
BYLAYER
 49
-0.5
 62
   256
  6
BYLAYER
  0
ACDBPLACEHOLDER
  5
F
102
{ACAD_REACTORS
330
E
102
}
330
E
  0
VISUALSTYLE
  5
2F
102
{ACAD_REACTORS
330
2A
102
}
102
{ACAD_XDICTIONARY
360
206
102
}
330
2A
100
AcDbVisualStyle
  2
2dWireframe
 70
     4
 71
     0
 72
     2
 73
     0
 90
        0
 40
-0.6
 41
-30.0
 62
     5
 63
     7
 74
     1
 91
        4
 64
     7
 65
   257
 75
     1
175
     1
 42
1.0
 92
        0
 66
   257
 43
1.0
 76
     1
 77
     6
 78
     2
 67
     7
 79
     5
170
     0
171
     0
290
     0
174
     0
 93
        1
 44
0.0
173
     0
291
     0
 45
0.0
1001
ACAD
1000
AcDbSavedByObjectVersion
1070
     0
  0
VISUALSTYLE
  5
31
102
{ACAD_REACTORS
330
2A
102
}
102
{ACAD_XDICTIONARY
360
20A
102
}
330
2A
100
AcDbVisualStyle
  2
3D Hidden
 70
     6
 71
     1
 72
     2
 73
     2
 90
        0
 40
-0.6
 41
-30.0
 62
     5
 63
     7
 74
     2
 91
        2
 64
     7
 65
   257
 75
     2
175
     1
 42
40.0
 92
        0
 66
   257
 43
1.0
 76
     1
 77
     6
 78
     2
 67
     7
 79
     3
170
     0
171
     0
290
     0
174
     0
 93
        1
 44
0.0
173
     0
291
     0
 45
0.0
1001
ACAD
1000
AcDbSavedByObjectVersion
1070
     0
  0
VISUALSTYLE
  5
30
102
{ACAD_REACTORS
330
2A
102
}
102
{ACAD_XDICTIONARY
360
208
102
}
330
2A
100
AcDbVisualStyle
  2
3dWireframe
 70
     5
 71
     0
 72
     2
 73
     0
 90
        0
 40
-0.6
 41
-30.0
 62
     5
 63
     7
 74
     1
 91
        4
 64
     7
 65
   257
 75
     1
175
     1
 42
1.0
 92
        0
 66
   257
 43
1.0
 76
     1
 77
     6
 78
     2
 67
     7
 79
     5
170
     0
171
     0
290
     0
174
     0
 93
        1
 44
0.0
173
     0
291
     0
 45
0.0
1001
ACAD
1000
AcDbSavedByObjectVersion
1070
     0
  0
VISUALSTYLE
  5
32
102
{ACAD_REACTORS
330
2A
102
}
102
{ACAD_XDICTIONARY
360
20C
102
}
330
2A
100
AcDbVisualStyle
  2
Basic
 70
     7
 71
     1
 72
     0
 73
     1
 90
        0
 40
-0.6
 41
-30.0
 62
     5
 63
     7
 74
     0
 91
        4
 64
     7
 65
   257
 75
     1
175
     1
 42
1.0
 92
        8
 66
     7
 43
1.0
 76
     1
 77
     6
 78
     2
 67
     7
 79
     5
170
     0
171
     0
290
     0
174
     0
 93
        1
 44
0.0
173
     0
291
     1
 45
0.0
1001
ACAD
1000
AcDbSavedByObjectVersion
1070
     0
  0
VISUALSTYLE
  5
36
102
{ACAD_REACTORS
330
2A
102
}
102
{ACAD_XDICTIONARY
360
214
102
}
330
2A
100
AcDbVisualStyle
  2
Brighten
 70
    12
 71
     2
 72
     2
 73
     0
 90
        0
 40
-0.6
 41
-30.0
 62
     5
 63
     7
 74
     1
 91
        4
 64
     7
 65
   257
 75
     1
175
     1
 42
1.0
 92
        8
 66
     7
 43
1.0
 76
     1
 77
     6
 78
     2
 67
     7
 79
     5
170
     0
171
     0
290
     0
174
     0
 93
        1
 44
50.0
173
     0
291
     1
 45
0.0
1001
ACAD
1000
AcDbSavedByObjectVersion
1070
     0
  0
VISUALSTYLE
  5
3A
102
{ACAD_REACTORS
330
2A
102
}
102
{ACAD_XDICTIONARY
360
21C
102
}
330
2A
100
AcDbVisualStyle
  2
ColorChange
 70
    16
 71
     2
 72
     2
 73
     3
 90
        0
 40
-0.6
 41
-30.0
 62
     5
 63
     8
 74
     1
 91
        4
 64
     7
 65
   257
 75
     1
175
     1
 42
1.0
 92
        8
 66
     8
 43
1.0
 76
     1
 77
     6
 78
     2
 67
     7
 79
     5
170
     0
171
     0
290
     0
174
     0
 93
        1
 44
0.0
173
     0
291
     1
 45
0.0
1001
ACAD
1000
AcDbSavedByObjectVersion
1070
     0
  0
VISUALSTYLE
  5
34
102
{ACAD_REACTORS
330
2A
102
}
102
{ACAD_XDICTIONARY
360
210
102
}
330
2A
100
AcDbVisualStyle
  2
Conceptual
 70
     9
 71
     3
 72
     2
 73
     0
 90
        0
 40
-0.6
 41
-30.0
 62
     5
 63
     7
 74
     2
 91
        2
 64
     7
 65
   257
 75
     1
175
     1
 42
40.0
 92
        8
 66
     7
 43
1.0
 76
     1
 77
     6
 78
     2
 67
     7
 79
     3
170
     0
171
     0
290
     0
174
     0
 93
        1
 44
0.0
173
     0
291
     0
 45
0.0
1001
ACAD
1000
AcDbSavedByObjectVersion
1070
     0
  0
VISUALSTYLE
  5
35
102
{ACAD_REACTORS
330
2A
102
}
102
{ACAD_XDICTIONARY
360
212
102
}
330
2A
100
AcDbVisualStyle
  2
Dim
 70
    11
 71
     2
 72
     2
 73
     0
 90
        0
 40
-0.6
 41
-30.0
 62
     5
 63
     7
 74
     1
 91
        4
 64
     7
 65
   257
 75
     1
175
     1
 42
1.0
 92
        8
 66
     7
 43
1.0
 76
     1
 77
     6
 78
     2
 67
     7
 79
     5
170
     0
171
     0
290
     0
174
     0
 93
        1
 44
-50.0
173
     0
291
     1
 45
0.0
1001
ACAD
1000
AcDbSavedByObjectVersion
1070
     0
  0
VISUALSTYLE
  5
39
102
{ACAD_REACTORS
330
2A
102
}
102
{ACAD_XDICTIONARY
360
21A
102
}
330
2A
100
AcDbVisualStyle
  2
Facepattern
 70
    15
 71
     2
 72
     2
 73
     0
 90
        0
 40
-0.6
 41
-30.0
 62
     5
 63
     7
 74
     1
 91
        4
 64
     7
 65
   257
 75
     1
175
     1
 42
1.0
 92
        8
 66
     7
 43
1.0
 76
     1
 77
     6
 78
     2
 67
     7
 79
     5
170
     0
171
     0
290
     0
174
     0
 93
        1
 44
0.0
173
     0
291
     1
 45
0.0
1001
ACAD
1000
AcDbSavedByObjectVersion
1070
     0
  0
VISUALSTYLE
  5
2B
102
{ACAD_REACTORS
330
2A
102
}
102
{ACAD_XDICTIONARY
360
1FE
102
}
330
2A
100
AcDbVisualStyle
  2
Flat
 70
     0
 71
     2
 72
     1
 73
     1
 90
        2
 40
-0.6
 41
30.0
 62
     5
 63
     7
 74
     0
 91
        4
 64
     7
 65
   257
 75
     1
175
     1
 42
1.0
 92
        8
 66
     7
 43
1.0
 76
     1
 77
     6
 78
     2
 67
     7
 79
     5
170
     0
171
     0
290
     0
174
     0
 93
       13
 44
0.0
173
     0
291
     1
 45
0.0
1001
ACAD
1000
AcDbSavedByObjectVersion
1070
     0
  0
VISUALSTYLE
  5
2C
102
{ACAD_REACTORS
330
2A
102
}
102
{ACAD_XDICTIONARY
360
200
102
}
330
2A
100
AcDbVisualStyle
  2
FlatWithEdges
 70
     1
 71
     2
 72
     1
 73
     1
 90
        2
 40
-0.6
 41
30.0
 62
     5
 63
     7
 74
     1
 91
        4
 64
     7
 65
   257
 75
     1
175
     1
 42
1.0
 92
        0
 66
   257
 43
1.0
 76
     1
 77
     6
 78
     2
 67
     7
 79
     5
170
     0
171
     0
290
     0
174
     0
 93
       13
 44
0.0
173
     0
291
     1
 45
0.0
1001
ACAD
1000
AcDbSavedByObjectVersion
1070
     0
  0
VISUALSTYLE
  5
2D
102
{ACAD_REACTORS
330
2A
102
}
102
{ACAD_XDICTIONARY
360
202
102
}
330
2A
100
AcDbVisualStyle
  2
Gouraud
 70
     2
 71
     2
 72
     2
 73
     1
 90
        2
 40
-0.6
 41
30.0
 62
     5
 63
     7
 74
     0
 91
        4
 64
     7
 65
   257
 75
     1
175
     1
 42
1.0
 92
        0
 66
     7
 43
1.0
 76
     1
 77
     6
 78
     2
 67
     7
 79
     5
170
     0
171
     0
290
     0
174
     0
 93
       13
 44
0.0
173
     0
291
     1
 45
0.0
1001
ACAD
1000
AcDbSavedByObjectVersion
1070
     0
  0
VISUALSTYLE
  5
2E
102
{ACAD_REACTORS
330
2A
102
}
102
{ACAD_XDICTIONARY
360
204
102
}
330
2A
100
AcDbVisualStyle
  2
GouraudWithEdges
 70
     3
 71
     2
 72
     2
 73
     1
 90
        2
 40
-0.6
 41
30.0
 62
     5
 63
     7
 74
     1
 91
        4
 64
     7
 65
   257
 75
     1
175
     1
 42
1.0
 92
        0
 66
   257
 43
1.0
 76
     1
 77
     6
 78
     2
 67
     7
 79
     5
170
     0
171
     0
290
     0
174
     0
 93
       13
 44
0.0
173
     0
291
     1
 45
0.0
1001
ACAD
1000
AcDbSavedByObjectVersion
1070
     0
  0
VISUALSTYLE
  5
38
102
{ACAD_REACTORS
330
2A
102
}
102
{ACAD_XDICTIONARY
360
218
102
}
330
2A
100
AcDbVisualStyle
  2
Linepattern
 70
    14
 71
     2
 72
     2
 73
     0
 90
        0
 40
-0.6
 41
-30.0
 62
     5
 63
     7
 74
     1
 91
        4
 64
     7
 65
   257
 75
     7
175
     7
 42
1.0
 92
        8
 66
     7
 43
1.0
 76
     1
 77
     6
 78
     2
 67
     7
 79
     5
170
     0
171
     0
290
     0
174
     0
 93
        1
 44
0.0
173
     0
291
     1
 45
0.0
1001
ACAD
1000
AcDbSavedByObjectVersion
1070
     0
  0
VISUALSTYLE
  5
33
102
{ACAD_REACTORS
330
2A
102
}
102
{ACAD_XDICTIONARY
360
20E
102
}
330
2A
100
AcDbVisualStyle
  2
Realistic
 70
     8
 71
     2
 72
     2
 73
     0
 90
        0
 40
-0.6
 41
-30.0
 62
     5
 63
     7
 74
     1
 91
        0
 64
     7
 65
   257
 75
     1
175
     1
 42
1.0
 92
        8
 66
     8
 43
1.0
 76
     1
 77
     6
 78
     2
 67
     7
 79
     5
170
     0
171
     0
290
     0
174
     0
 93
       13
 44
0.0
173
     0
291
     0
 45
0.0
1001
ACAD
1000
AcDbSavedByObjectVersion
1070
     0
  0
VISUALSTYLE
  5
37
102
{ACAD_REACTORS
330
2A
102
}
102
{ACAD_XDICTIONARY
360
216
102
}
330
2A
100
AcDbVisualStyle
  2
Thicken
 70
    13
 71
     2
 72
     2
 73
     0
 90
        0
 40
-0.6
 41
-30.0
 62
     5
 63
     7
 74
     1
 91
        4
 64
     7
 65
   257
 75
     1
175
     1
 42
1.0
 92
       12
 66
     7
 43
1.0
 76
     1
 77
     6
 78
     2
 67
     7
 79
     5
170
     0
171
     0
290
     0
174
     0
 93
        1
 44
0.0
173
     0
291
     1
 45
0.0
1001
ACAD
1000
AcDbSavedByObjectVersion
1070
     0
  0
DICTIONARYVAR
  5
1FC
102
{ACAD_REACTORS
330
1F9
102
}
330
1F9
100
DictionaryVariables
280
     0
  1
2
  0
DICTIONARYVAR
  5
1FD
102
{ACAD_REACTORS
330
1F9
102
}
330
1F9
100
DictionaryVariables
280
     0
  1
1
  0
DICTIONARY
  5
220
330
3D
100
AcDbDictionary
280
     1
281
     1
  3
ACAD_XREC_ROUNDTRIP
360
221
  0
DICTIONARY
  5
21E
330
3C
100
AcDbDictionary
280
     1
281
     1
  3
ACAD_XREC_ROUNDTRIP
360
21F
  0
DICTIONARY
  5
222
330
3E
100
AcDbDictionary
280
     1
281
     1
  3
ACAD_XREC_ROUNDTRIP
360
223
  0
DICTIONARY
  5
206
330
2F
100
AcDbDictionary
280
     1
281
     1
  3
ACAD_XREC_ROUNDTRIP
360
207
  0
DICTIONARY
  5
20A
330
31
100
AcDbDictionary
280
     1
281
     1
  3
ACAD_XREC_ROUNDTRIP
360
20B
  0
DICTIONARY
  5
208
330
30
100
AcDbDictionary
280
     1
281
     1
  3
ACAD_XREC_ROUNDTRIP
360
209
  0
DICTIONARY
  5
20C
330
32
100
AcDbDictionary
280
     1
281
     1
  3
ACAD_XREC_ROUNDTRIP
360
20D
  0
DICTIONARY
  5
214
330
36
100
AcDbDictionary
280
     1
281
     1
  3
ACAD_XREC_ROUNDTRIP
360
215
  0
DICTIONARY
  5
21C
330
3A
100
AcDbDictionary
280
     1
281
     1
  3
ACAD_XREC_ROUNDTRIP
360
21D
  0
DICTIONARY
  5
210
330
34
100
AcDbDictionary
280
     1
281
     1
  3
ACAD_XREC_ROUNDTRIP
360
211
  0
DICTIONARY
  5
212
330
35
100
AcDbDictionary
280
     1
281
     1
  3
ACAD_XREC_ROUNDTRIP
360
213
  0
DICTIONARY
  5
21A
330
39
100
AcDbDictionary
280
     1
281
     1
  3
ACAD_XREC_ROUNDTRIP
360
21B
  0
DICTIONARY
  5
1FE
330
2B
100
AcDbDictionary
280
     1
281
     1
  3
ACAD_XREC_ROUNDTRIP
360
1FF
  0
DICTIONARY
  5
200
330
2C
100
AcDbDictionary
280
     1
281
     1
  3
ACAD_XREC_ROUNDTRIP
360
201
  0
DICTIONARY
  5
202
330
2D
100
AcDbDictionary
280
     1
281
     1
  3
ACAD_XREC_ROUNDTRIP
360
203
  0
DICTIONARY
  5
204
330
2E
100
AcDbDictionary
280
     1
281
     1
  3
ACAD_XREC_ROUNDTRIP
360
205
  0
DICTIONARY
  5
218
330
38
100
AcDbDictionary
280
     1
281
     1
  3
ACAD_XREC_ROUNDTRIP
360
219
  0
DICTIONARY
  5
20E
330
33
100
AcDbDictionary
280
     1
281
     1
  3
ACAD_XREC_ROUNDTRIP
360
20F
  0
DICTIONARY
  5
216
330
37
100
AcDbDictionary
280
     1
281
     1
  3
ACAD_XREC_ROUNDTRIP
360
217
  0
XRECORD
  5
221
102
{ACAD_REACTORS
330
220
102
}
330
220
100
AcDbXrecord
280
     1
102
MATERIAL
148
0.0
149
0.0
149
0.0
 93
        0
 94
      127
282
     0
 72
     1
 77
     1
171
     1
175
     1
179
     1
273
     0
  0
XRECORD
  5
21F
102
{ACAD_REACTORS
330
21E
102
}
330
21E
100
AcDbXrecord
280
     1
102
MATERIAL
148
0.0
149
0.0
149
0.0
 93
        0
 94
      127
282
     0
 72
     1
 77
     1
171
     1
175
     1
179
     1
273
     0
  0
XRECORD
  5
223
102
{ACAD_REACTORS
330
222
102
}
330
222
100
AcDbXrecord
280
     1
102
MATERIAL
148
0.0
149
0.0
149
0.0
 93
        0
 94
      127
282
     0
 72
     1
 77
     1
171
     1
175
     1
179
     1
273
     0
  0
XRECORD
  5
207
102
{ACAD_REACTORS
330
206
102
}
330
206
100
AcDbXrecord
280
     1
102
RTVSPropertyOp0
 70
     1
102
RTVSPropertyOp1
 70
     1
102
RTVSPropertyOp2
 70
     1
102
RTVSPropertyOp3
 70
     1
102
RTVSPropertyOp4
 70
     1
102
RTVSPropertyOp5
 70
     1
102
RTVSPropertyOp6
 70
     1
102
RTVSPropertyOp7
 70
     1
102
RTVSPropertyOp8
 70
     1
102
RTVSPropertyOp9
 70
     1
102
RTVSPropertyOp10
 70
     1
102
RTVSPropertyOp11
 70
     1
102
RTVSPropertyOp12
 70
     1
102
RTVSPropertyOp13
 70
     1
102
RTVSPropertyOp14
 70
     1
102
RTVSPropertyOp15
 70
     1
102
RTVSPropertyOp16
 70
     1
102
RTVSPropertyOp17
 70
     1
102
RTVSPropertyOp18
 70
     1
102
RTVSPropertyOp19
 70
     1
102
RTVSPropertyOp20
 70
     1
102
RTVSPropertyOp21
 70
     1
102
RTVSPropertyOp22
 70
     1
102
RTVSPropertyOp23
 70
     1
102
RTVSPropertyOp24
 70
     1
102
RTVSPropertyOp25
 70
     1
102
RTVSPropertyOp26
 70
     1
102
RTVSPropertyOp27
 70
     1
102
RTVSPropertyOp28
 70
     1
102
RTVSPropertyOp29
 70
     1
102
RTVSPropertyOp30
 70
     1
102
RTVSPropertyOp31
 70
     1
102
RTVSPropertyOp32
 70
     1
  0
XRECORD
  5
20B
102
{ACAD_REACTORS
330
20A
102
}
330
20A
100
AcDbXrecord
280
     1
102
RTVSPropertyOp0
 70
     1
102
RTVSPropertyOp1
 70
     1
102
RTVSPropertyOp2
 70
     1
102
RTVSPropertyOp3
 70
     1
102
RTVSPropertyOp4
 70
     1
102
RTVSPropertyOp5
 70
     1
102
RTVSPropertyOp6
 70
     1
102
RTVSPropertyOp7
 70
     1
102
RTVSPropertyOp8
 70
     1
102
RTVSPropertyOp9
 70
     1
102
RTVSPropertyOp10
 70
     1
102
RTVSPropertyOp11
 70
     1
102
RTVSPropertyOp12
 70
     1
102
RTVSPropertyOp13
 70
     1
102
RTVSPropertyOp14
 70
     1
102
RTVSPropertyOp15
 70
     1
102
RTVSPropertyOp16
 70
     1
102
RTVSPropertyOp17
 70
     1
102
RTVSPropertyOp18
 70
     1
102
RTVSPropertyOp19
 70
     1
102
RTVSPropertyOp20
 70
     1
102
RTVSPropertyOp21
 70
     1
102
RTVSPropertyOp22
 70
     1
102
RTVSPropertyOp23
 70
     1
102
RTVSPropertyOp24
 70
     1
102
RTVSPropertyOp25
 70
     1
102
RTVSPropertyOp26
 70
     1
102
RTVSPropertyOp27
 70
     1
102
RTVSPropertyOp28
 70
     1
102
RTVSPropertyOp29
 70
     1
102
RTVSPropertyOp30
 70
     1
102
RTVSPropertyOp31
 70
     1
102
RTVSPropertyOp32
 70
     1
  0
XRECORD
  5
209
102
{ACAD_REACTORS
330
208
102
}
330
208
100
AcDbXrecord
280
     1
102
RTVSPropertyOp0
 70
     1
102
RTVSPropertyOp1
 70
     1
102
RTVSPropertyOp2
 70
     1
102
RTVSPropertyOp3
 70
     1
102
RTVSPropertyOp4
 70
     1
102
RTVSPropertyOp5
 70
     1
102
RTVSPropertyOp6
 70
     1
102
RTVSPropertyOp7
 70
     1
102
RTVSPropertyOp8
 70
     1
102
RTVSPropertyOp9
 70
     1
102
RTVSPropertyOp10
 70
     1
102
RTVSPropertyOp11
 70
     1
102
RTVSPropertyOp12
 70
     1
102
RTVSPropertyOp13
 70
     1
102
RTVSPropertyOp14
 70
     1
102
RTVSPropertyOp15
 70
     1
102
RTVSPropertyOp16
 70
     1
102
RTVSPropertyOp17
 70
     1
102
RTVSPropertyOp18
 70
     1
102
RTVSPropertyOp19
 70
     1
102
RTVSPropertyOp20
 70
     1
102
RTVSPropertyOp21
 70
     1
102
RTVSPropertyOp22
 70
     1
102
RTVSPropertyOp23
 70
     1
102
RTVSPropertyOp24
 70
     1
102
RTVSPropertyOp25
 70
     1
102
RTVSPropertyOp26
 70
     1
102
RTVSPropertyOp27
 70
     1
102
RTVSPropertyOp28
 70
     1
102
RTVSPropertyOp29
 70
     1
102
RTVSPropertyOp30
 70
     1
102
RTVSPropertyOp31
 70
     1
102
RTVSPropertyOp32
 70
     1
  0
XRECORD
  5
20D
102
{ACAD_REACTORS
330
20C
102
}
330
20C
100
AcDbXrecord
280
     1
102
RTVSPropertyOp0
 70
     1
102
RTVSPropertyOp1
 70
     1
102
RTVSPropertyOp2
 70
     1
102
RTVSPropertyOp3
 70
     1
102
RTVSPropertyOp4
 70
     1
102
RTVSPropertyOp5
 70
     1
102
RTVSPropertyOp6
 70
     1
102
RTVSPropertyOp7
 70
     1
102
RTVSPropertyOp8
 70
     1
102
RTVSPropertyOp9
 70
     1
102
RTVSPropertyOp10
 70
     1
102
RTVSPropertyOp11
 70
     1
102
RTVSPropertyOp12
 70
     1
102
RTVSPropertyOp13
 70
     1
102
RTVSPropertyOp14
 70
     1
102
RTVSPropertyOp15
 70
     1
102
RTVSPropertyOp16
 70
     1
102
RTVSPropertyOp17
 70
     1
102
RTVSPropertyOp18
 70
     1
102
RTVSPropertyOp19
 70
     1
102
RTVSPropertyOp20
 70
     1
102
RTVSPropertyOp21
 70
     1
102
RTVSPropertyOp22
 70
     1
102
RTVSPropertyOp23
 70
     1
102
RTVSPropertyOp24
 70
     1
102
RTVSPropertyOp25
 70
     1
102
RTVSPropertyOp26
 70
     1
102
RTVSPropertyOp27
 70
     1
102
RTVSPropertyOp28
 70
     1
102
RTVSPropertyOp29
 70
     1
102
RTVSPropertyOp30
 70
     1
102
RTVSPropertyOp31
 70
     1
102
RTVSPropertyOp32
 70
     1
  0
XRECORD
  5
215
102
{ACAD_REACTORS
330
214
102
}
330
214
100
AcDbXrecord
280
     1
102
RTVSPropertyOp0
 70
     1
102
RTVSPropertyOp1
 70
     1
102
RTVSPropertyOp2
 70
     1
102
RTVSPropertyOp3
 70
     1
102
RTVSPropertyOp4
 70
     1
102
RTVSPropertyOp5
 70
     1
102
RTVSPropertyOp6
 70
     1
102
RTVSPropertyOp7
 70
     1
102
RTVSPropertyOp8
 70
     1
102
RTVSPropertyOp9
 70
     1
102
RTVSPropertyOp10
 70
     1
102
RTVSPropertyOp11
 70
     1
102
RTVSPropertyOp12
 70
     1
102
RTVSPropertyOp13
 70
     1
102
RTVSPropertyOp14
 70
     1
102
RTVSPropertyOp15
 70
     1
102
RTVSPropertyOp16
 70
     1
102
RTVSPropertyOp17
 70
     1
102
RTVSPropertyOp18
 70
     1
102
RTVSPropertyOp19
 70
     1
102
RTVSPropertyOp20
 70
     1
102
RTVSPropertyOp21
 70
     1
102
RTVSPropertyOp22
 70
     1
102
RTVSPropertyOp23
 70
     1
102
RTVSPropertyOp24
 70
     1
102
RTVSPropertyOp25
 70
     1
102
RTVSPropertyOp26
 70
     1
102
RTVSPropertyOp27
 70
     1
102
RTVSPropertyOp28
 70
     1
102
RTVSPropertyOp29
 70
     1
102
RTVSPropertyOp30
 70
     1
102
RTVSPropertyOp31
 70
     1
102
RTVSPropertyOp32
 70
     1
  0
XRECORD
  5
21D
102
{ACAD_REACTORS
330
21C
102
}
330
21C
100
AcDbXrecord
280
     1
102
RTVSPropertyOp0
 70
     1
102
RTVSPropertyOp1
 70
     1
102
RTVSPropertyOp2
 70
     1
102
RTVSPropertyOp3
 70
     1
102
RTVSPropertyOp4
 70
     1
102
RTVSPropertyOp5
 70
     1
102
RTVSPropertyOp6
 70
     1
102
RTVSPropertyOp7
 70
     1
102
RTVSPropertyOp8
 70
     1
102
RTVSPropertyOp9
 70
     1
102
RTVSPropertyOp10
 70
     1
102
RTVSPropertyOp11
 70
     1
102
RTVSPropertyOp12
 70
     1
102
RTVSPropertyOp13
 70
     1
102
RTVSPropertyOp14
 70
     1
102
RTVSPropertyOp15
 70
     1
102
RTVSPropertyOp16
 70
     1
102
RTVSPropertyOp17
 70
     1
102
RTVSPropertyOp18
 70
     1
102
RTVSPropertyOp19
 70
     1
102
RTVSPropertyOp20
 70
     1
102
RTVSPropertyOp21
 70
     1
102
RTVSPropertyOp22
 70
     1
102
RTVSPropertyOp23
 70
     1
102
RTVSPropertyOp24
 70
     1
102
RTVSPropertyOp25
 70
     1
102
RTVSPropertyOp26
 70
     1
102
RTVSPropertyOp27
 70
     1
102
RTVSPropertyOp28
 70
     1
102
RTVSPropertyOp29
 70
     1
102
RTVSPropertyOp30
 70
     1
102
RTVSPropertyOp31
 70
     1
102
RTVSPropertyOp32
 70
     1
  0
XRECORD
  5
211
102
{ACAD_REACTORS
330
210
102
}
330
210
100
AcDbXrecord
280
     1
102
RTVSPropertyOp0
 70
     1
102
RTVSPropertyOp1
 70
     1
102
RTVSPropertyOp2
 70
     1
102
RTVSPropertyOp3
 70
     1
102
RTVSPropertyOp4
 70
     1
102
RTVSPropertyOp5
 70
     1
102
RTVSPropertyOp6
 70
     1
102
RTVSPropertyOp7
 70
     1
102
RTVSPropertyOp8
 70
     1
102
RTVSPropertyOp9
 70
     1
102
RTVSPropertyOp10
 70
     1
102
RTVSPropertyOp11
 70
     1
102
RTVSPropertyOp12
 70
     1
102
RTVSPropertyOp13
 70
     1
102
RTVSPropertyOp14
 70
     1
102
RTVSPropertyOp15
 70
     1
102
RTVSPropertyOp16
 70
     1
102
RTVSPropertyOp17
 70
     1
102
RTVSPropertyOp18
 70
     1
102
RTVSPropertyOp19
 70
     1
102
RTVSPropertyOp20
 70
     1
102
RTVSPropertyOp21
 70
     1
102
RTVSPropertyOp22
 70
     1
102
RTVSPropertyOp23
 70
     1
102
RTVSPropertyOp24
 70
     1
102
RTVSPropertyOp25
 70
     1
102
RTVSPropertyOp26
 70
     1
102
RTVSPropertyOp27
 70
     1
102
RTVSPropertyOp28
 70
     1
102
RTVSPropertyOp29
 70
     1
102
RTVSPropertyOp30
 70
     1
102
RTVSPropertyOp31
 70
     1
102
RTVSPropertyOp32
 70
     1
  0
XRECORD
  5
213
102
{ACAD_REACTORS
330
212
102
}
330
212
100
AcDbXrecord
280
     1
102
RTVSPropertyOp0
 70
     1
102
RTVSPropertyOp1
 70
     1
102
RTVSPropertyOp2
 70
     1
102
RTVSPropertyOp3
 70
     1
102
RTVSPropertyOp4
 70
     1
102
RTVSPropertyOp5
 70
     1
102
RTVSPropertyOp6
 70
     1
102
RTVSPropertyOp7
 70
     1
102
RTVSPropertyOp8
 70
     1
102
RTVSPropertyOp9
 70
     1
102
RTVSPropertyOp10
 70
     1
102
RTVSPropertyOp11
 70
     1
102
RTVSPropertyOp12
 70
     1
102
RTVSPropertyOp13
 70
     1
102
RTVSPropertyOp14
 70
     1
102
RTVSPropertyOp15
 70
     1
102
RTVSPropertyOp16
 70
     1
102
RTVSPropertyOp17
 70
     1
102
RTVSPropertyOp18
 70
     1
102
RTVSPropertyOp19
 70
     1
102
RTVSPropertyOp20
 70
     1
102
RTVSPropertyOp21
 70
     1
102
RTVSPropertyOp22
 70
     1
102
RTVSPropertyOp23
 70
     1
102
RTVSPropertyOp24
 70
     1
102
RTVSPropertyOp25
 70
     1
102
RTVSPropertyOp26
 70
     1
102
RTVSPropertyOp27
 70
     1
102
RTVSPropertyOp28
 70
     1
102
RTVSPropertyOp29
 70
     1
102
RTVSPropertyOp30
 70
     1
102
RTVSPropertyOp31
 70
     1
102
RTVSPropertyOp32
 70
     1
  0
XRECORD
  5
21B
102
{ACAD_REACTORS
330
21A
102
}
330
21A
100
AcDbXrecord
280
     1
102
RTVSPropertyOp0
 70
     1
102
RTVSPropertyOp1
 70
     1
102
RTVSPropertyOp2
 70
     1
102
RTVSPropertyOp3
 70
     1
102
RTVSPropertyOp4
 70
     1
102
RTVSPropertyOp5
 70
     1
102
RTVSPropertyOp6
 70
     1
102
RTVSPropertyOp7
 70
     1
102
RTVSPropertyOp8
 70
     1
102
RTVSPropertyOp9
 70
     1
102
RTVSPropertyOp10
 70
     1
102
RTVSPropertyOp11
 70
     1
102
RTVSPropertyOp12
 70
     1
102
RTVSPropertyOp13
 70
     1
102
RTVSPropertyOp14
 70
     1
102
RTVSPropertyOp15
 70
     1
102
RTVSPropertyOp16
 70
     1
102
RTVSPropertyOp17
 70
     1
102
RTVSPropertyOp18
 70
     1
102
RTVSPropertyOp19
 70
     1
102
RTVSPropertyOp20
 70
     1
102
RTVSPropertyOp21
 70
     1
102
RTVSPropertyOp22
 70
     1
102
RTVSPropertyOp23
 70
     1
102
RTVSPropertyOp24
 70
     1
102
RTVSPropertyOp25
 70
     1
102
RTVSPropertyOp26
 70
     1
102
RTVSPropertyOp27
 70
     1
102
RTVSPropertyOp28
 70
     1
102
RTVSPropertyOp29
 70
     1
102
RTVSPropertyOp30
 70
     1
102
RTVSPropertyOp31
 70
     1
102
RTVSPropertyOp32
 70
     1
  0
XRECORD
  5
1FF
102
{ACAD_REACTORS
330
1FE
102
}
330
1FE
100
AcDbXrecord
280
     1
102
RTVSPropertyOp0
 70
     1
102
RTVSPropertyOp1
 70
     1
102
RTVSPropertyOp2
 70
     1
102
RTVSPropertyOp3
 70
     1
102
RTVSPropertyOp4
 70
     1
102
RTVSPropertyOp5
 70
     1
102
RTVSPropertyOp6
 70
     1
102
RTVSPropertyOp7
 70
     1
102
RTVSPropertyOp8
 70
     1
102
RTVSPropertyOp9
 70
     1
102
RTVSPropertyOp10
 70
     1
102
RTVSPropertyOp11
 70
     1
102
RTVSPropertyOp12
 70
     1
102
RTVSPropertyOp13
 70
     1
102
RTVSPropertyOp14
 70
     1
102
RTVSPropertyOp15
 70
     1
102
RTVSPropertyOp16
 70
     1
102
RTVSPropertyOp17
 70
     1
102
RTVSPropertyOp18
 70
     1
102
RTVSPropertyOp19
 70
     1
102
RTVSPropertyOp20
 70
     1
102
RTVSPropertyOp21
 70
     1
102
RTVSPropertyOp22
 70
     1
102
RTVSPropertyOp23
 70
     1
102
RTVSPropertyOp24
 70
     1
102
RTVSPropertyOp25
 70
     1
102
RTVSPropertyOp26
 70
     1
102
RTVSPropertyOp27
 70
     1
102
RTVSPropertyOp28
 70
     1
102
RTVSPropertyOp29
 70
     1
102
RTVSPropertyOp30
 70
     1
102
RTVSPropertyOp31
 70
     1
102
RTVSPropertyOp32
 70
     1
  0
XRECORD
  5
201
102
{ACAD_REACTORS
330
200
102
}
330
200
100
AcDbXrecord
280
     1
102
RTVSPropertyOp0
 70
     1
102
RTVSPropertyOp1
 70
     1
102
RTVSPropertyOp2
 70
     1
102
RTVSPropertyOp3
 70
     1
102
RTVSPropertyOp4
 70
     1
102
RTVSPropertyOp5
 70
     1
102
RTVSPropertyOp6
 70
     1
102
RTVSPropertyOp7
 70
     1
102
RTVSPropertyOp8
 70
     1
102
RTVSPropertyOp9
 70
     1
102
RTVSPropertyOp10
 70
     1
102
RTVSPropertyOp11
 70
     1
102
RTVSPropertyOp12
 70
     1
102
RTVSPropertyOp13
 70
     1
102
RTVSPropertyOp14
 70
     1
102
RTVSPropertyOp15
 70
     1
102
RTVSPropertyOp16
 70
     1
102
RTVSPropertyOp17
 70
     1
102
RTVSPropertyOp18
 70
     1
102
RTVSPropertyOp19
 70
     1
102
RTVSPropertyOp20
 70
     1
102
RTVSPropertyOp21
 70
     1
102
RTVSPropertyOp22
 70
     1
102
RTVSPropertyOp23
 70
     1
102
RTVSPropertyOp24
 70
     1
102
RTVSPropertyOp25
 70
     1
102
RTVSPropertyOp26
 70
     1
102
RTVSPropertyOp27
 70
     1
102
RTVSPropertyOp28
 70
     1
102
RTVSPropertyOp29
 70
     1
102
RTVSPropertyOp30
 70
     1
102
RTVSPropertyOp31
 70
     1
102
RTVSPropertyOp32
 70
     1
  0
XRECORD
  5
203
102
{ACAD_REACTORS
330
202
102
}
330
202
100
AcDbXrecord
280
     1
102
RTVSPropertyOp0
 70
     1
102
RTVSPropertyOp1
 70
     1
102
RTVSPropertyOp2
 70
     1
102
RTVSPropertyOp3
 70
     1
102
RTVSPropertyOp4
 70
     1
102
RTVSPropertyOp5
 70
     1
102
RTVSPropertyOp6
 70
     1
102
RTVSPropertyOp7
 70
     1
102
RTVSPropertyOp8
 70
     1
102
RTVSPropertyOp9
 70
     1
102
RTVSPropertyOp10
 70
     1
102
RTVSPropertyOp11
 70
     1
102
RTVSPropertyOp12
 70
     1
102
RTVSPropertyOp13
 70
     1
102
RTVSPropertyOp14
 70
     1
102
RTVSPropertyOp15
 70
     1
102
RTVSPropertyOp16
 70
     1
102
RTVSPropertyOp17
 70
     1
102
RTVSPropertyOp18
 70
     1
102
RTVSPropertyOp19
 70
     1
102
RTVSPropertyOp20
 70
     1
102
RTVSPropertyOp21
 70
     1
102
RTVSPropertyOp22
 70
     1
102
RTVSPropertyOp23
 70
     1
102
RTVSPropertyOp24
 70
     1
102
RTVSPropertyOp25
 70
     1
102
RTVSPropertyOp26
 70
     1
102
RTVSPropertyOp27
 70
     1
102
RTVSPropertyOp28
 70
     1
102
RTVSPropertyOp29
 70
     1
102
RTVSPropertyOp30
 70
     1
102
RTVSPropertyOp31
 70
     1
102
RTVSPropertyOp32
 70
     1
  0
XRECORD
  5
205
102
{ACAD_REACTORS
330
204
102
}
330
204
100
AcDbXrecord
280
     1
102
RTVSPropertyOp0
 70
     1
102
RTVSPropertyOp1
 70
     1
102
RTVSPropertyOp2
 70
     1
102
RTVSPropertyOp3
 70
     1
102
RTVSPropertyOp4
 70
     1
102
RTVSPropertyOp5
 70
     1
102
RTVSPropertyOp6
 70
     1
102
RTVSPropertyOp7
 70
     1
102
RTVSPropertyOp8
 70
     1
102
RTVSPropertyOp9
 70
     1
102
RTVSPropertyOp10
 70
     1
102
RTVSPropertyOp11
 70
     1
102
RTVSPropertyOp12
 70
     1
102
RTVSPropertyOp13
 70
     1
102
RTVSPropertyOp14
 70
     1
102
RTVSPropertyOp15
 70
     1
102
RTVSPropertyOp16
 70
     1
102
RTVSPropertyOp17
 70
     1
102
RTVSPropertyOp18
 70
     1
102
RTVSPropertyOp19
 70
     1
102
RTVSPropertyOp20
 70
     1
102
RTVSPropertyOp21
 70
     1
102
RTVSPropertyOp22
 70
     1
102
RTVSPropertyOp23
 70
     1
102
RTVSPropertyOp24
 70
     1
102
RTVSPropertyOp25
 70
     1
102
RTVSPropertyOp26
 70
     1
102
RTVSPropertyOp27
 70
     1
102
RTVSPropertyOp28
 70
     1
102
RTVSPropertyOp29
 70
     1
102
RTVSPropertyOp30
 70
     1
102
RTVSPropertyOp31
 70
     1
102
RTVSPropertyOp32
 70
     1
  0
XRECORD
  5
219
102
{ACAD_REACTORS
330
218
102
}
330
218
100
AcDbXrecord
280
     1
102
RTVSPropertyOp0
 70
     1
102
RTVSPropertyOp1
 70
     1
102
RTVSPropertyOp2
 70
     1
102
RTVSPropertyOp3
 70
     1
102
RTVSPropertyOp4
 70
     1
102
RTVSPropertyOp5
 70
     1
102
RTVSPropertyOp6
 70
     1
102
RTVSPropertyOp7
 70
     1
102
RTVSPropertyOp8
 70
     1
102
RTVSPropertyOp9
 70
     1
102
RTVSPropertyOp10
 70
     1
102
RTVSPropertyOp11
 70
     1
102
RTVSPropertyOp12
 70
     1
102
RTVSPropertyOp13
 70
     1
102
RTVSPropertyOp14
 70
     1
102
RTVSPropertyOp15
 70
     1
102
RTVSPropertyOp16
 70
     1
102
RTVSPropertyOp17
 70
     1
102
RTVSPropertyOp18
 70
     1
102
RTVSPropertyOp19
 70
     1
102
RTVSPropertyOp20
 70
     1
102
RTVSPropertyOp21
 70
     1
102
RTVSPropertyOp22
 70
     1
102
RTVSPropertyOp23
 70
     1
102
RTVSPropertyOp24
 70
     1
102
RTVSPropertyOp25
 70
     1
102
RTVSPropertyOp26
 70
     1
102
RTVSPropertyOp27
 70
     1
102
RTVSPropertyOp28
 70
     1
102
RTVSPropertyOp29
 70
     1
102
RTVSPropertyOp30
 70
     1
102
RTVSPropertyOp31
 70
     1
102
RTVSPropertyOp32
 70
     1
  0
XRECORD
  5
20F
102
{ACAD_REACTORS
330
20E
102
}
330
20E
100
AcDbXrecord
280
     1
102
RTVSPropertyOp0
 70
     1
102
RTVSPropertyOp1
 70
     1
102
RTVSPropertyOp2
 70
     1
102
RTVSPropertyOp3
 70
     1
102
RTVSPropertyOp4
 70
     1
102
RTVSPropertyOp5
 70
     1
102
RTVSPropertyOp6
 70
     1
102
RTVSPropertyOp7
 70
     1
102
RTVSPropertyOp8
 70
     1
102
RTVSPropertyOp9
 70
     1
102
RTVSPropertyOp10
 70
     1
102
RTVSPropertyOp11
 70
     1
102
RTVSPropertyOp12
 70
     1
102
RTVSPropertyOp13
 70
     1
102
RTVSPropertyOp14
 70
     1
102
RTVSPropertyOp15
 70
     1
102
RTVSPropertyOp16
 70
     1
102
RTVSPropertyOp17
 70
     1
102
RTVSPropertyOp18
 70
     1
102
RTVSPropertyOp19
 70
     1
102
RTVSPropertyOp20
 70
     1
102
RTVSPropertyOp21
 70
     1
102
RTVSPropertyOp22
 70
     1
102
RTVSPropertyOp23
 70
     1
102
RTVSPropertyOp24
 70
     1
102
RTVSPropertyOp25
 70
     1
102
RTVSPropertyOp26
 70
     1
102
RTVSPropertyOp27
 70
     1
102
RTVSPropertyOp28
 70
     1
102
RTVSPropertyOp29
 70
     1
102
RTVSPropertyOp30
 70
     1
102
RTVSPropertyOp31
 70
     1
102
RTVSPropertyOp32
 70
     1
  0
XRECORD
  5
217
102
{ACAD_REACTORS
330
216
102
}
330
216
100
AcDbXrecord
280
     1
102
RTVSPropertyOp0
 70
     1
102
RTVSPropertyOp1
 70
     1
102
RTVSPropertyOp2
 70
     1
102
RTVSPropertyOp3
 70
     1
102
RTVSPropertyOp4
 70
     1
102
RTVSPropertyOp5
 70
     1
102
RTVSPropertyOp6
 70
     1
102
RTVSPropertyOp7
 70
     1
102
RTVSPropertyOp8
 70
     1
102
RTVSPropertyOp9
 70
     1
102
RTVSPropertyOp10
 70
     1
102
RTVSPropertyOp11
 70
     1
102
RTVSPropertyOp12
 70
     1
102
RTVSPropertyOp13
 70
     1
102
RTVSPropertyOp14
 70
     1
102
RTVSPropertyOp15
 70
     1
102
RTVSPropertyOp16
 70
     1
102
RTVSPropertyOp17
 70
     1
102
RTVSPropertyOp18
 70
     1
102
RTVSPropertyOp19
 70
     1
102
RTVSPropertyOp20
 70
     1
102
RTVSPropertyOp21
 70
     1
102
RTVSPropertyOp22
 70
     1
102
RTVSPropertyOp23
 70
     1
102
RTVSPropertyOp24
 70
     1
102
RTVSPropertyOp25
 70
     1
102
RTVSPropertyOp26
 70
     1
102
RTVSPropertyOp27
 70
     1
102
RTVSPropertyOp28
 70
     1
102
RTVSPropertyOp29
 70
     1
102
RTVSPropertyOp30
 70
     1
102
RTVSPropertyOp31
 70
     1
102
RTVSPropertyOp32
 70
     1
  0
ENDSEC
  0
EOF
