  0
SECTION
  2
HEADER
  9
$ACADVER
  1
AC1009
  9
$INSBASE
 10
0
 20
0
  9
$EXTMIN
 10
-313.1343782398935
 20
-346.2371022903778
  9
$EXTMAX
 10
43.27931887064744
 20
-136.0910705383466
  9
$LIMMIN
 10
-313.1343782398935
 20
-346.2371022903778
  9
$LIMMAX
 10
43.27931887064744
 20
-136.0910705383466
  9
$VIEWCTR
 10
10
 20
10
  9
$VIEWSIZE
 40
10
  9
$SNAPMODE
 70
0
  9
$SNAPUNIT
 10
1
 20
1
  9
$SNAPBASE
 10
0
 20
0
  9
$SNAPANG
 50
0
  9
$SNAPSTYLE
 70
0
  9
$SNAPISOPAIR
 70
0
  9
$GRIDMODE
 70
0
  9
$GRIDUNIT
 10
0
 20
0
  9
$ORTHOMODE
 70
0
  9
$REGENMODE
 70
1
  9
$FILLMODE
 70
1
  9
$QTEXTMODE
 70
0
  9
$DRAGMODE
 70
2
  9
$LTSCALE
 40
1
  9
$OSMODE
 70
0
  9
$ATTMODE
 70
1
  9
$TEXTSIZE
 40
3.5
  9
$TRACEWID
 40
0.5
  9
$TEXTSTYLE
  7
STANDARD
  9
$CLAYER
  8
0
  9
$CELTYPE
  6
BYLAYER
  9
$CECOLOR
 62
256
  9
$DIMSCALE
 40
1
  9
$DIMASZ
 40
0.18
  9
$DIMEXO
 40
0.0625
  9
$DIMDLI
 40
0.38
  9
$DIMRND
 40
0
  9
$DIMDLE
 40
0
  9
$DIMEXE
 40
0.18
  9
$DIMTP
 40
0
  9
$DIMTM
 40
0
  9
$DIMTXT
 40
0.18
  9
$DIMCEN
 40
0.09
  9
$DIMTSZ
 40
0
  9
$DIMTOL
 70
0
  9
$DIMLIM
 70
0
  9
$DIMTIH
 70
1
  9
$DIMTOH
 70
1
  9
$DIMSE1
 70
0
  9
$DIMSE2
 70
0
  9
$DIMTAD
 70
0
  9
$DIMZIN
 70
0
  9
$DIMBLK
  1

  9
$DIMASO
 70
1
  9
$DIMSHO
 70
1
  9
$DIMPOST
  1

  9
$DIMAPOST
  1

  9
$DIMALT
 70
0
  9
$DIMALTD
 70
2
  9
$DIMALTF
 40
25.4
  9
$DIMLFAC
 40
1
  9
$DIMTOFL
 70
0
  9
$DIMTVP
 40
0
  9
$DIMTIX
 70
0
  9
$DIMSOXD
 70
0
  9
$DIMSAH
 70
0
  9
$DIMBLK1
  1

  9
$DIMBLK2
  1

  9
$DIMSTYLE
  2
*UNNAMED
  9
$DIMCLRD
 70
0
  9
$DIMCLRE
 70
0
  9
$DIMCLRT
 70
0
  9
$DIMTFAC
 40
1
  9
$DIMGAP
 40
0.09
  9
$LUNITS
 70
2
  9
$LUPREC
 70
4
  9
$AXISMODE
 70
0
  9
$AXISUNIT
 10
0
 20
0
  9
$SKETCHINC
 40
0.1
  9
$FILLETRAD
 40
2
  9
$AUNITS
 70
0
  9
$AUPREC
 70
0
  9
$MENU
  1
ACAD
  9
$ELEVATION
 40
0
  9
$THICKNESS
 40
0
  9
$VIEWDIR
 10
0
 20
0
 30
1
  9
$LIMCHECK
 70
0
  9
$BLIPMODE
 70
1
  9
$CHAMFERA
 40
0
  9
$CHAMFERB
 40
0
  9
$FASTZOOM
 70
1
  9
$SKPOLY
 70
0
  9
$ANGBASE
 50
0
  9
$ANGDIR
 70
0
  9
$PDMODE
 70
0
  9
$PDSIZE
 40
0
  9
$PLINEWID
 40
0
  9
$COORDS
 70
2
  0
ENDSEC
  0
SECTION
  2
TABLES
  0
TABLE
  2
DIMSTYLE
 70
12
  0
DIMSTYLE
  2
DMST_1
 70
0
  3

  4

  5

  6

  7

 40
1
 41
3.2
 42
1
 43
7
 44
1.5
 45
0
 46
0
 47
0
 48
0.1
140
3.2
141
0
142
0
143
25.4
144
1
145
0
146
0.7
147
0.09
 71
1
 72
0
 73
0
 74
0
 75
0
 76
0
 77
1
 78
9
170
0
171
2
172
0
173
0
174
0
175
0
176
2
177
2
178
2
  0
DIMSTYLE
  2
DMST_2
 70
0
  3

  4

  5

  6

  7

 40
1
 41
3.2
 42
1
 43
7
 44
1.5
 45
0
 46
0
 47
0.2
 48
0.2
140
3.2
141
0
142
0
143
25.4
144
1
145
0
146
0.7
147
0.09
 71
1
 72
0
 73
0
 74
0
 75
0
 76
0
 77
1
 78
9
170
0
171
2
172
0
173
0
174
0
175
0
176
2
177
2
178
2
  0
DIMSTYLE
  2
DMST_3
 70
0
  3

  4

  5

  6

  7

 40
1
 41
3.2
 42
1
 43
7
 44
1.5
 45
0
 46
0
 47
40
 48
0
140
3.2
141
0
142
0
143
25.4
144
1
145
0
146
0.7
147
0.09
 71
1
 72
0
 73
0
 74
0
 75
0
 76
0
 77
1
 78
9
170
0
171
2
172
0
173
0
174
0
175
0
176
2
177
2
178
2
  0
DIMSTYLE
  2
DMST_4
 70
0
  3
)
  4

  5

  6

  7

 40
1
 41
3.2
 42
1
 43
7
 44
1
 45
0
 46
0
 47
0
 48
0
140
3.2
141
0
142
0
143
25.4
144
1
145
0
146
1
147
0.09
 71
0
 72
0
 73
0
 74
0
 75
0
 76
0
 77
1
 78
9
170
0
171
2
172
0
173
0
174
0
175
0
176
2
177
2
178
2
  0
DIMSTYLE
  2
DMST_5
 70
0
  3

  4

  5

  6

  7

 40
1
 41
3.2
 42
1
 43
7
 44
1.5
 45
0
 46
0
 47
0
 48
0.02
140
3.2
141
0
142
0
143
25.4
144
1
145
0
146
0.7
147
0.09
 71
1
 72
0
 73
0
 74
0
 75
0
 76
0
 77
1
 78
9
170
0
171
2
172
0
173
0
174
0
175
0
176
2
177
2
178
2
  0
DIMSTYLE
  2
DMST_6
 70
0
  3
)
  4

  5

  6

  7

 40
1
 41
3.2
 42
1
 43
7
 44
1.5
 45
0
 46
0
 47
0
 48
0
140
3.2
141
0
142
0
143
25.4
144
1
145
0
146
1
147
0.09
 71
0
 72
0
 73
0
 74
0
 75
0
 76
0
 77
1
 78
9
170
0
171
2
172
0
173
0
174
0
175
0
176
2
177
2
178
2
  0
DIMSTYLE
  2
DMST_7
 70
0
  3

  4

  5

  6

  7

 40
1
 41
3.2
 42
1
 43
7
 44
1.5
 45
0
 46
0
 47
0
 48
0
140
3.2
141
0
142
0
143
25.4
144
1
145
0
146
1
147
0.09
 71
0
 72
0
 73
0
 74
0
 75
0
 76
0
 77
1
 78
9
170
0
171
2
172
0
173
0
174
0
175
0
176
2
177
2
178
2
  0
DIMSTYLE
  2
DMST_8
 70
0
  3

  4

  5

  6

  7

 40
1
 41
3.2
 42
1
 43
7
 44
1.5
 45
0
 46
0
 47
0.2
 48
0.2
140
3.2
141
0
142
0
143
25.4
144
1
145
0
146
0.6
147
0.09
 71
1
 72
0
 73
0
 74
0
 75
0
 76
0
 77
1
 78
9
170
0
171
2
172
0
173
0
174
0
175
0
176
2
177
2
178
2
  0
DIMSTYLE
  2
DMST_9
 70
0
  3

  4

  5

  6

  7

 40
1
 41
3.2
 42
1
 43
7
 44
1.5
 45
0
 46
0
 47
0
 48
0.02
140
3.2
141
0
142
0
143
25.4
144
1
145
0
146
0.6
147
0.09
 71
1
 72
0
 73
0
 74
0
 75
0
 76
0
 77
1
 78
9
170
0
171
2
172
0
173
0
174
0
175
0
176
2
177
2
178
2
  0
DIMSTYLE
  2
DMST_10
 70
0
  3

  4

  5

  6

  7

 40
1
 41
3.2
 42
1
 43
7
 44
1.5
 45
0
 46
0
 47
0.03
 48
0.03
140
3.2
141
0
142
0
143
25.4
144
1
145
0
146
0.7
147
0.09
 71
1
 72
0
 73
0
 74
0
 75
0
 76
0
 77
1
 78
9
170
0
171
2
172
0
173
0
174
0
175
0
176
2
177
2
178
2
  0
DIMSTYLE
  2
DMST_11
 70
0
  3

  4

  5

  6

  7

 40
1
 41
3.2
 42
1
 43
7
 44
1.5
 45
0
 46
0
 47
0.5
 48
0.5
140
3.2
141
0
142
0
143
25.4
144
1
145
0
146
0.7
147
0.09
 71
1
 72
0
 73
0
 74
0
 75
0
 76
0
 77
1
 78
9
170
0
171
2
172
0
173
0
174
0
175
0
176
2
177
2
178
2
  0
DIMSTYLE
  2
DMST_12
 70
0
  3
 HOLE
  4

  5

  6

  7

 40
1
 41
3.2
 42
1
 43
7
 44
1.5
 45
0
 46
0
 47
0
 48
0
140
3.2
141
0
142
0
143
25.4
144
1
145
0
146
1
147
0.09
 71
0
 72
0
 73
1
 74
1
 75
0
 76
0
 77
1
 78
9
170
0
171
2
172
0
173
0
174
0
175
0
176
2
177
2
178
2
  0
ENDTAB
  0
TABLE
  2
LTYPE
 70
9
  0
LTYPE
  2
CONTINUOUS
 70
64
  3
Solid line
 72
65
 73
0
 40
0
  0
LTYPE
  2
BORDER
 70
64
  3
__ __ . __ __ .
 72
65
 73
6
 40
16.41378868272228
 49
4.689653909349223
 49
-2.344826954674612
 49
4.689653909349223
 49
-2.344826954674612
 49
0
 49
-2.344826954674612
  0
LTYPE
  2
CENTER
 70
64
  3
____ _ ____ _
 72
65
 73
4
 40
18.75861563739689
 49
11.72413477337306
 49
-2.344826954674612
 49
2.344826954674612
 49
-2.344826954674612
  0
LTYPE
  2
DASHDOT
 70
64
  3
__ . __ . __ .
 72
65
 73
4
 40
9.379307818698447
 49
4.689653909349223
 49
-2.344826954674612
 49
0
 49
-2.344826954674612
  0
LTYPE
  2
DASHED
 70
64
  3
__ __ __ __ __
 72
65
 73
2
 40
7.034480864023835
 49
4.689653909349223
 49
-2.344826954674612
  0
LTYPE
  2
DIVIDE
 70
64
  3
__ . . __ . . 
 72
65
 73
6
 40
11.72413477337306
 49
4.689653909349223
 49
-2.344826954674612
 49
0
 49
-2.344826954674612
 49
0
 49
-2.344826954674612
  0
LTYPE
  2
DOT
 70
64
  3
..............
 72
65
 73
4
 40
4.689653909349223
 49
0
 49
-2.344826954674612
 49
0
 49
-2.344826954674612
  0
LTYPE
  2
HIDDEN
 70
64
  3
_ _ _ _ _ _ _
 72
65
 73
2
 40
3.517240432011918
 49
2.344826954674612
 49
-1.172413477337306
  0
LTYPE
  2
PHANTOM
 70
64
  3
_____ _ _ _____ _ _ 
 72
65
 73
6
 40
23.44826954674612
 49
11.72413477337306
 49
-2.344826954674612
 49
2.344826954674612
 49
-2.344826954674612
 49
2.344826954674612
 49
-2.344826954674612
  0
ENDTAB
  0
TABLE
  2
LAYER
 70
3
  0
LAYER
  2
1
 70
0
 62
7
  6
CONTINUOUS
  0
LAYER
  2
0
 70
0
 62
7
  6
CONTINUOUS
  0
ENDTAB
  0
TABLE
  2
STYLE
 70
4
  0
STYLE
  2
STANDARD
 70
0
 40
0
 41
1
 50
0
 71
0
 42
3.5
  3
txt
  4

  0
STYLE
  2
SIMPLEX
 70
0
 40
0
 41
1
 50
0
 71
0
 42
3.5
  3
simplex
  4

  0
STYLE
  2
COMPLEX
 70
0
 40
0
 41
1
 50
0
 71
0
 42
3.5
  3
complex
  4

  0
STYLE
  2
ITALIC
 70
0
 40
0
 41
1
 50
0
 71
0
 42
3.5
  3
italic
  4

  0
ENDTAB
  0
TABLE
  2
VIEW
 70
0
  0
ENDTAB
  0
ENDSEC
  0
SECTION
  2
BLOCKS
  0
BLOCK
  8
0
  2
MOJINOMUKI
 70
0
 10
-9.370546174581062
 20
-171.5718741559166
 30
0
  0
LINE
  8
1
 62
2
 10
-9.370546174581062
 20
-170.0718741559166
 30
0
 11
-9.370546174581062
 21
-167.5718741559166
 31
0
  0
LINE
  8
1
 62
2
 10
-11.87054617458106
 20
-168.5718741559166
 30
0
 11
-9.370546174581062
 21
-170.0718741559166
 31
0
  0
LINE
  8
1
 62
2
 10
-6.870546174581062
 20
-168.5718741559166
 30
0
 11
-11.87054617458106
 21
-168.5718741559166
 31
0
  0
LINE
  8
1
 62
2
 10
-12.37054617458106
 20
-165.5718741559166
 30
0
 11
-6.370546174581062
 21
-165.5718741559166
 31
0
  0
LINE
  8
1
 62
2
 10
-6.370546174581062
 20
-171.5718741559166
 30
0
 11
-12.37054617458106
 21
-171.5718741559166
 31
0
  0
LINE
  8
1
 62
2
 10
-6.370546174581062
 20
-145.5718741559166
 30
0
 11
-6.370546174581062
 21
-171.5718741559166
 31
0
  0
LINE
  8
1
 62
2
 10
-12.37054617458106
 20
-145.5718741559166
 30
0
 11
-6.370546174581062
 21
-145.5718741559166
 31
0
  0
LINE
  8
1
 62
2
 10
-12.37054617458106
 20
-171.5718741559166
 30
0
 11
-12.37054617458106
 21
-145.5718741559166
 31
0
  0
TEXT
  8
1
 62
2
 10
-7.370546174581062
 20
-173.5251285937864
 30
0
 40
4
  1
文字の向き
 50
90
 41
0.9
 72
1
 73
2
 11
-9.370546174581062
 21
-155.5251285937864
 31
0
  0
TEXT
  8
1
 62
2
 10
-18.07860031272308
 20
-165.0241798780374
 30
0
 40
2.5
  1
DIRECTION
 50
90
 41
0.63
  0
TEXT
  8
1
 62
2
 10
-13.70360031272308
 20
-165.0241798780374
 30
0
 40
2.5
  1
OF LETTER
 50
90
 41
0.63
  0
ENDBLK
  8
0
  0
BLOCK
  8
0
  2
AD09745-01_DB
 70
0
 10
-491.2825480360851
 20
-974.3018676097641
 30
0
  0
LINE
  8
1
 62
3
 10
-214.9102913698864
 20
-234.0910705383466
 30
0
 11
-214.9102913698864
 21
-236.5910705383466
 31
0
  0
LINE
  8
1
 62
3
 10
-216.4102913698864
 20
-234.0910705383466
 30
0
 11
-214.9102913698864
 21
-234.0910705383466
 31
0
  0
LINE
  8
1
 62
3
 10
-237.9102913698864
 20
-236.5910705383466
 30
0
 11
-239.4102913698864
 21
-236.5910705383466
 31
0
  0
LINE
  8
1
 62
3
 10
-239.4102913698864
 20
-236.5910705383466
 30
0
 11
-239.6602913698864
 21
-236.5910705383465
 31
0
  0
LINE
  8
1
 62
3
 10
-239.4102913698864
 20
-234.0910705383466
 30
0
 11
-239.4102913698864
 21
-236.5910705383466
 31
0
  0
LINE
  8
1
 62
3
 10
-237.9102913698864
 20
-234.0910705383466
 30
0
 11
-239.4102913698864
 21
-234.0910705383466
 31
0
  0
LINE
  8
1
 62
3
 10
-237.9102913698864
 20
-237.2910705383466
 30
0
 11
-237.9102913698864
 21
-234.0910705383466
 31
0
  0
LINE
  8
1
 62
3
 10
-216.4102913698864
 20
-237.2910705383466
 30
0
 11
-237.9102913698864
 21
-237.2910705383466
 31
0
  0
LINE
  8
1
 62
3
 10
-216.4102913698864
 20
-234.0910705383466
 30
0
 11
-216.4102913698864
 21
-237.2910705383466
 31
0
  0
LINE
  8
1
 62
3
 10
-213.0602913698874
 20
-231.4910705383467
 30
0
 11
-208.5902913698862
 21
-231.4910705383467
 31
0
  0
LINE
  8
1
 62
3
 10
-241.2602913698864
 20
-231.4910705383467
 30
0
 11
-245.7302913698866
 21
-231.4910705383465
 31
0
  0
LINE
  8
1
 62
3
 10
-208.5902913698861
 20
-231.2910705383466
 30
0
 11
-208.5902913698862
 21
-233.2910705383487
 31
0
  0
LINE
  8
1
 62
3
 10
-245.7302913698866
 20
-233.2910705383475
 30
0
 11
-245.7302913698866
 21
-231.2910705383466
 31
0
  0
LINE
  8
1
 62
3
 10
-245.7302913698866
 20
-233.2910705383475
 30
0
 11
-245.7302913698866
 21
-231.2910705383466
 31
0
  0
LINE
  8
1
 62
3
 10
-208.5902913698861
 20
-231.2910705383466
 30
0
 11
-208.5902913698862
 21
-233.2910705383487
 31
0
  0
LINE
  8
1
 62
3
 10
-241.2602913698865
 20
-236.5910705383465
 30
0
 11
-239.6602913698864
 21
-236.5910705383465
 31
0
  0
LINE
  8
1
 62
3
 10
-213.0602913698879
 20
-236.5910705383465
 30
0
 11
-214.6602913698864
 21
-236.5910705383465
 31
0
  0
LINE
  8
1
 62
3
 10
-241.2602913698865
 20
-236.5910705383465
 30
0
 11
-241.2602913698864
 21
-231.2910705383446
 31
0
  0
LINE
  8
1
 62
3
 10
-213.0602913698879
 20
-236.5910705383465
 30
0
 11
-213.0602913698866
 21
-231.2910705383466
 31
0
  0
LINE
  8
1
 62
3
 10
-211.590291369886
 20
-236.2910705383475
 30
0
 11
-213.0602913698877
 21
-236.2910705383475
 31
0
  0
LINE
  8
1
 62
3
 10
-241.2602913698865
 20
-236.2910705383478
 30
0
 11
-242.7302913698868
 21
-236.2910705383478
 31
0
  0
LINE
  8
1
 62
3
 10
-214.6602913698864
 20
-236.5910705383465
 30
0
 11
-216.4102913698864
 21
-236.5910705383466
 31
0
  0
LINE
  8
1
 62
3
 10
-241.2602913698865
 20
-236.2910705383478
 30
0
 11
-242.7302913698868
 21
-236.2910705383478
 31
0
  0
LINE
  8
1
 62
3
 10
-211.590291369886
 20
-236.2910705383475
 30
0
 11
-213.0602913698877
 21
-236.2910705383475
 31
0
  0
LINE
  8
1
 62
3
 10
-213.0602913698879
 20
-236.5910705383465
 30
0
 11
-213.0602913698866
 21
-231.2910705383466
 31
0
  0
LINE
  8
1
 62
3
 10
-241.2602913698865
 20
-236.5910705383465
 30
0
 11
-241.2602913698864
 21
-231.2910705383446
 31
0
  0
LINE
  8
1
 62
3
 10
-213.0602913698879
 20
-236.5910705383465
 30
0
 11
-214.6602913698864
 21
-236.5910705383465
 31
0
  0
LINE
  8
1
 62
3
 10
-241.2602913698865
 20
-236.5910705383465
 30
0
 11
-239.6602913698864
 21
-236.5910705383465
 31
0
  0
ARC
  8
1
 62
3
 10
-244.2786609764517
 20
-229.8900975268147
 30
0
 40
1.999999999999508
 50
224.466049469764
 51
237.2358313640271
  0
ARC
  8
1
 62
3
 10
-210.0419217633207
 20
-229.8900975268147
 30
0
 40
1.999999999999164
 50
302.7641686359674
 51
315.5339505302275
  0
ARC
  8
1
 62
3
 10
-211.5902913698861
 20
-233.2910705383475
 30
0
 40
3
 50
270
 51
359.9999999999772
  0
ARC
  8
1
 62
3
 10
-242.7302913698866
 20
-233.2910705383475
 30
0
 40
3
 50
180
 51
270
  0
ARC
  8
1
 62
3
 10
-242.7302913698866
 20
-233.2910705383475
 30
0
 40
3
 50
180
 51
270
  0
ARC
  8
1
 62
3
 10
-211.5902913698861
 20
-233.2910705383475
 30
0
 40
3
 50
270
 51
359.9999999999772
  0
ENDBLK
  8
0
  0
BLOCK
  8
0
  2
____M3_________1
 70
0
 10
-251.9602913698863
 20
-187.8910705383464
 30
0
  0
LINE
  8
1
 62
1
 10
-246.1602913698863
 20
-187.8910705383464
 30
0
 11
-257.7602913698864
 21
-187.8910705383464
 31
0
  0
LINE
  8
1
 62
1
 10
-251.9602913698863
 20
-182.0910705383463
 30
0
 11
-251.9602913698863
 21
-193.6910705383466
 31
0
  0
LINE
  8
1
 62
3
 10
-250.7072991623359
 20
-188.6208037278189
 30
0
 11
-251.3183385334885
 21
-188.0097643566664
 31
0
  0
LINE
  8
1
 62
3
 10
-250.7072991623359
 20
-187.1613373488741
 30
0
 11
-251.3183385334885
 21
-187.7723767200267
 31
0
  0
LINE
  8
1
 62
3
 10
-252.6900245593588
 20
-189.1440627458971
 30
0
 11
-252.0789851882063
 21
-188.5330233747444
 31
0
  0
LINE
  8
1
 62
3
 10
-251.8354626017466
 20
-188.5391583245642
 30
0
 11
-251.230558180414
 21
-189.1440627458971
 31
0
  0
LINE
  8
1
 62
3
 10
-251.8415975515665
 20
-188.5330233747444
 30
0
 11
-251.8354626017466
 21
-188.5391583245642
 31
0
  0
LINE
  8
1
 62
3
 10
-253.2132835774369
 20
-187.1613373488741
 30
0
 11
-252.6022442062843
 21
-187.7723767200267
 31
0
  0
LINE
  8
1
 62
3
 10
-253.2132835774369
 20
-188.6208037278189
 30
0
 11
-252.6022442062843
 21
-188.0097643566664
 31
0
  0
LINE
  8
1
 62
3
 10
-251.230558180414
 20
-186.6380783307959
 30
0
 11
-251.8415975515665
 21
-187.2491177019486
 31
0
  0
LINE
  8
1
 62
3
 10
-252.6900245593588
 20
-186.6380783307959
 30
0
 11
-252.0789851882063
 21
-187.2491177019486
 31
0
  0
ARC
  8
1
 62
3
 10
-251.9602913698863
 20
-187.8910705383464
 30
0
 40
0.6349999999997804
 50
352.5415509436902
 51
7.458449056302161
  0
ARC
  8
1
 62
3
 10
-251.9602913698863
 20
-187.8910705383464
 30
0
 40
1.450000000000052
 50
300.2161982852422
 51
329.7838017147469
  0
ARC
  8
1
 62
3
 10
-251.9602913698863
 20
-187.8910705383464
 30
0
 40
0.6349999999999643
 50
262.541550943682
 51
277.4584490563002
  0
ARC
  8
1
 62
3
 10
-251.9602913698863
 20
-187.8910705383464
 30
0
 40
1.450000000000064
 50
210.2161982852497
 51
239.783801714752
  0
ARC
  8
1
 62
3
 10
-251.9602913698863
 20
-187.8910705383464
 30
0
 40
0.6350000000000511
 50
172.5415509437012
 51
187.4584490563065
  0
ARC
  8
1
 62
3
 10
-251.9602913698863
 20
-187.8910705383464
 30
0
 40
1.44999999999999
 50
120.2161982852514
 51
149.7838017147561
  0
ARC
  8
1
 62
3
 10
-251.9602913698863
 20
-187.8910705383464
 30
0
 40
0.6349999999997693
 50
82.54155094369784
 51
97.45844905631863
  0
ARC
  8
1
 62
3
 10
-251.9602913698863
 20
-187.8910705383464
 30
0
 40
1.449999999999831
 50
30.21619828524729
 51
59.7838017147544
  0
CIRCLE
  8
1
 62
3
 10
-251.9602913698863
 20
-187.8910705383464
 30
0
 40
2.800000000000011
  0
ARC
  8
1
 62
3
 10
-251.287697239637
 20
-187.9791230628149
 30
0
 40
0.0433333333335418
 50
172.5415509437038
 51
225.0000000000266
  0
ARC
  8
1
 62
3
 10
-251.287697239637
 20
-187.803018013878
 30
0
 40
0.04333333333329322
 50
135.000000000186
 51
187.4584490563335
  0
ARC
  8
1
 62
3
 10
-252.0483438943549
 20
-188.5636646685958
 30
0
 40
0.04333333333345725
 50
82.5415509436892
 51
135
  0
ARC
  8
1
 62
3
 10
-251.8722388454179
 20
-188.5636646685958
 30
0
 40
0.04333333333331332
 50
45
 51
97.45844905631081
  0
ARC
  8
1
 62
3
 10
-252.6328855001357
 20
-187.803018013878
 30
0
 40
0.04333333333334822
 50
352.5415509436324
 51
44.99999999989371
  0
ARC
  8
1
 62
3
 10
-252.6328855001357
 20
-187.9791230628149
 30
0
 40
0.0433333333333937
 50
314.9999999998937
 51
7.458449056330325
  0
ARC
  8
1
 62
3
 10
-251.8722388454179
 20
-187.2184764080972
 30
0
 40
0.04333333333345725
 50
262.5415509436892
 51
315
  0
ARC
  8
1
 62
3
 10
-252.0483438943549
 20
-187.2184764080972
 30
0
 40
0.04333333333331332
 50
225
 51
277.4584490563303
  0
ENDBLK
  8
0
  0
BLOCK
  8
0
  2
____M3_________2
 70
0
 10
-202.3602913698862
 20
-187.8910705383464
 30
0
  0
LINE
  8
1
 62
1
 10
-202.3602913698862
 20
-182.0910705383463
 30
0
 11
-202.3602913698862
 21
-193.6910705383466
 31
0
  0
LINE
  8
1
 62
1
 10
-196.5602913698862
 20
-187.8910705383464
 30
0
 11
-208.1602913698863
 21
-187.8910705383464
 31
0
  0
LINE
  8
1
 62
3
 10
-203.0900245593587
 20
-186.6380783307959
 30
0
 11
-202.4789851882061
 21
-187.2491177019486
 31
0
  0
LINE
  8
1
 62
3
 10
-201.6305581804137
 20
-186.6380783307959
 30
0
 11
-202.2415975515663
 21
-187.2491177019486
 31
0
  0
LINE
  8
1
 62
3
 10
-203.6132835774367
 20
-188.6208037278189
 30
0
 11
-203.0022442062841
 21
-188.0097643566664
 31
0
  0
LINE
  8
1
 62
3
 10
-203.6132835774367
 20
-187.1613373488741
 30
0
 11
-203.0022442062841
 21
-187.7723767200267
 31
0
  0
LINE
  8
1
 62
3
 10
-202.2415975515663
 20
-188.5330233747444
 30
0
 11
-202.2354626017464
 21
-188.5391583245642
 31
0
  0
LINE
  8
1
 62
3
 10
-202.2354626017464
 20
-188.5391583245642
 30
0
 11
-201.6305581804138
 21
-189.1440627458971
 31
0
  0
LINE
  8
1
 62
3
 10
-203.0900245593587
 20
-189.1440627458971
 30
0
 11
-202.4789851882061
 21
-188.5330233747444
 31
0
  0
LINE
  8
1
 62
3
 10
-201.1072991623357
 20
-187.1613373488741
 30
0
 11
-201.7183385334884
 21
-187.7723767200267
 31
0
  0
LINE
  8
1
 62
3
 10
-201.1072991623357
 20
-188.6208037278189
 30
0
 11
-201.7183385334884
 21
-188.0097643566664
 31
0
  0
ARC
  8
1
 62
3
 10
-202.3602913698862
 20
-187.8910705383464
 30
0
 40
1.449999999999905
 50
30.2161982852456
 51
59.78380171474762
  0
ARC
  8
1
 62
3
 10
-202.3602913698862
 20
-187.8910705383464
 30
0
 40
0.6349999999997693
 50
82.54155094369784
 51
97.45844905630845
  0
ARC
  8
1
 62
3
 10
-202.3602913698862
 20
-187.8910705383464
 30
0
 40
1.450000000000005
 50
120.2161982852524
 51
149.7838017147544
  0
ARC
  8
1
 62
3
 10
-202.3602913698862
 20
-187.8910705383464
 30
0
 40
0.6349999999999665
 50
172.5415509437002
 51
187.4584490563065
  0
ARC
  8
1
 62
3
 10
-202.3602913698862
 20
-187.8910705383464
 30
0
 40
1.44999999999999
 50
210.2161982852514
 51
239.783801714751
  0
ARC
  8
1
 62
3
 10
-202.3602913698862
 20
-187.8910705383464
 30
0
 40
0.6349999999999494
 50
262.5415509436922
 51
277.4584490563002
  0
ARC
  8
1
 62
3
 10
-202.3602913698862
 20
-187.8910705383464
 30
0
 40
1.450000000000095
 50
300.2161982852451
 51
329.7838017147486
  0
ARC
  8
1
 62
3
 10
-202.3602913698862
 20
-187.8910705383464
 30
0
 40
0.6349999999999777
 50
352.5415509436925
 51
7.458449056299831
  0
CIRCLE
  8
1
 62
3
 10
-202.3602913698862
 20
-187.8910705383464
 30
0
 40
2.800000000000011
  0
ARC
  8
1
 62
3
 10
-202.4483438943547
 20
-187.2184764080972
 30
0
 40
0.04333333333331332
 50
225
 51
277.4584490563676
  0
ARC
  8
1
 62
3
 10
-202.2722388454178
 20
-187.2184764080972
 30
0
 40
0.04333333333345725
 50
262.5415509436892
 51
315.0000000001063
  0
ARC
  8
1
 62
3
 10
-203.0328855001356
 20
-187.9791230628149
 30
0
 40
0.043333333333454
 50
314.9999999999734
 51
7.458449056330325
  0
ARC
  8
1
 62
3
 10
-203.0328855001356
 20
-187.803018013878
 30
0
 40
0.04333333333343276
 50
352.5415509436471
 51
44.99999999981399
  0
ARC
  8
1
 62
3
 10
-202.2722388454178
 20
-188.5636646685958
 30
0
 40
0.0433333333333937
 50
44.99999999989371
 51
97.45844905631081
  0
ARC
  8
1
 62
3
 10
-202.4483438943547
 20
-188.5636646685958
 30
0
 40
0.04333333333346094
 50
82.54155094365193
 51
135
  0
ARC
  8
1
 62
3
 10
-201.6876972396369
 20
-187.803018013878
 30
0
 40
0.04333333333331332
 50
135.0000000002126
 51
187.4584490563676
  0
ARC
  8
1
 62
3
 10
-201.6876972396369
 20
-187.9791230628149
 30
0
 40
0.04333333333334453
 50
172.5415509436697
 51
225
  0
ENDBLK
  8
0
  0
BLOCK
  8
0
  2
____M3_________3
 70
0
 10
-202.3602913698862
 20
-218.6910705383467
 30
0
  0
LINE
  8
1
 62
1
 10
-202.3602913698862
 20
-212.8910705383466
 30
0
 11
-202.3602913698862
 21
-224.4910705383465
 31
0
  0
LINE
  8
1
 62
1
 10
-208.1602913698863
 20
-218.6910705383467
 30
0
 11
-196.5602913698862
 21
-218.6910705383467
 31
0
  0
LINE
  8
1
 62
3
 10
-201.7183385334884
 20
-218.5723767200267
 30
0
 11
-201.1072991623357
 21
-217.961337348874
 31
0
  0
LINE
  8
1
 62
3
 10
-201.7183385334884
 20
-218.8097643566662
 30
0
 11
-201.1072991623357
 21
-219.420803727819
 31
0
  0
LINE
  8
1
 62
3
 10
-202.4789851882061
 20
-218.0491177019485
 30
0
 11
-203.0900245593587
 21
-217.438078330796
 31
0
  0
LINE
  8
1
 62
3
 10
-201.6305581804138
 20
-217.438078330796
 30
0
 11
-202.2354626017464
 21
-218.0429827521287
 31
0
  0
LINE
  8
1
 62
3
 10
-202.2354626017464
 20
-218.0429827521287
 30
0
 11
-202.2415975515663
 21
-218.0491177019485
 31
0
  0
LINE
  8
1
 62
3
 10
-203.0022442062841
 20
-218.8097643566662
 30
0
 11
-203.6132835774367
 21
-219.420803727819
 31
0
  0
LINE
  8
1
 62
3
 10
-203.0022442062841
 20
-218.5723767200267
 30
0
 11
-203.6132835774367
 21
-217.961337348874
 31
0
  0
LINE
  8
1
 62
3
 10
-202.2415975515663
 20
-219.3330233747445
 30
0
 11
-201.6305581804137
 21
-219.944062745897
 31
0
  0
LINE
  8
1
 62
3
 10
-202.4789851882061
 20
-219.3330233747445
 30
0
 11
-203.0900245593587
 21
-219.944062745897
 31
0
  0
ARC
  8
1
 62
3
 10
-202.3602913698862
 20
-218.6910705383467
 30
0
 40
0.6349999999999407
 50
352.541550943718
 51
7.458449056327804
  0
ARC
  8
1
 62
3
 10
-202.3602913698862
 20
-218.6910705383467
 30
0
 40
1.450000000000105
 50
30.21619828525918
 51
59.78380171475546
  0
ARC
  8
1
 62
3
 10
-202.3602913698862
 20
-218.6910705383467
 30
0
 40
0.6350000000001638
 50
82.5415509437025
 51
97.45844905630513
  0
ARC
  8
1
 62
3
 10
-202.3602913698862
 20
-218.6910705383467
 30
0
 40
1.450000000000177
 50
120.2161982852484
 51
149.7838017147408
  0
ARC
  8
1
 62
3
 10
-202.3602913698862
 20
-218.6910705383467
 30
0
 40
0.6350000000000916
 50
172.5415509436732
 51
187.458449056282
  0
ARC
  8
1
 62
3
 10
-202.3602913698862
 20
-218.6910705383467
 30
0
 40
1.449999999999891
 50
210.2161982852446
 51
239.7838017147437
  0
ARC
  8
1
 62
3
 10
-202.3602913698862
 20
-218.6910705383467
 30
0
 40
0.6349999999997521
 50
262.5415509436899
 51
277.4584490563025
  0
ARC
  8
1
 62
3
 10
-202.3602913698862
 20
-218.6910705383467
 30
0
 40
1.449999999999833
 50
300.2161982852564
 51
329.7838017147553
  0
CIRCLE
  8
1
 62
3
 10
-202.3602913698862
 20
-218.6910705383467
 30
0
 40
2.800000000000011
  0
ARC
  8
1
 62
3
 10
-201.6876972396369
 20
-218.603018013878
 30
0
 40
0.04333333333331332
 50
135.0000000002126
 51
187.4584490563303
  0
ARC
  8
1
 62
3
 10
-201.6876972396369
 20
-218.7791230628149
 30
0
 40
0.04333333333334453
 50
172.5415509436697
 51
224.9999999997874
  0
ARC
  8
1
 62
3
 10
-202.4483438943547
 20
-218.0184764080971
 30
0
 40
0.04333333333331332
 50
225
 51
277.4584490563481
  0
ARC
  8
1
 62
3
 10
-202.2722388454178
 20
-218.0184764080971
 30
0
 40
0.04333333333345725
 50
262.5415509436892
 51
315.0000000001063
  0
ARC
  8
1
 62
3
 10
-203.0328855001356
 20
-218.7791230628149
 30
0
 40
0.04333333333329322
 50
315.000000000186
 51
7.458449056315692
  0
ARC
  8
1
 62
3
 10
-203.0328855001356
 20
-218.603018013878
 30
0
 40
0.04333333333334453
 50
352.5415509436697
 51
44.99999999981399
  0
ARC
  8
1
 62
3
 10
-202.2722388454178
 20
-219.3636646685959
 30
0
 40
0.0433333333333937
 50
44.99999999989371
 51
97.45844905631081
  0
ARC
  8
1
 62
3
 10
-202.4483438943547
 20
-219.3636646685959
 30
0
 40
0.04333333333346094
 50
82.54155094365193
 51
135
  0
ENDBLK
  8
0
  0
BLOCK
  8
0
  2
____M3_________4
 70
0
 10
-251.9602913698863
 20
-218.6910705383467
 30
0
  0
LINE
  8
1
 62
1
 10
-251.9602913698863
 20
-212.8910705383466
 30
0
 11
-251.9602913698863
 21
-224.4910705383465
 31
0
  0
LINE
  8
1
 62
1
 10
-257.7602913698864
 20
-218.6910705383467
 30
0
 11
-246.1602913698863
 21
-218.6910705383467
 31
0
  0
LINE
  8
1
 62
3
 10
-252.0789851882063
 20
-219.3330233747445
 30
0
 11
-252.6900245593588
 21
-219.944062745897
 31
0
  0
LINE
  8
1
 62
3
 10
-251.8415975515665
 20
-219.3330233747445
 30
0
 11
-251.230558180414
 21
-219.944062745897
 31
0
  0
LINE
  8
1
 62
3
 10
-252.6022442062843
 20
-218.5723767200267
 30
0
 11
-253.2132835774369
 21
-217.961337348874
 31
0
  0
LINE
  8
1
 62
3
 10
-252.6022442062843
 20
-218.8097643566662
 30
0
 11
-253.2132835774369
 21
-219.420803727819
 31
0
  0
LINE
  8
1
 62
3
 10
-251.8354626017466
 20
-218.0429827521287
 30
0
 11
-251.8415975515665
 21
-218.0491177019485
 31
0
  0
LINE
  8
1
 62
3
 10
-251.230558180414
 20
-217.438078330796
 30
0
 11
-251.8354626017466
 21
-218.0429827521287
 31
0
  0
LINE
  8
1
 62
3
 10
-252.0789851882063
 20
-218.0491177019485
 30
0
 11
-252.6900245593588
 21
-217.438078330796
 31
0
  0
LINE
  8
1
 62
3
 10
-251.3183385334885
 20
-218.8097643566662
 30
0
 11
-250.7072991623359
 21
-219.420803727819
 31
0
  0
LINE
  8
1
 62
3
 10
-251.3183385334885
 20
-218.5723767200267
 30
0
 11
-250.7072991623359
 21
-217.961337348874
 31
0
  0
ARC
  8
1
 62
3
 10
-251.9602913698863
 20
-218.6910705383467
 30
0
 40
1.449999999999733
 50
300.2161982852496
 51
329.7838017147537
  0
ARC
  8
1
 62
3
 10
-251.9602913698863
 20
-218.6910705383467
 30
0
 40
0.634999999999767
 50
262.5415509436797
 51
277.4584490563025
  0
ARC
  8
1
 62
3
 10
-251.9602913698863
 20
-218.6910705383467
 30
0
 40
1.449999999999964
 50
210.216198285243
 51
239.7838017147446
  0
ARC
  8
1
 62
3
 10
-251.9602913698863
 20
-218.6910705383467
 30
0
 40
0.6350000000000916
 50
172.5415509436732
 51
187.458449056281
  0
ARC
  8
1
 62
3
 10
-251.9602913698863
 20
-218.6910705383467
 30
0
 40
1.450000000000162
 50
120.2161982852475
 51
149.7838017147425
  0
ARC
  8
1
 62
3
 10
-251.9602913698863
 20
-218.6910705383467
 30
0
 40
0.6350000000001638
 50
82.5415509437025
 51
97.45844905631529
  0
ARC
  8
1
 62
3
 10
-251.9602913698863
 20
-218.6910705383467
 30
0
 40
1.450000000000031
 50
30.21619828526088
 51
59.78380171475835
  0
ARC
  8
1
 62
3
 10
-251.9602913698863
 20
-218.6910705383467
 30
0
 40
0.6349999999997434
 50
352.5415509437156
 51
7.458449056330133
  0
CIRCLE
  8
1
 62
3
 10
-251.9602913698863
 20
-218.6910705383467
 30
0
 40
2.800000000000011
  0
ARC
  8
1
 62
3
 10
-252.0483438943549
 20
-219.3636646685959
 30
0
 40
0.04333333333345725
 50
82.5415509436892
 51
135
  0
ARC
  8
1
 62
3
 10
-251.8722388454179
 20
-219.3636646685959
 30
0
 40
0.04333333333331332
 50
45
 51
97.45844905631081
  0
ARC
  8
1
 62
3
 10
-252.6328855001357
 20
-218.603018013878
 30
0
 40
0.04333333333334453
 50
352.5415509436697
 51
44.99999999989371
  0
ARC
  8
1
 62
3
 10
-252.6328855001357
 20
-218.7791230628149
 30
0
 40
0.04333333333323293
 50
315.0000000001063
 51
7.458449056330325
  0
ARC
  8
1
 62
3
 10
-251.8722388454179
 20
-218.0184764080971
 30
0
 40
0.04333333333345725
 50
262.5415509436892
 51
315
  0
ARC
  8
1
 62
3
 10
-252.0483438943549
 20
-218.0184764080971
 30
0
 40
0.04333333333331332
 50
225
 51
277.4584490563108
  0
ARC
  8
1
 62
3
 10
-251.287697239637
 20
-218.7791230628149
 30
0
 40
0.0433333333335418
 50
172.5415509437038
 51
224.999999999814
  0
ARC
  8
1
 62
3
 10
-251.287697239637
 20
-218.603018013878
 30
0
 40
0.04333333333329322
 50
135.000000000186
 51
187.4584490562962
  0
ENDBLK
  8
0
  0
BLOCK
  8
1
  2
*D0
 70
1
 10
0
 20
0
 30
0
  0
LINE
  8
1
 62
2
 10
-110.8206811293522
 20
-200.6160705383467
 30
0
 11
-110.8206811293522
 21
-166.255337255663
 31
0
  0
LINE
  8
1
 62
2
 10
-110.8206811293522
 20
-206.4660705383466
 30
0
 11
-110.8206811293522
 21
-200.6160705383467
 31
0
  0
LINE
  8
1
 62
2
 10
-110.8206811293522
 20
-212.8660705383466
 30
0
 11
-110.8206811293522
 21
-206.4660705383466
 31
0
  0
LINE
  8
1
 62
2
 10
-101.8206811293524
 20
-200.6160705383467
 30
0
 11
-112.3206811293522
 21
-200.6160705383467
 31
0
  0
LINE
  8
1
 62
2
 10
-101.3206811293524
 20
-206.4660705383466
 30
0
 11
-112.3206811293522
 21
-206.4660705383466
 31
0
  0
SOLID
  8
1
 62
2
 10
-110.8206811293522
 20
-200.6160705383467
 30
0
 11
-111.2366811293522
 21
-197.4160705383467
 31
0
 12
-110.4046811293522
 22
-197.4160705383467
 32
0
 13
-110.4046811293522
 23
-197.4160705383467
 33
0
  0
SOLID
  8
1
 62
2
 10
-110.8206811293522
 20
-206.4660705383466
 30
0
 11
-110.4046811293522
 21
-209.6660705383466
 31
0
 12
-111.2366811293522
 22
-209.6660705383466
 32
0
 13
-111.2366811293522
 23
-209.6660705383466
 33
0
  0
TEXT
  8
1
 62
2
 10
-114.0206811293522
 20
-182.304137255663
 30
0
 40
3.2
  1
5.85
 50
90
 41
0.9
  0
TEXT
  8
1
 62
2
 10
-116.1806811293522
 20
-171.984137255663
 30
0
 40
2.24
  1
 0
 50
90
 41
0.9900000000000001
  0
TEXT
  8
1
 62
2
 10
-112.8206811293522
 20
-171.984137255663
 30
0
 40
2.24
  1
-0.1
 50
90
 41
0.9900000000000001
  0
ENDBLK
  8
0
  0
BLOCK
  8
1
  2
*D1
 70
1
 10
0
 20
0
 30
0
  0
LINE
  8
1
 62
2
 10
-100.8206811293524
 20
-157.291070538346
 30
0
 11
-85.82068112935237
 21
-157.291070538346
 31
0
  0
LINE
  8
1
 62
2
 10
-85.82068112935237
 20
-199.1160705383466
 30
0
 11
-85.82068112935237
 21
-155.791070538346
 31
0
  0
LINE
  8
1
 62
2
 10
-100.8206811293524
 20
-199.6160705383467
 30
0
 11
-100.8206811293524
 21
-155.791070538346
 31
0
  0
SOLID
  8
1
 62
2
 10
-100.8206811293524
 20
-157.291070538346
 30
0
 11
-97.62068112935239
 21
-156.875070538346
 31
0
 12
-97.62068112935239
 22
-157.707070538346
 32
0
 13
-97.62068112935239
 23
-157.707070538346
 33
0
  0
SOLID
  8
1
 62
2
 10
-85.82068112935237
 20
-157.291070538346
 30
0
 11
-89.02068112935237
 21
-157.707070538346
 31
0
 12
-89.02068112935237
 22
-156.875070538346
 32
0
 13
-89.02068112935237
 23
-156.875070538346
 33
0
  0
TEXT
  8
1
 62
2
 10
-98.8176323056924
 20
-155.291070538346
 30
0
 40
3.2
  1
15
 41
0.9
  0
TEXT
  8
1
 62
2
 10
-93.3776323056924
 20
-154.811070538346
 30
0
 40
2.24
  1
%%p0.2
 41
0.9900000000000001
  0
ENDBLK
  8
0
  0
BLOCK
  8
1
  2
*D2
 70
1
 10
0
 20
0
 30
0
  0
LINE
  8
1
 62
2
 10
-241.1214967730295
 20
-294.2701243664185
 30
0
 11
-163.0009263741032
 21
-294.2701243664185
 31
0
  0
LINE
  8
1
 62
2
 10
-241.1214967730295
 20
-301.1703108751134
 30
0
 11
-241.1214967730295
 21
-292.7701243664185
 31
0
  0
LINE
  8
1
 62
2
 10
-163.0009263741032
 20
-310.4703108751135
 30
0
 11
-163.0009263741032
 21
-292.7701243664185
 31
0
  0
SOLID
  8
1
 62
2
 10
-241.1214967730295
 20
-294.2701243664185
 30
0
 11
-237.9214967730295
 21
-293.8541243664185
 31
0
 12
-237.9214967730295
 22
-294.6861243664185
 32
0
 13
-237.9214967730295
 23
-294.6861243664185
 33
0
  0
SOLID
  8
1
 62
2
 10
-163.0009263741032
 20
-294.2701243664185
 30
0
 11
-166.2009263741032
 21
-294.6861243664185
 31
0
 12
-166.2009263741032
 22
-293.8541243664185
 32
0
 13
-166.2009263741032
 23
-293.8541243664185
 33
0
  0
TEXT
  8
1
 62
2
 10
-210.1993728554228
 20
-291.0701243664185
 30
0
 40
3.2
  1
300
 41
0.9
  0
TEXT
  8
1
 62
2
 10
-200.9193728554228
 20
-288.9101243664185
 30
0
 40
2.24
  1
+40
 41
0.9900000000000001
  0
TEXT
  8
1
 62
2
 10
-200.9193728554228
 20
-292.2701243664185
 30
0
 40
2.24
  1
 0
 41
0.9900000000000001
  0
ENDBLK
  8
0
  0
BLOCK
  8
1
  2
*D3
 70
1
 10
0
 20
0
 30
0
  0
LINE
  8
1
 62
2
 10
-173.0009263741034
 20
-303.8701243664183
 30
0
 11
-163.0009263741034
 21
-303.8701243664183
 31
0
  0
LINE
  8
1
 62
2
 10
-173.0009263741034
 20
-309.9703108751132
 30
0
 11
-173.0009263741034
 21
-302.8701243664183
 31
0
  0
LINE
  8
1
 62
2
 10
-163.0009263741034
 20
-310.7703108751133
 30
0
 11
-163.0009263741034
 21
-302.8701243664183
 31
0
  0
SOLID
  8
1
 62
2
 10
-173.0009263741034
 20
-303.8701243664183
 30
0
 11
-169.8009263741034
 21
-303.4541243664183
 31
0
 12
-169.8009263741034
 22
-304.2861243664183
 32
0
 13
-169.8009263741034
 23
-304.2861243664183
 33
0
  0
SOLID
  8
1
 62
2
 10
-163.0009263741034
 20
-303.8701243664183
 30
0
 11
-166.2009263741034
 21
-304.2861243664183
 31
0
 12
-166.2009263741034
 22
-303.4541243664183
 32
0
 13
-166.2009263741034
 23
-303.4541243664183
 33
0
  0
TEXT
  8
1
 62
2
 10
-170.2989283657406
 20
-301.8701243664184
 30
0
 40
3.2
  1
10
 41
0.9
  0
TEXT
  8
1
 62
2
 10
-172.3789283657406
 20
-301.8701243664184
 30
0
 40
3.2
  1
(
 41
0.9
  0
TEXT
  8
1
 62
2
 10
-164.8589283657406
 20
-301.8701243664184
 30
0
 40
3.2
  1
)
 41
0.9
  0
ENDBLK
  8
0
  0
BLOCK
  8
1
  2
*D4
 70
1
 10
0
 20
0
 30
0
  0
LINE
  8
1
 62
2
 10
31.77931887064745
 20
-200.6160705383465
 30
0
 11
31.77931887064745
 21
-176.492802693577
 31
0
  0
LINE
  8
1
 62
2
 10
31.77931887064745
 20
-206.4660705383465
 30
0
 11
31.77931887064745
 21
-200.6160705383465
 31
0
  0
LINE
  8
1
 62
2
 10
31.77931887064745
 20
-212.8660705383465
 30
0
 11
31.77931887064745
 21
-206.4660705383465
 31
0
  0
LINE
  8
1
 62
2
 10
12.77931887064745
 20
-200.6160705383465
 30
0
 11
33.27931887064745
 21
-200.6160705383465
 31
0
  0
LINE
  8
1
 62
2
 10
12.47931887064745
 20
-206.4660705383465
 30
0
 11
33.27931887064745
 21
-206.4660705383465
 31
0
  0
SOLID
  8
1
 62
2
 10
31.77931887064745
 20
-200.6160705383465
 30
0
 11
31.36331887064745
 21
-197.4160705383465
 31
0
 12
32.19531887064745
 22
-197.4160705383465
 32
0
 13
32.19531887064745
 23
-197.4160705383465
 33
0
  0
SOLID
  8
1
 62
2
 10
31.77931887064745
 20
-206.4660705383465
 30
0
 11
32.19531887064745
 21
-209.6660705383465
 31
0
 12
31.36331887064745
 22
-209.6660705383465
 32
0
 13
31.36331887064745
 23
-209.6660705383465
 33
0
  0
TEXT
  8
1
 62
2
 10
28.57931887064745
 20
-192.541602693577
 30
0
 40
3.2
  1
5.85
 50
90
 41
0.9
  0
TEXT
  8
1
 62
2
 10
26.41931887064745
 20
-182.221602693577
 30
0
 40
2.24
  1
 0
 50
90
 41
0.9900000000000001
  0
TEXT
  8
1
 62
2
 10
29.77931887064745
 20
-182.221602693577
 30
0
 40
2.24
  1
-0.1
 50
90
 41
0.9900000000000001
  0
ENDBLK
  8
0
  0
BLOCK
  8
1
  2
*D5
 70
1
 10
0
 20
0
 30
0
  0
LINE
  8
1
 62
2
 10
41.77931887064744
 20
-200.1160705383466
 30
0
 11
41.77931887064744
 21
-173.37519774661
 31
0
  0
LINE
  8
1
 62
2
 10
41.77931887064744
 20
-206.4660705383465
 30
0
 11
41.77931887064744
 21
-200.1160705383466
 31
0
  0
LINE
  8
1
 62
2
 10
41.77931887064744
 20
-212.8660705383465
 30
0
 11
41.77931887064744
 21
-206.4660705383465
 31
0
  0
LINE
  8
1
 62
2
 10
-2.220681129352556
 20
-200.1160705383466
 30
0
 11
43.27931887064744
 21
-200.1160705383466
 31
0
  0
LINE
  8
1
 62
2
 10
12.47931887064745
 20
-206.4660705383465
 30
0
 11
43.27931887064744
 21
-206.4660705383465
 31
0
  0
SOLID
  8
1
 62
2
 10
41.77931887064744
 20
-200.1160705383466
 30
0
 11
41.36331887064744
 21
-196.9160705383466
 31
0
 12
42.19531887064744
 22
-196.9160705383466
 32
0
 13
42.19531887064744
 23
-196.9160705383466
 33
0
  0
SOLID
  8
1
 62
2
 10
41.77931887064744
 20
-206.4660705383465
 30
0
 11
42.19531887064744
 21
-209.6660705383465
 31
0
 12
41.36331887064745
 22
-209.6660705383465
 32
0
 13
41.36331887064745
 23
-209.6660705383465
 33
0
  0
TEXT
  8
1
 62
2
 10
38.57931887064745
 20
-192.3807977466099
 30
0
 40
3.2
  1
6.35
 50
90
 41
0.9
  0
TEXT
  8
1
 62
2
 10
36.41931887064744
 20
-182.06079774661
 30
0
 40
2.24
  1
 0
 50
90
 41
0.9900000000000001
  0
TEXT
  8
1
 62
2
 10
39.77931887064744
 20
-182.06079774661
 30
0
 40
2.24
  1
-0.02
 50
90
 41
0.9900000000000001
  0
TEXT
  8
1
 62
2
 10
38.57931887064745
 20
-197.6513859819041
 30
0
 40
3.2
  1
φ
 50
90
 41
1.35
  0
ENDBLK
  8
0
  0
BLOCK
  8
1
  2
*D6
 70
1
 10
0
 20
0
 30
0
  0
LINE
  8
1
 62
2
 10
-3.220681129352551
 20
-157.291070538346
 30
0
 11
11.77931887064745
 21
-157.291070538346
 31
0
  0
LINE
  8
1
 62
2
 10
11.77931887064745
 20
-199.6160705383465
 30
0
 11
11.77931887064745
 21
-155.791070538346
 31
0
  0
LINE
  8
1
 62
2
 10
-3.220681129352551
 20
-199.1160705383466
 30
0
 11
-3.220681129352551
 21
-155.791070538346
 31
0
  0
SOLID
  8
1
 62
2
 10
-3.220681129352551
 20
-157.291070538346
 30
0
 11
-0.02068112935255018
 21
-156.875070538346
 31
0
 12
-0.02068112935255018
 22
-157.707070538346
 32
0
 13
-0.02068112935255018
 23
-157.707070538346
 33
0
  0
SOLID
  8
1
 62
2
 10
11.77931887064745
 20
-157.291070538346
 30
0
 11
8.579318870647448
 21
-157.707070538346
 31
0
 12
8.579318870647448
 22
-156.875070538346
 32
0
 13
8.579318870647448
 23
-156.875070538346
 33
0
  0
TEXT
  8
1
 62
2
 10
-1.53579603368579
 20
-155.291070538346
 30
0
 40
3.2
  1
15
 41
0.9
  0
TEXT
  8
1
 62
2
 10
3.90420396631421
 20
-154.811070538346
 30
0
 40
2.24
  1
%%p0.2
 41
0.9900000000000001
  0
ENDBLK
  8
0
  0
BLOCK
  8
1
  2
*D7
 70
1
 10
0
 20
0
 30
0
  0
LINE
  8
1
 62
2
 10
-4.220681129352549
 20
-141.2910705383466
 30
0
 11
11.77931887064745
 21
-141.2910705383466
 31
0
  0
LINE
  8
1
 62
2
 10
11.77931887064745
 20
-199.6160705383465
 30
0
 11
11.77931887064745
 21
-139.7910705383466
 31
0
  0
LINE
  8
1
 62
2
 10
-4.220681129352549
 20
-174.7910705383465
 30
0
 11
-4.220681129352549
 21
-139.7910705383466
 31
0
  0
SOLID
  8
1
 62
2
 10
-4.220681129352549
 20
-141.2910705383466
 30
0
 11
-1.020681129352548
 21
-140.8750705383466
 31
0
 12
-1.020681129352548
 22
-141.7070705383466
 32
0
 13
-1.020681129352548
 23
-141.7070705383466
 33
0
  0
SOLID
  8
1
 62
2
 10
11.77931887064745
 20
-141.2910705383466
 30
0
 11
8.579318870647448
 21
-141.7070705383466
 31
0
 12
8.579318870647448
 22
-140.8750705383466
 32
0
 13
8.579318870647448
 23
-140.8750705383466
 33
0
  0
TEXT
  8
1
 62
2
 10
2.239436518024861
 20
-139.2910705383466
 30
0
 40
3.2
  1
16
 41
0.9
  0
TEXT
  8
1
 62
2
 10
-0.08056348197513952
 20
-139.2910705383466
 30
0
 40
3.2
  1
(
 41
1.35
  0
TEXT
  8
1
 62
2
 10
7.679436518024861
 20
-139.2910705383466
 30
0
 40
3.2
  1
)
 41
0.9
  0
ENDBLK
  8
0
  0
BLOCK
  8
1
  2
*D8
 70
1
 10
0
 20
0
 30
0
  0
LINE
  8
1
 62
2
 10
-260.1602913698867
 20
-238.2910705383466
 30
0
 11
-260.1602913698867
 21
-231.2910705383466
 31
0
  0
LINE
  8
1
 62
2
 10
-260.1602913698867
 20
-238.2910705383466
 30
0
 11
-260.1602913698867
 21
-244.6910705383466
 31
0
  0
LINE
  8
1
 62
2
 10
-260.1602913698867
 20
-231.2910705383466
 30
0
 11
-260.1602913698867
 21
-224.8910705383466
 31
0
  0
LINE
  8
1
 62
2
 10
-240.160291369887
 20
-238.2910705383466
 30
0
 11
-261.6602913698867
 21
-238.2910705383466
 31
0
  0
LINE
  8
1
 62
2
 10
-252.1602913698864
 20
-231.2910705383466
 30
0
 11
-261.6602913698867
 21
-231.2910705383466
 31
0
  0
SOLID
  8
1
 62
2
 10
-260.1602913698867
 20
-238.2910705383466
 30
0
 11
-259.7442913698867
 21
-241.4910705383466
 31
0
 12
-260.5762913698867
 22
-241.4910705383466
 32
0
 13
-260.5762913698867
 23
-241.4910705383466
 33
0
  0
SOLID
  8
1
 62
2
 10
-260.1602913698867
 20
-231.2910705383466
 30
0
 11
-260.5762913698867
 21
-228.0910705383466
 31
0
 12
-259.7442913698867
 22
-228.0910705383466
 32
0
 13
-259.7442913698867
 23
-228.0910705383466
 33
0
  0
TEXT
  8
1
 62
2
 10
-262.1602913698867
 20
-236.1488633025385
 30
0
 40
3.2
  1
7
 50
90
 41
0.9
  0
TEXT
  8
1
 62
2
 10
-262.1602913698867
 20
-241.9935691848915
 30
0
 40
3.2
  1
※(
 50
90
 41
0.9
  0
TEXT
  8
1
 62
2
 10
-262.1602913698867
 20
-232.6288633025386
 30
0
 40
3.2
  1
)
 50
90
 41
0.9
  0
ENDBLK
  8
0
  0
BLOCK
  8
1
  2
*D9
 70
1
 10
0
 20
0
 30
0
  0
LINE
  8
1
 62
2
 10
-80.22068112935256
 20
-247.2910705383469
 30
0
 11
-75.22068112935247
 21
-247.2910705383469
 31
0
  0
LINE
  8
1
 62
2
 10
-80.22068112935256
 20
-247.2910705383469
 30
0
 11
-86.62068112935256
 21
-247.2910705383469
 31
0
  0
LINE
  8
1
 62
2
 10
-75.22068112935247
 20
-247.2910705383469
 30
0
 11
-68.82068112935247
 21
-247.2910705383469
 31
0
  0
LINE
  8
1
 62
2
 10
-80.22068112935256
 20
-232.2910705383469
 30
0
 11
-80.22068112935256
 21
-248.7910705383469
 31
0
  0
LINE
  8
1
 62
2
 10
-75.22068112935247
 20
-232.2910705383468
 30
0
 11
-75.22068112935247
 21
-248.7910705383469
 31
0
  0
SOLID
  8
1
 62
2
 10
-80.22068112935256
 20
-247.2910705383469
 30
0
 11
-83.42068112935256
 21
-247.7070705383469
 31
0
 12
-83.42068112935256
 22
-246.8750705383469
 32
0
 13
-83.42068112935256
 23
-246.8750705383469
 33
0
  0
SOLID
  8
1
 62
2
 10
-75.22068112935247
 20
-247.2910705383469
 30
0
 11
-72.02068112935247
 21
-246.8750705383469
 31
0
 12
-72.02068112935247
 22
-247.7070705383469
 32
0
 13
-72.02068112935247
 23
-247.7070705383469
 33
0
  0
TEXT
  8
1
 62
2
 10
-78.51710061498588
 20
-245.2910705383469
 30
0
 40
3.2
  1
5
 41
0.9
  0
ENDBLK
  8
0
  0
BLOCK
  8
1
  2
*D10
 70
1
 10
0
 20
0
 30
0
  0
LINE
  8
1
 62
2
 10
-184.1602913698864
 20
-226.861070538347
 30
0
 11
-184.1602913698864
 21
-179.7210705383464
 31
0
  0
LINE
  8
1
 62
2
 10
-197.0902913698864
 20
-226.861070538347
 30
0
 11
-182.6602913698864
 21
-226.861070538347
 31
0
  0
LINE
  8
1
 62
2
 10
-197.0902913698864
 20
-179.7210705383464
 30
0
 11
-182.6602913698864
 21
-179.7210705383464
 31
0
  0
SOLID
  8
1
 62
2
 10
-184.1602913698864
 20
-179.7210705383464
 30
0
 11
-183.7442913698864
 21
-182.9210705383464
 31
0
 12
-184.5762913698864
 22
-182.9210705383464
 32
0
 13
-184.5762913698864
 23
-182.9210705383464
 33
0
  0
SOLID
  8
1
 62
2
 10
-184.1602913698864
 20
-226.861070538347
 30
0
 11
-184.5762913698864
 21
-223.661070538347
 31
0
 12
-183.7442913698864
 22
-223.661070538347
 32
0
 13
-183.7442913698864
 23
-223.661070538347
 33
0
  0
TEXT
  8
1
 62
2
 10
-186.1602913698864
 20
-211.8350705383466
 30
0
 40
3.2
  1
47.14
 50
90
 41
0.9
  0
TEXT
  8
1
 62
2
 10
-186.8002913698864
 20
-199.5950705383466
 30
0
 40
1.92
  1
%%p0.2
 50
90
 41
0.9
  0
ENDBLK
  8
0
  0
BLOCK
  8
1
  2
*D11
 70
1
 10
0
 20
0
 30
0
  0
LINE
  8
1
 62
2
 10
-176.1602913698864
 20
-231.2910705383466
 30
0
 11
-176.1602913698864
 21
-175.2910705383466
 31
0
  0
LINE
  8
1
 62
2
 10
-202.1602913698864
 20
-231.2910705383466
 30
0
 11
-174.6602913698864
 21
-231.2910705383466
 31
0
  0
LINE
  8
1
 62
2
 10
-202.1602913698864
 20
-175.2910705383466
 30
0
 11
-174.6602913698864
 21
-175.2910705383466
 31
0
  0
SOLID
  8
1
 62
2
 10
-176.1602913698864
 20
-175.2910705383466
 30
0
 11
-175.7442913698864
 21
-178.4910705383466
 31
0
 12
-176.5762913698864
 22
-178.4910705383466
 32
0
 13
-176.5762913698864
 23
-178.4910705383466
 33
0
  0
SOLID
  8
1
 62
2
 10
-176.1602913698864
 20
-231.2910705383466
 30
0
 11
-176.5762913698864
 21
-228.0910705383466
 31
0
 12
-175.7442913698864
 22
-228.0910705383466
 32
0
 13
-175.7442913698864
 23
-228.0910705383466
 33
0
  0
TEXT
  8
1
 62
2
 10
-178.1602913698864
 20
-205.6910705383466
 30
0
 40
3.2
  1
56
 50
90
 41
0.9
  0
TEXT
  8
1
 62
2
 10
-178.1602913698864
 20
-207.7710705383466
 30
0
 40
3.2
  1
(
 50
90
 41
0.9
  0
TEXT
  8
1
 62
2
 10
-178.1602913698864
 20
-199.2910705383466
 30
0
 40
3.2
  1
)
 50
90
 41
0.9
  0
ENDBLK
  8
0
  0
BLOCK
  8
1
  2
*D12
 70
1
 10
0
 20
0
 30
0
  0
LINE
  8
1
 62
2
 10
-80.22068112935256
 20
-141.2910705383466
 30
0
 11
-4.220681129352549
 21
-141.2910705383466
 31
0
  0
LINE
  8
1
 62
2
 10
-80.22068112935256
 20
-174.2910705383466
 30
0
 11
-80.22068112935256
 21
-139.7910705383466
 31
0
  0
LINE
  8
1
 62
2
 10
-4.220681129352549
 20
-174.7910705383466
 30
0
 11
-4.220681129352549
 21
-139.7910705383466
 31
0
  0
SOLID
  8
1
 62
2
 10
-80.22068112935256
 20
-141.2910705383466
 30
0
 11
-77.02068112935255
 21
-140.8750705383466
 31
0
 12
-77.02068112935255
 22
-141.7070705383466
 32
0
 13
-77.02068112935255
 23
-141.7070705383466
 33
0
  0
SOLID
  8
1
 62
2
 10
-4.220681129352549
 20
-141.2910705383466
 30
0
 11
-7.42068112935255
 21
-141.7070705383466
 31
0
 12
-7.42068112935255
 22
-140.8750705383466
 32
0
 13
-7.42068112935255
 23
-140.8750705383466
 33
0
  0
TEXT
  8
1
 62
2
 10
-45.86110574527959
 20
-139.2910705383466
 30
0
 40
3.2
  1
76
 41
0.9
  0
TEXT
  8
1
 62
2
 10
-47.94110574527959
 20
-139.2910705383466
 30
0
 40
3.2
  1
(
 41
0.9
  0
TEXT
  8
1
 62
2
 10
-39.46110574527959
 20
-139.2910705383466
 30
0
 40
3.2
  1
)
 41
0.9
  0
ENDBLK
  8
0
  0
BLOCK
  8
1
  2
*D13
 70
1
 10
0
 20
0
 30
0
  0
LINE
  8
1
 62
2
 10
-73.82068112935255
 20
-149.2910705383463
 30
0
 11
-80.22068112935256
 21
-149.2910705383463
 31
0
  0
LINE
  8
1
 62
2
 10
-81.82068112935235
 20
-149.2910705383463
 30
0
 11
-80.22068112935256
 21
-149.2910705383463
 31
0
  0
LINE
  8
1
 62
2
 10
-81.82068112935235
 20
-149.2910705383463
 30
0
 11
-92.33110084152008
 21
-149.2910705383463
 31
0
  0
LINE
  8
1
 62
2
 10
-81.82068112935235
 20
-183.3410705383466
 30
0
 11
-81.82068112935235
 21
-147.7910705383463
 31
0
  0
LINE
  8
1
 62
2
 10
-80.22068112935256
 20
-174.2910705383466
 30
0
 11
-80.22068112935256
 21
-147.7910705383463
 31
0
  0
SOLID
  8
1
 62
2
 10
-81.82068112935235
 20
-149.2910705383463
 30
0
 11
-85.02068112935235
 21
-149.7070705383463
 31
0
 12
-85.02068112935235
 22
-148.8750705383463
 32
0
 13
-85.02068112935235
 23
-148.8750705383463
 33
0
  0
SOLID
  8
1
 62
2
 10
-80.22068112935256
 20
-149.2910705383463
 30
0
 11
-77.02068112935255
 21
-148.8750705383463
 31
0
 12
-77.02068112935255
 22
-149.7070705383463
 32
0
 13
-77.02068112935255
 23
-149.7070705383463
 33
0
  0
TEXT
  8
1
 62
2
 10
-92.33110084152008
 20
-147.2910705383463
 30
0
 40
3.2
  1
1.6
 41
0.9
  0
ENDBLK
  8
0
  0
BLOCK
  8
1
  2
*D14
 70
1
 10
0
 20
0
 30
0
  0
LINE
  8
1
 62
2
 10
-255.1602913698864
 20
-149.2910705383458
 30
0
 11
-199.1602913698864
 21
-149.2910705383458
 31
0
  0
LINE
  8
1
 62
2
 10
-255.1602913698864
 20
-178.2910705383466
 30
0
 11
-255.1602913698864
 21
-147.7910705383458
 31
0
  0
LINE
  8
1
 62
2
 10
-199.1602913698864
 20
-178.2910705383466
 30
0
 11
-199.1602913698864
 21
-147.7910705383458
 31
0
  0
SOLID
  8
1
 62
2
 10
-199.1602913698864
 20
-149.2910705383458
 30
0
 11
-202.3602913698864
 21
-149.7070705383458
 31
0
 12
-202.3602913698864
 22
-148.8750705383458
 32
0
 13
-202.3602913698864
 23
-148.8750705383458
 33
0
  0
SOLID
  8
1
 62
2
 10
-255.1602913698864
 20
-149.2910705383458
 30
0
 11
-251.9602913698864
 21
-148.8750705383458
 31
0
 12
-251.9602913698864
 22
-149.7070705383458
 32
0
 13
-251.9602913698864
 23
-149.7070705383458
 33
0
  0
TEXT
  8
1
 62
2
 10
-229.5602913698864
 20
-147.2910705383458
 30
0
 40
3.2
  1
56
 41
0.9
  0
TEXT
  8
1
 62
2
 10
-231.6402913698864
 20
-147.2910705383458
 30
0
 40
3.2
  1
(
 41
0.9
  0
TEXT
  8
1
 62
2
 10
-223.1602913698864
 20
-147.2910705383458
 30
0
 40
3.2
  1
)
 41
0.9
  0
ENDBLK
  8
0
  0
BLOCK
  8
1
  2
*D15
 70
1
 10
0
 20
0
 30
0
  0
LINE
  8
1
 62
2
 10
-250.7302913698864
 20
-157.2910705383458
 30
0
 11
-203.5902913698864
 21
-157.2910705383458
 31
0
  0
LINE
  8
1
 62
2
 10
-250.7302913698864
 20
-173.2210705383464
 30
0
 11
-250.7302913698864
 21
-155.7910705383458
 31
0
  0
LINE
  8
1
 62
2
 10
-203.5902913698864
 20
-173.2210705383464
 30
0
 11
-203.5902913698864
 21
-155.7910705383458
 31
0
  0
SOLID
  8
1
 62
2
 10
-250.7302913698864
 20
-157.2910705383458
 30
0
 11
-247.5302913698864
 21
-156.8750705383458
 31
0
 12
-247.5302913698864
 22
-157.7070705383458
 32
0
 13
-247.5302913698864
 23
-157.7070705383458
 33
0
  0
SOLID
  8
1
 62
2
 10
-203.5902913698864
 20
-157.2910705383458
 30
0
 11
-206.7902913698864
 21
-157.7070705383458
 31
0
 12
-206.7902913698864
 22
-156.8750705383458
 32
0
 13
-206.7902913698864
 23
-156.8750705383458
 33
0
  0
TEXT
  8
1
 62
2
 10
-235.7042913698864
 20
-155.2910705383458
 30
0
 40
3.2
  1
47.14
 41
0.9
  0
TEXT
  8
1
 62
2
 10
-223.4642913698864
 20
-154.6510705383458
 30
0
 40
1.92
  1
%%p0.2
 41
0.9
  0
ENDBLK
  8
0
  0
BLOCK
  8
1
  2
*D16
 70
1
 10
0
 20
0
 30
0
  0
LINE
  8
1
 62
2
 10
-120.8206811293523
 20
-206.4660705383466
 30
0
 11
-120.8206811293523
 21
-200.1160705383466
 31
0
  0
LINE
  8
1
 62
2
 10
-120.8206811293523
 20
-206.4660705383466
 30
0
 11
-120.8206811293523
 21
-212.8660705383466
 31
0
  0
LINE
  8
1
 62
2
 10
-120.8206811293523
 20
-200.1160705383466
 30
0
 11
-120.8206811293523
 21
-193.7160705383466
 31
0
  0
LINE
  8
1
 62
2
 10
-101.3206811293524
 20
-206.4660705383466
 30
0
 11
-122.3206811293523
 21
-206.4660705383466
 31
0
  0
LINE
  8
1
 62
2
 10
-86.82068112935238
 20
-200.1160705383466
 30
0
 11
-122.3206811293523
 21
-200.1160705383466
 31
0
  0
SOLID
  8
1
 62
2
 10
-120.8206811293523
 20
-200.1160705383466
 30
0
 11
-121.2366811293523
 21
-196.9160705383466
 31
0
 12
-120.4046811293523
 22
-196.9160705383466
 32
0
 13
-120.4046811293523
 23
-196.9160705383466
 33
0
  0
SOLID
  8
1
 62
2
 10
-120.8206811293523
 20
-206.4660705383466
 30
0
 11
-120.4046811293523
 21
-209.6660705383466
 31
0
 12
-121.2366811293523
 22
-209.6660705383466
 32
0
 13
-121.2366811293523
 23
-209.6660705383466
 33
0
  0
TEXT
  8
1
 62
2
 10
-123.6740144626857
 20
-209.8115411265819
 30
0
 40
3.2
  1
6.35
 50
90
 41
0.9
  0
TEXT
  8
1
 62
2
 10
-125.7540144626857
 20
-199.4915411265819
 30
0
 40
1.92
  1
 0
 50
90
 41
0.9
  0
TEXT
  8
1
 62
2
 10
-122.8740144626857
 20
-199.4915411265819
 30
0
 40
1.92
  1
-0.02
 50
90
 41
0.9
  0
TEXT
  8
1
 62
2
 10
-123.6740144626857
 20
-213.8585999501113
 30
0
 40
3.2
  1
φ
 50
90
 41
0.9
  0
ENDBLK
  8
0
  0
BLOCK
  8
1
  2
*D17
 70
1
 10
0
 20
0
 30
0
  0
LINE
  8
1
 62
2
 10
-130.8206811293523
 20
-222.3410705383466
 30
0
 11
-130.8206811293523
 21
-184.2410705383467
 31
0
  0
LINE
  8
1
 62
2
 10
-82.64734779601915
 20
-222.3410705383466
 30
0
 11
-132.3206811293523
 21
-222.3410705383466
 31
0
  0
LINE
  8
1
 62
2
 10
-82.64734779601915
 20
-184.2410705383467
 30
0
 11
-132.3206811293523
 21
-184.2410705383467
 31
0
  0
SOLID
  8
1
 62
2
 10
-130.8206811293523
 20
-184.2410705383467
 30
0
 11
-130.4046811293523
 21
-187.4410705383467
 31
0
 12
-131.2366811293523
 22
-187.4410705383467
 32
0
 13
-131.2366811293523
 23
-187.4410705383467
 33
0
  0
SOLID
  8
1
 62
2
 10
-130.8206811293523
 20
-222.3410705383466
 30
0
 11
-131.2366811293523
 21
-219.1410705383466
 31
0
 12
-130.4046811293523
 22
-219.1410705383466
 32
0
 13
-130.4046811293523
 23
-219.1410705383466
 33
0
  0
TEXT
  8
1
 62
2
 10
-133.6740144626857
 20
-209.5553764206995
 30
0
 40
3.2
  1
38.1
 50
90
 41
0.9
  0
TEXT
  8
1
 62
2
 10
-134.1540144626857
 20
-200.1953764206995
 30
0
 40
2.24
  1
%%p0.03
 50
90
 41
0.9900000000000001
  0
TEXT
  8
1
 62
2
 10
-133.6740144626857
 20
-214.8259646559937
 30
0
 40
3.2
  1
φ
 50
90
 41
1.35
  0
ENDBLK
  8
0
  0
BLOCK
  8
1
  2
*D18
 70
1
 10
0
 20
0
 30
0
  0
LINE
  8
1
 62
2
 10
-100.8206811293524
 20
-141.2910705383466
 30
0
 11
-80.22068112935256
 21
-141.2910705383466
 31
0
  0
LINE
  8
1
 62
2
 10
-100.8206811293524
 20
-199.6160705383467
 30
0
 11
-100.8206811293524
 21
-139.7910705383466
 31
0
  0
LINE
  8
1
 62
2
 10
-80.22068112935256
 20
-174.2910705383466
 30
0
 11
-80.22068112935256
 21
-139.7910705383466
 31
0
  0
SOLID
  8
1
 62
2
 10
-80.22068112935256
 20
-141.2910705383466
 30
0
 11
-83.42068112935256
 21
-141.7070705383466
 31
0
 12
-83.42068112935256
 22
-140.8750705383466
 32
0
 13
-83.42068112935256
 23
-140.8750705383466
 33
0
  0
SOLID
  8
1
 62
2
 10
-100.8206811293524
 20
-141.2910705383466
 30
0
 11
-97.62068112935239
 21
-140.8750705383466
 31
0
 12
-97.62068112935239
 22
-141.7070705383466
 32
0
 13
-97.62068112935239
 23
-141.7070705383466
 33
0
  0
TEXT
  8
1
 62
2
 10
-98.62805090875099
 20
-139.2910705383466
 30
0
 40
3.2
  1
20.6
 41
0.9
  0
TEXT
  8
1
 62
2
 10
-88.308050908751
 20
-138.8110705383466
 30
0
 40
2.24
  1
%%p0.5
 41
0.9900000000000001
  0
ENDBLK
  8
0
  0
BLOCK
  8
1
  2
*D19
 70
1
 10
0
 20
0
 30
0
  0
LINE
  8
1
 62
2
 10
-202.0976159448748
 20
-178.0374969356886
 30
0
 11
-194.6036244705127
 21
-169.5850993056545
 31
0
  0
LINE
  8
1
 62
2
 10
-194.6036244705127
 20
-169.5850993056545
 30
0
 11
-160.1396244705127
 21
-169.5850993056545
 31
0
  0
SOLID
  8
1
 62
2
 10
-202.0976159448748
 20
-178.0374969356886
 30
0
 11
-200.2859738376162
 21
-175.3671020444398
 31
0
 12
-199.6634257321001
 22
-175.9190602460441
 32
0
 13
-199.6634257321001
 23
-175.9190602460441
 33
0
  0
TEXT
  8
1
 62
2
 10
-181.6596244705127
 20
-167.5850993056545
 30
0
 40
3.2
  1
4.5
 41
0.9
  0
TEXT
  8
1
 62
2
 10
-189.4036244705127
 20
-167.5850993056545
 30
0
 40
3.2
  1
4-%%c
 41
0.7200000000000001
  0
TEXT
  8
1
 62
2
 10
-174.2196244705127
 20
-167.5850993056545
 30
0
 40
3.2
  1
 HOLE
 41
0.9
  0
ENDBLK
  8
0
  0
ENDSEC
  0
SECTION
  2
ENTITIES
  0
LINE
  8
1
 62
3
 10
-236.1214967730295
 20
-307.3703108751134
 30
0
 11
-241.1214967730295
 21
-307.3703108751134
 31
0
  0
LINE
  8
1
 62
3
 10
-223.4326625550531
 20
-310.9703108751135
 30
0
 11
-236.1214967730295
 21
-307.3703108751134
 31
0
  0
LINE
  8
1
 62
3
 10
-223.4326625550531
 20
-312.5703108751134
 30
0
 11
-236.1214967730295
 21
-308.9703108751133
 31
0
  0
LINE
  8
1
 62
3
 10
-236.1214967730295
 20
-308.9703108751133
 30
0
 11
-241.1214967730295
 21
-308.9703108751133
 31
0
  0
LINE
  8
1
 62
3
 10
-236.1214967730295
 20
-311.3703108751134
 30
0
 11
-241.1214967730295
 21
-311.3703108751134
 31
0
  0
LINE
  8
1
 62
3
 10
-223.4326625550531
 20
-312.5703108751134
 30
0
 11
-236.1214967730295
 21
-311.3703108751134
 31
0
  0
LINE
  8
1
 62
3
 10
-223.4326625550531
 20
-314.1703108751134
 30
0
 11
-236.1214967730295
 21
-312.9703108751133
 31
0
  0
LINE
  8
1
 62
3
 10
-236.1214967730295
 20
-312.9703108751133
 30
0
 11
-241.1214967730295
 21
-312.9703108751133
 31
0
  0
LINE
  8
1
 62
2
 10
-313.1343782398935
 20
-337.2371022903778
 30
0
 11
-254.5606404240295
 21
-337.2371022903778
 31
0
  0
LINE
  8
1
 62
3
 10
-216.9274347294743
 20
-317.3703108751133
 30
0
 11
-173.0009263741032
 21
-317.3703108751133
 31
0
  0
LINE
  8
1
 62
3
 10
-216.9274347294743
 20
-315.7703108751133
 30
0
 11
-173.0009263741032
 21
-315.7703108751134
 31
0
  0
LINE
  8
1
 62
3
 10
-216.9274347294743
 20
-314.1703108751133
 30
0
 11
-173.0009263741032
 21
-314.1703108751134
 31
0
  0
LINE
  8
1
 62
3
 10
-216.9274347294743
 20
-312.5703108751134
 30
0
 11
-173.0009263741032
 21
-312.5703108751134
 31
0
  0
LINE
  8
1
 62
3
 10
-216.9274347294743
 20
-310.9703108751135
 30
0
 11
-173.0009263741032
 21
-310.9703108751135
 31
0
  0
LINE
  8
1
 62
2
 10
-218.4326625550531
 20
-326.6703108751134
 30
0
 11
-218.4326625550531
 21
-301.6703108751134
 31
0
  0
LINE
  8
1
 62
2
 10
-216.9274347294743
 20
-326.6703108751134
 30
0
 11
-216.9274347294743
 21
-301.6703108751134
 31
0
  0
LINE
  8
1
 62
3
 10
-241.1214967730295
 20
-320.9703108751133
 30
0
 11
-236.1214967730295
 21
-320.9703108751133
 31
0
  0
LINE
  8
1
 62
3
 10
-241.1214967730295
 20
-319.3703108751134
 30
0
 11
-236.1214967730295
 21
-319.3703108751134
 31
0
  0
LINE
  8
1
 62
3
 10
-241.1214967730295
 20
-316.9703108751133
 30
0
 11
-236.1214967730295
 21
-316.9703108751133
 31
0
  0
LINE
  8
1
 62
3
 10
-241.1214967730295
 20
-315.3703108751134
 30
0
 11
-236.1214967730295
 21
-315.3703108751134
 31
0
  0
LINE
  8
1
 62
3
 10
-236.1214967730295
 20
-320.9703108751133
 30
0
 11
-223.4326625550531
 21
-317.3703108751136
 31
0
  0
LINE
  8
1
 62
3
 10
-236.1214967730295
 20
-319.3703108751134
 30
0
 11
-223.4326625550531
 21
-315.7703108751134
 31
0
  0
LINE
  8
1
 62
3
 10
-236.1214967730295
 20
-316.9703108751133
 30
0
 11
-223.4326625550531
 21
-315.7703108751134
 31
0
  0
LINE
  8
1
 62
3
 10
-236.1214967730295
 20
-315.3703108751134
 30
0
 11
-223.4326625550531
 21
-314.1703108751134
 31
0
  0
LINE
  8
1
 62
3
 10
-223.4326625550531
 20
-317.3703108751136
 30
0
 11
-218.4326625550531
 21
-317.3703108751136
 31
0
  0
LINE
  8
1
 62
3
 10
-223.4326625550531
 20
-315.7703108751134
 30
0
 11
-218.4326625550531
 21
-315.7703108751134
 31
0
  0
LINE
  8
1
 62
3
 10
-223.4326625550531
 20
-314.1703108751134
 30
0
 11
-218.4326625550531
 21
-314.1703108751134
 31
0
  0
LINE
  8
1
 62
3
 10
-223.4326625550531
 20
-312.5703108751134
 30
0
 11
-218.4326625550531
 21
-312.5703108751134
 31
0
  0
LINE
  8
1
 62
3
 10
-223.4326625550531
 20
-310.9703108751135
 30
0
 11
-218.4326625550531
 21
-310.9703108751135
 31
0
  0
LINE
  8
1
 62
3
 10
-173.0009263741032
 20
-317.3703108751133
 30
0
 11
-173.0009263741032
 21
-310.9703108751135
 31
0
  0
LINE
  8
1
 62
2
 10
-173.0009263741032
 20
-316.8703108751133
 30
0
 11
-163.0009263741032
 21
-316.8703108751133
 31
0
  0
LINE
  8
1
 62
2
 10
-173.0009263741032
 20
-316.5703108751134
 30
0
 11
-163.0009263741032
 21
-316.5703108751134
 31
0
  0
LINE
  8
1
 62
2
 10
-173.0009263741032
 20
-316.2703108751133
 30
0
 11
-163.0009263741032
 21
-316.2703108751133
 31
0
  0
LINE
  8
1
 62
2
 10
-173.0009263741032
 20
-315.2703108751133
 30
0
 11
-163.0009263741032
 21
-315.2703108751134
 31
0
  0
LINE
  8
1
 62
2
 10
-173.0009263741032
 20
-314.9703108751135
 30
0
 11
-163.0009263741032
 21
-314.9703108751135
 31
0
  0
LINE
  8
1
 62
2
 10
-173.0009263741032
 20
-314.6703108751134
 30
0
 11
-163.0009263741032
 21
-314.6703108751134
 31
0
  0
LINE
  8
1
 62
2
 10
-173.0009263741032
 20
-313.6703108751133
 30
0
 11
-163.0009263741032
 21
-313.6703108751133
 31
0
  0
LINE
  8
1
 62
2
 10
-173.0009263741032
 20
-313.3703108751133
 30
0
 11
-163.0009263741032
 21
-313.3703108751136
 31
0
  0
LINE
  8
1
 62
2
 10
-173.0009263741032
 20
-313.0703108751134
 30
0
 11
-163.0009263741032
 21
-313.0703108751134
 31
0
  0
LINE
  8
1
 62
2
 10
-173.0009263741032
 20
-312.0703108751134
 30
0
 11
-163.0009263741032
 21
-312.0703108751134
 31
0
  0
LINE
  8
1
 62
2
 10
-173.0009263741032
 20
-311.7703108751134
 30
0
 11
-163.0009263741032
 21
-311.7703108751133
 31
0
  0
LINE
  8
1
 62
2
 10
-173.0009263741032
 20
-311.4703108751135
 30
0
 11
-163.0009263741032
 21
-311.4703108751135
 31
0
  0
LINE
  8
1
 62
2
 10
-240.1677397273865
 20
-337.8010310400038
 30
0
 11
-190.0192477076756
 21
-337.8010310400038
 31
0
  0
LINE
  8
1
 62
3
 10
-244.6214967730295
 20
-305.6703108751134
 30
0
 11
-244.6214967730295
 21
-304.6703108751134
 31
0
  0
LINE
  8
1
 62
3
 10
-244.6214967730295
 20
-323.6703108751134
 30
0
 11
-244.6214967730295
 21
-322.6703108751134
 31
0
  0
LINE
  8
1
 62
3
 10
-244.5214967730295
 20
-305.6703108751134
 30
0
 11
-244.5214967730295
 21
-304.6703108751134
 31
0
  0
LINE
  8
1
 62
3
 10
-244.2214967730295
 20
-304.6703108751134
 30
0
 11
-244.2214967730295
 21
-305.6703108751134
 31
0
  0
LINE
  8
1
 62
3
 10
-245.6214967730295
 20
-304.6703108751134
 30
0
 11
-244.2214967730295
 21
-304.6703108751134
 31
0
  0
LINE
  8
1
 62
3
 10
-245.6214967730295
 20
-305.6703108751134
 30
0
 11
-245.6214967730295
 21
-304.6703108751134
 31
0
  0
LINE
  8
1
 62
3
 10
-244.2214967730295
 20
-305.6703108751134
 30
0
 11
-245.6214967730295
 21
-305.6703108751134
 31
0
  0
LINE
  8
1
 62
3
 10
-244.5214967730295
 20
-323.6703108751134
 30
0
 11
-244.5214967730295
 21
-322.6703108751134
 31
0
  0
LINE
  8
1
 62
3
 10
-244.2214967730295
 20
-322.6703108751134
 30
0
 11
-244.2214967730295
 21
-323.6703108751134
 31
0
  0
LINE
  8
1
 62
3
 10
-244.2214967730295
 20
-323.6703108751134
 30
0
 11
-245.6214967730295
 21
-323.6703108751134
 31
0
  0
LINE
  8
1
 62
3
 10
-245.6214967730295
 20
-323.6703108751134
 30
0
 11
-245.6214967730295
 21
-322.6703108751134
 31
0
  0
LINE
  8
1
 62
3
 10
-245.6214967730295
 20
-322.6703108751134
 30
0
 11
-244.2214967730295
 21
-322.6703108751134
 31
0
  0
LINE
  8
1
 62
3
 10
-241.6214967730295
 20
-302.1703108751134
 30
0
 11
-241.1214967730295
 21
-302.1703108751134
 31
0
  0
LINE
  8
1
 62
3
 10
-241.9214967730295
 20
-302.7203108751135
 30
0
 11
-241.9214967730295
 21
-302.4703108751135
 31
0
  0
LINE
  8
1
 62
3
 10
-241.1214967730295
 20
-326.1703108751134
 30
0
 11
-241.6214967730295
 21
-326.1703108751134
 31
0
  0
LINE
  8
1
 62
3
 10
-241.9214967730295
 20
-325.8703108751134
 30
0
 11
-241.9214967730295
 21
-325.6203108751134
 31
0
  0
LINE
  8
1
 62
3
 10
-241.1214967730295
 20
-326.1703108751134
 30
0
 11
-241.1214967730295
 21
-302.1703108751134
 31
0
  0
LINE
  8
1
 62
3
 10
-241.9214967730295
 20
-325.6203108751134
 30
0
 11
-246.9214967730295
 21
-325.6203108751134
 31
0
  0
LINE
  8
1
 62
3
 10
-246.9214967730295
 20
-325.6203108751134
 30
0
 11
-246.9214967730295
 21
-302.7203108751135
 31
0
  0
LINE
  8
1
 62
3
 10
-246.9214967730295
 20
-302.7203108751135
 30
0
 11
-241.9214967730295
 21
-302.7203108751135
 31
0
  0
LINE
  8
1
 62
2
 10
-173.407944692572
 20
-270.6859242214949
 30
0
 11
-173.407944692572
 21
-244.6859242214949
 31
0
  0
LINE
  8
1
 62
2
 10
-103.407944692572
 20
-270.6859242214949
 30
0
 11
-173.407944692572
 21
-270.6859242214949
 31
0
  0
LINE
  8
1
 62
2
 10
-173.407944692572
 20
-258.6859242214949
 30
0
 11
-103.407944692572
 21
-258.6859242214949
 31
0
  0
LINE
  8
1
 62
2
 10
-109.8008209022691
 20
-252.294843614829
 30
0
 11
-107.1113316910581
 21
-252.294843614829
 31
0
  0
LINE
  8
1
 62
2
 10
-130.0575745283871
 20
-252.5393426340298
 30
0
 11
-126.573463504773
 21
-252.5393426340298
 31
0
  0
LINE
  8
1
 62
2
 10
-173.407944692572
 20
-244.6859242214949
 30
0
 11
-103.407944692572
 21
-244.6859242214949
 31
0
  0
LINE
  8
1
 62
2
 10
-103.407944692572
 20
-244.6859242214949
 30
0
 11
-103.407944692572
 21
-270.6859242214949
 31
0
  0
LINE
  8
1
 62
2
 10
-143.407944692572
 20
-244.6859242214949
 30
0
 11
-143.407944692572
 21
-270.6859242214949
 31
0
  0
LINE
  8
1
 62
2
 10
-173.407944692572
 20
-251.6859242214949
 30
0
 11
-103.407944692572
 21
-251.6859242214949
 31
0
  0
LINE
  8
1
 62
2
 10
-133.407944692572
 20
-244.6859242214949
 30
0
 11
-133.407944692572
 21
-270.6859242214949
 31
0
  0
LINE
  8
1
 62
2
 10
-123.407944692572
 20
-244.6859242214949
 30
0
 11
-123.407944692572
 21
-270.6859242214949
 31
0
  0
LINE
  8
1
 62
2
 10
-113.407944692572
 20
-244.6859242214949
 30
0
 11
-113.407944692572
 21
-270.6859242214949
 31
0
  0
LINE
  8
1
 62
3
 10
-228.8705545075346
 20
-200.6160705383465
 30
0
 11
-225.4500282322381
 21
-200.6160705383465
 31
0
  0
LINE
  8
1
 62
3
 10
11.47931887064745
 20
-206.4660705383465
 30
0
 11
11.47931887064745
 21
-200.6160705383465
 31
0
  0
LINE
  8
1
 62
3
 10
11.47931887064745
 20
-206.4660705383465
 30
0
 11
11.77931887064745
 21
-206.1660705383465
 31
0
  0
LINE
  8
1
 62
3
 10
11.47931887064745
 20
-206.4660705383465
 30
0
 11
-4.220681129352549
 21
-206.4660705383465
 31
0
  0
LINE
  8
1
 62
3
 10
11.77931887064745
 20
-200.6160705383465
 30
0
 11
11.77931887064745
 21
-206.1660705383465
 31
0
  0
LINE
  8
1
 62
3
 10
-3.220681129352551
 20
-200.6160705383465
 30
0
 11
11.77931887064745
 21
-200.6160705383465
 31
0
  0
LINE
  8
1
 62
3
 10
-3.220681129352551
 20
-200.1160705383466
 30
0
 11
-3.220681129352551
 21
-200.6160705383465
 31
0
  0
LINE
  8
1
 62
3
 10
-4.220681129352549
 20
-200.1160705383466
 30
0
 11
-3.220681129352551
 21
-200.1160705383466
 31
0
  0
LINE
  8
1
 62
3
 10
-100.3206811293524
 20
-200.6160705383467
 30
0
 11
-100.3206811293524
 21
-206.4660705383466
 31
0
  0
LINE
  8
1
 62
3
 10
-85.82068112935235
 20
-200.6160705383465
 30
0
 11
-100.8206811293524
 21
-200.6160705383467
 31
0
  0
LINE
  8
1
 62
3
 10
-85.82068112935237
 20
-200.1160705383466
 30
0
 11
-85.82068112935235
 21
-200.6160705383465
 31
0
  0
LINE
  8
1
 62
2
  6
DASHED
 10
-215.7102913698861
 20
-236.5910705383466
 30
0
 11
-215.7102913698861
 21
-237.4910705383464
 31
0
  0
LINE
  8
1
 62
2
  6
DASHED
 10
-238.6102913698867
 20
-237.4910705383464
 30
0
 11
-238.6102913698867
 21
-236.5910705383466
 31
0
  0
LINE
  8
1
 62
2
  6
DASHED
 10
-239.1602913698869
 20
-238.2910705383466
 30
0
 11
-215.1602913698869
 21
-238.2910705383466
 31
0
  0
LINE
  8
1
 62
2
  6
DASHED
 10
-238.8602913698858
 20
-237.4910705383464
 30
0
 11
-238.6102913698867
 21
-237.4910705383464
 31
0
  0
LINE
  8
1
 62
2
  6
DASHED
 10
-239.1602913698869
 20
-238.2910705383466
 30
0
 11
-239.1602913698869
 21
-237.7910705383461
 31
0
  0
LINE
  8
1
 62
2
  6
DASHED
 10
-215.7102913698861
 20
-237.4910705383464
 30
0
 11
-215.4602913698861
 21
-237.4910705383464
 31
0
  0
LINE
  8
1
 62
2
  6
DASHED
 10
-215.1602913698869
 20
-237.7910705383461
 30
0
 11
-215.1602913698869
 21
-238.2910705383466
 31
0
  0
LINE
  8
1
 62
2
  6
DASHED
 10
-228.3602913698858
 20
-238.2910705383466
 30
0
 11
-228.3602913698858
 21
-248.2910705383466
 31
0
  0
LINE
  8
1
 62
2
  6
DASHED
 10
-229.9602913698861
 20
-238.2910705383466
 30
0
 11
-229.9602913698861
 21
-248.2910705383466
 31
0
  0
LINE
  8
1
 62
2
  6
DASHED
 10
-232.3602913698858
 20
-238.2910705383466
 30
0
 11
-232.3602913698858
 21
-248.2910705383466
 31
0
  0
LINE
  8
1
 62
2
  6
DASHED
 10
-233.9602913698861
 20
-238.2910705383466
 30
0
 11
-233.9602913698861
 21
-248.2910705383466
 31
0
  0
LINE
  8
1
 62
2
  6
DASHED
 10
-225.9602913698861
 20
-248.2910705383466
 30
0
 11
-225.9602913698861
 21
-238.2910705383466
 31
0
  0
LINE
  8
1
 62
2
  6
DASHED
 10
-224.3602913698858
 20
-248.2910705383466
 30
0
 11
-224.3602913698858
 21
-238.2910705383466
 31
0
  0
LINE
  8
1
 62
2
  6
DASHED
 10
-221.9602913698861
 20
-248.2910705383466
 30
0
 11
-221.9602913698861
 21
-238.2910705383466
 31
0
  0
LINE
  8
1
 62
2
  6
DASHED
 10
-220.3602913698858
 20
-248.2910705383466
 30
0
 11
-220.3602913698858
 21
-238.2910705383466
 31
0
  0
LINE
  8
1
 62
1
 10
-83.22068112935256
 20
-226.8610705383468
 30
0
 11
-72.22068112935256
 21
-226.8610705383468
 31
0
  0
LINE
  8
1
 62
1
 10
-83.22068112935256
 20
-179.7210705383463
 30
0
 11
-72.22068112935256
 21
-179.7210705383463
 31
0
  0
LINE
  8
1
 62
2
 10
-69.22068112935256
 20
-184.7210705383463
 30
0
 11
-69.22068112935256
 21
-187.4531213459152
 31
0
  0
LINE
  8
1
 62
2
 10
-67.22068112935256
 20
-184.7210705383463
 30
0
 11
-67.22068112935256
 21
-190.917222961053
 31
0
  0
LINE
  8
1
 62
2
 10
-65.22068112935256
 20
-184.7210705383463
 30
0
 11
-65.22068112935256
 21
-194.3813245761907
 31
0
  0
LINE
  8
1
 62
2
 10
-63.22068112935256
 20
-184.7210705383463
 30
0
 11
-63.22068112935256
 21
-197.8454261913285
 31
0
  0
LINE
  8
1
 62
2
 10
-21.22068112935255
 20
-208.7367148853646
 30
0
 11
-21.22068112935255
 21
-221.8610705383468
 31
0
  0
LINE
  8
1
 62
2
 10
-19.22068112935255
 20
-212.2008165005024
 30
0
 11
-19.22068112935255
 21
-221.8610705383468
 31
0
  0
LINE
  8
1
 62
2
 10
-17.22068112935255
 20
-215.6649181156401
 30
0
 11
-17.22068112935255
 21
-221.8610705383468
 31
0
  0
LINE
  8
1
 62
2
 10
-15.22068112935255
 20
-219.1290197307779
 30
0
 11
-15.22068112935255
 21
-221.8610705383468
 31
0
  0
LINE
  8
1
 62
2
 10
-62.22068112935256
 20
-184.7210705383463
 30
0
 11
-62.22068112935256
 21
-199.5774769988974
 31
0
  0
LINE
  8
1
 62
2
 10
-64.22068112935256
 20
-184.7210705383463
 30
0
 11
-64.22068112935256
 21
-196.1133753837596
 31
0
  0
LINE
  8
1
 62
2
 10
-66.22068112935256
 20
-184.7210705383463
 30
0
 11
-66.22068112935256
 21
-192.6492737686218
 31
0
  0
LINE
  8
1
 62
2
 10
-68.22068112935256
 20
-184.7210705383463
 30
0
 11
-68.22068112935256
 21
-189.1851721534841
 31
0
  0
LINE
  8
1
 62
2
 10
-22.22068112935255
 20
-221.8610705383468
 30
0
 11
-22.22068112935255
 21
-207.0046640777958
 31
0
  0
LINE
  8
1
 62
2
 10
-20.22068112935255
 20
-221.8610705383468
 30
0
 11
-20.22068112935255
 21
-210.4687656929335
 31
0
  0
LINE
  8
1
 62
2
 10
-18.22068112935255
 20
-221.8610705383468
 30
0
 11
-18.22068112935255
 21
-213.9328673080713
 31
0
  0
LINE
  8
1
 62
2
 10
-16.22068112935255
 20
-221.8610705383468
 30
0
 11
-16.22068112935255
 21
-217.396968923209
 31
0
  0
LINE
  8
1
 62
1
 10
-258.1602913698864
 20
-203.2910705383466
 30
0
 11
-196.1602913698864
 21
-203.2910705383466
 31
0
  0
LINE
  8
1
 62
1
 10
-227.1602913698864
 20
-172.2910705383466
 30
0
 11
-227.1602913698864
 21
-239.7910705383468
 31
0
  0
LINE
  8
1
 62
1
 10
14.77931887064741
 20
-203.2910705383466
 30
0
 11
-103.8206811293523
 21
-203.2910705383466
 31
0
  0
LINE
  8
1
 62
3
 10
-16.22068112935259
 20
-173.7587123480936
 30
0
 11
-6.220681129352592
 21
-173.7587123480936
 31
0
  0
LINE
  8
1
 62
3
 10
-80.22068112935256
 20
-231.2910705383469
 30
0
 11
-70.22068112935257
 21
-231.2910705383469
 31
0
  0
LINE
  8
1
 62
3
 10
-80.22068112935256
 20
-175.2910705383466
 30
0
 11
-70.22068112935256
 21
-175.2910705383465
 31
0
  0
LINE
  8
1
 62
1
 10
-256.2302913698865
 20
-179.7210705383464
 30
0
 11
-245.2302913698866
 21
-179.7210705383464
 31
0
  0
LINE
  8
1
 62
1
 10
-250.7302913698864
 20
-185.2210705383464
 30
0
 11
-250.7302913698864
 21
-174.2210705383464
 31
0
  0
LINE
  8
1
 62
1
 10
-250.7302913698864
 20
-232.3610705383468
 30
0
 11
-250.7302913698866
 21
-221.3610705383471
 31
0
  0
LINE
  8
1
 62
1
 10
-256.2302913698866
 20
-226.8610705383471
 30
0
 11
-245.2302913698866
 21
-226.8610705383471
 31
0
  0
LINE
  8
1
 62
1
 10
-209.0902913698864
 20
-179.7210705383464
 30
0
 11
-198.0902913698864
 21
-179.7210705383464
 31
0
  0
LINE
  8
1
 62
1
 10
-203.5902913698863
 20
-185.2210705383464
 30
0
 11
-203.5902913698864
 21
-174.2210705383464
 31
0
  0
LINE
  8
1
 62
3
 10
-70.22068112935256
 20
-175.2910705383465
 30
0
 11
-14.22068112935254
 21
-175.2910705383468
 31
0
  0
LINE
  8
1
 62
3
 10
-14.22068112935255
 20
-231.2910705383469
 30
0
 11
-70.22068112935257
 21
-231.2910705383469
 31
0
  0
LINE
  8
1
 62
3
 10
-251.1602913698864
 20
-175.2910705383466
 30
0
 11
-203.1602913698864
 21
-175.2910705383466
 31
0
  0
LINE
  8
1
 62
3
 10
-199.1602913698864
 20
-179.2910705383466
 30
0
 11
-199.1602913698856
 21
-182.8910705383472
 31
0
  0
LINE
  8
1
 62
3
 10
-203.1602913698864
 20
-231.2910705383466
 30
0
 11
-251.1602913698864
 21
-231.2910705383466
 31
0
  0
LINE
  8
1
 62
3
 10
-255.1602913698866
 20
-227.291070538347
 30
0
 11
-255.1602913698864
 21
-179.2910705383466
 31
0
  0
LINE
  8
1
 62
1
 10
-203.5902913698863
 20
-232.361070538347
 30
0
 11
-203.5902913698863
 21
-221.3610705383471
 31
0
  0
LINE
  8
1
 62
1
 10
-209.0902913698864
 20
-226.8610705383471
 30
0
 11
-198.0902913698864
 21
-226.861070538347
 31
0
  0
LINE
  8
1
 62
3
 10
-202.3602913698856
 20
-183.8910705383472
 30
0
 11
-200.1602913698856
 21
-183.8910705383472
 31
0
  0
LINE
  8
1
 62
3
 10
-202.3602913698856
 20
-191.8910705383472
 30
0
 11
-200.1602913698856
 21
-191.8910705383472
 31
0
  0
LINE
  8
1
 62
3
 10
-199.1602913698856
 20
-192.8910705383472
 30
0
 11
-199.160291369886
 21
-227.2910705383468
 31
0
  0
LINE
  8
1
 62
3
 10
-199.1602913698856
 20
-182.8910705383472
 30
0
 11
-199.1602913698863
 21
-183.8910705383464
 31
0
  0
LINE
  8
1
 62
3
 10
-199.1602913698863
 20
-183.8910705383464
 30
0
 11
-199.1602913698863
 21
-191.8910705383464
 31
0
  0
LINE
  8
1
 62
3
 10
-199.1602913698863
 20
-191.8910705383464
 30
0
 11
-199.1602913698856
 21
-192.8910705383472
 31
0
  0
LINE
  8
1
 62
3
 10
-254.160291369887
 20
-183.8910705383472
 30
0
 11
-251.9602913698867
 21
-183.8910705383472
 31
0
  0
LINE
  8
1
 62
3
 10
-254.160291369887
 20
-191.8910705383472
 30
0
 11
-251.9602913698867
 21
-191.8910705383472
 31
0
  0
LINE
  8
1
 62
3
 10
-255.1602913698864
 20
-183.8910705383465
 30
0
 11
-255.1602913698864
 21
-182.8910705383466
 31
0
  0
LINE
  8
1
 62
3
 10
-255.1602913698864
 20
-191.8910705383464
 30
0
 11
-255.1602913698864
 21
-183.8910705383465
 31
0
  0
LINE
  8
1
 62
3
 10
-255.1602913698864
 20
-192.8910705383466
 30
0
 11
-255.1602913698864
 21
-191.8910705383464
 31
0
  0
LINE
  8
1
 62
3
 10
-200.1602913698856
 20
-222.6910705383474
 30
0
 11
-202.3602913698856
 21
-222.6910705383474
 31
0
  0
LINE
  8
1
 62
3
 10
-200.1602913698856
 20
-214.6910705383474
 30
0
 11
-202.3602913698856
 21
-214.6910705383474
 31
0
  0
LINE
  8
1
 62
3
 10
-199.1602913698863
 20
-222.6910705383468
 30
0
 11
-199.1602913698863
 21
-223.691070538347
 31
0
  0
LINE
  8
1
 62
3
 10
-199.1602913698863
 20
-214.691070538347
 30
0
 11
-199.1602913698863
 21
-222.6910705383468
 31
0
  0
LINE
  8
1
 62
3
 10
-199.1602913698863
 20
-213.691070538347
 30
0
 11
-199.1602913698863
 21
-214.691070538347
 31
0
  0
LINE
  8
1
 62
3
 10
-251.9602913698867
 20
-222.6910705383474
 30
0
 11
-254.1602913698864
 21
-222.6910705383469
 31
0
  0
LINE
  8
1
 62
3
 10
-251.9602913698867
 20
-214.6910705383474
 30
0
 11
-254.160291369887
 21
-214.6910705383474
 31
0
  0
LINE
  8
1
 62
3
 10
-255.1602913698864
 20
-223.691070538347
 30
0
 11
-255.1602913698864
 21
-222.6910705383468
 31
0
  0
LINE
  8
1
 62
3
 10
-255.1602913698864
 20
-222.6910705383468
 30
0
 11
-255.1602913698864
 21
-214.691070538347
 31
0
  0
LINE
  8
1
 62
3
 10
-255.1602913698864
 20
-214.691070538347
 30
0
 11
-255.1602913698864
 21
-213.691070538347
 31
0
  0
LINE
  8
1
 62
3
 10
-81.82068112935252
 20
-206.4660705383465
 30
0
 11
-100.3206811293524
 21
-206.4660705383466
 31
0
  0
LINE
  8
1
 62
3
 10
-85.82068112935237
 20
-200.1160705383466
 30
0
 11
-81.82068112935252
 21
-200.1160705383466
 31
0
  0
LINE
  8
1
 62
3
 10
-100.8206811293524
 20
-200.6160705383467
 30
0
 11
-100.8206811293523
 21
-205.9660705383467
 31
0
  0
LINE
  8
1
 62
3
 10
-100.8206811293523
 20
-205.9660705383467
 30
0
 11
-100.3206811293524
 21
-206.4660705383466
 31
0
  0
LINE
  8
1
 62
3
 10
-81.82068112935258
 20
-188.7910705383466
 30
0
 11
-81.82068112935258
 21
-198.2410705383466
 31
0
  0
LINE
  8
1
 62
3
 10
-81.82068112935258
 20
-185.7910705383466
 30
0
 11
-81.82068112935258
 21
-188.7910705383466
 31
0
  0
LINE
  8
1
 62
3
 10
-81.82068112935235
 20
-184.3410705383466
 30
0
 11
-81.82068112935258
 21
-185.7910705383466
 31
0
  0
LINE
  8
1
 62
3
 10
-81.82068112935258
 20
-198.2410705383466
 30
0
 11
-81.82068112935252
 21
-203.2910705383465
 31
0
  0
LINE
  8
1
 62
3
 10
-80.22068112935256
 20
-175.2910705383466
 30
0
 11
-80.22068112935244
 21
-184.2410705383466
 31
0
  0
LINE
  8
1
 62
3
 10
-80.22068112935244
 20
-184.2410705383466
 30
0
 11
-81.64734779601918
 21
-184.2410705383467
 31
0
  0
LINE
  8
1
 62
3
 10
-81.64734779601918
 20
-184.2410705383467
 30
0
 11
-81.82068112935235
 21
-184.3410705383466
 31
0
  0
LINE
  8
1
 62
3
 10
-70.22068112935256
 20
-175.2910705383465
 30
0
 11
-70.22068112935254
 21
-203.2910705383466
 31
0
  0
LINE
  8
1
 62
3
 10
-81.82068112935258
 20
-208.3410705383465
 30
0
 11
-81.82068112935258
 21
-217.7910705383465
 31
0
  0
LINE
  8
1
 62
3
 10
-81.82068112935258
 20
-217.7910705383465
 30
0
 11
-81.82068112935258
 21
-220.7910705383466
 31
0
  0
LINE
  8
1
 62
3
 10
-81.82068112935258
 20
-220.7910705383466
 30
0
 11
-81.82068112935258
 21
-222.2410705383466
 31
0
  0
LINE
  8
1
 62
3
 10
-80.22068112935256
 20
-222.3410705383465
 30
0
 11
-80.22068112935256
 21
-231.2910705383469
 31
0
  0
LINE
  8
1
 62
3
 10
-81.64734779601918
 20
-222.3410705383466
 30
0
 11
-80.22068112935256
 21
-222.3410705383465
 31
0
  0
LINE
  8
1
 62
3
 10
-81.82068112935258
 20
-222.2410705383466
 30
0
 11
-81.64734779601918
 21
-222.3410705383466
 31
0
  0
LINE
  8
1
 62
3
 10
-70.22068112935254
 20
-203.2910705383466
 30
0
 11
-70.22068112935257
 21
-231.2910705383469
 31
0
  0
LINE
  8
1
 62
3
 10
-81.82068112935252
 20
-203.2910705383465
 30
0
 11
-81.82068112935258
 21
-208.3410705383465
 31
0
  0
LINE
  8
1
 62
3
 10
-14.22068112935254
 20
-175.2910705383468
 30
0
 11
-14.22068112935255
 21
-236.2910705383478
 31
0
  0
LINE
  8
1
 62
3
 10
-4.220681129352549
 20
-235.7910705383479
 30
0
 11
-4.720681129352549
 21
-236.2910705383478
 31
0
  0
LINE
  8
1
 62
3
 10
-4.720681129352549
 20
-236.2910705383478
 30
0
 11
-14.22068112935255
 21
-236.2910705383478
 31
0
  0
LINE
  8
1
 62
3
 10
-4.720681129352549
 20
-175.2910705383467
 30
0
 11
-14.22068112935254
 21
-175.2910705383468
 31
0
  0
LINE
  8
1
 62
3
 10
-4.220681129352549
 20
-220.7910705383466
 30
0
 11
-4.220681129352549
 21
-217.7910705383465
 31
0
  0
LINE
  8
1
 62
3
 10
-4.220681129352549
 20
-188.7910705383464
 30
0
 11
-4.220681129352549
 21
-185.7910705383465
 31
0
  0
LINE
  8
1
 62
3
 10
-4.220681129352549
 20
-185.7910705383465
 30
0
 11
-4.220681129352549
 21
-175.7910705383465
 31
0
  0
LINE
  8
1
 62
3
 10
-4.220681129352549
 20
-188.7910705383464
 30
0
 11
-4.220681129352549
 21
-198.1410705383466
 31
0
  0
LINE
  8
1
 62
3
 10
-4.220681129352549
 20
-215.4689282827043
 30
0
 11
-4.220681129352549
 21
-217.7910705383465
 31
0
  0
LINE
  8
1
 62
3
 10
-4.220681129352549
 20
-208.4410705383465
 30
0
 11
-4.220681129352549
 21
-215.4689282827043
 31
0
  0
LINE
  8
1
 62
3
 10
-4.220681129352549
 20
-235.7910705383479
 30
0
 11
-4.220681129352549
 21
-223.8380330690635
 31
0
  0
LINE
  8
1
 62
3
 10
-4.220681129352549
 20
-198.1410705383466
 30
0
 11
-4.220681129352549
 21
-208.4410705383465
 31
0
  0
LINE
  8
1
 62
3
 10
-4.220681129352549
 20
-223.8380330690635
 30
0
 11
-4.220681129352549
 21
-220.7910705383466
 31
0
  0
LINE
  8
1
 62
3
 10
-4.720681129352549
 20
-175.2910705383467
 30
0
 11
-4.220681129352549
 21
-175.7910705383465
 31
0
  0
LINE
  8
1
 62
3
 10
-80.22068112935244
 20
-184.2410705383466
 30
0
 11
-80.22068112935256
 21
-222.3410705383465
 31
0
  0
LINE
  8
1
 62
3
 10
-75.22068112935244
 20
-175.2910705383466
 30
0
 11
-75.22068112935244
 21
-184.7210705383463
 31
0
  0
LINE
  8
1
 62
3
 10
-75.22068112935244
 20
-184.7210705383463
 30
0
 11
-4.220681129352556
 21
-184.7210705383463
 31
0
  0
LINE
  8
1
 62
3
 10
-4.220681129352741
 20
-221.8610705383468
 30
0
 11
-75.22068112935244
 21
-221.8610705383468
 31
0
  0
LINE
  8
1
 62
3
 10
-75.22068112935244
 20
-221.8610705383468
 30
0
 11
-75.22068112935247
 21
-231.2910705383468
 31
0
  0
ARC
  8
1
 62
3
 10
-202.3602913698863
 20
-187.8910705383467
 30
0
 40
3.999999999999488
 50
90
 51
270
  0
ARC
  8
1
 62
3
 10
-251.9602913698862
 20
-187.8910705383467
 30
0
 40
4.000000000000512
 50
270
 51
90
  0
ARC
  8
1
 62
3
 10
-202.3602913698863
 20
-218.6910705383467
 30
0
 40
3.999999999999318
 50
90
 51
270
  0
ARC
  8
1
 62
3
 10
-251.9602913698862
 20
-218.6910705383467
 30
0
 40
4.000000000000682
 50
270
 51
90
  0
ARC
  8
1
 62
3
 10
-202.3602913698863
 20
-218.6910705383467
 30
0
 40
3.999999999999318
 50
90
 51
270
  0
ARC
  8
1
 62
3
 10
-202.3602913698863
 20
-187.8910705383467
 30
0
 40
3.999999999999488
 50
90
 51
270
  0
CIRCLE
  8
1
 62
3
 10
-203.5902913698864
 20
-179.7210705383464
 30
0
 40
2.25
  0
CIRCLE
  8
1
 62
3
 10
-227.1602913698864
 20
-203.2910705383466
 30
0
 40
14.50000000000011
  0
CIRCLE
  8
1
 62
4
 10
-227.1602913698864
 20
-203.2910705383466
 30
0
 40
17.00000000000011
  0
CIRCLE
  8
1
 62
3
 10
-227.1602913698864
 20
-203.2910705383466
 30
0
 40
17.50000000000011
  0
CIRCLE
  8
1
 62
3
 10
-227.1602913698864
 20
-203.2910705383466
 30
0
 40
19.0500000000001
  0
CIRCLE
  8
1
 62
3
 10
-202.3602913698863
 20
-187.8910705383467
 30
0
 40
3
  0
CIRCLE
  8
1
 62
3
 10
-251.9602913698862
 20
-187.8910705383467
 30
0
 40
3.000000000000313
  0
CIRCLE
  8
1
 62
3
 10
-202.3602913698863
 20
-218.6910705383467
 30
0
 40
3
  0
CIRCLE
  8
1
 62
3
 10
-251.9602913698862
 20
-218.6910705383467
 30
0
 40
3.000000000000199
  0
CIRCLE
  8
1
 62
3
 10
-227.1602913698864
 20
-203.2910705383466
 30
0
 40
4.75
  0
CIRCLE
  8
1
 62
3
 10
-227.1602913698864
 20
-203.2910705383466
 30
0
 40
3.174999999999784
  0
CIRCLE
  8
1
 62
3
 10
-203.5902913698861
 20
-226.861070538347
 30
0
 40
2.250000000000199
  0
CIRCLE
  8
1
 62
3
 10
-250.7302913698868
 20
-226.861070538347
 30
0
 40
2.249999999999801
  0
CIRCLE
  8
1
 62
3
 10
-250.7302913698866
 20
-179.7210705383464
 30
0
 40
2.25
  0
ARC
  8
1
 62
3
 10
-241.6214967730295
 20
-302.4703108751135
 30
0
 40
0.3000000000001251
 50
90
 51
180
  0
ARC
  8
1
 62
3
 10
-241.6214967730295
 20
-325.8703108751134
 30
0
 40
0.3000000000000114
 50
180
 51
270
  0
ARC
  8
1
 62
2
  6
DASHED
 10
-238.8602913698858
 20
-237.7910705383461
 30
0
 40
0.2999999999996987
 50
90
 51
180
  0
ARC
  8
1
 62
2
  6
DASHED
 10
-215.4602913698861
 20
-237.7910705383461
 30
0
 40
0.2999999999992156
 50
0
 51
90
  0
ARC
  8
1
 62
3
 10
-203.160291369886
 20
-179.2910705383461
 30
0
 40
3.999999999999602
 50
0
 51
90
  0
ARC
  8
1
 62
3
 10
-251.1602913698867
 20
-179.2910705383464
 30
0
 40
3.999999999999801
 50
90
 51
180
  0
ARC
  8
1
 62
3
 10
-251.1602913698866
 20
-227.291070538347
 30
0
 40
4
 50
180
 51
270
  0
ARC
  8
1
 62
3
 10
-203.1602913698858
 20
-227.2910705383468
 30
0
 40
3.999999999999801
 50
270
 51
0
  0
ARC
  8
1
 62
3
 10
-200.1602913698863
 20
-182.8910705383466
 30
0
 40
1.000000000000597
 50
270
 51
0
  0
ARC
  8
1
 62
3
 10
-200.1602913698863
 20
-192.8910705383466
 30
0
 40
1.000000000000682
 50
0
 51
90
  0
ARC
  8
1
 62
3
 10
-254.1602913698866
 20
-182.8910705383466
 30
0
 40
0.9999999999998011
 50
180
 51
270
  0
ARC
  8
1
 62
3
 10
-254.1602913698866
 20
-192.8910705383466
 30
0
 40
0.9999999999994031
 50
90
 51
180
  0
ARC
  8
1
 62
3
 10
-200.1602913698856
 20
-223.6910705383474
 30
0
 40
0.9999999999993179
 50
0
 51
90
  0
ARC
  8
1
 62
3
 10
-200.1602913698856
 20
-213.6910705383474
 30
0
 40
1
 50
270
 51
0
  0
ARC
  8
1
 62
3
 10
-254.1602913698866
 20
-223.691070538347
 30
0
 40
1.000000000000085
 50
90
 51
180
  0
ARC
  8
1
 62
3
 10
-254.1602913698866
 20
-213.691070538347
 30
0
 40
0.9999999999998011
 50
180
 51
270
  0
LINE
  8
1
 62
2
 10
35.57931887064746
 20
-231.4660705383465
 30
0
 11
20.77931887064745
 21
-231.4660705383465
 31
0
  0
LINE
  8
1
 62
2
 10
20.77931887064745
 20
-231.4660705383465
 30
0
 11
11.62931887064745
 21
-206.3160705383465
 31
0
  0
SOLID
  8
1
 62
2
 10
13.11927737985647
 20
-209.1791994584748
 30
0
 11
12.3274759816786
 21
-209.4672703448894
 31
0
 12
11.62931887064745
 22
-206.3160705383465
 32
0
 13
11.62931887064745
 23
-206.3160705383465
 33
0
  0
LINE
  8
1
 62
2
 10
-313.1343782398935
 20
-346.2371022903778
 30
0
 11
-259.4794371673806
 21
-346.2371022903778
 31
0
  0
LINE
  8
1
 62
2
 10
-259.4794371673806
 20
-346.2371022903778
 30
0
 11
-246.9214967730295
 21
-325.6203108751134
 31
0
  0
SOLID
  8
1
 62
2
 10
-248.2263606762359
 20
-328.5723972164232
 30
0
 11
-248.9459546848469
 21
-328.1340836842031
 31
0
 12
-246.9214967730295
 22
-325.6203108751134
 32
0
 13
-246.9214967730295
 23
-325.6203108751134
 33
0
  0
LINE
  8
1
 62
2
 10
-258.9886664984204
 20
-249.5467972044771
 30
0
 11
-246.6965098691754
 21
-249.5467972044771
 31
0
  0
LINE
  8
1
 62
2
 10
-246.6965098691754
 20
-249.5467972044771
 30
0
 11
-239.1602913698869
 21
-238.2910705383466
 31
0
  0
SOLID
  8
1
 62
2
 10
-240.5905605753727
 20
-241.1844791808093
 30
0
 11
-241.2906945959452
 21
-240.7157077621059
 31
0
 12
-239.1602913698869
 22
-238.2910705383466
 32
0
 13
-239.1602913698869
 23
-238.2910705383466
 33
0
  0
LINE
  8
1
 62
2
 10
-43.7776608537558
 20
-166.5113422632336
 30
0
 11
-23.66630730435506
 21
-166.5113422632336
 31
0
  0
LINE
  8
1
 62
2
 10
-23.66630730435506
 20
-166.5113422632336
 30
0
 11
-14.67534924697609
 21
-173.7587123480936
 31
0
  0
SOLID
  8
1
 62
2
 10
-17.43112097795873
 20
-172.0784725618857
 30
0
 11
-16.90234227627996
 21
-171.4224791363035
 31
0
 12
-14.67534924697609
 22
-173.7587123480936
 32
0
 13
-14.67534924697609
 23
-173.7587123480936
 33
0
  0
LINE
  8
1
 62
2
 10
-234.9575347024305
 20
-257.582740753376
 30
0
 11
-211.6787834976086
 21
-257.582740753376
 31
0
  0
SOLID
  8
1
 62
2
 10
-214.8787834976086
 20
-258.0040287456557
 30
0
 11
-214.8787834976086
 21
-257.1614527610964
 31
0
 12
-211.6787834976086
 22
-257.582740753376
 32
0
 13
-211.6787834976086
 23
-257.582740753376
 33
0
  0
LINE
  8
1
 62
2
 10
-120.0206811293526
 20
-231.4660705383466
 30
0
 11
-105.2206811293526
 21
-231.4660705383466
 31
0
  0
LINE
  8
1
 62
2
 10
-105.2206811293526
 20
-231.4660705383466
 30
0
 11
-100.5706811293524
 21
-206.2160705383467
 31
0
  0
SOLID
  8
1
 62
2
 10
-100.7359214240009
 20
-209.4394506303408
 30
0
 11
-101.5645631549093
 21
-209.2868492818764
 31
0
 12
-100.5706811293524
 22
-206.2160705383467
 32
0
 13
-100.5706811293524
 23
-206.2160705383467
 33
0
  0
TEXT
  8
1
 62
2
 10
-20.87786804443891
 20
-338.2585957383465
 30
0
 40
4.5
  1
KH56QM2-961
 41
0.9
  0
TEXT
  8
1
 62
2
 10
25.77931887064745
 20
-230.4660705383465
 30
0
 40
3.2
  1
C0.3
 41
0.9
  0
TEXT
  8
1
 62
2
 10
-238.0406353895555
 20
-343.0330268657115
 30
0
 40
2.5
  1
ATTACHMENT: CONNECTOR LEAD
 41
0.63
  0
TEXT
  8
1
 62
2
 10
-312.2812999545037
 20
-345.3516417796402
 30
0
 40
2.5
  1
CONTACT: 59333-8000 (molex)
 41
0.63
  0
TEXT
  8
1
 62
2
 10
-312.2812999545037
 20
-336.1603069014747
 30
0
 40
2.5
  1
HOUSING: 51004-1100 (molex)
 41
0.63
  0
TEXT
  8
1
 62
2
 10
-312.4057222431118
 20
-342.3932369999141
 30
0
 40
4
  1
コンタクト：５９３３３－８０００(日本モレックス)
 41
0.45
  0
TEXT
  8
1
 62
2
 10
-312.4057222431118
 20
-332.8009051090776
 30
0
 40
4
  1
ハウジング：５１００４－１１００(日本モレックス)
 41
0.45
  0
TEXT
  8
1
 62
2
 10
-238.0406353895555
 20
-336.2057027866298
 30
0
 40
4
  1
付属品：コネクタ　リード
 41
0.9
  0
TEXT
  8
1
 62
2
 10
-132.007944692572
 20
-268.1859242214949
 30
0
 40
2
  1
BLUE
 41
0.9
 72
1
 73
2
 11
-128.407944692572
 21
-267.1859242214949
 31
0
  0
TEXT
  8
1
 62
2
 10
-122.187944692572
 20
-268.1859242214949
 30
0
 40
2
  1
YELLOW
 41
0.63
 72
1
 73
2
 11
-118.407944692572
 21
-267.1859242214949
 31
0
  0
TEXT
  8
1
 62
2
 10
-141.107944692572
 20
-268.1859242214949
 30
0
 40
2
  1
RED
 41
0.9
 72
1
 73
2
 11
-138.407944692572
 21
-267.1859242214949
 31
0
  0
TEXT
  8
1
 62
2
 10
-167.782944692572
 20
-268.4359242214949
 30
0
 40
2.5
  1
LEAD COLOR
 41
0.63
 72
1
 73
2
 11
-159.907944692572
 21
-267.1859242214949
 31
0
  0
TEXT
  8
1
 62
2
 10
-157.9512825735322
 20
-256.4359242214949
 30
0
 40
2.5
  1
(PHASE)
 41
0.54
 73
2
 11
-157.9512825735322
 21
-255.1859242214949
 31
0
  0
TEXT
  8
1
 62
2
 10
-155.907944692572
 20
-249.4359242214949
 30
0
 40
2.5
  1
(PIN NO.)
 41
0.45
 73
2
 11
-155.907944692572
 21
-248.1859242214949
 31
0
  0
TEXT
  8
1
 62
2
 10
-132.007944692572
 20
-264.1859242214949
 30
0
 40
4
  1
青
 41
0.9
 72
1
 73
2
 11
-128.407944692572
 21
-262.1859242214949
 31
0
  0
TEXT
  8
1
 62
2
 10
-122.007944692572
 20
-264.1859242214949
 30
0
 40
4
  1
黄
 41
0.9
 72
1
 73
2
 11
-118.407944692572
 21
-262.1859242214949
 31
0
  0
TEXT
  8
1
 62
2
 10
-142.007944692572
 20
-264.1859242214949
 30
0
 40
4
  1
赤
 41
0.9
 72
1
 73
2
 11
-138.407944692572
 21
-262.1859242214949
 31
0
  0
TEXT
  8
1
 62
2
 10
-170.707944692572
 20
-263.6859242214949
 30
0
 40
3
  1
リード線色
 41
0.72
 72
1
 73
2
 11
-159.907944692572
 21
-262.1859242214949
 31
0
  0
TEXT
  8
1
 62
2
 10
-171.157944692572
 20
-249.6859242214949
 30
0
 40
3
  1
51004-1100
 41
0.45
 72
1
 73
2
 11
-164.407944692572
 21
-248.1859242214949
 31
0
  0
TEXT
  8
1
 62
2
 10
-173.507944692572
 20
-256.6859242214949
 30
0
 40
3
  1
励磁相
 41
0.9
 72
1
 73
2
 11
-165.407944692572
 21
-255.1859242214949
 31
0
  0
TEXT
  8
1
 62
2
 10
-140.207944692572
 20
-250.1859242214949
 30
0
 40
4
  1
3
 41
0.9
 72
1
 73
2
 11
-138.407944692572
 21
-248.1859242214949
 31
0
  0
TEXT
  8
1
 62
2
 10
-130.207944692572
 20
-250.1859242214949
 30
0
 40
4
  1
5
 41
0.9
 72
1
 73
2
 11
-128.407944692572
 21
-248.1859242214949
 31
0
  0
TEXT
  8
1
 62
2
 10
-120.207944692572
 20
-250.1859242214949
 30
0
 40
4
  1
7
 41
0.9
 72
1
 73
2
 11
-118.407944692572
 21
-248.1859242214949
 31
0
  0
TEXT
  8
1
 62
2
 10
-110.207944692572
 20
-250.1859242214949
 30
0
 40
4
  1
9
 41
0.9
 72
1
 73
2
 11
-108.407944692572
 21
-248.1859242214949
 31
0
  0
TEXT
  8
1
 62
2
 10
-140.207944692572
 20
-257.1859242214949
 30
0
 40
4
  1
A
 41
0.9
 72
1
 73
2
 11
-138.407944692572
 21
-255.1859242214949
 31
0
  0
TEXT
  8
1
 62
2
 10
-130.207944692572
 20
-257.1859242214949
 30
0
 40
4
  1
A
 41
0.9
 72
1
 73
2
 11
-128.407944692572
 21
-255.1859242214949
 31
0
  0
TEXT
  8
1
 62
2
 10
-120.207944692572
 20
-257.1859242214949
 30
0
 40
4
  1
B
 41
0.9
 72
1
 73
2
 11
-118.407944692572
 21
-255.1859242214949
 31
0
  0
TEXT
  8
1
 62
2
 10
-112.007944692572
 20
-264.1859242214949
 30
0
 40
4
  1
白
 41
0.9
 72
1
 73
2
 11
-108.407944692572
 21
-262.1859242214949
 31
0
  0
TEXT
  8
1
 62
2
 10
-111.557944692572
 20
-268.1859242214949
 30
0
 40
2
  1
WHITE
 41
0.63
 72
1
 73
2
 11
-108.407944692572
 21
-267.1859242214949
 31
0
  0
TEXT
  8
1
 62
2
 10
-110.207944692572
 20
-257.1859242214949
 30
0
 40
4
  1
B
 41
0.9
 72
1
 73
2
 11
-108.407944692572
 21
-255.1859242214949
 31
0
  0
TEXT
  8
1
 62
2
 10
-258.9886664984204
 20
-248.5467972044771
 30
0
 40
4
  1
極番表示
 41
0.54
  0
TEXT
  8
1
 62
2
 10
-234.105291369886
 20
-253.324758566683
 30
0
 40
3
  1
3
 41
0.6300000000000001
 72
1
 73
2
 11
-233.160291369886
 21
-251.824758566683
 31
0
  0
TEXT
  8
1
 62
2
 10
-230.105291369886
 20
-253.324758566683
 30
0
 40
3
  1
5
 41
0.6300000000000001
 72
1
 73
2
 11
-229.160291369886
 21
-251.824758566683
 31
0
  0
TEXT
  8
1
 62
2
 10
-226.105291369886
 20
-253.324758566683
 30
0
 40
3
  1
7
 41
0.6300000000000001
 72
1
 73
2
 11
-225.160291369886
 21
-251.824758566683
 31
0
  0
TEXT
  8
1
 62
2
 10
-222.1052913698859
 20
-253.324758566683
 30
0
 40
3
  1
9
 41
0.6300000000000001
 72
1
 73
2
 11
-221.1602913698859
 21
-251.824758566683
 31
0
  0
TEXT
  8
1
 62
2
 10
-51.71689031816369
 20
-165.9086965097827
 30
0
 40
4
  1
ネームプレート
 41
0.63
 72
1
 73
2
 11
-34.0768903181637
 21
-163.9086965097827
 31
0
  0
TEXT
  8
1
 62
2
 10
-41.83358823846068
 20
-169.8907796978767
 30
0
 40
2.5
  1
NAME PLATE
 41
0.63
 72
1
 73
2
 11
-33.95858823846068
 21
-168.6407796978767
 31
0
  0
TEXT
  8
1
 62
2
 10
-255.9061534781776
 20
-259.449449372289
 30
0
 40
4
  1
PIN No.
 41
0.63
  0
TEXT
  8
1
 62
2
 10
-119.0206811293526
 20
-230.4660705383466
 30
0
 40
3.2
  1
C0.5
 41
0.9
  0
DIMENSION
  8
1
  6
CONTINUOUS
 62
2
  2
*D0
  3
DMST_1
 10
-110.8206811293522
 20
-200.6160705383467
 30
0
 11
-115.6206811293522
 21
-174.279737255663
 31
0
 12
0
 22
0
 32
0
 70
0
 13
-100.3206811293524
 23
-206.4660705383466
 33
0
 14
-100.8206811293524
 24
-200.6160705383467
 34
0
 50
90
 53
0
  0
DIMENSION
  8
1
  6
CONTINUOUS
 62
2
  2
*D1
  3
DMST_2
 10
-85.82068112935237
 20
-157.291070538346
 30
0
 11
-92.9868323056924
 21
-153.691070538346
 31
0
 12
0
 22
0
 32
0
 70
0
 13
-100.8206811293524
 23
-200.6160705383467
 33
0
 14
-85.82068112935237
 24
-200.1160705383466
 34
0
 53
0
  0
DIMENSION
  8
1
  6
CONTINUOUS
 62
2
  2
*D2
  3
DMST_3
 10
-241.1214967730295
 20
-294.2701243664185
 30
0
 11
-202.7257728554228
 21
-289.4701243664185
 31
0
 12
0
 22
0
 32
0
 70
0
  1
300
 13
-163.0009263741032
 23
-311.4703108751135
 33
0
 14
-241.1214967730295
 24
-302.1703108751134
 34
0
 53
0
  0
DIMENSION
  8
1
  6
CONTINUOUS
 62
2
  2
*D3
  3
DMST_4
 10
-173.0009263741034
 20
-303.8701243664183
 30
0
 11
-168.3789283657406
 21
-300.2701243664184
 31
0
 12
0
 22
0
 32
0
 70
0
  1
(<>
 13
-163.0009263741032
 23
-311.7703108751133
 33
0
 14
-173.0009263741032
 24
-310.9703108751135
 34
0
 53
0
  0
DIMENSION
  8
1
  6
CONTINUOUS
 62
2
  2
*D4
  3
DMST_1
 10
31.77931887064745
 20
-200.6160705383465
 30
0
 11
26.97931887064745
 21
-184.517202693577
 31
0
 12
0
 22
0
 32
0
 70
0
 13
11.47931887064745
 23
-206.4660705383465
 33
0
 14
11.77931887064745
 24
-200.6160705383465
 34
0
 50
90
 53
0
  0
DIMENSION
  8
1
  6
CONTINUOUS
 62
2
  2
*D5
  3
DMST_5
 10
41.77931887064744
 20
-200.1160705383466
 30
0
 11
36.97931887064745
 21
-185.513291864257
 31
0
 12
0
 22
0
 32
0
 70
0
  1
φ<>
 13
11.47931887064745
 23
-206.4660705383465
 33
0
 14
-3.220681129352551
 24
-200.1160705383466
 34
0
 50
90
 53
0
  0
DIMENSION
  8
1
  6
CONTINUOUS
 62
2
  2
*D6
  3
DMST_2
 10
11.77931887064745
 20
-157.291070538346
 30
0
 11
4.29500396631421
 21
-153.691070538346
 31
0
 12
0
 22
0
 32
0
 70
0
 13
-3.220681129352551
 23
-200.1160705383466
 33
0
 14
11.77931887064745
 24
-200.6160705383465
 34
0
 53
0
  0
DIMENSION
  8
1
  6
CONTINUOUS
 62
2
  2
*D7
  3
DMST_6
 10
11.77931887064745
 20
-141.2910705383466
 30
0
 11
4.039436518024861
 21
-137.6910705383466
 31
0
 12
0
 22
0
 32
0
 70
0
  1
(<>
 13
-4.220681129352549
 23
-175.7910705383465
 33
0
 14
11.77931887064745
 24
-200.6160705383465
 34
0
 53
0
  0
DIMENSION
  8
1
  6
CONTINUOUS
 62
2
  2
*D8
  3
DMST_6
 10
-260.1602913698867
 20
-238.2910705383466
 30
0
 11
-263.7602913698867
 21
-237.071216243715
 31
0
 12
0
 22
0
 32
0
 70
0
  1
※(<>
 13
-251.1602913698864
 23
-231.2910705383466
 33
0
 14
-239.1602913698869
 24
-238.2910705383466
 34
0
 50
90
 53
0
  0
DIMENSION
  8
1
  6
CONTINUOUS
 62
2
  2
*D9
  3
DMST_7
 10
-75.22068112935247
 20
-247.2910705383469
 30
0
 11
-77.55710061498589
 21
-243.6910705383469
 31
0
 12
0
 22
0
 32
0
 70
0
 13
-80.22068112935256
 23
-231.2910705383469
 33
0
 14
-75.22068112935247
 24
-231.2910705383468
 34
0
 53
0
  0
DIMENSION
  8
1
  6
CONTINUOUS
 62
2
  2
*D10
  3
DMST_8
 10
-184.1602913698864
 20
-179.7210705383464
 30
0
 11
-187.7602913698864
 21
-203.2910705383466
 31
0
 12
0
 22
0
 32
0
 70
0
 13
-198.0902913698864
 23
-226.861070538347
 33
0
 14
-198.0902913698864
 24
-179.7210705383464
 34
0
 50
90
 53
0
  0
DIMENSION
  8
1
  6
CONTINUOUS
 62
2
  2
*D11
  3
DMST_6
 10
-176.1602913698864
 20
-231.2910705383466
 30
0
 11
-179.7602913698864
 21
-203.2910705383466
 31
0
 12
0
 22
0
 32
0
 70
0
  1
(<>
 13
-203.1602913698864
 23
-175.2910705383466
 33
0
 14
-203.1602913698864
 24
-231.2910705383466
 34
0
 50
90
 53
0
  0
DIMENSION
  8
1
  6
CONTINUOUS
 62
2
  2
*D12
  3
DMST_6
 10
-80.22068112935256
 20
-141.2910705383466
 30
0
 11
-43.46110574527959
 21
-137.6910705383466
 31
0
 12
0
 22
0
 32
0
 70
0
  1
(<>
 13
-4.220681129352549
 23
-175.7910705383465
 33
0
 14
-80.22068112935256
 24
-175.2910705383466
 34
0
 53
0
  0
DIMENSION
  8
1
  6
CONTINUOUS
 62
2
  2
*D13
  3
DMST_7
 10
-81.82068112935235
 20
-149.2910705383463
 30
0
 11
-89.89110084152009
 21
-145.6910705383463
 31
0
 12
0
 22
0
 32
0
 70
0
 13
-80.22068112935256
 23
-175.2910705383466
 33
0
 14
-81.82068112935235
 24
-184.3410705383466
 34
0
 53
0
  0
DIMENSION
  8
1
  6
CONTINUOUS
 62
2
  2
*D14
  3
DMST_6
 10
-255.1602913698864
 20
-149.2910705383458
 30
0
 11
-227.1602913698864
 21
-145.6910705383458
 31
0
 12
0
 22
0
 32
0
 70
0
  1
(<>
 13
-199.1602913698864
 23
-179.2910705383466
 33
0
 14
-255.1602913698864
 24
-179.2910705383466
 34
0
 53
0
  0
DIMENSION
  8
1
  6
CONTINUOUS
 62
2
  2
*D15
  3
DMST_8
 10
-250.7302913698864
 20
-157.2910705383458
 30
0
 11
-227.1602913698864
 21
-153.6910705383458
 31
0
 12
0
 22
0
 32
0
 70
0
 13
-203.5902913698864
 23
-174.2210705383464
 33
0
 14
-250.7302913698864
 24
-174.2210705383464
 34
0
 53
0
  0
DIMENSION
  8
1
  6
CONTINUOUS
 62
2
  2
*D16
  3
DMST_9
 10
-120.8206811293523
 20
-200.1160705383466
 30
0
 11
-125.247347796019
 21
-203.2910705383466
 31
0
 12
0
 22
0
 32
0
 70
0
  1
φ<>
 13
-100.3206811293524
 23
-206.4660705383466
 33
0
 14
-85.82068112935237
 24
-200.1160705383466
 34
0
 50
90
 53
0
  0
DIMENSION
  8
1
  6
CONTINUOUS
 62
2
  2
*D17
  3
DMST_10
 10
-130.8206811293523
 20
-184.2410705383467
 30
0
 11
-134.847347796019
 21
-203.2910705383466
 31
0
 12
0
 22
0
 32
0
 70
0
  1
φ<>
 13
-81.64734779601918
 23
-222.3410705383466
 33
0
 14
-81.64734779601918
 24
-184.2410705383467
 34
0
 50
90
 53
0
  0
DIMENSION
  8
1
  6
CONTINUOUS
 62
2
  2
*D18
  3
DMST_11
 10
-80.22068112935256
 20
-141.2910705383466
 30
0
 11
-90.357250908751
 21
-137.6910705383466
 31
0
 12
0
 22
0
 32
0
 70
0
 13
-100.8206811293524
 23
-200.6160705383467
 33
0
 14
-80.22068112935256
 24
-175.2910705383466
 34
0
 53
0
  0
DIMENSION
  8
1
  6
CONTINUOUS
 62
2
  2
*D19
  3
DMST_12
 10
-205.0829667948981
 20
-181.4046441410042
 30
0
 11
-174.7716244705127
 21
-165.9850993056545
 31
0
 12
0
 22
0
 32
0
 70
3
  1
4-%%c<>
 15
-202.0976159448747
 25
-178.0374969356886
 35
0
 40
0
 53
0
  0
INSERT
  8
0
  2
MOJINOMUKI
 10
-9.370546174581062
 20
-171.5718741559166
 30
0
  0
INSERT
  8
0
  2
AD09745-01_DB
 10
-491.2825480360851
 20
-974.3018676097641
 30
0
  0
INSERT
  8
0
  2
____M3_________1
 10
-251.9602913698863
 20
-187.8910705383464
 30
0
  0
INSERT
  8
0
  2
____M3_________2
 10
-202.3602913698862
 20
-187.8910705383464
 30
0
  0
INSERT
  8
0
  2
____M3_________3
 10
-202.3602913698862
 20
-218.6910705383467
 30
0
  0
INSERT
  8
0
  2
____M3_________4
 10
-251.9602913698863
 20
-218.6910705383467
 30
0
  0
ENDSEC
  0
EOF
