  0
SECTION
  2
HEADER
  9
$ACADVER
  1
AC1009
  9
$INSBASE
 10
0
 20
0
  9
$EXTMIN
 10
-313.1343782398935
 20
-346.2371022903778
  9
$EXTMAX
 10
31.27931887064745
 20
-136.0910705383462
  9
$LIMMIN
 10
-313.1343782398935
 20
-346.2371022903778
  9
$LIMMAX
 10
31.27931887064745
 20
-136.0910705383462
  9
$VIEWCTR
 10
10
 20
10
  9
$VIEWSIZE
 40
10
  9
$SNAPMODE
 70
0
  9
$SNAPUNIT
 10
1
 20
1
  9
$SNAPBASE
 10
0
 20
0
  9
$SNAPANG
 50
0
  9
$SNAPSTYLE
 70
0
  9
$SNAPISOPAIR
 70
0
  9
$GRIDMODE
 70
0
  9
$GRIDUNIT
 10
0
 20
0
  9
$ORTHOMODE
 70
0
  9
$REGENMODE
 70
1
  9
$FILLMODE
 70
1
  9
$QTEXTMODE
 70
0
  9
$DRAGMODE
 70
2
  9
$LTSCALE
 40
1
  9
$OSMODE
 70
0
  9
$ATTMODE
 70
1
  9
$TEXTSIZE
 40
3.5
  9
$TRACEWID
 40
0.5
  9
$TEXTSTYLE
  7
STANDARD
  9
$CLAYER
  8
0
  9
$CELTYPE
  6
BYLAYER
  9
$CECOLOR
 62
256
  9
$DIMSCALE
 40
1
  9
$DIMASZ
 40
0.18
  9
$DIMEXO
 40
0.0625
  9
$DIMDLI
 40
0.38
  9
$DIMRND
 40
0
  9
$DIMDLE
 40
0
  9
$DIMEXE
 40
0.18
  9
$DIMTP
 40
0
  9
$DIMTM
 40
0
  9
$DIMTXT
 40
0.18
  9
$DIMCEN
 40
0.09
  9
$DIMTSZ
 40
0
  9
$DIMTOL
 70
0
  9
$DIMLIM
 70
0
  9
$DIMTIH
 70
1
  9
$DIMTOH
 70
1
  9
$DIMSE1
 70
0
  9
$DIMSE2
 70
0
  9
$DIMTAD
 70
0
  9
$DIMZIN
 70
0
  9
$DIMBLK
  1

  9
$DIMASO
 70
1
  9
$DIMSHO
 70
1
  9
$DIMPOST
  1

  9
$DIMAPOST
  1

  9
$DIMALT
 70
0
  9
$DIMALTD
 70
2
  9
$DIMALTF
 40
25.4
  9
$DIMLFAC
 40
1
  9
$DIMTOFL
 70
0
  9
$DIMTVP
 40
0
  9
$DIMTIX
 70
0
  9
$DIMSOXD
 70
0
  9
$DIMSAH
 70
0
  9
$DIMBLK1
  1

  9
$DIMBLK2
  1

  9
$DIMSTYLE
  2
*UNNAMED
  9
$DIMCLRD
 70
0
  9
$DIMCLRE
 70
0
  9
$DIMCLRT
 70
0
  9
$DIMTFAC
 40
1
  9
$DIMGAP
 40
0.09
  9
$LUNITS
 70
2
  9
$LUPREC
 70
4
  9
$AXISMODE
 70
0
  9
$AXISUNIT
 10
0
 20
0
  9
$SKETCHINC
 40
0.1
  9
$FILLETRAD
 40
2
  9
$AUNITS
 70
0
  9
$AUPREC
 70
0
  9
$MENU
  1
ACAD
  9
$ELEVATION
 40
0
  9
$THICKNESS
 40
0
  9
$VIEWDIR
 10
0
 20
0
 30
1
  9
$LIMCHECK
 70
0
  9
$BLIPMODE
 70
1
  9
$CHAMFERA
 40
0
  9
$CHAMFERB
 40
0
  9
$FASTZOOM
 70
1
  9
$SKPOLY
 70
0
  9
$ANGBASE
 50
0
  9
$ANGDIR
 70
0
  9
$PDMODE
 70
0
  9
$PDSIZE
 40
0
  9
$PLINEWID
 40
0
  9
$COORDS
 70
2
  0
ENDSEC
  0
SECTION
  2
TABLES
  0
TABLE
  2
DIMSTYLE
 70
12
  0
DIMSTYLE
  2
DMST_1
 70
0
  3

  4

  5

  6

  7

 40
1
 41
3.2
 42
1
 43
7
 44
1.5
 45
0
 46
0
 47
0
 48
0.1
140
3.2
141
0
142
0
143
25.4
144
1
145
0
146
0.7
147
0.09
 71
1
 72
0
 73
0
 74
0
 75
0
 76
0
 77
1
 78
9
170
0
171
2
172
0
173
0
174
0
175
0
176
2
177
2
178
2
  0
DIMSTYLE
  2
DMST_2
 70
0
  3

  4

  5

  6

  7

 40
1
 41
3.2
 42
1
 43
7
 44
1.5
 45
0
 46
0
 47
0.2
 48
0.2
140
3.2
141
0
142
0
143
25.4
144
1
145
0
146
0.7
147
0.09
 71
1
 72
0
 73
0
 74
0
 75
0
 76
0
 77
1
 78
9
170
0
171
2
172
0
173
0
174
0
175
0
176
2
177
2
178
2
  0
DIMSTYLE
  2
DMST_3
 70
0
  3

  4

  5

  6

  7

 40
1
 41
3.2
 42
1
 43
7
 44
1.5
 45
0
 46
0
 47
0.03
 48
0.03
140
3.2
141
0
142
0
143
25.4
144
1
145
0
146
0.7
147
0.09
 71
1
 72
0
 73
0
 74
0
 75
0
 76
0
 77
1
 78
9
170
0
171
2
172
0
173
0
174
0
175
0
176
2
177
2
178
2
  0
DIMSTYLE
  2
DMST_4
 70
0
  3

  4

  5

  6

  7

 40
1
 41
3.2
 42
1
 43
7
 44
1.5
 45
0
 46
0
 47
40
 48
0
140
3.2
141
0
142
0
143
25.4
144
1
145
0
146
0.7
147
0.09
 71
1
 72
0
 73
0
 74
0
 75
0
 76
0
 77
1
 78
9
170
0
171
2
172
0
173
0
174
0
175
0
176
2
177
2
178
2
  0
DIMSTYLE
  2
DMST_5
 70
0
  3
)
  4

  5

  6

  7

 40
1
 41
3.2
 42
1
 43
7
 44
1
 45
0
 46
0
 47
0
 48
0
140
3.2
141
0
142
0
143
25.4
144
1
145
0
146
1
147
0.09
 71
0
 72
0
 73
0
 74
0
 75
0
 76
0
 77
1
 78
9
170
0
171
2
172
0
173
0
174
0
175
0
176
2
177
2
178
2
  0
DIMSTYLE
  2
DMST_6
 70
0
  3

  4

  5

  6

  7

 40
1
 41
3.2
 42
1
 43
7
 44
1.5
 45
0
 46
0
 47
0
 48
0.02
140
3.2
141
0
142
0
143
25.4
144
1
145
0
146
0.6
147
0.09
 71
1
 72
0
 73
0
 74
0
 75
0
 76
0
 77
1
 78
9
170
0
171
2
172
0
173
0
174
0
175
0
176
2
177
2
178
2
  0
DIMSTYLE
  2
DMST_7
 70
0
  3

  4

  5

  6

  7

 40
1
 41
3.2
 42
1
 43
7
 44
1.5
 45
0
 46
0
 47
0.2
 48
0.2
140
3.2
141
0
142
0
143
25.4
144
1
145
0
146
0.6
147
0.09
 71
1
 72
0
 73
0
 74
0
 75
0
 76
0
 77
1
 78
9
170
0
171
2
172
0
173
0
174
0
175
0
176
2
177
2
178
2
  0
DIMSTYLE
  2
DMST_8
 70
0
  3
)
  4

  5

  6

  7

 40
1
 41
3.2
 42
1
 43
7
 44
1.5
 45
0
 46
0
 47
0
 48
0
140
3.2
141
0
142
0
143
25.4
144
1
145
0
146
1
147
0.09
 71
0
 72
0
 73
0
 74
0
 75
0
 76
0
 77
1
 78
9
170
0
171
2
172
0
173
0
174
0
175
0
176
2
177
2
178
2
  0
DIMSTYLE
  2
DMST_9
 70
0
  3

  4

  5

  6

  7

 40
1
 41
3.2
 42
1
 43
7
 44
1.5
 45
0
 46
0
 47
0
 48
0
140
3.2
141
0
142
0
143
25.4
144
1
145
0
146
1
147
0.09
 71
0
 72
0
 73
0
 74
0
 75
0
 76
0
 77
1
 78
9
170
0
171
2
172
0
173
0
174
0
175
0
176
2
177
2
178
2
  0
DIMSTYLE
  2
DMST_10
 70
0
  3

  4

  5

  6

  7

 40
1
 41
3.2
 42
1
 43
7
 44
1.5
 45
0
 46
0
 47
0
 48
0.02
140
3.2
141
0
142
0
143
25.4
144
1
145
0
146
0.7
147
0.09
 71
1
 72
0
 73
0
 74
0
 75
0
 76
0
 77
1
 78
9
170
0
171
2
172
0
173
0
174
0
175
0
176
2
177
2
178
2
  0
DIMSTYLE
  2
DMST_11
 70
0
  3

  4

  5

  6

  7

 40
1
 41
3.2
 42
1
 43
7
 44
1.5
 45
0
 46
0
 47
0.5
 48
0.5
140
3.2
141
0
142
0
143
25.4
144
1
145
0
146
0.7
147
0.09
 71
1
 72
0
 73
0
 74
0
 75
0
 76
0
 77
1
 78
9
170
0
171
2
172
0
173
0
174
0
175
0
176
2
177
2
178
2
  0
DIMSTYLE
  2
DMST_12
 70
0
  3
 HOLE
  4

  5

  6

  7

 40
1
 41
3.2
 42
1
 43
7
 44
1.5
 45
0
 46
0
 47
0
 48
0
140
3.2
141
0
142
0
143
25.4
144
1
145
0
146
1
147
0.09
 71
0
 72
0
 73
1
 74
1
 75
0
 76
0
 77
1
 78
9
170
0
171
2
172
0
173
0
174
0
175
0
176
2
177
2
178
2
  0
ENDTAB
  0
TABLE
  2
LTYPE
 70
9
  0
LTYPE
  2
CONTINUOUS
 70
64
  3
Solid line
 72
65
 73
0
 40
0
  0
LTYPE
  2
BORDER
 70
64
  3
__ __ . __ __ .
 72
65
 73
6
 40
15.86115710377491
 49
4.531759172507118
 49
-2.265879586253559
 49
4.531759172507118
 49
-2.265879586253559
 49
0
 49
-2.265879586253559
  0
LTYPE
  2
CENTER
 70
64
  3
____ _ ____ _
 72
65
 73
4
 40
18.12703669002847
 49
11.3293979312678
 49
-2.265879586253559
 49
2.265879586253559
 49
-2.265879586253559
  0
LTYPE
  2
DASHDOT
 70
64
  3
__ . __ . __ .
 72
65
 73
4
 40
9.063518345014236
 49
4.531759172507118
 49
-2.265879586253559
 49
0
 49
-2.265879586253559
  0
LTYPE
  2
DASHED
 70
64
  3
__ __ __ __ __
 72
65
 73
2
 40
6.797638758760677
 49
4.531759172507118
 49
-2.265879586253559
  0
LTYPE
  2
DIVIDE
 70
64
  3
__ . . __ . . 
 72
65
 73
6
 40
11.3293979312678
 49
4.531759172507118
 49
-2.265879586253559
 49
0
 49
-2.265879586253559
 49
0
 49
-2.265879586253559
  0
LTYPE
  2
DOT
 70
64
  3
..............
 72
65
 73
4
 40
4.531759172507118
 49
0
 49
-2.265879586253559
 49
0
 49
-2.265879586253559
  0
LTYPE
  2
HIDDEN
 70
64
  3
_ _ _ _ _ _ _
 72
65
 73
2
 40
3.398819379380338
 49
2.265879586253559
 49
-1.13293979312678
  0
LTYPE
  2
PHANTOM
 70
64
  3
_____ _ _ _____ _ _ 
 72
65
 73
6
 40
22.65879586253559
 49
11.3293979312678
 49
-2.265879586253559
 49
2.265879586253559
 49
-2.265879586253559
 49
2.265879586253559
 49
-2.265879586253559
  0
ENDTAB
  0
TABLE
  2
LAYER
 70
3
  0
LAYER
  2
1
 70
0
 62
7
  6
CONTINUOUS
  0
LAYER
  2
0
 70
0
 62
7
  6
CONTINUOUS
  0
ENDTAB
  0
TABLE
  2
STYLE
 70
4
  0
STYLE
  2
STANDARD
 70
0
 40
0
 41
1
 50
0
 71
0
 42
3.5
  3
txt
  4

  0
STYLE
  2
SIMPLEX
 70
0
 40
0
 41
1
 50
0
 71
0
 42
3.5
  3
simplex
  4

  0
STYLE
  2
COMPLEX
 70
0
 40
0
 41
1
 50
0
 71
0
 42
3.5
  3
complex
  4

  0
STYLE
  2
ITALIC
 70
0
 40
0
 41
1
 50
0
 71
0
 42
3.5
  3
italic
  4

  0
ENDTAB
  0
TABLE
  2
VIEW
 70
0
  0
ENDTAB
  0
ENDSEC
  0
SECTION
  2
BLOCKS
  0
BLOCK
  8
0
  2
____M3_________1
 70
0
 10
-229.9602913698866
 20
-218.6910705383467
 30
0
  0
LINE
  8
1
 62
3
 10
-229.3183385334888
 20
-218.5723767200267
 30
0
 11
-228.7072991623362
 21
-217.961337348874
 31
0
  0
LINE
  8
1
 62
3
 10
-229.3183385334888
 20
-218.8097643566662
 30
0
 11
-228.7072991623362
 21
-219.420803727819
 31
0
  0
LINE
  8
1
 62
3
 10
-230.0789851882066
 20
-218.0491177019485
 30
0
 11
-230.6900245593591
 21
-217.438078330796
 31
0
  0
LINE
  8
1
 62
3
 10
-229.2305581804143
 20
-217.438078330796
 30
0
 11
-229.8354626017469
 21
-218.0429827521287
 31
0
  0
LINE
  8
1
 62
3
 10
-229.8354626017469
 20
-218.0429827521287
 30
0
 11
-229.8415975515668
 21
-218.0491177019485
 31
0
  0
LINE
  8
1
 62
3
 10
-230.6022442062846
 20
-218.8097643566662
 30
0
 11
-231.2132835774372
 21
-219.420803727819
 31
0
  0
LINE
  8
1
 62
3
 10
-230.6022442062846
 20
-218.5723767200267
 30
0
 11
-231.2132835774372
 21
-217.961337348874
 31
0
  0
LINE
  8
1
 62
3
 10
-229.8415975515668
 20
-219.3330233747445
 30
0
 11
-229.2305581804143
 21
-219.944062745897
 31
0
  0
LINE
  8
1
 62
3
 10
-230.0789851882066
 20
-219.3330233747445
 30
0
 11
-230.6900245593591
 21
-219.944062745897
 31
0
  0
LINE
  8
1
 62
1
 10
-235.7602913698867
 20
-218.6910705383467
 30
0
 11
-224.1602913698866
 21
-218.6910705383467
 31
0
  0
LINE
  8
1
 62
1
 10
-229.9602913698866
 20
-212.8910705383466
 30
0
 11
-229.9602913698866
 21
-224.4910705383465
 31
0
  0
ARC
  8
1
 62
3
 10
-229.9602913698866
 20
-218.6910705383467
 30
0
 40
0.6349999999997152
 50
352.5415509437153
 51
7.458449056330466
  0
ARC
  8
1
 62
3
 10
-229.9602913698866
 20
-218.6910705383467
 30
0
 40
1.450000000000007
 50
30.21619828526145
 51
59.78380171475934
  0
ARC
  8
1
 62
3
 10
-229.9602913698866
 20
-218.6910705383467
 30
0
 40
0.6350000000001601
 50
82.54155094370505
 51
97.45844905631529
  0
ARC
  8
1
 62
3
 10
-229.9602913698866
 20
-218.6910705383467
 30
0
 40
1.450000000000177
 50
120.2161982852484
 51
149.7838017147431
  0
ARC
  8
1
 62
3
 10
-229.9602913698866
 20
-218.6910705383467
 30
0
 40
0.6350000000000916
 50
172.5415509436732
 51
187.458449056281
  0
ARC
  8
1
 62
3
 10
-229.9602913698866
 20
-218.6910705383467
 30
0
 40
1.449999999999989
 50
210.2161982852423
 51
239.7838017147437
  0
ARC
  8
1
 62
3
 10
-229.9602913698866
 20
-218.6910705383467
 30
0
 40
0.634999999999767
 50
262.5415509436797
 51
277.4584490562999
  0
ARC
  8
1
 62
3
 10
-229.9602913698866
 20
-218.6910705383467
 30
0
 40
1.449999999999719
 50
300.2161982852485
 51
329.7838017147532
  0
CIRCLE
  8
1
 62
3
 10
-229.9602913698866
 20
-218.6910705383467
 30
0
 40
2.799999999999983
  0
ARC
  8
1
 62
3
 10
-229.2876972396373
 20
-218.603018013878
 30
0
 40
0.04333333333329322
 50
135.000000000186
 51
187.4584490562962
  0
ARC
  8
1
 62
3
 10
-229.2876972396373
 20
-218.7791230628149
 30
0
 40
0.0433333333335418
 50
172.5415509437038
 51
224.999999999814
  0
ARC
  8
1
 62
3
 10
-230.0483438943552
 20
-218.0184764080971
 30
0
 40
0.04333333333329322
 50
225.0000000000266
 51
277.4584490563481
  0
ARC
  8
1
 62
3
 10
-229.8722388454182
 20
-218.0184764080971
 30
0
 40
0.04333333333346094
 50
262.5415509436519
 51
315
  0
ARC
  8
1
 62
3
 10
-230.632885500136
 20
-218.7791230628149
 30
0
 40
0.04333333333323293
 50
315.0000000001063
 51
7.458449056325448
  0
ARC
  8
1
 62
3
 10
-230.632885500136
 20
-218.603018013878
 30
0
 40
0.04333333333337271
 50
352.5415509436746
 51
44.99999999989371
  0
ARC
  8
1
 62
3
 10
-229.8722388454182
 20
-219.3636646685959
 30
0
 40
0.04333333333331332
 50
45
 51
97.45844905634807
  0
ARC
  8
1
 62
3
 10
-230.0483438943552
 20
-219.3636646685959
 30
0
 40
0.04333333333346094
 50
82.54155094365193
 51
134.9999999999734
  0
ENDBLK
  8
0
  0
BLOCK
  8
0
  2
____M3_________2
 70
0
 10
-180.3602913698865
 20
-218.6910705383467
 30
0
  0
LINE
  8
1
 62
3
 10
-180.4789851882064
 20
-219.3330233747445
 30
0
 11
-181.090024559359
 21
-219.944062745897
 31
0
  0
LINE
  8
1
 62
3
 10
-180.2415975515666
 20
-219.3330233747445
 30
0
 11
-179.630558180414
 21
-219.944062745897
 31
0
  0
LINE
  8
1
 62
3
 10
-181.0022442062844
 20
-218.5723767200267
 30
0
 11
-181.613283577437
 21
-217.961337348874
 31
0
  0
LINE
  8
1
 62
3
 10
-181.0022442062844
 20
-218.8097643566662
 30
0
 11
-181.613283577437
 21
-219.420803727819
 31
0
  0
LINE
  8
1
 62
3
 10
-180.2354626017467
 20
-218.0429827521287
 30
0
 11
-180.2415975515666
 21
-218.0491177019485
 31
0
  0
LINE
  8
1
 62
3
 10
-179.6305581804141
 20
-217.438078330796
 30
0
 11
-180.2354626017467
 21
-218.0429827521287
 31
0
  0
LINE
  8
1
 62
3
 10
-180.4789851882064
 20
-218.0491177019485
 30
0
 11
-181.090024559359
 21
-217.438078330796
 31
0
  0
LINE
  8
1
 62
3
 10
-179.7183385334887
 20
-218.8097643566662
 30
0
 11
-179.107299162336
 21
-219.420803727819
 31
0
  0
LINE
  8
1
 62
3
 10
-179.7183385334887
 20
-218.5723767200267
 30
0
 11
-179.107299162336
 21
-217.961337348874
 31
0
  0
LINE
  8
1
 62
1
 10
-186.1602913698866
 20
-218.6910705383467
 30
0
 11
-174.5602913698865
 21
-218.6910705383467
 31
0
  0
LINE
  8
1
 62
1
 10
-180.3602913698865
 20
-212.8910705383466
 30
0
 11
-180.3602913698865
 21
-224.4910705383465
 31
0
  0
ARC
  8
1
 62
3
 10
-180.3602913698865
 20
-218.6910705383467
 30
0
 40
1.449999999999833
 50
300.2161982852564
 51
329.7838017147553
  0
ARC
  8
1
 62
3
 10
-180.3602913698865
 20
-218.6910705383467
 30
0
 40
0.6349999999997521
 50
262.5415509436899
 51
277.4584490563025
  0
ARC
  8
1
 62
3
 10
-180.3602913698865
 20
-218.6910705383467
 30
0
 40
1.449999999999866
 50
210.2161982852452
 51
239.7838017147446
  0
ARC
  8
1
 62
3
 10
-180.3602913698865
 20
-218.6910705383467
 30
0
 40
0.6350000000000916
 50
172.5415509436732
 51
187.4584490562824
  0
ARC
  8
1
 62
3
 10
-180.3602913698865
 20
-218.6910705383467
 30
0
 40
1.450000000000162
 50
120.2161982852475
 51
149.7838017147402
  0
ARC
  8
1
 62
3
 10
-180.3602913698865
 20
-218.6910705383467
 30
0
 40
0.6350000000001638
 50
82.5415509437025
 51
97.45844905630513
  0
ARC
  8
1
 62
3
 10
-180.3602913698865
 20
-218.6910705383467
 30
0
 40
1.450000000000105
 50
30.21619828525918
 51
59.78380171475546
  0
ARC
  8
1
 62
3
 10
-180.3602913698865
 20
-218.6910705383467
 30
0
 40
0.6349999999999407
 50
352.541550943718
 51
7.458449056327804
  0
CIRCLE
  8
1
 62
3
 10
-180.3602913698865
 20
-218.6910705383467
 30
0
 40
2.800000000000011
  0
ARC
  8
1
 62
3
 10
-180.448343894355
 20
-219.3636646685959
 30
0
 40
0.04333333333345725
 50
82.5415509436892
 51
135
  0
ARC
  8
1
 62
3
 10
-180.2722388454181
 20
-219.3636646685959
 30
0
 40
0.04333333333337361
 50
44.99999999992028
 51
97.45844905634807
  0
ARC
  8
1
 62
3
 10
-181.0328855001359
 20
-218.603018013878
 30
0
 40
0.04333333333334453
 50
352.5415509436697
 51
44.99999999978742
  0
ARC
  8
1
 62
3
 10
-181.0328855001359
 20
-218.7791230628149
 30
0
 40
0.04333333333331332
 50
315.0000000002125
 51
7.458449056310815
  0
ARC
  8
1
 62
3
 10
-180.2722388454181
 20
-218.0184764080971
 30
0
 40
0.04333333333346094
 50
262.5415509436519
 51
315.0000000000798
  0
ARC
  8
1
 62
3
 10
-180.448343894355
 20
-218.0184764080971
 30
0
 40
0.04333333333331332
 50
225
 51
277.4584490563108
  0
ARC
  8
1
 62
3
 10
-179.6876972396372
 20
-218.7791230628149
 30
0
 40
0.04333333333334453
 50
172.5415509436697
 51
224.999999999814
  0
ARC
  8
1
 62
3
 10
-179.6876972396372
 20
-218.603018013878
 30
0
 40
0.04333333333329322
 50
135.000000000186
 51
187.4584490563303
  0
ENDBLK
  8
0
  0
BLOCK
  8
0
  2
____M3_________3
 70
0
 10
-180.3602913698865
 20
-187.8910705383464
 30
0
  0
LINE
  8
1
 62
3
 10
-179.107299162336
 20
-188.6208037278189
 30
0
 11
-179.7183385334887
 21
-188.0097643566664
 31
0
  0
LINE
  8
1
 62
3
 10
-179.107299162336
 20
-187.1613373488741
 30
0
 11
-179.7183385334887
 21
-187.7723767200267
 31
0
  0
LINE
  8
1
 62
3
 10
-181.090024559359
 20
-189.1440627458971
 30
0
 11
-180.4789851882064
 21
-188.5330233747444
 31
0
  0
LINE
  8
1
 62
3
 10
-180.2354626017467
 20
-188.5391583245642
 30
0
 11
-179.6305581804141
 21
-189.1440627458971
 31
0
  0
LINE
  8
1
 62
3
 10
-180.2415975515666
 20
-188.5330233747444
 30
0
 11
-180.2354626017467
 21
-188.5391583245642
 31
0
  0
LINE
  8
1
 62
3
 10
-181.613283577437
 20
-187.1613373488741
 30
0
 11
-181.0022442062844
 21
-187.7723767200267
 31
0
  0
LINE
  8
1
 62
3
 10
-181.613283577437
 20
-188.6208037278189
 30
0
 11
-181.0022442062844
 21
-188.0097643566664
 31
0
  0
LINE
  8
1
 62
3
 10
-179.630558180414
 20
-186.6380783307959
 30
0
 11
-180.2415975515666
 21
-187.2491177019486
 31
0
  0
LINE
  8
1
 62
3
 10
-181.090024559359
 20
-186.6380783307959
 30
0
 11
-180.4789851882064
 21
-187.2491177019486
 31
0
  0
LINE
  8
1
 62
1
 10
-174.5602913698865
 20
-187.8910705383464
 30
0
 11
-186.1602913698866
 21
-187.8910705383464
 31
0
  0
LINE
  8
1
 62
1
 10
-180.3602913698865
 20
-182.0910705383463
 30
0
 11
-180.3602913698865
 21
-193.6910705383466
 31
0
  0
ARC
  8
1
 62
3
 10
-180.3602913698865
 20
-187.8910705383464
 30
0
 40
0.6349999999999777
 50
352.5415509436925
 51
7.458449056299831
  0
ARC
  8
1
 62
3
 10
-180.3602913698865
 20
-187.8910705383464
 30
0
 40
1.450000000000095
 50
300.2161982852451
 51
329.7838017147486
  0
ARC
  8
1
 62
3
 10
-180.3602913698865
 20
-187.8910705383464
 30
0
 40
0.6349999999999494
 50
262.5415509436922
 51
277.4584490563002
  0
ARC
  8
1
 62
3
 10
-180.3602913698865
 20
-187.8910705383464
 30
0
 40
1.449999999999966
 50
210.216198285252
 51
239.783801714752
  0
ARC
  8
1
 62
3
 10
-180.3602913698865
 20
-187.8910705383464
 30
0
 40
0.6349999999999384
 50
172.5415509436998
 51
187.4584490563065
  0
ARC
  8
1
 62
3
 10
-180.3602913698865
 20
-187.8910705383464
 30
0
 40
1.44999999999999
 50
120.2161982852514
 51
149.7838017147538
  0
ARC
  8
1
 62
3
 10
-180.3602913698865
 20
-187.8910705383464
 30
0
 40
0.6349999999997693
 50
82.54155094369784
 51
97.45844905630845
  0
ARC
  8
1
 62
3
 10
-180.3602913698865
 20
-187.8910705383464
 30
0
 40
1.449999999999905
 50
30.2161982852456
 51
59.78380171474762
  0
CIRCLE
  8
1
 62
3
 10
-180.3602913698865
 20
-187.8910705383464
 30
0
 40
2.800000000000011
  0
ARC
  8
1
 62
3
 10
-179.6876972396372
 20
-187.9791230628149
 30
0
 40
0.04333333333334453
 50
172.5415509436697
 51
225.0000000000266
  0
ARC
  8
1
 62
3
 10
-179.6876972396372
 20
-187.803018013878
 30
0
 40
0.04333333333329322
 50
135.000000000186
 51
187.4584490563676
  0
ARC
  8
1
 62
3
 10
-180.448343894355
 20
-188.5636646685958
 30
0
 40
0.04333333333345725
 50
82.5415509436892
 51
135
  0
ARC
  8
1
 62
3
 10
-180.2722388454181
 20
-188.5636646685958
 30
0
 40
0.04333333333337361
 50
44.99999999992028
 51
97.45844905634807
  0
ARC
  8
1
 62
3
 10
-181.0328855001359
 20
-187.803018013878
 30
0
 40
0.04333333333346094
 50
352.5415509436519
 51
44.99999999978742
  0
ARC
  8
1
 62
3
 10
-181.0328855001359
 20
-187.9791230628149
 30
0
 40
0.0433333333334741
 50
315
 51
7.458449056330325
  0
ARC
  8
1
 62
3
 10
-180.2722388454181
 20
-187.2184764080972
 30
0
 40
0.04333333333346094
 50
262.5415509436519
 51
315.0000000000798
  0
ARC
  8
1
 62
3
 10
-180.448343894355
 20
-187.2184764080972
 30
0
 40
0.04333333333331332
 50
225
 51
277.4584490563303
  0
ENDBLK
  8
0
  0
BLOCK
  8
0
  2
____M3_________4
 70
0
 10
-229.9602913698866
 20
-187.8910705383464
 30
0
  0
LINE
  8
1
 62
3
 10
-230.6900245593591
 20
-186.6380783307959
 30
0
 11
-230.0789851882066
 21
-187.2491177019486
 31
0
  0
LINE
  8
1
 62
3
 10
-229.2305581804143
 20
-186.6380783307959
 30
0
 11
-229.8415975515668
 21
-187.2491177019486
 31
0
  0
LINE
  8
1
 62
3
 10
-231.2132835774372
 20
-188.6208037278189
 30
0
 11
-230.6022442062846
 21
-188.0097643566664
 31
0
  0
LINE
  8
1
 62
3
 10
-231.2132835774372
 20
-187.1613373488741
 30
0
 11
-230.6022442062846
 21
-187.7723767200267
 31
0
  0
LINE
  8
1
 62
3
 10
-229.8415975515668
 20
-188.5330233747444
 30
0
 11
-229.8354626017469
 21
-188.5391583245642
 31
0
  0
LINE
  8
1
 62
3
 10
-229.8354626017469
 20
-188.5391583245642
 30
0
 11
-229.2305581804143
 21
-189.1440627458971
 31
0
  0
LINE
  8
1
 62
3
 10
-230.6900245593591
 20
-189.1440627458971
 30
0
 11
-230.0789851882066
 21
-188.5330233747444
 31
0
  0
LINE
  8
1
 62
3
 10
-228.7072991623362
 20
-187.1613373488741
 30
0
 11
-229.3183385334888
 21
-187.7723767200267
 31
0
  0
LINE
  8
1
 62
3
 10
-228.7072991623362
 20
-188.6208037278189
 30
0
 11
-229.3183385334888
 21
-188.0097643566664
 31
0
  0
LINE
  8
1
 62
1
 10
-229.9602913698866
 20
-182.0910705383463
 30
0
 11
-229.9602913698866
 21
-193.6910705383466
 31
0
  0
LINE
  8
1
 62
1
 10
-224.1602913698866
 20
-187.8910705383464
 30
0
 11
-235.7602913698867
 21
-187.8910705383464
 31
0
  0
ARC
  8
1
 62
3
 10
-229.9602913698866
 20
-187.8910705383464
 30
0
 40
1.449999999999807
 50
30.21619828524786
 51
59.78380171475538
  0
ARC
  8
1
 62
3
 10
-229.9602913698866
 20
-187.8910705383464
 30
0
 40
0.6349999999997655
 50
82.54155094370039
 51
97.45844905631863
  0
ARC
  8
1
 62
3
 10
-229.9602913698866
 20
-187.8910705383464
 30
0
 40
1.450000000000005
 50
120.2161982852524
 51
149.7838017147567
  0
ARC
  8
1
 62
3
 10
-229.9602913698866
 20
-187.8910705383464
 30
0
 40
0.6350000000000511
 50
172.5415509437012
 51
187.4584490563065
  0
ARC
  8
1
 62
3
 10
-229.9602913698866
 20
-187.8910705383464
 30
0
 40
1.450000000000089
 50
210.2161982852491
 51
239.783801714751
  0
ARC
  8
1
 62
3
 10
-229.9602913698866
 20
-187.8910705383464
 30
0
 40
0.6349999999999643
 50
262.541550943682
 51
277.4584490562976
  0
ARC
  8
1
 62
3
 10
-229.9602913698866
 20
-187.8910705383464
 30
0
 40
1.450000000000038
 50
300.2161982852413
 51
329.7838017147463
  0
ARC
  8
1
 62
3
 10
-229.9602913698866
 20
-187.8910705383464
 30
0
 40
0.6349999999997521
 50
352.5415509436899
 51
7.458449056302493
  0
CIRCLE
  8
1
 62
3
 10
-229.9602913698866
 20
-187.8910705383464
 30
0
 40
2.799999999999983
  0
ARC
  8
1
 62
3
 10
-230.0483438943552
 20
-187.2184764080972
 30
0
 40
0.04333333333329322
 50
225.0000000000266
 51
277.4584490563676
  0
ARC
  8
1
 62
3
 10
-229.8722388454182
 20
-187.2184764080972
 30
0
 40
0.04333333333346094
 50
262.5415509436519
 51
315
  0
ARC
  8
1
 62
3
 10
-230.632885500136
 20
-187.9791230628149
 30
0
 40
0.0433333333333937
 50
314.9999999998937
 51
7.458449056325448
  0
ARC
  8
1
 62
3
 10
-230.632885500136
 20
-187.803018013878
 30
0
 40
0.0433333333333764
 50
352.5415509436373
 51
44.99999999989371
  0
ARC
  8
1
 62
3
 10
-229.8722388454182
 20
-188.5636646685958
 30
0
 40
0.04333333333331332
 50
45
 51
97.45844905634807
  0
ARC
  8
1
 62
3
 10
-230.0483438943552
 20
-188.5636646685958
 30
0
 40
0.04333333333346094
 50
82.54155094365193
 51
134.9999999999734
  0
ARC
  8
1
 62
3
 10
-229.2876972396373
 20
-187.803018013878
 30
0
 40
0.04333333333329322
 50
135.000000000186
 51
187.4584490563335
  0
ARC
  8
1
 62
3
 10
-229.2876972396373
 20
-187.9791230628149
 30
0
 40
0.0433333333335418
 50
172.5415509437038
 51
225.0000000000266
  0
ENDBLK
  8
0
  0
BLOCK
  8
0
  2
AD09745-01_DB
 70
0
 10
-469.2825480360854
 20
-974.3018676097641
 30
0
  0
LINE
  8
1
 62
3
 10
-219.2602913698868
 20
-236.5910705383465
 30
0
 11
-217.6602913698867
 21
-236.5910705383465
 31
0
  0
LINE
  8
1
 62
3
 10
-191.0602913698882
 20
-236.5910705383465
 30
0
 11
-192.6602913698867
 21
-236.5910705383465
 31
0
  0
LINE
  8
1
 62
3
 10
-219.2602913698868
 20
-236.5910705383465
 30
0
 11
-219.2602913698867
 21
-231.2910705383446
 31
0
  0
LINE
  8
1
 62
3
 10
-191.0602913698882
 20
-236.5910705383465
 30
0
 11
-191.0602913698869
 21
-231.2910705383466
 31
0
  0
LINE
  8
1
 62
3
 10
-189.5902913698863
 20
-236.2910705383475
 30
0
 11
-191.060291369888
 21
-236.2910705383475
 31
0
  0
LINE
  8
1
 62
3
 10
-219.2602913698868
 20
-236.2910705383478
 30
0
 11
-220.7302913698871
 21
-236.2910705383478
 31
0
  0
LINE
  8
1
 62
3
 10
-192.6602913698867
 20
-236.5910705383465
 30
0
 11
-194.4102913698867
 21
-236.5910705383466
 31
0
  0
LINE
  8
1
 62
3
 10
-219.2602913698868
 20
-236.2910705383478
 30
0
 11
-220.7302913698871
 21
-236.2910705383478
 31
0
  0
LINE
  8
1
 62
3
 10
-189.5902913698863
 20
-236.2910705383475
 30
0
 11
-191.060291369888
 21
-236.2910705383475
 31
0
  0
LINE
  8
1
 62
3
 10
-191.0602913698882
 20
-236.5910705383465
 30
0
 11
-191.0602913698869
 21
-231.2910705383466
 31
0
  0
LINE
  8
1
 62
3
 10
-219.2602913698868
 20
-236.5910705383465
 30
0
 11
-219.2602913698867
 21
-231.2910705383446
 31
0
  0
LINE
  8
1
 62
3
 10
-191.0602913698882
 20
-236.5910705383465
 30
0
 11
-192.6602913698867
 21
-236.5910705383465
 31
0
  0
LINE
  8
1
 62
3
 10
-219.2602913698868
 20
-236.5910705383465
 30
0
 11
-217.6602913698867
 21
-236.5910705383465
 31
0
  0
LINE
  8
1
 62
3
 10
-186.5902913698864
 20
-231.2910705383466
 30
0
 11
-186.5902913698865
 21
-233.2910705383487
 31
0
  0
LINE
  8
1
 62
3
 10
-223.7302913698869
 20
-233.2910705383475
 30
0
 11
-223.7302913698869
 21
-231.2910705383466
 31
0
  0
LINE
  8
1
 62
3
 10
-223.7302913698869
 20
-233.2910705383475
 30
0
 11
-223.7302913698869
 21
-231.2910705383466
 31
0
  0
LINE
  8
1
 62
3
 10
-186.5902913698864
 20
-231.2910705383466
 30
0
 11
-186.5902913698865
 21
-233.2910705383487
 31
0
  0
LINE
  8
1
 62
3
 10
-219.2602913698867
 20
-231.4910705383467
 30
0
 11
-223.7302913698869
 21
-231.4910705383465
 31
0
  0
LINE
  8
1
 62
3
 10
-191.0602913698877
 20
-231.4910705383467
 30
0
 11
-186.5902913698865
 21
-231.4910705383467
 31
0
  0
LINE
  8
1
 62
3
 10
-194.4102913698867
 20
-234.0910705383466
 30
0
 11
-194.4102913698867
 21
-237.2910705383466
 31
0
  0
LINE
  8
1
 62
3
 10
-194.4102913698867
 20
-237.2910705383466
 30
0
 11
-215.9102913698867
 21
-237.2910705383466
 31
0
  0
LINE
  8
1
 62
3
 10
-215.9102913698867
 20
-237.2910705383466
 30
0
 11
-215.9102913698867
 21
-234.0910705383466
 31
0
  0
LINE
  8
1
 62
3
 10
-215.9102913698867
 20
-234.0910705383466
 30
0
 11
-217.4102913698867
 21
-234.0910705383466
 31
0
  0
LINE
  8
1
 62
3
 10
-217.4102913698867
 20
-234.0910705383466
 30
0
 11
-217.4102913698867
 21
-236.5910705383466
 31
0
  0
LINE
  8
1
 62
3
 10
-217.4102913698867
 20
-236.5910705383466
 30
0
 11
-217.6602913698867
 21
-236.5910705383465
 31
0
  0
LINE
  8
1
 62
3
 10
-215.9102913698867
 20
-236.5910705383466
 30
0
 11
-217.4102913698867
 21
-236.5910705383466
 31
0
  0
LINE
  8
1
 62
3
 10
-194.4102913698867
 20
-234.0910705383466
 30
0
 11
-192.9102913698867
 21
-234.0910705383466
 31
0
  0
LINE
  8
1
 62
3
 10
-192.9102913698867
 20
-234.0910705383466
 30
0
 11
-192.9102913698867
 21
-236.5910705383466
 31
0
  0
ARC
  8
1
 62
3
 10
-189.5902913698864
 20
-233.2910705383475
 30
0
 40
3
 50
270
 51
359.9999999999772
  0
ARC
  8
1
 62
3
 10
-220.7302913698869
 20
-233.2910705383475
 30
0
 40
3
 50
180
 51
270
  0
ARC
  8
1
 62
3
 10
-220.7302913698869
 20
-233.2910705383475
 30
0
 40
3
 50
180
 51
270
  0
ARC
  8
1
 62
3
 10
-189.5902913698864
 20
-233.2910705383475
 30
0
 40
3
 50
270
 51
359.9999999999772
  0
ARC
  8
1
 62
3
 10
-188.041921763321
 20
-229.8900975268147
 30
0
 40
1.999999999999179
 50
302.7641686359681
 51
315.533950530228
  0
ARC
  8
1
 62
3
 10
-222.278660976452
 20
-229.8900975268147
 30
0
 40
1.999999999999508
 50
224.466049469764
 51
237.2358313640271
  0
ENDBLK
  8
0
  0
BLOCK
  8
0
  2
MOJINOMUKI
 70
0
 10
-21.37054617458106
 20
-171.5718741559166
 30
0
  0
LINE
  8
1
 62
2
 10
-24.37054617458106
 20
-171.5718741559166
 30
0
 11
-24.37054617458106
 21
-145.5718741559166
 31
0
  0
LINE
  8
1
 62
2
 10
-24.37054617458106
 20
-145.5718741559166
 30
0
 11
-18.37054617458106
 21
-145.5718741559166
 31
0
  0
LINE
  8
1
 62
2
 10
-18.37054617458106
 20
-145.5718741559166
 30
0
 11
-18.37054617458106
 21
-171.5718741559166
 31
0
  0
LINE
  8
1
 62
2
 10
-18.37054617458106
 20
-171.5718741559166
 30
0
 11
-24.37054617458106
 21
-171.5718741559166
 31
0
  0
LINE
  8
1
 62
2
 10
-24.37054617458106
 20
-165.5718741559166
 30
0
 11
-18.37054617458106
 21
-165.5718741559166
 31
0
  0
LINE
  8
1
 62
2
 10
-18.87054617458106
 20
-168.5718741559166
 30
0
 11
-23.87054617458106
 21
-168.5718741559166
 31
0
  0
LINE
  8
1
 62
2
 10
-23.87054617458106
 20
-168.5718741559166
 30
0
 11
-21.37054617458106
 21
-170.0718741559166
 31
0
  0
LINE
  8
1
 62
2
 10
-21.37054617458106
 20
-170.0718741559166
 30
0
 11
-21.37054617458106
 21
-167.5718741559166
 31
0
  0
TEXT
  8
1
 62
2
 10
-30.07860031272308
 20
-165.0241798780374
 30
0
 40
2.5
  1
DIRECTION
 50
90
 41
0.63
  0
TEXT
  8
1
 62
2
 10
-25.70360031272308
 20
-165.0241798780374
 30
0
 40
2.5
  1
OF LETTER
 50
90
 41
0.63
  0
TEXT
  8
1
 62
2
 10
-19.37054617458106
 20
-173.5251285937864
 30
0
 40
4
  1
文字の向き
 50
90
 41
0.9
 72
1
 73
2
 11
-21.37054617458106
 21
-155.5251285937864
 31
0
  0
ENDBLK
  8
0
  0
BLOCK
  8
1
  2
*D0
 70
1
 10
0
 20
0
 30
0
  0
LINE
  8
1
 62
2
 10
-88.82068112935248
 20
-200.6160705383467
 30
0
 11
-88.82068112935248
 21
-165.798534621564
 31
0
  0
LINE
  8
1
 62
2
 10
-88.82068112935248
 20
-206.4660705383466
 30
0
 11
-88.82068112935248
 21
-200.6160705383467
 31
0
  0
LINE
  8
1
 62
2
 10
-88.82068112935248
 20
-212.8660705383466
 30
0
 11
-88.82068112935248
 21
-206.4660705383466
 31
0
  0
LINE
  8
1
 62
2
 10
-79.82068112935266
 20
-200.6160705383467
 30
0
 11
-90.32068112935248
 21
-200.6160705383467
 31
0
  0
LINE
  8
1
 62
2
 10
-79.32068112935266
 20
-206.4660705383466
 30
0
 11
-90.32068112935248
 21
-206.4660705383466
 31
0
  0
SOLID
  8
1
 62
2
 10
-88.82068112935248
 20
-206.4660705383466
 30
0
 11
-88.40468112935248
 21
-209.6660705383466
 31
0
 12
-89.23668112935248
 22
-209.6660705383466
 32
0
 13
-89.23668112935248
 23
-209.6660705383466
 33
0
  0
SOLID
  8
1
 62
2
 10
-88.82068112935248
 20
-200.6160705383467
 30
0
 11
-89.23668112935248
 21
-197.4160705383467
 31
0
 12
-88.40468112935248
 22
-197.4160705383467
 32
0
 13
-88.40468112935248
 23
-197.4160705383467
 33
0
  0
TEXT
  8
1
 62
2
 10
-92.02068112935248
 20
-181.847334621564
 30
0
 40
3.2
  1
5.85
 50
90
 41
0.9
  0
TEXT
  8
1
 62
2
 10
-94.18068112935248
 20
-171.527334621564
 30
0
 40
2.24
  1
 0
 50
90
 41
0.9900000000000001
  0
TEXT
  8
1
 62
2
 10
-90.82068112935248
 20
-171.527334621564
 30
0
 40
2.24
  1
-0.1
 50
90
 41
0.9900000000000001
  0
ENDBLK
  8
0
  0
BLOCK
  8
1
  2
*D1
 70
1
 10
0
 20
0
 30
0
  0
LINE
  8
1
 62
2
 10
-78.82068112935266
 20
-157.291070538346
 30
0
 11
-63.82068112935267
 21
-157.291070538346
 31
0
  0
LINE
  8
1
 62
2
 10
-63.82068112935267
 20
-199.1160705383466
 30
0
 11
-63.82068112935267
 21
-155.791070538346
 31
0
  0
LINE
  8
1
 62
2
 10
-78.82068112935266
 20
-199.6160705383467
 30
0
 11
-78.82068112935266
 21
-155.791070538346
 31
0
  0
SOLID
  8
1
 62
2
 10
-78.82068112935266
 20
-157.291070538346
 30
0
 11
-75.62068112935266
 21
-156.875070538346
 31
0
 12
-75.62068112935266
 22
-157.707070538346
 32
0
 13
-75.62068112935266
 23
-157.707070538346
 33
0
  0
SOLID
  8
1
 62
2
 10
-63.82068112935267
 20
-157.291070538346
 30
0
 11
-67.02068112935267
 21
-157.707070538346
 31
0
 12
-67.02068112935267
 22
-156.875070538346
 32
0
 13
-67.02068112935267
 23
-156.875070538346
 33
0
  0
TEXT
  8
1
 62
2
 10
-77.0955025538679
 20
-155.291070538346
 30
0
 40
3.2
  1
15
 41
0.9
  0
TEXT
  8
1
 62
2
 10
-71.65550255386791
 20
-154.811070538346
 30
0
 40
2.24
  1
%%p0.2
 41
0.9900000000000001
  0
ENDBLK
  8
0
  0
BLOCK
  8
1
  2
*D2
 70
1
 10
0
 20
0
 30
0
  0
LINE
  8
1
 62
2
 10
-108.8206811293526
 20
-222.3410705383466
 30
0
 11
-108.8206811293526
 21
-184.2410705383467
 31
0
  0
LINE
  8
1
 62
2
 10
-60.64734779601949
 20
-222.3410705383466
 30
0
 11
-110.3206811293526
 21
-222.3410705383466
 31
0
  0
LINE
  8
1
 62
2
 10
-60.64734779601949
 20
-184.2410705383467
 30
0
 11
-110.3206811293526
 21
-184.2410705383467
 31
0
  0
SOLID
  8
1
 62
2
 10
-108.8206811293526
 20
-184.2410705383467
 30
0
 11
-108.4046811293526
 21
-187.4410705383467
 31
0
 12
-109.2366811293526
 22
-187.4410705383467
 32
0
 13
-109.2366811293526
 23
-187.4410705383467
 33
0
  0
SOLID
  8
1
 62
2
 10
-108.8206811293526
 20
-222.3410705383466
 30
0
 11
-109.2366811293526
 21
-219.1410705383466
 31
0
 12
-108.4046811293526
 22
-219.1410705383466
 32
0
 13
-108.4046811293526
 23
-219.1410705383466
 33
0
  0
TEXT
  8
1
 62
2
 10
-111.674014462686
 20
-209.5553764206995
 30
0
 40
3.2
  1
38.1
 50
90
 41
0.9
  0
TEXT
  8
1
 62
2
 10
-112.154014462686
 20
-200.1953764206995
 30
0
 40
2.24
  1
%%p0.03
 50
90
 41
0.9900000000000001
  0
TEXT
  8
1
 62
2
 10
-111.674014462686
 20
-214.8259646559937
 30
0
 40
3.2
  1
φ
 50
90
 41
1.35
  0
ENDBLK
  8
0
  0
BLOCK
  8
1
  2
*D3
 70
1
 10
0
 20
0
 30
0
  0
LINE
  8
1
 62
2
 10
-241.1214967730295
 20
-294.2701243664185
 30
0
 11
-163.0009263741032
 21
-294.2701243664185
 31
0
  0
LINE
  8
1
 62
2
 10
-241.1214967730295
 20
-301.1703108751134
 30
0
 11
-241.1214967730295
 21
-292.7701243664185
 31
0
  0
LINE
  8
1
 62
2
 10
-163.0009263741032
 20
-310.4703108751135
 30
0
 11
-163.0009263741032
 21
-292.7701243664185
 31
0
  0
SOLID
  8
1
 62
2
 10
-241.1214967730295
 20
-294.2701243664185
 30
0
 11
-237.9214967730295
 21
-293.8541243664185
 31
0
 12
-237.9214967730295
 22
-294.6861243664185
 32
0
 13
-237.9214967730295
 23
-294.6861243664185
 33
0
  0
SOLID
  8
1
 62
2
 10
-163.0009263741032
 20
-294.2701243664185
 30
0
 11
-166.2009263741032
 21
-294.6861243664185
 31
0
 12
-166.2009263741032
 22
-293.8541243664185
 32
0
 13
-166.2009263741032
 23
-293.8541243664185
 33
0
  0
TEXT
  8
1
 62
2
 10
-210.1993728554228
 20
-291.0701243664185
 30
0
 40
3.2
  1
300
 41
0.9
  0
TEXT
  8
1
 62
2
 10
-200.9193728554228
 20
-288.9101243664185
 30
0
 40
2.24
  1
+40
 41
0.9900000000000001
  0
TEXT
  8
1
 62
2
 10
-200.9193728554228
 20
-292.2701243664185
 30
0
 40
2.24
  1
 0
 41
0.9900000000000001
  0
ENDBLK
  8
0
  0
BLOCK
  8
1
  2
*D4
 70
1
 10
0
 20
0
 30
0
  0
LINE
  8
1
 62
2
 10
-173.0009263741034
 20
-303.8701243664183
 30
0
 11
-163.0009263741034
 21
-303.8701243664183
 31
0
  0
LINE
  8
1
 62
2
 10
-173.0009263741034
 20
-309.9703108751132
 30
0
 11
-173.0009263741034
 21
-302.8701243664183
 31
0
  0
LINE
  8
1
 62
2
 10
-163.0009263741034
 20
-310.7703108751133
 30
0
 11
-163.0009263741034
 21
-302.8701243664183
 31
0
  0
SOLID
  8
1
 62
2
 10
-173.0009263741034
 20
-303.8701243664183
 30
0
 11
-169.8009263741034
 21
-303.4541243664183
 31
0
 12
-169.8009263741034
 22
-304.2861243664183
 32
0
 13
-169.8009263741034
 23
-304.2861243664183
 33
0
  0
SOLID
  8
1
 62
2
 10
-163.0009263741034
 20
-303.8701243664183
 30
0
 11
-166.2009263741034
 21
-304.2861243664183
 31
0
 12
-166.2009263741034
 22
-303.4541243664183
 32
0
 13
-166.2009263741034
 23
-303.4541243664183
 33
0
  0
TEXT
  8
1
 62
2
 10
-170.2989283657406
 20
-301.8701243664184
 30
0
 40
3.2
  1
10
 41
0.9
  0
TEXT
  8
1
 62
2
 10
-172.3789283657406
 20
-301.8701243664184
 30
0
 40
3.2
  1
(
 41
0.9
  0
TEXT
  8
1
 62
2
 10
-164.8589283657406
 20
-301.8701243664184
 30
0
 40
3.2
  1
)
 41
0.9
  0
ENDBLK
  8
0
  0
BLOCK
  8
1
  2
*D5
 70
1
 10
0
 20
0
 30
0
  0
LINE
  8
1
 62
2
 10
-98.82068112935264
 20
-206.4660705383466
 30
0
 11
-98.82068112935264
 21
-200.1160705383466
 31
0
  0
LINE
  8
1
 62
2
 10
-98.82068112935264
 20
-206.4660705383466
 30
0
 11
-98.82068112935264
 21
-212.8660705383466
 31
0
  0
LINE
  8
1
 62
2
 10
-98.82068112935264
 20
-200.1160705383466
 30
0
 11
-98.82068112935264
 21
-193.7160705383466
 31
0
  0
LINE
  8
1
 62
2
 10
-79.32068112935266
 20
-206.4660705383466
 30
0
 11
-100.3206811293526
 21
-206.4660705383466
 31
0
  0
LINE
  8
1
 62
2
 10
-64.82068112935266
 20
-200.1160705383466
 30
0
 11
-100.3206811293526
 21
-200.1160705383466
 31
0
  0
SOLID
  8
1
 62
2
 10
-98.82068112935264
 20
-200.1160705383466
 30
0
 11
-99.23668112935263
 21
-196.9160705383466
 31
0
 12
-98.40468112935264
 22
-196.9160705383466
 32
0
 13
-98.40468112935264
 23
-196.9160705383466
 33
0
  0
SOLID
  8
1
 62
2
 10
-98.82068112935264
 20
-206.4660705383466
 30
0
 11
-98.40468112935264
 21
-209.6660705383466
 31
0
 12
-99.23668112935263
 22
-209.6660705383466
 32
0
 13
-99.23668112935263
 23
-209.6660705383466
 33
0
  0
TEXT
  8
1
 62
2
 10
-101.674014462686
 20
-209.8115411265819
 30
0
 40
3.2
  1
6.35
 50
90
 41
0.9
  0
TEXT
  8
1
 62
2
 10
-103.754014462686
 20
-199.4915411265819
 30
0
 40
1.92
  1
 0
 50
90
 41
0.9
  0
TEXT
  8
1
 62
2
 10
-100.874014462686
 20
-199.4915411265819
 30
0
 40
1.92
  1
-0.02
 50
90
 41
0.9
  0
TEXT
  8
1
 62
2
 10
-101.674014462686
 20
-213.8585999501113
 30
0
 40
3.2
  1
φ
 50
90
 41
0.9
  0
ENDBLK
  8
0
  0
BLOCK
  8
1
  2
*D6
 70
1
 10
0
 20
0
 30
0
  0
LINE
  8
1
 62
2
 10
-228.7302913698869
 20
-157.2910705383458
 30
0
 11
-181.5902913698866
 21
-157.2910705383458
 31
0
  0
LINE
  8
1
 62
2
 10
-181.5902913698866
 20
-173.2210705383465
 30
0
 11
-181.5902913698866
 21
-155.7910705383458
 31
0
  0
LINE
  8
1
 62
2
 10
-228.7302913698869
 20
-173.2210705383465
 30
0
 11
-228.7302913698869
 21
-155.7910705383458
 31
0
  0
SOLID
  8
1
 62
2
 10
-228.7302913698869
 20
-157.2910705383458
 30
0
 11
-225.5302913698869
 21
-156.8750705383458
 31
0
 12
-225.5302913698869
 22
-157.7070705383458
 32
0
 13
-225.5302913698869
 23
-157.7070705383458
 33
0
  0
SOLID
  8
1
 62
2
 10
-181.5902913698866
 20
-157.2910705383458
 30
0
 11
-184.7902913698866
 21
-157.7070705383458
 31
0
 12
-184.7902913698866
 22
-156.8750705383458
 32
0
 13
-184.7902913698866
 23
-156.8750705383458
 33
0
  0
TEXT
  8
1
 62
2
 10
-213.7042913698867
 20
-155.2910705383458
 30
0
 40
3.2
  1
47.14
 41
0.9
  0
TEXT
  8
1
 62
2
 10
-201.4642913698867
 20
-154.6510705383458
 30
0
 40
1.92
  1
%%p0.2
 41
0.9
  0
ENDBLK
  8
0
  0
BLOCK
  8
1
  2
*D7
 70
1
 10
0
 20
0
 30
0
  0
LINE
  8
1
 62
2
 10
-233.1602913698868
 20
-149.2910705383458
 30
0
 11
-177.1602913698866
 21
-149.2910705383458
 31
0
  0
LINE
  8
1
 62
2
 10
-177.1602913698866
 20
-178.2910705383465
 30
0
 11
-177.1602913698866
 21
-147.7910705383458
 31
0
  0
LINE
  8
1
 62
2
 10
-233.1602913698868
 20
-178.2910705383465
 30
0
 11
-233.1602913698868
 21
-147.7910705383458
 31
0
  0
SOLID
  8
1
 62
2
 10
-177.1602913698866
 20
-149.2910705383458
 30
0
 11
-180.3602913698866
 21
-149.7070705383458
 31
0
 12
-180.3602913698866
 22
-148.8750705383458
 32
0
 13
-180.3602913698866
 23
-148.8750705383458
 33
0
  0
SOLID
  8
1
 62
2
 10
-233.1602913698868
 20
-149.2910705383458
 30
0
 11
-229.9602913698868
 21
-148.8750705383458
 31
0
 12
-229.9602913698868
 22
-149.7070705383458
 32
0
 13
-229.9602913698868
 23
-149.7070705383458
 33
0
  0
TEXT
  8
1
 62
2
 10
-207.5602913698867
 20
-147.2910705383458
 30
0
 40
3.2
  1
56
 41
0.9
  0
TEXT
  8
1
 62
2
 10
-209.6402913698867
 20
-147.2910705383458
 30
0
 40
3.2
  1
(
 41
0.9
  0
TEXT
  8
1
 62
2
 10
-201.1602913698867
 20
-147.2910705383458
 30
0
 40
3.2
  1
)
 41
0.9
  0
ENDBLK
  8
0
  0
BLOCK
  8
1
  2
*D8
 70
1
 10
0
 20
0
 30
0
  0
LINE
  8
1
 62
2
 10
-51.82068112935285
 20
-149.2910705383463
 30
0
 11
-58.22068112935286
 21
-149.2910705383463
 31
0
  0
LINE
  8
1
 62
2
 10
-59.82068112935266
 20
-149.2910705383463
 30
0
 11
-58.22068112935286
 21
-149.2910705383463
 31
0
  0
LINE
  8
1
 62
2
 10
-59.82068112935266
 20
-149.2910705383463
 30
0
 11
-70.33110084152038
 21
-149.2910705383463
 31
0
  0
LINE
  8
1
 62
2
 10
-59.82068112935266
 20
-183.3410705383466
 30
0
 11
-59.82068112935266
 21
-147.7910705383463
 31
0
  0
LINE
  8
1
 62
2
 10
-58.22068112935286
 20
-174.2910705383466
 30
0
 11
-58.22068112935286
 21
-147.7910705383463
 31
0
  0
SOLID
  8
1
 62
2
 10
-59.82068112935266
 20
-149.2910705383463
 30
0
 11
-63.02068112935267
 21
-149.7070705383463
 31
0
 12
-63.02068112935267
 22
-148.8750705383463
 32
0
 13
-63.02068112935267
 23
-148.8750705383463
 33
0
  0
SOLID
  8
1
 62
2
 10
-58.22068112935286
 20
-149.2910705383463
 30
0
 11
-55.02068112935285
 21
-148.8750705383463
 31
0
 12
-55.02068112935285
 22
-149.7070705383463
 32
0
 13
-55.02068112935285
 23
-149.7070705383463
 33
0
  0
TEXT
  8
1
 62
2
 10
-70.33110084152038
 20
-147.2910705383463
 30
0
 40
3.2
  1
1.6
 41
0.9
  0
ENDBLK
  8
0
  0
BLOCK
  8
1
  2
*D9
 70
1
 10
0
 20
0
 30
0
  0
LINE
  8
1
 62
2
 10
-58.22068112935286
 20
-141.2910705383466
 30
0
 11
-16.22068112935255
 21
-141.2910705383466
 31
0
  0
LINE
  8
1
 62
2
 10
-58.22068112935286
 20
-174.2910705383466
 30
0
 11
-58.22068112935286
 21
-139.7910705383466
 31
0
  0
LINE
  8
1
 62
2
 10
-16.22068112935255
 20
-174.7910705383466
 30
0
 11
-16.22068112935255
 21
-139.7910705383466
 31
0
  0
SOLID
  8
1
 62
2
 10
-58.22068112935286
 20
-141.2910705383466
 30
0
 11
-55.02068112935286
 21
-140.8750705383466
 31
0
 12
-55.02068112935286
 22
-141.7070705383466
 32
0
 13
-55.02068112935286
 23
-141.7070705383466
 33
0
  0
SOLID
  8
1
 62
2
 10
-16.22068112935255
 20
-141.2910705383466
 30
0
 11
-19.42068112935255
 21
-141.7070705383466
 31
0
 12
-19.42068112935255
 22
-140.8750705383466
 32
0
 13
-19.42068112935255
 23
-140.8750705383466
 33
0
  0
TEXT
  8
1
 62
2
 10
-40.30617894341765
 20
-139.2910705383466
 30
0
 40
3.2
  1
42
 41
0.9
  0
TEXT
  8
1
 62
2
 10
-42.38617894341765
 20
-139.2910705383466
 30
0
 40
3.2
  1
(
 41
0.9
  0
TEXT
  8
1
 62
2
 10
-33.90617894341765
 20
-139.2910705383466
 30
0
 40
3.2
  1
)
 41
0.9
  0
ENDBLK
  8
0
  0
BLOCK
  8
1
  2
*D10
 70
1
 10
0
 20
0
 30
0
  0
LINE
  8
1
 62
2
 10
-154.1602913698867
 20
-231.2910705383468
 30
0
 11
-154.1602913698867
 21
-175.2910705383462
 31
0
  0
LINE
  8
1
 62
2
 10
-180.1602913698864
 20
-231.2910705383468
 30
0
 11
-152.6602913698867
 21
-231.2910705383468
 31
0
  0
LINE
  8
1
 62
2
 10
-180.1602913698865
 20
-175.2910705383462
 30
0
 11
-152.6602913698867
 21
-175.2910705383462
 31
0
  0
SOLID
  8
1
 62
2
 10
-154.1602913698867
 20
-175.2910705383462
 30
0
 11
-153.7442913698867
 21
-178.4910705383462
 31
0
 12
-154.5762913698867
 22
-178.4910705383462
 32
0
 13
-154.5762913698867
 23
-178.4910705383462
 33
0
  0
SOLID
  8
1
 62
2
 10
-154.1602913698867
 20
-231.2910705383468
 30
0
 11
-154.5762913698867
 21
-228.0910705383468
 31
0
 12
-153.7442913698867
 22
-228.0910705383468
 32
0
 13
-153.7442913698867
 23
-228.0910705383468
 33
0
  0
TEXT
  8
1
 62
2
 10
-156.1602913698867
 20
-205.6910705383466
 30
0
 40
3.2
  1
56
 50
90
 41
0.9
  0
TEXT
  8
1
 62
2
 10
-156.1602913698867
 20
-207.7710705383466
 30
0
 40
3.2
  1
(
 50
90
 41
0.9
  0
TEXT
  8
1
 62
2
 10
-156.1602913698867
 20
-199.2910705383466
 30
0
 40
3.2
  1
)
 50
90
 41
0.9
  0
ENDBLK
  8
0
  0
BLOCK
  8
1
  2
*D11
 70
1
 10
0
 20
0
 30
0
  0
LINE
  8
1
 62
2
 10
-162.1602913698867
 20
-226.8610705383472
 30
0
 11
-162.1602913698867
 21
-179.7210705383464
 31
0
  0
LINE
  8
1
 62
2
 10
-175.0902913698866
 20
-226.8610705383472
 30
0
 11
-160.6602913698867
 21
-226.8610705383472
 31
0
  0
LINE
  8
1
 62
2
 10
-175.0902913698866
 20
-179.7210705383464
 30
0
 11
-160.6602913698867
 21
-179.7210705383464
 31
0
  0
SOLID
  8
1
 62
2
 10
-162.1602913698867
 20
-179.7210705383464
 30
0
 11
-161.7442913698867
 21
-182.9210705383464
 31
0
 12
-162.5762913698867
 22
-182.9210705383464
 32
0
 13
-162.5762913698867
 23
-182.9210705383464
 33
0
  0
SOLID
  8
1
 62
2
 10
-162.1602913698867
 20
-226.8610705383472
 30
0
 11
-162.5762913698867
 21
-223.6610705383472
 31
0
 12
-161.7442913698867
 22
-223.6610705383472
 32
0
 13
-161.7442913698867
 23
-223.6610705383472
 33
0
  0
TEXT
  8
1
 62
2
 10
-164.1602913698867
 20
-211.8350705383466
 30
0
 40
3.2
  1
47.14
 50
90
 41
0.9
  0
TEXT
  8
1
 62
2
 10
-164.8002913698867
 20
-199.5950705383466
 30
0
 40
1.92
  1
%%p0.2
 50
90
 41
0.9
  0
ENDBLK
  8
0
  0
BLOCK
  8
1
  2
*D12
 70
1
 10
0
 20
0
 30
0
  0
LINE
  8
1
 62
2
 10
-58.22068112935286
 20
-247.2910705383469
 30
0
 11
-53.22068112935274
 21
-247.2910705383469
 31
0
  0
LINE
  8
1
 62
2
 10
-58.22068112935286
 20
-247.2910705383469
 30
0
 11
-64.62068112935285
 21
-247.2910705383469
 31
0
  0
LINE
  8
1
 62
2
 10
-53.22068112935274
 20
-247.2910705383469
 30
0
 11
-46.82068112935274
 21
-247.2910705383469
 31
0
  0
LINE
  8
1
 62
2
 10
-58.22068112935286
 20
-232.2910705383469
 30
0
 11
-58.22068112935286
 21
-248.7910705383469
 31
0
  0
LINE
  8
1
 62
2
 10
-53.22068112935274
 20
-232.2910705383469
 30
0
 11
-53.22068112935274
 21
-248.7910705383469
 31
0
  0
SOLID
  8
1
 62
2
 10
-58.22068112935286
 20
-247.2910705383469
 30
0
 11
-61.42068112935286
 21
-247.7070705383469
 31
0
 12
-61.42068112935286
 22
-246.8750705383469
 32
0
 13
-61.42068112935286
 23
-246.8750705383469
 33
0
  0
SOLID
  8
1
 62
2
 10
-53.22068112935274
 20
-247.2910705383469
 30
0
 11
-50.02068112935274
 21
-246.8750705383469
 31
0
 12
-50.02068112935274
 22
-247.7070705383469
 32
0
 13
-50.02068112935274
 23
-247.7070705383469
 33
0
  0
TEXT
  8
1
 62
2
 10
-56.5171006149862
 20
-245.2910705383469
 30
0
 40
3.2
  1
5
 41
0.9
  0
ENDBLK
  8
0
  0
BLOCK
  8
1
  2
*D13
 70
1
 10
0
 20
0
 30
0
  0
LINE
  8
1
 62
2
 10
-238.1602913698869
 20
-238.2910705383466
 30
0
 11
-238.1602913698869
 21
-231.2910705383466
 31
0
  0
LINE
  8
1
 62
2
 10
-238.1602913698869
 20
-238.2910705383466
 30
0
 11
-238.1602913698869
 21
-244.6910705383466
 31
0
  0
LINE
  8
1
 62
2
 10
-238.1602913698869
 20
-231.2910705383466
 30
0
 11
-238.1602913698869
 21
-224.8910705383466
 31
0
  0
LINE
  8
1
 62
2
 10
-218.1602913698872
 20
-238.2910705383466
 30
0
 11
-239.6602913698869
 21
-238.2910705383466
 31
0
  0
LINE
  8
1
 62
2
 10
-230.1602913698867
 20
-231.2910705383466
 30
0
 11
-239.6602913698869
 21
-231.2910705383466
 31
0
  0
SOLID
  8
1
 62
2
 10
-238.1602913698869
 20
-238.2910705383466
 30
0
 11
-237.7442913698869
 21
-241.4910705383466
 31
0
 12
-238.5762913698869
 22
-241.4910705383466
 32
0
 13
-238.5762913698869
 23
-241.4910705383466
 33
0
  0
SOLID
  8
1
 62
2
 10
-238.1602913698869
 20
-231.2910705383466
 30
0
 11
-238.5762913698869
 21
-228.0910705383466
 31
0
 12
-237.7442913698869
 22
-228.0910705383466
 32
0
 13
-237.7442913698869
 23
-228.0910705383466
 33
0
  0
TEXT
  8
1
 62
2
 10
-240.1602913698869
 20
-236.1488633025385
 30
0
 40
3.2
  1
7
 50
90
 41
0.9
  0
TEXT
  8
1
 62
2
 10
-240.1602913698869
 20
-241.9935691848915
 30
0
 40
3.2
  1
※(
 50
90
 41
0.9
  0
TEXT
  8
1
 62
2
 10
-240.1602913698869
 20
-232.6288633025386
 30
0
 40
3.2
  1
)
 50
90
 41
0.9
  0
ENDBLK
  8
0
  0
BLOCK
  8
1
  2
*D14
 70
1
 10
0
 20
0
 30
0
  0
LINE
  8
1
 62
2
 10
-16.22068112935255
 20
-141.2910705383466
 30
0
 11
-0.220681129352549
 21
-141.2910705383466
 31
0
  0
LINE
  8
1
 62
2
 10
-0.220681129352549
 20
-199.6160705383465
 30
0
 11
-0.220681129352549
 21
-139.7910705383466
 31
0
  0
LINE
  8
1
 62
2
 10
-16.22068112935255
 20
-174.7910705383465
 30
0
 11
-16.22068112935255
 21
-139.7910705383466
 31
0
  0
SOLID
  8
1
 62
2
 10
-16.22068112935255
 20
-141.2910705383466
 30
0
 11
-13.02068112935255
 21
-140.8750705383466
 31
0
 12
-13.02068112935255
 22
-141.7070705383466
 32
0
 13
-13.02068112935255
 23
-141.7070705383466
 33
0
  0
SOLID
  8
1
 62
2
 10
-0.220681129352549
 20
-141.2910705383466
 30
0
 11
-3.42068112935255
 21
-141.7070705383466
 31
0
 12
-3.42068112935255
 22
-140.8750705383466
 32
0
 13
-3.42068112935255
 23
-140.8750705383466
 33
0
  0
TEXT
  8
1
 62
2
 10
-9.76056348197514
 20
-139.2910705383466
 30
0
 40
3.2
  1
16
 41
0.9
  0
TEXT
  8
1
 62
2
 10
-12.08056348197514
 20
-139.2910705383466
 30
0
 40
3.2
  1
(
 41
1.35
  0
TEXT
  8
1
 62
2
 10
-4.320563481975141
 20
-139.2910705383466
 30
0
 40
3.2
  1
)
 41
0.9
  0
ENDBLK
  8
0
  0
BLOCK
  8
1
  2
*D15
 70
1
 10
0
 20
0
 30
0
  0
LINE
  8
1
 62
2
 10
-15.22068112935255
 20
-157.291070538346
 30
0
 11
-0.220681129352549
 21
-157.291070538346
 31
0
  0
LINE
  8
1
 62
2
 10
-0.220681129352549
 20
-199.6160705383465
 30
0
 11
-0.220681129352549
 21
-155.791070538346
 31
0
  0
LINE
  8
1
 62
2
 10
-15.22068112935255
 20
-199.1160705383466
 30
0
 11
-15.22068112935255
 21
-155.791070538346
 31
0
  0
SOLID
  8
1
 62
2
 10
-15.22068112935255
 20
-157.291070538346
 30
0
 11
-12.02068112935255
 21
-156.875070538346
 31
0
 12
-12.02068112935255
 22
-157.707070538346
 32
0
 13
-12.02068112935255
 23
-157.707070538346
 33
0
  0
SOLID
  8
1
 62
2
 10
-0.220681129352549
 20
-157.291070538346
 30
0
 11
-3.42068112935255
 21
-157.707070538346
 31
0
 12
-3.42068112935255
 22
-156.875070538346
 32
0
 13
-3.42068112935255
 23
-156.875070538346
 33
0
  0
TEXT
  8
1
 62
2
 10
-13.53579603368579
 20
-155.291070538346
 30
0
 40
3.2
  1
15
 41
0.9
  0
TEXT
  8
1
 62
2
 10
-8.09579603368579
 20
-154.811070538346
 30
0
 40
2.24
  1
%%p0.2
 41
0.9900000000000001
  0
ENDBLK
  8
0
  0
BLOCK
  8
1
  2
*D16
 70
1
 10
0
 20
0
 30
0
  0
LINE
  8
1
 62
2
 10
29.77931887064745
 20
-200.1160705383466
 30
0
 11
29.77931887064745
 21
-173.4683693527109
 31
0
  0
LINE
  8
1
 62
2
 10
29.77931887064745
 20
-206.4660705383465
 30
0
 11
29.77931887064745
 21
-200.1160705383466
 31
0
  0
LINE
  8
1
 62
2
 10
29.77931887064745
 20
-212.8660705383465
 30
0
 11
29.77931887064745
 21
-206.4660705383465
 31
0
  0
LINE
  8
1
 62
2
 10
-14.22068112935255
 20
-200.1160705383466
 30
0
 11
31.27931887064745
 21
-200.1160705383466
 31
0
  0
LINE
  8
1
 62
2
 10
0.4793188706474503
 20
-206.4660705383465
 30
0
 11
31.27931887064745
 21
-206.4660705383465
 31
0
  0
SOLID
  8
1
 62
2
 10
29.77931887064745
 20
-200.1160705383466
 30
0
 11
29.36331887064745
 21
-196.9160705383466
 31
0
 12
30.19531887064745
 22
-196.9160705383466
 32
0
 13
30.19531887064745
 23
-196.9160705383466
 33
0
  0
SOLID
  8
1
 62
2
 10
29.77931887064745
 20
-206.4660705383465
 30
0
 11
30.19531887064745
 21
-209.6660705383465
 31
0
 12
29.36331887064745
 22
-209.6660705383465
 32
0
 13
29.36331887064745
 23
-209.6660705383465
 33
0
  0
TEXT
  8
1
 62
2
 10
26.57931887064745
 20
-192.4739693527109
 30
0
 40
3.2
  1
6.35
 50
90
 41
0.9
  0
TEXT
  8
1
 62
2
 10
24.41931887064745
 20
-182.1539693527109
 30
0
 40
2.24
  1
 0
 50
90
 41
0.9900000000000001
  0
TEXT
  8
1
 62
2
 10
27.77931887064745
 20
-182.1539693527109
 30
0
 40
2.24
  1
-0.02
 50
90
 41
0.9900000000000001
  0
TEXT
  8
1
 62
2
 10
26.57931887064745
 20
-197.7445575880051
 30
0
 40
3.2
  1
φ
 50
90
 41
1.35
  0
ENDBLK
  8
0
  0
BLOCK
  8
1
  2
*D17
 70
1
 10
0
 20
0
 30
0
  0
LINE
  8
1
 62
2
 10
19.77931887064745
 20
-200.6160705383465
 30
0
 11
19.77931887064745
 21
-176.877347322394
 31
0
  0
LINE
  8
1
 62
2
 10
19.77931887064745
 20
-206.4660705383465
 30
0
 11
19.77931887064745
 21
-200.6160705383465
 31
0
  0
LINE
  8
1
 62
2
 10
19.77931887064745
 20
-212.8660705383465
 30
0
 11
19.77931887064745
 21
-206.4660705383465
 31
0
  0
LINE
  8
1
 62
2
 10
0.779318870647451
 20
-200.6160705383465
 30
0
 11
21.27931887064745
 21
-200.6160705383465
 31
0
  0
LINE
  8
1
 62
2
 10
0.4793188706474503
 20
-206.4660705383465
 30
0
 11
21.27931887064745
 21
-206.4660705383465
 31
0
  0
SOLID
  8
1
 62
2
 10
19.77931887064745
 20
-200.6160705383465
 30
0
 11
19.36331887064745
 21
-197.4160705383465
 31
0
 12
20.19531887064745
 22
-197.4160705383465
 32
0
 13
20.19531887064745
 23
-197.4160705383465
 33
0
  0
SOLID
  8
1
 62
2
 10
19.77931887064745
 20
-206.4660705383465
 30
0
 11
20.19531887064745
 21
-209.6660705383465
 31
0
 12
19.36331887064745
 22
-209.6660705383465
 32
0
 13
19.36331887064745
 23
-209.6660705383465
 33
0
  0
TEXT
  8
1
 62
2
 10
16.57931887064745
 20
-192.926147322394
 30
0
 40
3.2
  1
5.85
 50
90
 41
0.9
  0
TEXT
  8
1
 62
2
 10
14.41931887064745
 20
-182.606147322394
 30
0
 40
2.24
  1
 0
 50
90
 41
0.9900000000000001
  0
TEXT
  8
1
 62
2
 10
17.77931887064745
 20
-182.606147322394
 30
0
 40
2.24
  1
-0.1
 50
90
 41
0.9900000000000001
  0
ENDBLK
  8
0
  0
BLOCK
  8
1
  2
*D18
 70
1
 10
0
 20
0
 30
0
  0
LINE
  8
1
 62
2
 10
-78.82068112935266
 20
-141.2910705383462
 30
0
 11
-58.22068112935286
 21
-141.2910705383462
 31
0
  0
LINE
  8
1
 62
2
 10
-78.82068112935266
 20
-199.6160705383467
 30
0
 11
-78.82068112935266
 21
-139.7910705383462
 31
0
  0
LINE
  8
1
 62
2
 10
-58.22068112935286
 20
-174.2910705383466
 30
0
 11
-58.22068112935286
 21
-139.7910705383462
 31
0
  0
SOLID
  8
1
 62
2
 10
-58.22068112935286
 20
-141.2910705383462
 30
0
 11
-61.42068112935287
 21
-141.7070705383462
 31
0
 12
-61.42068112935287
 22
-140.8750705383462
 32
0
 13
-61.42068112935287
 23
-140.8750705383462
 33
0
  0
SOLID
  8
1
 62
2
 10
-78.82068112935266
 20
-141.2910705383462
 30
0
 11
-75.62068112935266
 21
-140.8750705383462
 31
0
 12
-75.62068112935266
 22
-141.7070705383462
 32
0
 13
-75.62068112935266
 23
-141.7070705383462
 33
0
  0
TEXT
  8
1
 62
2
 10
-76.80181702570971
 20
-139.2910705383462
 30
0
 40
3.2
  1
20.6
 41
0.9
  0
TEXT
  8
1
 62
2
 10
-66.4818170257097
 20
-138.8110705383462
 30
0
 40
2.24
  1
%%p0.5
 41
0.9900000000000001
  0
ENDBLK
  8
0
  0
BLOCK
  8
1
  2
*D19
 70
1
 10
0
 20
0
 30
0
  0
LINE
  8
1
 62
2
 10
-172.603624470513
 20
-169.5850993056545
 30
0
 11
-138.139624470513
 21
-169.5850993056545
 31
0
  0
LINE
  8
1
 62
2
 10
-180.097615944875
 20
-178.0374969356886
 30
0
 11
-172.603624470513
 21
-169.5850993056545
 31
0
  0
SOLID
  8
1
 62
2
 10
-180.097615944875
 20
-178.0374969356886
 30
0
 11
-178.2859738376165
 21
-175.3671020444398
 31
0
 12
-177.6634257321003
 22
-175.9190602460441
 32
0
 13
-177.6634257321003
 23
-175.9190602460441
 33
0
  0
TEXT
  8
1
 62
2
 10
-159.659624470513
 20
-167.5850993056545
 30
0
 40
3.2
  1
4.5
 41
0.9
  0
TEXT
  8
1
 62
2
 10
-167.403624470513
 20
-167.5850993056545
 30
0
 40
3.2
  1
4-%%c
 41
0.7200000000000001
  0
TEXT
  8
1
 62
2
 10
-152.219624470513
 20
-167.5850993056545
 30
0
 40
3.2
  1
 HOLE
 41
0.9
  0
ENDBLK
  8
0
  0
ENDSEC
  0
SECTION
  2
ENTITIES
  0
LINE
  8
1
 62
3
 10
-236.1214967730295
 20
-307.3703108751134
 30
0
 11
-241.1214967730295
 21
-307.3703108751134
 31
0
  0
LINE
  8
1
 62
3
 10
-223.4326625550531
 20
-310.9703108751135
 30
0
 11
-236.1214967730295
 21
-307.3703108751134
 31
0
  0
LINE
  8
1
 62
3
 10
-223.4326625550531
 20
-312.5703108751134
 30
0
 11
-236.1214967730295
 21
-308.9703108751133
 31
0
  0
LINE
  8
1
 62
3
 10
-236.1214967730295
 20
-308.9703108751133
 30
0
 11
-241.1214967730295
 21
-308.9703108751133
 31
0
  0
LINE
  8
1
 62
3
 10
-236.1214967730295
 20
-311.3703108751134
 30
0
 11
-241.1214967730295
 21
-311.3703108751134
 31
0
  0
LINE
  8
1
 62
3
 10
-223.4326625550531
 20
-312.5703108751134
 30
0
 11
-236.1214967730295
 21
-311.3703108751134
 31
0
  0
LINE
  8
1
 62
3
 10
-223.4326625550531
 20
-314.1703108751134
 30
0
 11
-236.1214967730295
 21
-312.9703108751133
 31
0
  0
LINE
  8
1
 62
3
 10
-236.1214967730295
 20
-312.9703108751133
 30
0
 11
-241.1214967730295
 21
-312.9703108751133
 31
0
  0
LINE
  8
1
 62
2
 10
-313.1343782398935
 20
-337.2371022903778
 30
0
 11
-254.5606404240295
 21
-337.2371022903778
 31
0
  0
LINE
  8
1
 62
3
 10
-216.9274347294743
 20
-317.3703108751133
 30
0
 11
-173.0009263741032
 21
-317.3703108751133
 31
0
  0
LINE
  8
1
 62
3
 10
-216.9274347294743
 20
-315.7703108751133
 30
0
 11
-173.0009263741032
 21
-315.7703108751134
 31
0
  0
LINE
  8
1
 62
3
 10
-216.9274347294743
 20
-314.1703108751133
 30
0
 11
-173.0009263741032
 21
-314.1703108751134
 31
0
  0
LINE
  8
1
 62
3
 10
-216.9274347294743
 20
-312.5703108751134
 30
0
 11
-173.0009263741032
 21
-312.5703108751134
 31
0
  0
LINE
  8
1
 62
3
 10
-216.9274347294743
 20
-310.9703108751135
 30
0
 11
-173.0009263741032
 21
-310.9703108751135
 31
0
  0
LINE
  8
1
 62
2
 10
-218.4326625550531
 20
-326.6703108751134
 30
0
 11
-218.4326625550531
 21
-301.6703108751134
 31
0
  0
LINE
  8
1
 62
2
 10
-216.9274347294743
 20
-326.6703108751134
 30
0
 11
-216.9274347294743
 21
-301.6703108751134
 31
0
  0
LINE
  8
1
 62
3
 10
-241.1214967730295
 20
-320.9703108751133
 30
0
 11
-236.1214967730295
 21
-320.9703108751133
 31
0
  0
LINE
  8
1
 62
3
 10
-241.1214967730295
 20
-319.3703108751134
 30
0
 11
-236.1214967730295
 21
-319.3703108751134
 31
0
  0
LINE
  8
1
 62
3
 10
-241.1214967730295
 20
-316.9703108751133
 30
0
 11
-236.1214967730295
 21
-316.9703108751133
 31
0
  0
LINE
  8
1
 62
3
 10
-241.1214967730295
 20
-315.3703108751134
 30
0
 11
-236.1214967730295
 21
-315.3703108751134
 31
0
  0
LINE
  8
1
 62
3
 10
-236.1214967730295
 20
-320.9703108751133
 30
0
 11
-223.4326625550531
 21
-317.3703108751136
 31
0
  0
LINE
  8
1
 62
3
 10
-236.1214967730295
 20
-319.3703108751134
 30
0
 11
-223.4326625550531
 21
-315.7703108751134
 31
0
  0
LINE
  8
1
 62
3
 10
-236.1214967730295
 20
-316.9703108751133
 30
0
 11
-223.4326625550531
 21
-315.7703108751134
 31
0
  0
LINE
  8
1
 62
3
 10
-236.1214967730295
 20
-315.3703108751134
 30
0
 11
-223.4326625550531
 21
-314.1703108751134
 31
0
  0
LINE
  8
1
 62
3
 10
-223.4326625550531
 20
-317.3703108751136
 30
0
 11
-218.4326625550531
 21
-317.3703108751136
 31
0
  0
LINE
  8
1
 62
3
 10
-223.4326625550531
 20
-315.7703108751134
 30
0
 11
-218.4326625550531
 21
-315.7703108751134
 31
0
  0
LINE
  8
1
 62
3
 10
-223.4326625550531
 20
-314.1703108751134
 30
0
 11
-218.4326625550531
 21
-314.1703108751134
 31
0
  0
LINE
  8
1
 62
3
 10
-223.4326625550531
 20
-312.5703108751134
 30
0
 11
-218.4326625550531
 21
-312.5703108751134
 31
0
  0
LINE
  8
1
 62
3
 10
-223.4326625550531
 20
-310.9703108751135
 30
0
 11
-218.4326625550531
 21
-310.9703108751135
 31
0
  0
LINE
  8
1
 62
3
 10
-173.0009263741032
 20
-317.3703108751133
 30
0
 11
-173.0009263741032
 21
-310.9703108751135
 31
0
  0
LINE
  8
1
 62
2
 10
-173.0009263741032
 20
-316.8703108751133
 30
0
 11
-163.0009263741032
 21
-316.8703108751133
 31
0
  0
LINE
  8
1
 62
2
 10
-173.0009263741032
 20
-316.5703108751134
 30
0
 11
-163.0009263741032
 21
-316.5703108751134
 31
0
  0
LINE
  8
1
 62
2
 10
-173.0009263741032
 20
-316.2703108751133
 30
0
 11
-163.0009263741032
 21
-316.2703108751133
 31
0
  0
LINE
  8
1
 62
2
 10
-173.0009263741032
 20
-315.2703108751133
 30
0
 11
-163.0009263741032
 21
-315.2703108751134
 31
0
  0
LINE
  8
1
 62
2
 10
-173.0009263741032
 20
-314.9703108751135
 30
0
 11
-163.0009263741032
 21
-314.9703108751135
 31
0
  0
LINE
  8
1
 62
2
 10
-173.0009263741032
 20
-314.6703108751134
 30
0
 11
-163.0009263741032
 21
-314.6703108751134
 31
0
  0
LINE
  8
1
 62
2
 10
-173.0009263741032
 20
-313.6703108751133
 30
0
 11
-163.0009263741032
 21
-313.6703108751133
 31
0
  0
LINE
  8
1
 62
2
 10
-173.0009263741032
 20
-313.3703108751133
 30
0
 11
-163.0009263741032
 21
-313.3703108751136
 31
0
  0
LINE
  8
1
 62
2
 10
-173.0009263741032
 20
-313.0703108751134
 30
0
 11
-163.0009263741032
 21
-313.0703108751134
 31
0
  0
LINE
  8
1
 62
2
 10
-173.0009263741032
 20
-312.0703108751134
 30
0
 11
-163.0009263741032
 21
-312.0703108751134
 31
0
  0
LINE
  8
1
 62
2
 10
-173.0009263741032
 20
-311.7703108751134
 30
0
 11
-163.0009263741032
 21
-311.7703108751133
 31
0
  0
LINE
  8
1
 62
2
 10
-173.0009263741032
 20
-311.4703108751135
 30
0
 11
-163.0009263741032
 21
-311.4703108751135
 31
0
  0
LINE
  8
1
 62
2
 10
-240.1677397273865
 20
-337.8010310400038
 30
0
 11
-190.0192477076756
 21
-337.8010310400038
 31
0
  0
LINE
  8
1
 62
3
 10
-244.6214967730295
 20
-305.6703108751134
 30
0
 11
-244.6214967730295
 21
-304.6703108751134
 31
0
  0
LINE
  8
1
 62
3
 10
-244.6214967730295
 20
-323.6703108751134
 30
0
 11
-244.6214967730295
 21
-322.6703108751134
 31
0
  0
LINE
  8
1
 62
3
 10
-244.5214967730295
 20
-305.6703108751134
 30
0
 11
-244.5214967730295
 21
-304.6703108751134
 31
0
  0
LINE
  8
1
 62
3
 10
-244.2214967730295
 20
-304.6703108751134
 30
0
 11
-244.2214967730295
 21
-305.6703108751134
 31
0
  0
LINE
  8
1
 62
3
 10
-245.6214967730295
 20
-304.6703108751134
 30
0
 11
-244.2214967730295
 21
-304.6703108751134
 31
0
  0
LINE
  8
1
 62
3
 10
-245.6214967730295
 20
-305.6703108751134
 30
0
 11
-245.6214967730295
 21
-304.6703108751134
 31
0
  0
LINE
  8
1
 62
3
 10
-244.2214967730295
 20
-305.6703108751134
 30
0
 11
-245.6214967730295
 21
-305.6703108751134
 31
0
  0
LINE
  8
1
 62
3
 10
-244.5214967730295
 20
-323.6703108751134
 30
0
 11
-244.5214967730295
 21
-322.6703108751134
 31
0
  0
LINE
  8
1
 62
3
 10
-244.2214967730295
 20
-322.6703108751134
 30
0
 11
-244.2214967730295
 21
-323.6703108751134
 31
0
  0
LINE
  8
1
 62
3
 10
-244.2214967730295
 20
-323.6703108751134
 30
0
 11
-245.6214967730295
 21
-323.6703108751134
 31
0
  0
LINE
  8
1
 62
3
 10
-245.6214967730295
 20
-323.6703108751134
 30
0
 11
-245.6214967730295
 21
-322.6703108751134
 31
0
  0
LINE
  8
1
 62
3
 10
-245.6214967730295
 20
-322.6703108751134
 30
0
 11
-244.2214967730295
 21
-322.6703108751134
 31
0
  0
LINE
  8
1
 62
3
 10
-241.6214967730295
 20
-302.1703108751134
 30
0
 11
-241.1214967730295
 21
-302.1703108751134
 31
0
  0
LINE
  8
1
 62
3
 10
-241.9214967730295
 20
-302.7203108751135
 30
0
 11
-241.9214967730295
 21
-302.4703108751135
 31
0
  0
LINE
  8
1
 62
3
 10
-241.1214967730295
 20
-326.1703108751134
 30
0
 11
-241.6214967730295
 21
-326.1703108751134
 31
0
  0
LINE
  8
1
 62
3
 10
-241.9214967730295
 20
-325.8703108751134
 30
0
 11
-241.9214967730295
 21
-325.6203108751134
 31
0
  0
LINE
  8
1
 62
3
 10
-241.1214967730295
 20
-326.1703108751134
 30
0
 11
-241.1214967730295
 21
-302.1703108751134
 31
0
  0
LINE
  8
1
 62
3
 10
-241.9214967730295
 20
-325.6203108751134
 30
0
 11
-246.9214967730295
 21
-325.6203108751134
 31
0
  0
LINE
  8
1
 62
3
 10
-246.9214967730295
 20
-325.6203108751134
 30
0
 11
-246.9214967730295
 21
-302.7203108751135
 31
0
  0
LINE
  8
1
 62
3
 10
-246.9214967730295
 20
-302.7203108751135
 30
0
 11
-241.9214967730295
 21
-302.7203108751135
 31
0
  0
LINE
  8
1
 62
3
 10
-53.22068112935274
 20
-221.8610705383468
 30
0
 11
-53.22068112935278
 21
-231.2910705383468
 31
0
  0
LINE
  8
1
 62
3
 10
-16.22068112935274
 20
-221.8610705383468
 30
0
 11
-53.22068112935274
 21
-221.8610705383468
 31
0
  0
LINE
  8
1
 62
3
 10
-53.22068112935274
 20
-184.7210705383463
 30
0
 11
-16.22068112935256
 21
-184.7210705383463
 31
0
  0
LINE
  8
1
 62
3
 10
-53.22068112935274
 20
-175.2910705383466
 30
0
 11
-53.22068112935274
 21
-184.7210705383463
 31
0
  0
LINE
  8
1
 62
3
 10
-58.22068112935274
 20
-184.2410705383466
 30
0
 11
-58.22068112935286
 21
-222.3410705383465
 31
0
  0
LINE
  8
1
 62
3
 10
-16.72068112935255
 20
-175.2910705383467
 30
0
 11
-16.22068112935255
 21
-175.7910705383465
 31
0
  0
LINE
  8
1
 62
3
 10
-16.22068112935255
 20
-223.8380330690635
 30
0
 11
-16.22068112935255
 21
-220.7910705383466
 31
0
  0
LINE
  8
1
 62
3
 10
-16.22068112935255
 20
-198.1410705383466
 30
0
 11
-16.22068112935255
 21
-208.4410705383465
 31
0
  0
LINE
  8
1
 62
3
 10
-16.22068112935255
 20
-235.7910705383479
 30
0
 11
-16.22068112935255
 21
-223.8380330690635
 31
0
  0
LINE
  8
1
 62
3
 10
-16.22068112935255
 20
-208.4410705383465
 30
0
 11
-16.22068112935255
 21
-215.4689282827043
 31
0
  0
LINE
  8
1
 62
3
 10
-16.22068112935255
 20
-215.4689282827043
 30
0
 11
-16.22068112935255
 21
-217.7910705383465
 31
0
  0
LINE
  8
1
 62
3
 10
-16.22068112935255
 20
-188.7910705383464
 30
0
 11
-16.22068112935255
 21
-198.1410705383466
 31
0
  0
LINE
  8
1
 62
3
 10
-16.22068112935255
 20
-185.7910705383465
 30
0
 11
-16.22068112935255
 21
-175.7910705383465
 31
0
  0
LINE
  8
1
 62
3
 10
-16.22068112935255
 20
-188.7910705383464
 30
0
 11
-16.22068112935255
 21
-185.7910705383465
 31
0
  0
LINE
  8
1
 62
3
 10
-16.22068112935255
 20
-220.7910705383466
 30
0
 11
-16.22068112935255
 21
-217.7910705383465
 31
0
  0
LINE
  8
1
 62
3
 10
-16.72068112935255
 20
-175.2910705383467
 30
0
 11
-26.22068112935255
 21
-175.2910705383468
 31
0
  0
LINE
  8
1
 62
3
 10
-16.72068112935255
 20
-236.2910705383478
 30
0
 11
-26.22068112935255
 21
-236.2910705383478
 31
0
  0
LINE
  8
1
 62
3
 10
-16.22068112935255
 20
-235.7910705383479
 30
0
 11
-16.72068112935255
 21
-236.2910705383478
 31
0
  0
LINE
  8
1
 62
3
 10
-26.22068112935255
 20
-175.2910705383468
 30
0
 11
-26.22068112935255
 21
-236.2910705383478
 31
0
  0
LINE
  8
1
 62
3
 10
-59.82068112935282
 20
-203.2910705383465
 30
0
 11
-59.82068112935288
 21
-208.3410705383465
 31
0
  0
LINE
  8
1
 62
3
 10
-48.22068112935285
 20
-203.2910705383466
 30
0
 11
-48.22068112935285
 21
-231.2910705383469
 31
0
  0
LINE
  8
1
 62
3
 10
-59.82068112935288
 20
-222.2410705383466
 30
0
 11
-59.64734779601949
 21
-222.3410705383466
 31
0
  0
LINE
  8
1
 62
3
 10
-59.64734779601949
 20
-222.3410705383466
 30
0
 11
-58.22068112935286
 21
-222.3410705383465
 31
0
  0
LINE
  8
1
 62
3
 10
-58.22068112935286
 20
-222.3410705383465
 30
0
 11
-58.22068112935286
 21
-231.2910705383469
 31
0
  0
LINE
  8
1
 62
3
 10
-59.82068112935288
 20
-220.7910705383466
 30
0
 11
-59.82068112935288
 21
-222.2410705383466
 31
0
  0
LINE
  8
1
 62
3
 10
-59.82068112935288
 20
-217.7910705383465
 30
0
 11
-59.82068112935288
 21
-220.7910705383466
 31
0
  0
LINE
  8
1
 62
3
 10
-59.82068112935288
 20
-208.3410705383465
 30
0
 11
-59.82068112935288
 21
-217.7910705383465
 31
0
  0
LINE
  8
1
 62
3
 10
-48.22068112935285
 20
-175.2910705383465
 30
0
 11
-48.22068112935285
 21
-203.2910705383466
 31
0
  0
LINE
  8
1
 62
3
 10
-59.64734779601949
 20
-184.2410705383467
 30
0
 11
-59.82068112935266
 21
-184.3410705383466
 31
0
  0
LINE
  8
1
 62
3
 10
-58.22068112935274
 20
-184.2410705383466
 30
0
 11
-59.64734779601949
 21
-184.2410705383467
 31
0
  0
LINE
  8
1
 62
3
 10
-58.22068112935286
 20
-175.2910705383466
 30
0
 11
-58.22068112935274
 21
-184.2410705383466
 31
0
  0
LINE
  8
1
 62
3
 10
-59.82068112935288
 20
-198.2410705383466
 30
0
 11
-59.82068112935282
 21
-203.2910705383465
 31
0
  0
LINE
  8
1
 62
3
 10
-59.82068112935266
 20
-184.3410705383466
 30
0
 11
-59.82068112935288
 21
-185.7910705383466
 31
0
  0
LINE
  8
1
 62
3
 10
-59.82068112935288
 20
-185.7910705383466
 30
0
 11
-59.82068112935288
 21
-188.7910705383466
 31
0
  0
LINE
  8
1
 62
3
 10
-59.82068112935288
 20
-188.7910705383466
 30
0
 11
-59.82068112935288
 21
-198.2410705383466
 31
0
  0
LINE
  8
1
 62
3
 10
-78.82068112935259
 20
-205.9660705383467
 30
0
 11
-78.32068112935266
 21
-206.4660705383466
 31
0
  0
LINE
  8
1
 62
3
 10
-78.82068112935266
 20
-200.6160705383467
 30
0
 11
-78.82068112935259
 21
-205.9660705383467
 31
0
  0
LINE
  8
1
 62
3
 10
-63.82068112935267
 20
-200.1160705383466
 30
0
 11
-59.82068112935282
 21
-200.1160705383466
 31
0
  0
LINE
  8
1
 62
3
 10
-59.82068112935282
 20
-206.4660705383465
 30
0
 11
-78.32068112935266
 21
-206.4660705383466
 31
0
  0
LINE
  8
1
 62
3
 10
-233.1602913698867
 20
-214.691070538347
 30
0
 11
-233.1602913698867
 21
-213.691070538347
 31
0
  0
LINE
  8
1
 62
3
 10
-233.1602913698867
 20
-222.6910705383468
 30
0
 11
-233.1602913698867
 21
-214.691070538347
 31
0
  0
LINE
  8
1
 62
3
 10
-233.1602913698867
 20
-223.691070538347
 30
0
 11
-233.1602913698867
 21
-222.6910705383468
 31
0
  0
LINE
  8
1
 62
3
 10
-229.960291369887
 20
-214.6910705383474
 30
0
 11
-232.1602913698873
 21
-214.6910705383474
 31
0
  0
LINE
  8
1
 62
3
 10
-229.960291369887
 20
-222.6910705383474
 30
0
 11
-232.1602913698867
 21
-222.6910705383469
 31
0
  0
LINE
  8
1
 62
3
 10
-177.1602913698866
 20
-213.691070538347
 30
0
 11
-177.1602913698866
 21
-214.691070538347
 31
0
  0
LINE
  8
1
 62
3
 10
-177.1602913698866
 20
-214.691070538347
 30
0
 11
-177.1602913698866
 21
-222.6910705383468
 31
0
  0
LINE
  8
1
 62
3
 10
-177.1602913698866
 20
-222.6910705383468
 30
0
 11
-177.1602913698866
 21
-223.691070538347
 31
0
  0
LINE
  8
1
 62
3
 10
-178.1602913698859
 20
-214.6910705383474
 30
0
 11
-180.3602913698859
 21
-214.6910705383474
 31
0
  0
LINE
  8
1
 62
3
 10
-178.1602913698859
 20
-222.6910705383474
 30
0
 11
-180.3602913698859
 21
-222.6910705383474
 31
0
  0
LINE
  8
1
 62
3
 10
-233.1602913698867
 20
-192.8910705383466
 30
0
 11
-233.1602913698867
 21
-191.8910705383464
 31
0
  0
LINE
  8
1
 62
3
 10
-233.1602913698867
 20
-191.8910705383464
 30
0
 11
-233.1602913698867
 21
-183.8910705383465
 31
0
  0
LINE
  8
1
 62
3
 10
-233.1602913698867
 20
-183.8910705383465
 30
0
 11
-233.1602913698867
 21
-182.8910705383466
 31
0
  0
LINE
  8
1
 62
3
 10
-232.1602913698873
 20
-191.8910705383472
 30
0
 11
-229.960291369887
 21
-191.8910705383472
 31
0
  0
LINE
  8
1
 62
3
 10
-232.1602913698873
 20
-183.8910705383472
 30
0
 11
-229.960291369887
 21
-183.8910705383472
 31
0
  0
LINE
  8
1
 62
3
 10
-177.1602913698866
 20
-191.8910705383464
 30
0
 11
-177.1602913698859
 21
-192.8910705383472
 31
0
  0
LINE
  8
1
 62
3
 10
-177.1602913698866
 20
-183.8910705383464
 30
0
 11
-177.1602913698866
 21
-191.8910705383464
 31
0
  0
LINE
  8
1
 62
3
 10
-177.1602913698859
 20
-182.8910705383472
 30
0
 11
-177.1602913698866
 21
-183.8910705383464
 31
0
  0
LINE
  8
1
 62
3
 10
-177.1602913698859
 20
-192.8910705383472
 30
0
 11
-177.1602913698863
 21
-227.2910705383468
 31
0
  0
LINE
  8
1
 62
3
 10
-180.3602913698859
 20
-191.8910705383472
 30
0
 11
-178.1602913698859
 21
-191.8910705383472
 31
0
  0
LINE
  8
1
 62
3
 10
-180.3602913698859
 20
-183.8910705383472
 30
0
 11
-178.1602913698859
 21
-183.8910705383472
 31
0
  0
LINE
  8
1
 62
1
 10
-187.0902913698867
 20
-226.8610705383471
 30
0
 11
-176.0902913698867
 21
-226.861070538347
 31
0
  0
LINE
  8
1
 62
1
 10
-181.5902913698866
 20
-232.361070538347
 30
0
 11
-181.5902913698866
 21
-221.3610705383471
 31
0
  0
LINE
  8
1
 62
3
 10
-233.1602913698869
 20
-227.291070538347
 30
0
 11
-233.1602913698867
 21
-179.2910705383466
 31
0
  0
LINE
  8
1
 62
3
 10
-181.1602913698867
 20
-231.2910705383466
 30
0
 11
-229.1602913698867
 21
-231.2910705383466
 31
0
  0
LINE
  8
1
 62
3
 10
-177.1602913698867
 20
-179.2910705383466
 30
0
 11
-177.1602913698859
 21
-182.8910705383472
 31
0
  0
LINE
  8
1
 62
3
 10
-229.1602913698867
 20
-175.2910705383466
 30
0
 11
-181.1602913698867
 21
-175.2910705383466
 31
0
  0
LINE
  8
1
 62
3
 10
-26.22068112935255
 20
-231.2910705383469
 30
0
 11
-48.22068112935285
 21
-231.2910705383469
 31
0
  0
LINE
  8
1
 62
3
 10
-48.22068112935285
 20
-175.2910705383465
 30
0
 11
-26.22068112935255
 21
-175.2910705383468
 31
0
  0
LINE
  8
1
 62
1
 10
-181.5902913698866
 20
-185.2210705383464
 30
0
 11
-181.5902913698867
 21
-174.2210705383464
 31
0
  0
LINE
  8
1
 62
1
 10
-187.0902913698867
 20
-179.7210705383464
 30
0
 11
-176.0902913698867
 21
-179.7210705383464
 31
0
  0
LINE
  8
1
 62
1
 10
-234.2302913698869
 20
-226.8610705383471
 30
0
 11
-223.2302913698869
 21
-226.8610705383471
 31
0
  0
LINE
  8
1
 62
1
 10
-228.7302913698867
 20
-232.3610705383468
 30
0
 11
-228.7302913698869
 21
-221.3610705383471
 31
0
  0
LINE
  8
1
 62
1
 10
-228.7302913698867
 20
-185.2210705383464
 30
0
 11
-228.7302913698867
 21
-174.2210705383464
 31
0
  0
LINE
  8
1
 62
1
 10
-234.2302913698868
 20
-179.7210705383464
 30
0
 11
-223.2302913698869
 21
-179.7210705383464
 31
0
  0
LINE
  8
1
 62
3
 10
-58.22068112935286
 20
-175.2910705383466
 30
0
 11
-48.22068112935285
 21
-175.2910705383465
 31
0
  0
LINE
  8
1
 62
3
 10
-58.22068112935286
 20
-231.2910705383469
 30
0
 11
-48.22068112935285
 21
-231.2910705383469
 31
0
  0
LINE
  8
1
 62
3
 10
-28.22068112935259
 20
-173.7587123480936
 30
0
 11
-18.22068112935259
 21
-173.7587123480936
 31
0
  0
LINE
  8
1
 62
1
 10
2.779318870647408
 20
-203.2910705383466
 30
0
 11
-81.82068112935266
 21
-203.2910705383466
 31
0
  0
LINE
  8
1
 62
1
 10
-205.1602913698867
 20
-172.2910705383466
 30
0
 11
-205.1602913698867
 21
-239.7910705383468
 31
0
  0
LINE
  8
1
 62
1
 10
-236.1602913698867
 20
-203.2910705383466
 30
0
 11
-174.1602913698867
 21
-203.2910705383466
 31
0
  0
LINE
  8
1
 62
2
 10
-28.22068112935255
 20
-221.8610705383468
 30
0
 11
-28.22068112935255
 21
-217.396968923209
 31
0
  0
LINE
  8
1
 62
2
 10
-30.22068112935255
 20
-221.8610705383468
 30
0
 11
-30.22068112935255
 21
-213.9328673080713
 31
0
  0
LINE
  8
1
 62
2
 10
-32.22068112935255
 20
-221.8610705383468
 30
0
 11
-32.22068112935255
 21
-210.4687656929335
 31
0
  0
LINE
  8
1
 62
2
 10
-34.22068112935255
 20
-221.8610705383468
 30
0
 11
-34.22068112935255
 21
-207.0046640777958
 31
0
  0
LINE
  8
1
 62
2
 10
-46.22068112935285
 20
-184.7210705383463
 30
0
 11
-46.22068112935285
 21
-189.1851721534841
 31
0
  0
LINE
  8
1
 62
2
 10
-44.22068112935285
 20
-184.7210705383463
 30
0
 11
-44.22068112935285
 21
-192.6492737686218
 31
0
  0
LINE
  8
1
 62
2
 10
-42.22068112935286
 20
-184.7210705383463
 30
0
 11
-42.22068112935286
 21
-196.1133753837596
 31
0
  0
LINE
  8
1
 62
2
 10
-40.22068112935286
 20
-184.7210705383463
 30
0
 11
-40.22068112935286
 21
-199.5774769988974
 31
0
  0
LINE
  8
1
 62
2
 10
-27.22068112935255
 20
-219.1290197307779
 30
0
 11
-27.22068112935255
 21
-221.8610705383468
 31
0
  0
LINE
  8
1
 62
2
 10
-29.22068112935255
 20
-215.6649181156401
 30
0
 11
-29.22068112935255
 21
-221.8610705383468
 31
0
  0
LINE
  8
1
 62
2
 10
-31.22068112935255
 20
-212.2008165005024
 30
0
 11
-31.22068112935255
 21
-221.8610705383468
 31
0
  0
LINE
  8
1
 62
2
 10
-33.22068112935255
 20
-208.7367148853646
 30
0
 11
-33.22068112935255
 21
-221.8610705383468
 31
0
  0
LINE
  8
1
 62
2
 10
-41.22068112935286
 20
-184.7210705383463
 30
0
 11
-41.22068112935286
 21
-197.8454261913285
 31
0
  0
LINE
  8
1
 62
2
 10
-43.22068112935286
 20
-184.7210705383463
 30
0
 11
-43.22068112935286
 21
-194.3813245761907
 31
0
  0
LINE
  8
1
 62
2
 10
-45.22068112935285
 20
-184.7210705383463
 30
0
 11
-45.22068112935285
 21
-190.917222961053
 31
0
  0
LINE
  8
1
 62
2
 10
-47.22068112935285
 20
-184.7210705383463
 30
0
 11
-47.22068112935285
 21
-187.4531213459152
 31
0
  0
LINE
  8
1
 62
1
 10
-61.22068112935286
 20
-179.7210705383463
 30
0
 11
-50.22068112935286
 21
-179.7210705383463
 31
0
  0
LINE
  8
1
 62
1
 10
-61.22068112935286
 20
-226.8610705383468
 30
0
 11
-50.22068112935286
 21
-226.8610705383468
 31
0
  0
LINE
  8
1
 62
2
  6
DASHED
 10
-198.3602913698861
 20
-248.2910705383466
 30
0
 11
-198.3602913698861
 21
-238.2910705383466
 31
0
  0
LINE
  8
1
 62
2
  6
DASHED
 10
-199.9602913698864
 20
-248.2910705383466
 30
0
 11
-199.9602913698864
 21
-238.2910705383466
 31
0
  0
LINE
  8
1
 62
2
  6
DASHED
 10
-202.3602913698861
 20
-248.2910705383466
 30
0
 11
-202.3602913698861
 21
-238.2910705383466
 31
0
  0
LINE
  8
1
 62
2
  6
DASHED
 10
-203.9602913698864
 20
-248.2910705383466
 30
0
 11
-203.9602913698864
 21
-238.2910705383466
 31
0
  0
LINE
  8
1
 62
2
  6
DASHED
 10
-211.9602913698864
 20
-238.2910705383466
 30
0
 11
-211.9602913698864
 21
-248.2910705383466
 31
0
  0
LINE
  8
1
 62
2
  6
DASHED
 10
-210.3602913698861
 20
-238.2910705383466
 30
0
 11
-210.3602913698861
 21
-248.2910705383466
 31
0
  0
LINE
  8
1
 62
2
  6
DASHED
 10
-207.9602913698864
 20
-238.2910705383466
 30
0
 11
-207.9602913698864
 21
-248.2910705383466
 31
0
  0
LINE
  8
1
 62
2
  6
DASHED
 10
-206.3602913698861
 20
-238.2910705383466
 30
0
 11
-206.3602913698861
 21
-248.2910705383466
 31
0
  0
LINE
  8
1
 62
2
  6
DASHED
 10
-193.1602913698872
 20
-237.7910705383461
 30
0
 11
-193.1602913698872
 21
-238.2910705383466
 31
0
  0
LINE
  8
1
 62
2
  6
DASHED
 10
-193.7102913698864
 20
-237.4910705383464
 30
0
 11
-193.4602913698864
 21
-237.4910705383464
 31
0
  0
LINE
  8
1
 62
2
  6
DASHED
 10
-217.1602913698872
 20
-238.2910705383466
 30
0
 11
-217.1602913698872
 21
-237.7910705383461
 31
0
  0
LINE
  8
1
 62
2
  6
DASHED
 10
-216.8602913698861
 20
-237.4910705383464
 30
0
 11
-216.610291369887
 21
-237.4910705383464
 31
0
  0
LINE
  8
1
 62
2
  6
DASHED
 10
-217.1602913698872
 20
-238.2910705383466
 30
0
 11
-193.1602913698872
 21
-238.2910705383466
 31
0
  0
LINE
  8
1
 62
2
  6
DASHED
 10
-216.610291369887
 20
-237.4910705383464
 30
0
 11
-216.610291369887
 21
-236.5910705383466
 31
0
  0
LINE
  8
1
 62
2
  6
DASHED
 10
-193.7102913698864
 20
-236.5910705383466
 30
0
 11
-193.7102913698864
 21
-237.4910705383464
 31
0
  0
LINE
  8
1
 62
2
 10
-161.407944692572
 20
-270.6859242214949
 30
0
 11
-161.407944692572
 21
-244.6859242214949
 31
0
  0
LINE
  8
1
 62
2
 10
-91.40794469257199
 20
-270.6859242214949
 30
0
 11
-161.407944692572
 21
-270.6859242214949
 31
0
  0
LINE
  8
1
 62
2
 10
-161.407944692572
 20
-258.6859242214949
 30
0
 11
-91.40794469257199
 21
-258.6859242214949
 31
0
  0
LINE
  8
1
 62
2
 10
-97.8008209022691
 20
-252.294843614829
 30
0
 11
-95.1113316910581
 21
-252.294843614829
 31
0
  0
LINE
  8
1
 62
2
 10
-118.0575745283871
 20
-252.5393426340298
 30
0
 11
-114.573463504773
 21
-252.5393426340298
 31
0
  0
LINE
  8
1
 62
2
 10
-161.407944692572
 20
-244.6859242214949
 30
0
 11
-91.40794469257199
 21
-244.6859242214949
 31
0
  0
LINE
  8
1
 62
2
 10
-91.40794469257199
 20
-244.6859242214949
 30
0
 11
-91.40794469257199
 21
-270.6859242214949
 31
0
  0
LINE
  8
1
 62
2
 10
-131.407944692572
 20
-244.6859242214949
 30
0
 11
-131.407944692572
 21
-270.6859242214949
 31
0
  0
LINE
  8
1
 62
2
 10
-161.407944692572
 20
-251.6859242214949
 30
0
 11
-91.40794469257199
 21
-251.6859242214949
 31
0
  0
LINE
  8
1
 62
2
 10
-121.407944692572
 20
-244.6859242214949
 30
0
 11
-121.407944692572
 21
-270.6859242214949
 31
0
  0
LINE
  8
1
 62
2
 10
-111.407944692572
 20
-244.6859242214949
 30
0
 11
-111.407944692572
 21
-270.6859242214949
 31
0
  0
LINE
  8
1
 62
2
 10
-101.407944692572
 20
-244.6859242214949
 30
0
 11
-101.407944692572
 21
-270.6859242214949
 31
0
  0
LINE
  8
1
 62
3
 10
-63.82068112935267
 20
-200.1160705383466
 30
0
 11
-63.82068112935266
 21
-200.6160705383465
 31
0
  0
LINE
  8
1
 62
3
 10
-63.82068112935266
 20
-200.6160705383465
 30
0
 11
-78.82068112935266
 21
-200.6160705383467
 31
0
  0
LINE
  8
1
 62
3
 10
-78.32068112935266
 20
-200.6160705383467
 30
0
 11
-78.32068112935266
 21
-206.4660705383466
 31
0
  0
LINE
  8
1
 62
3
 10
-16.22068112935255
 20
-200.1160705383466
 30
0
 11
-15.22068112935255
 21
-200.1160705383466
 31
0
  0
LINE
  8
1
 62
3
 10
-15.22068112935255
 20
-200.1160705383466
 30
0
 11
-15.22068112935255
 21
-200.6160705383465
 31
0
  0
LINE
  8
1
 62
3
 10
-15.22068112935255
 20
-200.6160705383465
 30
0
 11
-0.220681129352549
 21
-200.6160705383465
 31
0
  0
LINE
  8
1
 62
3
 10
-0.220681129352549
 20
-200.6160705383465
 30
0
 11
-0.220681129352549
 21
-206.1660705383465
 31
0
  0
LINE
  8
1
 62
3
 10
-0.5206811293525491
 20
-206.4660705383465
 30
0
 11
-16.22068112935255
 21
-206.4660705383465
 31
0
  0
LINE
  8
1
 62
3
 10
-0.5206811293525491
 20
-206.4660705383465
 30
0
 11
-0.220681129352549
 21
-206.1660705383465
 31
0
  0
LINE
  8
1
 62
3
 10
-0.5206811293525491
 20
-206.4660705383465
 30
0
 11
-0.5206811293525491
 21
-200.6160705383465
 31
0
  0
LINE
  8
1
 62
3
 10
-206.8705545075349
 20
-200.6160705383465
 30
0
 11
-203.4500282322384
 21
-200.6160705383465
 31
0
  0
ARC
  8
1
 62
3
 10
-180.3602913698866
 20
-187.8910705383467
 30
0
 40
3.999999999999488
 50
90
 51
270
  0
ARC
  8
1
 62
3
 10
-180.3602913698866
 20
-218.6910705383467
 30
0
 40
3.999999999999318
 50
90
 51
270
  0
ARC
  8
1
 62
3
 10
-229.9602913698865
 20
-218.6910705383467
 30
0
 40
4.000000000000682
 50
270
 51
90
  0
ARC
  8
1
 62
3
 10
-180.3602913698866
 20
-218.6910705383467
 30
0
 40
3.999999999999318
 50
90
 51
270
  0
ARC
  8
1
 62
3
 10
-229.9602913698865
 20
-187.8910705383467
 30
0
 40
4.000000000000512
 50
270
 51
90
  0
ARC
  8
1
 62
3
 10
-180.3602913698866
 20
-187.8910705383467
 30
0
 40
3.999999999999488
 50
90
 51
270
  0
CIRCLE
  8
1
 62
3
 10
-228.7302913698869
 20
-179.7210705383464
 30
0
 40
2.25
  0
CIRCLE
  8
1
 62
3
 10
-228.7302913698871
 20
-226.861070538347
 30
0
 40
2.249999999999801
  0
CIRCLE
  8
1
 62
3
 10
-181.5902913698864
 20
-226.861070538347
 30
0
 40
2.250000000000199
  0
CIRCLE
  8
1
 62
3
 10
-205.1602913698867
 20
-203.2910705383466
 30
0
 40
3.174999999999812
  0
CIRCLE
  8
1
 62
3
 10
-205.1602913698867
 20
-203.2910705383466
 30
0
 40
4.75
  0
CIRCLE
  8
1
 62
3
 10
-229.9602913698865
 20
-218.6910705383467
 30
0
 40
3.000000000000199
  0
CIRCLE
  8
1
 62
3
 10
-180.3602913698866
 20
-218.6910705383467
 30
0
 40
3
  0
CIRCLE
  8
1
 62
3
 10
-229.9602913698865
 20
-187.8910705383467
 30
0
 40
3.000000000000284
  0
CIRCLE
  8
1
 62
3
 10
-180.3602913698866
 20
-187.8910705383467
 30
0
 40
3
  0
CIRCLE
  8
1
 62
3
 10
-205.1602913698867
 20
-203.2910705383466
 30
0
 40
19.0500000000001
  0
CIRCLE
  8
1
 62
3
 10
-205.1602913698867
 20
-203.2910705383466
 30
0
 40
17.50000000000009
  0
CIRCLE
  8
1
 62
4
 10
-205.1602913698867
 20
-203.2910705383466
 30
0
 40
17.00000000000009
  0
CIRCLE
  8
1
 62
3
 10
-205.1602913698867
 20
-203.2910705383466
 30
0
 40
14.50000000000009
  0
CIRCLE
  8
1
 62
3
 10
-181.5902913698867
 20
-179.7210705383464
 30
0
 40
2.25
  0
ARC
  8
1
 62
3
 10
-241.6214967730295
 20
-302.4703108751135
 30
0
 40
0.3000000000001251
 50
90
 51
180
  0
ARC
  8
1
 62
3
 10
-241.6214967730295
 20
-325.8703108751134
 30
0
 40
0.3000000000000114
 50
180
 51
270
  0
ARC
  8
1
 62
3
 10
-232.1602913698869
 20
-213.691070538347
 30
0
 40
0.9999999999998011
 50
180
 51
270
  0
ARC
  8
1
 62
3
 10
-232.1602913698869
 20
-223.691070538347
 30
0
 40
1.000000000000085
 50
90
 51
180
  0
ARC
  8
1
 62
3
 10
-178.1602913698866
 20
-213.691070538347
 30
0
 40
1.000000000000398
 50
270
 51
0
  0
ARC
  8
1
 62
3
 10
-178.1602913698866
 20
-223.691070538347
 30
0
 40
1
 50
0
 51
90
  0
ARC
  8
1
 62
3
 10
-232.1602913698869
 20
-192.8910705383466
 30
0
 40
0.9999999999994031
 50
90
 51
180
  0
ARC
  8
1
 62
3
 10
-232.1602913698869
 20
-182.8910705383466
 30
0
 40
0.9999999999998011
 50
180
 51
270
  0
ARC
  8
1
 62
3
 10
-178.1602913698866
 20
-192.8910705383466
 30
0
 40
1.000000000000711
 50
0
 51
90
  0
ARC
  8
1
 62
3
 10
-178.1602913698866
 20
-182.8910705383466
 30
0
 40
1.000000000000597
 50
270
 51
0
  0
ARC
  8
1
 62
3
 10
-181.1602913698861
 20
-227.2910705383468
 30
0
 40
3.999999999999801
 50
270
 51
0
  0
ARC
  8
1
 62
3
 10
-229.1602913698869
 20
-227.291070538347
 30
0
 40
4
 50
180
 51
270
  0
ARC
  8
1
 62
3
 10
-229.160291369887
 20
-179.2910705383464
 30
0
 40
3.999999999999801
 50
90
 51
180
  0
ARC
  8
1
 62
3
 10
-181.1602913698863
 20
-179.2910705383461
 30
0
 40
3.999999999999602
 50
0
 51
90
  0
ARC
  8
1
 62
2
  6
DASHED
 10
-193.4602913698864
 20
-237.7910705383461
 30
0
 40
0.2999999999991871
 50
0
 51
90
  0
ARC
  8
1
 62
2
  6
DASHED
 10
-216.8602913698861
 20
-237.7910705383461
 30
0
 40
0.2999999999996987
 50
90
 51
180
  0
LINE
  8
1
 62
2
 10
23.57931887064745
 20
-231.4660705383465
 30
0
 11
8.779318870647451
 21
-231.4660705383465
 31
0
  0
LINE
  8
1
 62
2
 10
8.779318870647451
 20
-231.4660705383465
 30
0
 11
-0.370681129352549
 21
-206.3160705383465
 31
0
  0
SOLID
  8
1
 62
2
 10
1.119277379856473
 20
-209.1791994584748
 30
0
 11
0.3274759816786038
 21
-209.4672703448894
 31
0
 12
-0.370681129352549
 22
-206.3160705383465
 32
0
 13
-0.370681129352549
 23
-206.3160705383465
 33
0
  0
LINE
  8
1
 62
2
 10
-313.1343782398935
 20
-346.2371022903778
 30
0
 11
-259.4794371673806
 21
-346.2371022903778
 31
0
  0
LINE
  8
1
 62
2
 10
-259.4794371673806
 20
-346.2371022903778
 30
0
 11
-246.9214967730295
 21
-325.6203108751134
 31
0
  0
SOLID
  8
1
 62
2
 10
-248.2263606762359
 20
-328.5723972164232
 30
0
 11
-248.9459546848469
 21
-328.1340836842031
 31
0
 12
-246.9214967730295
 22
-325.6203108751134
 32
0
 13
-246.9214967730295
 23
-325.6203108751134
 33
0
  0
LINE
  8
1
 62
2
 10
-212.9575347024308
 20
-257.582740753376
 30
0
 11
-189.6787834976089
 21
-257.582740753376
 31
0
  0
SOLID
  8
1
 62
2
 10
-192.8787834976089
 20
-258.0040287456557
 30
0
 11
-192.8787834976089
 21
-257.1614527610964
 31
0
 12
-189.6787834976089
 22
-257.582740753376
 32
0
 13
-189.6787834976089
 23
-257.582740753376
 33
0
  0
LINE
  8
1
 62
2
 10
-55.7776608537561
 20
-166.5113422632336
 30
0
 11
-35.66630730435506
 21
-166.5113422632336
 31
0
  0
LINE
  8
1
 62
2
 10
-35.66630730435506
 20
-166.5113422632336
 30
0
 11
-26.67534924697609
 21
-173.7587123480936
 31
0
  0
SOLID
  8
1
 62
2
 10
-29.43112097795873
 20
-172.0784725618857
 30
0
 11
-28.90234227627996
 21
-171.4224791363035
 31
0
 12
-26.67534924697609
 22
-173.7587123480936
 32
0
 13
-26.67534924697609
 23
-173.7587123480936
 33
0
  0
LINE
  8
1
 62
2
 10
-236.9886664984207
 20
-249.5467972044771
 30
0
 11
-224.6965098691757
 21
-249.5467972044771
 31
0
  0
LINE
  8
1
 62
2
 10
-224.6965098691757
 20
-249.5467972044771
 30
0
 11
-217.1602913698872
 21
-238.2910705383466
 31
0
  0
SOLID
  8
1
 62
2
 10
-218.5905605753731
 20
-241.1844791808093
 30
0
 11
-219.2906945959455
 21
-240.7157077621059
 31
0
 12
-217.1602913698872
 22
-238.2910705383466
 32
0
 13
-217.1602913698872
 23
-238.2910705383466
 33
0
  0
LINE
  8
1
 62
2
 10
-98.02068112935287
 20
-231.4660705383466
 30
0
 11
-83.22068112935287
 21
-231.4660705383466
 31
0
  0
LINE
  8
1
 62
2
 10
-83.22068112935287
 20
-231.4660705383466
 30
0
 11
-78.57068112935264
 21
-206.2160705383467
 31
0
  0
SOLID
  8
1
 62
2
 10
-78.73592142400111
 20
-209.4394506303408
 30
0
 11
-79.56456315490959
 21
-209.2868492818764
 31
0
 12
-78.57068112935264
 22
-206.2160705383467
 32
0
 13
-78.57068112935264
 23
-206.2160705383467
 33
0
  0
TEXT
  8
1
 62
2
 10
-20.87786804443891
 20
-338.2585957383465
 30
0
 40
4.5
  1
KH56JM2-961
 41
0.9
  0
TEXT
  8
1
 62
2
 10
13.77931887064745
 20
-230.4660705383465
 30
0
 40
3.2
  1
C0.3
 41
0.9
  0
TEXT
  8
1
 62
2
 10
-238.0406353895555
 20
-343.0330268657115
 30
0
 40
2.5
  1
ATTACHMENT: CONNECTOR LEAD
 41
0.63
  0
TEXT
  8
1
 62
2
 10
-312.2812999545037
 20
-345.3516417796402
 30
0
 40
2.5
  1
CONTACT: 59333-8000 (molex)
 41
0.63
  0
TEXT
  8
1
 62
2
 10
-312.2812999545037
 20
-336.1603069014747
 30
0
 40
2.5
  1
HOUSING: 51004-1100 (molex)
 41
0.63
  0
TEXT
  8
1
 62
2
 10
-312.4057222431118
 20
-342.3932369999141
 30
0
 40
4
  1
コンタクト：５９３３３－８０００(日本モレックス)
 41
0.45
  0
TEXT
  8
1
 62
2
 10
-312.4057222431118
 20
-332.8009051090776
 30
0
 40
4
  1
ハウジング：５１００４－１１００(日本モレックス)
 41
0.45
  0
TEXT
  8
1
 62
2
 10
-238.0406353895555
 20
-336.2057027866298
 30
0
 40
4
  1
付属品：コネクタ　リード
 41
0.9
  0
TEXT
  8
1
 62
2
 10
-233.9061534781779
 20
-259.449449372289
 30
0
 40
4
  1
PIN No.
 41
0.63
  0
TEXT
  8
1
 62
2
 10
-53.83358823846099
 20
-169.8907796978767
 30
0
 40
2.5
  1
NAME PLATE
 41
0.63
 72
1
 73
2
 11
-45.95858823846099
 21
-168.6407796978767
 31
0
  0
TEXT
  8
1
 62
2
 10
-63.71689031816401
 20
-165.9086965097827
 30
0
 40
4
  1
ネームプレート
 41
0.63
 72
1
 73
2
 11
-46.07689031816401
 21
-163.9086965097827
 31
0
  0
TEXT
  8
1
 62
2
 10
-120.007944692572
 20
-268.1859242214949
 30
0
 40
2
  1
BLUE
 41
0.9
 72
1
 73
2
 11
-116.407944692572
 21
-267.1859242214949
 31
0
  0
TEXT
  8
1
 62
2
 10
-110.187944692572
 20
-268.1859242214949
 30
0
 40
2
  1
YELLOW
 41
0.63
 72
1
 73
2
 11
-106.407944692572
 21
-267.1859242214949
 31
0
  0
TEXT
  8
1
 62
2
 10
-129.107944692572
 20
-268.1859242214949
 30
0
 40
2
  1
RED
 41
0.9
 72
1
 73
2
 11
-126.407944692572
 21
-267.1859242214949
 31
0
  0
TEXT
  8
1
 62
2
 10
-155.782944692572
 20
-268.4359242214949
 30
0
 40
2.5
  1
LEAD COLOR
 41
0.63
 72
1
 73
2
 11
-147.907944692572
 21
-267.1859242214949
 31
0
  0
TEXT
  8
1
 62
2
 10
-145.9512825735322
 20
-256.4359242214949
 30
0
 40
2.5
  1
(PHASE)
 41
0.54
 73
2
 11
-145.9512825735322
 21
-255.1859242214949
 31
0
  0
TEXT
  8
1
 62
2
 10
-143.907944692572
 20
-249.4359242214949
 30
0
 40
2.5
  1
(PIN NO.)
 41
0.45
 73
2
 11
-143.907944692572
 21
-248.1859242214949
 31
0
  0
TEXT
  8
1
 62
2
 10
-120.007944692572
 20
-264.1859242214949
 30
0
 40
4
  1
青
 41
0.9
 72
1
 73
2
 11
-116.407944692572
 21
-262.1859242214949
 31
0
  0
TEXT
  8
1
 62
2
 10
-110.007944692572
 20
-264.1859242214949
 30
0
 40
4
  1
黄
 41
0.9
 72
1
 73
2
 11
-106.407944692572
 21
-262.1859242214949
 31
0
  0
TEXT
  8
1
 62
2
 10
-130.007944692572
 20
-264.1859242214949
 30
0
 40
4
  1
赤
 41
0.9
 72
1
 73
2
 11
-126.407944692572
 21
-262.1859242214949
 31
0
  0
TEXT
  8
1
 62
2
 10
-158.707944692572
 20
-263.6859242214949
 30
0
 40
3
  1
リード線色
 41
0.72
 72
1
 73
2
 11
-147.907944692572
 21
-262.1859242214949
 31
0
  0
TEXT
  8
1
 62
2
 10
-159.157944692572
 20
-249.6859242214949
 30
0
 40
3
  1
51004-1100
 41
0.45
 72
1
 73
2
 11
-152.407944692572
 21
-248.1859242214949
 31
0
  0
TEXT
  8
1
 62
2
 10
-161.507944692572
 20
-256.6859242214949
 30
0
 40
3
  1
励磁相
 41
0.9
 72
1
 73
2
 11
-153.407944692572
 21
-255.1859242214949
 31
0
  0
TEXT
  8
1
 62
2
 10
-128.207944692572
 20
-250.1859242214949
 30
0
 40
4
  1
3
 41
0.9
 72
1
 73
2
 11
-126.407944692572
 21
-248.1859242214949
 31
0
  0
TEXT
  8
1
 62
2
 10
-118.207944692572
 20
-250.1859242214949
 30
0
 40
4
  1
5
 41
0.9
 72
1
 73
2
 11
-116.407944692572
 21
-248.1859242214949
 31
0
  0
TEXT
  8
1
 62
2
 10
-108.207944692572
 20
-250.1859242214949
 30
0
 40
4
  1
7
 41
0.9
 72
1
 73
2
 11
-106.407944692572
 21
-248.1859242214949
 31
0
  0
TEXT
  8
1
 62
2
 10
-98.20794469257199
 20
-250.1859242214949
 30
0
 40
4
  1
9
 41
0.9
 72
1
 73
2
 11
-96.40794469257199
 21
-248.1859242214949
 31
0
  0
TEXT
  8
1
 62
2
 10
-128.207944692572
 20
-257.1859242214949
 30
0
 40
4
  1
A
 41
0.9
 72
1
 73
2
 11
-126.407944692572
 21
-255.1859242214949
 31
0
  0
TEXT
  8
1
 62
2
 10
-118.207944692572
 20
-257.1859242214949
 30
0
 40
4
  1
A
 41
0.9
 72
1
 73
2
 11
-116.407944692572
 21
-255.1859242214949
 31
0
  0
TEXT
  8
1
 62
2
 10
-108.207944692572
 20
-257.1859242214949
 30
0
 40
4
  1
B
 41
0.9
 72
1
 73
2
 11
-106.407944692572
 21
-255.1859242214949
 31
0
  0
TEXT
  8
1
 62
2
 10
-200.1052913698862
 20
-253.324758566683
 30
0
 40
3
  1
9
 41
0.6300000000000001
 72
1
 73
2
 11
-199.1602913698862
 21
-251.824758566683
 31
0
  0
TEXT
  8
1
 62
2
 10
-204.1052913698863
 20
-253.324758566683
 30
0
 40
3
  1
7
 41
0.6300000000000001
 72
1
 73
2
 11
-203.1602913698863
 21
-251.824758566683
 31
0
  0
TEXT
  8
1
 62
2
 10
-208.1052913698863
 20
-253.324758566683
 30
0
 40
3
  1
5
 41
0.6300000000000001
 72
1
 73
2
 11
-207.1602913698863
 21
-251.824758566683
 31
0
  0
TEXT
  8
1
 62
2
 10
-212.1052913698863
 20
-253.324758566683
 30
0
 40
3
  1
3
 41
0.6300000000000001
 72
1
 73
2
 11
-211.1602913698863
 21
-251.824758566683
 31
0
  0
TEXT
  8
1
 62
2
 10
-236.9886664984207
 20
-248.5467972044771
 30
0
 40
4
  1
極番表示
 41
0.54
  0
TEXT
  8
1
 62
2
 10
-100.007944692572
 20
-264.1859242214949
 30
0
 40
4
  1
白
 41
0.9
 72
1
 73
2
 11
-96.40794469257199
 21
-262.1859242214949
 31
0
  0
TEXT
  8
1
 62
2
 10
-99.55794469257199
 20
-268.1859242214949
 30
0
 40
2
  1
WHITE
 41
0.63
 72
1
 73
2
 11
-96.40794469257199
 21
-267.1859242214949
 31
0
  0
TEXT
  8
1
 62
2
 10
-98.20794469257199
 20
-257.1859242214949
 30
0
 40
4
  1
B
 41
0.9
 72
1
 73
2
 11
-96.40794469257199
 21
-255.1859242214949
 31
0
  0
TEXT
  8
1
 62
2
 10
-97.02068112935287
 20
-230.4660705383466
 30
0
 40
3.2
  1
C0.5
 41
0.9
  0
DIMENSION
  8
1
  6
CONTINUOUS
 62
2
  2
*D0
  3
DMST_1
 10
-88.82068112935248
 20
-200.6160705383467
 30
0
 11
-93.62068112935248
 21
-173.822934621564
 31
0
 12
0
 22
0
 32
0
 70
0
 13
-78.32068112935266
 23
-206.4660705383466
 33
0
 14
-78.82068112935266
 24
-200.6160705383467
 34
0
 50
90
 53
0
  0
DIMENSION
  8
1
  6
CONTINUOUS
 62
2
  2
*D1
  3
DMST_2
 10
-63.82068112935267
 20
-157.291070538346
 30
0
 11
-71.26470255386791
 21
-153.691070538346
 31
0
 12
0
 22
0
 32
0
 70
0
 13
-78.82068112935266
 23
-200.6160705383467
 33
0
 14
-63.82068112935267
 24
-200.1160705383466
 34
0
 53
0
  0
DIMENSION
  8
1
  6
CONTINUOUS
 62
2
  2
*D2
  3
DMST_3
 10
-108.8206811293526
 20
-184.2410705383467
 30
0
 11
-112.8473477960193
 21
-203.2910705383466
 31
0
 12
0
 22
0
 32
0
 70
0
  1
φ<>
 13
-59.64734779601949
 23
-222.3410705383466
 33
0
 14
-59.64734779601949
 24
-184.2410705383467
 34
0
 50
90
 53
0
  0
DIMENSION
  8
1
  6
CONTINUOUS
 62
2
  2
*D3
  3
DMST_4
 10
-241.1214967730295
 20
-294.2701243664185
 30
0
 11
-202.7257728554228
 21
-289.4701243664185
 31
0
 12
0
 22
0
 32
0
 70
0
  1
300
 13
-163.0009263741032
 23
-311.4703108751135
 33
0
 14
-241.1214967730295
 24
-302.1703108751134
 34
0
 53
0
  0
DIMENSION
  8
1
  6
CONTINUOUS
 62
2
  2
*D4
  3
DMST_5
 10
-173.0009263741034
 20
-303.8701243664183
 30
0
 11
-168.3789283657406
 21
-300.2701243664184
 31
0
 12
0
 22
0
 32
0
 70
0
  1
(<>
 13
-163.0009263741032
 23
-311.7703108751133
 33
0
 14
-173.0009263741032
 24
-310.9703108751135
 34
0
 53
0
  0
DIMENSION
  8
1
  6
CONTINUOUS
 62
2
  2
*D5
  3
DMST_6
 10
-98.82068112935264
 20
-200.1160705383466
 30
0
 11
-103.2473477960193
 21
-203.2910705383466
 31
0
 12
0
 22
0
 32
0
 70
0
  1
φ<>
 13
-78.32068112935266
 23
-206.4660705383466
 33
0
 14
-63.82068112935267
 24
-200.1160705383466
 34
0
 50
90
 53
0
  0
DIMENSION
  8
1
  6
CONTINUOUS
 62
2
  2
*D6
  3
DMST_7
 10
-181.5902913698866
 20
-157.2910705383458
 30
0
 11
-205.1602913698867
 21
-153.6910705383458
 31
0
 12
0
 22
0
 32
0
 70
0
 13
-228.7302913698867
 23
-174.2210705383464
 33
0
 14
-181.5902913698867
 24
-174.2210705383464
 34
0
 53
0
  0
DIMENSION
  8
1
  6
CONTINUOUS
 62
2
  2
*D7
  3
DMST_8
 10
-233.1602913698868
 20
-149.2910705383458
 30
0
 11
-205.1602913698867
 21
-145.6910705383458
 31
0
 12
0
 22
0
 32
0
 70
0
  1
(<>
 13
-177.1602913698867
 23
-179.2910705383466
 33
0
 14
-233.1602913698867
 24
-179.2910705383466
 34
0
 53
0
  0
DIMENSION
  8
1
  6
CONTINUOUS
 62
2
  2
*D8
  3
DMST_9
 10
-59.82068112935266
 20
-149.2910705383463
 30
0
 11
-67.89110084152038
 21
-145.6910705383463
 31
0
 12
0
 22
0
 32
0
 70
0
 13
-58.22068112935286
 23
-175.2910705383466
 33
0
 14
-59.82068112935266
 24
-184.3410705383466
 34
0
 53
0
  0
DIMENSION
  8
1
  6
CONTINUOUS
 62
2
  2
*D9
  3
DMST_8
 10
-58.22068112935286
 20
-141.2910705383466
 30
0
 11
-37.90617894341765
 21
-137.6910705383466
 31
0
 12
0
 22
0
 32
0
 70
0
  1
(<>
 13
-16.22068112935255
 23
-175.7910705383465
 33
0
 14
-58.22068112935286
 24
-175.2910705383466
 34
0
 53
0
  0
DIMENSION
  8
1
  6
CONTINUOUS
 62
2
  2
*D10
  3
DMST_8
 10
-154.1602913698867
 20
-231.2910705383468
 30
0
 11
-157.7602913698867
 21
-203.2910705383466
 31
0
 12
0
 22
0
 32
0
 70
0
  1
(<>
 13
-181.1602913698867
 23
-175.2910705383466
 33
0
 14
-181.1602913698867
 24
-231.2910705383466
 34
0
 50
90
 53
0
  0
DIMENSION
  8
1
  6
CONTINUOUS
 62
2
  2
*D11
  3
DMST_7
 10
-162.1602913698867
 20
-179.7210705383464
 30
0
 11
-165.7602913698867
 21
-203.2910705383466
 31
0
 12
0
 22
0
 32
0
 70
0
 13
-176.0902913698867
 23
-226.861070538347
 33
0
 14
-176.0902913698867
 24
-179.7210705383464
 34
0
 50
90
 53
0
  0
DIMENSION
  8
1
  6
CONTINUOUS
 62
2
  2
*D12
  3
DMST_9
 10
-53.22068112935274
 20
-247.2910705383469
 30
0
 11
-55.5571006149862
 21
-243.6910705383469
 31
0
 12
0
 22
0
 32
0
 70
0
 13
-58.22068112935286
 23
-231.2910705383469
 33
0
 14
-53.22068112935278
 24
-231.2910705383468
 34
0
 53
0
  0
DIMENSION
  8
1
  6
CONTINUOUS
 62
2
  2
*D13
  3
DMST_8
 10
-238.1602913698869
 20
-238.2910705383466
 30
0
 11
-241.7602913698869
 21
-237.071216243715
 31
0
 12
0
 22
0
 32
0
 70
0
  1
※(<>
 13
-229.1602913698867
 23
-231.2910705383466
 33
0
 14
-217.1602913698872
 24
-238.2910705383466
 34
0
 50
90
 53
0
  0
DIMENSION
  8
1
  6
CONTINUOUS
 62
2
  2
*D14
  3
DMST_8
 10
-0.2206811293525499
 20
-141.2910705383466
 30
0
 11
-7.96056348197514
 21
-137.6910705383466
 31
0
 12
0
 22
0
 32
0
 70
0
  1
(<>
 13
-16.22068112935255
 23
-175.7910705383465
 33
0
 14
-0.220681129352549
 24
-200.6160705383465
 34
0
 53
0
  0
DIMENSION
  8
1
  6
CONTINUOUS
 62
2
  2
*D15
  3
DMST_2
 10
-0.220681129352549
 20
-157.291070538346
 30
0
 11
-7.70499603368579
 21
-153.691070538346
 31
0
 12
0
 22
0
 32
0
 70
0
 13
-15.22068112935255
 23
-200.1160705383466
 33
0
 14
-0.220681129352549
 24
-200.6160705383465
 34
0
 53
0
  0
DIMENSION
  8
1
  6
CONTINUOUS
 62
2
  2
*D16
  3
DMST_10
 10
29.77931887064745
 20
-200.1160705383466
 30
0
 11
24.97931887064745
 21
-185.606463470358
 31
0
 12
0
 22
0
 32
0
 70
0
  1
φ<>
 13
-0.5206811293525491
 23
-206.4660705383465
 33
0
 14
-15.22068112935255
 24
-200.1160705383466
 34
0
 50
90
 53
0
  0
DIMENSION
  8
1
  6
CONTINUOUS
 62
2
  2
*D17
  3
DMST_1
 10
19.77931887064745
 20
-200.6160705383465
 30
0
 11
14.97931887064745
 21
-184.901747322394
 31
0
 12
0
 22
0
 32
0
 70
0
 13
-0.5206811293525491
 23
-206.4660705383465
 33
0
 14
-0.220681129352549
 24
-200.6160705383465
 34
0
 50
90
 53
0
  0
DIMENSION
  8
1
  6
CONTINUOUS
 62
2
  2
*D18
  3
DMST_11
 10
-78.82068112935266
 20
-141.2910705383462
 30
0
 11
-68.5310170257097
 21
-137.6910705383462
 31
0
 12
0
 22
0
 32
0
 70
0
 13
-58.22068112935286
 23
-175.2910705383466
 33
0
 14
-78.82068112935266
 24
-200.6160705383467
 34
0
 53
0
  0
DIMENSION
  8
1
  6
CONTINUOUS
 62
2
  2
*D19
  3
DMST_12
 10
-183.0829667948983
 20
-181.4046441410043
 30
0
 11
-152.771624470513
 21
-165.9850993056545
 31
0
 12
0
 22
0
 32
0
 70
3
  1
4-%%c<>
 15
-180.097615944875
 25
-178.0374969356886
 35
0
 40
0
 53
0
  0
INSERT
  8
0
  2
____M3_________1
 10
-229.9602913698866
 20
-218.6910705383467
 30
0
  0
INSERT
  8
0
  2
____M3_________2
 10
-180.3602913698865
 20
-218.6910705383467
 30
0
  0
INSERT
  8
0
  2
____M3_________3
 10
-180.3602913698865
 20
-187.8910705383464
 30
0
  0
INSERT
  8
0
  2
____M3_________4
 10
-229.9602913698866
 20
-187.8910705383464
 30
0
  0
INSERT
  8
0
  2
AD09745-01_DB
 10
-469.2825480360854
 20
-974.3018676097641
 30
0
  0
INSERT
  8
0
  2
MOJINOMUKI
 10
-21.37054617458106
 20
-171.5718741559166
 30
0
  0
ENDSEC
  0
EOF
