  0
SECTION
  2
HEADER
  9
$ACADVER
  1
AC1014
  9
$ACADMAINTVER
 70
             0
  9
$DWGCODEPAGE
  3
ANSI_1252
  9
$INSBASE
 10
0.0
 20
0.0
 30
0.0
  9
$EXTMIN
 10
-256.05909810624308
 20
87.39814151184868
 30
0.0
  9
$EXTMAX
 10
-182.89103349747191
 20
134.78710062057621
 30
0.0
  9
$LIMMIN
 10
0.0
 20
0.0
  9
$LIMMAX
 10
0.0
 20
0.0
  9
$ORTHOMODE
 70
             0
  9
$REGENMODE
 70
             1
  9
$FILLMODE
 70
             1
  9
$QTEXTMODE
 70
             0
  9
$MIRRTEXT
 70
             1
  9
$DRAGMODE
 70
             2
  9
$LTSCALE
 40
1.0
  9
$OSMODE
 70
             0
  9
$ATTMODE
 70
             1
  9
$TEXTSIZE
 40
0.2
  9
$TRACEWID
 40
0.05
  9
$TEXTSTYLE
  7
STANDARD
  9
$CLAYER
  8
0
  9
$CELTYPE
  6
CONTINUOUS
  9
$CECOLOR
 62
           256
  9
$CELTSCALE
 40
1.0
  9
$DELOBJ
 70
             1
  9
$DISPSILH
 70
             0
  9
$DIMSCALE
 40
1.0
  9
$DIMASZ
 40
0.18
  9
$DIMEXO
 40
0.0625
  9
$DIMDLI
 40
0.38
  9
$DIMRND
 40
0.0
  9
$DIMDLE
 40
0.0
  9
$DIMEXE
 40
0.18
  9
$DIMTP
 40
0.0
  9
$DIMTM
 40
0.0
  9
$DIMTXT
 40
0.18
  9
$DIMCEN
 40
0.09
  9
$DIMTSZ
 40
0.0
  9
$DIMTOL
 70
             0
  9
$DIMLIM
 70
             0
  9
$DIMTIH
 70
             1
  9
$DIMTOH
 70
             1
  9
$DIMSE1
 70
             0
  9
$DIMSE2
 70
             0
  9
$DIMTAD
 70
             0
  9
$DIMZIN
 70
             0
  9
$DIMBLK
  1

  9
$DIMASO
 70
             1
  9
$DIMSHO
 70
             1
  9
$DIMPOST
  1

  9
$DIMAPOST
  1

  9
$DIMALT
 70
             0
  9
$DIMALTD
 70
             2
  9
$DIMALTF
 40
25.4
  9
$DIMLFAC
 40
1.0
  9
$DIMTOFL
 70
             0
  9
$DIMTVP
 40
0.0
  9
$DIMTIX
 70
             0
  9
$DIMSOXD
 70
             0
  9
$DIMSAH
 70
             0
  9
$DIMBLK1
  1

  9
$DIMBLK2
  1

  9
$DIMSTYLE
  2
STANDARD
  9
$DIMCLRD
 70
             0
  9
$DIMCLRE
 70
             0
  9
$DIMCLRT
 70
             0
  9
$DIMTFAC
 40
1.0
  9
$DIMGAP
 40
0.09
  9
$DIMJUST
 70
             0
  9
$DIMSD1
 70
             0
  9
$DIMSD2
 70
             0
  9
$DIMTOLJ
 70
             1
  9
$DIMTZIN
 70
             0
  9
$DIMALTZ
 70
             0
  9
$DIMALTTZ
 70
             0
  9
$DIMFIT
 70
             3
  9
$DIMUPT
 70
             0
  9
$DIMUNIT
 70
             2
  9
$DIMDEC
 70
             4
  9
$DIMTDEC
 70
             4
  9
$DIMALTU
 70
             2
  9
$DIMALTTD
 70
             2
  9
$DIMTXSTY
  7
STANDARD
  9
$DIMAUNIT
 70
             0
  9
$LUNITS
 70
             2
  9
$LUPREC
 70
             4
  9
$SKETCHINC
 40
0.1
  9
$FILLETRAD
 40
0.0
  9
$AUNITS
 70
             0
  9
$AUPREC
 70
             0
  9
$MENU
  1
acad
  9
$ELEVATION
 40
0.0
  9
$PELEVATION
 40
0.0
  9
$THICKNESS
 40
0.0
  9
$LIMCHECK
 70
             0
  9
$BLIPMODE
 70
             1
  9
$CHAMFERA
 40
0.0
  9
$CHAMFERB
 40
0.0
  9
$CHAMFERC
 40
0.0
  9
$CHAMFERD
 40
0.0
  9
$SKPOLY
 70
             0
  9
$TDCREATE
 40
0.000000000
  9
$TDUPDATE
 40
0.000000000
  9
$TDINDWG
 40
0.0000000000
  9
$TDUSRTIMER
 40
0.0000000000
  9
$USRTIMER
 70
             1
  9
$ANGBASE
 50
0.0
  9
$ANGDIR
 70
             0
  9
$PDMODE
 70
             0
  9
$PDSIZE
 40
0.0
  9
$PLINEWID
 40
0.0
  9
$COORDS
 70
             0
  9
$SPLFRAME
 70
             0
  9
$SPLINETYPE
 70
             6
  9
$SPLINESEGS
 70
             8
  9
$ATTDIA
 70
             0
  9
$ATTREQ
 70
             1
  9
$HANDLING
 70
             1
  9
$HANDSEED
  5
BC
  9
$SURFTAB1
 70
             6
  9
$SURFTAB2
 70
             6
  9
$SURFTYPE
 70
             6
  9
$SURFU
 70
             6
  9
$SURFV
 70
             6
  9
$UCSNAME
  2

  9
$UCSORG
 10
0.0
 20
0.0
 30
0.0
  9
$UCSXDIR
 10
1.0
 20
0.0
 30
0.0
  9
$UCSYDIR
 10
0.0
 20
1.0
 30
0.0
  9
$PUCSNAME
  2

  9
$PUCSORG
 10
0.0
 20
0.0
 30
0.0
  9
$PUCSXDIR
 10
1.0
 20
0.0
 30
0.0
  9
$PUCSYDIR
 10
0.0
 20
1.0
 30
0.0
  9
$USERI1
 70
             0
  9
$USERI2
 70
             0
  9
$USERI3
 70
             0
  9
$USERI4
 70
             0
  9
$USERI5
 70
             0
  9
$USERR1
 40
12.01
  9
$USERR2
 40
0.0
  9
$USERR3
 40
0.0
  9
$USERR4
 40
0.0
  9
$USERR5
 40
0.0
  9
$WORLDVIEW
 70
             1
  9
$SHADEDGE
 70
             3
  9
$SHADEDIF
 70
            70
  9
$TILEMODE
 70
             1
  9
$MAXACTVP
 70
            16
  9
$PINSBASE
 10
0.0
 20
0.0
 30
0.0
  9
$PLIMCHECK
 70
             0
  9
$PEXTMIN
 10
1.00000000000000E+20
 20
1.00000000000000E+20
 30
1.00000000000000E+20
  9
$PEXTMAX
 10
-1.00000000000000E+20
 20
-1.00000000000000E+20
 30
-1.00000000000000E+20
  9
$PLIMMIN
 10
0.0
 20
0.0
  9
$PLIMMAX
 10
12.0
 20
9.0
  9
$UNITMODE
 70
             0
  9
$VISRETAIN
 70
             0
  9
$PLINEGEN
 70
             1
  9
$PSLTSCALE
 70
             0
  9
$TREEDEPTH
 70
          3020
  9
$PICKSTYLE
 70
             1
  9
$CMLSTYLE
  2
STANDARD
  9
$CMLJUST
 70
             0
  9
$CMLSCALE
 40
1.0
  9
$PROXYGRAPHICS
 70
             0
  9
$MEASUREMENT
 70
             1
  0
ENDSEC
  0
SECTION
  2
CLASSES
  0
CLASS
  1
LWPOLYLINE
  2
AcDbPolyline
  3
"AutoCAD"
 90
        0
280
             0
281
             1
  0
CLASS
  1
IMAGE
  2
AcDbRasterImage
  3
ISM
 90
      127
280
             0
281
             1
  0
CLASS
  1
OLE2FRAME
  2
AcDbOle2Frame
  3
""
 90
        0
280
             0
281
             1
  0
CLASS
  1
HATCH
  2
AcDbHatch
  3
"ACAD_SEDONA"
 90
        0
280
             0
281
             1
  0
CLASS
  1
DICTIONARYVAR
  2
AcDbDictionaryVar
  3
"AutoCAD"
 90
        0
280
             0
281
             0
  0
CLASS
  1
RASTERVARIABLES
  2
AcDbRasterVariables
  3
ISM
 90
        0
280
             0
281
             0
  0
CLASS
  1
IMAGEDEF
  2
AcDbRasterImageDef
  3
ISM
 90
        0
280
             0
281
             0
  0
CLASS
  1
IMAGEDEF_REACTOR
  2
AcDbRasterImageDefReactor
  3
ISM
 90
        1
280
             0
281
             0
  0
CLASS
  1
IDBUFFER
  2
AcDbIdBuffer
  3
"Acad"
 90
        0
280
             0
281
             0
  0
CLASS
  1
SPATIAL_FILTER
  2
AcDbSpatialFilter
  3
"Acad"
 90
        0
280
             0
281
             0
  0
CLASS
  1
XRECORD
  2
AcDbXrecord
  3
"<Built In>"
 90
        0
280
             0
281
             0
  0
CLASS
  1
SORTENTSTABLE
  2
AcDbSortentsTable
  3
"AutoCAD"
 90
        0
280
             0
281
             0
  0
CLASS
  1
LAYER_INDEX
  2
AcDbLayerIndex
  3
"Acad"
 90
        0
280
             0
281
             0
  0
CLASS
  1
SPATIAL_INDEX
  2
AcDbSpatialIndex
  3
"Acad"
 90
        0
280
             0
281
             0
  0
CLASS
  1
OBJECT_PTR
  2
CAseDLPNTableRecord
  3
"ASE-LPNTableRecord"
 90
        1
280
             0
281
             0
  0
CLASS
  1
LAYOUT
  2
AcDbLayout
  3
"AutoCAD 2000"
 90
        0
280
             0
281
             0
  0
CLASS
  1
PLOTSETTINGS
  2
AcDbPlotSettings
  3
"AutoCAD 2000"
 90
        0
280
             0
281
             0
  0
CLASS
  1
ACDBDICTIONARYWDFLT
  2
AcDbDictionaryWithDefault
  3
"AutoCAD 2000"
 90
        0
280
             0
281
             0
  0
CLASS
  1
ACDBPLACEHOLDER
  2
AcDbPlaceHolder
  3
"AutoCAD 2000"
 90
        0
280
             0
281
             0
  0
ENDSEC
  0
SECTION
  2
TABLES
  0
TABLE
  2
VPORT
  5
7
100
AcDbSymbolTable
 70
             1
  0
VPORT
  5
15
100
AcDbSymbolTableRecord
100
AcDbViewportTableRecord
  2
*ACTIVE
 70
             0
 10
0.0
 20
0.0
 11
1.0
 21
1.0
 12
-219.47506580185751
 22
111.09262106621244
 13
0.0
 23
0.0
 14
1.0
 24
1.0
 15
0.0
 25
0.0
 16
0.0
 26
0.0
 36
1.0
 17
0.0
 27
0.0
 37
0.0
 40
52.12785501960029
 41
1.60267857142857
 42
50.0
 43
0.0
 44
0.0
 50
0.0
 51
0.0
 71
             0
 72
           100
 73
             1
 74
             1
 75
             0
 76
             0
 77
             0
 78
             0
  0
ENDTAB
  0
TABLE
  2
LTYPE
  5
4
100
AcDbSymbolTable
 70
            10
  0
LTYPE
  5
11
100
AcDbSymbolTableRecord
100
AcDbLinetypeTableRecord
  2
BYBLOCK
 70
            64
  3

 72
            65
 73
             0
 40
0.0
  0
LTYPE
  5
12
100
AcDbSymbolTableRecord
100
AcDbLinetypeTableRecord
  2
BYLAYER
 70
            64
  3

 72
            65
 73
             0
 40
0.0
  0
LTYPE
  5
13
100
AcDbSymbolTableRecord
100
AcDbLinetypeTableRecord
  2
CONTINUOUS
 70
            64
  3
Solid line
 72
            65
 73
             0
 40
0.0
  0
LTYPE
  5
1D
100
AcDbSymbolTableRecord
100
AcDbLinetypeTableRecord
  2
DASHED
 70
            64
  3
Dashed
 72
            65
 73
             2
 40
15.0
 49
7.0
 74
             0
 49
-8.0
 74
             0
  0
LTYPE
  5
1E
100
AcDbSymbolTableRecord
100
AcDbLinetypeTableRecord
  2
DOTTED
 70
            64
  3
Dotted
 72
            65
 73
             2
 40
1.0
 49
0.0
 74
             0
 49
-1.0
 74
             0
  0
LTYPE
  5
1F
100
AcDbSymbolTableRecord
100
AcDbLinetypeTableRecord
  2
DOT_CENTER
 70
            64
  3
Dot_Center
 72
            65
 73
             4
 40
14.0
 49
12.0
 74
             0
 49
-1.0
 74
             0
 49
0.0
 74
             0
 49
-1.0
 74
             0
  0
LTYPE
  5
20
100
AcDbSymbolTableRecord
100
AcDbLinetypeTableRecord
  2
LONG_DASHED
 70
            64
  3
Long_Dashed
 72
            65
 73
             2
 40
15.0
 49
10.0
 74
             0
 49
-5.0
 74
             0
  0
LTYPE
  5
21
100
AcDbSymbolTableRecord
100
AcDbLinetypeTableRecord
  2
DASH_CENTER
 70
            64
  3
Dash_Center
 72
            65
 73
             4
 40
14.0
 49
11.0
 74
             0
 49
-1.0
 74
             0
 49
1.0
 74
             0
 49
-1.0
 74
             0
  0
LTYPE
  5
22
100
AcDbSymbolTableRecord
100
AcDbLinetypeTableRecord
  2
PHANTOM
 70
            64
  3
Phantom
 72
            65
 73
             6
 40
13.0
 49
10.0
 74
             0
 49
-1.0
 74
             0
 49
0.0
 74
             0
 49
-1.0
 74
             0
 49
0.0
 74
             0
 49
-1.0
 74
             0
  0
LTYPE
  5
23
100
AcDbSymbolTableRecord
100
AcDbLinetypeTableRecord
  2
CENTER_DASH_DASH
 70
            64
  3
Center_Dash_Dash
 72
            65
 73
             6
 40
14.0
 49
9.0
 74
             0
 49
-1.0
 74
             0
 49
1.0
 74
             0
 49
-1.0
 74
             0
 49
1.0
 74
             0
 49
-1.0
 74
             0
  0
ENDTAB
  0
TABLE
  2
LAYER
  5
2
100
AcDbSymbolTable
 70
             2
  0
LAYER
  5
14
100
AcDbSymbolTableRecord
100
AcDbLayerTableRecord
  2
0
 70
             0
 62
             7
  6
CONTINUOUS
  0
LAYER
  5
24
100
AcDbSymbolTableRecord
100
AcDbLayerTableRecord
  2
1
 70
             0
 62
             7
  6
CONTINUOUS
  0
ENDTAB
  0
TABLE
  2
STYLE
  5
3
100
AcDbSymbolTable
 70
             2
  0
STYLE
  5
17
100
AcDbSymbolTableRecord
100
AcDbTextStyleTableRecord
  2
STANDARD
 70
             0
 40
0.0
 41
1.0
 50
0.0
 71
             0
 42
0.0
  3
txt
  4

  0
STYLE
  5
AB
100
AcDbSymbolTableRecord
100
AcDbTextStyleTableRecord
  2
CONVERTER_1
 70
             0
 40
0.0
 41
0.9
 50
0.0
 71
             0
 42
0.0
  3
txt.shx
  4

  0
ENDTAB
  0
TABLE
  2
VIEW
  5
5
100
AcDbSymbolTable
 70
             0
  0
ENDTAB
  0
TABLE
  2
UCS
  5
6
100
AcDbSymbolTable
 70
             0
  0
ENDTAB
  0
TABLE
  2
APPID
  5
8
100
AcDbSymbolTable
 70
             1
  0
APPID
  5
16
100
AcDbSymbolTableRecord
100
AcDbRegAppTableRecord
  2
ACAD
 70
             0
  0
ENDTAB
  0
TABLE
  2
DIMSTYLE
  5
9
100
AcDbSymbolTable
 70
             3
  0
DIMSTYLE
105
18
100
AcDbSymbolTableRecord
100
AcDbDimStyleTableRecord
  2
STANDARD
 70
             0
  3

  4

  5

  6

  7

 40
1.0
 41
0.18
 42
0.0625
 43
0.38
 44
0.18
 45
0.0
 46
0.0
 47
0.0
 48
0.0
 71
             0
 72
             0
 73
             1
 74
             1
 75
             0
 76
             0
 77
             0
 78
             0
140
0.18
141
0.09
142
0.0
143
25.4
144
1.0
145
0.0
146
1.0
147
0.09
170
             0
171
             2
172
             0
173
             0
174
             0
175
             0
176
             0
177
             0
178
             0
270
             2
271
             4
272
             4
273
             2
274
             2
275
             0
280
             0
281
             0
282
             0
283
             1
284
             0
285
             0
286
             0
287
             3
288
             0
340
17
  0
DIMSTYLE
105
AE
100
AcDbSymbolTableRecord
100
AcDbDimStyleTableRecord
  2
ME10_DIM_0
 70
             0
  3
(<>)
  4

  5

  6

  7

 40
1.0
 41
3.2
 42
1.0
 43
0.38
 44
1.5
 45
0.0
 46
0.0
 47
0.0
 48
0.0
 71
             0
 72
             0
 73
             0
 74
             0
 75
             0
 76
             0
 77
             1
 78
             8
140
3.2
141
0.09
142
0.0
143
25.4
144
1.0
145
0.0
146
1.0
147
0.625
170
             0
171
             2
172
             1
173
             1
174
             0
175
             0
176
             2
177
             2
178
             2
270
             2
271
             4
272
             4
273
             2
274
             2
275
             0
280
             0
281
             0
282
             0
283
             1
284
             0
285
             0
286
             0
287
             3
288
             0
340
AB
  0
DIMSTYLE
105
B9
100
AcDbSymbolTableRecord
100
AcDbDimStyleTableRecord
  2
ME10_DIM_1
 70
             0
  3

  4

  5

  6

  7

 40
1.0
 41
3.2
 42
1.0
 43
0.38
 44
1.5
 45
0.0
 46
0.0
 47
40.0
 48
0.0
 71
             1
 72
             0
 73
             0
 74
             0
 75
             0
 76
             0
 77
             1
 78
             8
140
3.2
141
0.09
142
0.0
143
25.4
144
1.0
145
0.0
146
0.6
147
0.625
170
             0
171
             2
172
             1
173
             1
174
             0
175
             0
176
             2
177
             2
178
             2
270
             2
271
             4
272
             0
273
             2
274
             2
275
             0
280
             0
281
             0
282
             0
283
             1
284
             0
285
             0
286
             0
287
             3
288
             0
340
AB
  0
ENDTAB
  0
TABLE
  2
BLOCK_RECORD
  5
1
100
AcDbSymbolTable
 70
             2
  0
BLOCK_RECORD
  5
A
100
AcDbSymbolTableRecord
100
AcDbBlockTableRecord
  2
*MODEL_SPACE
  0
BLOCK_RECORD
  5
B
100
AcDbSymbolTableRecord
100
AcDbBlockTableRecord
  2
*PAPER_SPACE
  0
BLOCK_RECORD
  5
A2
100
AcDbSymbolTableRecord
100
AcDbBlockTableRecord
  2
*D0
  0
BLOCK_RECORD
  5
B0
100
AcDbSymbolTableRecord
100
AcDbBlockTableRecord
  2
*D1
  0
ENDTAB
  0
ENDSEC
  0
SECTION
  2
BLOCKS
  0
BLOCK
  5
D
100
AcDbEntity
  8
0
100
AcDbBlockBegin
  2
*MODEL_SPACE
 70
             0
 10
0.0
 20
0.0
 30
0.0
  3
*MODEL_SPACE
  1

  0
ENDBLK
  5
E
100
AcDbEntity
  8
0
100
AcDbBlockEnd
  0
BLOCK
  5
F
100
AcDbEntity
 67
             1
  8
0
100
AcDbBlockBegin
  2
*PAPER_SPACE
 70
             0
 10
0.0
 20
0.0
 30
0.0
  3
*PAPER_SPACE
  1

  0
ENDBLK
  5
10
100
AcDbEntity
 67
             1
  8
0
100
AcDbBlockEnd
  0
BLOCK
  5
A3
100
AcDbEntity
  8
0
100
AcDbBlockBegin
  2
*D0
 70
             1
 10
0.0
 20
0.0
 30
0.0
  3
*D0
  1

  0
LINE
  5
A4
100
AcDbEntity
  8
0
  6
CONTINUOUS
 62
             2
100
AcDbLine
 10
-182.89103349747188
 20
119.31356572806071
 11
-189.29103349747189
 21
119.31356572806071
  0
LINE
  5
A5
100
AcDbEntity
  8
0
  6
CONTINUOUS
 62
             2
100
AcDbLine
 10
-192.79103349747189
 20
119.31356572806071
 11
-189.29103349747189
 21
119.31356572806071
  0
LINE
  5
A6
100
AcDbEntity
  8
0
  6
CONTINUOUS
 62
             2
100
AcDbLine
 10
-192.79103349747189
 20
119.31356572806071
 11
-208.22886304254951
 21
119.31356572806071
  0
LINE
  5
A7
100
AcDbEntity
  8
0
  6
CONTINUOUS
 62
             2
100
AcDbLine
 10
-192.79103349747189
 20
111.6381415118487
 11
-192.79103349747189
 21
120.81356572806071
  0
LINE
  5
A8
100
AcDbEntity
  8
0
  6
CONTINUOUS
 62
             2
100
AcDbLine
 10
-189.29103349747189
 20
111.31814151184869
 11
-189.29103349747189
 21
120.81356572806071
  0
SOLID
  5
A9
100
AcDbEntity
  8
0
 62
             2
100
AcDbTrace
 10
-195.99103349747188
 20
118.89227773578105
 11
-195.99103349747188
 21
119.73485372034038
 12
-192.79103349747189
 22
119.31356572806071
 13
-192.79103349747189
 23
119.31356572806071
  0
SOLID
  5
AA
100
AcDbEntity
  8
0
 62
             2
100
AcDbTrace
 10
-186.0910334974719
 20
119.73485372034038
 11
-186.0910334974719
 21
118.89227773578104
 12
-189.29103349747189
 22
119.31356572806071
 13
-189.29103349747189
 23
119.31356572806071
  0
MTEXT
  5
AC
100
AcDbEntity
  8
0
 62
             2
100
AcDbMText
 10
-208.8528630425418
 20
121.31355936730522
 30
0.0
 40
3.2
 41
0.0
 71
             7
 72
             1
  1
\C2;(\C2;3.5\C2;)
  7
CONVERTER_1
 11
0.99999999999706
 21
0.00000242406841
 31
0.0
  0
ENDBLK
  5
AD
100
AcDbEntity
  8
0
100
AcDbBlockEnd
  0
BLOCK
  5
B1
100
AcDbEntity
  8
0
100
AcDbBlockBegin
  2
*D1
 70
             1
 10
0.0
 20
0.0
 30
0.0
  3
*D1
  1

  0
LINE
  5
B2
100
AcDbEntity
  8
0
  6
CONTINUOUS
 62
             2
100
AcDbLine
 10
-249.209098106243
 20
127.9871006205762
 11
-189.29103349747189
 21
127.9871006205762
  0
LINE
  5
B3
100
AcDbEntity
  8
0
  6
CONTINUOUS
 62
             2
100
AcDbLine
 10
-249.209098106243
 20
112.96814151184869
 11
-249.209098106243
 21
129.4871006205762
  0
LINE
  5
B4
100
AcDbEntity
  8
0
  6
CONTINUOUS
 62
             2
100
AcDbLine
 10
-189.29103349747189
 20
111.31814151184869
 11
-189.29103349747189
 21
129.4871006205762
  0
SOLID
  5
B5
100
AcDbEntity
  8
0
 62
             2
100
AcDbTrace
 10
-246.00909810624302
 20
128.40838861285587
 11
-246.00909810624302
 21
127.56581262829653
 12
-249.209098106243
 22
127.9871006205762
 13
-249.209098106243
 23
127.9871006205762
  0
SOLID
  5
B6
100
AcDbEntity
  8
0
 62
             2
100
AcDbTrace
 10
-192.49103349747188
 20
127.56581262829654
 11
-192.49103349747188
 21
128.40838861285587
 12
-189.29103349747189
 22
127.9871006205762
 13
-189.29103349747189
 23
127.9871006205762
  0
MTEXT
  5
B7
100
AcDbEntity
  8
0
 62
             2
100
AcDbMText
 10
-226.59455715329881
 20
130.78710062057621
 30
0.0
 40
3.2
 41
0.0
 71
             7
 72
             1
  1
\C2;300\C2;\H1.920000;\S+40^  0;
  7
CONVERTER_1
 11
0.99999999999706
 21
0.00000242406841
 31
0.0
  0
ENDBLK
  5
B8
100
AcDbEntity
  8
0
100
AcDbBlockEnd
  0
ENDSEC
  0
SECTION
  2
ENTITIES
  0
DIMENSION
  5
BA
100
AcDbEntity
  8
1
100
AcDbDimension
  2
*D1
 10
-249.209098106243
 20
127.9871006205762
 11
-219.7465571532988
 21
132.38710062057621
 31
0.0
 53
0.00013888888889
  1
300
  3
ME10_DIM_1
100
AcDbAlignedDimension
 13
-189.29103349747189
 23
110.31814151184869
 14
-249.209098106243
 24
111.9681415118487
100
AcDbRotatedDimension
  0
DIMENSION
  5
AF
100
AcDbEntity
  8
1
100
AcDbDimension
  2
*D0
 10
-192.79103349747189
 20
119.31356572806071
 11
-203.22886304254951
 21
122.9135657280607
 31
0.0
 53
0.00013888888889
  1
<>
  3
ME10_DIM_0
100
AcDbAlignedDimension
 13
-189.29103349747189
 23
110.31814151184869
 14
-192.79103349747189
 24
110.6381415118487
100
AcDbRotatedDimension
  0
LINE
  5
A1
100
AcDbEntity
  8
1
  6
CONTINUOUS
 62
             3
100
AcDbLine
 10
-192.79103349747189
 20
89.39814151184868
 11
-192.79103349747189
 21
90.63814151184872
  0
LINE
  5
A0
100
AcDbEntity
  8
1
  6
CONTINUOUS
 62
             3
100
AcDbLine
 10
-250.90909810624299
 20
88.81814151184881
 11
-256.05909810624308
 21
88.81814151184881
  0
LINE
  5
9F
100
AcDbEntity
  8
1
  6
CONTINUOUS
 62
             3
100
AcDbLine
 10
-256.05909810624308
 20
88.81814151184881
 11
-256.05909810624308
 21
111.2181415118487
  0
LINE
  5
9E
100
AcDbEntity
  8
1
  6
CONTINUOUS
 62
             3
100
AcDbLine
 10
-256.05909810624308
 20
111.2181415118487
 11
-250.90909810624299
 21
111.2181415118487
  0
LINE
  5
9D
100
AcDbEntity
  8
1
  6
CONTINUOUS
 62
             3
100
AcDbLine
 10
-250.90909810624299
 20
111.2181415118487
 11
-249.709098106243
 21
111.9681415118487
  0
LINE
  5
9C
100
AcDbEntity
  8
1
  6
CONTINUOUS
 62
             3
100
AcDbLine
 10
-250.90909810624299
 20
88.81814151184881
 11
-249.709098106243
 21
88.06814151184881
  0
LINE
  5
9B
100
AcDbEntity
  8
1
  6
CONTINUOUS
 62
             3
100
AcDbLine
 10
-249.709098106243
 20
88.06814151184881
 11
-249.709098106243
 21
111.9681415118487
  0
LINE
  5
9A
100
AcDbEntity
  8
1
  6
CONTINUOUS
 62
             3
100
AcDbLine
 10
-249.709098106243
 20
108.61814151184871
 11
-249.209098106243
 21
108.61814151184871
  0
LINE
  5
99
100
AcDbEntity
  8
1
  6
CONTINUOUS
 62
             3
100
AcDbLine
 10
-249.209098106243
 20
108.61814151184871
 11
-249.209098106243
 21
109.4181415118488
  0
LINE
  5
98
100
AcDbEntity
  8
1
  6
CONTINUOUS
 62
             3
100
AcDbLine
 10
-249.209098106243
 20
109.4181415118488
 11
-249.709098106243
 21
109.4181415118488
  0
LINE
  5
97
100
AcDbEntity
  8
1
  6
CONTINUOUS
 62
             3
100
AcDbLine
 10
-249.709098106243
 20
106.61814151184871
 11
-249.209098106243
 21
106.61814151184871
  0
LINE
  5
96
100
AcDbEntity
  8
1
  6
CONTINUOUS
 62
             3
100
AcDbLine
 10
-249.209098106243
 20
106.61814151184871
 11
-249.209098106243
 21
107.4181415118488
  0
LINE
  5
95
100
AcDbEntity
  8
1
  6
CONTINUOUS
 62
             3
100
AcDbLine
 10
-249.209098106243
 20
107.4181415118488
 11
-249.709098106243
 21
107.4181415118488
  0
LINE
  5
94
100
AcDbEntity
  8
1
  6
CONTINUOUS
 62
             3
100
AcDbLine
 10
-249.709098106243
 20
104.61814151184871
 11
-249.209098106243
 21
104.61814151184871
  0
LINE
  5
93
100
AcDbEntity
  8
1
  6
CONTINUOUS
 62
             3
100
AcDbLine
 10
-249.209098106243
 20
104.61814151184871
 11
-249.209098106243
 21
105.4181415118488
  0
LINE
  5
92
100
AcDbEntity
  8
1
  6
CONTINUOUS
 62
             3
100
AcDbLine
 10
-249.209098106243
 20
105.4181415118488
 11
-249.709098106243
 21
105.4181415118488
  0
LINE
  5
91
100
AcDbEntity
  8
1
  6
CONTINUOUS
 62
             3
100
AcDbLine
 10
-249.709098106243
 20
102.61814151184871
 11
-249.209098106243
 21
102.61814151184871
  0
LINE
  5
90
100
AcDbEntity
  8
1
  6
CONTINUOUS
 62
             3
100
AcDbLine
 10
-249.209098106243
 20
102.61814151184871
 11
-249.209098106243
 21
103.4181415118488
  0
LINE
  5
8F
100
AcDbEntity
  8
1
  6
CONTINUOUS
 62
             3
100
AcDbLine
 10
-249.209098106243
 20
103.4181415118488
 11
-249.709098106243
 21
103.4181415118488
  0
LINE
  5
8E
100
AcDbEntity
  8
1
  6
CONTINUOUS
 62
             3
100
AcDbLine
 10
-249.709098106243
 20
100.61814151184871
 11
-249.209098106243
 21
100.61814151184871
  0
LINE
  5
8D
100
AcDbEntity
  8
1
  6
CONTINUOUS
 62
             3
100
AcDbLine
 10
-249.209098106243
 20
100.61814151184871
 11
-249.209098106243
 21
101.4181415118488
  0
LINE
  5
8C
100
AcDbEntity
  8
1
  6
CONTINUOUS
 62
             3
100
AcDbLine
 10
-249.209098106243
 20
101.4181415118488
 11
-249.709098106243
 21
101.4181415118488
  0
LINE
  5
8B
100
AcDbEntity
  8
1
  6
CONTINUOUS
 62
             3
100
AcDbLine
 10
-249.709098106243
 20
98.61814151184869
 11
-249.209098106243
 21
98.61814151184869
  0
LINE
  5
8A
100
AcDbEntity
  8
1
  6
CONTINUOUS
 62
             3
100
AcDbLine
 10
-249.209098106243
 20
98.61814151184869
 11
-249.209098106243
 21
99.41814151184879
  0
LINE
  5
89
100
AcDbEntity
  8
1
  6
CONTINUOUS
 62
             3
100
AcDbLine
 10
-249.209098106243
 20
99.41814151184879
 11
-249.709098106243
 21
99.41814151184879
  0
LINE
  5
88
100
AcDbEntity
  8
1
  6
CONTINUOUS
 62
             3
100
AcDbLine
 10
-249.709098106243
 20
96.61814151184869
 11
-249.209098106243
 21
96.61814151184869
  0
LINE
  5
87
100
AcDbEntity
  8
1
  6
CONTINUOUS
 62
             3
100
AcDbLine
 10
-249.209098106243
 20
96.61814151184869
 11
-249.209098106243
 21
97.41814151184879
  0
LINE
  5
86
100
AcDbEntity
  8
1
  6
CONTINUOUS
 62
             3
100
AcDbLine
 10
-249.209098106243
 20
97.41814151184879
 11
-249.709098106243
 21
97.41814151184879
  0
LINE
  5
85
100
AcDbEntity
  8
1
  6
CONTINUOUS
 62
             3
100
AcDbLine
 10
-249.709098106243
 20
94.61814151184871
 11
-249.209098106243
 21
94.61814151184871
  0
LINE
  5
84
100
AcDbEntity
  8
1
  6
CONTINUOUS
 62
             3
100
AcDbLine
 10
-249.209098106243
 20
94.61814151184871
 11
-249.209098106243
 21
95.41814151184879
  0
LINE
  5
83
100
AcDbEntity
  8
1
  6
CONTINUOUS
 62
             3
100
AcDbLine
 10
-249.209098106243
 20
95.41814151184879
 11
-249.709098106243
 21
95.41814151184879
  0
LINE
  5
82
100
AcDbEntity
  8
1
  6
CONTINUOUS
 62
             3
100
AcDbLine
 10
-249.709098106243
 20
92.61814151184871
 11
-249.209098106243
 21
92.61814151184871
  0
LINE
  5
81
100
AcDbEntity
  8
1
  6
CONTINUOUS
 62
             3
100
AcDbLine
 10
-249.209098106243
 20
92.61814151184871
 11
-249.209098106243
 21
93.41814151184866
  0
LINE
  5
80
100
AcDbEntity
  8
1
  6
CONTINUOUS
 62
             3
100
AcDbLine
 10
-249.209098106243
 20
93.41814151184866
 11
-249.709098106243
 21
93.41814151184866
  0
LINE
  5
7F
100
AcDbEntity
  8
1
  6
CONTINUOUS
 62
             3
100
AcDbLine
 10
-249.709098106243
 20
90.61814151184871
 11
-249.209098106243
 21
90.61814151184871
  0
LINE
  5
7E
100
AcDbEntity
  8
1
  6
CONTINUOUS
 62
             3
100
AcDbLine
 10
-249.209098106243
 20
90.61814151184871
 11
-249.209098106243
 21
91.41814151184866
  0
LINE
  5
7D
100
AcDbEntity
  8
1
  6
CONTINUOUS
 62
             3
100
AcDbLine
 10
-249.209098106243
 20
91.41814151184866
 11
-249.709098106243
 21
91.41814151184866
  0
LINE
  5
7C
100
AcDbEntity
  8
1
  6
CONTINUOUS
 62
             3
100
AcDbLine
 10
-249.209098106243
 20
89.41814151184866
 11
-249.209098106243
 21
88.06814151184881
  0
LINE
  5
7B
100
AcDbEntity
  8
1
  6
CONTINUOUS
 62
             3
100
AcDbLine
 10
-249.209098106243
 20
88.06814151184881
 11
-249.709098106243
 21
88.06814151184881
  0
LINE
  5
7A
100
AcDbEntity
  8
1
  6
CONTINUOUS
 62
             3
100
AcDbLine
 10
-249.709098106243
 20
111.9681415118487
 11
-249.209098106243
 21
111.9681415118487
  0
LINE
  5
79
100
AcDbEntity
  8
1
  6
CONTINUOUS
 62
             3
100
AcDbLine
 10
-249.209098106243
 20
111.9681415118487
 11
-249.209098106243
 21
110.61814151184871
  0
LINE
  5
78
100
AcDbEntity
  8
1
  6
CONTINUOUS
 62
             3
100
AcDbLine
 10
-249.709098106243
 20
91.41814151184866
 11
-256.05909810624308
 21
91.41814151184866
  0
LINE
  5
77
100
AcDbEntity
  8
1
  6
CONTINUOUS
 62
             3
100
AcDbLine
 10
-256.05909810624308
 20
92.41814151184866
 11
-250.40909810624299
 21
92.41814151184866
  0
LINE
  5
76
100
AcDbEntity
  8
1
  6
CONTINUOUS
 62
             3
100
AcDbLine
 10
-250.40909810624299
 20
92.41814151184866
 11
-250.40909810624299
 21
107.61814151184871
  0
LINE
  5
75
100
AcDbEntity
  8
1
  6
CONTINUOUS
 62
             3
100
AcDbLine
 10
-250.40909810624299
 20
107.61814151184871
 11
-256.05909810624308
 21
107.61814151184871
  0
LINE
  5
74
100
AcDbEntity
  8
1
  6
CONTINUOUS
 62
             3
100
AcDbLine
 10
-249.709098106243
 20
108.61814151184871
 11
-256.05909810624308
 21
108.61814151184871
  0
LINE
  5
73
100
AcDbEntity
  8
1
  6
CONTINUOUS
 62
             3
100
AcDbLine
 10
-251.90909810624299
 20
92.41814151184866
 11
-251.90909810624299
 21
107.61814151184871
  0
LINE
  5
72
100
AcDbEntity
  8
1
  6
CONTINUOUS
 62
             3
100
AcDbLine
 10
-249.209098106243
 20
89.41814151184866
 11
-249.709098106243
 21
89.41814151184866
  0
LINE
  5
71
100
AcDbEntity
  8
1
  6
CONTINUOUS
 62
             3
100
AcDbLine
 10
-249.209098106243
 20
110.61814151184871
 11
-249.709098106243
 21
110.61814151184871
  0
LINE
  5
70
100
AcDbEntity
  8
1
  6
CONTINUOUS
 62
             3
100
AcDbLine
 10
-245.83260703646309
 20
89.39814151184868
 11
-249.209098106243
 21
89.39814151184868
  0
LINE
  5
6F
100
AcDbEntity
  8
1
  6
CONTINUOUS
 62
             3
100
AcDbLine
 10
-245.83260703646309
 20
90.63814151184869
 11
-249.209098106243
 21
90.63814151184869
  0
LINE
  5
6E
100
AcDbEntity
  8
1
  6
CONTINUOUS
 62
             3
100
AcDbLine
 10
-245.83260703646309
 20
93.39814151184868
 11
-249.209098106243
 21
93.39814151184868
  0
LINE
  5
6D
100
AcDbEntity
  8
1
  6
CONTINUOUS
 62
             3
100
AcDbLine
 10
-245.83260703646309
 20
94.63814151184869
 11
-249.209098106243
 21
94.63814151184869
  0
LINE
  5
6C
100
AcDbEntity
  8
1
  6
CONTINUOUS
 62
             3
100
AcDbLine
 10
-245.83260703646309
 20
97.39814151184869
 11
-249.209098106243
 21
97.39814151184869
  0
LINE
  5
6B
100
AcDbEntity
  8
1
  6
CONTINUOUS
 62
             3
100
AcDbLine
 10
-245.83260703646309
 20
98.63814151184869
 11
-249.209098106243
 21
98.63814151184869
  0
LINE
  5
6A
100
AcDbEntity
  8
1
  6
CONTINUOUS
 62
             3
100
AcDbLine
 10
-245.83260703646309
 20
101.39814151184871
 11
-249.209098106243
 21
101.39814151184871
  0
LINE
  5
69
100
AcDbEntity
  8
1
  6
CONTINUOUS
 62
             3
100
AcDbLine
 10
-245.83260703646309
 20
102.6381415118487
 11
-249.209098106243
 21
102.6381415118487
  0
LINE
  5
68
100
AcDbEntity
  8
1
  6
CONTINUOUS
 62
             3
100
AcDbLine
 10
-245.83260703646309
 20
105.39814151184871
 11
-249.209098106243
 21
105.39814151184871
  0
LINE
  5
67
100
AcDbEntity
  8
1
  6
CONTINUOUS
 62
             3
100
AcDbLine
 10
-245.83260703646309
 20
106.6381415118487
 11
-249.209098106243
 21
106.6381415118487
  0
LINE
  5
66
100
AcDbEntity
  8
1
  6
CONTINUOUS
 62
             3
100
AcDbLine
 10
-245.83260703646309
 20
109.39814151184871
 11
-249.209098106243
 21
109.39814151184871
  0
LINE
  5
65
100
AcDbEntity
  8
1
  6
CONTINUOUS
 62
             3
100
AcDbLine
 10
-245.83260703646309
 20
110.6381415118487
 11
-249.209098106243
 21
110.6381415118487
  0
LINE
  5
64
100
AcDbEntity
  8
1
  6
CONTINUOUS
 62
             2
100
AcDbLine
 10
-217.93209874423431
 20
87.39814151184868
 11
-217.93209874423431
 21
112.6381415118487
  0
LINE
  5
63
100
AcDbEntity
  8
1
  6
CONTINUOUS
 62
             2
100
AcDbLine
 10
-218.93209874423431
 20
87.39814151184868
 11
-218.93209874423431
 21
112.6381415118487
  0
LINE
  5
62
100
AcDbEntity
  8
1
  6
CONTINUOUS
 62
             3
100
AcDbLine
 10
-217.93209874423431
 20
110.6381415118487
 11
-192.79103349747189
 21
110.6381415118487
  0
LINE
  5
61
100
AcDbEntity
  8
1
  6
CONTINUOUS
 62
             3
100
AcDbLine
 10
-217.93209874423431
 20
109.39814151184871
 11
-192.79103349747189
 21
109.39814151184871
  0
LINE
  5
60
100
AcDbEntity
  8
1
  6
CONTINUOUS
 62
             3
100
AcDbLine
 10
-217.93209874423431
 20
106.6381415118487
 11
-192.79103349747189
 21
106.6381415118487
  0
LINE
  5
5F
100
AcDbEntity
  8
1
  6
CONTINUOUS
 62
             3
100
AcDbLine
 10
-217.93209874423431
 20
105.39814151184871
 11
-192.79103349747189
 21
105.39814151184871
  0
LINE
  5
5E
100
AcDbEntity
  8
1
  6
CONTINUOUS
 62
             3
100
AcDbLine
 10
-217.93209874423431
 20
102.6381415118487
 11
-192.79103349747189
 21
102.6381415118487
  0
LINE
  5
5D
100
AcDbEntity
  8
1
  6
CONTINUOUS
 62
             3
100
AcDbLine
 10
-217.93209874423431
 20
101.39814151184861
 11
-192.79103349747189
 21
101.39814151184871
  0
LINE
  5
5C
100
AcDbEntity
  8
1
  6
CONTINUOUS
 62
             3
100
AcDbLine
 10
-217.93209874423431
 20
98.63814151184869
 11
-192.79103349747189
 21
98.63814151184869
  0
LINE
  5
5B
100
AcDbEntity
  8
1
  6
CONTINUOUS
 62
             3
100
AcDbLine
 10
-217.93209874423431
 20
97.39814151184869
 11
-192.79103349747189
 21
97.39814151184869
  0
LINE
  5
5A
100
AcDbEntity
  8
1
  6
CONTINUOUS
 62
             3
100
AcDbLine
 10
-217.93209874423431
 20
94.63814151184869
 11
-192.79103349747189
 21
94.63814151184869
  0
LINE
  5
59
100
AcDbEntity
  8
1
  6
CONTINUOUS
 62
             3
100
AcDbLine
 10
-217.93209874423431
 20
93.39814151184871
 11
-192.79103349747189
 21
93.39814151184868
  0
LINE
  5
58
100
AcDbEntity
  8
1
  6
CONTINUOUS
 62
             3
100
AcDbLine
 10
-217.93209874423431
 20
90.63814151184869
 11
-192.79103349747189
 21
90.63814151184872
  0
LINE
  5
57
100
AcDbEntity
  8
1
  6
CONTINUOUS
 62
             3
100
AcDbLine
 10
-217.93209874423431
 20
89.39814151184868
 11
-192.79103349747189
 21
89.39814151184868
  0
LINE
  5
56
100
AcDbEntity
  8
1
  6
CONTINUOUS
 62
             3
100
AcDbLine
 10
-245.83260703646309
 20
89.39814151184868
 11
-237.9588439601286
 21
89.39814151184868
  0
LINE
  5
55
100
AcDbEntity
  8
1
  6
CONTINUOUS
 62
             3
100
AcDbLine
 10
-237.9588439601286
 20
90.63814151184869
 11
-245.83260703646309
 21
90.63814151184869
  0
LINE
  5
54
100
AcDbEntity
  8
1
  6
CONTINUOUS
 62
             3
100
AcDbLine
 10
-237.9588439601286
 20
93.39814151184868
 11
-245.83260703646309
 21
93.39814151184868
  0
LINE
  5
53
100
AcDbEntity
  8
1
  6
CONTINUOUS
 62
             3
100
AcDbLine
 10
-237.9588439601286
 20
94.63814151184869
 11
-245.83260703646309
 21
94.63814151184869
  0
LINE
  5
52
100
AcDbEntity
  8
1
  6
CONTINUOUS
 62
             3
100
AcDbLine
 10
-237.9588439601286
 20
97.39814151184869
 11
-245.83260703646309
 21
97.39814151184869
  0
LINE
  5
51
100
AcDbEntity
  8
1
  6
CONTINUOUS
 62
             3
100
AcDbLine
 10
-237.9588439601286
 20
98.63814151184869
 11
-245.83260703646309
 21
98.63814151184869
  0
LINE
  5
50
100
AcDbEntity
  8
1
  6
CONTINUOUS
 62
             3
100
AcDbLine
 10
-237.9588439601286
 20
101.39814151184871
 11
-245.83260703646309
 21
101.39814151184871
  0
LINE
  5
4F
100
AcDbEntity
  8
1
  6
CONTINUOUS
 62
             3
100
AcDbLine
 10
-237.9588439601286
 20
102.6381415118487
 11
-245.83260703646309
 21
102.6381415118487
  0
LINE
  5
4E
100
AcDbEntity
  8
1
  6
CONTINUOUS
 62
             3
100
AcDbLine
 10
-237.9588439601286
 20
105.39814151184871
 11
-245.83260703646309
 21
105.39814151184871
  0
LINE
  5
4D
100
AcDbEntity
  8
1
  6
CONTINUOUS
 62
             3
100
AcDbLine
 10
-237.9588439601286
 20
106.6381415118487
 11
-245.83260703646309
 21
106.6381415118487
  0
LINE
  5
4C
100
AcDbEntity
  8
1
  6
CONTINUOUS
 62
             3
100
AcDbLine
 10
-237.9588439601286
 20
109.39814151184871
 11
-245.83260703646309
 21
109.39814151184871
  0
LINE
  5
4B
100
AcDbEntity
  8
1
  6
CONTINUOUS
 62
             3
100
AcDbLine
 10
-237.9588439601286
 20
110.6381415118487
 11
-245.83260703646309
 21
110.6381415118487
  0
LINE
  5
4A
100
AcDbEntity
  8
1
  6
CONTINUOUS
 62
             3
100
AcDbLine
 10
-218.93209874423431
 20
89.39814151184868
 11
-237.9588439601286
 21
89.39814151184868
  0
LINE
  5
49
100
AcDbEntity
  8
1
  6
CONTINUOUS
 62
             3
100
AcDbLine
 10
-218.93209874423431
 20
90.63814151184869
 11
-237.9588439601286
 21
90.63814151184869
  0
LINE
  5
48
100
AcDbEntity
  8
1
  6
CONTINUOUS
 62
             3
100
AcDbLine
 10
-218.93209874423431
 20
93.39814151184868
 11
-237.9588439601286
 21
93.39814151184868
  0
LINE
  5
47
100
AcDbEntity
  8
1
  6
CONTINUOUS
 62
             3
100
AcDbLine
 10
-218.93209874423431
 20
94.63814151184869
 11
-237.9588439601286
 21
94.63814151184869
  0
LINE
  5
46
100
AcDbEntity
  8
1
  6
CONTINUOUS
 62
             3
100
AcDbLine
 10
-218.93209874423431
 20
97.39814151184869
 11
-237.9588439601286
 21
97.39814151184869
  0
LINE
  5
45
100
AcDbEntity
  8
1
  6
CONTINUOUS
 62
             3
100
AcDbLine
 10
-218.93209874423431
 20
98.63814151184869
 11
-237.9588439601286
 21
98.63814151184869
  0
LINE
  5
44
100
AcDbEntity
  8
1
  6
CONTINUOUS
 62
             3
100
AcDbLine
 10
-218.93209874423431
 20
101.39814151184871
 11
-237.9588439601286
 21
101.39814151184871
  0
LINE
  5
43
100
AcDbEntity
  8
1
  6
CONTINUOUS
 62
             3
100
AcDbLine
 10
-218.93209874423431
 20
102.6381415118487
 11
-237.9588439601286
 21
102.6381415118487
  0
LINE
  5
42
100
AcDbEntity
  8
1
  6
CONTINUOUS
 62
             3
100
AcDbLine
 10
-218.93209874423431
 20
105.39814151184871
 11
-237.9588439601286
 21
105.39814151184871
  0
LINE
  5
41
100
AcDbEntity
  8
1
  6
CONTINUOUS
 62
             3
100
AcDbLine
 10
-218.93209874423431
 20
106.6381415118487
 11
-237.9588439601286
 21
106.6381415118487
  0
LINE
  5
40
100
AcDbEntity
  8
1
  6
CONTINUOUS
 62
             3
100
AcDbLine
 10
-218.93209874423431
 20
109.39814151184871
 11
-237.9588439601286
 21
109.39814151184871
  0
LINE
  5
3F
100
AcDbEntity
  8
1
  6
CONTINUOUS
 62
             3
100
AcDbLine
 10
-218.93209874423431
 20
110.6381415118487
 11
-237.9588439601286
 21
110.6381415118487
  0
LINE
  5
3E
100
AcDbEntity
  8
1
  6
CONTINUOUS
 62
             3
100
AcDbLine
 10
-192.79103349747189
 20
109.39814151184871
 11
-192.79103349747189
 21
110.6381415118487
  0
LINE
  5
3D
100
AcDbEntity
  8
1
  6
CONTINUOUS
 62
             3
100
AcDbLine
 10
-192.79103349747189
 20
105.39814151184871
 11
-192.79103349747189
 21
106.6381415118487
  0
LINE
  5
3C
100
AcDbEntity
  8
1
  6
CONTINUOUS
 62
             3
100
AcDbLine
 10
-192.79103349747189
 20
101.39814151184871
 11
-192.79103349747189
 21
102.6381415118487
  0
LINE
  5
3B
100
AcDbEntity
  8
1
  6
CONTINUOUS
 62
             3
100
AcDbLine
 10
-192.79103349747189
 20
97.39814151184869
 11
-192.79103349747189
 21
98.63814151184869
  0
LINE
  5
3A
100
AcDbEntity
  8
1
  6
CONTINUOUS
 62
             3
100
AcDbLine
 10
-192.79103349747189
 20
93.39814151184868
 11
-192.79103349747189
 21
94.63814151184869
  0
LINE
  5
39
100
AcDbEntity
  8
1
  6
CONTINUOUS
 62
             2
100
AcDbLine
 10
-192.79103349747189
 20
110.31814151184869
 11
-189.29103349747189
 21
110.31814151184869
  0
LINE
  5
38
100
AcDbEntity
  8
1
  6
CONTINUOUS
 62
             2
100
AcDbLine
 10
-192.79103349747189
 20
106.31814151184869
 11
-189.29103349747189
 21
106.31814151184869
  0
LINE
  5
37
100
AcDbEntity
  8
1
  6
CONTINUOUS
 62
             2
100
AcDbLine
 10
-192.79103349747189
 20
102.31814151184869
 11
-189.29103349747189
 21
102.31814151184869
  0
LINE
  5
36
100
AcDbEntity
  8
1
  6
CONTINUOUS
 62
             2
100
AcDbLine
 10
-192.79103349747189
 20
98.31814151184869
 11
-189.29103349747189
 21
98.31814151184869
  0
LINE
  5
35
100
AcDbEntity
  8
1
  6
CONTINUOUS
 62
             2
100
AcDbLine
 10
-192.79103349747189
 20
94.31814151184869
 11
-189.29103349747189
 21
94.31814151184869
  0
LINE
  5
34
100
AcDbEntity
  8
1
  6
CONTINUOUS
 62
             2
100
AcDbLine
 10
-192.79103349747189
 20
90.31814151184869
 11
-189.29103349747189
 21
90.31814151184869
  0
LINE
  5
33
100
AcDbEntity
  8
1
  6
CONTINUOUS
 62
             2
100
AcDbLine
 10
-192.79103349747189
 20
110.0181415118487
 11
-189.29103349747189
 21
110.0181415118487
  0
LINE
  5
32
100
AcDbEntity
  8
1
  6
CONTINUOUS
 62
             2
100
AcDbLine
 10
-192.79103349747189
 20
109.7181415118487
 11
-189.29103349747189
 21
109.7181415118487
  0
LINE
  5
31
100
AcDbEntity
  8
1
  6
CONTINUOUS
 62
             2
100
AcDbLine
 10
-192.79103349747189
 20
106.0181415118487
 11
-189.29103349747189
 21
106.0181415118487
  0
LINE
  5
30
100
AcDbEntity
  8
1
  6
CONTINUOUS
 62
             2
100
AcDbLine
 10
-192.79103349747189
 20
105.7181415118487
 11
-189.29103349747189
 21
105.7181415118487
  0
LINE
  5
2F
100
AcDbEntity
  8
1
  6
CONTINUOUS
 62
             2
100
AcDbLine
 10
-192.79103349747189
 20
102.0181415118487
 11
-189.29103349747189
 21
102.0181415118487
  0
LINE
  5
2E
100
AcDbEntity
  8
1
  6
CONTINUOUS
 62
             2
100
AcDbLine
 10
-192.79103349747189
 20
101.7181415118487
 11
-189.29103349747189
 21
101.7181415118487
  0
LINE
  5
2D
100
AcDbEntity
  8
1
  6
CONTINUOUS
 62
             2
100
AcDbLine
 10
-192.79103349747189
 20
98.0181415118487
 11
-189.29103349747189
 21
98.0181415118487
  0
LINE
  5
2C
100
AcDbEntity
  8
1
  6
CONTINUOUS
 62
             2
100
AcDbLine
 10
-192.79103349747189
 20
97.71814151184869
 11
-189.29103349747189
 21
97.71814151184869
  0
LINE
  5
2B
100
AcDbEntity
  8
1
  6
CONTINUOUS
 62
             2
100
AcDbLine
 10
-192.79103349747189
 20
94.01814151184868
 11
-189.29103349747189
 21
94.01814151184868
  0
LINE
  5
2A
100
AcDbEntity
  8
1
  6
CONTINUOUS
 62
             2
100
AcDbLine
 10
-192.79103349747189
 20
93.71814151184867
 11
-189.29103349747189
 21
93.71814151184867
  0
LINE
  5
29
100
AcDbEntity
  8
1
  6
CONTINUOUS
 62
             2
100
AcDbLine
 10
-192.79103349747189
 20
90.01814151184868
 11
-189.29103349747189
 21
90.01814151184868
  0
LINE
  5
28
100
AcDbEntity
  8
1
  6
CONTINUOUS
 62
             2
100
AcDbLine
 10
-192.79103349747189
 20
89.71814151184867
 11
-189.29103349747189
 21
89.71814151184867
  0
ENDSEC
  0
SECTION
  2
OBJECTS
  0
DICTIONARY
  5
19
100
AcDbDictionary
  3
ACAD_GROUP
350
1A
  3
ACAD_MLINESTYLE
350
1B
  0
DICTIONARY
  5
1A
102
{ACAD_REACTORS
330
19
102
}
100
AcDbDictionary
  0
DICTIONARY
  5
1B
102
{ACAD_REACTORS
330
19
102
}
100
AcDbDictionary
  3
STANDARD
350
1C
  0
MLINESTYLE
  5
1C
102
{ACAD_REACTORS
330
1B
102
}
100
AcDbMlineStyle
  2
STANDARD
 70
             0
  3

 62
             0
 51
90.0
 52
90.0
 71
             2
 49
0.5
 62
           256
  6
BYLAYER
 49
-0.5
 62
           256
  6
BYLAYER
  0
ENDSEC
  0
EOF
