  0
SECTION
  2
HEADER
  9
$ACADVER
  1
AC1009
  9
$INSBASE
 10
0
 20
0
  9
$EXTMIN
 10
-337.6619850562745
 20
38.06175757176477
  9
$EXTMAX
 10
-48.0398028087898
 20
247.5160168546034
  9
$LIMMIN
 10
-337.6619850562745
 20
38.06175757176477
  9
$LIMMAX
 10
-48.0398028087898
 20
247.5160168546034
  9
$VIEWCTR
 10
10
 20
10
  9
$VIEWSIZE
 40
10
  9
$SNAPMODE
 70
0
  9
$SNAPUNIT
 10
1
 20
1
  9
$SNAPBASE
 10
0
 20
0
  9
$SNAPANG
 50
0
  9
$SNAPSTYLE
 70
0
  9
$SNAPISOPAIR
 70
0
  9
$GRIDMODE
 70
0
  9
$GRIDUNIT
 10
0
 20
0
  9
$ORTHOMODE
 70
0
  9
$REGENMODE
 70
1
  9
$FILLMODE
 70
1
  9
$QTEXTMODE
 70
0
  9
$DRAGMODE
 70
2
  9
$LTSCALE
 40
1
  9
$OSMODE
 70
0
  9
$ATTMODE
 70
1
  9
$TEXTSIZE
 40
3.5
  9
$TRACEWID
 40
0.5
  9
$TEXTSTYLE
  7
STANDARD
  9
$CLAYER
  8
0
  9
$CELTYPE
  6
BYLAYER
  9
$CECOLOR
 62
256
  9
$DIMSCALE
 40
1
  9
$DIMASZ
 40
0.18
  9
$DIMEXO
 40
0.0625
  9
$DIMDLI
 40
0.38
  9
$DIMRND
 40
0
  9
$DIMDLE
 40
0
  9
$DIMEXE
 40
0.18
  9
$DIMTP
 40
0
  9
$DIMTM
 40
0
  9
$DIMTXT
 40
0.18
  9
$DIMCEN
 40
0.09
  9
$DIMTSZ
 40
0
  9
$DIMTOL
 70
0
  9
$DIMLIM
 70
0
  9
$DIMTIH
 70
1
  9
$DIMTOH
 70
1
  9
$DIMSE1
 70
0
  9
$DIMSE2
 70
0
  9
$DIMTAD
 70
0
  9
$DIMZIN
 70
0
  9
$DIMBLK
  1

  9
$DIMASO
 70
1
  9
$DIMSHO
 70
1
  9
$DIMPOST
  1

  9
$DIMAPOST
  1

  9
$DIMALT
 70
0
  9
$DIMALTD
 70
2
  9
$DIMALTF
 40
25.4
  9
$DIMLFAC
 40
1
  9
$DIMTOFL
 70
0
  9
$DIMTVP
 40
0
  9
$DIMTIX
 70
0
  9
$DIMSOXD
 70
0
  9
$DIMSAH
 70
0
  9
$DIMBLK1
  1

  9
$DIMBLK2
  1

  9
$DIMSTYLE
  2
*UNNAMED
  9
$DIMCLRD
 70
0
  9
$DIMCLRE
 70
0
  9
$DIMCLRT
 70
0
  9
$DIMTFAC
 40
1
  9
$DIMGAP
 40
0.09
  9
$LUNITS
 70
2
  9
$LUPREC
 70
4
  9
$AXISMODE
 70
0
  9
$AXISUNIT
 10
0
 20
0
  9
$SKETCHINC
 40
0.1
  9
$FILLETRAD
 40
2
  9
$AUNITS
 70
0
  9
$AUPREC
 70
0
  9
$MENU
  1
ACAD
  9
$ELEVATION
 40
0
  9
$THICKNESS
 40
0
  9
$VIEWDIR
 10
0
 20
0
 30
1
  9
$LIMCHECK
 70
0
  9
$BLIPMODE
 70
1
  9
$CHAMFERA
 40
0
  9
$CHAMFERB
 40
0
  9
$FASTZOOM
 70
1
  9
$SKPOLY
 70
0
  9
$ANGBASE
 50
0
  9
$ANGDIR
 70
0
  9
$PDMODE
 70
0
  9
$PDSIZE
 40
0
  9
$PLINEWID
 40
0
  9
$COORDS
 70
2
  0
ENDSEC
  0
SECTION
  2
TABLES
  0
TABLE
  2
DIMSTYLE
 70
11
  0
DIMSTYLE
  2
DMST_1
 70
0
  3

  4

  5

  6

  7

 40
1
 41
3.2
 42
1
 43
7
 44
1
 45
0
 46
0
 47
0.5
 48
0.5
140
3.2
141
0
142
0
143
25.4
144
1
145
0
146
0.6
147
0.09
 71
1
 72
0
 73
0
 74
0
 75
0
 76
0
 77
1
 78
9
170
0
171
2
172
0
173
0
174
0
175
0
176
2
177
2
178
2
  0
DIMSTYLE
  2
DMST_2
 70
0
  3
MAX.
  4

  5

  6

  7

 40
1
 41
3.2
 42
1
 43
7
 44
1
 45
0
 46
0
 47
0
 48
0
140
3.2
141
0
142
0
143
25.4
144
1
145
0
146
1
147
0.09
 71
0
 72
0
 73
0
 74
0
 75
0
 76
0
 77
1
 78
9
170
0
171
2
172
0
173
0
174
0
175
0
176
2
177
2
178
2
  0
DIMSTYLE
  2
DMST_3
 70
0
  3

  4

  5

  6

  7

 40
1
 41
3.2
 42
1
 43
7
 44
1
 45
0
 46
0
 47
0
 48
0
140
3.2
141
0
142
0
143
25.4
144
1
145
0
146
0.6
147
0.09
 71
1
 72
0
 73
0
 74
0
 75
0
 76
0
 77
1
 78
9
170
0
171
2
172
0
173
0
174
0
175
0
176
2
177
2
178
2
  0
DIMSTYLE
  2
DMST_4
 70
0
  3
)
  4

  5

  6

  7

 40
1
 41
3.2
 42
1
 43
7
 44
1
 45
0
 46
0
 47
0
 48
0
140
3.2
141
0
142
0
143
25.4
144
1
145
0
146
1
147
0.09
 71
0
 72
0
 73
0
 74
0
 75
0
 76
0
 77
1
 78
9
170
0
171
2
172
0
173
0
174
0
175
0
176
2
177
2
178
2
  0
DIMSTYLE
  2
DMST_5
 70
0
  3

  4

  5

  6

  7

 40
1
 41
3.2
 42
0
 43
7
 44
1
 45
0
 46
0
 47
0
 48
0
140
3.2
141
0
142
0
143
25.4
144
1
145
0
146
0.6
147
0.09
 71
1
 72
0
 73
0
 74
0
 75
0
 76
0
 77
1
 78
9
170
0
171
2
172
0
173
0
174
0
175
0
176
2
177
2
178
2
  0
DIMSTYLE
  2
DMST_6
 70
0
  3

  4

  5

  6

  7

 40
1
 41
3.200000000000001
 42
1
 43
7
 44
1
 45
0
 46
0
 47
0.2
 48
0.2
140
3.200000000000001
141
0
142
0
143
25.4
144
1
145
0
146
0.6
147
0.09
 71
1
 72
0
 73
0
 74
0
 75
0
 76
0
 77
1
 78
9
170
0
171
2
172
0
173
0
174
0
175
0
176
2
177
2
178
2
  0
DIMSTYLE
  2
DMST_7
 70
0
  3
)
  4

  5

  6

  7

 40
1
 41
3.2
 42
1
 43
7
 44
1.5
 45
0
 46
0
 47
0
 48
0
140
3.2
141
0
142
0
143
25.4
144
1
145
0
146
1
147
0.09
 71
0
 72
0
 73
0
 74
0
 75
0
 76
0
 77
1
 78
9
170
0
171
2
172
0
173
0
174
0
175
0
176
2
177
2
178
2
  0
DIMSTYLE
  2
DMST_8
 70
0
  3

  4

  5

  6

  7

 40
1
 41
3.2
 42
1
 43
7
 44
1.5
 45
0
 46
0
 47
40
 48
0
140
3.2
141
0
142
0
143
25.4
144
1
145
0
146
0.7
147
0.09
 71
1
 72
0
 73
0
 74
0
 75
0
 76
0
 77
1
 78
9
170
0
171
2
172
0
173
0
174
0
175
0
176
2
177
2
178
2
  0
DIMSTYLE
  2
DMST_9
 70
0
  3

  4

  5

  6

  7

 40
1
 41
3.2
 42
1
 43
7
 44
1.5
 45
0
 46
0
 47
0.2
 48
0.2
140
3.2
141
0
142
0
143
25.4
144
1
145
0
146
0.7
147
0.09
 71
1
 72
0
 73
0
 74
0
 75
0
 76
0
 77
1
 78
9
170
0
171
2
172
0
173
0
174
0
175
0
176
2
177
2
178
2
  0
DIMSTYLE
  2
DMST_10
 70
0
  3

  4

  5

  6

  7

 40
1
 41
3.2
 42
1
 43
7
 44
1.5
 45
0
 46
0
 47
0.1
 48
0.1
140
3.2
141
0
142
0
143
25.4
144
1
145
0
146
0.7
147
0.09
 71
1
 72
0
 73
0
 74
0
 75
0
 76
0
 77
1
 78
9
170
0
171
2
172
0
173
0
174
0
175
0
176
2
177
2
178
2
  0
DIMSTYLE
  2
DMST_11
 70
0
  3

  4

  5

  6

  7

 40
1
 41
3.2
 42
1
 43
7
 44
1.5
 45
0
 46
0
 47
0
 48
0.011
140
3.2
141
0
142
0
143
25.4
144
1
145
0
146
0.7
147
0.09
 71
1
 72
0
 73
0
 74
0
 75
0
 76
0
 77
1
 78
9
170
0
171
2
172
0
173
0
174
0
175
0
176
2
177
2
178
2
  0
ENDTAB
  0
TABLE
  2
LTYPE
 70
9
  0
LTYPE
  2
CONTINUOUS
 70
64
  3
Solid line
 72
65
 73
0
 40
0
  0
LTYPE
  2
BORDER
 70
64
  3
__ __ . __ __ .
 72
65
 73
6
 40
13.33786365613416
 49
3.810818187466904
 49
-1.905409093733452
 49
3.810818187466904
 49
-1.905409093733452
 49
0
 49
-1.905409093733452
  0
LTYPE
  2
CENTER
 70
64
  3
____ _ ____ _
 72
65
 73
4
 40
15.24327274986762
 49
9.527045468667261
 49
-1.905409093733452
 49
1.905409093733452
 49
-1.905409093733452
  0
LTYPE
  2
DASHDOT
 70
64
  3
__ . __ . __ .
 72
65
 73
4
 40
7.621636374933808
 49
3.810818187466904
 49
-1.905409093733452
 49
0
 49
-1.905409093733452
  0
LTYPE
  2
DASHED
 70
64
  3
__ __ __ __ __
 72
65
 73
2
 40
5.716227281200356
 49
3.810818187466904
 49
-1.905409093733452
  0
LTYPE
  2
DIVIDE
 70
64
  3
__ . . __ . . 
 72
65
 73
6
 40
9.527045468667261
 49
3.810818187466904
 49
-1.905409093733452
 49
0
 49
-1.905409093733452
 49
0
 49
-1.905409093733452
  0
LTYPE
  2
DOT
 70
64
  3
..............
 72
65
 73
4
 40
3.810818187466904
 49
0
 49
-1.905409093733452
 49
0
 49
-1.905409093733452
  0
LTYPE
  2
HIDDEN
 70
64
  3
_ _ _ _ _ _ _
 72
65
 73
2
 40
2.858113640600178
 49
1.905409093733452
 49
-0.952704546866726
  0
LTYPE
  2
PHANTOM
 70
64
  3
_____ _ _ _____ _ _ 
 72
65
 73
6
 40
19.05409093733452
 49
9.527045468667261
 49
-1.905409093733452
 49
1.905409093733452
 49
-1.905409093733452
 49
1.905409093733452
 49
-1.905409093733452
  0
ENDTAB
  0
TABLE
  2
LAYER
 70
5
  0
LAYER
  2
1
 70
0
 62
7
  6
CONTINUOUS
  0
LAYER
  2
2
 70
0
 62
7
  6
CONTINUOUS
  0
LAYER
  2
4
 70
0
 62
7
  6
CONTINUOUS
  0
LAYER
  2
0
 70
0
 62
7
  6
CONTINUOUS
  0
ENDTAB
  0
TABLE
  2
STYLE
 70
4
  0
STYLE
  2
STANDARD
 70
0
 40
0
 41
1
 50
0
 71
0
 42
3.5
  3
txt
  4

  0
STYLE
  2
SIMPLEX
 70
0
 40
0
 41
1
 50
0
 71
0
 42
3.5
  3
simplex
  4

  0
STYLE
  2
COMPLEX
 70
0
 40
0
 41
1
 50
0
 71
0
 42
3.5
  3
complex
  4

  0
STYLE
  2
ITALIC
 70
0
 40
0
 41
1
 50
0
 71
0
 42
3.5
  3
italic
  4

  0
ENDTAB
  0
TABLE
  2
VIEW
 70
0
  0
ENDTAB
  0
ENDSEC
  0
SECTION
  2
BLOCKS
  0
BLOCK
  8
1
  2
*D0
 70
1
 10
0
 20
0
 30
0
  0
LINE
  8
1
 62
2
 10
-170.2661590091715
 20
242.3160168546034
 30
0
 11
-146.2661934923953
 21
242.3160168546034
 31
0
  0
LINE
  8
1
 62
2
 10
-170.2661590091715
 20
183.7170729120393
 30
0
 11
-170.2661590091715
 21
243.3160168546034
 31
0
  0
LINE
  8
1
 62
2
 10
-146.2661934923953
 20
201.7170729120393
 30
0
 11
-146.2661934923953
 21
243.3160168546034
 31
0
  0
SOLID
  8
1
 62
2
 10
-170.2661590091715
 20
242.3160168546034
 30
0
 11
-167.0661590091715
 21
242.7320168546034
 31
0
 12
-167.0661590091715
 22
241.9000168546034
 32
0
 13
-167.0661590091715
 23
241.9000168546034
 33
0
  0
SOLID
  8
1
 62
2
 10
-146.2661934923953
 20
242.3160168546034
 30
0
 11
-149.4661934923953
 21
241.9000168546034
 31
0
 12
-149.4661934923953
 22
242.7320168546034
 32
0
 13
-149.4661934923953
 23
242.7320168546034
 33
0
  0
TEXT
  8
1
 62
2
 10
-164.821478244798
 20
244.3160168546034
 30
0
 40
3.2
  1
24
 41
0.9
  0
TEXT
  8
1
 62
2
 10
-158.421478244798
 20
244.9560168546034
 30
0
 40
1.92
  1
%%p0.5
 41
0.9
  0
ENDBLK
  8
0
  0
BLOCK
  8
0
  2
*D1
 70
1
 10
0
 20
0
 30
0
  0
LINE
  8
0
 62
2
 10
-146.2661934923953
 20
242.3160168546033
 30
0
 11
-96.6661859923953
 21
242.3160168546033
 31
0
  0
LINE
  8
0
 62
2
 10
-146.2661934923953
 20
201.3480646216076
 30
0
 11
-146.2661934923953
 21
243.3160168546033
 31
0
  0
LINE
  8
0
 62
2
 10
-96.6661859923953
 20
201.7170729120392
 30
0
 11
-96.6661859923953
 21
243.3160168546033
 31
0
  0
SOLID
  8
0
 62
2
 10
-146.2661934923953
 20
242.3160168546033
 30
0
 11
-143.0661934923953
 21
242.7320168546033
 31
0
 12
-143.0661934923953
 22
241.9000168546033
 32
0
 13
-143.0661934923953
 23
241.9000168546033
 33
0
  0
SOLID
  8
0
 62
2
 10
-96.6661859923953
 20
242.3160168546033
 30
0
 11
-99.8661859923953
 21
241.9000168546033
 31
0
 12
-99.8661859923953
 22
242.7320168546033
 32
0
 13
-99.8661859923953
 23
242.7320168546033
 33
0
  0
TEXT
  8
0
 62
2
 10
-134.203963656898
 20
243.9160168546033
 30
0
 40
3.2
  1
50
 41
0.9
  0
TEXT
  8
0
 62
2
 10
-127.803963656898
 20
243.9160168546033
 30
0
 40
3.2
  1
MAX.
 41
0.9
  0
ENDBLK
  8
0
  0
BLOCK
  8
0
  2
*D2
 70
1
 10
0
 20
0
 30
0
  0
LINE
  8
0
 62
2
 10
-139.8661934923953
 20
232.1735540638553
 30
0
 11
-146.2661934923953
 21
232.1735540638553
 31
0
  0
LINE
  8
0
 62
2
 10
-148.2661934923953
 20
232.1735540638553
 30
0
 11
-146.2661934923953
 21
232.1735540638553
 31
0
  0
LINE
  8
0
 62
2
 10
-148.2661934923953
 20
232.1735540638553
 30
0
 11
-158.955676299745
 21
232.1735540638553
 31
0
  0
LINE
  8
0
 62
2
 10
-148.2661934923953
 20
192.7170729120392
 30
0
 11
-148.2661934923953
 21
233.1735540638553
 31
0
  0
LINE
  8
0
 62
2
 10
-146.2661934923953
 20
201.3480646216076
 30
0
 11
-146.2661934923953
 21
233.1735540638553
 31
0
  0
SOLID
  8
0
 62
2
 10
-148.2661934923953
 20
232.1735540638553
 30
0
 11
-151.4661934923953
 21
231.7575540638553
 31
0
 12
-151.4661934923953
 22
232.5895540638553
 32
0
 13
-151.4661934923953
 23
232.5895540638553
 33
0
  0
SOLID
  8
0
 62
2
 10
-146.2661934923953
 20
232.1735540638553
 30
0
 11
-143.0661934923953
 21
232.5895540638553
 31
0
 12
-143.0661934923953
 22
231.7575540638553
 32
0
 13
-143.0661934923953
 23
231.7575540638553
 33
0
  0
TEXT
  8
0
 62
2
 10
-158.955676299745
 20
233.7735540638553
 30
0
 40
3.2
  1
2
 41
0.9
  0
TEXT
  8
0
 62
2
 10
-155.435676299745
 20
234.4135540638553
 30
0
 40
1.92
  1
%%p0.2
 41
0.9
  0
ENDBLK
  8
0
  0
BLOCK
  8
0
  2
*D3
 70
1
 10
0
 20
0
 30
0
  0
LINE
  8
0
 62
2
 10
-191.723579460556
 20
169.7170729120393
 30
0
 11
-191.723579460556
 21
191.7170729120392
 31
0
  0
LINE
  8
0
 62
2
 10
-149.2662934923954
 20
169.7170729120393
 30
0
 11
-192.723579460556
 21
169.7170729120393
 31
0
  0
LINE
  8
0
 62
2
 10
-149.2661934923953
 20
191.7170729120392
 30
0
 11
-192.723579460556
 21
191.7170729120392
 31
0
  0
SOLID
  8
0
 62
2
 10
-191.723579460556
 20
191.7170729120392
 30
0
 11
-191.307579460556
 21
188.5170729120392
 31
0
 12
-192.139579460556
 22
188.5170729120392
 32
0
 13
-192.139579460556
 23
188.5170729120392
 33
0
  0
SOLID
  8
0
 62
2
 10
-191.723579460556
 20
169.7170729120393
 30
0
 11
-192.139579460556
 21
172.9170729120393
 31
0
 12
-191.307579460556
 22
172.9170729120393
 32
0
 13
-191.307579460556
 23
172.9170729120393
 33
0
  0
TEXT
  8
0
 62
2
 10
-194.123579460556
 20
176.0232107379393
 30
0
 40
3.2
  1
22
 50
90
 41
0.9
  0
TEXT
  8
0
 62
2
 10
-196.203579460556
 20
182.4232107379393
 30
0
 40
1.92
  1
0
 50
90
 41
0.9
  0
TEXT
  8
0
 62
2
 10
-193.323579460556
 20
182.4232107379393
 30
0
 40
1.92
  1
-0.05
 50
90
 41
0.9
  0
TEXT
  8
0
 62
2
 10
-194.123579460556
 20
172.1832107379393
 30
0
 40
3.2
  1
%%c
 50
90
 41
0.9
  0
ENDBLK
  8
0
  0
BLOCK
  8
0
  2
*D4
 70
1
 10
0
 20
0
 30
0
  0
LINE
  8
0
 62
2
 10
-316.1671417786903
 20
226.7170729120392
 30
0
 11
-274.167140587871
 21
226.7170729120392
 31
0
  0
LINE
  8
0
 62
2
 10
-274.167140587871
 20
197.7170729120392
 30
0
 11
-274.167140587871
 21
227.7170729120392
 31
0
  0
LINE
  8
0
 62
2
 10
-316.1671417786903
 20
197.7170741028588
 30
0
 11
-316.1671417786903
 21
227.7170729120392
 31
0
  0
SOLID
  8
0
 62
2
 10
-316.1671417786903
 20
226.7170729120392
 30
0
 11
-312.9671417786903
 21
227.1330729120392
 31
0
 12
-312.9671417786903
 22
226.3010729120392
 32
0
 13
-312.9671417786903
 23
226.3010729120392
 33
0
  0
SOLID
  8
0
 62
2
 10
-274.167140587871
 20
226.7170729120392
 30
0
 11
-277.367140587871
 21
226.3010729120392
 31
0
 12
-277.367140587871
 22
227.1330729120392
 32
0
 13
-277.367140587871
 23
227.1330729120392
 33
0
  0
TEXT
  8
0
 62
2
 10
-297.5671411832807
 20
228.3170729120392
 30
0
 40
3.2
  1
42
 41
0.9
  0
TEXT
  8
0
 62
2
 10
-299.6471411832807
 20
228.3170729120392
 30
0
 40
3.2
  1
(
 41
0.9
  0
TEXT
  8
0
 62
2
 10
-291.1671411832807
 20
228.3170729120392
 30
0
 40
3.2
  1
)
 41
0.9
  0
ENDBLK
  8
0
  0
BLOCK
  8
0
  2
*D5
 70
1
 10
0
 20
0
 30
0
  0
LINE
  8
0
 62
2
 10
-310.6671305878709
 20
216.7170729120392
 30
0
 11
-279.667140587871
 21
216.7170729120392
 31
0
  0
LINE
  8
0
 62
2
 10
-310.6671305878709
 20
198.7170729120392
 30
0
 11
-310.6671305878709
 21
217.7170729120392
 31
0
  0
LINE
  8
0
 62
2
 10
-279.667140587871
 20
198.7170729120392
 30
0
 11
-279.667140587871
 21
217.7170729120392
 31
0
  0
SOLID
  8
0
 62
2
 10
-310.6671305878709
 20
216.7170729120392
 30
0
 11
-307.4671305878709
 21
217.1330729120392
 31
0
 12
-307.4671305878709
 22
216.3010729120392
 32
0
 13
-307.4671305878709
 23
216.3010729120392
 33
0
  0
SOLID
  8
0
 62
2
 10
-279.667140587871
 20
216.7170729120392
 30
0
 11
-282.867140587871
 21
216.3010729120392
 31
0
 12
-282.867140587871
 22
217.1330729120392
 32
0
 13
-282.867140587871
 23
217.1330729120392
 33
0
  0
TEXT
  8
0
 62
2
 10
-300.311140587871
 20
218.3170729120392
 30
0
 40
3.2
  1
31
 41
0.9
  0
TEXT
  8
0
 62
2
 10
-294.871140587871
 20
218.9570729120392
 30
0
 40
1.92
  1
%%p0.2
 41
0.9
  0
ENDBLK
  8
0
  0
BLOCK
  8
1
  2
*D6
 70
1
 10
0
 20
0
 30
0
  0
LINE
  8
1
 62
2
 10
-256.7447548785098
 20
165.2170729120393
 30
0
 11
-256.7447548785098
 21
196.2170729120392
 31
0
  0
LINE
  8
1
 62
2
 10
-276.1671405878712
 20
196.2170729120392
 30
0
 11
-255.7447548785097
 21
196.2170729120392
 31
0
  0
LINE
  8
1
 62
2
 10
-276.1671405878712
 20
165.2170729120393
 30
0
 11
-255.7447548785097
 21
165.2170729120393
 31
0
  0
SOLID
  8
1
 62
2
 10
-256.7447548785098
 20
196.2170729120392
 30
0
 11
-256.3287548785098
 21
193.0170729120392
 31
0
 12
-257.1607548785098
 22
193.0170729120392
 32
0
 13
-257.1607548785098
 23
193.0170729120392
 33
0
  0
SOLID
  8
1
 62
2
 10
-256.7447548785098
 20
165.2170729120393
 30
0
 11
-257.1607548785098
 21
168.4170729120393
 31
0
 12
-256.3287548785098
 22
168.4170729120393
 32
0
 13
-256.3287548785098
 23
168.4170729120393
 33
0
  0
TEXT
  8
1
 62
2
 10
-258.7447548785097
 20
176.147499179405
 30
0
 40
3.200000000000001
  1
31
 50
90
 41
0.9
  0
TEXT
  8
1
 62
2
 10
-259.3847548785097
 20
181.587499179405
 30
0
 40
1.920000000000001
  1
%%p0.2
 50
90
 41
0.9
  0
ENDBLK
  8
0
  0
BLOCK
  8
1
  2
*D7
 70
1
 10
0
 20
0
 30
0
  0
LINE
  8
1
 62
2
 10
-323.3345351292836
 20
86.89900830326839
 30
0
 11
-323.3345351292836
 21
93.29900830326839
 31
0
  0
LINE
  8
1
 62
2
 10
-323.3345351292836
 20
93.29900830326839
 30
0
 11
-323.3345351292836
 21
96.79900830326839
 31
0
  0
LINE
  8
1
 62
2
 10
-323.3345351292836
 20
96.79900830326839
 30
0
 11
-323.3345351292836
 21
108.5397154809783
 31
0
  0
LINE
  8
1
 62
2
 10
-302.5171405878712
 20
93.29900830326839
 30
0
 11
-324.8345351292836
 21
93.29900830326839
 31
0
  0
LINE
  8
1
 62
2
 10
-302.8371405878712
 20
96.79900830326839
 30
0
 11
-324.8345351292836
 21
96.79900830326839
 31
0
  0
SOLID
  8
1
 62
2
 10
-323.3345351292836
 20
96.79900830326839
 30
0
 11
-323.7505351292836
 21
99.9990083032684
 31
0
 12
-322.9185351292836
 22
99.9990083032684
 32
0
 13
-322.9185351292836
 23
99.9990083032684
 33
0
  0
SOLID
  8
1
 62
2
 10
-323.3345351292836
 20
93.29900830326839
 30
0
 11
-322.9185351292836
 21
90.09900830326839
 31
0
 12
-323.7505351292836
 22
90.09900830326839
 32
0
 13
-323.7505351292836
 23
90.09900830326839
 33
0
  0
TEXT
  8
1
 62
2
 10
-325.3345351292835
 20
100.6197154809783
 30
0
 40
3.2
  1
3.5
 50
90
 41
0.9
  0
TEXT
  8
1
 62
2
 10
-325.3345351292835
 20
98.29971548097829
 30
0
 40
3.2
  1
(
 50
90
 41
1.35
  0
TEXT
  8
1
 62
2
 10
-325.3345351292835
 20
108.0597154809783
 30
0
 40
3.2
  1
)
 50
90
 41
0.9
  0
ENDBLK
  8
0
  0
BLOCK
  8
1
  2
*D8
 70
1
 10
0
 20
0
 30
0
  0
LINE
  8
1
 62
2
 10
-330.0619850562745
 20
93.29900830326841
 30
0
 11
-330.0619850562745
 21
153.2170729120394
 31
0
  0
LINE
  8
1
 62
2
 10
-302.5171405878712
 20
93.29900830326841
 30
0
 11
-331.5619850562745
 21
93.29900830326841
 31
0
  0
LINE
  8
1
 62
2
 10
-308.1671405878711
 20
153.2170729120394
 30
0
 11
-331.5619850562745
 21
153.2170729120394
 31
0
  0
SOLID
  8
1
 62
2
 10
-330.0619850562745
 20
153.2170729120394
 30
0
 11
-329.6459850562745
 21
150.0170729120394
 31
0
 12
-330.4779850562745
 22
150.0170729120394
 32
0
 13
-330.4779850562745
 23
150.0170729120394
 33
0
  0
SOLID
  8
1
 62
2
 10
-330.0619850562745
 20
93.29900830326841
 30
0
 11
-330.4779850562745
 21
96.49900830326841
 31
0
 12
-329.6459850562745
 22
96.49900830326841
 32
0
 13
-329.6459850562745
 23
96.49900830326841
 33
0
  0
TEXT
  8
1
 62
2
 10
-333.2619850562745
 20
110.1015590114593
 30
0
 40
3.2
  1
300
 50
90
 41
0.9
  0
TEXT
  8
1
 62
2
 10
-335.4219850562745
 20
119.3815590114593
 30
0
 40
2.24
  1
+40
 50
90
 41
0.9900000000000001
  0
TEXT
  8
1
 62
2
 10
-332.0619850562745
 20
119.3815590114593
 30
0
 40
2.24
  1
 0
 50
90
 41
0.9900000000000001
  0
ENDBLK
  8
0
  0
BLOCK
  8
1
  2
*D9
 70
1
 10
0
 20
0
 30
0
  0
LINE
  8
1
 62
2
 10
-170.2661643154668
 20
222.2154996874853
 30
0
 11
-155.2661627675622
 21
222.2154996874853
 31
0
  0
LINE
  8
1
 62
2
 10
-170.2661643154668
 20
183.7170729120392
 30
0
 11
-170.2661643154668
 21
223.7154996874853
 31
0
  0
LINE
  8
1
 62
2
 10
-155.2661627675622
 20
184.2170729120392
 30
0
 11
-155.2661627675622
 21
223.7154996874853
 31
0
  0
SOLID
  8
1
 62
2
 10
-170.2661643154668
 20
222.2154996874853
 30
0
 11
-167.0661643154668
 21
222.6314996874853
 31
0
 12
-167.0661643154668
 22
221.7994996874853
 32
0
 13
-167.0661643154668
 23
221.7994996874853
 33
0
  0
SOLID
  8
1
 62
2
 10
-155.2661627675622
 20
222.2154996874853
 30
0
 11
-158.4661627675622
 21
221.7994996874853
 31
0
 12
-158.4661627675622
 22
222.6314996874853
 32
0
 13
-158.4661627675622
 23
222.6314996874853
 33
0
  0
TEXT
  8
1
 62
2
 10
-168.90085494672
 20
224.2154996874853
 30
0
 40
3.2
  1
15
 41
0.9
  0
TEXT
  8
1
 62
2
 10
-163.46085494672
 20
224.6954996874853
 30
0
 40
2.24
  1
%%p0.2
 41
0.9900000000000001
  0
ENDBLK
  8
0
  0
BLOCK
  8
1
  2
*D10
 70
1
 10
0
 20
0
 30
0
  0
LINE
  8
1
 62
2
 10
-174.343692916356
 20
189.1170729120392
 30
0
 11
-174.343692916356
 21
182.7170729120392
 31
0
  0
LINE
  8
1
 62
2
 10
-174.343692916356
 20
178.2170729120392
 30
0
 11
-174.343692916356
 21
182.7170729120392
 31
0
  0
LINE
  8
1
 62
2
 10
-174.343692916356
 20
178.2170729120392
 30
0
 11
-174.343692916356
 21
155.8337036183483
 31
0
  0
LINE
  8
1
 62
2
 10
-171.2661782459609
 20
178.2170729120392
 30
0
 11
-175.843692916356
 21
178.2170729120392
 31
0
  0
LINE
  8
1
 62
2
 10
-171.2661643154668
 20
182.7170729120392
 30
0
 11
-175.843692916356
 21
182.7170729120392
 31
0
  0
SOLID
  8
1
 62
2
 10
-174.343692916356
 20
182.7170729120392
 30
0
 11
-174.759692916356
 21
185.9170729120392
 31
0
 12
-173.927692916356
 22
185.9170729120392
 32
0
 13
-173.927692916356
 23
185.9170729120392
 33
0
  0
SOLID
  8
1
 62
2
 10
-174.343692916356
 20
178.2170729120392
 30
0
 11
-173.927692916356
 21
175.0170729120392
 31
0
 12
-174.759692916356
 22
175.0170729120392
 32
0
 13
-174.759692916356
 23
175.0170729120392
 33
0
  0
TEXT
  8
1
 62
2
 10
-176.343692916356
 20
155.8337036183483
 30
0
 40
3.2
  1
4.5
 50
90
 41
0.9
  0
TEXT
  8
1
 62
2
 10
-176.823692916356
 20
163.2737036183483
 30
0
 40
2.24
  1
%%p0.1
 50
90
 41
0.9900000000000001
  0
ENDBLK
  8
0
  0
BLOCK
  8
1
  2
*D11
 70
1
 10
0
 20
0
 30
0
  0
LINE
  8
1
 62
2
 10
-180.249479606133
 20
178.2170729120392
 30
0
 11
-180.249479606133
 21
183.2170729120392
 31
0
  0
LINE
  8
1
 62
2
 10
-180.249479606133
 20
178.2170729120392
 30
0
 11
-180.249479606133
 21
171.8170729120392
 31
0
  0
LINE
  8
1
 62
2
 10
-180.249479606133
 20
183.2170729120392
 30
0
 11
-180.249479606133
 21
189.6170729120392
 31
0
  0
LINE
  8
1
 62
2
 10
-171.2661782459609
 20
178.2170729120392
 30
0
 11
-181.749479606133
 21
178.2170729120392
 31
0
  0
LINE
  8
1
 62
2
 10
-156.2661627675622
 20
183.2170729120392
 30
0
 11
-181.749479606133
 21
183.2170729120392
 31
0
  0
SOLID
  8
1
 62
2
 10
-180.249479606133
 20
183.2170729120392
 30
0
 11
-180.665479606133
 21
186.4170729120392
 31
0
 12
-179.833479606133
 22
186.4170729120392
 32
0
 13
-179.833479606133
 23
186.4170729120392
 33
0
  0
SOLID
  8
1
 62
2
 10
-180.249479606133
 20
178.2170729120392
 30
0
 11
-179.833479606133
 21
175.0170729120392
 31
0
 12
-180.665479606133
 22
175.0170729120392
 32
0
 13
-180.665479606133
 23
175.0170729120392
 33
0
  0
TEXT
  8
1
 62
2
 10
-183.449479606133
 20
177.0188416181514
 30
0
 40
3.2
  1
5
 50
90
 41
0.9
  0
TEXT
  8
1
 62
2
 10
-185.609479606133
 20
180.5388416181514
 30
0
 40
2.24
  1
 0
 50
90
 41
0.9900000000000001
  0
TEXT
  8
1
 62
2
 10
-182.249479606133
 20
180.5388416181514
 30
0
 40
2.24
  1
-0.011
 50
90
 41
0.9900000000000001
  0
TEXT
  8
1
 62
2
 10
-183.449479606133
 20
171.7482533828572
 30
0
 40
3.2
  1
âË
 50
90
 41
1.35
  0
ENDBLK
  8
0
  0
BLOCK
  8
1
  2
*D12
 70
1
 10
0
 20
0
 30
0
  0
LINE
  8
1
 62
2
 10
-96.6661859923953
 20
242.3160168546034
 30
0
 11
-80.66619274239422
 21
242.3160168546034
 31
0
  0
LINE
  8
1
 62
2
 10
-96.6661859923953
 20
201.7170729120393
 30
0
 11
-96.6661859923953
 21
243.8160168546034
 31
0
  0
LINE
  8
1
 62
2
 10
-80.66619274239422
 20
183.7170729120393
 30
0
 11
-80.66619274239422
 21
243.8160168546034
 31
0
  0
SOLID
  8
1
 62
2
 10
-96.6661859923953
 20
242.3160168546034
 30
0
 11
-93.4661859923953
 21
242.7320168546034
 31
0
 12
-93.4661859923953
 22
241.9000168546034
 32
0
 13
-93.4661859923953
 23
241.9000168546034
 33
0
  0
SOLID
  8
1
 62
2
 10
-80.66619274239422
 20
242.3160168546034
 30
0
 11
-83.86619274239422
 21
241.9000168546034
 31
0
 12
-83.86619274239422
 22
242.7320168546034
 32
0
 13
-83.86619274239422
 23
242.7320168546034
 33
0
  0
TEXT
  8
1
 62
2
 10
-90.3798258627335
 20
244.3160168546034
 30
0
 40
3.2
  1
16
 41
0.9
  0
TEXT
  8
1
 62
2
 10
-92.69982586273351
 20
244.3160168546034
 30
0
 40
3.2
  1
(
 41
1.35
  0
TEXT
  8
1
 62
2
 10
-84.9398258627335
 20
244.3160168546034
 30
0
 40
3.2
  1
)
 41
0.9
  0
ENDBLK
  8
0
  0
BLOCK
  8
1
  2
*D13
 70
1
 10
0
 20
0
 30
0
  0
LINE
  8
1
 62
2
 10
-95.66619255489528
 20
222.2154996874853
 30
0
 11
-80.66619274239422
 21
222.2154996874853
 31
0
  0
LINE
  8
1
 62
2
 10
-95.66619255489528
 20
184.2170729120392
 30
0
 11
-95.66619255489528
 21
223.7154996874853
 31
0
  0
LINE
  8
1
 62
2
 10
-80.66619274239422
 20
183.7170729120392
 30
0
 11
-80.66619274239422
 21
223.7154996874853
 31
0
  0
SOLID
  8
1
 62
2
 10
-95.66619255489528
 20
222.2154996874853
 30
0
 11
-92.46619255489527
 21
222.6314996874853
 31
0
 12
-92.46619255489527
 22
221.7994996874853
 32
0
 13
-92.46619255489527
 23
221.7994996874853
 33
0
  0
SOLID
  8
1
 62
2
 10
-80.66619274239422
 20
222.2154996874853
 30
0
 11
-83.86619274239422
 21
221.7994996874853
 31
0
 12
-83.86619274239422
 22
222.6314996874853
 32
0
 13
-83.86619274239422
 23
222.6314996874853
 33
0
  0
TEXT
  8
1
 62
2
 10
-94.04817861624839
 20
224.2154996874853
 30
0
 40
3.2
  1
15
 41
0.9
  0
TEXT
  8
1
 62
2
 10
-88.6081786162484
 20
224.6954996874853
 30
0
 40
2.24
  1
%%p0.2
 41
0.9900000000000001
  0
ENDBLK
  8
0
  0
BLOCK
  8
1
  2
*D14
 70
1
 10
0
 20
0
 30
0
  0
LINE
  8
1
 62
2
 10
-61.7642330926909
 20
171.8170729120392
 30
0
 11
-61.7642330926909
 21
178.2170729120392
 31
0
  0
LINE
  8
1
 62
2
 10
-61.7642330926909
 20
178.2170729120392
 30
0
 11
-61.7642330926909
 21
183.2170729120392
 31
0
  0
LINE
  8
1
 62
2
 10
-61.7642330926909
 20
183.2170729120392
 30
0
 11
-61.7642330926909
 21
204.7758478776904
 31
0
  0
LINE
  8
1
 62
2
 10
-79.66619442989422
 20
178.2170729120392
 30
0
 11
-60.2642330926909
 21
178.2170729120392
 31
0
  0
LINE
  8
1
 62
2
 10
-94.66619255489528
 20
183.2170729120392
 30
0
 11
-60.2642330926909
 21
183.2170729120392
 31
0
  0
SOLID
  8
1
 62
2
 10
-61.7642330926909
 20
183.2170729120392
 30
0
 11
-62.18023309269091
 21
186.4170729120392
 31
0
 12
-61.3482330926909
 22
186.4170729120392
 32
0
 13
-61.3482330926909
 23
186.4170729120392
 33
0
  0
SOLID
  8
1
 62
2
 10
-61.7642330926909
 20
178.2170729120392
 30
0
 11
-61.3482330926909
 21
175.0170729120392
 31
0
 12
-62.1802330926909
 22
175.0170729120392
 32
0
 13
-62.1802330926909
 23
175.0170729120392
 33
0
  0
TEXT
  8
1
 62
2
 10
-64.9642330926909
 20
191.8310478776904
 30
0
 40
3.2
  1
5
 50
90
 41
0.9
  0
TEXT
  8
1
 62
2
 10
-67.1242330926909
 20
195.3510478776904
 30
0
 40
2.24
  1
 0
 50
90
 41
0.9900000000000001
  0
TEXT
  8
1
 62
2
 10
-63.7642330926909
 20
195.3510478776904
 30
0
 40
2.24
  1
-0.011
 50
90
 41
0.9900000000000001
  0
TEXT
  8
1
 62
2
 10
-64.9642330926909
 20
186.5604596423962
 30
0
 40
3.2
  1
âË
 50
90
 41
1.35
  0
ENDBLK
  8
0
  0
BLOCK
  8
1
  2
*D15
 70
1
 10
0
 20
0
 30
0
  0
LINE
  8
1
 62
2
 10
-71.89681258741155
 20
171.8170696235206
 30
0
 11
-71.89681018741155
 21
178.2170696235201
 31
0
  0
LINE
  8
1
 62
2
 10
-71.89681018741155
 20
178.2170696235201
 30
0
 11
-71.89680849991154
 21
182.7170696235201
 31
0
  0
LINE
  8
1
 62
2
 10
-71.89680849991154
 20
182.7170696235201
 30
0
 11
-71.8968017874265
 21
200.6170297126269
 31
0
  0
LINE
  8
1
 62
2
 10
-79.66619442989429
 20
178.2170725370392
 30
0
 11
-70.39681018741165
 21
178.2170690610201
 31
0
  0
LINE
  8
1
 62
2
 10
-79.66619274239429
 20
182.7170725370392
 30
0
 11
-70.39680849991164
 21
182.7170690610201
 31
0
  0
SOLID
  8
1
 62
2
 10
-71.89680849991154
 20
182.7170696235201
 30
0
 11
-72.31280729991151
 21
185.9170697795199
 31
0
 12
-71.48080729991158
 22
185.9170694675199
 32
0
 13
-71.48080729991158
 23
185.9170694675199
 33
0
  0
SOLID
  8
1
 62
2
 10
-71.89681018741155
 20
178.2170696235201
 30
0
 11
-71.48081138741158
 21
175.0170694675203
 31
0
 12
-72.31281138741151
 22
175.0170697795203
 32
0
 13
-72.31281138741151
 23
175.0170697795203
 33
0
  0
TEXT
  8
1
 62
2
 10
-73.89680663332636
 20
187.6946304626277
 30
0
 40
3.2
  1
4.5
 50
89.99997851408264
 41
0.9
  0
TEXT
  8
1
 62
2
 10
-74.37680384332633
 20
195.1346306426272
 30
0
 40
2.24
  1
%%p0.1
 50
89.99997851408264
 41
0.9900000000000001
  0
ENDBLK
  8
0
  0
BLOCK
  8
1
  2
*D16
 70
1
 10
0
 20
0
 30
0
  0
LINE
  8
1
 62
2
 10
-249.1671841136415
 20
166.1170743868716
 30
0
 11
-249.1671841136415
 21
159.7170743868716
 31
0
  0
LINE
  8
1
 62
2
 10
-249.1671841136415
 20
155.1670729120393
 30
0
 11
-249.1671841136415
 21
159.7170743868716
 31
0
  0
LINE
  8
1
 62
2
 10
-249.1671841136415
 20
155.1670729120393
 30
0
 11
-249.1671841136415
 21
143.5148602687547
 31
0
  0
LINE
  8
1
 62
2
 10
-282.2171405878713
 20
155.1670729120393
 30
0
 11
-247.6671841136415
 21
155.1670729120393
 31
0
  0
LINE
  8
1
 62
2
 10
-278.1671420627031
 20
159.7170743868716
 30
0
 11
-247.6671841136415
 21
159.7170743868716
 31
0
  0
SOLID
  8
1
 62
2
 10
-249.1671841136415
 20
159.7170743868716
 30
0
 11
-249.5831841136415
 21
162.9170743868716
 31
0
 12
-248.7511841136415
 22
162.9170743868716
 32
0
 13
-248.7511841136415
 23
162.9170743868716
 33
0
  0
SOLID
  8
1
 62
2
 10
-249.1671841136415
 20
155.1670729120393
 30
0
 11
-248.7511841136415
 21
151.9670729120393
 31
0
 12
-249.5831841136415
 22
151.9670729120393
 32
0
 13
-249.5831841136415
 23
151.9670729120393
 33
0
  0
TEXT
  8
1
 62
2
 10
-251.1671841136415
 20
145.5948602687547
 30
0
 40
3.2
  1
4.6
 50
90
 41
0.9
  0
TEXT
  8
1
 62
2
 10
-251.1671841136415
 20
143.5148602687547
 30
0
 40
3.2
  1
(
 50
90
 41
0.9
  0
TEXT
  8
1
 62
2
 10
-251.1671841136415
 20
153.0348602687547
 30
0
 40
3.2
  1
)
 50
90
 41
0.9
  0
ENDBLK
  8
0
  0
BLOCK
  8
1
  2
*D17
 70
1
 10
0
 20
0
 30
0
  0
LINE
  8
1
 62
2
 10
-330.0619850562745
 20
146.8170729120394
 30
0
 11
-330.0619850562745
 21
153.2170729120394
 31
0
  0
LINE
  8
1
 62
2
 10
-330.0619850562745
 20
153.2170729120394
 30
0
 11
-330.0619850562745
 21
159.7170838257988
 31
0
  0
LINE
  8
1
 62
2
 10
-330.0619850562745
 20
159.7170838257988
 30
0
 11
-330.0619850562745
 21
175.5615082934388
 31
0
  0
LINE
  8
1
 62
2
 10
-307.5671405878712
 20
153.2170729120394
 30
0
 11
-331.5619850562745
 21
153.2170729120394
 31
0
  0
LINE
  8
1
 62
2
 10
-312.1671508747653
 20
159.7170838257988
 30
0
 11
-331.5619850562745
 21
159.7170838257988
 31
0
  0
SOLID
  8
1
 62
2
 10
-330.0619850562745
 20
159.7170838257988
 30
0
 11
-330.4779850562745
 21
162.9170838257988
 31
0
 12
-329.6459850562745
 22
162.9170838257988
 32
0
 13
-329.6459850562745
 23
162.9170838257988
 33
0
  0
SOLID
  8
1
 62
2
 10
-330.0619850562745
 20
153.2170729120394
 30
0
 11
-329.6459850562745
 21
150.0170729120394
 31
0
 12
-330.4779850562745
 22
150.0170729120394
 32
0
 13
-330.4779850562745
 23
150.0170729120394
 33
0
  0
TEXT
  8
1
 62
2
 10
-331.1216745622945
 20
167.6415082934388
 30
0
 40
3.2
  1
6.5
 50
90
 41
0.9
  0
TEXT
  8
1
 62
2
 10
-331.1216745622945
 20
161.7968024110859
 30
0
 40
3.2
  1
üª(
 50
90
 41
0.9
  0
TEXT
  8
1
 62
2
 10
-331.1216745622945
 20
175.0815082934388
 30
0
 40
3.2
  1
)
 50
90
 41
0.9
  0
ENDBLK
  8
0
  0
BLOCK
  8
1
  2
*D18
 70
1
 10
0
 20
0
 30
0
  0
LINE
  8
1
 62
2
 10
-249.167140587871
 20
159.7170743868716
 30
0
 11
-249.167140587871
 21
201.7170729120392
 31
0
  0
LINE
  8
1
 62
2
 10
-278.1671420627029
 20
159.7170743868716
 30
0
 11
-247.667140587871
 21
159.7170743868716
 31
0
  0
LINE
  8
1
 62
2
 10
-278.167140587871
 20
201.7170729120392
 30
0
 11
-247.667140587871
 21
201.7170729120392
 31
0
  0
SOLID
  8
1
 62
2
 10
-249.167140587871
 20
201.7170729120392
 30
0
 11
-248.751140587871
 21
198.5170729120392
 31
0
 12
-249.583140587871
 22
198.5170729120392
 32
0
 13
-249.583140587871
 23
198.5170729120392
 33
0
  0
SOLID
  8
1
 62
2
 10
-249.167140587871
 20
159.7170743868716
 30
0
 11
-249.583140587871
 21
162.9170743868716
 31
0
 12
-248.751140587871
 22
162.9170743868716
 32
0
 13
-248.751140587871
 23
162.9170743868716
 33
0
  0
TEXT
  8
1
 62
2
 10
-251.167140587871
 20
179.150916060879
 30
0
 40
3.2
  1
42
 50
90
 41
0.9
  0
TEXT
  8
1
 62
2
 10
-251.167140587871
 20
177.070916060879
 30
0
 40
3.2
  1
(
 50
90
 41
0.9
  0
TEXT
  8
1
 62
2
 10
-251.167140587871
 20
185.550916060879
 30
0
 40
3.2
  1
)
 50
90
 41
0.9
  0
ENDBLK
  8
0
  0
ENDSEC
  0
SECTION
  2
ENTITIES
  0
LINE
  8
1
 62
3
 10
-105.3064643827582
 20
121.9400735500307
 30
0
 11
-105.3064643827582
 21
96.79900830326841
 31
0
  0
LINE
  8
1
 62
3
 10
-106.5464643827582
 20
121.9400735500307
 30
0
 11
-106.5464643827582
 21
96.79900830326841
 31
0
  0
LINE
  8
1
 62
3
 10
-106.5464643827582
 20
96.79900830326841
 30
0
 11
-105.3064643827582
 21
96.79900830326841
 31
0
  0
LINE
  8
1
 62
2
 10
-105.6264643827582
 20
96.79900830326841
 30
0
 11
-105.6264643827582
 21
93.29900830326841
 31
0
  0
LINE
  8
1
 62
2
 10
-105.9264643827582
 20
96.79900830326841
 30
0
 11
-105.9264643827582
 21
93.29900830326841
 31
0
  0
LINE
  8
1
 62
2
 10
-106.2264643827582
 20
96.79900830326841
 30
0
 11
-106.2264643827582
 21
93.29900830326841
 31
0
  0
LINE
  8
1
 62
2
 10
-304.5971405878712
 20
122.9400735500307
 30
0
 11
-285.8371405878712
 21
122.9400735500307
 31
0
  0
LINE
  8
1
 62
2
 10
-304.5971405878712
 20
121.9400735500307
 30
0
 11
-285.8371405878712
 21
121.9400735500307
 31
0
  0
LINE
  8
1
 62
3
 10
-301.8371405878712
 20
149.8405818422595
 30
0
 11
-301.8371405878712
 21
153.2170729120394
 31
0
  0
LINE
  8
1
 62
3
 10
-300.5971405878712
 20
149.8405818422595
 30
0
 11
-300.5971405878712
 21
153.2170729120394
 31
0
  0
LINE
  8
1
 62
3
 10
-297.8371405878712
 20
149.8405818422595
 30
0
 11
-297.8371405878712
 21
153.2170729120394
 31
0
  0
LINE
  8
1
 62
3
 10
-296.5971405878712
 20
149.8405818422595
 30
0
 11
-296.5971405878712
 21
153.2170729120394
 31
0
  0
LINE
  8
1
 62
3
 10
-293.8371405878712
 20
149.8405818422595
 30
0
 11
-293.8371405878712
 21
153.2170729120394
 31
0
  0
LINE
  8
1
 62
3
 10
-292.5971405878712
 20
149.8405818422595
 30
0
 11
-292.5971405878712
 21
153.2170729120394
 31
0
  0
LINE
  8
1
 62
3
 10
-289.8371405878712
 20
149.8405818422595
 30
0
 11
-289.8371405878712
 21
153.2170729120394
 31
0
  0
LINE
  8
1
 62
3
 10
-288.5971405878712
 20
149.8405818422595
 30
0
 11
-288.5971405878712
 21
153.2170729120394
 31
0
  0
LINE
  8
1
 62
3
 10
-288.5971405878712
 20
121.9400735500307
 30
0
 11
-288.5971405878712
 21
96.79900830326841
 31
0
  0
LINE
  8
1
 62
3
 10
-289.8371405878712
 20
121.9400735500307
 30
0
 11
-289.8371405878712
 21
96.79900830326841
 31
0
  0
LINE
  8
1
 62
3
 10
-292.5971405878712
 20
121.9400735500307
 30
0
 11
-292.5971405878712
 21
96.79900830326841
 31
0
  0
LINE
  8
1
 62
3
 10
-293.8371405878713
 20
121.9400735500307
 30
0
 11
-293.8371405878712
 21
96.79900830326841
 31
0
  0
LINE
  8
1
 62
3
 10
-296.5971405878712
 20
121.9400735500307
 30
0
 11
-296.5971405878712
 21
96.79900830326841
 31
0
  0
LINE
  8
1
 62
3
 10
-297.8371405878712
 20
121.9400735500307
 30
0
 11
-297.8371405878712
 21
96.79900830326841
 31
0
  0
LINE
  8
1
 62
3
 10
-300.5971405878712
 20
121.9400735500307
 30
0
 11
-300.5971405878712
 21
96.79900830326841
 31
0
  0
LINE
  8
1
 62
3
 10
-301.8371405878712
 20
121.9400735500307
 30
0
 11
-301.8371405878712
 21
96.79900830326841
 31
0
  0
LINE
  8
1
 62
3
 10
-301.8371405878712
 20
141.966818765925
 30
0
 11
-301.8371405878712
 21
149.8405818422595
 31
0
  0
LINE
  8
1
 62
3
 10
-300.5971405878712
 20
141.966818765925
 30
0
 11
-300.5971405878712
 21
149.8405818422595
 31
0
  0
LINE
  8
1
 62
3
 10
-297.8371405878712
 20
141.966818765925
 30
0
 11
-297.8371405878712
 21
149.8405818422595
 31
0
  0
LINE
  8
1
 62
3
 10
-296.5971405878712
 20
141.966818765925
 30
0
 11
-296.5971405878712
 21
149.8405818422595
 31
0
  0
LINE
  8
1
 62
3
 10
-293.8371405878712
 20
141.966818765925
 30
0
 11
-293.8371405878712
 21
149.8405818422595
 31
0
  0
LINE
  8
1
 62
3
 10
-292.5971405878712
 20
141.966818765925
 30
0
 11
-292.5971405878712
 21
149.8405818422595
 31
0
  0
LINE
  8
1
 62
3
 10
-289.8371405878712
 20
141.966818765925
 30
0
 11
-289.8371405878712
 21
149.8405818422595
 31
0
  0
LINE
  8
1
 62
3
 10
-288.5971405878712
 20
141.966818765925
 30
0
 11
-288.5971405878712
 21
149.8405818422595
 31
0
  0
LINE
  8
1
 62
3
 10
-301.8371405878712
 20
122.9400735500307
 30
0
 11
-301.8371405878712
 21
141.966818765925
 31
0
  0
LINE
  8
1
 62
3
 10
-300.5971405878712
 20
122.9400735500307
 30
0
 11
-300.5971405878712
 21
141.966818765925
 31
0
  0
LINE
  8
1
 62
3
 10
-297.8371405878712
 20
122.9400735500307
 30
0
 11
-297.8371405878712
 21
141.966818765925
 31
0
  0
LINE
  8
1
 62
3
 10
-296.5971405878712
 20
122.9400735500307
 30
0
 11
-296.5971405878712
 21
141.966818765925
 31
0
  0
LINE
  8
1
 62
3
 10
-293.8371405878712
 20
122.9400735500307
 30
0
 11
-293.8371405878712
 21
141.966818765925
 31
0
  0
LINE
  8
1
 62
3
 10
-292.5971405878712
 20
122.9400735500307
 30
0
 11
-292.5971405878712
 21
141.966818765925
 31
0
  0
LINE
  8
1
 62
3
 10
-289.8371405878712
 20
122.9400735500307
 30
0
 11
-289.8371405878712
 21
141.966818765925
 31
0
  0
LINE
  8
1
 62
3
 10
-288.5971405878712
 20
122.9400735500307
 30
0
 11
-288.5971405878712
 21
141.966818765925
 31
0
  0
LINE
  8
1
 62
3
 10
-289.8371405878712
 20
96.79900830326841
 30
0
 11
-288.5971405878712
 21
96.79900830326841
 31
0
  0
LINE
  8
1
 62
3
 10
-293.8371405878712
 20
96.79900830326841
 30
0
 11
-292.5971405878712
 21
96.79900830326841
 31
0
  0
LINE
  8
1
 62
3
 10
-297.8371405878712
 20
96.79900830326841
 30
0
 11
-296.5971405878712
 21
96.79900830326841
 31
0
  0
LINE
  8
1
 62
3
 10
-301.8371405878712
 20
96.79900830326841
 30
0
 11
-300.5971405878712
 21
96.79900830326841
 31
0
  0
LINE
  8
1
 62
2
 10
-288.9171405878712
 20
96.79900830326841
 30
0
 11
-288.9171405878712
 21
93.29900830326841
 31
0
  0
LINE
  8
1
 62
2
 10
-292.9171405878712
 20
96.79900830326841
 30
0
 11
-292.9171405878712
 21
93.29900830326841
 31
0
  0
LINE
  8
1
 62
2
 10
-296.9171405878712
 20
96.79900830326841
 30
0
 11
-296.9171405878712
 21
93.29900830326841
 31
0
  0
LINE
  8
1
 62
2
 10
-300.9171405878712
 20
96.79900830326841
 30
0
 11
-300.9171405878712
 21
93.29900830326841
 31
0
  0
LINE
  8
1
 62
2
 10
-289.2171405878712
 20
96.79900830326841
 30
0
 11
-289.2171405878712
 21
93.29900830326841
 31
0
  0
LINE
  8
1
 62
2
 10
-289.5171405878712
 20
96.79900830326841
 30
0
 11
-289.5171405878712
 21
93.29900830326841
 31
0
  0
LINE
  8
1
 62
2
 10
-293.2171405878712
 20
96.79900830326841
 30
0
 11
-293.2171405878712
 21
93.29900830326841
 31
0
  0
LINE
  8
1
 62
2
 10
-293.5171405878712
 20
96.79900830326841
 30
0
 11
-293.5171405878712
 21
93.29900830326841
 31
0
  0
LINE
  8
1
 62
2
 10
-297.2171405878712
 20
96.79900830326841
 30
0
 11
-297.2171405878712
 21
93.29900830326841
 31
0
  0
LINE
  8
1
 62
2
 10
-297.5171405878712
 20
96.79900830326841
 30
0
 11
-297.5171405878712
 21
93.29900830326841
 31
0
  0
LINE
  8
1
 62
2
 10
-301.2171405878712
 20
96.79900830326841
 30
0
 11
-301.2171405878712
 21
93.29900830326841
 31
0
  0
LINE
  8
1
 62
2
 10
-301.5171405878712
 20
96.79900830326841
 30
0
 11
-301.5171405878712
 21
93.29900830326841
 31
0
  0
LINE
  8
1
 62
2
 10
-105.0962674626635
 20
204.3276856848613
 30
0
 11
-111.0962674626635
 21
204.3276856848613
 31
0
  0
LINE
  8
1
 62
2
 10
-111.0962674626635
 20
210.3276856848613
 30
0
 11
-105.0962674626635
 21
210.3276856848613
 31
0
  0
LINE
  8
1
 62
2
 10
-110.5962674626635
 20
207.3276856848613
 30
0
 11
-108.0962674626635
 21
205.8276856848613
 31
0
  0
LINE
  8
1
 62
2
 10
-105.5962674626635
 20
207.3276856848613
 30
0
 11
-110.5962674626635
 21
207.3276856848613
 31
0
  0
LINE
  8
1
 62
2
 10
-108.0962674626635
 20
205.8276856848613
 30
0
 11
-108.0962674626635
 21
208.3276856848613
 31
0
  0
LINE
  8
1
 62
2
 10
-111.0962674626635
 20
230.3276856848613
 30
0
 11
-105.0962674626635
 21
230.3276856848613
 31
0
  0
LINE
  8
1
 62
2
 10
-111.0962674626635
 20
204.3276856848613
 30
0
 11
-111.0962674626635
 21
230.3276856848613
 31
0
  0
LINE
  8
1
 62
2
 10
-105.0962674626635
 20
230.3276856848613
 30
0
 11
-105.0962674626635
 21
204.3276856848613
 31
0
  0
LINE
  8
1
 62
2
 10
-104.1951559873176
 20
121.9400735500307
 30
0
 11
-107.6977727781988
 21
121.9400735500307
 31
0
  0
LINE
  8
1
 62
2
 10
-107.6977727781988
 20
122.9400735500307
 30
0
 11
-104.1951559873176
 21
122.9400735500307
 31
0
  0
LINE
  8
1
 62
3
 10
-106.5464643827582
 20
122.9400735500307
 30
0
 11
-106.5464643827582
 21
153.2170729120394
 31
0
  0
LINE
  8
1
 62
3
 10
-105.3464643827582
 20
122.9400735500307
 30
0
 11
-105.3464643827582
 21
153.2170729120394
 31
0
  0
LINE
  8
1
 62
3
 10
-104.1951559873176
 20
153.2170729120394
 30
0
 11
-104.1951559873176
 21
155.1670729120393
 31
0
  0
LINE
  8
1
 62
3
 10
-107.6977727781988
 20
153.2170729120394
 30
0
 11
-104.1951559873176
 21
153.2170729120394
 31
0
  0
LINE
  8
1
 62
3
 10
-107.6977727781988
 20
155.1670729120393
 30
0
 11
-107.6977727781988
 21
153.2170729120394
 31
0
  0
LINE
  8
1
 62
3
 10
-302.8171405878712
 20
159.7170813628264
 30
0
 11
-302.8171405878712
 21
154.4170729120394
 31
0
  0
LINE
  8
1
 62
3
 10
-286.6171405878714
 20
155.1670729120393
 30
0
 11
-286.2171405878712
 21
155.1670729120393
 31
0
  0
LINE
  8
1
 62
3
 10
-286.2171405878712
 20
155.1670729120393
 30
0
 11
-283.2171405878712
 21
155.1670729120393
 31
0
  0
LINE
  8
1
 62
3
 10
-303.8171405878712
 20
155.1670729120393
 30
0
 11
-303.8171405878712
 21
159.7170816577928
 31
0
  0
LINE
  8
1
 62
3
 10
-284.0171405878712
 20
155.1670729120393
 30
0
 11
-284.0171405878712
 21
154.9170729120394
 31
0
  0
LINE
  8
1
 62
3
 10
-148.2662370661452
 20
183.2170729120392
 30
0
 11
-155.2661627675622
 21
183.2170729120392
 31
0
  0
LINE
  8
1
 62
3
 10
-307.667140587871
 20
157.7170729120393
 30
0
 11
-308.1606964280267
 21
157.7170729120393
 31
0
  0
LINE
  8
1
 62
3
 10
-282.1735862548303
 20
157.7170729120393
 30
0
 11
-282.667140587871
 21
157.7170729120393
 31
0
  0
LINE
  8
1
 62
4
  6
DASHED
 10
-282.7671405878715
 20
153.2170729120394
 30
0
 11
-306.5671405878712
 21
153.2170729120394
 31
0
  0
LINE
  8
1
 62
4
  6
DASHED
 10
-306.3671405878712
 20
155.1670729120393
 30
0
 11
-307.1171405878712
 21
153.8170729120393
 31
0
  0
LINE
  8
1
 62
4
  6
DASHED
 10
-283.9671405878713
 20
155.1670729120393
 30
0
 11
-283.3171405878712
 21
153.8170729120393
 31
0
  0
LINE
  8
1
 62
4
  6
DASHED
 10
-306.5671405878712
 20
153.2170729120394
 30
0
 11
-306.5671405878712
 21
153.8170729120393
 31
0
  0
LINE
  8
1
 62
3
 10
-284.767140587871
 20
157.0670729120392
 30
0
 11
-284.767140587871
 21
159.7170729120393
 31
0
  0
LINE
  8
1
 62
3
 10
-283.767140587871
 20
157.0670729120392
 30
0
 11
-284.767140587871
 21
157.0670729120392
 31
0
  0
LINE
  8
1
 62
3
 10
-283.767140587871
 20
159.7170729120393
 30
0
 11
-283.767140587871
 21
157.0670729120392
 31
0
  0
LINE
  8
1
 62
3
 10
-305.567140587871
 20
157.0670729120392
 30
0
 11
-305.567140587871
 21
159.7170729120393
 31
0
  0
LINE
  8
1
 62
3
 10
-306.567140587871
 20
157.0670729120392
 30
0
 11
-305.567140587871
 21
157.0670729120392
 31
0
  0
LINE
  8
1
 62
3
 10
-306.567140587871
 20
159.7170729120393
 30
0
 11
-306.567140587871
 21
157.0670729120392
 31
0
  0
LINE
  8
1
 62
3
 10
-286.2171405878712
 20
159.7170729120393
 30
0
 11
-286.2171405878712
 21
155.1670729120393
 31
0
  0
LINE
  8
1
 62
3
 10
-304.117140587871
 20
159.7170729120393
 30
0
 11
-304.117140587871
 21
155.1670729120393
 31
0
  0
LINE
  8
1
 62
3
 10
-307.117140587871
 20
155.1670729120393
 30
0
 11
-303.8171405878712
 21
155.1670729120393
 31
0
  0
LINE
  8
1
 62
3
 10
-283.2171405878712
 20
155.1670729120393
 30
0
 11
-283.2171405878712
 21
159.7170729120393
 31
0
  0
LINE
  8
1
 62
3
 10
-307.117140587871
 20
155.1670729120393
 30
0
 11
-307.117140587871
 21
159.7170729120393
 31
0
  0
LINE
  8
1
 62
3
 10
-283.167140587871
 20
156.1670729120393
 30
0
 11
-282.667140587871
 21
156.1670729120393
 31
0
  0
LINE
  8
1
 62
3
 10
-283.167140587871
 20
159.7170729120393
 30
0
 11
-283.167140587871
 21
156.1670729120393
 31
0
  0
LINE
  8
1
 62
3
 10
-307.167140587871
 20
156.1670729120393
 30
0
 11
-307.167140587871
 21
159.7170729120393
 31
0
  0
LINE
  8
1
 62
3
 10
-307.667140587871
 20
156.1670729120393
 30
0
 11
-307.167140587871
 21
156.1670729120393
 31
0
  0
LINE
  8
1
 62
3
 10
-282.667140587871
 20
156.1670729120393
 30
0
 11
-282.667140587871
 21
159.7170729120393
 31
0
  0
LINE
  8
1
 62
3
 10
-307.667140587871
 20
156.1670729120393
 30
0
 11
-307.667140587871
 21
159.7170729120393
 31
0
  0
LINE
  8
1
 62
3
 10
-282.2171405878712
 20
157.7170729120393
 30
0
 11
-282.1735862548303
 21
157.7170729120393
 31
0
  0
LINE
  8
1
 62
3
 10
-282.517140587871
 20
159.7170729120393
 30
0
 11
-282.517140587871
 21
158.0170729120391
 31
0
  0
LINE
  8
1
 62
3
 10
-307.817140587871
 20
158.0170729120392
 30
0
 11
-307.817140587871
 21
159.7170729120393
 31
0
  0
LINE
  8
1
 62
3
 10
-108.3661934923954
 20
155.1670729120393
 30
0
 11
-108.3661934923954
 21
156.1670729120393
 31
0
  0
LINE
  8
1
 62
3
 10
-103.5661934923954
 20
155.1670729120393
 30
0
 11
-108.3661934923954
 21
155.1670729120393
 31
0
  0
LINE
  8
1
 62
3
 10
-103.5661934923954
 20
156.1670729120393
 30
0
 11
-103.5661934923954
 21
155.1670729120393
 31
0
  0
LINE
  8
1
 62
3
 10
-102.9661934923954
 20
156.1670729120393
 30
0
 11
-102.9661934923954
 21
157.7170729120393
 31
0
  0
LINE
  8
1
 62
3
 10
-108.3661934923954
 20
156.1670729120393
 30
0
 11
-102.9661934923954
 21
156.1670729120393
 31
0
  0
LINE
  8
1
 62
3
 10
-108.3661934923954
 20
157.7170729120393
 30
0
 11
-108.3661934923954
 21
156.1670729120393
 31
0
  0
LINE
  8
1
 62
3
 10
-96.66619749439768
 20
158.7170746610396
 30
0
 11
-96.66620099239539
 21
160.7170729120393
 31
0
  0
LINE
  8
1
 62
3
 10
-108.3661934923954
 20
157.7170729120393
 30
0
 11
-97.66619749439597
 21
157.7170729120393
 31
0
  0
LINE
  8
1
 62
3
 10
-108.3661934923954
 20
157.7170729120393
 30
0
 11
-108.3661934923953
 21
165.7170729120393
 31
0
  0
LINE
  8
1
 62
1
 10
-171.93704087888
 20
180.7170729120392
 30
0
 11
-76.96900333302568
 21
180.7170729120392
 31
0
  0
LINE
  8
1
 62
3
 10
-170.2661590091715
 20
182.7170729120392
 30
0
 11
-170.2661597021776
 21
182.5646124567139
 31
0
  0
LINE
  8
1
 62
3
 10
-96.6661859923953
 20
200.7170729120392
 30
0
 11
-96.66620099239539
 21
160.7170729120393
 31
0
  0
LINE
  8
1
 62
3
 10
-138.3661934923954
 20
165.7171729120392
 30
0
 11
-138.3662934923953
 21
159.7170729120393
 31
0
  0
LINE
  8
1
 62
3
 10
-108.3661934923954
 20
195.7170729120392
 30
0
 11
-108.3661934923954
 21
201.7170729120392
 31
0
  0
LINE
  8
1
 62
3
 10
-138.3661934923954
 20
195.7170729120392
 30
0
 11
-138.3661934923953
 21
201.7170729120392
 31
0
  0
LINE
  8
1
 62
3
 10
-148.2662934923954
 20
169.7170729120393
 30
0
 11
-148.2661934923953
 21
191.7170729120392
 31
0
  0
LINE
  8
1
 62
3
 10
-148.2662934923954
 20
169.7170729120393
 30
0
 11
-146.2661934923953
 21
169.7170729120393
 31
0
  0
LINE
  8
1
 62
3
 10
-148.2661934923953
 20
191.7170729120392
 30
0
 11
-146.2661934923953
 21
191.7170729120392
 31
0
  0
LINE
  8
1
 62
3
 10
-307.167140587871
 20
202.7170729120392
 30
0
 11
-283.167140587871
 21
202.7170729120392
 31
0
  0
LINE
  8
1
 62
3
 10
-274.167140587871
 20
164.7170743868714
 30
0
 11
-274.167140587871
 21
196.7170729120392
 31
0
  0
LINE
  8
1
 62
3
 10
-279.167140587871
 20
201.7170729120392
 30
0
 11
-311.1671417786905
 21
201.7170729120392
 31
0
  0
LINE
  8
1
 62
3
 10
-108.2423545432962
 20
202.8982810555713
 30
0
 11
-98.8334545432962
 21
202.8982810555713
 31
0
  0
LINE
  8
1
 62
3
 10
-146.2661934923953
 20
200.7170729120392
 30
0
 11
-146.2661934923953
 21
200.3480646216076
 31
0
  0
LINE
  8
1
 62
3
 10
-138.3661934923954
 20
195.7170729120392
 30
0
 11
-108.3661934923954
 21
195.7170729120392
 31
0
  0
LINE
  8
1
 62
3
 10
-138.3661934923954
 20
165.7171729120392
 30
0
 11
-108.3661934923953
 21
165.7170729120393
 31
0
  0
LINE
  8
2
 62
1
 10
-282.167140587871
 20
165.2170729120393
 30
0
 11
-277.167140587871
 21
165.2170729120393
 31
0
  0
LINE
  8
2
 62
1
 10
-279.667140587871
 20
167.7170729120393
 30
0
 11
-279.667140587871
 21
162.7170729120393
 31
0
  0
LINE
  8
2
 62
1
 10
-310.6671505878711
 20
167.7170729120393
 30
0
 11
-310.6671505878711
 21
162.7170729120393
 31
0
  0
LINE
  8
2
 62
1
 10
-308.167140587871
 20
165.2170729120393
 30
0
 11
-313.167140587871
 21
165.2170729120393
 31
0
  0
LINE
  8
2
 62
1
 10
-308.167140587871
 20
196.2170729120392
 30
0
 11
-313.167140587871
 21
196.2170729120392
 31
0
  0
LINE
  8
2
 62
1
 10
-310.6671305878712
 20
193.7170729120392
 30
0
 11
-310.6671305878712
 21
198.7170729120392
 31
0
  0
LINE
  8
2
 62
1
 10
-279.667140587871
 20
193.7170729120392
 30
0
 11
-279.667140587871
 21
198.7170729120392
 31
0
  0
LINE
  8
2
 62
1
 10
-282.167140587871
 20
196.2170729120392
 30
0
 11
-277.167140587871
 21
196.2170729120392
 31
0
  0
LINE
  8
2
 62
1
 10
-322.0886205878711
 20
180.7170729120392
 30
0
 11
-268.667640587871
 21
180.7170729120392
 31
0
  0
LINE
  8
2
 62
1
 10
-295.167140587871
 20
158.7170729120393
 30
0
 11
-295.167140587871
 21
205.7170729120392
 31
0
  0
LINE
  8
4
 62
7
 10
-133.9662934923953
 20
163.0588729120392
 30
0
 11
-133.9662934923953
 21
159.7169729120391
 31
0
  0
LINE
  8
4
 62
7
 10
-134.7662934923953
 20
164.3286729120391
 30
0
 11
-134.7662934923953
 21
159.7169729120391
 31
0
  0
LINE
  8
4
 62
7
 10
-135.5662934923954
 20
165.5983729120392
 30
0
 11
-135.5662934923954
 21
159.7169729120391
 31
0
  0
LINE
  8
4
 62
7
 10
-136.3662934923953
 20
166.8681729120393
 30
0
 11
-136.3662934923953
 21
159.7169729120391
 31
0
  0
LINE
  8
4
 62
7
 10
-137.1662934923954
 20
168.1379729120393
 30
0
 11
-137.1662934923954
 21
159.7169729120391
 31
0
  0
LINE
  8
4
 62
7
 10
-137.9662934923953
 20
169.4077729120393
 30
0
 11
-137.9662934923953
 21
159.7169729120391
 31
0
  0
LINE
  8
4
 62
7
 10
-112.7661934923954
 20
198.3751729120393
 30
0
 11
-112.7661934923954
 21
201.7170729120392
 31
0
  0
LINE
  8
4
 62
7
 10
-111.9661934923954
 20
197.1054729120392
 30
0
 11
-111.9661934923954
 21
201.7170729120392
 31
0
  0
LINE
  8
4
 62
7
 10
-111.1661934923955
 20
195.8356729120391
 30
0
 11
-111.1661934923955
 21
201.7170729120392
 31
0
  0
LINE
  8
4
 62
7
 10
-110.3661934923954
 20
194.5658729120392
 30
0
 11
-110.3661934923953
 21
201.7170729120392
 31
0
  0
LINE
  8
4
 62
7
 10
-109.5661934923954
 20
193.2960729120391
 30
0
 11
-109.5661934923954
 21
201.7170729120392
 31
0
  0
LINE
  8
4
 62
7
 10
-108.7661934923954
 20
192.0262729120392
 30
0
 11
-108.7661934923954
 21
201.7170729120392
 31
0
  0
LINE
  8
1
 62
3
 10
-145.2661934923953
 20
201.7170729120392
 30
0
 11
-97.6661859923953
 21
201.7170729120392
 31
0
  0
LINE
  8
1
 62
3
 10
-145.2661930966168
 20
159.717073307818
 30
0
 11
-108.3661934923953
 21
159.7170831627027
 31
0
  0
LINE
  8
1
 62
3
 10
-308.1606964280267
 20
157.7170729120393
 30
0
 11
-308.117140587871
 21
157.7170729120393
 31
0
  0
LINE
  8
1
 62
3
 10
-316.1671493999331
 20
164.7170850166182
 30
0
 11
-316.1671417786905
 21
196.7170741028587
 31
0
  0
LINE
  8
1
 62
3
 10
-170.2661782459609
 20
178.2170729120392
 30
0
 11
-148.2662548560318
 21
178.2170729120392
 31
0
  0
LINE
  8
1
 62
3
 10
-108.3661934923954
 20
195.7170729120392
 30
0
 11
-108.3661934923953
 21
165.7170729120393
 31
0
  0
LINE
  8
1
 62
3
 10
-138.3661934923954
 20
165.7171729120392
 30
0
 11
-138.3661934923954
 21
195.7170729120392
 31
0
  0
LINE
  8
1
 62
3
 10
-146.2661934923953
 20
200.7170729120392
 30
0
 11
-146.2661934923953
 21
160.7170733078179
 31
0
  0
LINE
  8
1
 62
3
 10
-311.1671508747653
 20
159.7170838257988
 30
0
 11
-279.167142062703
 21
159.7170743868716
 31
0
  0
LINE
  8
1
 62
3
 10
-170.2661643154668
 20
182.7170729120392
 30
0
 11
-170.2661782459609
 21
178.2170729120392
 31
0
  0
LINE
  8
1
 62
3
 10
-284.6171405878714
 20
153.2170729120394
 30
0
 11
-284.6171405878714
 21
153.7170729120394
 31
0
  0
LINE
  8
1
 62
3
 10
-305.8171405878712
 20
153.2170729120394
 30
0
 11
-305.8171405878712
 21
153.7170729120394
 31
0
  0
LINE
  8
1
 62
3
 10
-302.8171405878712
 20
155.9170729120394
 30
0
 11
-287.6171405878714
 21
155.9170729120394
 31
0
  0
LINE
  8
1
 62
3
 10
-286.6171405878714
 20
153.7170729120394
 30
0
 11
-286.6171405878714
 21
159.7170765843708
 31
0
  0
LINE
  8
1
 62
3
 10
-287.6171405878714
 20
154.4170729120394
 30
0
 11
-287.6171405878714
 21
159.7170768793372
 31
0
  0
LINE
  8
1
 62
3
 10
-302.8171405878712
 20
154.4170729120394
 30
0
 11
-287.6171405878714
 21
154.4170729120394
 31
0
  0
LINE
  8
1
 62
3
 10
-303.8171405878712
 20
153.7170729120394
 30
0
 11
-303.8171405878712
 21
155.1670729120393
 31
0
  0
LINE
  8
1
 62
3
 10
-283.2671405878712
 20
153.2170729120394
 30
0
 11
-284.6171405878714
 21
153.2170729120394
 31
0
  0
LINE
  8
1
 62
3
 10
-283.2671405878712
 20
153.7170729120394
 30
0
 11
-283.2671405878712
 21
153.2170729120394
 31
0
  0
LINE
  8
1
 62
3
 10
-307.1671405878711
 20
153.2170729120394
 30
0
 11
-307.1671405878711
 21
153.7170729120394
 31
0
  0
LINE
  8
1
 62
3
 10
-305.8171405878712
 20
153.2170729120394
 30
0
 11
-307.1671405878711
 21
153.2170729120394
 31
0
  0
LINE
  8
1
 62
3
 10
-303.8171405878712
 20
153.2170729120394
 30
0
 11
-303.8171405878712
 21
153.7170729120394
 31
0
  0
LINE
  8
1
 62
3
 10
-304.6171405878714
 20
153.2170729120394
 30
0
 11
-303.8171405878712
 21
153.2170729120394
 31
0
  0
LINE
  8
1
 62
3
 10
-304.6171405878714
 20
153.7170729120394
 30
0
 11
-304.6171405878714
 21
153.2170729120394
 31
0
  0
LINE
  8
1
 62
3
 10
-301.8171405878712
 20
153.2170729120394
 30
0
 11
-301.8171405878712
 21
153.7170729120394
 31
0
  0
LINE
  8
1
 62
3
 10
-302.6171405878714
 20
153.2170729120394
 30
0
 11
-301.8171405878712
 21
153.2170729120394
 31
0
  0
LINE
  8
1
 62
3
 10
-302.6171405878714
 20
153.7170729120394
 30
0
 11
-302.6171405878714
 21
153.2170729120394
 31
0
  0
LINE
  8
1
 62
3
 10
-299.8171405878712
 20
153.2170729120394
 30
0
 11
-299.8171405878712
 21
153.7170729120394
 31
0
  0
LINE
  8
1
 62
3
 10
-300.6171405878714
 20
153.2170729120394
 30
0
 11
-299.8171405878712
 21
153.2170729120394
 31
0
  0
LINE
  8
1
 62
3
 10
-300.6171405878714
 20
153.7170729120394
 30
0
 11
-300.6171405878714
 21
153.2170729120394
 31
0
  0
LINE
  8
1
 62
3
 10
-297.8171405878712
 20
153.2170729120394
 30
0
 11
-297.8171405878712
 21
153.7170729120394
 31
0
  0
LINE
  8
1
 62
3
 10
-298.6171405878714
 20
153.2170729120394
 30
0
 11
-297.8171405878712
 21
153.2170729120394
 31
0
  0
LINE
  8
1
 62
3
 10
-298.6171405878714
 20
153.7170729120394
 30
0
 11
-298.6171405878714
 21
153.2170729120394
 31
0
  0
LINE
  8
1
 62
3
 10
-295.8171405878712
 20
153.2170729120394
 30
0
 11
-295.8171405878712
 21
153.7170729120394
 31
0
  0
LINE
  8
1
 62
3
 10
-296.6171405878714
 20
153.2170729120394
 30
0
 11
-295.8171405878712
 21
153.2170729120394
 31
0
  0
LINE
  8
1
 62
3
 10
-296.6171405878714
 20
153.7170729120394
 30
0
 11
-296.6171405878714
 21
153.2170729120394
 31
0
  0
LINE
  8
1
 62
3
 10
-293.8171405878712
 20
153.2170729120394
 30
0
 11
-293.8171405878712
 21
153.7170729120394
 31
0
  0
LINE
  8
1
 62
3
 10
-294.6171405878714
 20
153.2170729120394
 30
0
 11
-293.8171405878712
 21
153.2170729120394
 31
0
  0
LINE
  8
1
 62
3
 10
-294.6171405878714
 20
153.7170729120394
 30
0
 11
-294.6171405878714
 21
153.2170729120394
 31
0
  0
LINE
  8
1
 62
3
 10
-291.8171405878712
 20
153.2170729120394
 30
0
 11
-291.8171405878712
 21
153.7170729120394
 31
0
  0
LINE
  8
1
 62
3
 10
-292.6171405878714
 20
153.2170729120394
 30
0
 11
-291.8171405878712
 21
153.2170729120394
 31
0
  0
LINE
  8
1
 62
3
 10
-292.6171405878714
 20
153.7170729120394
 30
0
 11
-292.6171405878714
 21
153.2170729120394
 31
0
  0
LINE
  8
1
 62
3
 10
-289.8171405878712
 20
153.2170729120394
 30
0
 11
-289.8171405878712
 21
153.7170729120394
 31
0
  0
LINE
  8
1
 62
3
 10
-290.6171405878714
 20
153.2170729120394
 30
0
 11
-289.8171405878712
 21
153.2170729120394
 31
0
  0
LINE
  8
1
 62
3
 10
-290.6171405878714
 20
153.7170729120394
 30
0
 11
-290.6171405878714
 21
153.2170729120394
 31
0
  0
LINE
  8
1
 62
3
 10
-287.8171405878712
 20
153.2170729120394
 30
0
 11
-287.8171405878712
 21
153.7170729120394
 31
0
  0
LINE
  8
1
 62
3
 10
-288.6171405878714
 20
153.2170729120394
 30
0
 11
-287.8171405878712
 21
153.2170729120394
 31
0
  0
LINE
  8
1
 62
3
 10
-288.6171405878714
 20
153.7170729120394
 30
0
 11
-288.6171405878714
 21
153.2170729120394
 31
0
  0
LINE
  8
1
 62
3
 10
-285.8171405878712
 20
153.2170729120394
 30
0
 11
-285.8171405878712
 21
153.7170729120394
 31
0
  0
LINE
  8
1
 62
3
 10
-286.6171405878714
 20
153.2170729120394
 30
0
 11
-285.8171405878712
 21
153.2170729120394
 31
0
  0
LINE
  8
1
 62
3
 10
-286.6171405878714
 20
153.7170729120394
 30
0
 11
-286.6171405878714
 21
153.2170729120394
 31
0
  0
LINE
  8
1
 62
3
 10
-307.1671405878711
 20
153.7170729120394
 30
0
 11
-283.2671405878712
 21
153.7170729120394
 31
0
  0
LINE
  8
1
 62
3
 10
-306.4171405878711
 20
154.9170729120394
 30
0
 11
-307.1671405878711
 21
153.7170729120394
 31
0
  0
LINE
  8
1
 62
3
 10
-284.0171405878712
 20
154.9170729120394
 30
0
 11
-283.2671405878712
 21
153.7170729120394
 31
0
  0
LINE
  8
1
 62
3
 10
-306.4171405878711
 20
154.9170729120394
 30
0
 11
-306.4171405878711
 21
155.1670729120393
 31
0
  0
LINE
  8
1
 62
2
 10
-274.7648864368447
 20
120.8241405915483
 30
0
 11
-211.9651069490878
 21
120.8241405915483
 31
0
  0
LINE
  8
1
 62
2
 10
-332.6859436055993
 20
50.06175757176477
 30
0
 11
-262.6859436055993
 21
50.06175757176477
 31
0
  0
LINE
  8
1
 62
2
 10
-269.0788198152964
 20
56.45283817843096
 30
0
 11
-266.3893306040853
 21
56.45283817843096
 31
0
  0
LINE
  8
1
 62
2
 10
-289.3355734414143
 20
56.20833915922986
 30
0
 11
-285.8514624178004
 21
56.20833915922986
 31
0
  0
LINE
  8
1
 62
2
 10
-332.6859436055993
 20
64.0617575717647
 30
0
 11
-262.6859436055993
 21
64.0617575717647
 31
0
  0
LINE
  8
1
 62
2
 10
-262.6859436055993
 20
64.0617575717647
 30
0
 11
-262.6859436055993
 21
38.06175757176477
 31
0
  0
LINE
  8
1
 62
2
 10
-262.6859436055993
 20
38.06175757176477
 30
0
 11
-332.6859436055993
 21
38.06175757176477
 31
0
  0
LINE
  8
1
 62
2
 10
-332.6859436055993
 20
38.06175757176477
 30
0
 11
-332.6859436055993
 21
64.0617575717647
 31
0
  0
LINE
  8
1
 62
2
 10
-302.6859436055993
 20
64.0617575717647
 30
0
 11
-302.6859436055993
 21
38.06175757176477
 31
0
  0
LINE
  8
1
 62
2
 10
-332.6859436055993
 20
57.06175757176465
 30
0
 11
-262.6859436055993
 21
57.06175757176465
 31
0
  0
LINE
  8
1
 62
2
 10
-292.6859436055993
 20
64.0617575717647
 30
0
 11
-292.6859436055993
 21
38.06175757176477
 31
0
  0
LINE
  8
1
 62
2
 10
-282.6859436055993
 20
64.0617575717647
 30
0
 11
-282.6859436055993
 21
38.06175757176477
 31
0
  0
LINE
  8
1
 62
2
 10
-272.6859436055993
 20
64.0617575717647
 30
0
 11
-272.6859436055993
 21
38.06175757176477
 31
0
  0
LINE
  8
1
 62
3
 10
-296.667140587871
 20
182.7170729120392
 30
0
 11
-293.667140587871
 21
182.7170729120392
 31
0
  0
LINE
  8
1
 62
3
 10
-155.2661627675622
 20
183.2170729120392
 30
0
 11
-155.2661643153949
 21
182.7170729120392
 31
0
  0
LINE
  8
1
 62
3
 10
-155.2661643153949
 20
182.7170729120392
 30
0
 11
-170.2661643154668
 21
182.7170729120392
 31
0
  0
LINE
  8
1
 62
3
 10
-96.66619255489533
 20
183.2170729120392
 30
0
 11
-95.66619255489528
 21
183.2170729120392
 31
0
  0
LINE
  8
1
 62
3
 10
-95.66619255489528
 20
183.2170729120392
 30
0
 11
-95.66619274239527
 21
182.7170729120392
 31
0
  0
LINE
  8
1
 62
3
 10
-95.66619274239527
 20
182.7170729120392
 30
0
 11
-80.66619274239422
 21
182.7170729120392
 31
0
  0
LINE
  8
1
 62
3
 10
-80.66619274239422
 20
182.7170729120392
 30
0
 11
-80.66619442989422
 21
178.2170729120392
 31
0
  0
LINE
  8
1
 62
3
 10
-80.66619442989422
 20
178.2170729120392
 30
0
 11
-96.66619442989534
 21
178.2170729120392
 31
0
  0
ARC
  8
1
 62
3
 10
-278.7930432608342
 20
156.8788376179217
 30
0
 40
2.851439871812191
 50
95.51614301828266
 51
152.895453465172
  0
ARC
  8
1
 62
3
 10
-311.5412394220228
 20
156.8788376179217
 30
0
 40
2.851439871812237
 50
27.10454653482959
 51
84.48385698172189
  0
ARC
  8
1
 62
3
 10
-97.6661859923953
 20
200.7170729120392
 30
0
 40
1
 50
0
 51
90
  0
ARC
  8
1
 62
3
 10
-295.167140587871
 20
180.7170729120392
 30
0
 40
2.5
 50
180
 51
270
  0
ARC
  8
1
 62
3
 10
-295.167140587871
 20
180.7170729120392
 30
0
 40
2.5
 50
270
 51
180
  0
CIRCLE
  8
1
 62
3
 10
-295.167140587871
 20
180.7170729120392
 30
0
 40
4.549999999999955
  0
CIRCLE
  8
1
 62
2
 10
-279.667140587871
 20
165.2170729120393
 30
0
 40
1.5
  0
CIRCLE
  8
1
 62
2
 10
-310.6671505878711
 20
165.2170729120393
 30
0
 40
1.5
  0
CIRCLE
  8
1
 62
2
 10
-310.667140587871
 20
196.2170729120392
 30
0
 40
1.5
  0
CIRCLE
  8
1
 62
2
 10
-279.667140587871
 20
196.2170729120392
 30
0
 40
1.5
  0
CIRCLE
  8
4
 62
3
 10
-279.667140587871
 20
165.2170729120393
 30
0
 40
1
  0
CIRCLE
  8
4
 62
3
 10
-310.6671505878711
 20
165.2170729120393
 30
0
 40
1.000010000000088
  0
CIRCLE
  8
4
 62
3
 10
-279.667140587871
 20
196.2170729120392
 30
0
 40
1
  0
CIRCLE
  8
4
 62
3
 10
-310.667140587871
 20
196.2170729120392
 30
0
 40
1.000009999999804
  0
CIRCLE
  8
1
 62
3
 10
-295.167140587871
 20
180.7170729120392
 30
0
 40
11
  0
CIRCLE
  8
1
 62
3
 10
-295.167140587871
 20
180.7170729120392
 30
0
 40
15
  0
CIRCLE
  8
1
 62
3
 10
-295.167140587871
 20
180.7170729120392
 30
0
 40
12.75
  0
ARC
  8
1
 62
3
 10
-282.1735862548303
 20
158.7170729120393
 30
0
 40
1
 50
270
 51
327.3793104468809
  0
ARC
  8
1
 62
3
 10
-308.1606964280267
 20
158.7170729120393
 30
0
 40
0.9999999999999593
 50
212.6206895531138
 51
270
  0
ARC
  8
1
 62
3
 10
-282.2171405878712
 20
158.0170729120391
 30
0
 40
0.299999999999784
 50
180
 51
270
  0
ARC
  8
1
 62
3
 10
-308.117140587871
 20
158.0170729120391
 30
0
 40
0.2999999999998124
 50
270
 51
0
  0
ARC
  8
1
 62
3
 10
-97.66619749439597
 20
158.7170729120393
 30
0
 40
1
 50
270
 51
0.0001002103350056641
  0
ARC
  8
1
 62
3
 10
-145.2661934923953
 20
200.7170729120392
 30
0
 40
1
 50
90
 51
180
  0
ARC
  8
1
 62
3
 10
-145.2661934923953
 20
160.7170733078179
 30
0
 40
1
 50
180
 51
270.0000226764377
  0
ARC
  8
1
 62
3
 10
-279.167140587871
 20
164.7170743868714
 30
0
 40
5.000000000000019
 50
269.9999830996702
 51
0
  0
ARC
  8
1
 62
3
 10
-311.1671493999331
 20
164.7170838257985
 30
0
 40
5.000000000000141
 50
179.9999863542116
 51
269.9999830996682
  0
ARC
  8
1
 62
3
 10
-311.1671417786905
 20
196.7170729120392
 30
0
 40
5
 50
90
 51
179.9999863542138
  0
ARC
  8
1
 62
3
 10
-279.167140587871
 20
196.7170729120392
 30
0
 40
5
 50
0
 51
90
  0
LINE
  8
1
 62
2
 10
-57.57529372265097
 20
222.2154996874853
 30
0
 11
-75.90211097139736
 21
222.2154996874853
 31
0
  0
LINE
  8
1
 62
2
 10
-75.90211097139736
 20
222.2154996874853
 30
0
 11
-99.61139272793248
 21
202.8982810555713
 31
0
  0
SOLID
  8
1
 62
2
 10
-97.39667038273765
 20
205.2461499842242
 30
0
 11
-96.86446202250949
 21
204.5929359679483
 31
0
 12
-99.61139272793248
 22
202.8982810555713
 32
0
 13
-99.61139272793248
 23
202.8982810555713
 33
0
  0
LINE
  8
1
 62
2
 10
-233.2796998296976
 20
133.2549187115592
 30
0
 11
-270.4364270869455
 21
133.2549187115592
 31
0
  0
LINE
  8
1
 62
2
 10
-270.4364270869455
 20
133.2549187115592
 30
0
 11
-278.672740692811
 21
164.0940551701026
 31
0
  0
SOLID
  8
1
 62
2
 10
-277.4400242965819
 20
161.1111214030023
 30
0
 11
-278.2540681584083
 21
160.8937119257965
 31
0
 12
-278.672740692811
 22
164.0940551701026
 32
0
 13
-278.672740692811
 23
164.0940551701026
 33
0
  0
LINE
  8
1
 62
2
 10
-211.8343202682858
 20
113.1162846130703
 30
0
 11
-273.3333512776635
 21
113.1162846130703
 31
0
  0
LINE
  8
1
 62
2
 10
-273.3333512776635
 20
113.1162846130703
 30
0
 11
-284.6005022570769
 21
153.324312590452
 31
0
  0
SOLID
  8
1
 62
2
 10
-283.3313919834336
 20
150.3566800852769
 30
0
 11
-284.1427156785607
 21
150.1293298016143
 31
0
 12
-284.6005022570769
 22
153.324312590452
 32
0
 13
-284.6005022570769
 23
153.324312590452
 33
0
  0
LINE
  8
1
 62
2
 10
-307.7350337767215
 20
84.60793300598688
 30
0
 11
-296.5341080803825
 21
84.60793300598688
 31
0
  0
SOLID
  8
1
 62
2
 10
-299.7341080803825
 20
84.18664501370722
 30
0
 11
-299.7341080803825
 21
85.02922099826655
 31
0
 12
-296.5341080803825
 22
84.60793300598688
 32
0
 13
-296.5341080803825
 23
84.60793300598688
 33
0
  0
TEXT
  8
1
 62
2
 10
-90.92869169767869
 20
50.62247547302371
 30
0
 40
4
  1
KH42KM2-961
 41
0.9
  0
TEXT
  8
1
 62
2
 10
-106.0962674626635
 20
202.3744312469915
 30
0
 40
4
  1
òÂÄÜé╠î³é½
 50
90
 41
0.9
 72
1
 73
2
 11
-108.0962674626635
 21
220.3744312469915
 31
0
  0
TEXT
  8
1
 62
2
 10
-102.5890954442792
 20
207.2629943374671
 30
0
 40
2
  1
DIRECTION
 50
90
 41
0.9
  0
TEXT
  8
1
 62
2
 10
-99.58909544427918
 20
207.2629943374671
 30
0
 40
2
  1
OF LETTERS
 50
90
 41
0.9
  0
TEXT
  8
1
 62
2
 10
-99.66944844387548
 20
203.7459130338359
 30
0
 40
5
  1
(   )
 50
90
 41
0.9900000000000001
  0
TEXT
  8
1
 62
2
 10
-74.54061432830876
 20
218.3783336591547
 30
0
 40
2.5
  1
(NAME PLATE)
 41
0.45
  0
TEXT
  8
1
 62
2
 10
-75.38116084855626
 20
223.5203380867623
 30
0
 40
3.5
  1
âlü|âÇâvâîü|âg
 41
0.6300000000000001
  0
TEXT
  8
1
 62
2
 10
-265.9142439579246
 20
135.7807616994311
 30
0
 40
3.5
  1
4-M3ü~0.5
 41
0.9
  0
TEXT
  8
1
 62
2
 10
-282.2062930122239
 20
129.0128059200593
 30
0
 40
3.499999999999999
  1
É[é(écédéoéségüjü@éRüDéOéléhém.
 50
0.0009745374036200501
 41
0.5400000000000003
 72
1
 73
2
 11
-251.9663227821493
 21
130.7633202685302
 31
0
  0
TEXT
  8
1
 62
2
 10
-249.0652372805286
 20
124.1542186073515
 30
0
 40
2.4
  1
PHR-11
 41
0.9
  0
TEXT
  8
1
 62
2
 10
-272.2652372805286
 20
124.1542186073515
 30
0
 40
2.4
  1
ânâEâWâôâO
 41
1.215000000000001
  0
TEXT
  8
1
 62
6
 10
-271.4652372805286
 20
121.7542186073516
 30
0
 40
1.6
  1
HOUSING
 41
0.72
  0
TEXT
  8
1
 62
6
 10
-248.9851822534375
 20
121.7542186073516
 30
0
 40
1.6
  1
(JST)
 41
0.9
  0
TEXT
  8
1
 62
2
 10
-271.7346200756347
 20
117.1706717179343
 30
0
 40
2.4
  1
âRâôâ^âNâg
 41
1.215000000000001
  0
TEXT
  8
1
 62
2
 10
-250.4163911048968
 20
117.4322450795383
 30
0
 40
2.4
  1
SPH-002T-P0.5S
 41
0.9
  0
TEXT
  8
1
 62
6
 10
-247.8081021262184
 20
114.9533112056436
 30
0
 40
1.6
  1
(JST)
 41
0.9
  0
TEXT
  8
1
 62
6
 10
-270.9498999908218
 20
114.5549381018933
 30
0
 40
1.6
  1
CONTACT
 41
0.72
  0
TEXT
  8
1
 62
2
 10
-306.8016233020265
 20
87.17481181139701
 30
0
 40
2
  1
  3 5 7 9
 41
0.855
  0
TEXT
  8
1
 62
2
 10
-321.7361908971445
 20
86.24140133670291
 30
0
 40
3.5
  1
âsâôöÈìå
 41
0.9
  0
TEXT
  8
1
 62
2
 10
-321.0361330411236
 20
82.27440681924968
 30
0
 40
2.5
  1
PIN NO.
 41
0.63
  0
TEXT
  8
1
 62
2
 10
-291.2859436055993
 20
40.56175757176477
 30
0
 40
2
  1
BLUE
 41
0.9
 72
1
 73
2
 11
-287.6859436055993
 21
41.56175757176477
 31
0
  0
TEXT
  8
1
 62
2
 10
-281.4659436055993
 20
40.56175757176477
 30
0
 40
2
  1
YELLOW
 41
0.63
 72
1
 73
2
 11
-277.6859436055993
 21
41.56175757176477
 31
0
  0
TEXT
  8
1
 62
2
 10
-300.3859436055993
 20
40.56175757176477
 30
0
 40
2
  1
RED
 41
0.9
 72
1
 73
2
 11
-297.6859436055993
 21
41.56175757176477
 31
0
  0
TEXT
  8
1
 62
2
 10
-271.2859436055993
 20
40.56175757176477
 30
0
 40
2
  1
WHITE
 41
0.7200000000000001
 72
1
 73
2
 11
-267.6859436055993
 21
41.56175757176477
 31
0
  0
TEXT
  8
1
 62
2
 10
-329.4234436055993
 20
40.31175757176477
 30
0
 40
2.5
  1
COLOR OF LEAD
 41
0.63
 72
1
 73
2
 11
-319.1859436055993
 21
41.56175757176477
 31
0
  0
TEXT
  8
1
 62
2
 10
-317.2292814865594
 20
52.31175757176465
 30
0
 40
2.5
  1
(PHASE)
 41
0.54
 73
2
 11
-317.2292814865594
 21
53.56175757176465
 31
0
  0
TEXT
  8
1
 62
2
 10
-317.2292814865594
 20
59.31175757176471
 30
0
 40
2.5
  1
(PIN NO.)
 41
0.54
 73
2
 11
-317.2292814865594
 21
60.56175757176471
 31
0
  0
TEXT
  8
1
 62
2
 10
-291.2859436055993
 20
44.56175757176477
 30
0
 40
4
  1
É┬
 41
0.9
 72
1
 73
2
 11
-287.6859436055993
 21
46.56175757176477
 31
0
  0
TEXT
  8
1
 62
2
 10
-281.2859436055993
 20
44.56175757176477
 30
0
 40
4
  1
ë®
 41
0.9
 72
1
 73
2
 11
-277.6859436055993
 21
46.56175757176477
 31
0
  0
TEXT
  8
1
 62
2
 10
-301.2859436055993
 20
44.56175757176477
 30
0
 40
4
  1
ÉÈ
 41
0.9
 72
1
 73
2
 11
-297.6859436055993
 21
46.56175757176477
 31
0
  0
TEXT
  8
1
 62
2
 10
-271.2859436055993
 20
44.56175757176477
 30
0
 40
4
  1
öÆ
 41
0.9
 72
1
 73
2
 11
-267.6859436055993
 21
46.56175757176477
 31
0
  0
TEXT
  8
1
 62
2
 10
-329.9859436055993
 20
45.06175757176477
 30
0
 40
3
  1
âèü[âhÉ³ÉF
 41
0.72
 72
1
 73
2
 11
-319.1859436055993
 21
46.56175757176477
 31
0
  0
TEXT
  8
1
 62
2
 10
-330.3559436055993
 20
59.06175757176471
 30
0
 40
3
  1
PHR-11
 41
0.6300000000000001
 72
1
 73
2
 11
-324.6859436055993
 21
60.56175757176471
 31
0
  0
TEXT
  8
1
 62
2
 10
-332.7859436055993
 20
52.06175757176465
 30
0
 40
3
  1
ùÒÄÑæè
 41
0.9
 72
1
 73
2
 11
-324.6859436055993
 21
53.56175757176465
 31
0
  0
TEXT
  8
1
 62
2
 10
-299.4859436055993
 20
58.56175757176471
 30
0
 40
4
  1
3
 41
0.9
 72
1
 73
2
 11
-297.6859436055993
 21
60.56175757176471
 31
0
  0
TEXT
  8
1
 62
2
 10
-289.4859436055993
 20
58.56175757176471
 30
0
 40
4
  1
5
 41
0.9
 72
1
 73
2
 11
-287.6859436055993
 21
60.56175757176471
 31
0
  0
TEXT
  8
1
 62
2
 10
-279.4859436055993
 20
58.56175757176471
 30
0
 40
4
  1
7
 41
0.9
 72
1
 73
2
 11
-277.6859436055993
 21
60.56175757176471
 31
0
  0
TEXT
  8
1
 62
2
 10
-269.4859436055993
 20
58.56175757176471
 30
0
 40
4
  1
9
 41
0.9
 72
1
 73
2
 11
-267.6859436055993
 21
60.56175757176471
 31
0
  0
TEXT
  8
1
 62
2
 10
-299.4859436055993
 20
51.56175757176465
 30
0
 40
4
  1
A
 41
0.9
 72
1
 73
2
 11
-297.6859436055993
 21
53.56175757176465
 31
0
  0
TEXT
  8
1
 62
2
 10
-289.4859436055993
 20
51.56175757176465
 30
0
 40
4
  1
A
 41
0.9
 72
1
 73
2
 11
-287.6859436055993
 21
53.56175757176465
 31
0
  0
TEXT
  8
1
 62
2
 10
-279.4859436055993
 20
51.56175757176465
 30
0
 40
4
  1
B
 41
0.9
 72
1
 73
2
 11
-277.6859436055993
 21
53.56175757176465
 31
0
  0
TEXT
  8
1
 62
2
 10
-269.4859436055993
 20
51.56175757176465
 30
0
 40
4
  1
B
 41
0.9
 72
1
 73
2
 11
-267.6859436055993
 21
53.56175757176465
 31
0
  0
DIMENSION
  8
1
  6
CONTINUOUS
 62
2
  2
*D0
  3
DMST_1
 10
-170.2661590091715
 20
242.3160168546034
 30
0
 11
-159.197478244798
 21
245.9160168546034
 31
0
 12
0
 22
0
 32
0
 70
0
 13
-146.2661934923953
 23
200.7170729120392
 33
0
 14
-170.2661590091715
 24
182.7170729120392
 34
0
 53
0
  0
DIMENSION
  8
0
  6
CONTINUOUS
 62
2
  2
*D1
  3
DMST_2
 10
-146.2661934923953
 20
242.3160168546033
 30
0
 11
-126.003963656898
 21
245.5160168546033
 31
0
 12
0
 22
0
 32
0
 70
0
  1
50
 13
-96.6661859923953
 23
200.7170729120392
 33
0
 14
-146.2661934923953
 24
200.3480646216076
 34
0
 53
0
  0
DIMENSION
  8
0
  6
CONTINUOUS
 62
2
  2
*D2
  3
DMST_3
 10
-148.2661934923953
 20
232.1735540638553
 30
0
 11
-154.771676299745
 21
235.3735540638553
 31
0
 12
0
 22
0
 32
0
 70
0
 13
-146.2661934923953
 23
200.3480646216076
 33
0
 14
-148.2661934923953
 24
191.7170729120392
 34
0
 53
0
  0
DIMENSION
  8
0
  6
CONTINUOUS
 62
2
  2
*D3
  3
DMST_3
 10
-191.723579460556
 20
169.7170729120393
 30
0
 11
-195.723579460556
 21
180.6872107379393
 31
0
 12
0
 22
0
 32
0
 70
0
  1
%%c<>
 13
-148.2661934923953
 23
191.7170729120392
 33
0
 14
-148.2662934923954
 24
169.7170729120393
 34
0
 50
90
 53
0
  0
DIMENSION
  8
0
  6
CONTINUOUS
 62
2
  2
*D4
  3
DMST_4
 10
-316.1671417786903
 20
226.7170729120392
 30
0
 11
-295.1671411832807
 21
229.9170729120392
 31
0
 12
0
 22
0
 32
0
 70
0
  1
(<>
 13
-274.167140587871
 23
196.7170729120392
 33
0
 14
-316.1671417786905
 24
196.7170741028587
 34
0
 53
0
  0
DIMENSION
  8
0
  6
CONTINUOUS
 62
2
  2
*D5
  3
DMST_5
 10
-310.6671305878709
 20
216.7170729120392
 30
0
 11
-295.167140587871
 21
219.9170729120392
 31
0
 12
0
 22
0
 32
0
 70
0
 13
-279.667140587871
 23
198.7170729120392
 33
0
 14
-310.6671305878712
 24
198.7170729120392
 34
0
 53
0
  0
DIMENSION
  8
1
  6
CONTINUOUS
 62
2
  2
*D6
  3
DMST_6
 10
-256.7447548785098
 20
196.2170729120392
 30
0
 11
-260.3447548785097
 21
181.291499179405
 31
0
 12
0
 22
0
 32
0
 70
0
 13
-277.167140587871
 23
165.2170729120393
 33
0
 14
-277.167140587871
 24
196.2170729120392
 34
0
 50
90
 53
0
  0
DIMENSION
  8
1
  6
CONTINUOUS
 62
2
  2
*D7
  3
DMST_7
 10
-323.3345351292836
 20
96.79900830326839
 30
0
 11
-326.9345351292835
 21
103.4197154809783
 31
0
 12
0
 22
0
 32
0
 70
0
  1
(<>
 13
-301.5171405878712
 23
93.29900830326841
 33
0
 14
-301.8371405878712
 24
96.79900830326841
 34
0
 50
90
 53
0
  0
DIMENSION
  8
1
  6
CONTINUOUS
 62
2
  2
*D8
  3
DMST_8
 10
-330.0619850562745
 20
93.29900830326841
 30
0
 11
-334.8619850562745
 21
117.5751590114593
 31
0
 12
0
 22
0
 32
0
 70
0
  1
300
 13
-307.1671405878711
 23
153.2170729120394
 33
0
 14
-301.5171405878712
 24
93.29900830326841
 34
0
 50
90
 53
0
  0
DIMENSION
  8
1
  6
CONTINUOUS
 62
2
  2
*D9
  3
DMST_9
 10
-170.2661643154668
 20
222.2154996874853
 30
0
 11
-163.07005494672
 21
225.8154996874853
 31
0
 12
0
 22
0
 32
0
 70
0
 13
-155.2661627675622
 23
183.2170729120392
 33
0
 14
-170.2661643154668
 24
182.7170729120392
 34
0
 53
0
  0
DIMENSION
  8
1
  6
CONTINUOUS
 62
2
  2
*D10
  3
DMST_10
 10
-174.343692916356
 20
178.2170729120392
 30
0
 11
-177.943692916356
 21
162.2949036183483
 31
0
 12
0
 22
0
 32
0
 70
0
 13
-170.2661643154668
 23
182.7170729120392
 33
0
 14
-170.2661782459609
 24
178.2170729120392
 34
0
 50
90
 53
0
  0
DIMENSION
  8
1
  6
CONTINUOUS
 62
2
  2
*D11
  3
DMST_11
 10
-180.249479606133
 20
183.2170729120392
 30
0
 11
-185.049479606133
 21
180.8559475005043
 31
0
 12
0
 22
0
 32
0
 70
0
  1
âË<>
 13
-170.2661782459609
 23
178.2170729120392
 33
0
 14
-155.2661627675622
 24
183.2170729120392
 34
0
 50
90
 53
0
  0
DIMENSION
  8
1
  6
CONTINUOUS
 62
2
  2
*D12
  3
DMST_7
 10
-80.66619274239422
 20
242.3160168546034
 30
0
 11
-88.5798258627335
 21
245.9160168546034
 31
0
 12
0
 22
0
 32
0
 70
0
  1
(<>
 13
-96.6661859923953
 23
200.7170729120392
 33
0
 14
-80.66619274239422
 24
182.7170729120392
 34
0
 53
0
  0
DIMENSION
  8
1
  6
CONTINUOUS
 62
2
  2
*D13
  3
DMST_9
 10
-95.66619255489528
 20
222.2154996874853
 30
0
 11
-88.2173786162484
 21
225.8154996874853
 31
0
 12
0
 22
0
 32
0
 70
0
 13
-80.66619274239422
 23
182.7170729120392
 33
0
 14
-95.66619255489528
 24
183.2170729120392
 34
0
 53
0
  0
DIMENSION
  8
1
  6
CONTINUOUS
 62
2
  2
*D14
  3
DMST_11
 10
-61.7642330926909
 20
183.2170729120392
 30
0
 11
-66.5642330926909
 21
195.6681537600433
 31
0
 12
0
 22
0
 32
0
 70
0
  1
âË<>
 13
-80.66619442989422
 23
178.2170729120392
 33
0
 14
-95.66619255489528
 24
183.2170729120392
 34
0
 50
90
 53
0
  0
DIMENSION
  8
1
  6
CONTINUOUS
 62
2
  2
*D15
  3
DMST_10
 10
-71.89680849991154
 20
182.7170696235201
 30
0
 11
-75.49680421037625
 21
194.1558310626273
 31
0
 12
0
 22
0
 32
0
 70
1
 13
-80.66619442989422
 23
178.2170729120392
 33
0
 14
-80.66619274239422
 24
182.7170729120392
 34
0
 53
0
  0
DIMENSION
  8
1
  6
CONTINUOUS
 62
2
  2
*D16
  3
DMST_7
 10
-249.1671841136415
 20
155.1670729120393
 30
0
 11
-252.7671841136415
 21
148.5148602687547
 31
0
 12
0
 22
0
 32
0
 70
0
  1
4.6
 13
-279.167142062703
 23
159.7170743868716
 33
0
 14
-283.2171405878712
 24
155.1670729120393
 34
0
 50
90
 53
0
  0
DIMENSION
  8
1
  6
CONTINUOUS
 62
2
  2
*D17
  3
DMST_7
 10
-330.0619850562745
 20
159.7170838257988
 30
0
 11
-332.7216745622945
 21
168.6791553522623
 31
0
 12
0
 22
0
 32
0
 70
0
  1
üª(<>
 13
-306.5671405878712
 23
153.2170729120394
 33
0
 14
-311.1671508747653
 24
159.7170838257988
 34
0
 50
90
 53
0
  0
DIMENSION
  8
1
  6
CONTINUOUS
 62
2
  2
*D18
  3
DMST_7
 10
-249.167140587871
 20
201.7170729120392
 30
0
 11
-252.767140587871
 21
181.550916060879
 31
0
 12
0
 22
0
 32
0
 70
0
  1
(<>
 13
-279.167142062703
 23
159.7170743868716
 33
0
 14
-279.167140587871
 24
201.7170729120392
 34
0
 50
90
 53
0
  0
ENDSEC
  0
EOF
