  0
SECTION
  2
HEADER
  9
$ACADVER
  1
AC1009
  9
$INSBASE
 10
0
 20
0
  9
$EXTMIN
 10
-354.6312101865461
 20
37.63151967490575
  9
$EXTMAX
 10
-48.0398028087898
 20
246.6991158046903
  9
$LIMMIN
 10
-354.6312101865461
 20
37.63151967490575
  9
$LIMMAX
 10
-48.0398028087898
 20
246.6991158046903
  9
$VIEWCTR
 10
10
 20
10
  9
$VIEWSIZE
 40
10
  9
$SNAPMODE
 70
0
  9
$SNAPUNIT
 10
1
 20
1
  9
$SNAPBASE
 10
0
 20
0
  9
$SNAPANG
 50
0
  9
$SNAPSTYLE
 70
0
  9
$SNAPISOPAIR
 70
0
  9
$GRIDMODE
 70
0
  9
$GRIDUNIT
 10
0
 20
0
  9
$ORTHOMODE
 70
0
  9
$REGENMODE
 70
1
  9
$FILLMODE
 70
1
  9
$QTEXTMODE
 70
0
  9
$DRAGMODE
 70
2
  9
$LTSCALE
 40
1
  9
$OSMODE
 70
0
  9
$ATTMODE
 70
1
  9
$TEXTSIZE
 40
3.5
  9
$TRACEWID
 40
0.5
  9
$TEXTSTYLE
  7
STANDARD
  9
$CLAYER
  8
0
  9
$CELTYPE
  6
BYLAYER
  9
$CECOLOR
 62
256
  9
$DIMSCALE
 40
1
  9
$DIMASZ
 40
0.18
  9
$DIMEXO
 40
0.0625
  9
$DIMDLI
 40
0.38
  9
$DIMRND
 40
0
  9
$DIMDLE
 40
0
  9
$DIMEXE
 40
0.18
  9
$DIMTP
 40
0
  9
$DIMTM
 40
0
  9
$DIMTXT
 40
0.18
  9
$DIMCEN
 40
0.09
  9
$DIMTSZ
 40
0
  9
$DIMTOL
 70
0
  9
$DIMLIM
 70
0
  9
$DIMTIH
 70
1
  9
$DIMTOH
 70
1
  9
$DIMSE1
 70
0
  9
$DIMSE2
 70
0
  9
$DIMTAD
 70
0
  9
$DIMZIN
 70
0
  9
$DIMBLK
  1

  9
$DIMASO
 70
1
  9
$DIMSHO
 70
1
  9
$DIMPOST
  1

  9
$DIMAPOST
  1

  9
$DIMALT
 70
0
  9
$DIMALTD
 70
2
  9
$DIMALTF
 40
25.4
  9
$DIMLFAC
 40
1
  9
$DIMTOFL
 70
0
  9
$DIMTVP
 40
0
  9
$DIMTIX
 70
0
  9
$DIMSOXD
 70
0
  9
$DIMSAH
 70
0
  9
$DIMBLK1
  1

  9
$DIMBLK2
  1

  9
$DIMSTYLE
  2
*UNNAMED
  9
$DIMCLRD
 70
0
  9
$DIMCLRE
 70
0
  9
$DIMCLRT
 70
0
  9
$DIMTFAC
 40
1
  9
$DIMGAP
 40
0.09
  9
$LUNITS
 70
2
  9
$LUPREC
 70
4
  9
$AXISMODE
 70
0
  9
$AXISUNIT
 10
0
 20
0
  9
$SKETCHINC
 40
0.1
  9
$FILLETRAD
 40
2
  9
$AUNITS
 70
0
  9
$AUPREC
 70
0
  9
$MENU
  1
ACAD
  9
$ELEVATION
 40
0
  9
$THICKNESS
 40
0
  9
$VIEWDIR
 10
0
 20
0
 30
1
  9
$LIMCHECK
 70
0
  9
$BLIPMODE
 70
1
  9
$CHAMFERA
 40
0
  9
$CHAMFERB
 40
0
  9
$FASTZOOM
 70
1
  9
$SKPOLY
 70
0
  9
$ANGBASE
 50
0
  9
$ANGDIR
 70
0
  9
$PDMODE
 70
0
  9
$PDSIZE
 40
0
  9
$PLINEWID
 40
0
  9
$COORDS
 70
2
  0
ENDSEC
  0
SECTION
  2
TABLES
  0
TABLE
  2
DIMSTYLE
 70
10
  0
DIMSTYLE
  2
DMST_1
 70
0
  3

  4

  5

  6

  7

 40
1
 41
3.2
 42
1
 43
7
 44
1.5
 45
0
 46
0
 47
0.1
 48
0.1
140
3.2
141
0
142
0
143
25.4
144
1
145
0
146
0.7
147
0.09
 71
1
 72
0
 73
0
 74
0
 75
0
 76
0
 77
1
 78
9
170
0
171
2
172
0
173
0
174
0
175
0
176
2
177
2
178
2
  0
DIMSTYLE
  2
DMST_2
 70
0
  3

  4

  5

  6

  7

 40
1
 41
3.2
 42
1
 43
7
 44
1.5
 45
0
 46
0
 47
0
 48
0.011
140
3.2
141
0
142
0
143
25.4
144
1
145
0
146
0.7
147
0.09
 71
1
 72
0
 73
0
 74
0
 75
0
 76
0
 77
1
 78
9
170
0
171
2
172
0
173
0
174
0
175
0
176
2
177
2
178
2
  0
DIMSTYLE
  2
DMST_3
 70
0
  3

  4

  5

  6

  7

 40
1
 41
3.2
 42
1
 43
7
 44
1.5
 45
0
 46
0
 47
0.2
 48
0.2
140
3.2
141
0
142
0
143
25.4
144
1
145
0
146
0.7
147
0.09
 71
1
 72
0
 73
0
 74
0
 75
0
 76
0
 77
1
 78
9
170
0
171
2
172
0
173
0
174
0
175
0
176
2
177
2
178
2
  0
DIMSTYLE
  2
DMST_4
 70
0
  3
)
  4

  5

  6

  7

 40
1
 41
3.2
 42
1
 43
7
 44
1.5
 45
0
 46
0
 47
0
 48
0
140
3.2
141
0
142
0
143
25.4
144
1
145
0
146
1
147
0.09
 71
0
 72
0
 73
0
 74
0
 75
0
 76
0
 77
1
 78
9
170
0
171
2
172
0
173
0
174
0
175
0
176
2
177
2
178
2
  0
DIMSTYLE
  2
DMST_5
 70
0
  3

  4

  5

  6

  7

 40
1
 41
3.200000000000001
 42
1
 43
7
 44
1
 45
0
 46
0
 47
0.2
 48
0.2
140
3.200000000000001
141
0
142
0
143
25.4
144
1
145
0
146
0.6
147
0.09
 71
1
 72
0
 73
0
 74
0
 75
0
 76
0
 77
1
 78
9
170
0
171
2
172
0
173
0
174
0
175
0
176
2
177
2
178
2
  0
DIMSTYLE
  2
DMST_6
 70
0
  3

  4

  5

  6

  7

 40
1
 41
3.2
 42
0
 43
7
 44
1
 45
0
 46
0
 47
0
 48
0
140
3.2
141
0
142
0
143
25.4
144
1
145
0
146
0.6
147
0.09
 71
1
 72
0
 73
0
 74
0
 75
0
 76
0
 77
1
 78
9
170
0
171
2
172
0
173
0
174
0
175
0
176
2
177
2
178
2
  0
DIMSTYLE
  2
DMST_7
 70
0
  3
)
  4

  5

  6

  7

 40
1
 41
3.2
 42
1
 43
7
 44
1
 45
0
 46
0
 47
0
 48
0
140
3.2
141
0
142
0
143
25.4
144
1
145
0
146
1
147
0.09
 71
0
 72
0
 73
0
 74
0
 75
0
 76
0
 77
1
 78
9
170
0
171
2
172
0
173
0
174
0
175
0
176
2
177
2
178
2
  0
DIMSTYLE
  2
DMST_8
 70
0
  3

  4

  5

  6

  7

 40
1
 41
3.2
 42
1
 43
7
 44
1
 45
0
 46
0
 47
0
 48
0
140
3.2
141
0
142
0
143
25.4
144
1
145
0
146
0.6
147
0.09
 71
1
 72
0
 73
0
 74
0
 75
0
 76
0
 77
1
 78
9
170
0
171
2
172
0
173
0
174
0
175
0
176
2
177
2
178
2
  0
DIMSTYLE
  2
DMST_9
 70
0
  3
MAX.
  4

  5

  6

  7

 40
1
 41
3.2
 42
1
 43
7
 44
1
 45
0
 46
0
 47
0
 48
0
140
3.2
141
0
142
0
143
25.4
144
1
145
0
146
1
147
0.09
 71
0
 72
0
 73
0
 74
0
 75
0
 76
0
 77
1
 78
9
170
0
171
2
172
0
173
0
174
0
175
0
176
2
177
2
178
2
  0
DIMSTYLE
  2
DMST_10
 70
0
  3

  4

  5

  6

  7

 40
1
 41
3.2
 42
1
 43
7
 44
1
 45
0
 46
0
 47
0.5
 48
0.5
140
3.2
141
0
142
0
143
25.4
144
1
145
0
146
0.6
147
0.09
 71
1
 72
0
 73
0
 74
0
 75
0
 76
0
 77
1
 78
9
170
0
171
2
172
0
173
0
174
0
175
0
176
2
177
2
178
2
  0
ENDTAB
  0
TABLE
  2
LTYPE
 70
9
  0
LTYPE
  2
CONTINUOUS
 70
64
  3
Solid line
 72
65
 73
0
 40
0
  0
LTYPE
  2
BORDER
 70
64
  3
__ __ . __ __ .
 72
65
 73
6
 40
14.11934112923878
 49
4.034097465496794
 49
-2.017048732748397
 49
4.034097465496794
 49
-2.017048732748397
 49
0
 49
-2.017048732748397
  0
LTYPE
  2
CENTER
 70
64
  3
____ _ ____ _
 72
65
 73
4
 40
16.13638986198718
 49
10.08524366374198
 49
-2.017048732748397
 49
2.017048732748397
 49
-2.017048732748397
  0
LTYPE
  2
DASHDOT
 70
64
  3
__ . __ . __ .
 72
65
 73
4
 40
8.068194930993588
 49
4.034097465496794
 49
-2.017048732748397
 49
0
 49
-2.017048732748397
  0
LTYPE
  2
DASHED
 70
64
  3
__ __ __ __ __
 72
65
 73
2
 40
6.051146198245191
 49
4.034097465496794
 49
-2.017048732748397
  0
LTYPE
  2
DIVIDE
 70
64
  3
__ . . __ . . 
 72
65
 73
6
 40
10.08524366374198
 49
4.034097465496794
 49
-2.017048732748397
 49
0
 49
-2.017048732748397
 49
0
 49
-2.017048732748397
  0
LTYPE
  2
DOT
 70
64
  3
..............
 72
65
 73
4
 40
4.034097465496794
 49
0
 49
-2.017048732748397
 49
0
 49
-2.017048732748397
  0
LTYPE
  2
HIDDEN
 70
64
  3
_ _ _ _ _ _ _
 72
65
 73
2
 40
3.025573099122596
 49
2.017048732748397
 49
-1.008524366374199
  0
LTYPE
  2
PHANTOM
 70
64
  3
_____ _ _ _____ _ _ 
 72
65
 73
6
 40
20.17048732748397
 49
10.08524366374198
 49
-2.017048732748397
 49
2.017048732748397
 49
-2.017048732748397
 49
2.017048732748397
 49
-2.017048732748397
  0
ENDTAB
  0
TABLE
  2
LAYER
 70
5
  0
LAYER
  2
1
 70
0
 62
7
  6
CONTINUOUS
  0
LAYER
  2
2
 70
0
 62
7
  6
CONTINUOUS
  0
LAYER
  2
4
 70
0
 62
7
  6
CONTINUOUS
  0
LAYER
  2
0
 70
0
 62
7
  6
CONTINUOUS
  0
ENDTAB
  0
TABLE
  2
STYLE
 70
4
  0
STYLE
  2
STANDARD
 70
0
 40
0
 41
1
 50
0
 71
0
 42
3.5
  3
txt
  4

  0
STYLE
  2
SIMPLEX
 70
0
 40
0
 41
1
 50
0
 71
0
 42
3.5
  3
simplex
  4

  0
STYLE
  2
COMPLEX
 70
0
 40
0
 41
1
 50
0
 71
0
 42
3.5
  3
complex
  4

  0
STYLE
  2
ITALIC
 70
0
 40
0
 41
1
 50
0
 71
0
 42
3.5
  3
italic
  4

  0
ENDTAB
  0
TABLE
  2
VIEW
 70
0
  0
ENDTAB
  0
ENDSEC
  0
SECTION
  2
BLOCKS
  0
BLOCK
  8
1
  2
*D0
 70
1
 10
0
 20
0
 30
0
  0
LINE
  8
1
 62
2
 10
-72.540137345145
 20
182.7170729120392
 30
0
 11
-72.540137345145
 21
199.6563918889153
 31
0
  0
LINE
  8
1
 62
2
 10
-72.540137345145
 20
178.2170729120392
 30
0
 11
-72.540137345145
 21
182.7170729120392
 31
0
  0
LINE
  8
1
 62
2
 10
-72.540137345145
 20
171.8170729120392
 30
0
 11
-72.540137345145
 21
178.2170729120392
 31
0
  0
LINE
  8
1
 62
2
 10
-79.66619274239422
 20
182.7170729120392
 30
0
 11
-71.040137345145
 21
182.7170729120392
 31
0
  0
LINE
  8
1
 62
2
 10
-79.66619442989422
 20
178.2170729120392
 30
0
 11
-71.040137345145
 21
178.2170729120392
 31
0
  0
SOLID
  8
1
 62
2
 10
-72.540137345145
 20
182.7170729120392
 30
0
 11
-72.956137345145
 21
185.9170729120392
 31
0
 12
-72.124137345145
 22
185.9170729120392
 32
0
 13
-72.124137345145
 23
185.9170729120392
 33
0
  0
SOLID
  8
1
 62
2
 10
-72.540137345145
 20
178.2170729120392
 30
0
 11
-72.124137345145
 21
175.0170729120392
 31
0
 12
-72.956137345145
 22
175.0170729120392
 32
0
 13
-72.956137345145
 23
175.0170729120392
 33
0
  0
TEXT
  8
1
 62
2
 10
-74.540137345145
 20
186.7339918889153
 30
0
 40
3.2
  1
4.5
 50
90
 41
0.9
  0
TEXT
  8
1
 62
2
 10
-75.02013734514499
 20
194.1739918889153
 30
0
 40
2.24
  1
%%p0.1
 50
90
 41
0.9900000000000001
  0
ENDBLK
  8
0
  0
BLOCK
  8
1
  2
*D1
 70
1
 10
0
 20
0
 30
0
  0
LINE
  8
1
 62
2
 10
-61.71098337799261
 20
183.2170729120392
 30
0
 11
-61.71098337799261
 21
204.2718230914994
 31
0
  0
LINE
  8
1
 62
2
 10
-61.71098337799261
 20
178.2170729120392
 30
0
 11
-61.71098337799261
 21
183.2170729120392
 31
0
  0
LINE
  8
1
 62
2
 10
-61.71098337799261
 20
171.8170729120392
 30
0
 11
-61.71098337799261
 21
178.2170729120392
 31
0
  0
LINE
  8
1
 62
2
 10
-94.66619255489528
 20
183.2170729120392
 30
0
 11
-60.21098337799261
 21
183.2170729120392
 31
0
  0
LINE
  8
1
 62
2
 10
-79.66619442989422
 20
178.2170729120392
 30
0
 11
-60.21098337799261
 21
178.2170729120392
 31
0
  0
SOLID
  8
1
 62
2
 10
-61.71098337799261
 20
183.2170729120392
 30
0
 11
-62.12698337799261
 21
186.4170729120392
 31
0
 12
-61.29498337799261
 22
186.4170729120392
 32
0
 13
-61.29498337799261
 23
186.4170729120392
 33
0
  0
SOLID
  8
1
 62
2
 10
-61.71098337799261
 20
178.2170729120392
 30
0
 11
-61.29498337799261
 21
175.0170729120392
 31
0
 12
-62.1269833779926
 22
175.0170729120392
 32
0
 13
-62.1269833779926
 23
175.0170729120392
 33
0
  0
TEXT
  8
1
 62
2
 10
-64.91098337799261
 20
191.3270230914994
 30
0
 40
3.2
  1
5
 50
90
 41
0.9
  0
TEXT
  8
1
 62
2
 10
-67.0709833779926
 20
194.8470230914994
 30
0
 40
2.24
  1
 0
 50
90
 41
0.9900000000000001
  0
TEXT
  8
1
 62
2
 10
-63.71098337799261
 20
194.8470230914994
 30
0
 40
2.24
  1
-0.011
 50
90
 41
0.9900000000000001
  0
TEXT
  8
1
 62
2
 10
-64.91098337799261
 20
186.0564348562052
 30
0
 40
3.2
  1
âË
 50
90
 41
1.35
  0
ENDBLK
  8
0
  0
BLOCK
  8
1
  2
*D2
 70
1
 10
0
 20
0
 30
0
  0
LINE
  8
1
 62
2
 10
-95.66619255489528
 20
222.9688927375503
 30
0
 11
-80.66619274239422
 21
222.9688927375503
 31
0
  0
LINE
  8
1
 62
2
 10
-80.66619274239422
 20
183.7170729120392
 30
0
 11
-80.66619274239422
 21
224.4688927375503
 31
0
  0
LINE
  8
1
 62
2
 10
-95.66619255489528
 20
184.2170729120392
 30
0
 11
-95.66619255489528
 21
224.4688927375503
 31
0
  0
SOLID
  8
1
 62
2
 10
-80.66619274239422
 20
222.9688927375503
 30
0
 11
-83.86619274239422
 21
222.5528927375503
 31
0
 12
-83.86619274239422
 22
223.3848927375503
 32
0
 13
-83.86619274239422
 23
223.3848927375503
 33
0
  0
SOLID
  8
1
 62
2
 10
-95.66619255489528
 20
222.9688927375503
 30
0
 11
-92.46619255489527
 21
223.3848927375503
 31
0
 12
-92.46619255489527
 22
222.5528927375503
 32
0
 13
-92.46619255489527
 23
222.5528927375503
 33
0
  0
TEXT
  8
1
 62
2
 10
-94.0380510067135
 20
224.9688927375503
 30
0
 40
3.2
  1
15
 41
0.9
  0
TEXT
  8
1
 62
2
 10
-88.5980510067135
 20
225.4488927375503
 30
0
 40
2.24
  1
%%p0.2
 41
0.9900000000000001
  0
ENDBLK
  8
0
  0
BLOCK
  8
1
  2
*D3
 70
1
 10
0
 20
0
 30
0
  0
LINE
  8
1
 62
2
 10
-96.6661859923953
 20
241.4991158046903
 30
0
 11
-80.66619274239422
 21
241.4991158046903
 31
0
  0
LINE
  8
1
 62
2
 10
-80.66619274239422
 20
183.7170729120392
 30
0
 11
-80.66619274239422
 21
242.9991158046903
 31
0
  0
LINE
  8
1
 62
2
 10
-96.6661859923953
 20
201.7170729120392
 30
0
 11
-96.6661859923953
 21
242.9991158046903
 31
0
  0
SOLID
  8
1
 62
2
 10
-96.6661859923953
 20
241.4991158046903
 30
0
 11
-93.4661859923953
 21
241.9151158046903
 31
0
 12
-93.4661859923953
 22
241.0831158046903
 32
0
 13
-93.4661859923953
 23
241.0831158046903
 33
0
  0
SOLID
  8
1
 62
2
 10
-80.66619274239422
 20
241.4991158046903
 30
0
 11
-83.86619274239422
 21
241.0831158046903
 31
0
 12
-83.86619274239422
 22
241.9151158046903
 32
0
 13
-83.86619274239422
 23
241.9151158046903
 33
0
  0
TEXT
  8
1
 62
2
 10
-90.6597810487425
 20
243.4991158046903
 30
0
 40
3.2
  1
16
 41
0.9
  0
TEXT
  8
1
 62
2
 10
-92.97978104874251
 20
243.4991158046903
 30
0
 40
3.2
  1
(
 41
1.35
  0
TEXT
  8
1
 62
2
 10
-85.2197810487425
 20
243.4991158046903
 30
0
 40
3.2
  1
)
 41
0.9
  0
ENDBLK
  8
0
  0
BLOCK
  8
1
  2
*D4
 70
1
 10
0
 20
0
 30
0
  0
LINE
  8
1
 62
2
 10
-170.2661643154668
 20
222.9688927375503
 30
0
 11
-155.2661627675622
 21
222.9688927375503
 31
0
  0
LINE
  8
1
 62
2
 10
-155.2661627675622
 20
184.2170729120392
 30
0
 11
-155.2661627675622
 21
224.4688927375503
 31
0
  0
LINE
  8
1
 62
2
 10
-170.2661643154668
 20
183.7170729120392
 30
0
 11
-170.2661643154668
 21
224.4688927375503
 31
0
  0
SOLID
  8
1
 62
2
 10
-170.2661643154668
 20
222.9688927375503
 30
0
 11
-167.0661643154668
 21
223.3848927375503
 31
0
 12
-167.0661643154668
 22
222.5528927375503
 32
0
 13
-167.0661643154668
 23
222.5528927375503
 33
0
  0
SOLID
  8
1
 62
2
 10
-155.2661627675622
 20
222.9688927375503
 30
0
 11
-158.4661627675622
 21
222.5528927375503
 31
0
 12
-158.4661627675622
 22
223.3848927375503
 32
0
 13
-158.4661627675622
 23
223.3848927375503
 33
0
  0
TEXT
  8
1
 62
2
 10
-168.336339392505
 20
224.9688927375503
 30
0
 40
3.2
  1
15
 41
0.9
  0
TEXT
  8
1
 62
2
 10
-162.896339392505
 20
225.4488927375503
 30
0
 40
2.24
  1
%%p0.2
 41
0.9900000000000001
  0
ENDBLK
  8
0
  0
BLOCK
  8
1
  2
*D5
 70
1
 10
0
 20
0
 30
0
  0
LINE
  8
1
 62
2
 10
-179.838818205212
 20
183.2170729120392
 30
0
 11
-179.838818205212
 21
189.6170729120392
 31
0
  0
LINE
  8
1
 62
2
 10
-179.838818205212
 20
178.2170729120392
 30
0
 11
-179.838818205212
 21
171.8170729120392
 31
0
  0
LINE
  8
1
 62
2
 10
-179.838818205212
 20
178.2170729120392
 30
0
 11
-179.838818205212
 21
183.2170729120392
 31
0
  0
LINE
  8
1
 62
2
 10
-156.2661627675622
 20
183.2170729120392
 30
0
 11
-181.338818205212
 21
183.2170729120392
 31
0
  0
LINE
  8
1
 62
2
 10
-171.2661782459609
 20
178.2170729120392
 30
0
 11
-181.338818205212
 21
178.2170729120392
 31
0
  0
SOLID
  8
1
 62
2
 10
-179.838818205212
 20
183.2170729120392
 30
0
 11
-180.254818205212
 21
186.4170729120392
 31
0
 12
-179.422818205212
 22
186.4170729120392
 32
0
 13
-179.422818205212
 23
186.4170729120392
 33
0
  0
SOLID
  8
1
 62
2
 10
-179.838818205212
 20
178.2170729120392
 30
0
 11
-179.422818205212
 21
175.0170729120392
 31
0
 12
-180.254818205212
 22
175.0170729120392
 32
0
 13
-180.254818205212
 23
175.0170729120392
 33
0
  0
TEXT
  8
1
 62
2
 10
-183.038818205212
 20
176.8573695359354
 30
0
 40
3.2
  1
5
 50
90
 41
0.9
  0
TEXT
  8
1
 62
2
 10
-185.198818205212
 20
180.3773695359354
 30
0
 40
2.24
  1
 0
 50
90
 41
0.9900000000000001
  0
TEXT
  8
1
 62
2
 10
-181.838818205212
 20
180.3773695359354
 30
0
 40
2.24
  1
-0.011
 50
90
 41
0.9900000000000001
  0
TEXT
  8
1
 62
2
 10
-183.038818205212
 20
171.5867813006412
 30
0
 40
3.2
  1
âË
 50
90
 41
1.35
  0
ENDBLK
  8
0
  0
BLOCK
  8
1
  2
*D6
 70
1
 10
0
 20
0
 30
0
  0
LINE
  8
1
 62
2
 10
-174.8625239469401
 20
178.2170871407874
 30
0
 11
-174.8625942738915
 21
155.4992080095668
 31
0
  0
LINE
  8
1
 62
2
 10
-174.8625239469401
 20
178.2170871407874
 30
0
 11
-174.862510016446
 21
182.7170871407874
 31
0
  0
LINE
  8
1
 62
2
 10
-174.8624902041877
 20
189.1170871407567
 30
0
 11
-174.862510016446
 21
182.7170871407874
 31
0
  0
LINE
  8
1
 62
2
 10
-171.266164315462
 20
182.7170760077046
 30
0
 11
-176.3625100164388
 21
182.7170917842854
 31
0
  0
LINE
  8
1
 62
2
 10
-171.2661782459561
 20
178.2170760077046
 30
0
 11
-176.3625239469329
 21
178.2170917842854
 31
0
  0
SOLID
  8
1
 62
2
 10
-174.862510016446
 20
182.7170871407874
 30
0
 11
-175.2785001103149
 21
185.9170884285688
 31
0
 12
-174.4465001103189
 22
185.9170858529753
 32
0
 13
-174.4465001103189
 23
185.9170858529753
 33
0
  0
SOLID
  8
1
 62
2
 10
-174.8625239469401
 20
178.2170871407874
 30
0
 11
-174.4465338530713
 21
175.0170858530059
 31
0
 12
-175.2785338530673
 22
175.0170884285995
 32
0
 13
-175.2785338530673
 23
175.0170884285995
 33
0
  0
TEXT
  8
1
 62
2
 10
-175.7995075356667
 20
155.4992109099367
 30
0
 40
3.2
  1
4.5
 50
89.99982263144027
 41
0.9
  0
TEXT
  8
1
 62
2
 10
-176.2794845039141
 20
162.9392123958204
 30
0
 40
2.24
  1
%%p0.1
 50
89.99982263144027
 41
0.9900000000000001
  0
ENDBLK
  8
0
  0
BLOCK
  8
1
  2
*D7
 70
1
 10
0
 20
0
 30
0
  0
LINE
  8
1
 62
2
 10
-320.5373610022675
 20
96.79900830326841
 30
0
 11
-320.5373610022675
 21
116.2469617825453
 31
0
  0
LINE
  8
1
 62
2
 10
-320.5373610022675
 20
93.29900830326841
 30
0
 11
-320.5373610022675
 21
96.79900830326841
 31
0
  0
LINE
  8
1
 62
2
 10
-320.5373610022675
 20
86.8990083032684
 30
0
 11
-320.5373610022675
 21
93.29900830326841
 31
0
  0
LINE
  8
1
 62
2
 10
-304.0399664608552
 20
96.79900830326841
 30
0
 11
-322.0373610022675
 21
96.79900830326841
 31
0
  0
LINE
  8
1
 62
2
 10
-303.4199664608552
 20
93.29900830326841
 30
0
 11
-322.0373610022675
 21
93.29900830326841
 31
0
  0
SOLID
  8
1
 62
2
 10
-320.5373610022675
 20
93.29900830326841
 30
0
 11
-320.1213610022675
 21
90.09900830326841
 31
0
 12
-320.9533610022675
 22
90.09900830326841
 32
0
 13
-320.9533610022675
 23
90.09900830326841
 33
0
  0
SOLID
  8
1
 62
2
 10
-320.5373610022675
 20
96.79900830326841
 30
0
 11
-320.9533610022675
 21
99.99900830326841
 31
0
 12
-320.1213610022675
 22
99.99900830326841
 32
0
 13
-320.1213610022675
 23
99.99900830326841
 33
0
  0
TEXT
  8
1
 62
2
 10
-322.5373610022675
 20
107.5269617825453
 30
0
 40
3.2
  1
(3.5)
 50
90
 41
0.9
  0
ENDBLK
  8
0
  0
BLOCK
  8
1
  2
*D8
 70
1
 10
0
 20
0
 30
0
  0
LINE
  8
1
 62
2
 10
-327.2648109292585
 20
93.29900830326839
 30
0
 11
-327.2648109292585
 21
153.2170729120394
 31
0
  0
LINE
  8
1
 62
2
 10
-305.3699664608551
 20
153.2170729120394
 30
0
 11
-328.7648109292585
 21
153.2170729120394
 31
0
  0
LINE
  8
1
 62
2
 10
-303.7199664608552
 20
93.29900830326839
 30
0
 11
-328.7648109292585
 21
93.29900830326839
 31
0
  0
SOLID
  8
1
 62
2
 10
-327.2648109292585
 20
93.29900830326839
 30
0
 11
-327.6808109292585
 21
96.4990083032684
 31
0
 12
-326.8488109292585
 22
96.4990083032684
 32
0
 13
-326.8488109292585
 23
96.4990083032684
 33
0
  0
SOLID
  8
1
 62
2
 10
-327.2648109292585
 20
153.2170729120394
 30
0
 11
-326.8488109292585
 21
150.0170729120394
 31
0
 12
-327.6808109292585
 22
150.0170729120394
 32
0
 13
-327.6808109292585
 23
150.0170729120394
 33
0
  0
TEXT
  8
1
 62
2
 10
-330.4648109292585
 20
109.4198361468183
 30
0
 40
3.2
  1
300
 50
90
 41
0.9
  0
TEXT
  8
1
 62
2
 10
-332.6248109292585
 20
118.6998361468183
 30
0
 40
2.24
  1
+40
 50
90
 41
0.9900000000000001
  0
TEXT
  8
1
 62
2
 10
-329.2648109292585
 20
118.6998361468183
 30
0
 40
2.24
  1
 0
 50
90
 41
0.9900000000000001
  0
ENDBLK
  8
0
  0
BLOCK
  8
1
  2
*D9
 70
1
 10
0
 20
0
 30
0
  0
LINE
  8
1
 62
2
 10
-253.9475807514936
 20
165.2170729120393
 30
0
 11
-253.9475807514936
 21
196.2170729120392
 31
0
  0
LINE
  8
1
 62
2
 10
-273.3699664608552
 20
165.2170729120393
 30
0
 11
-252.9475807514936
 21
165.2170729120393
 31
0
  0
LINE
  8
1
 62
2
 10
-273.3699664608552
 20
196.2170729120392
 30
0
 11
-252.9475807514936
 21
196.2170729120392
 31
0
  0
SOLID
  8
1
 62
2
 10
-253.9475807514936
 20
196.2170729120392
 30
0
 11
-253.5315807514936
 21
193.0170729120392
 31
0
 12
-254.3635807514936
 22
193.0170729120392
 32
0
 13
-254.3635807514936
 23
193.0170729120392
 33
0
  0
SOLID
  8
1
 62
2
 10
-253.9475807514936
 20
165.2170729120393
 30
0
 11
-254.3635807514936
 21
168.4170729120393
 31
0
 12
-253.5315807514936
 22
168.4170729120393
 32
0
 13
-253.5315807514936
 23
168.4170729120393
 33
0
  0
TEXT
  8
1
 62
2
 10
-255.9475807514936
 20
176.147499179405
 30
0
 40
3.200000000000001
  1
31
 50
90
 41
0.9
  0
TEXT
  8
1
 62
2
 10
-256.5875807514937
 20
181.587499179405
 30
0
 40
1.920000000000001
  1
%%p0.2
 50
90
 41
0.9
  0
ENDBLK
  8
0
  0
BLOCK
  8
0
  2
*D10
 70
1
 10
0
 20
0
 30
0
  0
LINE
  8
0
 62
2
 10
-307.8699564608548
 20
216.7170729120392
 30
0
 11
-276.869966460855
 21
216.7170729120392
 31
0
  0
LINE
  8
0
 62
2
 10
-276.869966460855
 20
198.7170729120392
 30
0
 11
-276.869966460855
 21
217.7170729120392
 31
0
  0
LINE
  8
0
 62
2
 10
-307.8699564608548
 20
198.7170729120392
 30
0
 11
-307.8699564608548
 21
217.7170729120392
 31
0
  0
SOLID
  8
0
 62
2
 10
-307.8699564608548
 20
216.7170729120392
 30
0
 11
-304.6699564608549
 21
217.1330729120392
 31
0
 12
-304.6699564608549
 22
216.3010729120392
 32
0
 13
-304.6699564608549
 23
216.3010729120392
 33
0
  0
SOLID
  8
0
 62
2
 10
-276.869966460855
 20
216.7170729120392
 30
0
 11
-280.069966460855
 21
216.3010729120392
 31
0
 12
-280.069966460855
 22
217.1330729120392
 32
0
 13
-280.069966460855
 23
217.1330729120392
 33
0
  0
TEXT
  8
0
 62
2
 10
-297.513966460855
 20
218.3170729120392
 30
0
 40
3.2
  1
31
 41
0.9
  0
TEXT
  8
0
 62
2
 10
-292.073966460855
 20
218.9570729120392
 30
0
 40
1.92
  1
%%p0.2
 41
0.9
  0
ENDBLK
  8
0
  0
BLOCK
  8
0
  2
*D11
 70
1
 10
0
 20
0
 30
0
  0
LINE
  8
0
 62
2
 10
-313.3699676516743
 20
226.7170729120392
 30
0
 11
-271.369966460855
 21
226.7170729120392
 31
0
  0
LINE
  8
0
 62
2
 10
-313.3699676516743
 20
197.7170741028588
 30
0
 11
-313.3699676516743
 21
227.7170729120392
 31
0
  0
LINE
  8
0
 62
2
 10
-271.369966460855
 20
197.7170729120392
 30
0
 11
-271.369966460855
 21
227.7170729120392
 31
0
  0
SOLID
  8
0
 62
2
 10
-313.3699676516743
 20
226.7170729120392
 30
0
 11
-310.1699676516743
 21
227.1330729120392
 31
0
 12
-310.1699676516743
 22
226.3010729120392
 32
0
 13
-310.1699676516743
 23
226.3010729120392
 33
0
  0
SOLID
  8
0
 62
2
 10
-271.369966460855
 20
226.7170729120392
 30
0
 11
-274.569966460855
 21
226.3010729120392
 31
0
 12
-274.569966460855
 22
227.1330729120392
 32
0
 13
-274.569966460855
 23
227.1330729120392
 33
0
  0
TEXT
  8
0
 62
2
 10
-294.7699670562647
 20
228.3170729120392
 30
0
 40
3.2
  1
42
 41
0.9
  0
TEXT
  8
0
 62
2
 10
-296.8499670562648
 20
228.3170729120392
 30
0
 40
3.2
  1
(
 41
0.9
  0
TEXT
  8
0
 62
2
 10
-288.3699670562647
 20
228.3170729120392
 30
0
 40
3.2
  1
)
 41
0.9
  0
ENDBLK
  8
0
  0
BLOCK
  8
0
  2
*D12
 70
1
 10
0
 20
0
 30
0
  0
LINE
  8
0
 62
2
 10
-189.498567663422
 20
169.7170729120393
 30
0
 11
-189.498567663422
 21
191.7170729120392
 31
0
  0
LINE
  8
0
 62
2
 10
-149.2661934923953
 20
191.7170729120392
 30
0
 11
-190.498567663422
 21
191.7170729120392
 31
0
  0
LINE
  8
0
 62
2
 10
-149.2662934923954
 20
169.7170729120393
 30
0
 11
-190.498567663422
 21
169.7170729120393
 31
0
  0
SOLID
  8
0
 62
2
 10
-189.498567663422
 20
191.7170729120392
 30
0
 11
-189.082567663422
 21
188.5170729120392
 31
0
 12
-189.914567663422
 22
188.5170729120392
 32
0
 13
-189.914567663422
 23
188.5170729120392
 33
0
  0
SOLID
  8
0
 62
2
 10
-189.498567663422
 20
169.7170729120393
 30
0
 11
-189.914567663422
 21
172.9170729120393
 31
0
 12
-189.082567663422
 22
172.9170729120393
 32
0
 13
-189.082567663422
 23
172.9170729120393
 33
0
  0
TEXT
  8
0
 62
2
 10
-191.898567663422
 20
175.7377557377363
 30
0
 40
3.2
  1
22
 50
90
 41
0.9
  0
TEXT
  8
0
 62
2
 10
-193.978567663422
 20
182.1377557377363
 30
0
 40
1.92
  1
0
 50
90
 41
0.9
  0
TEXT
  8
0
 62
2
 10
-191.098567663422
 20
182.1377557377363
 30
0
 40
1.92
  1
-0.05
 50
90
 41
0.9
  0
TEXT
  8
0
 62
2
 10
-191.898567663422
 20
171.8977557377363
 30
0
 40
3.2
  1
%%c
 50
90
 41
0.9
  0
ENDBLK
  8
0
  0
BLOCK
  8
0
  2
*D13
 70
1
 10
0
 20
0
 30
0
  0
LINE
  8
0
 62
2
 10
-148.2661934923953
 20
231.0461694591243
 30
0
 11
-159.324963558128
 21
231.0461694591243
 31
0
  0
LINE
  8
0
 62
2
 10
-148.2661934923953
 20
231.0461694591243
 30
0
 11
-146.2661934923953
 21
231.0461694591243
 31
0
  0
LINE
  8
0
 62
2
 10
-139.8661934923953
 20
231.0461694591243
 30
0
 11
-146.2661934923953
 21
231.0461694591243
 31
0
  0
LINE
  8
0
 62
2
 10
-146.2661934923953
 20
201.3480646216076
 30
0
 11
-146.2661934923953
 21
232.0461694591243
 31
0
  0
LINE
  8
0
 62
2
 10
-148.2661934923953
 20
192.7170729120392
 30
0
 11
-148.2661934923953
 21
232.0461694591243
 31
0
  0
SOLID
  8
0
 62
2
 10
-148.2661934923953
 20
231.0461694591243
 30
0
 11
-151.4661934923953
 21
230.6301694591243
 31
0
 12
-151.4661934923953
 22
231.4621694591243
 32
0
 13
-151.4661934923953
 23
231.4621694591243
 33
0
  0
SOLID
  8
0
 62
2
 10
-146.2661934923953
 20
231.0461694591243
 30
0
 11
-143.0661934923953
 21
231.4621694591243
 31
0
 12
-143.0661934923953
 22
230.6301694591243
 32
0
 13
-143.0661934923953
 23
230.6301694591243
 33
0
  0
TEXT
  8
0
 62
2
 10
-159.324963558128
 20
232.6461694591243
 30
0
 40
3.2
  1
2
 41
0.9
  0
TEXT
  8
0
 62
2
 10
-155.804963558128
 20
233.2861694591243
 30
0
 40
1.92
  1
%%p0.2
 41
0.9
  0
ENDBLK
  8
0
  0
BLOCK
  8
0
  2
*D14
 70
1
 10
0
 20
0
 30
0
  0
LINE
  8
0
 62
2
 10
-146.2661934923953
 20
241.4991158046903
 30
0
 11
-96.6661859923953
 21
241.4991158046903
 31
0
  0
LINE
  8
0
 62
2
 10
-96.6661859923953
 20
201.7170729120392
 30
0
 11
-96.6661859923953
 21
242.4991158046903
 31
0
  0
LINE
  8
0
 62
2
 10
-146.2661934923953
 20
201.3480646216076
 30
0
 11
-146.2661934923953
 21
242.4991158046903
 31
0
  0
SOLID
  8
0
 62
2
 10
-146.2661934923953
 20
241.4991158046903
 30
0
 11
-143.0661934923953
 21
241.9151158046903
 31
0
 12
-143.0661934923953
 22
241.0831158046903
 32
0
 13
-143.0661934923953
 23
241.0831158046903
 33
0
  0
SOLID
  8
0
 62
2
 10
-96.6661859923953
 20
241.4991158046903
 30
0
 11
-99.8661859923953
 21
241.0831158046903
 31
0
 12
-99.8661859923953
 22
241.9151158046903
 32
0
 13
-99.8661859923953
 23
241.9151158046903
 33
0
  0
TEXT
  8
0
 62
2
 10
-131.649530774071
 20
243.0991158046903
 30
0
 40
3.2
  1
50
 41
0.9
  0
TEXT
  8
0
 62
2
 10
-125.249530774071
 20
243.0991158046903
 30
0
 40
3.2
  1
MAX.
 41
0.9
  0
ENDBLK
  8
0
  0
BLOCK
  8
1
  2
*D15
 70
1
 10
0
 20
0
 30
0
  0
LINE
  8
1
 62
2
 10
-170.2661590091715
 20
241.4991158046903
 30
0
 11
-146.2661934923953
 21
241.4991158046903
 31
0
  0
LINE
  8
1
 62
2
 10
-146.2661934923953
 20
201.7170729120392
 30
0
 11
-146.2661934923953
 21
242.4991158046903
 31
0
  0
LINE
  8
1
 62
2
 10
-170.2661590091715
 20
183.7170729120392
 30
0
 11
-170.2661590091715
 21
242.4991158046903
 31
0
  0
SOLID
  8
1
 62
2
 10
-170.2661590091715
 20
241.4991158046903
 30
0
 11
-167.0661590091715
 21
241.9151158046903
 31
0
 12
-167.0661590091715
 22
241.0831158046903
 32
0
 13
-167.0661590091715
 23
241.0831158046903
 33
0
  0
SOLID
  8
1
 62
2
 10
-146.2661934923953
 20
241.4991158046903
 30
0
 11
-149.4661934923953
 21
241.0831158046903
 31
0
 12
-149.4661934923953
 22
241.9151158046903
 32
0
 13
-149.4661934923953
 23
241.9151158046903
 33
0
  0
TEXT
  8
1
 62
2
 10
-164.328467994117
 20
243.4991158046903
 30
0
 40
3.2
  1
24
 41
0.9
  0
TEXT
  8
1
 62
2
 10
-157.928467994117
 20
244.1391158046903
 30
0
 40
1.92
  1
%%p0.5
 41
0.9
  0
ENDBLK
  8
0
  0
BLOCK
  8
1
  2
*D16
 70
1
 10
0
 20
0
 30
0
  0
LINE
  8
1
 62
2
 10
-246.369966460855
 20
159.7170743868716
 30
0
 11
-246.369966460855
 21
201.7170729120392
 31
0
  0
LINE
  8
1
 62
2
 10
-275.369966460855
 20
201.7170729120392
 30
0
 11
-244.869966460855
 21
201.7170729120392
 31
0
  0
LINE
  8
1
 62
2
 10
-275.3699679356869
 20
159.7170743868716
 30
0
 11
-244.869966460855
 21
159.7170743868716
 31
0
  0
SOLID
  8
1
 62
2
 10
-246.369966460855
 20
201.7170729120392
 30
0
 11
-245.953966460855
 21
198.5170729120392
 31
0
 12
-246.785966460855
 22
198.5170729120392
 32
0
 13
-246.785966460855
 23
198.5170729120392
 33
0
  0
SOLID
  8
1
 62
2
 10
-246.369966460855
 20
159.7170743868716
 30
0
 11
-246.785966460855
 21
162.9170743868716
 31
0
 12
-245.953966460855
 22
162.9170743868716
 32
0
 13
-245.953966460855
 23
162.9170743868716
 33
0
  0
TEXT
  8
1
 62
2
 10
-248.369966460855
 20
179.150916060879
 30
0
 40
3.2
  1
42
 50
90
 41
0.9
  0
TEXT
  8
1
 62
2
 10
-248.369966460855
 20
177.070916060879
 30
0
 40
3.2
  1
(
 50
90
 41
0.9
  0
TEXT
  8
1
 62
2
 10
-248.369966460855
 20
185.550916060879
 30
0
 40
3.2
  1
)
 50
90
 41
0.9
  0
ENDBLK
  8
0
  0
BLOCK
  8
1
  2
*D17
 70
1
 10
0
 20
0
 30
0
  0
LINE
  8
1
 62
2
 10
-327.2648109292585
 20
159.7170838257988
 30
0
 11
-327.2648109292585
 21
175.5615082934388
 31
0
  0
LINE
  8
1
 62
2
 10
-327.2648109292585
 20
153.2170729120394
 30
0
 11
-327.2648109292585
 21
159.7170838257988
 31
0
  0
LINE
  8
1
 62
2
 10
-327.2648109292585
 20
146.8170729120394
 30
0
 11
-327.2648109292585
 21
153.2170729120394
 31
0
  0
LINE
  8
1
 62
2
 10
-309.3699767477493
 20
159.7170838257988
 30
0
 11
-328.7648109292585
 21
159.7170838257988
 31
0
  0
LINE
  8
1
 62
2
 10
-304.7699664608552
 20
153.2170729120394
 30
0
 11
-328.7648109292585
 21
153.2170729120394
 31
0
  0
SOLID
  8
1
 62
2
 10
-327.2648109292585
 20
159.7170838257988
 30
0
 11
-327.6808109292585
 21
162.9170838257988
 31
0
 12
-326.8488109292585
 22
162.9170838257988
 32
0
 13
-326.8488109292585
 23
162.9170838257988
 33
0
  0
SOLID
  8
1
 62
2
 10
-327.2648109292585
 20
153.2170729120394
 30
0
 11
-326.8488109292585
 21
150.0170729120394
 31
0
 12
-327.6808109292585
 22
150.0170729120394
 32
0
 13
-327.6808109292585
 23
150.0170729120394
 33
0
  0
TEXT
  8
1
 62
2
 10
-328.3245004352785
 20
167.6415082934388
 30
0
 40
3.2
  1
6.5
 50
90
 41
0.9
  0
TEXT
  8
1
 62
2
 10
-328.3245004352785
 20
161.7968024110859
 30
0
 40
3.2
  1
üª(
 50
90
 41
0.9
  0
TEXT
  8
1
 62
2
 10
-328.3245004352785
 20
175.0815082934388
 30
0
 40
3.2
  1
)
 50
90
 41
0.9
  0
ENDBLK
  8
0
  0
BLOCK
  8
1
  2
*D18
 70
1
 10
0
 20
0
 30
0
  0
LINE
  8
1
 62
2
 10
-246.3700099866255
 20
155.1670729120393
 30
0
 11
-246.3700099866255
 21
143.5148602687547
 31
0
  0
LINE
  8
1
 62
2
 10
-246.3700099866255
 20
155.1670729120393
 30
0
 11
-246.3700099866255
 21
159.7170743868716
 31
0
  0
LINE
  8
1
 62
2
 10
-246.3700099866255
 20
166.1170743868716
 30
0
 11
-246.3700099866255
 21
159.7170743868716
 31
0
  0
LINE
  8
1
 62
2
 10
-275.3699679356872
 20
159.7170743868716
 30
0
 11
-244.8700099866255
 21
159.7170743868716
 31
0
  0
LINE
  8
1
 62
2
 10
-279.4199664608553
 20
155.1670729120393
 30
0
 11
-244.8700099866255
 21
155.1670729120393
 31
0
  0
SOLID
  8
1
 62
2
 10
-246.3700099866255
 20
159.7170743868716
 30
0
 11
-246.7860099866255
 21
162.9170743868716
 31
0
 12
-245.9540099866255
 22
162.9170743868716
 32
0
 13
-245.9540099866255
 23
162.9170743868716
 33
0
  0
SOLID
  8
1
 62
2
 10
-246.3700099866255
 20
155.1670729120393
 30
0
 11
-245.9540099866255
 21
151.9670729120393
 31
0
 12
-246.7860099866255
 22
151.9670729120393
 32
0
 13
-246.7860099866255
 23
151.9670729120393
 33
0
  0
TEXT
  8
1
 62
2
 10
-248.3700099866255
 20
145.5948602687547
 30
0
 40
3.2
  1
4.6
 50
90
 41
0.9
  0
TEXT
  8
1
 62
2
 10
-248.3700099866255
 20
143.5148602687547
 30
0
 40
3.2
  1
(
 50
90
 41
0.9
  0
TEXT
  8
1
 62
2
 10
-248.3700099866255
 20
153.0348602687547
 30
0
 40
3.2
  1
)
 50
90
 41
0.9
  0
ENDBLK
  8
0
  0
ENDSEC
  0
SECTION
  2
ENTITIES
  0
LINE
  8
1
 62
2
 10
-106.2264643827581
 20
96.79900830326841
 30
0
 11
-106.2264643827581
 21
93.29900830326841
 31
0
  0
LINE
  8
1
 62
2
 10
-105.9264643827582
 20
96.79900830326841
 30
0
 11
-105.9264643827582
 21
93.29900830326841
 31
0
  0
LINE
  8
1
 62
2
 10
-105.6264643827582
 20
96.79900830326841
 30
0
 11
-105.6264643827582
 21
93.29900830326841
 31
0
  0
LINE
  8
1
 62
3
 10
-106.5464643827582
 20
96.79900830326841
 30
0
 11
-105.3064643827582
 21
96.79900830326841
 31
0
  0
LINE
  8
1
 62
3
 10
-106.5464643827582
 20
121.9400735500307
 30
0
 11
-106.5464643827582
 21
96.79900830326841
 31
0
  0
LINE
  8
1
 62
3
 10
-105.3064643827582
 20
121.9400735500307
 30
0
 11
-105.3064643827582
 21
96.79900830326841
 31
0
  0
LINE
  8
1
 62
3
 10
-80.66619442989422
 20
178.2170729120392
 30
0
 11
-96.66619442989534
 21
178.2170729120392
 31
0
  0
LINE
  8
1
 62
3
 10
-80.66619274239422
 20
182.7170729120392
 30
0
 11
-80.66619442989422
 21
178.2170729120392
 31
0
  0
LINE
  8
1
 62
3
 10
-95.66619274239527
 20
182.7170729120392
 30
0
 11
-80.66619274239422
 21
182.7170729120392
 31
0
  0
LINE
  8
1
 62
3
 10
-95.66619255489528
 20
183.2170729120392
 30
0
 11
-95.66619274239527
 21
182.7170729120392
 31
0
  0
LINE
  8
1
 62
3
 10
-96.66619255489533
 20
183.2170729120392
 30
0
 11
-95.66619255489528
 21
183.2170729120392
 31
0
  0
LINE
  8
1
 62
3
 10
-293.869966460855
 20
182.7170729120392
 30
0
 11
-290.869966460855
 21
182.7170729120392
 31
0
  0
LINE
  8
1
 62
3
 10
-170.2661643154668
 20
182.7170729120392
 30
0
 11
-155.2661643153949
 21
182.7170729120392
 31
0
  0
LINE
  8
1
 62
3
 10
-155.2661627675622
 20
183.2170729120392
 30
0
 11
-155.2661643153949
 21
182.7170729120392
 31
0
  0
LINE
  8
1
 62
2
 10
-271.9677123098287
 20
120.8241405915483
 30
0
 11
-209.1679328220718
 21
120.8241405915483
 31
0
  0
LINE
  8
1
 62
3
 10
-170.2661604883539
 20
182.7170729120392
 30
0
 11
-170.2661590091715
 21
182.7170729120392
 31
0
  0
LINE
  8
1
 62
3
 10
-170.2661589384079
 20
182.717072913467
 30
0
 11
-170.2661604883539
 21
182.7170729120392
 31
0
  0
LINE
  8
1
 62
3
 10
-303.6199664608552
 20
154.9170729120394
 30
0
 11
-303.6199664608552
 21
155.1670729120393
 31
0
  0
LINE
  8
1
 62
3
 10
-281.2199664608552
 20
154.9170729120394
 30
0
 11
-280.4699664608552
 21
153.7170729120394
 31
0
  0
LINE
  8
1
 62
3
 10
-303.6199664608552
 20
154.9170729120394
 30
0
 11
-304.3699664608552
 21
153.7170729120394
 31
0
  0
LINE
  8
1
 62
3
 10
-304.3699664608552
 20
153.7170729120394
 30
0
 11
-280.4699664608552
 21
153.7170729120394
 31
0
  0
LINE
  8
1
 62
3
 10
-283.8199664608554
 20
153.7170729120394
 30
0
 11
-283.8199664608554
 21
153.2170729120394
 31
0
  0
LINE
  8
1
 62
3
 10
-283.8199664608554
 20
153.2170729120394
 30
0
 11
-283.0199664608552
 21
153.2170729120394
 31
0
  0
LINE
  8
1
 62
3
 10
-283.0199664608552
 20
153.2170729120394
 30
0
 11
-283.0199664608552
 21
153.7170729120394
 31
0
  0
LINE
  8
1
 62
3
 10
-285.8199664608554
 20
153.7170729120394
 30
0
 11
-285.8199664608554
 21
153.2170729120394
 31
0
  0
LINE
  8
1
 62
3
 10
-285.8199664608554
 20
153.2170729120394
 30
0
 11
-285.0199664608552
 21
153.2170729120394
 31
0
  0
LINE
  8
1
 62
3
 10
-285.0199664608552
 20
153.2170729120394
 30
0
 11
-285.0199664608552
 21
153.7170729120394
 31
0
  0
LINE
  8
1
 62
3
 10
-287.8199664608554
 20
153.7170729120394
 30
0
 11
-287.8199664608554
 21
153.2170729120394
 31
0
  0
LINE
  8
1
 62
3
 10
-287.8199664608554
 20
153.2170729120394
 30
0
 11
-287.0199664608552
 21
153.2170729120394
 31
0
  0
LINE
  8
1
 62
3
 10
-287.0199664608552
 20
153.2170729120394
 30
0
 11
-287.0199664608552
 21
153.7170729120394
 31
0
  0
LINE
  8
1
 62
3
 10
-289.8199664608554
 20
153.7170729120394
 30
0
 11
-289.8199664608554
 21
153.2170729120394
 31
0
  0
LINE
  8
1
 62
3
 10
-289.8199664608554
 20
153.2170729120394
 30
0
 11
-289.0199664608552
 21
153.2170729120394
 31
0
  0
LINE
  8
1
 62
3
 10
-289.0199664608552
 20
153.2170729120394
 30
0
 11
-289.0199664608552
 21
153.7170729120394
 31
0
  0
LINE
  8
1
 62
3
 10
-291.8199664608554
 20
153.7170729120394
 30
0
 11
-291.8199664608554
 21
153.2170729120394
 31
0
  0
LINE
  8
1
 62
3
 10
-291.8199664608554
 20
153.2170729120394
 30
0
 11
-291.0199664608552
 21
153.2170729120394
 31
0
  0
LINE
  8
1
 62
3
 10
-291.0199664608552
 20
153.2170729120394
 30
0
 11
-291.0199664608552
 21
153.7170729120394
 31
0
  0
LINE
  8
1
 62
3
 10
-293.8199664608554
 20
153.7170729120394
 30
0
 11
-293.8199664608554
 21
153.2170729120394
 31
0
  0
LINE
  8
1
 62
3
 10
-293.8199664608554
 20
153.2170729120394
 30
0
 11
-293.0199664608552
 21
153.2170729120394
 31
0
  0
LINE
  8
1
 62
3
 10
-293.0199664608552
 20
153.2170729120394
 30
0
 11
-293.0199664608552
 21
153.7170729120394
 31
0
  0
LINE
  8
1
 62
3
 10
-295.8199664608554
 20
153.7170729120394
 30
0
 11
-295.8199664608554
 21
153.2170729120394
 31
0
  0
LINE
  8
1
 62
3
 10
-295.8199664608554
 20
153.2170729120394
 30
0
 11
-295.0199664608552
 21
153.2170729120394
 31
0
  0
LINE
  8
1
 62
3
 10
-295.0199664608552
 20
153.2170729120394
 30
0
 11
-295.0199664608552
 21
153.7170729120394
 31
0
  0
LINE
  8
1
 62
3
 10
-297.8199664608554
 20
153.7170729120394
 30
0
 11
-297.8199664608554
 21
153.2170729120394
 31
0
  0
LINE
  8
1
 62
3
 10
-297.8199664608554
 20
153.2170729120394
 30
0
 11
-297.0199664608552
 21
153.2170729120394
 31
0
  0
LINE
  8
1
 62
3
 10
-297.0199664608552
 20
153.2170729120394
 30
0
 11
-297.0199664608552
 21
153.7170729120394
 31
0
  0
LINE
  8
1
 62
3
 10
-299.8199664608554
 20
153.7170729120394
 30
0
 11
-299.8199664608554
 21
153.2170729120394
 31
0
  0
LINE
  8
1
 62
3
 10
-299.8199664608554
 20
153.2170729120394
 30
0
 11
-299.0199664608552
 21
153.2170729120394
 31
0
  0
LINE
  8
1
 62
3
 10
-299.0199664608552
 20
153.2170729120394
 30
0
 11
-299.0199664608552
 21
153.7170729120394
 31
0
  0
LINE
  8
1
 62
3
 10
-301.8199664608554
 20
153.7170729120394
 30
0
 11
-301.8199664608554
 21
153.2170729120394
 31
0
  0
LINE
  8
1
 62
3
 10
-301.8199664608554
 20
153.2170729120394
 30
0
 11
-301.0199664608552
 21
153.2170729120394
 31
0
  0
LINE
  8
1
 62
3
 10
-301.0199664608552
 20
153.2170729120394
 30
0
 11
-301.0199664608552
 21
153.7170729120394
 31
0
  0
LINE
  8
1
 62
3
 10
-303.0199664608552
 20
153.2170729120394
 30
0
 11
-304.3699664608552
 21
153.2170729120394
 31
0
  0
LINE
  8
1
 62
3
 10
-304.3699664608552
 20
153.2170729120394
 30
0
 11
-304.3699664608552
 21
153.7170729120394
 31
0
  0
LINE
  8
1
 62
3
 10
-280.4699664608552
 20
153.7170729120394
 30
0
 11
-280.4699664608552
 21
153.2170729120394
 31
0
  0
LINE
  8
1
 62
3
 10
-280.4699664608552
 20
153.2170729120394
 30
0
 11
-281.8199664608554
 21
153.2170729120394
 31
0
  0
LINE
  8
1
 62
3
 10
-301.0199664608552
 20
153.7170729120394
 30
0
 11
-301.0199664608552
 21
155.1670729120393
 31
0
  0
LINE
  8
1
 62
3
 10
-300.0199664608552
 20
154.4170729120394
 30
0
 11
-284.8199664608554
 21
154.4170729120394
 31
0
  0
LINE
  8
1
 62
3
 10
-284.8199664608554
 20
154.4170729120394
 30
0
 11
-284.8199664608554
 21
159.7170768793372
 31
0
  0
LINE
  8
1
 62
3
 10
-283.8199664608554
 20
153.7170729120394
 30
0
 11
-283.8199664608554
 21
159.7170765843708
 31
0
  0
LINE
  8
1
 62
3
 10
-300.0199664608552
 20
155.9170729120394
 30
0
 11
-284.8199664608554
 21
155.9170729120394
 31
0
  0
LINE
  8
1
 62
3
 10
-303.0199664608552
 20
153.2170729120394
 30
0
 11
-303.0199664608552
 21
153.7170729120394
 31
0
  0
LINE
  8
1
 62
3
 10
-281.8199664608554
 20
153.2170729120394
 30
0
 11
-281.8199664608554
 21
153.7170729120394
 31
0
  0
LINE
  8
1
 62
3
 10
-170.2661643154668
 20
182.7170729120392
 30
0
 11
-170.2661782459609
 21
178.2170729120392
 31
0
  0
LINE
  8
1
 62
3
 10
-308.3699767477493
 20
159.7170838257988
 30
0
 11
-276.369967935687
 21
159.7170743868716
 31
0
  0
LINE
  8
1
 62
3
 10
-146.2661934923953
 20
200.7170729120392
 30
0
 11
-146.2661934923953
 21
160.7170733078179
 31
0
  0
LINE
  8
1
 62
3
 10
-138.3661934923954
 20
165.7171729120392
 30
0
 11
-138.3661934923954
 21
195.7170729120392
 31
0
  0
LINE
  8
1
 62
3
 10
-108.3661934923954
 20
195.7170729120392
 30
0
 11
-108.3661934923953
 21
165.7170729120393
 31
0
  0
LINE
  8
1
 62
3
 10
-170.2661782459609
 20
178.2170729120392
 30
0
 11
-148.2662548560318
 21
178.2170729120392
 31
0
  0
LINE
  8
1
 62
3
 10
-313.3699752729172
 20
164.7170850166182
 30
0
 11
-313.3699676516745
 21
196.7170741028587
 31
0
  0
LINE
  8
1
 62
3
 10
-305.3635223010107
 20
157.7170729120393
 30
0
 11
-305.319966460855
 21
157.7170729120393
 31
0
  0
LINE
  8
1
 62
3
 10
-145.2661930966168
 20
159.717073307818
 30
0
 11
-108.3661934923953
 21
159.7170831627027
 31
0
  0
LINE
  8
1
 62
3
 10
-145.2661934923953
 20
201.7170729120392
 30
0
 11
-97.6661859923953
 21
201.7170729120392
 31
0
  0
LINE
  8
4
 62
7
 10
-108.7661934923954
 20
192.0262729120392
 30
0
 11
-108.7661934923954
 21
201.7170729120392
 31
0
  0
LINE
  8
4
 62
7
 10
-109.5661934923954
 20
193.2960729120391
 30
0
 11
-109.5661934923954
 21
201.7170729120392
 31
0
  0
LINE
  8
4
 62
7
 10
-110.3661934923954
 20
194.5658729120392
 30
0
 11
-110.3661934923953
 21
201.7170729120392
 31
0
  0
LINE
  8
4
 62
7
 10
-111.1661934923955
 20
195.8356729120391
 30
0
 11
-111.1661934923955
 21
201.7170729120392
 31
0
  0
LINE
  8
4
 62
7
 10
-111.9661934923954
 20
197.1054729120392
 30
0
 11
-111.9661934923954
 21
201.7170729120392
 31
0
  0
LINE
  8
4
 62
7
 10
-112.7661934923954
 20
198.3751729120393
 30
0
 11
-112.7661934923954
 21
201.7170729120392
 31
0
  0
LINE
  8
4
 62
7
 10
-137.9662934923953
 20
169.4077729120393
 30
0
 11
-137.9662934923953
 21
159.7169729120391
 31
0
  0
LINE
  8
4
 62
7
 10
-137.1662934923954
 20
168.1379729120393
 30
0
 11
-137.1662934923954
 21
159.7169729120391
 31
0
  0
LINE
  8
4
 62
7
 10
-136.3662934923953
 20
166.8681729120393
 30
0
 11
-136.3662934923953
 21
159.7169729120391
 31
0
  0
LINE
  8
4
 62
7
 10
-135.5662934923954
 20
165.5983729120392
 30
0
 11
-135.5662934923954
 21
159.7169729120391
 31
0
  0
LINE
  8
4
 62
7
 10
-134.7662934923953
 20
164.3286729120391
 30
0
 11
-134.7662934923953
 21
159.7169729120391
 31
0
  0
LINE
  8
4
 62
7
 10
-133.9662934923953
 20
163.0588729120392
 30
0
 11
-133.9662934923953
 21
159.7169729120391
 31
0
  0
LINE
  8
2
 62
1
 10
-292.369966460855
 20
158.7170729120393
 30
0
 11
-292.369966460855
 21
205.7170729120392
 31
0
  0
LINE
  8
2
 62
1
 10
-319.2914464608551
 20
180.7170729120392
 30
0
 11
-265.870466460855
 21
180.7170729120392
 31
0
  0
LINE
  8
2
 62
1
 10
-279.369966460855
 20
196.2170729120392
 30
0
 11
-274.369966460855
 21
196.2170729120392
 31
0
  0
LINE
  8
2
 62
1
 10
-276.869966460855
 20
193.7170729120392
 30
0
 11
-276.869966460855
 21
198.7170729120392
 31
0
  0
LINE
  8
2
 62
1
 10
-307.8699564608551
 20
193.7170729120392
 30
0
 11
-307.8699564608551
 21
198.7170729120392
 31
0
  0
LINE
  8
2
 62
1
 10
-305.369966460855
 20
196.2170729120392
 30
0
 11
-310.369966460855
 21
196.2170729120392
 31
0
  0
LINE
  8
2
 62
1
 10
-305.369966460855
 20
165.2170729120393
 30
0
 11
-310.369966460855
 21
165.2170729120393
 31
0
  0
LINE
  8
2
 62
1
 10
-307.8699764608551
 20
167.7170729120393
 30
0
 11
-307.8699764608551
 21
162.7170729120393
 31
0
  0
LINE
  8
2
 62
1
 10
-276.869966460855
 20
167.7170729120393
 30
0
 11
-276.869966460855
 21
162.7170729120393
 31
0
  0
LINE
  8
2
 62
1
 10
-279.369966460855
 20
165.2170729120393
 30
0
 11
-274.369966460855
 21
165.2170729120393
 31
0
  0
LINE
  8
1
 62
3
 10
-138.3661934923954
 20
165.7171729120392
 30
0
 11
-108.3661934923953
 21
165.7170729120393
 31
0
  0
LINE
  8
1
 62
3
 10
-138.3661934923954
 20
195.7170729120392
 30
0
 11
-108.3661934923954
 21
195.7170729120392
 31
0
  0
LINE
  8
1
 62
3
 10
-146.2661934923953
 20
200.7170729120392
 30
0
 11
-146.2661934923953
 21
200.3480646216076
 31
0
  0
LINE
  8
1
 62
3
 10
-108.2423545432962
 20
202.8982810555713
 30
0
 11
-98.8334545432962
 21
202.8982810555713
 31
0
  0
LINE
  8
1
 62
3
 10
-276.369966460855
 20
201.7170729120392
 30
0
 11
-308.3699676516745
 21
201.7170729120392
 31
0
  0
LINE
  8
1
 62
3
 10
-271.369966460855
 20
164.7170743868714
 30
0
 11
-271.369966460855
 21
196.7170729120392
 31
0
  0
LINE
  8
1
 62
3
 10
-304.369966460855
 20
202.7170729120392
 30
0
 11
-280.369966460855
 21
202.7170729120392
 31
0
  0
LINE
  8
1
 62
3
 10
-148.2661934923953
 20
191.7170729120392
 30
0
 11
-146.2661934923953
 21
191.7170729120392
 31
0
  0
LINE
  8
1
 62
3
 10
-148.2662934923954
 20
169.7170729120393
 30
0
 11
-146.2661934923953
 21
169.7170729120393
 31
0
  0
LINE
  8
1
 62
3
 10
-148.2662934923954
 20
169.7170729120393
 30
0
 11
-148.2661934923953
 21
191.7170729120392
 31
0
  0
LINE
  8
1
 62
3
 10
-138.3661934923954
 20
195.7170729120392
 30
0
 11
-138.3661934923953
 21
201.7170729120392
 31
0
  0
LINE
  8
1
 62
3
 10
-108.3661934923954
 20
195.7170729120392
 30
0
 11
-108.3661934923954
 21
201.7170729120392
 31
0
  0
LINE
  8
1
 62
3
 10
-138.3661934923954
 20
165.7171729120392
 30
0
 11
-138.3662934923953
 21
159.7170729120393
 31
0
  0
LINE
  8
1
 62
3
 10
-96.6661859923953
 20
200.7170729120392
 30
0
 11
-96.66620099239539
 21
160.7170729120393
 31
0
  0
LINE
  8
1
 62
3
 10
-170.2661590091715
 20
182.7170729120392
 30
0
 11
-170.2661597021776
 21
182.5646124567139
 31
0
  0
LINE
  8
1
 62
1
 10
-171.93704087888
 20
180.7170729120392
 30
0
 11
-77.87788951517982
 21
180.7170729120392
 31
0
  0
LINE
  8
1
 62
3
 10
-108.3661934923954
 20
157.7170729120393
 30
0
 11
-108.3661934923953
 21
165.7170729120393
 31
0
  0
LINE
  8
1
 62
3
 10
-108.3661934923954
 20
157.7170729120393
 30
0
 11
-97.66619749439597
 21
157.7170729120393
 31
0
  0
LINE
  8
1
 62
3
 10
-96.66619749439768
 20
158.7170746610396
 30
0
 11
-96.66620099239539
 21
160.7170729120393
 31
0
  0
LINE
  8
1
 62
3
 10
-108.3661934923954
 20
157.7170729120393
 30
0
 11
-108.3661934923954
 21
156.1670729120393
 31
0
  0
LINE
  8
1
 62
3
 10
-108.3661934923954
 20
156.1670729120393
 30
0
 11
-102.9661934923954
 21
156.1670729120393
 31
0
  0
LINE
  8
1
 62
3
 10
-102.9661934923954
 20
156.1670729120393
 30
0
 11
-102.9661934923954
 21
157.7170729120393
 31
0
  0
LINE
  8
1
 62
3
 10
-103.5661934923954
 20
156.1670729120393
 30
0
 11
-103.5661934923954
 21
155.1670729120393
 31
0
  0
LINE
  8
1
 62
3
 10
-103.5661934923954
 20
155.1670729120393
 30
0
 11
-108.3661934923954
 21
155.1670729120393
 31
0
  0
LINE
  8
1
 62
3
 10
-108.3661934923954
 20
155.1670729120393
 30
0
 11
-108.3661934923954
 21
156.1670729120393
 31
0
  0
LINE
  8
1
 62
3
 10
-305.019966460855
 20
158.0170729120392
 30
0
 11
-305.019966460855
 21
159.7170729120393
 31
0
  0
LINE
  8
1
 62
3
 10
-279.719966460855
 20
159.7170729120393
 30
0
 11
-279.719966460855
 21
158.0170729120391
 31
0
  0
LINE
  8
1
 62
3
 10
-279.4199664608552
 20
157.7170729120393
 30
0
 11
-279.3764121278143
 21
157.7170729120393
 31
0
  0
LINE
  8
1
 62
3
 10
-304.869966460855
 20
156.1670729120393
 30
0
 11
-304.869966460855
 21
159.7170729120393
 31
0
  0
LINE
  8
1
 62
3
 10
-279.869966460855
 20
156.1670729120393
 30
0
 11
-279.869966460855
 21
159.7170729120393
 31
0
  0
LINE
  8
1
 62
3
 10
-304.869966460855
 20
156.1670729120393
 30
0
 11
-304.369966460855
 21
156.1670729120393
 31
0
  0
LINE
  8
1
 62
3
 10
-304.369966460855
 20
156.1670729120393
 30
0
 11
-304.369966460855
 21
159.7170729120393
 31
0
  0
LINE
  8
1
 62
3
 10
-280.369966460855
 20
159.7170729120393
 30
0
 11
-280.369966460855
 21
156.1670729120393
 31
0
  0
LINE
  8
1
 62
3
 10
-280.369966460855
 20
156.1670729120393
 30
0
 11
-279.869966460855
 21
156.1670729120393
 31
0
  0
LINE
  8
1
 62
3
 10
-304.319966460855
 20
155.1670729120393
 30
0
 11
-304.319966460855
 21
159.7170729120393
 31
0
  0
LINE
  8
1
 62
3
 10
-280.4199664608552
 20
155.1670729120393
 30
0
 11
-280.4199664608552
 21
159.7170729120393
 31
0
  0
LINE
  8
1
 62
3
 10
-304.319966460855
 20
155.1670729120393
 30
0
 11
-301.0199664608552
 21
155.1670729120393
 31
0
  0
LINE
  8
1
 62
3
 10
-301.319966460855
 20
159.7170729120393
 30
0
 11
-301.319966460855
 21
155.1670729120393
 31
0
  0
LINE
  8
1
 62
3
 10
-283.4199664608552
 20
159.7170729120393
 30
0
 11
-283.4199664608552
 21
155.1670729120393
 31
0
  0
LINE
  8
1
 62
3
 10
-303.769966460855
 20
159.7170729120393
 30
0
 11
-303.769966460855
 21
157.0670729120392
 31
0
  0
LINE
  8
1
 62
3
 10
-303.769966460855
 20
157.0670729120392
 30
0
 11
-302.769966460855
 21
157.0670729120392
 31
0
  0
LINE
  8
1
 62
3
 10
-302.769966460855
 20
157.0670729120392
 30
0
 11
-302.769966460855
 21
159.7170729120393
 31
0
  0
LINE
  8
1
 62
3
 10
-280.969966460855
 20
159.7170729120393
 30
0
 11
-280.969966460855
 21
157.0670729120392
 31
0
  0
LINE
  8
1
 62
3
 10
-280.969966460855
 20
157.0670729120392
 30
0
 11
-281.969966460855
 21
157.0670729120392
 31
0
  0
LINE
  8
1
 62
3
 10
-281.969966460855
 20
157.0670729120392
 30
0
 11
-281.969966460855
 21
159.7170729120393
 31
0
  0
LINE
  8
1
 62
4
  6
DASHED
 10
-303.7699664608552
 20
153.2170729120394
 30
0
 11
-303.7699664608552
 21
153.8170729120393
 31
0
  0
LINE
  8
1
 62
4
  6
DASHED
 10
-281.1699664608553
 20
155.1670729120393
 30
0
 11
-280.5199664608552
 21
153.8170729120393
 31
0
  0
LINE
  8
1
 62
4
  6
DASHED
 10
-303.5699664608552
 20
155.1670729120393
 30
0
 11
-304.3199664608552
 21
153.8170729120393
 31
0
  0
LINE
  8
1
 62
4
  6
DASHED
 10
-279.9699664608555
 20
153.2170729120394
 30
0
 11
-303.7699664608552
 21
153.2170729120394
 31
0
  0
LINE
  8
1
 62
3
 10
-279.3764121278143
 20
157.7170729120393
 30
0
 11
-279.869966460855
 21
157.7170729120393
 31
0
  0
LINE
  8
1
 62
3
 10
-304.869966460855
 20
157.7170729120393
 30
0
 11
-305.3635223010107
 21
157.7170729120393
 31
0
  0
LINE
  8
1
 62
3
 10
-148.2662370661452
 20
183.2170729120392
 30
0
 11
-155.2661627675622
 21
183.2170729120392
 31
0
  0
LINE
  8
1
 62
3
 10
-281.2199664608552
 20
155.1670729120393
 30
0
 11
-281.2199664608552
 21
154.9170729120394
 31
0
  0
LINE
  8
1
 62
3
 10
-301.0199664608552
 20
155.1670729120393
 30
0
 11
-301.0199664608552
 21
159.7170816577928
 31
0
  0
LINE
  8
1
 62
3
 10
-283.4199664608552
 20
155.1670729120393
 30
0
 11
-280.4199664608552
 21
155.1670729120393
 31
0
  0
LINE
  8
1
 62
3
 10
-283.8199664608554
 20
155.1670729120393
 30
0
 11
-283.4199664608552
 21
155.1670729120393
 31
0
  0
LINE
  8
1
 62
3
 10
-300.0199664608552
 20
159.7170813628264
 30
0
 11
-300.0199664608552
 21
154.4170729120394
 31
0
  0
LINE
  8
1
 62
3
 10
-107.6977727781988
 20
155.1670729120393
 30
0
 11
-107.6977727781988
 21
153.2170729120394
 31
0
  0
LINE
  8
1
 62
3
 10
-107.6977727781988
 20
153.2170729120394
 30
0
 11
-104.1951559873176
 21
153.2170729120394
 31
0
  0
LINE
  8
1
 62
3
 10
-104.1951559873176
 20
153.2170729120394
 30
0
 11
-104.1951559873176
 21
155.1670729120393
 31
0
  0
LINE
  8
1
 62
3
 10
-105.3464643827582
 20
122.9400735500307
 30
0
 11
-105.3464643827582
 21
153.2170729120394
 31
0
  0
LINE
  8
1
 62
3
 10
-106.5464643827582
 20
122.9400735500307
 30
0
 11
-106.5464643827582
 21
153.2170729120394
 31
0
  0
LINE
  8
1
 62
2
 10
-107.6977727781988
 20
122.9400735500307
 30
0
 11
-104.1951559873176
 21
122.9400735500307
 31
0
  0
LINE
  8
1
 62
2
 10
-104.1951559873176
 20
121.9400735500307
 30
0
 11
-107.6977727781988
 21
121.9400735500307
 31
0
  0
LINE
  8
1
 62
2
 10
-105.0962674626635
 20
230.3276856848613
 30
0
 11
-105.0962674626635
 21
204.3276856848613
 31
0
  0
LINE
  8
1
 62
2
 10
-111.0962674626635
 20
204.3276856848613
 30
0
 11
-111.0962674626635
 21
230.3276856848613
 31
0
  0
LINE
  8
1
 62
2
 10
-111.0962674626635
 20
230.3276856848613
 30
0
 11
-105.0962674626635
 21
230.3276856848613
 31
0
  0
LINE
  8
1
 62
2
 10
-108.0962674626635
 20
205.8276856848613
 30
0
 11
-108.0962674626635
 21
208.3276856848613
 31
0
  0
LINE
  8
1
 62
2
 10
-105.5962674626635
 20
207.3276856848613
 30
0
 11
-110.5962674626635
 21
207.3276856848613
 31
0
  0
LINE
  8
1
 62
2
 10
-110.5962674626635
 20
207.3276856848613
 30
0
 11
-108.0962674626635
 21
205.8276856848613
 31
0
  0
LINE
  8
1
 62
2
 10
-111.0962674626635
 20
210.3276856848613
 30
0
 11
-105.0962674626635
 21
210.3276856848613
 31
0
  0
LINE
  8
1
 62
2
 10
-105.0962674626635
 20
204.3276856848613
 30
0
 11
-111.0962674626635
 21
204.3276856848613
 31
0
  0
LINE
  8
1
 62
2
 10
-302.7199664608552
 20
96.79900830326841
 30
0
 11
-302.7199664608552
 21
93.29900830326841
 31
0
  0
LINE
  8
1
 62
2
 10
-302.4199664608552
 20
96.79900830326841
 30
0
 11
-302.4199664608552
 21
93.29900830326841
 31
0
  0
LINE
  8
1
 62
2
 10
-298.7199664608552
 20
96.79900830326841
 30
0
 11
-298.7199664608552
 21
93.29900830326841
 31
0
  0
LINE
  8
1
 62
2
 10
-298.4199664608552
 20
96.79900830326841
 30
0
 11
-298.4199664608552
 21
93.29900830326841
 31
0
  0
LINE
  8
1
 62
2
 10
-294.7199664608552
 20
96.79900830326841
 30
0
 11
-294.7199664608552
 21
93.29900830326841
 31
0
  0
LINE
  8
1
 62
2
 10
-294.4199664608552
 20
96.79900830326841
 30
0
 11
-294.4199664608552
 21
93.29900830326841
 31
0
  0
LINE
  8
1
 62
2
 10
-290.7199664608552
 20
96.79900830326841
 30
0
 11
-290.7199664608552
 21
93.29900830326841
 31
0
  0
LINE
  8
1
 62
2
 10
-290.4199664608552
 20
96.79900830326841
 30
0
 11
-290.4199664608552
 21
93.29900830326841
 31
0
  0
LINE
  8
1
 62
2
 10
-286.7199664608552
 20
96.79900830326841
 30
0
 11
-286.7199664608552
 21
93.29900830326841
 31
0
  0
LINE
  8
1
 62
2
 10
-286.4199664608552
 20
96.79900830326841
 30
0
 11
-286.4199664608552
 21
93.29900830326841
 31
0
  0
LINE
  8
1
 62
2
 10
-282.7199664608552
 20
96.79900830326841
 30
0
 11
-282.7199664608552
 21
93.29900830326841
 31
0
  0
LINE
  8
1
 62
2
 10
-282.4199664608552
 20
96.79900830326841
 30
0
 11
-282.4199664608552
 21
93.29900830326841
 31
0
  0
LINE
  8
1
 62
2
 10
-302.1199664608552
 20
96.79900830326841
 30
0
 11
-302.1199664608552
 21
93.29900830326841
 31
0
  0
LINE
  8
1
 62
2
 10
-298.1199664608552
 20
96.79900830326841
 30
0
 11
-298.1199664608552
 21
93.29900830326841
 31
0
  0
LINE
  8
1
 62
2
 10
-294.1199664608552
 20
96.79900830326841
 30
0
 11
-294.1199664608552
 21
93.29900830326841
 31
0
  0
LINE
  8
1
 62
2
 10
-290.1199664608552
 20
96.79900830326841
 30
0
 11
-290.1199664608552
 21
93.29900830326841
 31
0
  0
LINE
  8
1
 62
2
 10
-286.1199664608552
 20
96.79900830326841
 30
0
 11
-286.1199664608552
 21
93.29900830326841
 31
0
  0
LINE
  8
1
 62
2
 10
-282.1199664608552
 20
96.79900830326841
 30
0
 11
-282.1199664608552
 21
93.29900830326841
 31
0
  0
LINE
  8
1
 62
3
 10
-299.0399664608552
 20
96.79900830326841
 30
0
 11
-297.7999664608552
 21
96.79900830326841
 31
0
  0
LINE
  8
1
 62
3
 10
-295.0399664608552
 20
96.79900830326841
 30
0
 11
-293.7999664608552
 21
96.79900830326841
 31
0
  0
LINE
  8
1
 62
3
 10
-291.0399664608552
 20
96.79900830326841
 30
0
 11
-289.7999664608552
 21
96.79900830326841
 31
0
  0
LINE
  8
1
 62
3
 10
-287.0399664608552
 20
96.79900830326841
 30
0
 11
-285.7999664608552
 21
96.79900830326841
 31
0
  0
LINE
  8
1
 62
3
 10
-283.0399664608552
 20
96.79900830326841
 30
0
 11
-281.7999664608552
 21
96.79900830326841
 31
0
  0
LINE
  8
1
 62
3
 10
-281.7999664608552
 20
122.9400735500307
 30
0
 11
-281.7999664608552
 21
141.966818765925
 31
0
  0
LINE
  8
1
 62
3
 10
-283.0399664608552
 20
122.9400735500307
 30
0
 11
-283.0399664608552
 21
141.966818765925
 31
0
  0
LINE
  8
1
 62
3
 10
-285.7999664608552
 20
122.9400735500307
 30
0
 11
-285.7999664608552
 21
141.966818765925
 31
0
  0
LINE
  8
1
 62
3
 10
-287.0399664608552
 20
122.9400735500307
 30
0
 11
-287.0399664608552
 21
141.966818765925
 31
0
  0
LINE
  8
1
 62
3
 10
-289.7999664608552
 20
122.9400735500307
 30
0
 11
-289.7999664608552
 21
141.966818765925
 31
0
  0
LINE
  8
1
 62
3
 10
-291.0399664608552
 20
122.9400735500307
 30
0
 11
-291.0399664608552
 21
141.966818765925
 31
0
  0
LINE
  8
1
 62
3
 10
-293.7999664608552
 20
122.9400735500307
 30
0
 11
-293.7999664608552
 21
141.966818765925
 31
0
  0
LINE
  8
1
 62
3
 10
-295.0399664608552
 20
122.9400735500307
 30
0
 11
-295.0399664608552
 21
141.966818765925
 31
0
  0
LINE
  8
1
 62
3
 10
-297.7999664608552
 20
122.9400735500307
 30
0
 11
-297.7999664608552
 21
141.966818765925
 31
0
  0
LINE
  8
1
 62
3
 10
-299.0399664608552
 20
122.9400735500307
 30
0
 11
-299.0399664608552
 21
141.966818765925
 31
0
  0
LINE
  8
1
 62
3
 10
-301.7999664608552
 20
122.9400735500307
 30
0
 11
-301.7999664608552
 21
141.966818765925
 31
0
  0
LINE
  8
1
 62
3
 10
-303.0399664608552
 20
122.9400735500307
 30
0
 11
-303.0399664608552
 21
141.966818765925
 31
0
  0
LINE
  8
1
 62
3
 10
-281.7999664608552
 20
141.966818765925
 30
0
 11
-281.7999664608552
 21
149.8405818422595
 31
0
  0
LINE
  8
1
 62
3
 10
-283.0399664608552
 20
141.966818765925
 30
0
 11
-283.0399664608552
 21
149.8405818422595
 31
0
  0
LINE
  8
1
 62
3
 10
-285.7999664608552
 20
141.966818765925
 30
0
 11
-285.7999664608552
 21
149.8405818422595
 31
0
  0
LINE
  8
1
 62
3
 10
-287.0399664608552
 20
141.966818765925
 30
0
 11
-287.0399664608552
 21
149.8405818422595
 31
0
  0
LINE
  8
1
 62
3
 10
-289.7999664608552
 20
141.966818765925
 30
0
 11
-289.7999664608552
 21
149.8405818422595
 31
0
  0
LINE
  8
1
 62
3
 10
-291.0399664608552
 20
141.966818765925
 30
0
 11
-291.0399664608552
 21
149.8405818422595
 31
0
  0
LINE
  8
1
 62
3
 10
-293.7999664608552
 20
141.966818765925
 30
0
 11
-293.7999664608552
 21
149.8405818422595
 31
0
  0
LINE
  8
1
 62
3
 10
-295.0399664608552
 20
141.966818765925
 30
0
 11
-295.0399664608552
 21
149.8405818422595
 31
0
  0
LINE
  8
1
 62
3
 10
-297.7999664608552
 20
141.966818765925
 30
0
 11
-297.7999664608552
 21
149.8405818422595
 31
0
  0
LINE
  8
1
 62
3
 10
-299.0399664608552
 20
141.966818765925
 30
0
 11
-299.0399664608552
 21
149.8405818422595
 31
0
  0
LINE
  8
1
 62
3
 10
-301.7999664608552
 20
141.966818765925
 30
0
 11
-301.7999664608552
 21
149.8405818422595
 31
0
  0
LINE
  8
1
 62
3
 10
-303.0399664608552
 20
149.8405818422595
 30
0
 11
-303.0399664608552
 21
141.966818765925
 31
0
  0
LINE
  8
1
 62
3
 10
-303.0399664608552
 20
121.9400735500307
 30
0
 11
-303.0399664608552
 21
96.79900830326841
 31
0
  0
LINE
  8
1
 62
3
 10
-301.7999664608552
 20
121.9400735500307
 30
0
 11
-301.7999664608552
 21
96.79900830326841
 31
0
  0
LINE
  8
1
 62
3
 10
-299.0399664608552
 20
121.9400735500307
 30
0
 11
-299.0399664608552
 21
96.79900830326841
 31
0
  0
LINE
  8
1
 62
3
 10
-297.7999664608552
 20
121.9400735500307
 30
0
 11
-297.7999664608552
 21
96.79900830326841
 31
0
  0
LINE
  8
1
 62
3
 10
-295.0399664608552
 20
121.9400735500307
 30
0
 11
-295.0399664608552
 21
96.79900830326841
 31
0
  0
LINE
  8
1
 62
3
 10
-293.7999664608552
 20
121.9400735500307
 30
0
 11
-293.7999664608552
 21
96.79900830326841
 31
0
  0
LINE
  8
1
 62
3
 10
-291.0399664608553
 20
121.9400735500307
 30
0
 11
-291.0399664608552
 21
96.79900830326841
 31
0
  0
LINE
  8
1
 62
3
 10
-289.7999664608552
 20
121.9400735500307
 30
0
 11
-289.7999664608552
 21
96.79900830326841
 31
0
  0
LINE
  8
1
 62
3
 10
-287.0399664608552
 20
121.9400735500307
 30
0
 11
-287.0399664608552
 21
96.79900830326841
 31
0
  0
LINE
  8
1
 62
3
 10
-285.7999664608552
 20
121.9400735500307
 30
0
 11
-285.7999664608552
 21
96.79900830326841
 31
0
  0
LINE
  8
1
 62
3
 10
-283.0399664608552
 20
121.9400735500307
 30
0
 11
-283.0399664608552
 21
96.79900830326841
 31
0
  0
LINE
  8
1
 62
3
 10
-281.7999664608552
 20
121.9400735500307
 30
0
 11
-281.7999664608552
 21
96.79900830326841
 31
0
  0
LINE
  8
1
 62
2
 10
-305.0399664608552
 20
122.9400735500307
 30
0
 11
-279.7999664608552
 21
122.9400735500307
 31
0
  0
LINE
  8
1
 62
2
 10
-305.0399664608552
 20
121.9400735500307
 30
0
 11
-279.7999664608552
 21
121.9400735500307
 31
0
  0
LINE
  8
1
 62
3
 10
-281.7999664608552
 20
149.8405818422595
 30
0
 11
-281.7999664608552
 21
153.2170729120394
 31
0
  0
LINE
  8
1
 62
3
 10
-283.0399664608552
 20
149.8405818422595
 30
0
 11
-283.0399664608552
 21
153.2170729120394
 31
0
  0
LINE
  8
1
 62
3
 10
-285.7999664608552
 20
149.8405818422595
 30
0
 11
-285.7999664608552
 21
153.2170729120394
 31
0
  0
LINE
  8
1
 62
3
 10
-287.0399664608552
 20
149.8405818422595
 30
0
 11
-287.0399664608552
 21
153.2170729120394
 31
0
  0
LINE
  8
1
 62
3
 10
-289.7999664608552
 20
149.8405818422595
 30
0
 11
-289.7999664608552
 21
153.2170729120394
 31
0
  0
LINE
  8
1
 62
3
 10
-291.0399664608552
 20
149.8405818422595
 30
0
 11
-291.0399664608552
 21
153.2170729120394
 31
0
  0
LINE
  8
1
 62
3
 10
-293.7999664608552
 20
149.8405818422595
 30
0
 11
-293.7999664608552
 21
153.2170729120394
 31
0
  0
LINE
  8
1
 62
3
 10
-295.0399664608552
 20
149.8405818422595
 30
0
 11
-295.0399664608552
 21
153.2170729120394
 31
0
  0
LINE
  8
1
 62
3
 10
-297.7999664608552
 20
149.8405818422595
 30
0
 11
-297.7999664608552
 21
153.2170729120394
 31
0
  0
LINE
  8
1
 62
3
 10
-299.0399664608552
 20
149.8405818422595
 30
0
 11
-299.0399664608552
 21
153.2170729120394
 31
0
  0
LINE
  8
1
 62
3
 10
-301.7999664608552
 20
149.8405818422595
 30
0
 11
-301.7999664608552
 21
153.2170729120394
 31
0
  0
LINE
  8
1
 62
3
 10
-303.0399664608552
 20
149.8405818422595
 30
0
 11
-303.0399664608552
 21
153.2170729120394
 31
0
  0
LINE
  8
1
 62
3
 10
-303.0399664608552
 20
96.79900830326841
 30
0
 11
-301.7999664608552
 21
96.79900830326841
 31
0
  0
LINE
  8
1
 62
2
 10
-274.6312101865461
 20
63.6315196749057
 30
0
 11
-274.6312101865461
 21
37.63151967490575
 31
0
  0
LINE
  8
1
 62
2
 10
-284.6312101865461
 20
63.6315196749057
 30
0
 11
-284.6312101865461
 21
37.63151967490575
 31
0
  0
LINE
  8
1
 62
2
 10
-294.6312101865461
 20
63.6315196749057
 30
0
 11
-294.6312101865461
 21
37.63151967490575
 31
0
  0
LINE
  8
1
 62
2
 10
-304.6312101865461
 20
63.6315196749057
 30
0
 11
-304.6312101865461
 21
37.63151967490575
 31
0
  0
LINE
  8
1
 62
2
 10
-314.6312101865461
 20
63.6315196749057
 30
0
 11
-314.6312101865461
 21
37.63151967490575
 31
0
  0
LINE
  8
1
 62
2
 10
-354.6312101865461
 20
56.6315196749057
 30
0
 11
-264.6312101865461
 21
56.6315196749057
 31
0
  0
LINE
  8
1
 62
2
 10
-324.6312101865461
 20
63.6315196749057
 30
0
 11
-324.6312101865461
 21
37.63151967490575
 31
0
  0
LINE
  8
1
 62
2
 10
-354.6312101865461
 20
37.63151967490575
 30
0
 11
-354.6312101865461
 21
63.6315196749057
 31
0
  0
LINE
  8
1
 62
2
 10
-264.6312101865461
 20
37.63151967490575
 30
0
 11
-354.6312101865461
 21
37.63151967490575
 31
0
  0
LINE
  8
1
 62
2
 10
-264.6312101865461
 20
63.6315196749057
 30
0
 11
-264.6312101865461
 21
37.63151967490575
 31
0
  0
LINE
  8
1
 62
2
 10
-354.6312101865461
 20
63.6315196749057
 30
0
 11
-264.6312101865461
 21
63.6315196749057
 31
0
  0
LINE
  8
1
 62
2
 10
-301.2808400223611
 20
55.7781012623708
 30
0
 11
-297.7967289987472
 21
55.7781012623708
 31
0
  0
LINE
  8
1
 62
2
 10
-271.0240863962432
 20
56.0226002815719
 30
0
 11
-268.3345971850321
 21
56.0226002815719
 31
0
  0
LINE
  8
1
 62
2
 10
-354.6312101865461
 20
49.63151967490573
 30
0
 11
-264.6312101865461
 21
49.63151967490573
 31
0
  0
ARC
  8
1
 62
3
 10
-292.369966460855
 20
180.7170729120392
 30
0
 40
2.5
 50
270
 51
180
  0
ARC
  8
1
 62
3
 10
-292.369966460855
 20
180.7170729120392
 30
0
 40
2.5
 50
180
 51
270
  0
ARC
  8
1
 62
3
 10
-97.6661859923953
 20
200.7170729120392
 30
0
 40
1
 50
0
 51
90
  0
ARC
  8
1
 62
3
 10
-308.7440652950068
 20
156.8788376179217
 30
0
 40
2.851439871812237
 50
27.10454653482959
 51
84.48385698172076
  0
ARC
  8
1
 62
3
 10
-275.9958691338183
 20
156.8788376179217
 30
0
 40
2.851439871812191
 50
95.51614301828266
 51
152.8954534651714
  0
CIRCLE
  8
1
 62
3
 10
-292.369966460855
 20
180.7170729120392
 30
0
 40
12.75
  0
CIRCLE
  8
1
 62
3
 10
-292.369966460855
 20
180.7170729120392
 30
0
 40
15
  0
CIRCLE
  8
1
 62
3
 10
-292.369966460855
 20
180.7170729120392
 30
0
 40
11
  0
CIRCLE
  8
4
 62
3
 10
-307.869966460855
 20
196.2170729120392
 30
0
 40
1.000009999999861
  0
CIRCLE
  8
4
 62
3
 10
-276.869966460855
 20
196.2170729120392
 30
0
 40
1
  0
CIRCLE
  8
4
 62
3
 10
-307.8699764608551
 20
165.2170729120393
 30
0
 40
1.000010000000145
  0
CIRCLE
  8
4
 62
3
 10
-276.869966460855
 20
165.2170729120393
 30
0
 40
1
  0
CIRCLE
  8
1
 62
2
 10
-276.869966460855
 20
196.2170729120392
 30
0
 40
1.5
  0
CIRCLE
  8
1
 62
2
 10
-307.869966460855
 20
196.2170729120392
 30
0
 40
1.5
  0
CIRCLE
  8
1
 62
2
 10
-307.8699764608551
 20
165.2170729120393
 30
0
 40
1.5
  0
CIRCLE
  8
1
 62
2
 10
-276.869966460855
 20
165.2170729120393
 30
0
 40
1.5
  0
CIRCLE
  8
1
 62
3
 10
-292.369966460855
 20
180.7170729120392
 30
0
 40
4.550000000000011
  0
ARC
  8
1
 62
3
 10
-276.369966460855
 20
196.7170729120392
 30
0
 40
5
 50
0
 51
90
  0
ARC
  8
1
 62
3
 10
-308.3699676516745
 20
196.7170729120392
 30
0
 40
5
 50
90
 51
179.9999863542138
  0
ARC
  8
1
 62
3
 10
-308.3699752729172
 20
164.7170838257985
 30
0
 40
5.000000000000141
 50
179.9999863542116
 51
269.9999830996688
  0
ARC
  8
1
 62
3
 10
-276.369966460855
 20
164.7170743868714
 30
0
 40
5.000000000000019
 50
269.9999830996702
 51
0
  0
ARC
  8
1
 62
3
 10
-145.2661934923953
 20
160.7170733078179
 30
0
 40
1
 50
180
 51
270.0000226764377
  0
ARC
  8
1
 62
3
 10
-145.2661934923953
 20
200.7170729120392
 30
0
 40
1
 50
90
 51
180
  0
ARC
  8
1
 62
3
 10
-97.66619749439597
 20
158.7170729120393
 30
0
 40
1
 50
270
 51
0.0001002103350056641
  0
ARC
  8
1
 62
3
 10
-305.319966460855
 20
158.0170729120391
 30
0
 40
0.2999999999998124
 50
270
 51
0
  0
ARC
  8
1
 62
3
 10
-279.4199664608552
 20
158.0170729120391
 30
0
 40
0.299999999999784
 50
180
 51
270
  0
ARC
  8
1
 62
3
 10
-305.3635223010107
 20
158.7170729120393
 30
0
 40
1.000000000000007
 50
212.6206895531121
 51
270
  0
ARC
  8
1
 62
3
 10
-279.3764121278143
 20
158.7170729120393
 30
0
 40
1
 50
270
 51
327.3793104468809
  0
LINE
  8
1
 62
2
 10
-304.9378596497055
 20
84.60793300598688
 30
0
 11
-293.7369339533665
 21
84.60793300598688
 31
0
  0
SOLID
  8
1
 62
2
 10
-296.9369339533665
 20
84.18664501370722
 30
0
 11
-296.9369339533665
 21
85.02922099826655
 31
0
 12
-293.7369339533665
 22
84.60793300598688
 32
0
 13
-293.7369339533665
 23
84.60793300598688
 33
0
  0
LINE
  8
1
 62
2
 10
-209.0371461412698
 20
113.1162846130703
 30
0
 11
-270.5361771506475
 21
113.1162846130703
 31
0
  0
LINE
  8
1
 62
2
 10
-270.5361771506475
 20
113.1162846130703
 30
0
 11
-281.8033281300609
 21
153.324312590452
 31
0
  0
SOLID
  8
1
 62
2
 10
-280.5342178564176
 20
150.3566800852769
 30
0
 11
-281.3455415515446
 21
150.1293298016143
 31
0
 12
-281.8033281300609
 22
153.324312590452
 32
0
 13
-281.8033281300609
 23
153.324312590452
 33
0
  0
LINE
  8
1
 62
2
 10
-230.4825257026816
 20
133.2549187115592
 30
0
 11
-267.6392529599295
 21
133.2549187115592
 31
0
  0
LINE
  8
1
 62
2
 10
-267.6392529599295
 20
133.2549187115592
 30
0
 11
-275.875566565795
 21
164.0940551701026
 31
0
  0
SOLID
  8
1
 62
2
 10
-274.6428501695659
 20
161.1111214030023
 30
0
 11
-275.4568940313923
 21
160.8937119257965
 31
0
 12
-275.875566565795
 22
164.0940551701026
 32
0
 13
-275.875566565795
 23
164.0940551701026
 33
0
  0
LINE
  8
1
 62
2
 10
-57.90912451137117
 20
222.8186494133983
 30
0
 11
-76.23594176011756
 21
222.8186494133983
 31
0
  0
LINE
  8
1
 62
2
 10
-76.23594176011756
 20
222.8186494133983
 30
0
 11
-99.61139272793248
 21
202.8982810555713
 31
0
  0
SOLID
  8
1
 62
2
 10
-97.44907749156621
 20
205.2945023289551
 30
0
 11
-96.9025688947164
 21
204.6532047043491
 31
0
 12
-99.61139272793248
 22
202.8982810555713
 32
0
 13
-99.61139272793248
 23
202.8982810555713
 33
0
  0
TEXT
  8
1
 62
2
 10
-90.92869169767869
 20
50.62247547302371
 30
0
 40
4
  1
KH42KM2-911
 41
0.9
  0
TEXT
  8
1
 62
2
 10
-318.2389589141075
 20
82.27440681924968
 30
0
 40
2.5
  1
PIN NO.
 41
0.63
  0
TEXT
  8
1
 62
2
 10
-318.9390167701286
 20
86.24140133670291
 30
0
 40
3.5
  1
âsâôöÈìå
 41
0.9
  0
TEXT
  8
1
 62
2
 10
-304.0044491750105
 20
87.17481181139701
 30
0
 40
2
  1
1 3 5 7 9 11
 41
0.855
  0
TEXT
  8
1
 62
6
 10
-268.1527258638058
 20
114.5549381018933
 30
0
 40
1.6
  1
CONTACT
 41
0.72
  0
TEXT
  8
1
 62
6
 10
-245.0109279992024
 20
114.9533112056436
 30
0
 40
1.6
  1
(JST)
 41
0.9
  0
TEXT
  8
1
 62
2
 10
-247.6192169778808
 20
117.4322450795383
 30
0
 40
2.4
  1
SPH-002T-P0.5S
 41
0.9
  0
TEXT
  8
1
 62
2
 10
-268.9374459486187
 20
117.1706717179343
 30
0
 40
2.4
  1
âRâôâ^âNâg
 41
1.215000000000001
  0
TEXT
  8
1
 62
6
 10
-246.1880081264215
 20
121.7542186073516
 30
0
 40
1.6
  1
(JST)
 41
0.9
  0
TEXT
  8
1
 62
6
 10
-268.6680631535126
 20
121.7542186073516
 30
0
 40
1.6
  1
HOUSING
 41
0.72
  0
TEXT
  8
1
 62
2
 10
-269.4680631535126
 20
124.1542186073515
 30
0
 40
2.4
  1
ânâEâWâôâO
 41
1.215000000000001
  0
TEXT
  8
1
 62
2
 10
-246.2680631535126
 20
124.1542186073515
 30
0
 40
2.4
  1
PHR-11
 41
0.9
  0
TEXT
  8
1
 62
2
 10
-279.4091188852079
 20
129.0128059200593
 30
0
 40
3.499999999999999
  1
É[é(écédéoéségüjü@éRüDéOéléhém.
 50
0.0009745374036200501
 41
0.5400000000000003
 72
1
 73
2
 11
-249.1691486551333
 21
130.7633202685302
 31
0
  0
TEXT
  8
1
 62
2
 10
-263.1170698309086
 20
135.7807616994311
 30
0
 40
3.5
  1
4-M3ü~0.5
 41
0.9
  0
TEXT
  8
1
 62
2
 10
-75.71499163727646
 20
224.1234878126753
 30
0
 40
3.5
  1
âlü|âÇâvâîü|âg
 41
0.6300000000000001
  0
TEXT
  8
1
 62
2
 10
-74.87444511702896
 20
218.9814833850677
 30
0
 40
2.5
  1
(NAME PLATE)
 41
0.45
  0
TEXT
  8
1
 62
2
 10
-99.66944844387548
 20
203.7459130338359
 30
0
 40
5
  1
(   )
 50
90
 41
0.9900000000000001
  0
TEXT
  8
1
 62
2
 10
-102.5890954442792
 20
207.2629943374671
 30
0
 40
2
  1
DIRECTION
 50
90
 41
0.9
  0
TEXT
  8
1
 62
2
 10
-99.58909544427918
 20
207.2629943374671
 30
0
 40
2
  1
OF LETTERS
 50
90
 41
0.9
  0
TEXT
  8
1
 62
2
 10
-106.0962674626635
 20
202.3744312469915
 30
0
 40
4
  1
òÂÄÜé╠î³é½
 50
90
 41
0.9
 72
1
 73
2
 11
-108.0962674626635
 21
220.3744312469915
 31
0
  0
TEXT
  8
1
 62
2
 10
-283.9512101865461
 20
51.1315196749057
 30
0
 40
4
  1
Bcom
 41
0.54
 72
1
 73
2
 11
-279.6312101865461
 21
53.1315196749057
 31
0
  0
TEXT
  8
1
 62
2
 10
-313.9512101865461
 20
51.1315196749057
 30
0
 40
4
  1
Acom
 41
0.54
 72
1
 73
2
 11
-309.6312101865461
 21
53.1315196749057
 31
0
  0
TEXT
  8
1
 62
2
 10
-271.4312101865461
 20
51.1315196749057
 30
0
 40
4
  1
B
 41
0.9
 72
1
 73
2
 11
-269.6312101865461
 21
53.1315196749057
 31
0
  0
TEXT
  8
1
 62
2
 10
-291.4312101865461
 20
51.1315196749057
 30
0
 40
4
  1
B
 41
0.9
 72
1
 73
2
 11
-289.6312101865461
 21
53.1315196749057
 31
0
  0
TEXT
  8
1
 62
2
 10
-301.4312101865461
 20
51.1315196749057
 30
0
 40
4
  1
A
 41
0.9
 72
1
 73
2
 11
-299.6312101865461
 21
53.1315196749057
 31
0
  0
TEXT
  8
1
 62
2
 10
-321.4312101865461
 20
51.1315196749057
 30
0
 40
4
  1
A
 41
0.9
 72
1
 73
2
 11
-319.6312101865461
 21
53.1315196749057
 31
0
  0
TEXT
  8
1
 62
2
 10
-273.2312101865462
 20
58.1315196749057
 30
0
 40
4
  1
11
 41
0.9
 72
1
 73
2
 11
-269.6312101865461
 21
60.1315196749057
 31
0
  0
TEXT
  8
1
 62
2
 10
-281.4312101865461
 20
58.1315196749057
 30
0
 40
4
  1
9
 41
0.9
 72
1
 73
2
 11
-279.6312101865461
 21
60.1315196749057
 31
0
  0
TEXT
  8
1
 62
2
 10
-291.4312101865461
 20
58.1315196749057
 30
0
 40
4
  1
7
 41
0.9
 72
1
 73
2
 11
-289.6312101865461
 21
60.1315196749057
 31
0
  0
TEXT
  8
1
 62
2
 10
-301.4312101865461
 20
58.1315196749057
 30
0
 40
4
  1
5
 41
0.9
 72
1
 73
2
 11
-299.6312101865461
 21
60.1315196749057
 31
0
  0
TEXT
  8
1
 62
2
 10
-311.4312101865461
 20
58.1315196749057
 30
0
 40
4
  1
3
 41
0.9
 72
1
 73
2
 11
-309.6312101865461
 21
60.1315196749057
 31
0
  0
TEXT
  8
1
 62
2
 10
-321.4312101865461
 20
58.1315196749057
 30
0
 40
4
  1
1
 41
0.9
 72
1
 73
2
 11
-319.6312101865461
 21
60.1315196749057
 31
0
  0
TEXT
  8
1
 62
2
 10
-354.7312101865462
 20
51.6315196749057
 30
0
 40
3
  1
ùÒÄÑæè
 41
0.9
 72
1
 73
2
 11
-346.6312101865461
 21
53.1315196749057
 31
0
  0
TEXT
  8
1
 62
2
 10
-352.3012101865461
 20
58.6315196749057
 30
0
 40
3
  1
PHR-11
 41
0.6300000000000001
 72
1
 73
2
 11
-346.6312101865461
 21
60.1315196749057
 31
0
  0
TEXT
  8
1
 62
2
 10
-351.9312101865461
 20
44.63151967490575
 30
0
 40
3
  1
âèü[âhÉ³ÉF
 41
0.72
 72
1
 73
2
 11
-341.1312101865461
 21
46.13151967490575
 31
0
  0
TEXT
  8
1
 62
2
 10
-323.2312101865462
 20
44.13151967490575
 30
0
 40
4
  1
ìò
 41
0.9
 72
1
 73
2
 11
-319.6312101865461
 21
46.13151967490575
 31
0
  0
TEXT
  8
1
 62
2
 10
-313.2312101865462
 20
44.13151967490575
 30
0
 40
4
  1
ÉÈ
 41
0.9
 72
1
 73
2
 11
-309.6312101865461
 21
46.13151967490575
 31
0
  0
TEXT
  8
1
 62
2
 10
-303.2312101865462
 20
44.13151967490575
 30
0
 40
4
  1
Æâ
 41
0.9
 72
1
 73
2
 11
-299.6312101865461
 21
46.13151967490575
 31
0
  0
TEXT
  8
1
 62
2
 10
-293.2312101865462
 20
44.13151967490575
 30
0
 40
4
  1
ë®
 41
0.9
 72
1
 73
2
 11
-289.6312101865461
 21
46.13151967490575
 31
0
  0
TEXT
  8
1
 62
2
 10
-283.2312101865462
 20
44.13151967490575
 30
0
 40
4
  1
É┬
 41
0.9
 72
1
 73
2
 11
-279.6312101865461
 21
46.13151967490575
 31
0
  0
TEXT
  8
1
 62
2
 10
-273.2312101865462
 20
44.13151967490575
 30
0
 40
4
  1
×%%d
 41
0.9
 72
1
 73
2
 11
-269.6312101865461
 21
46.13151967490575
 31
0
  0
TEXT
  8
1
 62
2
 10
-339.1745480675062
 20
58.8815196749057
 30
0
 40
2.5
  1
(PIN NO.)
 41
0.54
 73
2
 11
-339.1745480675062
 21
60.1315196749057
 31
0
  0
TEXT
  8
1
 62
2
 10
-339.1745480675062
 20
51.8815196749057
 30
0
 40
2.5
  1
(PHASE)
 41
0.54
 73
2
 11
-339.1745480675062
 21
53.1315196749057
 31
0
  0
TEXT
  8
1
 62
2
 10
-351.3687101865461
 20
39.88151967490575
 30
0
 40
2.5
  1
COLOR OF LEAD
 41
0.63
 72
1
 73
2
 11
-341.1312101865461
 21
41.13151967490575
 31
0
  0
TEXT
  8
1
 62
2
 10
-323.2312101865462
 20
40.13151967490575
 30
0
 40
2
  1
BLACK
 41
0.7200000000000001
 72
1
 73
2
 11
-319.6312101865461
 21
41.13151967490575
 31
0
  0
TEXT
  8
1
 62
2
 10
-312.3312101865461
 20
40.13151967490575
 30
0
 40
2
  1
RED
 41
0.9
 72
1
 73
2
 11
-309.6312101865461
 21
41.13151967490575
 31
0
  0
TEXT
  8
1
 62
2
 10
-303.2312101865462
 20
40.13151967490575
 30
0
 40
2
  1
BROWN
 41
0.7200000000000001
 72
1
 73
2
 11
-299.6312101865461
 21
41.13151967490575
 31
0
  0
TEXT
  8
1
 62
2
 10
-293.4112101865461
 20
40.13151967490575
 30
0
 40
2
  1
YELLOW
 41
0.63
 72
1
 73
2
 11
-289.6312101865461
 21
41.13151967490575
 31
0
  0
TEXT
  8
1
 62
2
 10
-283.2312101865462
 20
40.13151967490575
 30
0
 40
2
  1
BLUE
 41
0.9
 72
1
 73
2
 11
-279.6312101865461
 21
41.13151967490575
 31
0
  0
TEXT
  8
1
 62
2
 10
-273.4112101865461
 20
40.13151967490575
 30
0
 40
2
  1
ORANGE
 41
0.63
 72
1
 73
2
 11
-269.6312101865461
 21
41.13151967490575
 31
0
  0
DIMENSION
  8
1
  6
CONTINUOUS
 62
2
  2
*D0
  3
DMST_1
 10
-72.540137345145
 20
182.7170729120392
 30
0
 11
-76.14013734514499
 21
193.1951918889153
 31
0
 12
0
 22
0
 32
0
 70
0
 13
-80.66619442989422
 23
178.2170729120392
 33
0
 14
-80.66619274239422
 24
182.7170729120392
 34
0
 50
90
 53
0
  0
DIMENSION
  8
1
  6
CONTINUOUS
 62
2
  2
*D1
  3
DMST_2
 10
-61.71098337799261
 20
183.2170729120392
 30
0
 11
-66.5109833779926
 21
195.1641289738523
 31
0
 12
0
 22
0
 32
0
 70
0
  1
âË<>
 13
-80.66619442989422
 23
178.2170729120392
 33
0
 14
-95.66619255489528
 24
183.2170729120392
 34
0
 50
90
 53
0
  0
DIMENSION
  8
1
  6
CONTINUOUS
 62
2
  2
*D2
  3
DMST_3
 10
-95.66619255489528
 20
222.9688927375503
 30
0
 11
-88.20725100671351
 21
226.5688927375503
 31
0
 12
0
 22
0
 32
0
 70
0
 13
-80.66619274239422
 23
182.7170729120392
 33
0
 14
-95.66619255489528
 24
183.2170729120392
 34
0
 53
0
  0
DIMENSION
  8
1
  6
CONTINUOUS
 62
2
  2
*D3
  3
DMST_4
 10
-96.6661859923953
 20
241.4991158046903
 30
0
 11
-88.85978104874251
 21
245.0991158046903
 31
0
 12
0
 22
0
 32
0
 70
0
  1
(<>
 13
-80.66619274239422
 23
182.7170729120392
 33
0
 14
-96.6661859923953
 24
200.7170729120392
 34
0
 53
0
  0
DIMENSION
  8
1
  6
CONTINUOUS
 62
2
  2
*D4
  3
DMST_3
 10
-155.2661627675622
 20
222.9688927375503
 30
0
 11
-162.505539392505
 21
226.5688927375503
 31
0
 12
0
 22
0
 32
0
 70
0
 13
-170.2661643154668
 23
182.7170729120392
 33
0
 14
-155.2661627675622
 24
183.2170729120392
 34
0
 53
0
  0
DIMENSION
  8
1
  6
CONTINUOUS
 62
2
  2
*D5
  3
DMST_2
 10
-179.838818205212
 20
178.2170729120392
 30
0
 11
-184.638818205212
 21
180.6944754182883
 31
0
 12
0
 22
0
 32
0
 70
0
  1
âË<>
 13
-155.2661627675622
 23
183.2170729120392
 33
0
 14
-170.2661782459609
 24
178.2170729120392
 34
0
 50
90
 53
0
  0
DIMENSION
  8
1
  6
CONTINUOUS
 62
2
  2
*D6
  3
DMST_1
 10
-174.8625239469401
 20
178.2170871407874
 30
0
 11
-177.399487533946
 21
161.9604158629703
 31
0
 12
0
 22
0
 32
0
 70
1
 13
-170.2661643154668
 23
182.7170729120392
 33
0
 14
-170.2661782459609
 24
178.2170729120392
 34
0
 53
0
  0
DIMENSION
  8
1
  6
CONTINUOUS
 62
2
  2
*D9
  3
DMST_5
 10
-253.9475807514936
 20
196.2170729120392
 30
0
 11
-257.5475807514936
 21
181.291499179405
 31
0
 12
0
 22
0
 32
0
 70
0
 13
-274.369966460855
 23
165.2170729120393
 33
0
 14
-274.369966460855
 24
196.2170729120392
 34
0
 50
90
 53
0
  0
DIMENSION
  8
0
  6
CONTINUOUS
 62
2
  2
*D10
  3
DMST_6
 10
-307.8699564608548
 20
216.7170729120392
 30
0
 11
-292.369966460855
 21
219.9170729120392
 31
0
 12
0
 22
0
 32
0
 70
0
 13
-276.869966460855
 23
198.7170729120392
 33
0
 14
-307.8699564608551
 24
198.7170729120392
 34
0
 53
0
  0
DIMENSION
  8
0
  6
CONTINUOUS
 62
2
  2
*D11
  3
DMST_7
 10
-313.3699676516743
 20
226.7170729120392
 30
0
 11
-292.3699670562647
 21
229.9170729120392
 31
0
 12
0
 22
0
 32
0
 70
0
  1
(<>
 13
-271.369966460855
 23
196.7170729120392
 33
0
 14
-313.3699676516745
 24
196.7170741028587
 34
0
 53
0
  0
DIMENSION
  8
0
  6
CONTINUOUS
 62
2
  2
*D12
  3
DMST_8
 10
-189.498567663422
 20
169.7170729120393
 30
0
 11
-193.498567663422
 21
180.4017557377363
 31
0
 12
0
 22
0
 32
0
 70
0
  1
%%c<>
 13
-148.2661934923953
 23
191.7170729120392
 33
0
 14
-148.2662934923954
 24
169.7170729120393
 34
0
 50
90
 53
0
  0
DIMENSION
  8
0
  6
CONTINUOUS
 62
2
  2
*D13
  3
DMST_8
 10
-148.2661934923953
 20
231.0461694591243
 30
0
 11
-155.140963558128
 21
234.2461694591243
 31
0
 12
0
 22
0
 32
0
 70
0
 13
-146.2661934923953
 23
200.3480646216076
 33
0
 14
-148.2661934923953
 24
191.7170729120392
 34
0
 53
0
  0
DIMENSION
  8
0
  6
CONTINUOUS
 62
2
  2
*D14
  3
DMST_9
 10
-146.2661934923953
 20
241.4991158046903
 30
0
 11
-123.449530774071
 21
244.6991158046903
 31
0
 12
0
 22
0
 32
0
 70
0
  1
50
 13
-96.6661859923953
 23
200.7170729120392
 33
0
 14
-146.2661934923953
 24
200.3480646216076
 34
0
 53
0
  0
DIMENSION
  8
1
  6
CONTINUOUS
 62
2
  2
*D15
  3
DMST_10
 10
-170.2661590091715
 20
241.4991158046903
 30
0
 11
-158.704467994117
 21
245.0991158046903
 31
0
 12
0
 22
0
 32
0
 70
0
 13
-146.2661934923953
 23
200.7170729120392
 33
0
 14
-170.2661590091715
 24
182.7170729120392
 34
0
 53
0
  0
DIMENSION
  8
1
  6
CONTINUOUS
 62
2
  2
*D16
  3
DMST_4
 10
-246.369966460855
 20
201.7170729120392
 30
0
 11
-249.969966460855
 21
181.550916060879
 31
0
 12
0
 22
0
 32
0
 70
0
  1
(<>
 13
-276.369967935687
 23
159.7170743868716
 33
0
 14
-276.369966460855
 24
201.7170729120392
 34
0
 50
90
 53
0
  0
DIMENSION
  8
1
  6
CONTINUOUS
 62
2
  2
*D17
  3
DMST_4
 10
-327.2648109292585
 20
159.7170838257988
 30
0
 11
-329.9245004352785
 21
168.6791553522623
 31
0
 12
0
 22
0
 32
0
 70
0
  1
üª(<>
 13
-303.7699664608552
 23
153.2170729120394
 33
0
 14
-308.3699767477493
 24
159.7170838257988
 34
0
 50
90
 53
0
  0
DIMENSION
  8
1
  6
CONTINUOUS
 62
2
  2
*D18
  3
DMST_4
 10
-246.3700099866255
 20
155.1670729120393
 30
0
 11
-249.9700099866255
 21
148.5148602687547
 31
0
 12
0
 22
0
 32
0
 70
0
  1
4.6
 13
-276.369967935687
 23
159.7170743868716
 33
0
 14
-280.4199664608552
 24
155.1670729120393
 34
0
 50
90
 53
0
  0
INSERT
  8
1
  2
*D7
 10
0
 20
0
 30
0
  0
INSERT
  8
1
  2
*D8
 10
0
 20
0
 30
0
  0
ENDSEC
  0
EOF
