  0
SECTION
  2
HEADER
  9
$ACADVER
  1
AC1009
  9
$INSBASE
 10
0
 20
0
  9
$EXTMIN
 10
-339.0761728266635
 20
37.5218179324922
  9
$EXTMAX
 10
-37.31758058656758
 20
242.97428983961
  9
$LIMMIN
 10
-339.0761728266635
 20
37.5218179324922
  9
$LIMMAX
 10
-37.31758058656758
 20
242.97428983961
  9
$VIEWCTR
 10
10
 20
10
  9
$VIEWSIZE
 40
10
  9
$SNAPMODE
 70
0
  9
$SNAPUNIT
 10
1
 20
1
  9
$SNAPBASE
 10
0
 20
0
  9
$SNAPANG
 50
0
  9
$SNAPSTYLE
 70
0
  9
$SNAPISOPAIR
 70
0
  9
$GRIDMODE
 70
0
  9
$GRIDUNIT
 10
0
 20
0
  9
$ORTHOMODE
 70
0
  9
$REGENMODE
 70
1
  9
$FILLMODE
 70
1
  9
$QTEXTMODE
 70
0
  9
$DRAGMODE
 70
2
  9
$LTSCALE
 40
1
  9
$OSMODE
 70
0
  9
$ATTMODE
 70
1
  9
$TEXTSIZE
 40
3.5
  9
$TRACEWID
 40
0.5
  9
$TEXTSTYLE
  7
STANDARD
  9
$CLAYER
  8
0
  9
$CELTYPE
  6
BYLAYER
  9
$CECOLOR
 62
256
  9
$DIMSCALE
 40
1
  9
$DIMASZ
 40
0.18
  9
$DIMEXO
 40
0.0625
  9
$DIMDLI
 40
0.38
  9
$DIMRND
 40
0
  9
$DIMDLE
 40
0
  9
$DIMEXE
 40
0.18
  9
$DIMTP
 40
0
  9
$DIMTM
 40
0
  9
$DIMTXT
 40
0.18
  9
$DIMCEN
 40
0.09
  9
$DIMTSZ
 40
0
  9
$DIMTOL
 70
0
  9
$DIMLIM
 70
0
  9
$DIMTIH
 70
1
  9
$DIMTOH
 70
1
  9
$DIMSE1
 70
0
  9
$DIMSE2
 70
0
  9
$DIMTAD
 70
0
  9
$DIMZIN
 70
0
  9
$DIMBLK
  1

  9
$DIMASO
 70
1
  9
$DIMSHO
 70
1
  9
$DIMPOST
  1

  9
$DIMAPOST
  1

  9
$DIMALT
 70
0
  9
$DIMALTD
 70
2
  9
$DIMALTF
 40
25.4
  9
$DIMLFAC
 40
1
  9
$DIMTOFL
 70
0
  9
$DIMTVP
 40
0
  9
$DIMTIX
 70
0
  9
$DIMSOXD
 70
0
  9
$DIMSAH
 70
0
  9
$DIMBLK1
  1

  9
$DIMBLK2
  1

  9
$DIMSTYLE
  2
*UNNAMED
  9
$DIMCLRD
 70
0
  9
$DIMCLRE
 70
0
  9
$DIMCLRT
 70
0
  9
$DIMTFAC
 40
1
  9
$DIMGAP
 40
0.09
  9
$LUNITS
 70
2
  9
$LUPREC
 70
4
  9
$AXISMODE
 70
0
  9
$AXISUNIT
 10
0
 20
0
  9
$SKETCHINC
 40
0.1
  9
$FILLETRAD
 40
2
  9
$AUNITS
 70
0
  9
$AUPREC
 70
0
  9
$MENU
  1
ACAD
  9
$ELEVATION
 40
0
  9
$THICKNESS
 40
0
  9
$VIEWDIR
 10
0
 20
0
 30
1
  9
$LIMCHECK
 70
0
  9
$BLIPMODE
 70
1
  9
$CHAMFERA
 40
0
  9
$CHAMFERB
 40
0
  9
$FASTZOOM
 70
1
  9
$SKPOLY
 70
0
  9
$ANGBASE
 50
0
  9
$ANGDIR
 70
0
  9
$PDMODE
 70
0
  9
$PDSIZE
 40
0
  9
$PLINEWID
 40
0
  9
$COORDS
 70
2
  0
ENDSEC
  0
SECTION
  2
TABLES
  0
TABLE
  2
DIMSTYLE
 70
13
  0
DIMSTYLE
  2
DMST_1
 70
0
  3
MAX.
  4

  5

  6

  7

 40
1
 41
3.2
 42
1
 43
7
 44
1
 45
0
 46
0
 47
0
 48
0
140
3.2
141
0
142
0
143
25.4
144
1
145
0
146
1
147
0.09
 71
0
 72
0
 73
0
 74
0
 75
0
 76
0
 77
1
 78
9
170
0
171
2
172
0
173
0
174
0
175
0
176
2
177
2
178
2
  0
DIMSTYLE
  2
DMST_2
 70
0
  3

  4

  5

  6

  7

 40
1
 41
3.2
 42
1
 43
7
 44
1
 45
0
 46
0
 47
0
 48
0
140
3.2
141
0
142
0
143
25.4
144
1
145
0
146
0.6
147
0.09
 71
1
 72
0
 73
0
 74
0
 75
0
 76
0
 77
1
 78
9
170
0
171
2
172
0
173
0
174
0
175
0
176
2
177
2
178
2
  0
DIMSTYLE
  2
DMST_3
 70
0
  3
)
  4

  5

  6

  7

 40
1
 41
3.2
 42
1
 43
7
 44
1
 45
0
 46
0
 47
0
 48
0
140
3.2
141
0
142
0
143
25.4
144
1
145
0
146
1
147
0.09
 71
0
 72
0
 73
0
 74
0
 75
0
 76
0
 77
1
 78
9
170
0
171
2
172
0
173
0
174
0
175
0
176
2
177
2
178
2
  0
DIMSTYLE
  2
DMST_4
 70
0
  3

  4

  5

  6

  7

 40
1
 41
3.2
 42
0
 43
7
 44
1
 45
0
 46
0
 47
0
 48
0
140
3.2
141
0
142
0
143
25.4
144
1
145
0
146
0.6
147
0.09
 71
1
 72
0
 73
0
 74
0
 75
0
 76
0
 77
1
 78
9
170
0
171
2
172
0
173
0
174
0
175
0
176
2
177
2
178
2
  0
DIMSTYLE
  2
DMST_5
 70
0
  3

  4

  5

  6

  7

 40
1
 41
3.200000000000001
 42
1
 43
7
 44
1
 45
0
 46
0
 47
0.2
 48
0.2
140
3.200000000000001
141
0
142
0
143
25.4
144
1
145
0
146
0.6
147
0.09
 71
1
 72
0
 73
0
 74
0
 75
0
 76
0
 77
1
 78
9
170
0
171
2
172
0
173
0
174
0
175
0
176
2
177
2
178
2
  0
DIMSTYLE
  2
DMST_6
 70
0
  3

  4

  5

  6

  7

 40
1
 41
3.2
 42
1
 43
7
 44
1.5
 45
0
 46
0
 47
0
 48
0.011
140
3.2
141
0
142
0
143
25.4
144
1
145
0
146
0.6
147
0.09
 71
1
 72
0
 73
0
 74
0
 75
0
 76
0
 77
1
 78
9
170
0
171
2
172
0
173
0
174
0
175
0
176
2
177
2
178
2
  0
DIMSTYLE
  2
DMST_7
 70
0
  3
)
  4

  5

  6

  7

 40
1
 41
3.2
 42
1
 43
7
 44
1.5
 45
0
 46
0
 47
0
 48
0
140
3.2
141
0
142
0
143
25.4
144
1
145
0
146
1
147
0.09
 71
0
 72
0
 73
0
 74
0
 75
0
 76
0
 77
1
 78
9
170
0
171
2
172
0
173
0
174
0
175
0
176
2
177
2
178
2
  0
DIMSTYLE
  2
DMST_8
 70
0
  3

  4

  5

  6

  7

 40
1
 41
3.2
 42
1
 43
7
 44
1.5
 45
0
 46
0
 47
40
 48
0
140
3.2
141
0
142
0
143
25.4
144
1
145
0
146
0.7
147
0.09
 71
1
 72
0
 73
0
 74
0
 75
0
 76
0
 77
1
 78
9
170
0
171
2
172
0
173
0
174
0
175
0
176
2
177
2
178
2
  0
DIMSTYLE
  2
DMST_9
 70
0
  3

  4

  5

  6

  7

 40
1
 41
3.2
 42
1
 43
7
 44
1.5
 45
0
 46
0
 47
0.5
 48
0.5
140
3.2
141
0
142
0
143
25.4
144
1
145
0
146
0.7
147
0.09
 71
1
 72
0
 73
1
 74
1
 75
0
 76
0
 77
1
 78
9
170
0
171
2
172
0
173
0
174
0
175
0
176
2
177
2
178
2
  0
DIMSTYLE
  2
DMST_10
 70
0
  3

  4

  5

  6

  7

 40
1
 41
3.2
 42
1
 43
7
 44
1.5
 45
0
 46
0
 47
0.2
 48
0.2
140
3.2
141
0
142
0
143
25.4
144
1
145
0
146
0.7
147
0.09
 71
1
 72
0
 73
1
 74
1
 75
0
 76
0
 77
1
 78
9
170
0
171
2
172
0
173
0
174
0
175
0
176
2
177
2
178
2
  0
DIMSTYLE
  2
DMST_11
 70
0
  3

  4

  5

  6

  7

 40
1
 41
3.2
 42
1
 43
7
 44
1.5
 45
0
 46
0
 47
0.1
 48
0.1
140
3.2
141
0
142
0
143
25.4
144
1
145
0
146
0.7
147
0.09
 71
1
 72
0
 73
0
 74
0
 75
0
 76
0
 77
1
 78
9
170
0
171
2
172
0
173
0
174
0
175
0
176
2
177
2
178
2
  0
DIMSTYLE
  2
DMST_12
 70
0
  3

  4

  5

  6

  7

 40
1
 41
3.2
 42
1
 43
7
 44
1.5
 45
0
 46
0
 47
0.2
 48
0.2
140
3.2
141
0
142
0
143
25.4
144
1
145
0
146
0.7
147
0.09
 71
1
 72
0
 73
0
 74
0
 75
0
 76
0
 77
1
 78
9
170
0
171
2
172
0
173
0
174
0
175
0
176
2
177
2
178
2
  0
DIMSTYLE
  2
DMST_13
 70
0
  3

  4

  5

  6

  7

 40
1
 41
3.2
 42
1
 43
7
 44
1.5
 45
0
 46
0
 47
0
 48
0.011
140
3.2
141
0
142
0
143
25.4
144
1
145
0
146
0.7
147
0.09
 71
1
 72
0
 73
0
 74
0
 75
0
 76
0
 77
1
 78
9
170
0
171
2
172
0
173
0
174
0
175
0
176
2
177
2
178
2
  0
ENDTAB
  0
TABLE
  2
LTYPE
 70
9
  0
LTYPE
  2
CONTINUOUS
 70
64
  3
Solid line
 72
65
 73
0
 40
0
  0
LTYPE
  2
BORDER
 70
64
  3
__ __ . __ __ .
 72
65
 73
6
 40
13.89677727421494
 49
3.970507792632841
 49
-1.98525389631642
 49
3.970507792632841
 49
-1.98525389631642
 49
0
 49
-1.98525389631642
  0
LTYPE
  2
CENTER
 70
64
  3
____ _ ____ _
 72
65
 73
4
 40
15.88203117053136
 49
9.926269481582102
 49
-1.98525389631642
 49
1.98525389631642
 49
-1.98525389631642
  0
LTYPE
  2
DASHDOT
 70
64
  3
__ . __ . __ .
 72
65
 73
4
 40
7.941015585265681
 49
3.970507792632841
 49
-1.98525389631642
 49
0
 49
-1.98525389631642
  0
LTYPE
  2
DASHED
 70
64
  3
__ __ __ __ __
 72
65
 73
2
 40
5.955761688949261
 49
3.970507792632841
 49
-1.98525389631642
  0
LTYPE
  2
DIVIDE
 70
64
  3
__ . . __ . . 
 72
65
 73
6
 40
9.926269481582102
 49
3.970507792632841
 49
-1.98525389631642
 49
0
 49
-1.98525389631642
 49
0
 49
-1.98525389631642
  0
LTYPE
  2
DOT
 70
64
  3
..............
 72
65
 73
4
 40
3.970507792632841
 49
0
 49
-1.98525389631642
 49
0
 49
-1.98525389631642
  0
LTYPE
  2
HIDDEN
 70
64
  3
_ _ _ _ _ _ _
 72
65
 73
2
 40
2.977880844474631
 49
1.98525389631642
 49
-0.9926269481582102
  0
LTYPE
  2
PHANTOM
 70
64
  3
_____ _ _ _____ _ _ 
 72
65
 73
6
 40
19.8525389631642
 49
9.926269481582102
 49
-1.98525389631642
 49
1.98525389631642
 49
-1.98525389631642
 49
1.98525389631642
 49
-1.98525389631642
  0
ENDTAB
  0
TABLE
  2
LAYER
 70
5
  0
LAYER
  2
1
 70
0
 62
7
  6
CONTINUOUS
  0
LAYER
  2
2
 70
0
 62
7
  6
CONTINUOUS
  0
LAYER
  2
4
 70
0
 62
7
  6
CONTINUOUS
  0
LAYER
  2
0
 70
0
 62
7
  6
CONTINUOUS
  0
ENDTAB
  0
TABLE
  2
STYLE
 70
4
  0
STYLE
  2
STANDARD
 70
0
 40
0
 41
1
 50
0
 71
0
 42
3.5
  3
txt
  4

  0
STYLE
  2
SIMPLEX
 70
0
 40
0
 41
1
 50
0
 71
0
 42
3.5
  3
simplex
  4

  0
STYLE
  2
COMPLEX
 70
0
 40
0
 41
1
 50
0
 71
0
 42
3.5
  3
complex
  4

  0
STYLE
  2
ITALIC
 70
0
 40
0
 41
1
 50
0
 71
0
 42
3.5
  3
italic
  4

  0
ENDTAB
  0
TABLE
  2
VIEW
 70
0
  0
ENDTAB
  0
ENDSEC
  0
SECTION
  2
BLOCKS
  0
BLOCK
  8
0
  2
MOJINOMUKI
 70
0
 10
-109.3475135772548
 20
485.0784630642792
 30
0
  0
LINE
  8
1
 62
2
 10
-106.3475135772546
 20
204.3276856848613
 30
0
 11
-112.3475135772546
 21
204.3276856848613
 31
0
  0
LINE
  8
1
 62
2
 10
-112.3475135772546
 20
210.3276856848613
 30
0
 11
-106.3475135772546
 21
210.3276856848613
 31
0
  0
LINE
  8
1
 62
2
 10
-111.8475135772546
 20
207.3276856848613
 30
0
 11
-109.3475135772546
 21
205.8276856848613
 31
0
  0
LINE
  8
1
 62
2
 10
-106.8475135772546
 20
207.3276856848613
 30
0
 11
-111.8475135772546
 21
207.3276856848613
 31
0
  0
LINE
  8
1
 62
2
 10
-109.3475135772546
 20
205.8276856848613
 30
0
 11
-109.3475135772546
 21
208.3276856848613
 31
0
  0
LINE
  8
1
 62
2
 10
-112.3475135772546
 20
230.3276856848613
 30
0
 11
-106.3475135772546
 21
230.3276856848613
 31
0
  0
LINE
  8
1
 62
2
 10
-112.3475135772546
 20
204.3276856848613
 30
0
 11
-112.3475135772546
 21
230.3276856848613
 31
0
  0
LINE
  8
1
 62
2
 10
-106.3475135772546
 20
230.3276856848613
 30
0
 11
-106.3475135772546
 21
204.3276856848613
 31
0
  0
TEXT
  8
1
 62
2
 10
-107.3475135772546
 20
202.3744312469915
 30
0
 40
4
  1
òÂÄÜé╠î³é½
 50
90
 41
0.9
 72
1
 73
2
 11
-109.3475135772546
 21
220.3744312469915
 31
0
  0
TEXT
  8
1
 62
2
 10
-103.7766137936584
 20
208.2881468294469
 30
0
 40
2
  1
DIRECTION
 50
90
 41
0.9
  0
TEXT
  8
1
 62
2
 10
-100.7766137936584
 20
208.2881468294469
 30
0
 40
2
  1
OF LETTERS
 50
90
 41
0.9
  0
TEXT
  8
1
 62
2
 10
-100.8569667932547
 20
204.7710655258157
 30
0
 40
5
  1
(   )
 50
90
 41
0.9900000000000001
  0
ENDBLK
  8
0
  0
BLOCK
  8
0
  2
*D0
 70
1
 10
0
 20
0
 30
0
  0
LINE
  8
0
 62
2
 10
-137.5174396069864
 20
237.77428983961
 30
0
 11
-97.91743210698638
 21
237.77428983961
 31
0
  0
LINE
  8
0
 62
2
 10
-137.5174396069864
 20
201.3480646216076
 30
0
 11
-137.5174396069864
 21
238.77428983961
 31
0
  0
LINE
  8
0
 62
2
 10
-97.91743210698638
 20
201.7170729120392
 30
0
 11
-97.91743210698638
 21
238.77428983961
 31
0
  0
SOLID
  8
0
 62
2
 10
-137.5174396069864
 20
237.77428983961
 30
0
 11
-134.3174396069864
 21
238.19028983961
 31
0
 12
-134.3174396069864
 22
237.35828983961
 32
0
 13
-134.3174396069864
 23
237.35828983961
 33
0
  0
SOLID
  8
0
 62
2
 10
-97.91743210698638
 20
237.77428983961
 30
0
 11
-101.1174321069864
 21
237.35828983961
 31
0
 12
-101.1174321069864
 22
238.19028983961
 32
0
 13
-101.1174321069864
 23
238.19028983961
 33
0
  0
TEXT
  8
0
 62
2
 10
-126.861517636076
 20
239.37428983961
 30
0
 40
3.2
  1
40
 41
0.9
  0
TEXT
  8
0
 62
2
 10
-120.461517636076
 20
239.37428983961
 30
0
 40
3.2
  1
MAX.
 41
0.9
  0
ENDBLK
  8
0
  0
BLOCK
  8
0
  2
*D1
 70
1
 10
0
 20
0
 30
0
  0
LINE
  8
0
 62
2
 10
-131.1174396069864
 20
228.368229013055
 30
0
 11
-137.5174396069864
 21
228.368229013055
 31
0
  0
LINE
  8
0
 62
2
 10
-139.5174396069864
 20
228.368229013055
 30
0
 11
-137.5174396069864
 21
228.368229013055
 31
0
  0
LINE
  8
0
 62
2
 10
-139.5174396069864
 20
228.368229013055
 30
0
 11
-150.317187351727
 21
228.368229013055
 31
0
  0
LINE
  8
0
 62
2
 10
-139.5174396069864
 20
192.7170729120392
 30
0
 11
-139.5174396069864
 21
229.368229013055
 31
0
  0
LINE
  8
0
 62
2
 10
-137.5174396069864
 20
201.3480646216076
 30
0
 11
-137.5174396069864
 21
229.368229013055
 31
0
  0
SOLID
  8
0
 62
2
 10
-139.5174396069864
 20
228.368229013055
 30
0
 11
-142.7174396069864
 21
227.952229013055
 31
0
 12
-142.7174396069864
 22
228.784229013055
 32
0
 13
-142.7174396069864
 23
228.784229013055
 33
0
  0
SOLID
  8
0
 62
2
 10
-137.5174396069864
 20
228.368229013055
 30
0
 11
-134.3174396069864
 21
228.784229013055
 31
0
 12
-134.3174396069864
 22
227.952229013055
 32
0
 13
-134.3174396069864
 23
227.952229013055
 33
0
  0
TEXT
  8
0
 62
2
 10
-150.317187351727
 20
229.968229013055
 30
0
 40
3.2
  1
2
 41
0.9
  0
TEXT
  8
0
 62
2
 10
-146.797187351727
 20
230.608229013055
 30
0
 40
1.92
  1
%%p0.2
 41
0.9
  0
ENDBLK
  8
0
  0
BLOCK
  8
0
  2
*D2
 70
1
 10
0
 20
0
 30
0
  0
LINE
  8
0
 62
2
 10
-181.21508843812
 20
169.7170729120393
 30
0
 11
-181.21508843812
 21
191.7170729120392
 31
0
  0
LINE
  8
0
 62
2
 10
-140.5175396069865
 20
169.7170729120393
 30
0
 11
-182.21508843812
 21
169.7170729120393
 31
0
  0
LINE
  8
0
 62
2
 10
-140.5174396069864
 20
191.7170729120392
 30
0
 11
-182.21508843812
 21
191.7170729120392
 31
0
  0
SOLID
  8
0
 62
2
 10
-181.21508843812
 20
191.7170729120392
 30
0
 11
-180.79908843812
 21
188.5170729120392
 31
0
 12
-181.63108843812
 22
188.5170729120392
 32
0
 13
-181.63108843812
 23
188.5170729120392
 33
0
  0
SOLID
  8
0
 62
2
 10
-181.21508843812
 20
169.7170729120393
 30
0
 11
-181.63108843812
 21
172.9170729120393
 31
0
 12
-180.79908843812
 22
172.9170729120393
 32
0
 13
-180.79908843812
 23
172.9170729120393
 33
0
  0
TEXT
  8
0
 62
2
 10
-183.61508843812
 20
175.985173666676
 30
0
 40
3.2
  1
22
 50
90
 41
0.9
  0
TEXT
  8
0
 62
2
 10
-185.69508843812
 20
182.385173666676
 30
0
 40
1.92
  1
0
 50
90
 41
0.9
  0
TEXT
  8
0
 62
2
 10
-182.81508843812
 20
182.385173666676
 30
0
 40
1.92
  1
-0.05
 50
90
 41
0.9
  0
TEXT
  8
0
 62
2
 10
-183.61508843812
 20
172.145173666676
 30
0
 40
3.2
  1
%%c
 50
90
 41
0.9
  0
ENDBLK
  8
0
  0
BLOCK
  8
0
  2
*D3
 70
1
 10
0
 20
0
 30
0
  0
LINE
  8
0
 62
2
 10
-311.038990299303
 20
226.7170729120392
 30
0
 11
-269.0389891084837
 21
226.7170729120392
 31
0
  0
LINE
  8
0
 62
2
 10
-269.0389891084837
 20
197.7170729120392
 30
0
 11
-269.0389891084837
 21
227.7170729120392
 31
0
  0
LINE
  8
0
 62
2
 10
-311.038990299303
 20
197.7170741028588
 30
0
 11
-311.038990299303
 21
227.7170729120392
 31
0
  0
SOLID
  8
0
 62
2
 10
-311.038990299303
 20
226.7170729120392
 30
0
 11
-307.838990299303
 21
227.1330729120392
 31
0
 12
-307.838990299303
 22
226.3010729120392
 32
0
 13
-307.838990299303
 23
226.3010729120392
 33
0
  0
SOLID
  8
0
 62
2
 10
-269.0389891084837
 20
226.7170729120392
 30
0
 11
-272.2389891084837
 21
226.3010729120392
 31
0
 12
-272.2389891084837
 22
227.1330729120392
 32
0
 13
-272.2389891084837
 23
227.1330729120392
 33
0
  0
TEXT
  8
0
 62
2
 10
-292.4389897038934
 20
228.3170729120392
 30
0
 40
3.2
  1
42
 41
0.9
  0
TEXT
  8
0
 62
2
 10
-294.5189897038934
 20
228.3170729120392
 30
0
 40
3.2
  1
(
 41
0.9
  0
TEXT
  8
0
 62
2
 10
-286.0389897038934
 20
228.3170729120392
 30
0
 40
3.2
  1
)
 41
0.9
  0
ENDBLK
  8
0
  0
BLOCK
  8
0
  2
*D4
 70
1
 10
0
 20
0
 30
0
  0
LINE
  8
0
 62
2
 10
-305.5389791084836
 20
216.7170729120392
 30
0
 11
-274.5389891084837
 21
216.7170729120392
 31
0
  0
LINE
  8
0
 62
2
 10
-305.5389791084836
 20
198.7170729120392
 30
0
 11
-305.5389791084836
 21
217.7170729120392
 31
0
  0
LINE
  8
0
 62
2
 10
-274.5389891084837
 20
198.7170729120392
 30
0
 11
-274.5389891084837
 21
217.7170729120392
 31
0
  0
SOLID
  8
0
 62
2
 10
-305.5389791084836
 20
216.7170729120392
 30
0
 11
-302.3389791084836
 21
217.1330729120392
 31
0
 12
-302.3389791084836
 22
216.3010729120392
 32
0
 13
-302.3389791084836
 23
216.3010729120392
 33
0
  0
SOLID
  8
0
 62
2
 10
-274.5389891084837
 20
216.7170729120392
 30
0
 11
-277.7389891084837
 21
216.3010729120392
 31
0
 12
-277.7389891084837
 22
217.1330729120392
 32
0
 13
-277.7389891084837
 23
217.1330729120392
 33
0
  0
TEXT
  8
0
 62
2
 10
-295.1829891084837
 20
218.3170729120392
 30
0
 40
3.2
  1
31
 41
0.9
  0
TEXT
  8
0
 62
2
 10
-289.7429891084837
 20
218.9570729120392
 30
0
 40
1.92
  1
%%p0.2
 41
0.9
  0
ENDBLK
  8
0
  0
BLOCK
  8
1
  2
*D5
 70
1
 10
0
 20
0
 30
0
  0
LINE
  8
1
 62
2
 10
-251.6166033991222
 20
165.2170729120393
 30
0
 11
-251.6166033991222
 21
196.2170729120392
 31
0
  0
LINE
  8
1
 62
2
 10
-271.0389891084838
 20
196.2170729120392
 30
0
 11
-250.6166033991222
 21
196.2170729120392
 31
0
  0
LINE
  8
1
 62
2
 10
-271.0389891084838
 20
165.2170729120393
 30
0
 11
-250.6166033991222
 21
165.2170729120393
 31
0
  0
SOLID
  8
1
 62
2
 10
-251.6166033991222
 20
196.2170729120392
 30
0
 11
-251.2006033991222
 21
193.0170729120392
 31
0
 12
-252.0326033991222
 22
193.0170729120392
 32
0
 13
-252.0326033991222
 23
193.0170729120392
 33
0
  0
SOLID
  8
1
 62
2
 10
-251.6166033991222
 20
165.2170729120393
 30
0
 11
-252.0326033991222
 21
168.4170729120393
 31
0
 12
-251.2006033991222
 22
168.4170729120393
 32
0
 13
-251.2006033991222
 23
168.4170729120393
 33
0
  0
TEXT
  8
1
 62
2
 10
-253.6166033991222
 20
176.147499179405
 30
0
 40
3.200000000000001
  1
31
 50
90
 41
0.9
  0
TEXT
  8
1
 62
2
 10
-254.2566033991222
 20
181.587499179405
 30
0
 40
1.920000000000001
  1
%%p0.2
 50
90
 41
0.9
  0
ENDBLK
  8
0
  0
BLOCK
  8
1
  2
*D6
 70
1
 10
0
 20
0
 30
0
  0
LINE
  8
1
 62
2
 10
-171.482819331109
 20
178.2170729120392
 30
0
 11
-171.482819331109
 21
183.2170729120392
 31
0
  0
LINE
  8
1
 62
2
 10
-171.482819331109
 20
178.2170729120392
 30
0
 11
-171.482819331109
 21
171.8170729120392
 31
0
  0
LINE
  8
1
 62
2
 10
-171.482819331109
 20
183.2170729120392
 30
0
 11
-171.482819331109
 21
189.6170729120392
 31
0
  0
LINE
  8
1
 62
2
 10
-162.5174509706228
 20
178.2170729120392
 30
0
 11
-172.982819331109
 21
178.2170729120392
 31
0
  0
LINE
  8
1
 62
2
 10
-147.5174289363534
 20
183.2170729120392
 30
0
 11
-172.982819331109
 21
183.2170729120392
 31
0
  0
SOLID
  8
1
 62
2
 10
-171.482819331109
 20
178.2170729120392
 30
0
 11
-171.066819331109
 21
175.0170729120392
 31
0
 12
-171.898819331109
 22
175.0170729120392
 32
0
 13
-171.898819331109
 23
175.0170729120392
 33
0
  0
SOLID
  8
1
 62
2
 10
-171.482819331109
 20
183.2170729120392
 30
0
 11
-171.898819331109
 21
186.4170729120392
 31
0
 12
-171.066819331109
 22
186.4170729120392
 32
0
 13
-171.066819331109
 23
186.4170729120392
 33
0
  0
TEXT
  8
1
 62
2
 10
-174.3361526644424
 20
177.3361174814507
 30
0
 40
3.2
  1
5
 50
90
 41
0.9
  0
TEXT
  8
1
 62
2
 10
-176.4161526644424
 20
180.8561174814507
 30
0
 40
1.92
  1
 0
 50
90
 41
0.9
  0
TEXT
  8
1
 62
2
 10
-173.5361526644424
 20
180.8561174814507
 30
0
 40
1.92
  1
-0.011
 50
90
 41
0.9
  0
TEXT
  8
1
 62
2
 10
-174.3361526644424
 20
173.2890586579213
 30
0
 40
3.2
  1
âË
 50
90
 41
0.9
  0
ENDBLK
  8
0
  0
BLOCK
  8
1
  2
*D7
 70
1
 10
0
 20
0
 30
0
  0
LINE
  8
1
 62
2
 10
-320.7283984432735
 20
86.89900830326829
 30
0
 11
-320.7283984432735
 21
93.2990083032683
 31
0
  0
LINE
  8
1
 62
2
 10
-320.7283984432735
 20
93.2990083032683
 30
0
 11
-320.7283984432735
 21
96.7990083032683
 31
0
  0
LINE
  8
1
 62
2
 10
-320.7283984432735
 20
96.7990083032683
 30
0
 11
-320.7283984432735
 21
111.76269756629
 31
0
  0
LINE
  8
1
 62
2
 10
-297.3889891084839
 20
93.2990083032683
 30
0
 11
-322.2283984432735
 21
93.2990083032683
 31
0
  0
LINE
  8
1
 62
2
 10
-297.7089891084839
 20
96.7990083032683
 30
0
 11
-322.2283984432735
 21
96.7990083032683
 31
0
  0
SOLID
  8
1
 62
2
 10
-320.7283984432735
 20
93.2990083032683
 30
0
 11
-320.3123984432735
 21
90.09900830326829
 31
0
 12
-321.1443984432735
 22
90.09900830326829
 32
0
 13
-321.1443984432735
 23
90.09900830326829
 33
0
  0
SOLID
  8
1
 62
2
 10
-320.7283984432735
 20
96.7990083032683
 30
0
 11
-321.1443984432735
 21
99.9990083032683
 31
0
 12
-320.3123984432735
 22
99.9990083032683
 32
0
 13
-320.3123984432735
 23
99.9990083032683
 33
0
  0
TEXT
  8
1
 62
2
 10
-321.6935214575435
 20
103.84269756629
 30
0
 40
3.2
  1
3.5
 50
90
 41
0.9
  0
TEXT
  8
1
 62
2
 10
-321.6935214575435
 20
101.52269756629
 30
0
 40
3.2
  1
(
 50
90
 41
1.35
  0
TEXT
  8
1
 62
2
 10
-321.6935214575435
 20
111.28269756629
 30
0
 40
3.2
  1
)
 50
90
 41
0.9
  0
ENDBLK
  8
0
  0
BLOCK
  8
1
  2
*D8
 70
1
 10
0
 20
0
 30
0
  0
LINE
  8
1
 62
2
 10
-331.4761728266635
 20
93.2990083032683
 30
0
 11
-331.4761728266635
 21
153.2170729120394
 31
0
  0
LINE
  8
1
 62
2
 10
-297.3889891084839
 20
93.2990083032683
 30
0
 11
-332.9761728266635
 21
93.2990083032683
 31
0
  0
LINE
  8
1
 62
2
 10
-302.438989108484
 20
153.2170729120394
 30
0
 11
-332.9761728266635
 21
153.2170729120394
 31
0
  0
SOLID
  8
1
 62
2
 10
-331.4761728266635
 20
93.2990083032683
 30
0
 11
-331.8921728266635
 21
96.4990083032683
 31
0
 12
-331.0601728266635
 22
96.4990083032683
 32
0
 13
-331.0601728266635
 23
96.4990083032683
 33
0
  0
SOLID
  8
1
 62
2
 10
-331.4761728266635
 20
153.2170729120394
 30
0
 11
-331.0601728266635
 21
150.0170729120394
 31
0
 12
-331.8921728266635
 22
150.0170729120394
 32
0
 13
-331.8921728266635
 23
150.0170729120394
 33
0
  0
TEXT
  8
1
 62
2
 10
-334.6761728266635
 20
114.037924431192
 30
0
 40
3.2
  1
300
 50
90
 41
0.9
  0
TEXT
  8
1
 62
2
 10
-336.8361728266635
 20
123.317924431192
 30
0
 40
2.24
  1
+40
 50
90
 41
0.9900000000000001
  0
TEXT
  8
1
 62
2
 10
-333.4761728266635
 20
123.317924431192
 30
0
 40
2.24
  1
 0
 50
90
 41
0.9900000000000001
  0
ENDBLK
  8
0
  0
BLOCK
  8
1
  2
*D9
 70
1
 10
0
 20
0
 30
0
  0
LINE
  8
1
 62
2
 10
-161.5174384331781
 20
237.77428983961
 30
0
 11
-137.5174396069864
 21
237.77428983961
 31
0
  0
LINE
  8
1
 62
2
 10
-161.5174384331781
 20
183.7170729120392
 30
0
 11
-161.5174384331781
 21
239.27428983961
 31
0
  0
LINE
  8
1
 62
2
 10
-137.5174396069864
 20
201.7170729120392
 30
0
 11
-137.5174396069864
 21
239.27428983961
 31
0
  0
SOLID
  8
1
 62
2
 10
-137.5174396069864
 20
237.77428983961
 30
0
 11
-140.7174396069864
 21
237.35828983961
 31
0
 12
-140.7174396069864
 22
238.19028983961
 32
0
 13
-140.7174396069864
 23
238.19028983961
 33
0
  0
SOLID
  8
1
 62
2
 10
-161.5174384331781
 20
237.77428983961
 30
0
 11
-158.3174384331781
 21
238.19028983961
 31
0
 12
-158.3174384331781
 22
237.35828983961
 32
0
 13
-158.3174384331781
 23
237.35828983961
 33
0
  0
TEXT
  8
1
 62
2
 10
-156.176551171788
 20
239.77428983961
 30
0
 40
3.2
  1
24
 41
0.9
  0
TEXT
  8
1
 62
2
 10
-149.776551171788
 20
240.25428983961
 30
0
 40
2.24
  1
%%p0.5
 41
0.9900000000000001
  0
ENDBLK
  8
0
  0
BLOCK
  8
1
  2
*D10
 70
1
 10
0
 20
0
 30
0
  0
LINE
  8
1
 62
2
 10
-161.5174384331781
 20
219.111470739303
 30
0
 11
-146.5174289363533
 21
219.111470739303
 31
0
  0
LINE
  8
1
 62
2
 10
-161.5174384331781
 20
183.7170729120392
 30
0
 11
-161.5174384331781
 21
220.611470739303
 31
0
  0
LINE
  8
1
 62
2
 10
-146.5174289363533
 20
184.2170729120392
 30
0
 11
-146.5174289363533
 21
220.611470739303
 31
0
  0
SOLID
  8
1
 62
2
 10
-161.5174384331781
 20
219.111470739303
 30
0
 11
-158.3174384331781
 21
219.527470739303
 31
0
 12
-158.3174384331781
 22
218.695470739303
 32
0
 13
-158.3174384331781
 23
218.695470739303
 33
0
  0
SOLID
  8
1
 62
2
 10
-146.5174289363533
 20
219.111470739303
 30
0
 11
-149.7174289363533
 21
218.695470739303
 31
0
 12
-149.7174289363533
 22
219.527470739303
 32
0
 13
-149.7174289363533
 23
219.527470739303
 33
0
  0
TEXT
  8
1
 62
2
 10
-159.727720097454
 20
221.111470739303
 30
0
 40
3.2
  1
15
 41
0.9
  0
TEXT
  8
1
 62
2
 10
-154.287720097454
 20
221.591470739303
 30
0
 40
2.24
  1
%%p0.2
 41
0.9900000000000001
  0
ENDBLK
  8
0
  0
BLOCK
  8
1
  2
*D11
 70
1
 10
0
 20
0
 30
0
  0
LINE
  8
1
 62
2
 10
-166.9982648329034
 20
189.117088182188
 30
0
 11
-166.9982826639358
 21
182.7170881822128
 31
0
  0
LINE
  8
1
 62
2
 10
-166.9982952013805
 20
178.2170881822128
 30
0
 11
-166.9982826639358
 21
182.7170881822128
 31
0
  0
LINE
  8
1
 62
2
 10
-166.9982952013805
 20
178.2170881822128
 30
0
 11
-166.9983603911847
 21
154.818849855689
 31
0
  0
LINE
  8
1
 62
2
 10
-162.5174509706189
 20
178.217075698138
 30
0
 11
-168.4982952013747
 21
178.217092361361
 31
0
  0
LINE
  8
1
 62
2
 10
-162.5174384331742
 20
182.717075698138
 30
0
 11
-168.49828266393
 21
182.717092361361
 31
0
  0
SOLID
  8
1
 62
2
 10
-166.9982826639358
 20
182.7170881822128
 30
0
 11
-167.4142737484179
 21
185.9170893412175
 31
0
 12
-166.5822737484212
 22
185.9170870231833
 32
0
 13
-166.5822737484212
 23
185.9170870231833
 33
0
  0
SOLID
  8
1
 62
2
 10
-166.9982952013805
 20
178.2170881822128
 30
0
 11
-166.5823041168983
 21
175.0170870232081
 31
0
 12
-167.4143041168951
 22
175.0170893412423
 32
0
 13
-167.4143041168951
 23
175.0170893412423
 33
0
  0
TEXT
  8
1
 62
2
 10
-168.9983603911769
 20
154.8188554278867
 30
0
 40
3.2
  1
4.5
 50
89.99984036829632
 41
0.9
  0
TEXT
  8
1
 62
2
 10
-169.4783396625998
 20
162.2588567651852
 30
0
 40
2.24
  1
%%p0.1
 50
89.99984036829632
 41
0.9900000000000001
  0
ENDBLK
  8
0
  0
BLOCK
  8
1
  2
*D12
 70
1
 10
0
 20
0
 30
0
  0
LINE
  8
1
 62
2
 10
-97.91743210698638
 20
237.77428983961
 30
0
 11
-81.91743885698529
 21
237.77428983961
 31
0
  0
LINE
  8
1
 62
2
 10
-97.91743210698638
 20
201.7170729120392
 30
0
 11
-97.91743210698638
 21
239.27428983961
 31
0
  0
LINE
  8
1
 62
2
 10
-81.91743885698529
 20
183.7170729120392
 30
0
 11
-81.91743885698529
 21
239.27428983961
 31
0
  0
SOLID
  8
1
 62
2
 10
-97.91743210698638
 20
237.77428983961
 30
0
 11
-94.71743210698638
 21
238.19028983961
 31
0
 12
-94.71743210698638
 22
237.35828983961
 32
0
 13
-94.71743210698638
 23
237.35828983961
 33
0
  0
SOLID
  8
1
 62
2
 10
-81.91743885698529
 20
237.77428983961
 30
0
 11
-85.11743885698529
 21
237.35828983961
 31
0
 12
-85.11743885698529
 22
238.19028983961
 32
0
 13
-85.11743885698529
 23
238.19028983961
 33
0
  0
TEXT
  8
1
 62
2
 10
-91.7954274980048
 20
239.77428983961
 30
0
 40
3.2
  1
16
 41
0.9
  0
TEXT
  8
1
 62
2
 10
-94.11542749800481
 20
239.77428983961
 30
0
 40
3.2
  1
(
 41
1.35
  0
TEXT
  8
1
 62
2
 10
-86.3554274980048
 20
239.77428983961
 30
0
 40
3.2
  1
)
 41
0.9
  0
ENDBLK
  8
0
  0
BLOCK
  8
1
  2
*D13
 70
1
 10
0
 20
0
 30
0
  0
LINE
  8
1
 62
2
 10
-96.91743866948634
 20
219.111470739303
 30
0
 11
-81.91743885698529
 21
219.111470739303
 31
0
  0
LINE
  8
1
 62
2
 10
-96.91743866948634
 20
184.2170729120392
 30
0
 11
-96.91743866948634
 21
220.611470739303
 31
0
  0
LINE
  8
1
 62
2
 10
-81.91743885698529
 20
183.7170729120392
 30
0
 11
-81.91743885698529
 21
220.611470739303
 31
0
  0
SOLID
  8
1
 62
2
 10
-96.91743866948634
 20
219.111470739303
 30
0
 11
-93.71743866948634
 21
219.527470739303
 31
0
 12
-93.71743866948634
 22
218.695470739303
 32
0
 13
-93.71743866948634
 23
218.695470739303
 33
0
  0
SOLID
  8
1
 62
2
 10
-81.91743885698529
 20
219.111470739303
 30
0
 11
-85.11743885698529
 21
218.695470739303
 31
0
 12
-85.11743885698529
 22
219.527470739303
 32
0
 13
-85.11743885698529
 23
219.527470739303
 33
0
  0
TEXT
  8
1
 62
2
 10
-95.3397010494508
 20
221.111470739303
 30
0
 40
3.2
  1
15
 41
0.9
  0
TEXT
  8
1
 62
2
 10
-89.8997010494508
 20
221.591470739303
 30
0
 40
2.24
  1
%%p0.2
 41
0.9900000000000001
  0
ENDBLK
  8
0
  0
BLOCK
  8
1
  2
*D14
 70
1
 10
0
 20
0
 30
0
  0
LINE
  8
1
 62
2
 10
-62.4494625271916
 20
171.8170729120392
 30
0
 11
-62.4494625271916
 21
178.2170729120392
 31
0
  0
LINE
  8
1
 62
2
 10
-62.4494625271916
 20
178.2170729120392
 30
0
 11
-62.4494625271916
 21
183.2170729120392
 31
0
  0
LINE
  8
1
 62
2
 10
-62.4494625271916
 20
183.2170729120392
 30
0
 11
-62.4494625271916
 21
204.4504980920861
 31
0
  0
LINE
  8
1
 62
2
 10
-80.9174405444853
 20
178.2170729120392
 30
0
 11
-60.9494625271916
 21
178.2170729120392
 31
0
  0
LINE
  8
1
 62
2
 10
-95.91743866948634
 20
183.2170729120392
 30
0
 11
-60.9494625271916
 21
183.2170729120392
 31
0
  0
SOLID
  8
1
 62
2
 10
-62.4494625271916
 20
183.2170729120392
 30
0
 11
-62.8654625271916
 21
186.4170729120392
 31
0
 12
-62.0334625271916
 22
186.4170729120392
 32
0
 13
-62.0334625271916
 23
186.4170729120392
 33
0
  0
SOLID
  8
1
 62
2
 10
-62.4494625271916
 20
178.2170729120392
 30
0
 11
-62.0334625271916
 21
175.0170729120392
 31
0
 12
-62.8654625271916
 22
175.0170729120392
 32
0
 13
-62.8654625271916
 23
175.0170729120392
 33
0
  0
TEXT
  8
1
 62
2
 10
-65.6494625271916
 20
191.5056980920861
 30
0
 40
3.2
  1
5
 50
90
 41
0.9
  0
TEXT
  8
1
 62
2
 10
-67.8094625271916
 20
195.0256980920861
 30
0
 40
2.24
  1
 0
 50
90
 41
0.9900000000000001
  0
TEXT
  8
1
 62
2
 10
-64.4494625271916
 20
195.0256980920861
 30
0
 40
2.24
  1
-0.011
 50
90
 41
0.9900000000000001
  0
TEXT
  8
1
 62
2
 10
-65.6494625271916
 20
186.2351098567919
 30
0
 40
3.2
  1
âË
 50
90
 41
1.35
  0
ENDBLK
  8
0
  0
BLOCK
  8
1
  2
*D15
 70
1
 10
0
 20
0
 30
0
  0
LINE
  8
1
 62
2
 10
-72.5718744895635
 20
171.8170729120392
 30
0
 11
-72.5718744895635
 21
178.2170729120392
 31
0
  0
LINE
  8
1
 62
2
 10
-72.5718744895635
 20
178.2170729120392
 30
0
 11
-72.5718744895635
 21
182.7170729120392
 31
0
  0
LINE
  8
1
 62
2
 10
-72.5718744895635
 20
182.7170729120392
 30
0
 11
-72.5718744895635
 21
200.246709826382
 31
0
  0
LINE
  8
1
 62
2
 10
-80.9174405444853
 20
178.2170729120392
 30
0
 11
-71.0718744895635
 21
178.2170729120392
 31
0
  0
LINE
  8
1
 62
2
 10
-80.91743885698529
 20
182.7170729120392
 30
0
 11
-71.0718744895635
 21
182.7170729120392
 31
0
  0
SOLID
  8
1
 62
2
 10
-72.5718744895635
 20
182.7170729120392
 30
0
 11
-72.9878744895635
 21
185.9170729120392
 31
0
 12
-72.1558744895635
 22
185.9170729120392
 32
0
 13
-72.1558744895635
 23
185.9170729120392
 33
0
  0
SOLID
  8
1
 62
2
 10
-72.5718744895635
 20
178.2170729120392
 30
0
 11
-72.1558744895635
 21
175.0170729120392
 31
0
 12
-72.9878744895635
 22
175.0170729120392
 32
0
 13
-72.9878744895635
 23
175.0170729120392
 33
0
  0
TEXT
  8
1
 62
2
 10
-74.5718744895635
 20
187.324309826382
 30
0
 40
3.2
  1
4.5
 50
90
 41
0.9
  0
TEXT
  8
1
 62
2
 10
-75.05187448956349
 20
194.764309826382
 30
0
 40
2.24
  1
%%p0.1
 50
90
 41
0.9900000000000001
  0
ENDBLK
  8
0
  0
BLOCK
  8
1
  2
*D16
 70
1
 10
0
 20
0
 30
0
  0
LINE
  8
1
 62
2
 10
-244.039032634254
 20
166.1170743868716
 30
0
 11
-244.039032634254
 21
159.7170743868716
 31
0
  0
LINE
  8
1
 62
2
 10
-244.039032634254
 20
155.1670729120393
 30
0
 11
-244.039032634254
 21
159.7170743868716
 31
0
  0
LINE
  8
1
 62
2
 10
-244.039032634254
 20
155.1670729120393
 30
0
 11
-244.039032634254
 21
143.5148602687547
 31
0
  0
LINE
  8
1
 62
2
 10
-277.0889891084838
 20
155.1670729120393
 30
0
 11
-242.539032634254
 21
155.1670729120393
 31
0
  0
LINE
  8
1
 62
2
 10
-273.0389905833156
 20
159.7170743868716
 30
0
 11
-242.539032634254
 21
159.7170743868716
 31
0
  0
SOLID
  8
1
 62
2
 10
-244.039032634254
 20
159.7170743868716
 30
0
 11
-244.455032634254
 21
162.9170743868716
 31
0
 12
-243.623032634254
 22
162.9170743868716
 32
0
 13
-243.623032634254
 23
162.9170743868716
 33
0
  0
SOLID
  8
1
 62
2
 10
-244.039032634254
 20
155.1670729120393
 30
0
 11
-243.623032634254
 21
151.9670729120393
 31
0
 12
-244.455032634254
 22
151.9670729120393
 32
0
 13
-244.455032634254
 23
151.9670729120393
 33
0
  0
TEXT
  8
1
 62
2
 10
-246.039032634254
 20
145.5948602687547
 30
0
 40
3.2
  1
4.6
 50
90
 41
0.9
  0
TEXT
  8
1
 62
2
 10
-246.039032634254
 20
143.5148602687547
 30
0
 40
3.2
  1
(
 50
90
 41
0.9
  0
TEXT
  8
1
 62
2
 10
-246.039032634254
 20
153.0348602687547
 30
0
 40
3.2
  1
)
 50
90
 41
0.9
  0
ENDBLK
  8
0
  0
BLOCK
  8
1
  2
*D17
 70
1
 10
0
 20
0
 30
0
  0
LINE
  8
1
 62
2
 10
-331.4761728266635
 20
146.8170729120394
 30
0
 11
-331.4761728266635
 21
153.2170729120394
 31
0
  0
LINE
  8
1
 62
2
 10
-331.4761728266635
 20
153.2170729120394
 30
0
 11
-331.4761728266635
 21
159.7170838257988
 31
0
  0
LINE
  8
1
 62
2
 10
-331.4761728266635
 20
159.7170838257988
 30
0
 11
-331.4761728266635
 21
174.7934555776305
 31
0
  0
LINE
  8
1
 62
2
 10
-302.4389891084839
 20
153.2170729120394
 30
0
 11
-332.9761728266635
 21
153.2170729120394
 31
0
  0
LINE
  8
1
 62
2
 10
-307.0389993953779
 20
159.7170838257988
 30
0
 11
-332.9761728266635
 21
159.7170838257988
 31
0
  0
SOLID
  8
1
 62
2
 10
-331.4761728266635
 20
159.7170838257988
 30
0
 11
-331.8921728266635
 21
162.9170838257988
 31
0
 12
-331.0601728266635
 22
162.9170838257988
 32
0
 13
-331.0601728266635
 23
162.9170838257988
 33
0
  0
SOLID
  8
1
 62
2
 10
-331.4761728266635
 20
153.2170729120394
 30
0
 11
-331.0601728266635
 21
150.0170729120394
 31
0
 12
-331.8921728266635
 22
150.0170729120394
 32
0
 13
-331.8921728266635
 23
150.0170729120394
 33
0
  0
TEXT
  8
1
 62
2
 10
-333.4761728266635
 20
166.8734555776305
 30
0
 40
3.2
  1
6.5
 50
90
 41
0.9
  0
TEXT
  8
1
 62
2
 10
-333.4761728266635
 20
161.0287496952775
 30
0
 40
3.2
  1
üª(
 50
90
 41
0.9
  0
TEXT
  8
1
 62
2
 10
-333.4761728266635
 20
174.3134555776305
 30
0
 40
3.2
  1
)
 50
90
 41
0.9
  0
ENDBLK
  8
0
  0
BLOCK
  8
1
  2
*D18
 70
1
 10
0
 20
0
 30
0
  0
LINE
  8
1
 62
2
 10
-244.0389891084837
 20
159.7170743868716
 30
0
 11
-244.0389891084837
 21
201.7170729120392
 31
0
  0
LINE
  8
1
 62
2
 10
-273.0389905833156
 20
159.7170743868716
 30
0
 11
-242.5389891084837
 21
159.7170743868716
 31
0
  0
LINE
  8
1
 62
2
 10
-273.0389891084838
 20
201.7170729120392
 30
0
 11
-242.5389891084837
 21
201.7170729120392
 31
0
  0
SOLID
  8
1
 62
2
 10
-244.0389891084837
 20
201.7170729120392
 30
0
 11
-243.6229891084837
 21
198.5170729120392
 31
0
 12
-244.4549891084837
 22
198.5170729120392
 32
0
 13
-244.4549891084837
 23
198.5170729120392
 33
0
  0
SOLID
  8
1
 62
2
 10
-244.0389891084837
 20
159.7170743868716
 30
0
 11
-244.4549891084837
 21
162.9170743868716
 31
0
 12
-243.6229891084837
 22
162.9170743868716
 32
0
 13
-243.6229891084837
 23
162.9170743868716
 33
0
  0
TEXT
  8
1
 62
2
 10
-246.0389891084837
 20
179.150916060879
 30
0
 40
3.2
  1
42
 50
90
 41
0.9
  0
TEXT
  8
1
 62
2
 10
-246.0389891084837
 20
177.070916060879
 30
0
 40
3.2
  1
(
 50
90
 41
0.9
  0
TEXT
  8
1
 62
2
 10
-246.0389891084837
 20
185.550916060879
 30
0
 40
3.2
  1
)
 50
90
 41
0.9
  0
ENDBLK
  8
0
  0
ENDSEC
  0
SECTION
  2
ENTITIES
  0
LINE
  8
1
 62
3
 10
-106.5577104973493
 20
121.9400735500307
 30
0
 11
-106.5577104973493
 21
96.79900830326831
 31
0
  0
LINE
  8
1
 62
3
 10
-107.7977104973492
 20
121.9400735500307
 30
0
 11
-107.7977104973492
 21
96.79900830326831
 31
0
  0
LINE
  8
1
 62
3
 10
-107.7977104973492
 20
96.79900830326831
 30
0
 11
-106.5577104973493
 21
96.79900830326831
 31
0
  0
LINE
  8
1
 62
2
 10
-106.8777104973493
 20
96.79900830326831
 30
0
 11
-106.8777104973493
 21
93.29900830326831
 31
0
  0
LINE
  8
1
 62
2
 10
-107.1777104973492
 20
96.79900830326831
 30
0
 11
-107.1777104973492
 21
93.29900830326831
 31
0
  0
LINE
  8
1
 62
2
 10
-107.4777104973492
 20
96.79900830326831
 30
0
 11
-107.4777104973492
 21
93.29900830326831
 31
0
  0
LINE
  8
1
 62
2
 10
-266.8823235612305
 20
112.058293305242
 30
0
 11
-204.0825440734736
 21
112.058293305242
 31
0
  0
LINE
  8
1
 62
3
 10
-296.7089891084839
 20
149.8405818422595
 30
0
 11
-296.7089891084839
 21
153.2170729120394
 31
0
  0
LINE
  8
1
 62
3
 10
-295.4689891084839
 20
149.8405818422595
 30
0
 11
-295.4689891084839
 21
153.2170729120394
 31
0
  0
LINE
  8
1
 62
3
 10
-292.7089891084838
 20
149.8405818422595
 30
0
 11
-292.7089891084838
 21
153.2170729120394
 31
0
  0
LINE
  8
1
 62
3
 10
-291.4689891084839
 20
149.8405818422595
 30
0
 11
-291.4689891084839
 21
153.2170729120394
 31
0
  0
LINE
  8
1
 62
3
 10
-288.7089891084838
 20
149.8405818422595
 30
0
 11
-288.7089891084838
 21
153.2170729120394
 31
0
  0
LINE
  8
1
 62
3
 10
-287.4689891084839
 20
149.8405818422595
 30
0
 11
-287.4689891084839
 21
153.2170729120394
 31
0
  0
LINE
  8
1
 62
3
 10
-284.7089891084838
 20
149.8405818422595
 30
0
 11
-284.7089891084838
 21
153.2170729120394
 31
0
  0
LINE
  8
1
 62
3
 10
-283.4689891084839
 20
149.8405818422595
 30
0
 11
-283.4689891084839
 21
153.2170729120394
 31
0
  0
LINE
  8
1
 62
2
 10
-302.7089891084839
 20
121.9400735500307
 30
0
 11
-277.4689891084839
 21
121.9400735500307
 31
0
  0
LINE
  8
1
 62
2
 10
-302.7089891084839
 20
122.9400735500307
 30
0
 11
-277.4689891084839
 21
122.9400735500307
 31
0
  0
LINE
  8
1
 62
3
 10
-283.4689891084839
 20
121.9400735500307
 30
0
 11
-283.4689891084839
 21
96.79900830326831
 31
0
  0
LINE
  8
1
 62
3
 10
-284.7089891084838
 20
121.9400735500307
 30
0
 11
-284.7089891084838
 21
96.79900830326831
 31
0
  0
LINE
  8
1
 62
3
 10
-287.4689891084839
 20
121.9400735500307
 30
0
 11
-287.4689891084839
 21
96.79900830326831
 31
0
  0
LINE
  8
1
 62
3
 10
-288.7089891084839
 20
121.9400735500307
 30
0
 11
-288.7089891084838
 21
96.79900830326831
 31
0
  0
LINE
  8
1
 62
3
 10
-291.4689891084839
 20
121.9400735500307
 30
0
 11
-291.4689891084839
 21
96.79900830326831
 31
0
  0
LINE
  8
1
 62
3
 10
-292.7089891084838
 20
121.9400735500307
 30
0
 11
-292.7089891084838
 21
96.79900830326831
 31
0
  0
LINE
  8
1
 62
3
 10
-295.4689891084839
 20
121.9400735500307
 30
0
 11
-295.4689891084839
 21
96.79900830326831
 31
0
  0
LINE
  8
1
 62
3
 10
-296.7089891084838
 20
121.9400735500307
 30
0
 11
-296.7089891084839
 21
96.79900830326831
 31
0
  0
LINE
  8
1
 62
3
 10
-296.7089891084839
 20
141.966818765925
 30
0
 11
-296.7089891084839
 21
149.8405818422595
 31
0
  0
LINE
  8
1
 62
3
 10
-295.4689891084839
 20
141.966818765925
 30
0
 11
-295.4689891084839
 21
149.8405818422595
 31
0
  0
LINE
  8
1
 62
3
 10
-292.7089891084838
 20
141.966818765925
 30
0
 11
-292.7089891084838
 21
149.8405818422595
 31
0
  0
LINE
  8
1
 62
3
 10
-291.4689891084839
 20
141.966818765925
 30
0
 11
-291.4689891084839
 21
149.8405818422595
 31
0
  0
LINE
  8
1
 62
3
 10
-288.7089891084838
 20
141.966818765925
 30
0
 11
-288.7089891084838
 21
149.8405818422595
 31
0
  0
LINE
  8
1
 62
3
 10
-287.4689891084839
 20
141.966818765925
 30
0
 11
-287.4689891084839
 21
149.8405818422595
 31
0
  0
LINE
  8
1
 62
3
 10
-284.7089891084838
 20
141.966818765925
 30
0
 11
-284.7089891084838
 21
149.8405818422595
 31
0
  0
LINE
  8
1
 62
3
 10
-283.4689891084839
 20
141.966818765925
 30
0
 11
-283.4689891084839
 21
149.8405818422595
 31
0
  0
LINE
  8
1
 62
3
 10
-296.7089891084839
 20
122.9400735500307
 30
0
 11
-296.7089891084839
 21
141.966818765925
 31
0
  0
LINE
  8
1
 62
3
 10
-295.4689891084839
 20
122.9400735500307
 30
0
 11
-295.4689891084839
 21
141.966818765925
 31
0
  0
LINE
  8
1
 62
3
 10
-292.7089891084838
 20
122.9400735500307
 30
0
 11
-292.7089891084838
 21
141.966818765925
 31
0
  0
LINE
  8
1
 62
3
 10
-291.4689891084839
 20
122.9400735500307
 30
0
 11
-291.4689891084839
 21
141.966818765925
 31
0
  0
LINE
  8
1
 62
3
 10
-288.7089891084838
 20
122.9400735500307
 30
0
 11
-288.7089891084838
 21
141.966818765925
 31
0
  0
LINE
  8
1
 62
3
 10
-287.4689891084839
 20
122.9400735500307
 30
0
 11
-287.4689891084839
 21
141.966818765925
 31
0
  0
LINE
  8
1
 62
3
 10
-284.7089891084838
 20
122.9400735500307
 30
0
 11
-284.7089891084838
 21
141.966818765925
 31
0
  0
LINE
  8
1
 62
3
 10
-283.4689891084839
 20
122.9400735500307
 30
0
 11
-283.4689891084839
 21
141.966818765925
 31
0
  0
LINE
  8
1
 62
3
 10
-284.7089891084838
 20
96.79900830326831
 30
0
 11
-283.4689891084839
 21
96.79900830326831
 31
0
  0
LINE
  8
1
 62
3
 10
-288.7089891084838
 20
96.79900830326831
 30
0
 11
-287.4689891084839
 21
96.79900830326831
 31
0
  0
LINE
  8
1
 62
3
 10
-292.7089891084838
 20
96.79900830326831
 30
0
 11
-291.4689891084839
 21
96.79900830326831
 31
0
  0
LINE
  8
1
 62
3
 10
-296.7089891084839
 20
96.79900830326831
 30
0
 11
-295.4689891084839
 21
96.79900830326831
 31
0
  0
LINE
  8
1
 62
2
 10
-283.7889891084839
 20
96.79900830326831
 30
0
 11
-283.7889891084839
 21
93.29900830326831
 31
0
  0
LINE
  8
1
 62
2
 10
-287.7889891084839
 20
96.79900830326831
 30
0
 11
-287.7889891084839
 21
93.29900830326831
 31
0
  0
LINE
  8
1
 62
2
 10
-291.7889891084839
 20
96.79900830326831
 30
0
 11
-291.7889891084839
 21
93.29900830326831
 31
0
  0
LINE
  8
1
 62
2
 10
-295.7889891084839
 20
96.79900830326831
 30
0
 11
-295.7889891084839
 21
93.29900830326831
 31
0
  0
LINE
  8
1
 62
2
 10
-284.0889891084838
 20
96.79900830326831
 30
0
 11
-284.0889891084838
 21
93.29900830326831
 31
0
  0
LINE
  8
1
 62
2
 10
-284.3889891084838
 20
96.79900830326831
 30
0
 11
-284.3889891084838
 21
93.29900830326831
 31
0
  0
LINE
  8
1
 62
2
 10
-288.0889891084838
 20
96.79900830326831
 30
0
 11
-288.0889891084838
 21
93.29900830326831
 31
0
  0
LINE
  8
1
 62
2
 10
-288.3889891084838
 20
96.79900830326831
 30
0
 11
-288.3889891084838
 21
93.29900830326831
 31
0
  0
LINE
  8
1
 62
2
 10
-292.0889891084838
 20
96.79900830326831
 30
0
 11
-292.0889891084838
 21
93.29900830326831
 31
0
  0
LINE
  8
1
 62
2
 10
-292.3889891084838
 20
96.79900830326831
 30
0
 11
-292.3889891084838
 21
93.29900830326831
 31
0
  0
LINE
  8
1
 62
2
 10
-296.0889891084839
 20
96.79900830326831
 30
0
 11
-296.0889891084839
 21
93.29900830326831
 31
0
  0
LINE
  8
1
 62
2
 10
-296.3889891084839
 20
96.79900830326831
 30
0
 11
-296.3889891084839
 21
93.29900830326831
 31
0
  0
LINE
  8
1
 62
2
 10
-105.4464021019086
 20
121.9400735500307
 30
0
 11
-108.9490188927898
 21
121.9400735500307
 31
0
  0
LINE
  8
1
 62
2
 10
-108.9490188927898
 20
122.9400735500307
 30
0
 11
-105.4464021019086
 21
122.9400735500307
 31
0
  0
LINE
  8
1
 62
3
 10
-107.7977104973492
 20
122.9400735500307
 30
0
 11
-107.7977104973492
 21
153.2170729120394
 31
0
  0
LINE
  8
1
 62
3
 10
-106.5977104973492
 20
122.9400735500307
 30
0
 11
-106.5977104973492
 21
153.2170729120394
 31
0
  0
LINE
  8
1
 62
3
 10
-105.4464021019086
 20
153.2170729120394
 30
0
 11
-105.4464021019087
 21
155.1670729120393
 31
0
  0
LINE
  8
1
 62
3
 10
-108.9490188927898
 20
153.2170729120394
 30
0
 11
-105.4464021019086
 21
153.2170729120394
 31
0
  0
LINE
  8
1
 62
3
 10
-108.9490188927898
 20
155.1670729120393
 30
0
 11
-108.9490188927898
 21
153.2170729120394
 31
0
  0
LINE
  8
1
 62
3
 10
-297.6889891084839
 20
159.7170813628264
 30
0
 11
-297.6889891084839
 21
154.4170729120394
 31
0
  0
LINE
  8
1
 62
3
 10
-281.4889891084839
 20
155.1670729120393
 30
0
 11
-281.0889891084838
 21
155.1670729120393
 31
0
  0
LINE
  8
1
 62
3
 10
-281.0889891084838
 20
155.1670729120393
 30
0
 11
-278.0889891084838
 21
155.1670729120393
 31
0
  0
LINE
  8
1
 62
3
 10
-298.6889891084839
 20
155.1670729120393
 30
0
 11
-298.6889891084839
 21
159.7170816577928
 31
0
  0
LINE
  8
1
 62
3
 10
-278.8889891084839
 20
155.1670729120393
 30
0
 11
-278.8889891084839
 21
154.9170729120394
 31
0
  0
LINE
  8
1
 62
3
 10
-302.5389891084837
 20
157.7170729120393
 30
0
 11
-303.0325449486394
 21
157.7170729120393
 31
0
  0
LINE
  8
1
 62
3
 10
-277.0454347754429
 20
157.7170729120393
 30
0
 11
-277.5389891084837
 21
157.7170729120393
 31
0
  0
LINE
  8
1
 62
4
  6
DASHED
 10
-277.638989108484
 20
153.2170729120394
 30
0
 11
-301.4389891084839
 21
153.2170729120394
 31
0
  0
LINE
  8
1
 62
4
  6
DASHED
 10
-301.2389891084838
 20
155.1670729120393
 30
0
 11
-301.9889891084838
 21
153.8170729120393
 31
0
  0
LINE
  8
1
 62
4
  6
DASHED
 10
-278.838989108484
 20
155.1670729120393
 30
0
 11
-278.1889891084839
 21
153.8170729120393
 31
0
  0
LINE
  8
1
 62
4
  6
DASHED
 10
-301.4389891084839
 20
153.2170729120394
 30
0
 11
-301.4389891084839
 21
153.8170729120393
 31
0
  0
LINE
  8
1
 62
3
 10
-279.6389891084837
 20
157.0670729120392
 30
0
 11
-279.6389891084837
 21
159.7170729120393
 31
0
  0
LINE
  8
1
 62
3
 10
-278.6389891084837
 20
157.0670729120392
 30
0
 11
-279.6389891084837
 21
157.0670729120392
 31
0
  0
LINE
  8
1
 62
3
 10
-278.6389891084837
 20
159.7170729120393
 30
0
 11
-278.6389891084837
 21
157.0670729120392
 31
0
  0
LINE
  8
1
 62
3
 10
-300.4389891084836
 20
157.0670729120392
 30
0
 11
-300.4389891084836
 21
159.7170729120393
 31
0
  0
LINE
  8
1
 62
3
 10
-301.4389891084836
 20
157.0670729120392
 30
0
 11
-300.4389891084836
 21
157.0670729120392
 31
0
  0
LINE
  8
1
 62
3
 10
-301.4389891084836
 20
159.7170729120393
 30
0
 11
-301.4389891084836
 21
157.0670729120392
 31
0
  0
LINE
  8
1
 62
3
 10
-281.0889891084838
 20
159.7170729120393
 30
0
 11
-281.0889891084838
 21
155.1670729120393
 31
0
  0
LINE
  8
1
 62
3
 10
-298.9889891084837
 20
159.7170729120393
 30
0
 11
-298.9889891084837
 21
155.1670729120393
 31
0
  0
LINE
  8
1
 62
3
 10
-301.9889891084837
 20
155.1670729120393
 30
0
 11
-298.6889891084839
 21
155.1670729120393
 31
0
  0
LINE
  8
1
 62
3
 10
-278.0889891084838
 20
155.1670729120393
 30
0
 11
-278.0889891084838
 21
159.7170729120393
 31
0
  0
LINE
  8
1
 62
3
 10
-301.9889891084837
 20
155.1670729120393
 30
0
 11
-301.9889891084837
 21
159.7170729120393
 31
0
  0
LINE
  8
1
 62
3
 10
-278.0389891084837
 20
156.1670729120393
 30
0
 11
-277.5389891084837
 21
156.1670729120393
 31
0
  0
LINE
  8
1
 62
3
 10
-278.0389891084837
 20
159.7170729120393
 30
0
 11
-278.0389891084837
 21
156.1670729120393
 31
0
  0
LINE
  8
1
 62
3
 10
-302.0389891084837
 20
156.1670729120393
 30
0
 11
-302.0389891084837
 21
159.7170729120393
 31
0
  0
LINE
  8
1
 62
3
 10
-302.5389891084837
 20
156.1670729120393
 30
0
 11
-302.0389891084837
 21
156.1670729120393
 31
0
  0
LINE
  8
1
 62
3
 10
-277.5389891084837
 20
156.1670729120393
 30
0
 11
-277.5389891084837
 21
159.7170729120393
 31
0
  0
LINE
  8
1
 62
3
 10
-302.5389891084837
 20
156.1670729120393
 30
0
 11
-302.5389891084837
 21
159.7170729120393
 31
0
  0
LINE
  8
1
 62
3
 10
-277.0889891084838
 20
157.7170729120393
 30
0
 11
-277.0454347754429
 21
157.7170729120393
 31
0
  0
LINE
  8
1
 62
3
 10
-277.3889891084837
 20
159.7170729120393
 30
0
 11
-277.3889891084837
 21
158.0170729120391
 31
0
  0
LINE
  8
1
 62
3
 10
-302.6889891084836
 20
158.0170729120392
 30
0
 11
-302.6889891084836
 21
159.7170729120393
 31
0
  0
LINE
  8
1
 62
3
 10
-109.6174396069864
 20
155.1670729120393
 30
0
 11
-109.6174396069864
 21
156.1670729120393
 31
0
  0
LINE
  8
1
 62
3
 10
-104.8174396069865
 20
155.1670729120393
 30
0
 11
-109.6174396069864
 21
155.1670729120393
 31
0
  0
LINE
  8
1
 62
3
 10
-104.8174396069865
 20
156.1670729120393
 30
0
 11
-104.8174396069865
 21
155.1670729120393
 31
0
  0
LINE
  8
1
 62
3
 10
-104.2174396069864
 20
156.1670729120393
 30
0
 11
-104.2174396069864
 21
157.7170729120393
 31
0
  0
LINE
  8
1
 62
3
 10
-109.6174396069864
 20
156.1670729120393
 30
0
 11
-104.2174396069864
 21
156.1670729120393
 31
0
  0
LINE
  8
1
 62
3
 10
-109.6174396069864
 20
157.7170729120393
 30
0
 11
-109.6174396069864
 21
156.1670729120393
 31
0
  0
LINE
  8
1
 62
3
 10
-97.91744360898878
 20
158.7170746610396
 30
0
 11
-97.91744710698646
 21
160.7170729120393
 31
0
  0
LINE
  8
1
 62
3
 10
-109.6174396069864
 20
157.7170729120393
 30
0
 11
-98.91744360898707
 21
157.7170729120393
 31
0
  0
LINE
  8
1
 62
3
 10
-109.6174396069864
 20
157.7170729120393
 30
0
 11
-109.6174396069864
 21
165.7170729120393
 31
0
  0
LINE
  8
1
 62
1
 10
-164.0174396070122
 20
180.7170729120392
 30
0
 11
-78.37132794701708
 21
180.7170729120392
 31
0
  0
LINE
  8
1
 62
3
 10
-161.5174282433474
 20
182.2170729120393
 30
0
 11
-161.5174289363533
 21
182.064612456714
 31
0
  0
LINE
  8
1
 62
3
 10
-97.91743210698638
 20
200.7170729120392
 30
0
 11
-97.91744710698646
 21
160.7170729120393
 31
0
  0
LINE
  8
1
 62
2
 10
-129.6174396069864
 20
165.7171729120392
 30
0
 11
-129.6175396069864
 21
159.7170729120393
 31
0
  0
LINE
  8
1
 62
2
 10
-109.6174396069864
 20
195.7170729120392
 30
0
 11
-109.6174396069864
 21
201.7170729120392
 31
0
  0
LINE
  8
1
 62
3
 10
-129.6174396069864
 20
195.7170729120392
 30
0
 11
-129.6174396069864
 21
201.7170729120392
 31
0
  0
LINE
  8
1
 62
3
 10
-139.5175396069865
 20
169.7170729120393
 30
0
 11
-139.5174396069864
 21
191.7170729120392
 31
0
  0
LINE
  8
1
 62
3
 10
-139.5175396069865
 20
169.7170729120393
 30
0
 11
-137.5174396069864
 21
169.7170729120393
 31
0
  0
LINE
  8
1
 62
3
 10
-139.5174396069864
 20
191.7170729120392
 30
0
 11
-137.5174396069864
 21
191.7170729120392
 31
0
  0
LINE
  8
1
 62
3
 10
-302.0389891084837
 20
202.7170729120392
 30
0
 11
-278.0389891084837
 21
202.7170729120392
 31
0
  0
LINE
  8
1
 62
3
 10
-269.0389891084837
 20
164.7170743868714
 30
0
 11
-269.0389891084837
 21
196.7170729120392
 31
0
  0
LINE
  8
1
 62
3
 10
-274.0389891084837
 20
201.7170729120392
 30
0
 11
-306.0389902993031
 21
201.7170729120392
 31
0
  0
LINE
  8
1
 62
3
 10
-109.4936006578873
 20
202.8982810555713
 30
0
 11
-100.0847006578872
 21
202.8982810555713
 31
0
  0
LINE
  8
1
 62
3
 10
-137.5174396069864
 20
200.7170729120392
 30
0
 11
-137.5174396069864
 21
200.3480646216076
 31
0
  0
LINE
  8
1
 62
3
 10
-129.6174396069864
 20
195.7170729120392
 30
0
 11
-109.6174396069864
 21
195.7170729120392
 31
0
  0
LINE
  8
1
 62
3
 10
-129.6174396069864
 20
165.7171729120392
 30
0
 11
-109.6174396069864
 21
165.7170729120393
 31
0
  0
LINE
  8
2
 62
1
 10
-277.0389891084837
 20
165.2170729120393
 30
0
 11
-272.0389891084837
 21
165.2170729120393
 31
0
  0
LINE
  8
2
 62
1
 10
-274.5389891084837
 20
167.7170729120393
 30
0
 11
-274.5389891084837
 21
162.7170729120393
 31
0
  0
LINE
  8
2
 62
1
 10
-305.5389991084836
 20
167.7170729120393
 30
0
 11
-305.5389991084836
 21
162.7170729120393
 31
0
  0
LINE
  8
2
 62
1
 10
-303.0389891084837
 20
165.2170729120393
 30
0
 11
-308.0389891084837
 21
165.2170729120393
 31
0
  0
LINE
  8
2
 62
1
 10
-303.0389891084837
 20
196.2170729120392
 30
0
 11
-308.0389891084837
 21
196.2170729120392
 31
0
  0
LINE
  8
2
 62
1
 10
-305.5389791084837
 20
193.7170729120392
 30
0
 11
-305.5389791084837
 21
198.7170729120392
 31
0
  0
LINE
  8
2
 62
1
 10
-274.5389891084837
 20
193.7170729120392
 30
0
 11
-274.5389891084837
 21
198.7170729120392
 31
0
  0
LINE
  8
2
 62
1
 10
-277.0389891084837
 20
196.2170729120392
 30
0
 11
-272.0389891084837
 21
196.2170729120392
 31
0
  0
LINE
  8
2
 62
1
 10
-316.9604691084836
 20
180.7170729120392
 30
0
 11
-263.5394891084837
 21
180.7170729120392
 31
0
  0
LINE
  8
2
 62
1
 10
-290.0389891084837
 20
158.7170729120393
 30
0
 11
-290.0389891084837
 21
205.7170729120392
 31
0
  0
LINE
  8
4
 62
2
 10
-125.2175396069864
 20
163.0588729120392
 30
0
 11
-125.2175396069864
 21
159.7169729120391
 31
0
  0
LINE
  8
4
 62
2
 10
-126.0175396069864
 20
164.3286729120391
 30
0
 11
-126.0175396069864
 21
159.7169729120391
 31
0
  0
LINE
  8
4
 62
2
 10
-126.8175396069864
 20
165.5983729120392
 30
0
 11
-126.8175396069864
 21
159.7169729120391
 31
0
  0
LINE
  8
4
 62
2
 10
-127.6175396069864
 20
166.8681729120393
 30
0
 11
-127.6175396069864
 21
159.7169729120391
 31
0
  0
LINE
  8
4
 62
2
 10
-128.4175396069865
 20
168.1379729120393
 30
0
 11
-128.4175396069865
 21
159.7169729120391
 31
0
  0
LINE
  8
4
 62
2
 10
-129.2175396069864
 20
169.4077729120393
 30
0
 11
-129.2175396069864
 21
159.7169729120391
 31
0
  0
LINE
  8
4
 62
2
 10
-114.0174396069865
 20
198.3751729120393
 30
0
 11
-114.0174396069865
 21
201.7170729120392
 31
0
  0
LINE
  8
4
 62
2
 10
-113.2174396069864
 20
197.1054729120392
 30
0
 11
-113.2174396069864
 21
201.7170729120392
 31
0
  0
LINE
  8
4
 62
2
 10
-112.4174396069866
 20
195.8356729120391
 30
0
 11
-112.4174396069866
 21
201.7170729120392
 31
0
  0
LINE
  8
4
 62
2
 10
-111.6174396069864
 20
194.5658729120392
 30
0
 11
-111.6174396069864
 21
201.7170729120392
 31
0
  0
LINE
  8
4
 62
2
 10
-110.8174396069865
 20
193.2960729120391
 30
0
 11
-110.8174396069865
 21
201.7170729120392
 31
0
  0
LINE
  8
4
 62
2
 10
-110.0174396069865
 20
192.0262729120392
 30
0
 11
-110.0174396069865
 21
201.7170729120392
 31
0
  0
LINE
  8
1
 62
3
 10
-136.5174396069864
 20
201.7170729120392
 30
0
 11
-98.91743210698637
 21
201.7170729120392
 31
0
  0
LINE
  8
1
 62
3
 10
-136.5174392112079
 20
159.717073307818
 30
0
 11
-109.6174396069864
 21
159.7170831627027
 31
0
  0
LINE
  8
1
 62
3
 10
-303.0325449486394
 20
157.7170729120393
 30
0
 11
-302.9889891084837
 21
157.7170729120393
 31
0
  0
LINE
  8
1
 62
3
 10
-311.0389979205457
 20
164.7170850166182
 30
0
 11
-311.038990299303
 21
196.7170741028587
 31
0
  0
LINE
  8
1
 62
3
 10
-161.5174509706228
 20
178.2170729120392
 30
0
 11
-139.5175009706229
 21
178.2170729120392
 31
0
  0
LINE
  8
1
 62
3
 10
-109.6174396069864
 20
195.7170729120392
 30
0
 11
-109.6174396069864
 21
165.7170729120393
 31
0
  0
LINE
  8
1
 62
3
 10
-129.6174396069864
 20
165.7171729120392
 30
0
 11
-129.6174396069864
 21
195.7170729120392
 31
0
  0
LINE
  8
1
 62
3
 10
-137.5174396069864
 20
200.7170729120392
 30
0
 11
-137.5174396069864
 21
160.7170733078179
 31
0
  0
LINE
  8
1
 62
3
 10
-306.0389993953779
 20
159.7170838257988
 30
0
 11
-274.0389905833156
 21
159.7170743868716
 31
0
  0
LINE
  8
1
 62
3
 10
-146.5174289363533
 20
183.2170729120392
 30
0
 11
-139.51747824335
 21
183.2170729120392
 31
0
  0
LINE
  8
1
 62
3
 10
-279.4889891084839
 20
153.2170729120394
 30
0
 11
-279.4889891084839
 21
153.7170729120394
 31
0
  0
LINE
  8
1
 62
3
 10
-300.6889891084839
 20
153.2170729120394
 30
0
 11
-300.6889891084839
 21
153.7170729120394
 31
0
  0
LINE
  8
1
 62
3
 10
-297.6889891084839
 20
155.9170729120394
 30
0
 11
-282.4889891084839
 21
155.9170729120394
 31
0
  0
LINE
  8
1
 62
3
 10
-281.4889891084839
 20
153.7170729120394
 30
0
 11
-281.4889891084839
 21
159.7170765843708
 31
0
  0
LINE
  8
1
 62
3
 10
-282.4889891084839
 20
154.4170729120394
 30
0
 11
-282.4889891084839
 21
159.7170768793372
 31
0
  0
LINE
  8
1
 62
3
 10
-297.6889891084839
 20
154.4170729120394
 30
0
 11
-282.4889891084839
 21
154.4170729120394
 31
0
  0
LINE
  8
1
 62
3
 10
-298.6889891084839
 20
153.7170729120394
 30
0
 11
-298.6889891084839
 21
155.1670729120393
 31
0
  0
LINE
  8
1
 62
3
 10
-278.1389891084839
 20
153.2170729120394
 30
0
 11
-279.4889891084839
 21
153.2170729120394
 31
0
  0
LINE
  8
1
 62
3
 10
-278.1389891084839
 20
153.7170729120394
 30
0
 11
-278.1389891084839
 21
153.2170729120394
 31
0
  0
LINE
  8
1
 62
3
 10
-302.0389891084838
 20
153.2170729120394
 30
0
 11
-302.0389891084838
 21
153.7170729120394
 31
0
  0
LINE
  8
1
 62
3
 10
-300.6889891084839
 20
153.2170729120394
 30
0
 11
-302.0389891084838
 21
153.2170729120394
 31
0
  0
LINE
  8
1
 62
3
 10
-298.6889891084839
 20
153.2170729120394
 30
0
 11
-298.6889891084839
 21
153.7170729120394
 31
0
  0
LINE
  8
1
 62
3
 10
-299.4889891084839
 20
153.2170729120394
 30
0
 11
-298.6889891084839
 21
153.2170729120394
 31
0
  0
LINE
  8
1
 62
3
 10
-299.4889891084839
 20
153.7170729120394
 30
0
 11
-299.4889891084839
 21
153.2170729120394
 31
0
  0
LINE
  8
1
 62
3
 10
-296.6889891084839
 20
153.2170729120394
 30
0
 11
-296.6889891084839
 21
153.7170729120394
 31
0
  0
LINE
  8
1
 62
3
 10
-297.4889891084839
 20
153.2170729120394
 30
0
 11
-296.6889891084839
 21
153.2170729120394
 31
0
  0
LINE
  8
1
 62
3
 10
-297.4889891084839
 20
153.7170729120394
 30
0
 11
-297.4889891084839
 21
153.2170729120394
 31
0
  0
LINE
  8
1
 62
3
 10
-294.6889891084839
 20
153.2170729120394
 30
0
 11
-294.6889891084839
 21
153.7170729120394
 31
0
  0
LINE
  8
1
 62
3
 10
-295.4889891084839
 20
153.2170729120394
 30
0
 11
-294.6889891084839
 21
153.2170729120394
 31
0
  0
LINE
  8
1
 62
3
 10
-295.4889891084839
 20
153.7170729120394
 30
0
 11
-295.4889891084839
 21
153.2170729120394
 31
0
  0
LINE
  8
1
 62
3
 10
-292.6889891084839
 20
153.2170729120394
 30
0
 11
-292.6889891084839
 21
153.7170729120394
 31
0
  0
LINE
  8
1
 62
3
 10
-293.4889891084839
 20
153.2170729120394
 30
0
 11
-292.6889891084839
 21
153.2170729120394
 31
0
  0
LINE
  8
1
 62
3
 10
-293.4889891084839
 20
153.7170729120394
 30
0
 11
-293.4889891084839
 21
153.2170729120394
 31
0
  0
LINE
  8
1
 62
3
 10
-290.6889891084839
 20
153.2170729120394
 30
0
 11
-290.6889891084839
 21
153.7170729120394
 31
0
  0
LINE
  8
1
 62
3
 10
-291.4889891084839
 20
153.2170729120394
 30
0
 11
-290.6889891084839
 21
153.2170729120394
 31
0
  0
LINE
  8
1
 62
3
 10
-291.4889891084839
 20
153.7170729120394
 30
0
 11
-291.4889891084839
 21
153.2170729120394
 31
0
  0
LINE
  8
1
 62
3
 10
-288.6889891084839
 20
153.2170729120394
 30
0
 11
-288.6889891084839
 21
153.7170729120394
 31
0
  0
LINE
  8
1
 62
3
 10
-289.4889891084839
 20
153.2170729120394
 30
0
 11
-288.6889891084839
 21
153.2170729120394
 31
0
  0
LINE
  8
1
 62
3
 10
-289.4889891084839
 20
153.7170729120394
 30
0
 11
-289.4889891084839
 21
153.2170729120394
 31
0
  0
LINE
  8
1
 62
3
 10
-286.6889891084838
 20
153.2170729120394
 30
0
 11
-286.6889891084838
 21
153.7170729120394
 31
0
  0
LINE
  8
1
 62
3
 10
-287.4889891084839
 20
153.2170729120394
 30
0
 11
-286.6889891084838
 21
153.2170729120394
 31
0
  0
LINE
  8
1
 62
3
 10
-287.4889891084839
 20
153.7170729120394
 30
0
 11
-287.4889891084839
 21
153.2170729120394
 31
0
  0
LINE
  8
1
 62
3
 10
-284.6889891084838
 20
153.2170729120394
 30
0
 11
-284.6889891084838
 21
153.7170729120394
 31
0
  0
LINE
  8
1
 62
3
 10
-285.4889891084839
 20
153.2170729120394
 30
0
 11
-284.6889891084838
 21
153.2170729120394
 31
0
  0
LINE
  8
1
 62
3
 10
-285.4889891084839
 20
153.7170729120394
 30
0
 11
-285.4889891084839
 21
153.2170729120394
 31
0
  0
LINE
  8
1
 62
3
 10
-282.6889891084838
 20
153.2170729120394
 30
0
 11
-282.6889891084838
 21
153.7170729120394
 31
0
  0
LINE
  8
1
 62
3
 10
-283.4889891084839
 20
153.2170729120394
 30
0
 11
-282.6889891084838
 21
153.2170729120394
 31
0
  0
LINE
  8
1
 62
3
 10
-283.4889891084839
 20
153.7170729120394
 30
0
 11
-283.4889891084839
 21
153.2170729120394
 31
0
  0
LINE
  8
1
 62
3
 10
-280.6889891084838
 20
153.2170729120394
 30
0
 11
-280.6889891084838
 21
153.7170729120394
 31
0
  0
LINE
  8
1
 62
3
 10
-281.4889891084839
 20
153.2170729120394
 30
0
 11
-280.6889891084838
 21
153.2170729120394
 31
0
  0
LINE
  8
1
 62
3
 10
-281.4889891084839
 20
153.7170729120394
 30
0
 11
-281.4889891084839
 21
153.2170729120394
 31
0
  0
LINE
  8
1
 62
3
 10
-302.0389891084838
 20
153.7170729120394
 30
0
 11
-278.1389891084839
 21
153.7170729120394
 31
0
  0
LINE
  8
1
 62
3
 10
-301.2889891084838
 20
154.9170729120394
 30
0
 11
-302.0389891084838
 21
153.7170729120394
 31
0
  0
LINE
  8
1
 62
3
 10
-278.8889891084839
 20
154.9170729120394
 30
0
 11
-278.1389891084839
 21
153.7170729120394
 31
0
  0
LINE
  8
1
 62
3
 10
-301.2889891084838
 20
154.9170729120394
 30
0
 11
-301.2889891084838
 21
155.1670729120393
 31
0
  0
LINE
  8
1
 62
2
 10
-328.451704729172
 20
49.5218179324922
 30
0
 11
-258.4517047291719
 21
49.5218179324922
 31
0
  0
LINE
  8
1
 62
2
 10
-264.8445809388691
 20
55.91289853915839
 30
0
 11
-262.1550917276579
 21
55.91289853915839
 31
0
  0
LINE
  8
1
 62
2
 10
-285.1013345649869
 20
55.66839951995729
 30
0
 11
-281.6172235413731
 21
55.66839951995729
 31
0
  0
LINE
  8
1
 62
2
 10
-328.451704729172
 20
63.5218179324921
 30
0
 11
-258.4517047291719
 21
63.5218179324921
 31
0
  0
LINE
  8
1
 62
2
 10
-258.4517047291719
 20
63.5218179324921
 30
0
 11
-258.4517047291719
 21
37.5218179324922
 31
0
  0
LINE
  8
1
 62
2
 10
-258.4517047291719
 20
37.5218179324922
 30
0
 11
-328.451704729172
 21
37.5218179324922
 31
0
  0
LINE
  8
1
 62
2
 10
-328.451704729172
 20
37.5218179324922
 30
0
 11
-328.451704729172
 21
63.5218179324921
 31
0
  0
LINE
  8
1
 62
2
 10
-298.451704729172
 20
63.5218179324921
 30
0
 11
-298.451704729172
 21
37.5218179324922
 31
0
  0
LINE
  8
1
 62
2
 10
-328.451704729172
 20
56.52181793249208
 30
0
 11
-258.4517047291719
 21
56.52181793249208
 31
0
  0
LINE
  8
1
 62
2
 10
-288.4517047291719
 20
63.5218179324921
 30
0
 11
-288.4517047291719
 21
37.5218179324922
 31
0
  0
LINE
  8
1
 62
2
 10
-278.4517047291719
 20
63.5218179324921
 30
0
 11
-278.4517047291719
 21
37.5218179324922
 31
0
  0
LINE
  8
1
 62
2
 10
-268.4517047291719
 20
63.5218179324921
 30
0
 11
-268.4517047291719
 21
37.5218179324922
 31
0
  0
LINE
  8
1
 62
3
 10
-161.5174384331781
 20
182.7170729120392
 30
0
 11
-161.5174509706228
 21
178.2170729120392
 31
0
  0
LINE
  8
1
 62
3
 10
-146.5174289363533
 20
183.2170729120392
 30
0
 11
-146.5174384331199
 21
182.7170729120392
 31
0
  0
LINE
  8
1
 62
3
 10
-146.5174384331199
 20
182.7170729120392
 30
0
 11
-161.5174384331781
 21
182.7170729120392
 31
0
  0
LINE
  8
1
 62
3
 10
-291.5389891084837
 20
182.7170729120392
 30
0
 11
-288.5389891084837
 21
182.7170729120392
 31
0
  0
LINE
  8
1
 62
3
 10
-97.91743866948642
 20
183.2170729120392
 30
0
 11
-96.91743866948634
 21
183.2170729120392
 31
0
  0
LINE
  8
1
 62
3
 10
-96.91743866948634
 20
183.2170729120392
 30
0
 11
-96.91743885698634
 21
182.7170729120392
 31
0
  0
LINE
  8
1
 62
3
 10
-96.91743885698634
 20
182.7170729120392
 30
0
 11
-81.91743885698529
 21
182.7170729120392
 31
0
  0
LINE
  8
1
 62
3
 10
-81.91743885698529
 20
182.7170729120392
 30
0
 11
-81.9174405444853
 21
178.2170729120392
 31
0
  0
LINE
  8
1
 62
3
 10
-81.9174405444853
 20
178.2170729120392
 30
0
 11
-97.91744054448643
 21
178.2170729120392
 31
0
  0
ARC
  8
1
 62
3
 10
-273.6648917814469
 20
156.8788376179217
 30
0
 40
2.851439871812181
 50
95.51614301828039
 51
152.8954534651714
  0
ARC
  8
1
 62
3
 10
-306.4130879426355
 20
156.8788376179217
 30
0
 40
2.851439871812287
 50
27.10454653482907
 51
84.48385698172076
  0
ARC
  8
1
 62
3
 10
-98.91743210698638
 20
200.7170729120392
 30
0
 40
1
 50
0
 51
90
  0
ARC
  8
1
 62
3
 10
-290.0389891084837
 20
180.7170729120392
 30
0
 40
2.5
 50
180
 51
270
  0
ARC
  8
1
 62
3
 10
-290.0389891084837
 20
180.7170729120392
 30
0
 40
2.5
 50
270
 51
180
  0
CIRCLE
  8
1
 62
2
 10
-274.5389891084837
 20
165.2170729120393
 30
0
 40
1.5
  0
CIRCLE
  8
1
 62
2
 10
-305.5389991084836
 20
165.2170729120393
 30
0
 40
1.5
  0
CIRCLE
  8
1
 62
2
 10
-305.5389891084837
 20
196.2170729120392
 30
0
 40
1.5
  0
CIRCLE
  8
1
 62
2
 10
-274.5389891084837
 20
196.2170729120392
 30
0
 40
1.5
  0
CIRCLE
  8
4
 62
3
 10
-274.5389891084837
 20
165.2170729120393
 30
0
 40
1
  0
CIRCLE
  8
4
 62
3
 10
-305.5389991084836
 20
165.2170729120393
 30
0
 40
1.000009999999918
  0
CIRCLE
  8
4
 62
3
 10
-274.5389891084837
 20
196.2170729120392
 30
0
 40
1
  0
CIRCLE
  8
4
 62
3
 10
-305.5389891084837
 20
196.2170729120392
 30
0
 40
1.000009999999975
  0
CIRCLE
  8
1
 62
3
 10
-290.0389891084837
 20
180.7170729120392
 30
0
 40
4.5
  0
CIRCLE
  8
1
 62
3
 10
-290.0389891084837
 20
180.7170729120392
 30
0
 40
11
  0
CIRCLE
  8
1
 62
3
 10
-290.0389891084837
 20
180.7170729120392
 30
0
 40
15
  0
CIRCLE
  8
1
 62
3
 10
-290.0389891084837
 20
180.7170729120392
 30
0
 40
12.75
  0
ARC
  8
1
 62
3
 10
-277.0454347754429
 20
158.7170729120393
 30
0
 40
1
 50
270
 51
327.3793104468809
  0
ARC
  8
1
 62
3
 10
-303.0325449486394
 20
158.7170729120393
 30
0
 40
0.9999999999999593
 50
212.6206895531138
 51
270
  0
ARC
  8
1
 62
3
 10
-277.0889891084838
 20
158.0170729120391
 30
0
 40
0.2999999999998977
 50
180
 51
270
  0
ARC
  8
1
 62
3
 10
-302.9889891084837
 20
158.0170729120391
 30
0
 40
0.2999999999998124
 50
270
 51
0
  0
ARC
  8
1
 62
3
 10
-98.91744360898707
 20
158.7170729120393
 30
0
 40
1
 50
270
 51
0.0001002103350056641
  0
ARC
  8
1
 62
3
 10
-136.5174396069864
 20
200.7170729120392
 30
0
 40
1
 50
90
 51
180
  0
ARC
  8
1
 62
3
 10
-136.5174396069864
 20
160.7170733078179
 30
0
 40
1
 50
180
 51
270.0000226764377
  0
ARC
  8
1
 62
3
 10
-274.0389891084837
 20
164.7170743868714
 30
0
 40
5.000000000000019
 50
269.9999830996715
 51
0
  0
ARC
  8
1
 62
3
 10
-306.0389979205458
 20
164.7170838257985
 30
0
 40
5.000000000000028
 50
179.9999863542116
 51
269.9999830996688
  0
ARC
  8
1
 62
3
 10
-306.0389902993031
 20
196.7170729120392
 30
0
 40
5
 50
90
 51
179.9999863542138
  0
ARC
  8
1
 62
3
 10
-274.0389891084837
 20
196.7170729120392
 30
0
 40
5
 50
0
 51
90
  0
LINE
  8
1
 62
2
 10
-204.0825440734736
 20
102.756057249772
 30
0
 11
-265.6011171143542
 21
102.756057249772
 31
0
  0
LINE
  8
1
 62
2
 10
-265.6011171143542
 20
102.756057249772
 30
0
 11
-277.638989108484
 21
153.2170729120394
 31
0
  0
SOLID
  8
1
 62
2
 10
-276.4866519353064
 20
150.2021761291043
 30
0
 11
-277.3062295787607
 21
150.0066594390086
 31
0
 12
-277.638989108484
 22
153.2170729120394
 32
0
 13
-277.638989108484
 23
153.2170729120394
 33
0
  0
LINE
  8
1
 62
2
 10
-58.01955376415981
 20
219.111470739303
 30
0
 11
-76.34637101290628
 21
219.111470739303
 31
0
  0
LINE
  8
1
 62
2
 10
-76.34637101290628
 20
219.111470739303
 30
0
 11
-100.8626388425236
 21
202.8982810555713
 31
0
  0
SOLID
  8
1
 62
2
 10
-98.42590134567743
 20
205.0148334276857
 30
0
 11
-97.9611270985728
 21
204.3120395823907
 31
0
 12
-100.8626388425236
 22
202.8982810555713
 32
0
 13
-100.8626388425236
 23
202.8982810555713
 33
0
  0
LINE
  8
1
 62
2
 10
-228.1515483503102
 20
133.2549187115592
 30
0
 11
-265.3082756075582
 21
133.2549187115592
 31
0
  0
LINE
  8
1
 62
2
 10
-265.3082756075582
 20
133.2549187115592
 30
0
 11
-273.5445892134236
 21
164.0940551701026
 31
0
  0
SOLID
  8
1
 62
2
 10
-272.3118728171945
 20
161.1111214030023
 30
0
 11
-273.1259166790209
 21
160.8937119257965
 31
0
 12
-273.5445892134236
 22
164.0940551701026
 32
0
 13
-273.5445892134236
 23
164.0940551701026
 33
0
  0
LINE
  8
1
 62
2
 10
-302.8266417084165
 20
86.78740564272221
 30
0
 11
-291.6257160120775
 21
86.78740564272221
 31
0
  0
SOLID
  8
1
 62
2
 10
-294.8257160120775
 20
86.36611765044255
 30
0
 11
-294.8257160120775
 21
87.20869363500188
 31
0
 12
-291.6257160120775
 22
86.78740564272221
 32
0
 13
-291.6257160120775
 23
86.78740564272221
 33
0
  0
TEXT
  8
1
 62
2
 10
-90.92869169767869
 20
50.62247547302371
 30
0
 40
5
  1
KH42JM2-961
 41
0.9
  0
TEXT
  8
1
 62
6
 10
-263.9975607207554
 20
104.3211491169231
 30
0
 40
1.6
  1
CONTACT
 41
0.72
  0
TEXT
  8
1
 62
6
 10
-240.855762856152
 20
104.7195222206734
 30
0
 40
1.6
  1
(JST)
 41
0.9
  0
TEXT
  8
1
 62
2
 10
-243.4640518348304
 20
107.1984560945681
 30
0
 40
2.4
  1
SPH-002T-P0.5S
 41
0.9
  0
TEXT
  8
1
 62
2
 10
-264.7822808055683
 20
106.9368827329641
 30
0
 40
2.4
  1
âRâôâ^âNâg
 41
1.215000000000001
  0
TEXT
  8
1
 62
6
 10
-246.4979162899961
 20
113.1018097518114
 30
0
 40
1.6
  1
(JST)
 41
0.9
  0
TEXT
  8
1
 62
6
 10
-263.5826744049145
 20
112.9883713210453
 30
0
 40
1.6
  1
HOUSING
 41
0.72
  0
TEXT
  8
1
 62
2
 10
-264.3341057726336
 20
115.8245527571773
 30
0
 40
3.5
  1
ânâEâWâôâOü@üFü@éoégéqü|éPéPüiéiérésüj
 41
0.6299999999999997
  0
TEXT
  8
1
 62
2
 10
-74.98487436981765
 20
215.2743047109724
 30
0
 40
2.5
  1
(NAME PLATE)
 41
0.45
  0
TEXT
  8
1
 62
2
 10
-75.82542089006519
 20
220.41630913858
 30
0
 40
3.5
  1
âlü|âÇâvâîü|âg
 41
0.6300000000000001
  0
TEXT
  8
1
 62
2
 10
-260.7860924785373
 20
135.7807616994311
 30
0
 40
3.5
  1
4-M3ü~0.5
 41
0.9
  0
TEXT
  8
1
 62
2
 10
-280.8581415322897
 20
129.0127416264688
 30
0
 40
3.499999999999999
  1
ùLî°É[é(écédéoéségüjü@éRüDéWéléhém.
 50
0.0009745374036200501
 41
0.5400000000000003
 72
1
 73
2
 11
-246.8381713027619
 21
130.7633202685302
 31
0
  0
TEXT
  8
1
 62
2
 10
-301.3287156795055
 20
89.5800906698183
 30
0
 40
2
  1
  3 5 7 9
 41
0.855
  0
TEXT
  8
1
 62
2
 10
-316.8277988288396
 20
88.42087397343821
 30
0
 40
3.5
  1
âsâôöÈìå
 41
0.9
  0
TEXT
  8
1
 62
2
 10
-316.1277409728185
 20
84.453879455985
 30
0
 40
2.5
  1
PIN NO.
 41
0.63
  0
TEXT
  8
1
 62
2
 10
-287.051704729172
 20
40.0218179324922
 30
0
 40
2
  1
BLUE
 41
0.9
 72
1
 73
2
 11
-283.4517047291719
 21
41.0218179324922
 31
0
  0
TEXT
  8
1
 62
2
 10
-277.2317047291719
 20
40.0218179324922
 30
0
 40
2
  1
YELLOW
 41
0.63
 72
1
 73
2
 11
-273.4517047291719
 21
41.0218179324922
 31
0
  0
TEXT
  8
1
 62
2
 10
-296.1517047291719
 20
40.0218179324922
 30
0
 40
2
  1
RED
 41
0.9
 72
1
 73
2
 11
-293.4517047291719
 21
41.0218179324922
 31
0
  0
TEXT
  8
1
 62
2
 10
-267.051704729172
 20
40.0218179324922
 30
0
 40
2
  1
WHITE
 41
0.7200000000000001
 72
1
 73
2
 11
-263.4517047291719
 21
41.0218179324922
 31
0
  0
TEXT
  8
1
 62
2
 10
-325.189204729172
 20
39.7718179324922
 30
0
 40
2.5
  1
COLOR OF LEAD
 41
0.63
 72
1
 73
2
 11
-314.951704729172
 21
41.0218179324922
 31
0
  0
TEXT
  8
1
 62
2
 10
-312.9950426101321
 20
51.77181793249208
 30
0
 40
2.5
  1
(PHASE)
 41
0.54
 73
2
 11
-312.9950426101321
 21
53.02181793249208
 31
0
  0
TEXT
  8
1
 62
2
 10
-312.9950426101321
 20
58.77181793249214
 30
0
 40
2.5
  1
(PIN NO.)
 41
0.54
 73
2
 11
-312.9950426101321
 21
60.02181793249214
 31
0
  0
TEXT
  8
1
 62
2
 10
-287.051704729172
 20
44.0218179324922
 30
0
 40
4
  1
É┬
 41
0.9
 72
1
 73
2
 11
-283.4517047291719
 21
46.0218179324922
 31
0
  0
TEXT
  8
1
 62
2
 10
-277.051704729172
 20
44.0218179324922
 30
0
 40
4
  1
ë®
 41
0.9
 72
1
 73
2
 11
-273.4517047291719
 21
46.0218179324922
 31
0
  0
TEXT
  8
1
 62
2
 10
-297.051704729172
 20
44.0218179324922
 30
0
 40
4
  1
ÉÈ
 41
0.9
 72
1
 73
2
 11
-293.4517047291719
 21
46.0218179324922
 31
0
  0
TEXT
  8
1
 62
2
 10
-267.051704729172
 20
44.0218179324922
 30
0
 40
4
  1
öÆ
 41
0.9
 72
1
 73
2
 11
-263.4517047291719
 21
46.0218179324922
 31
0
  0
TEXT
  8
1
 62
2
 10
-325.751704729172
 20
44.5218179324922
 30
0
 40
3
  1
âèü[âhÉ³ÉF
 41
0.72
 72
1
 73
2
 11
-314.951704729172
 21
46.0218179324922
 31
0
  0
TEXT
  8
1
 62
2
 10
-326.121704729172
 20
58.52181793249214
 30
0
 40
3
  1
PHR-11
 41
0.6300000000000001
 72
1
 73
2
 11
-320.451704729172
 21
60.02181793249214
 31
0
  0
TEXT
  8
1
 62
2
 10
-328.551704729172
 20
51.52181793249208
 30
0
 40
3
  1
ùÒÄÑæè
 41
0.9
 72
1
 73
2
 11
-320.451704729172
 21
53.02181793249208
 31
0
  0
TEXT
  8
1
 62
2
 10
-295.2517047291719
 20
58.02181793249214
 30
0
 40
4
  1
3
 41
0.9
 72
1
 73
2
 11
-293.4517047291719
 21
60.02181793249214
 31
0
  0
TEXT
  8
1
 62
2
 10
-285.2517047291719
 20
58.02181793249214
 30
0
 40
4
  1
5
 41
0.9
 72
1
 73
2
 11
-283.4517047291719
 21
60.02181793249214
 31
0
  0
TEXT
  8
1
 62
2
 10
-275.2517047291719
 20
58.02181793249214
 30
0
 40
4
  1
7
 41
0.9
 72
1
 73
2
 11
-273.4517047291719
 21
60.02181793249214
 31
0
  0
TEXT
  8
1
 62
2
 10
-265.2517047291719
 20
58.02181793249214
 30
0
 40
4
  1
9
 41
0.9
 72
1
 73
2
 11
-263.4517047291719
 21
60.02181793249214
 31
0
  0
TEXT
  8
1
 62
2
 10
-295.2517047291719
 20
51.02181793249208
 30
0
 40
4
  1
A
 41
0.9
 72
1
 73
2
 11
-293.4517047291719
 21
53.02181793249208
 31
0
  0
TEXT
  8
1
 62
2
 10
-285.2517047291719
 20
51.02181793249208
 30
0
 40
4
  1
A
 41
0.9
 72
1
 73
2
 11
-283.4517047291719
 21
53.02181793249208
 31
0
  0
TEXT
  8
1
 62
2
 10
-275.2517047291719
 20
51.02181793249208
 30
0
 40
4
  1
B
 41
0.9
 72
1
 73
2
 11
-273.4517047291719
 21
53.02181793249208
 31
0
  0
TEXT
  8
1
 62
2
 10
-265.2517047291719
 20
51.02181793249208
 30
0
 40
4
  1
B
 41
0.9
 72
1
 73
2
 11
-263.4517047291719
 21
53.02181793249208
 31
0
  0
DIMENSION
  8
0
  6
CONTINUOUS
 62
2
  2
*D0
  3
DMST_1
 10
-137.5174396069864
 20
237.77428983961
 30
0
 11
-118.661517636076
 21
240.97428983961
 31
0
 12
0
 22
0
 32
0
 70
0
  1
40
 13
-97.91743210698638
 23
200.7170729120392
 33
0
 14
-137.5174396069864
 24
200.3480646216076
 34
0
 53
0
  0
DIMENSION
  8
0
  6
CONTINUOUS
 62
2
  2
*D1
  3
DMST_2
 10
-139.5174396069864
 20
228.368229013055
 30
0
 11
-146.133187351727
 21
231.568229013055
 31
0
 12
0
 22
0
 32
0
 70
0
 13
-137.5174396069864
 23
200.3480646216076
 33
0
 14
-139.5174396069864
 24
191.7170729120392
 34
0
 53
0
  0
DIMENSION
  8
0
  6
CONTINUOUS
 62
2
  2
*D2
  3
DMST_2
 10
-181.21508843812
 20
169.7170729120393
 30
0
 11
-185.21508843812
 21
180.649173666676
 31
0
 12
0
 22
0
 32
0
 70
0
  1
%%c<>
 13
-139.5174396069864
 23
191.7170729120392
 33
0
 14
-139.5175396069865
 24
169.7170729120393
 34
0
 50
90
 53
0
  0
DIMENSION
  8
0
  6
CONTINUOUS
 62
2
  2
*D3
  3
DMST_3
 10
-311.038990299303
 20
226.7170729120392
 30
0
 11
-290.0389897038934
 21
229.9170729120392
 31
0
 12
0
 22
0
 32
0
 70
0
  1
(<>
 13
-269.0389891084837
 23
196.7170729120392
 33
0
 14
-311.038990299303
 24
196.7170741028587
 34
0
 53
0
  0
DIMENSION
  8
0
  6
CONTINUOUS
 62
2
  2
*D4
  3
DMST_4
 10
-305.5389791084836
 20
216.7170729120392
 30
0
 11
-290.0389891084837
 21
219.9170729120392
 31
0
 12
0
 22
0
 32
0
 70
0
 13
-274.5389891084837
 23
198.7170729120392
 33
0
 14
-305.5389791084837
 24
198.7170729120392
 34
0
 53
0
  0
DIMENSION
  8
1
  6
CONTINUOUS
 62
2
  2
*D5
  3
DMST_5
 10
-251.6166033991222
 20
196.2170729120392
 30
0
 11
-255.2166033991222
 21
181.291499179405
 31
0
 12
0
 22
0
 32
0
 70
0
 13
-272.0389891084837
 23
165.2170729120393
 33
0
 14
-272.0389891084837
 24
196.2170729120392
 34
0
 50
90
 53
0
  0
DIMENSION
  8
1
  6
CONTINUOUS
 62
2
  2
*D6
  3
DMST_6
 10
-171.482819331109
 20
183.2170729120392
 30
0
 11
-175.9094859977757
 21
180.744588069686
 31
0
 12
0
 22
0
 32
0
 70
0
  1
âË<>
 13
-161.5174509706228
 23
178.2170729120392
 33
0
 14
-146.5174289363533
 24
183.2170729120392
 34
0
 50
90
 53
0
  0
DIMENSION
  8
1
  6
CONTINUOUS
 62
2
  2
*D7
  3
DMST_7
 10
-320.7283984432735
 20
96.7990083032683
 30
0
 11
-323.2935214575435
 21
106.64269756629
 31
0
 12
0
 22
0
 32
0
 70
0
  1
(<>
 13
-296.3889891084839
 23
93.29900830326831
 33
0
 14
-296.7089891084839
 24
96.79900830326831
 34
0
 50
90
 53
0
  0
DIMENSION
  8
1
  6
CONTINUOUS
 62
2
  2
*D8
  3
DMST_8
 10
-331.4761728266635
 20
93.2990083032683
 30
0
 11
-336.2761728266635
 21
121.511524431192
 31
0
 12
0
 22
0
 32
0
 70
0
  1
300
 13
-301.4389891084839
 23
153.2170729120394
 33
0
 14
-296.3889891084839
 24
93.29900830326831
 34
0
 50
90
 53
0
  0
DIMENSION
  8
1
  6
CONTINUOUS
 62
2
  2
*D9
  3
DMST_9
 10
-161.5174384331781
 20
237.77428983961
 30
0
 11
-149.865751171788
 21
241.37428983961
 31
0
 12
0
 22
0
 32
0
 70
0
 13
-137.5174396069864
 23
200.7170729120392
 33
0
 14
-161.5174384331781
 24
182.7170729120392
 34
0
 53
0
  0
DIMENSION
  8
1
  6
CONTINUOUS
 62
2
  2
*D10
  3
DMST_10
 10
-146.5174289363533
 20
219.111470739303
 30
0
 11
-153.896920097454
 21
222.711470739303
 31
0
 12
0
 22
0
 32
0
 70
0
 13
-161.5174384331781
 23
182.7170729120392
 33
0
 14
-146.5174289363533
 24
183.2170729120392
 34
0
 53
0
  0
DIMENSION
  8
1
  6
CONTINUOUS
 62
2
  2
*D11
  3
DMST_11
 10
-166.9982952013805
 20
178.2170881822128
 30
0
 11
-170.598342389629
 21
161.2800598856197
 31
0
 12
0
 22
0
 32
0
 70
1
 13
-161.5174384331781
 23
182.7170729120392
 33
0
 14
-161.5174509706228
 24
178.2170729120392
 34
0
 53
0
  0
DIMENSION
  8
1
  6
CONTINUOUS
 62
2
  2
*D12
  3
DMST_7
 10
-97.91743210698638
 20
237.77428983961
 30
0
 11
-89.9954274980048
 21
241.37428983961
 31
0
 12
0
 22
0
 32
0
 70
0
  1
(<>
 13
-81.91743885698529
 23
182.7170729120392
 33
0
 14
-97.91743210698638
 24
200.7170729120392
 34
0
 53
0
  0
DIMENSION
  8
1
  6
CONTINUOUS
 62
2
  2
*D13
  3
DMST_12
 10
-96.91743866948634
 20
219.111470739303
 30
0
 11
-89.5089010494508
 21
222.711470739303
 31
0
 12
0
 22
0
 32
0
 70
0
 13
-81.91743885698529
 23
182.7170729120392
 33
0
 14
-96.91743866948634
 24
183.2170729120392
 34
0
 53
0
  0
DIMENSION
  8
1
  6
CONTINUOUS
 62
2
  2
*D14
  3
DMST_13
 10
-62.4494625271916
 20
183.2170729120392
 30
0
 11
-67.2494625271916
 21
195.342803974439
 31
0
 12
0
 22
0
 32
0
 70
0
  1
âË<>
 13
-81.9174405444853
 23
178.2170729120392
 33
0
 14
-96.91743866948634
 24
183.2170729120392
 34
0
 50
90
 53
0
  0
DIMENSION
  8
1
  6
CONTINUOUS
 62
2
  2
*D15
  3
DMST_11
 10
-72.5718744895635
 20
182.7170729120392
 30
0
 11
-76.17187448956349
 21
193.785509826382
 31
0
 12
0
 22
0
 32
0
 70
0
 13
-81.9174405444853
 23
178.2170729120392
 33
0
 14
-81.91743885698529
 24
182.7170729120392
 34
0
 50
90
 53
0
  0
DIMENSION
  8
1
  6
CONTINUOUS
 62
2
  2
*D16
  3
DMST_7
 10
-244.039032634254
 20
155.1670729120393
 30
0
 11
-247.639032634254
 21
148.5148602687547
 31
0
 12
0
 22
0
 32
0
 70
0
  1
4.6
 13
-274.0389905833156
 23
159.7170743868716
 33
0
 14
-278.0889891084838
 24
155.1670729120393
 34
0
 50
90
 53
0
  0
DIMENSION
  8
1
  6
CONTINUOUS
 62
2
  2
*D17
  3
DMST_7
 10
-331.4761728266635
 20
159.7170838257988
 30
0
 11
-335.0761728266635
 21
167.911102636454
 31
0
 12
0
 22
0
 32
0
 70
0
  1
üª(<>
 13
-301.4389891084839
 23
153.2170729120394
 33
0
 14
-306.0389993953779
 24
159.7170838257988
 34
0
 50
90
 53
0
  0
DIMENSION
  8
1
  6
CONTINUOUS
 62
2
  2
*D18
  3
DMST_7
 10
-244.0389891084837
 20
201.7170729120392
 30
0
 11
-247.6389891084837
 21
181.550916060879
 31
0
 12
0
 22
0
 32
0
 70
0
  1
(<>
 13
-274.0389905833156
 23
159.7170743868716
 33
0
 14
-274.0389891084837
 24
201.7170729120392
 34
0
 50
90
 53
0
  0
INSERT
  8
0
  2
MOJINOMUKI
 10
-109.3475135772548
 20
485.0784630642792
 30
0
  0
ENDSEC
  0
EOF
