  0
SECTION
  2
HEADER
  9
$ACADVER
  1
AC1009
  9
$INSBASE
 10
0
 20
0
  9
$EXTMIN
 10
-362.857355586891
 20
38.24810746355097
  9
$EXTMAX
 10
1.295888391965697
 20
244.330566283368
  9
$LIMMIN
 10
-362.857355586891
 20
38.24810746355097
  9
$LIMMAX
 10
1.295888391965697
 20
244.330566283368
  9
$VIEWCTR
 10
10
 20
10
  9
$VIEWSIZE
 40
10
  9
$SNAPMODE
 70
0
  9
$SNAPUNIT
 10
1
 20
1
  9
$SNAPBASE
 10
0
 20
0
  9
$SNAPANG
 50
0
  9
$SNAPSTYLE
 70
0
  9
$SNAPISOPAIR
 70
0
  9
$GRIDMODE
 70
0
  9
$GRIDUNIT
 10
0
 20
0
  9
$ORTHOMODE
 70
0
  9
$REGENMODE
 70
1
  9
$FILLMODE
 70
1
  9
$QTEXTMODE
 70
0
  9
$DRAGMODE
 70
2
  9
$LTSCALE
 40
1
  9
$OSMODE
 70
0
  9
$ATTMODE
 70
1
  9
$TEXTSIZE
 40
3.5
  9
$TRACEWID
 40
0.5
  9
$TEXTSTYLE
  7
STANDARD
  9
$CLAYER
  8
0
  9
$CELTYPE
  6
BYLAYER
  9
$CECOLOR
 62
256
  9
$DIMSCALE
 40
1
  9
$DIMASZ
 40
0.18
  9
$DIMEXO
 40
0.0625
  9
$DIMDLI
 40
0.38
  9
$DIMRND
 40
0
  9
$DIMDLE
 40
0
  9
$DIMEXE
 40
0.18
  9
$DIMTP
 40
0
  9
$DIMTM
 40
0
  9
$DIMTXT
 40
0.18
  9
$DIMCEN
 40
0.09
  9
$DIMTSZ
 40
0
  9
$DIMTOL
 70
0
  9
$DIMLIM
 70
0
  9
$DIMTIH
 70
1
  9
$DIMTOH
 70
1
  9
$DIMSE1
 70
0
  9
$DIMSE2
 70
0
  9
$DIMTAD
 70
0
  9
$DIMZIN
 70
0
  9
$DIMBLK
  1

  9
$DIMASO
 70
1
  9
$DIMSHO
 70
1
  9
$DIMPOST
  1

  9
$DIMAPOST
  1

  9
$DIMALT
 70
0
  9
$DIMALTD
 70
2
  9
$DIMALTF
 40
25.4
  9
$DIMLFAC
 40
1
  9
$DIMTOFL
 70
0
  9
$DIMTVP
 40
0
  9
$DIMTIX
 70
0
  9
$DIMSOXD
 70
0
  9
$DIMSAH
 70
0
  9
$DIMBLK1
  1

  9
$DIMBLK2
  1

  9
$DIMSTYLE
  2
*UNNAMED
  9
$DIMCLRD
 70
0
  9
$DIMCLRE
 70
0
  9
$DIMCLRT
 70
0
  9
$DIMTFAC
 40
1
  9
$DIMGAP
 40
0.09
  9
$LUNITS
 70
2
  9
$LUPREC
 70
4
  9
$AXISMODE
 70
0
  9
$AXISUNIT
 10
0
 20
0
  9
$SKETCHINC
 40
0.1
  9
$FILLETRAD
 40
2
  9
$AUNITS
 70
0
  9
$AUPREC
 70
0
  9
$MENU
  1
ACAD
  9
$ELEVATION
 40
0
  9
$THICKNESS
 40
0
  9
$VIEWDIR
 10
0
 20
0
 30
1
  9
$LIMCHECK
 70
0
  9
$BLIPMODE
 70
1
  9
$CHAMFERA
 40
0
  9
$CHAMFERB
 40
0
  9
$FASTZOOM
 70
1
  9
$SKPOLY
 70
0
  9
$ANGBASE
 50
0
  9
$ANGDIR
 70
0
  9
$PDMODE
 70
0
  9
$PDSIZE
 40
0
  9
$PLINEWID
 40
0
  9
$COORDS
 70
2
  0
ENDSEC
  0
SECTION
  2
TABLES
  0
TABLE
  2
DIMSTYLE
 70
11
  0
DIMSTYLE
  2
DMST_1
 70
0
  3
MAX.
  4

  5

  6

  7

 40
1
 41
3.2
 42
1
 43
7
 44
1
 45
0
 46
0
 47
0
 48
0
140
3.2
141
0
142
0
143
25.4
144
1
145
0
146
1
147
0.09
 71
0
 72
0
 73
0
 74
0
 75
0
 76
0
 77
1
 78
9
170
0
171
2
172
0
173
0
174
0
175
0
176
2
177
2
178
2
  0
DIMSTYLE
  2
DMST_2
 70
0
  3

  4

  5

  6

  7

 40
1
 41
3.2
 42
1
 43
7
 44
1
 45
0
 46
0
 47
0
 48
0
140
3.2
141
0
142
0
143
25.4
144
1
145
0
146
0.6
147
0.09
 71
1
 72
0
 73
0
 74
0
 75
0
 76
0
 77
1
 78
9
170
0
171
2
172
0
173
0
174
0
175
0
176
2
177
2
178
2
  0
DIMSTYLE
  2
DMST_3
 70
0
  3
)
  4

  5

  6

  7

 40
1
 41
3.2
 42
1
 43
7
 44
1
 45
0
 46
0
 47
0
 48
0
140
3.2
141
0
142
0
143
25.4
144
1
145
0
146
1
147
0.09
 71
0
 72
0
 73
0
 74
0
 75
0
 76
0
 77
1
 78
9
170
0
171
2
172
0
173
0
174
0
175
0
176
2
177
2
178
2
  0
DIMSTYLE
  2
DMST_4
 70
0
  3

  4

  5

  6

  7

 40
1
 41
3.2
 42
0
 43
7
 44
1
 45
0
 46
0
 47
0
 48
0
140
3.2
141
0
142
0
143
25.4
144
1
145
0
146
0.6
147
0.09
 71
1
 72
0
 73
0
 74
0
 75
0
 76
0
 77
1
 78
9
170
0
171
2
172
0
173
0
174
0
175
0
176
2
177
2
178
2
  0
DIMSTYLE
  2
DMST_5
 70
0
  3

  4

  5

  6

  7

 40
1
 41
3.200000000000001
 42
1
 43
7
 44
1
 45
0
 46
0
 47
0.2
 48
0.2
140
3.200000000000001
141
0
142
0
143
25.4
144
1
145
0
146
0.6
147
0.09
 71
1
 72
0
 73
0
 74
0
 75
0
 76
0
 77
1
 78
9
170
0
171
2
172
0
173
0
174
0
175
0
176
2
177
2
178
2
  0
DIMSTYLE
  2
DMST_6
 70
0
  3

  4

  5

  6

  7

 40
1
 41
3.2
 42
1
 43
7
 44
1.5
 45
0
 46
0
 47
0
 48
0.011
140
3.2
141
0
142
0
143
25.4
144
1
145
0
146
0.6
147
0.09
 71
1
 72
0
 73
0
 74
0
 75
0
 76
0
 77
1
 78
9
170
0
171
2
172
0
173
0
174
0
175
0
176
2
177
2
178
2
  0
DIMSTYLE
  2
DMST_7
 70
0
  3

  4

  5

  6

  7

 40
1
 41
3.2
 42
1
 43
7
 44
1.5
 45
0
 46
0
 47
0.2
 48
0.2
140
3.2
141
0
142
0
143
25.4
144
1
145
0
146
0.7
147
0.09
 71
1
 72
0
 73
0
 74
0
 75
0
 76
0
 77
1
 78
9
170
0
171
2
172
0
173
0
174
0
175
0
176
2
177
2
178
2
  0
DIMSTYLE
  2
DMST_8
 70
0
  3

  4

  5

  6

  7

 40
1
 41
3.2
 42
1
 43
7
 44
1.5
 45
0
 46
0
 47
0.5
 48
0.5
140
3.2
141
0
142
0
143
25.4
144
1
145
0
146
0.7
147
0.09
 71
1
 72
0
 73
0
 74
0
 75
0
 76
0
 77
1
 78
9
170
0
171
2
172
0
173
0
174
0
175
0
176
2
177
2
178
2
  0
DIMSTYLE
  2
DMST_9
 70
0
  3
)
  4

  5

  6

  7

 40
1
 41
3.2
 42
1
 43
7
 44
1.5
 45
0
 46
0
 47
0
 48
0
140
3.2
141
0
142
0
143
25.4
144
1
145
0
146
1
147
0.09
 71
0
 72
0
 73
0
 74
0
 75
0
 76
0
 77
1
 78
9
170
0
171
2
172
0
173
0
174
0
175
0
176
2
177
2
178
2
  0
DIMSTYLE
  2
DMST_10
 70
0
  3

  4

  5

  6

  7

 40
1
 41
3.2
 42
1
 43
7
 44
1.5
 45
0
 46
0
 47
0
 48
0.011
140
3.2
141
0
142
0
143
25.4
144
1
145
0
146
0.7
147
0.09
 71
1
 72
0
 73
0
 74
0
 75
0
 76
0
 77
1
 78
9
170
0
171
2
172
0
173
0
174
0
175
0
176
2
177
2
178
2
  0
DIMSTYLE
  2
DMST_11
 70
0
  3

  4

  5

  6

  7

 40
1
 41
3.2
 42
1
 43
7
 44
1.5
 45
0
 46
0
 47
0.1
 48
0.1
140
3.2
141
0
142
0
143
25.4
144
1
145
0
146
0.7
147
0.09
 71
1
 72
0
 73
0
 74
0
 75
0
 76
0
 77
1
 78
9
170
0
171
2
172
0
173
0
174
0
175
0
176
2
177
2
178
2
  0
ENDTAB
  0
TABLE
  2
LTYPE
 70
9
  0
LTYPE
  2
CONTINUOUS
 70
64
  3
Solid line
 72
65
 73
0
 40
0
  0
LTYPE
  2
BORDER
 70
64
  3
__ __ . __ __ .
 72
65
 73
6
 40
16.77021518323682
 49
4.791490052353378
 49
-2.395745026176689
 49
4.791490052353378
 49
-2.395745026176689
 49
0
 49
-2.395745026176689
  0
LTYPE
  2
CENTER
 70
64
  3
____ _ ____ _
 72
65
 73
4
 40
19.16596020941351
 49
11.97872513088345
 49
-2.395745026176689
 49
2.395745026176689
 49
-2.395745026176689
  0
LTYPE
  2
DASHDOT
 70
64
  3
__ . __ . __ .
 72
65
 73
4
 40
9.582980104706756
 49
4.791490052353378
 49
-2.395745026176689
 49
0
 49
-2.395745026176689
  0
LTYPE
  2
DASHED
 70
64
  3
__ __ __ __ __
 72
65
 73
2
 40
7.187235078530067
 49
4.791490052353378
 49
-2.395745026176689
  0
LTYPE
  2
DIVIDE
 70
64
  3
__ . . __ . . 
 72
65
 73
6
 40
11.97872513088345
 49
4.791490052353378
 49
-2.395745026176689
 49
0
 49
-2.395745026176689
 49
0
 49
-2.395745026176689
  0
LTYPE
  2
DOT
 70
64
  3
..............
 72
65
 73
4
 40
4.791490052353378
 49
0
 49
-2.395745026176689
 49
0
 49
-2.395745026176689
  0
LTYPE
  2
HIDDEN
 70
64
  3
_ _ _ _ _ _ _
 72
65
 73
2
 40
3.593617539265034
 49
2.395745026176689
 49
-1.197872513088345
  0
LTYPE
  2
PHANTOM
 70
64
  3
_____ _ _ _____ _ _ 
 72
65
 73
6
 40
23.95745026176689
 49
11.97872513088345
 49
-2.395745026176689
 49
2.395745026176689
 49
-2.395745026176689
 49
2.395745026176689
 49
-2.395745026176689
  0
ENDTAB
  0
TABLE
  2
LAYER
 70
5
  0
LAYER
  2
1
 70
0
 62
7
  6
CONTINUOUS
  0
LAYER
  2
2
 70
0
 62
7
  6
CONTINUOUS
  0
LAYER
  2
4
 70
0
 62
7
  6
CONTINUOUS
  0
LAYER
  2
0
 70
0
 62
7
  6
CONTINUOUS
  0
ENDTAB
  0
TABLE
  2
STYLE
 70
4
  0
STYLE
  2
STANDARD
 70
0
 40
0
 41
1
 50
0
 71
0
 42
3.5
  3
txt
  4

  0
STYLE
  2
SIMPLEX
 70
0
 40
0
 41
1
 50
0
 71
0
 42
3.5
  3
simplex
  4

  0
STYLE
  2
COMPLEX
 70
0
 40
0
 41
1
 50
0
 71
0
 42
3.5
  3
complex
  4

  0
STYLE
  2
ITALIC
 70
0
 40
0
 41
1
 50
0
 71
0
 42
3.5
  3
italic
  4

  0
ENDTAB
  0
TABLE
  2
VIEW
 70
0
  0
ENDTAB
  0
ENDSEC
  0
SECTION
  2
BLOCKS
  0
BLOCK
  8
0
  2
MOJINOMUKI
 70
0
 10
-109.3475135772548
 20
485.0784630642792
 30
0
  0
LINE
  8
1
 62
2
 10
-106.3475135772546
 20
204.3276856848613
 30
0
 11
-112.3475135772546
 21
204.3276856848613
 31
0
  0
LINE
  8
1
 62
2
 10
-112.3475135772546
 20
210.3276856848613
 30
0
 11
-106.3475135772546
 21
210.3276856848613
 31
0
  0
LINE
  8
1
 62
2
 10
-111.8475135772546
 20
207.3276856848613
 30
0
 11
-109.3475135772546
 21
205.8276856848613
 31
0
  0
LINE
  8
1
 62
2
 10
-106.8475135772546
 20
207.3276856848613
 30
0
 11
-111.8475135772546
 21
207.3276856848613
 31
0
  0
LINE
  8
1
 62
2
 10
-109.3475135772546
 20
205.8276856848613
 30
0
 11
-109.3475135772546
 21
208.3276856848613
 31
0
  0
LINE
  8
1
 62
2
 10
-112.3475135772546
 20
230.3276856848613
 30
0
 11
-106.3475135772546
 21
230.3276856848613
 31
0
  0
LINE
  8
1
 62
2
 10
-112.3475135772546
 20
204.3276856848613
 30
0
 11
-112.3475135772546
 21
230.3276856848613
 31
0
  0
LINE
  8
1
 62
2
 10
-106.3475135772546
 20
230.3276856848613
 30
0
 11
-106.3475135772546
 21
204.3276856848613
 31
0
  0
TEXT
  8
1
 62
2
 10
-107.3475135772546
 20
202.3744312469915
 30
0
 40
4
  1
òÂÄÜé╠î³é½
 50
90
 41
0.9
 72
1
 73
2
 11
-109.3475135772546
 21
220.3744312469915
 31
0
  0
TEXT
  8
1
 62
2
 10
-103.7766137936584
 20
208.2881468294469
 30
0
 40
2
  1
DIRECTION
 50
90
 41
0.9
  0
TEXT
  8
1
 62
2
 10
-100.7766137936584
 20
208.2881468294469
 30
0
 40
2
  1
OF LETTERS
 50
90
 41
0.9
  0
TEXT
  8
1
 62
2
 10
-100.8569667932547
 20
204.7710655258157
 30
0
 40
5
  1
(   )
 50
90
 41
0.9900000000000001
  0
ENDBLK
  8
0
  0
BLOCK
  8
1
  2
*D0
 70
1
 10
0
 20
0
 30
0
  0
LINE
  8
1
 62
2
 10
-322.1269857288435
 20
86.89900830326829
 30
0
 11
-322.1269857288435
 21
93.2990083032683
 31
0
  0
LINE
  8
1
 62
2
 10
-322.1269857288435
 20
93.2990083032683
 30
0
 11
-322.1269857288435
 21
96.7990083032683
 31
0
  0
LINE
  8
1
 62
2
 10
-322.1269857288435
 20
96.7990083032683
 30
0
 11
-322.1269857288435
 21
108.73917115348
 31
0
  0
LINE
  8
1
 62
2
 10
-302.7875763940539
 20
93.2990083032683
 30
0
 11
-323.6269857288435
 21
93.2990083032683
 31
0
  0
LINE
  8
1
 62
2
 10
-303.1075763940539
 20
96.7990083032683
 30
0
 11
-323.6269857288435
 21
96.7990083032683
 31
0
  0
SOLID
  8
1
 62
2
 10
-322.1269857288435
 20
93.2990083032683
 30
0
 11
-321.7109857288435
 21
90.09900830326829
 31
0
 12
-322.5429857288435
 22
90.09900830326829
 32
0
 13
-322.5429857288435
 23
90.09900830326829
 33
0
  0
SOLID
  8
1
 62
2
 10
-322.1269857288435
 20
96.7990083032683
 30
0
 11
-322.5429857288435
 21
99.9990083032683
 31
0
 12
-321.7109857288435
 22
99.9990083032683
 32
0
 13
-321.7109857288435
 23
99.9990083032683
 33
0
  0
TEXT
  8
1
 62
2
 10
-324.1269857288435
 20
100.01917115348
 30
0
 40
3.2
  1
(3.5)
 50
90
 41
0.9
  0
ENDBLK
  8
0
  0
BLOCK
  8
1
  2
*D1
 70
1
 10
0
 20
0
 30
0
  0
LINE
  8
1
 62
2
 10
-332.8747601122335
 20
93.29900830326831
 30
0
 11
-332.8747601122335
 21
153.2170729120394
 31
0
  0
LINE
  8
1
 62
2
 10
-302.7875763940539
 20
93.29900830326831
 30
0
 11
-334.3747601122335
 21
93.29900830326831
 31
0
  0
LINE
  8
1
 62
2
 10
-304.4375763940538
 20
153.2170729120394
 30
0
 11
-334.3747601122335
 21
153.2170729120394
 31
0
  0
SOLID
  8
1
 62
2
 10
-332.8747601122335
 20
153.2170729120394
 30
0
 11
-332.4587601122335
 21
150.0170729120394
 31
0
 12
-333.2907601122335
 22
150.0170729120394
 32
0
 13
-333.2907601122335
 23
150.0170729120394
 33
0
  0
SOLID
  8
1
 62
2
 10
-332.8747601122335
 20
93.29900830326831
 30
0
 11
-333.2907601122335
 21
96.49900830326831
 31
0
 12
-332.4587601122335
 22
96.49900830326831
 32
0
 13
-332.4587601122335
 23
96.49900830326831
 33
0
  0
TEXT
  8
1
 62
2
 10
-335.6747601122335
 20
128.255629821475
 30
0
 40
3.2
  1
300
 50
90
 41
0.9
  0
TEXT
  8
1
 62
2
 10
-337.7547601122335
 20
137.535629821475
 30
0
 40
1.92
  1
+40
 50
90
 41
0.9
  0
TEXT
  8
1
 62
2
 10
-334.8747601122335
 20
137.535629821475
 30
0
 40
1.92
  1
 0
 50
90
 41
0.9
  0
ENDBLK
  8
0
  0
BLOCK
  8
0
  2
*D2
 70
1
 10
0
 20
0
 30
0
  0
LINE
  8
0
 62
2
 10
-137.5174396069864
 20
239.1305662833681
 30
0
 11
-97.91743210698638
 21
239.1305662833681
 31
0
  0
LINE
  8
0
 62
2
 10
-137.5174396069864
 20
201.3480646216077
 30
0
 11
-137.5174396069864
 21
240.1305662833681
 31
0
  0
LINE
  8
0
 62
2
 10
-97.91743210698638
 20
201.7170729120393
 30
0
 11
-97.91743210698638
 21
240.1305662833681
 31
0
  0
SOLID
  8
0
 62
2
 10
-137.5174396069864
 20
239.1305662833681
 30
0
 11
-134.3174396069864
 21
239.5465662833681
 31
0
 12
-134.3174396069864
 22
238.7145662833681
 32
0
 13
-134.3174396069864
 23
238.7145662833681
 33
0
  0
SOLID
  8
0
 62
2
 10
-97.91743210698638
 20
239.1305662833681
 30
0
 11
-101.1174321069864
 21
238.7145662833681
 31
0
 12
-101.1174321069864
 22
239.5465662833681
 32
0
 13
-101.1174321069864
 23
239.5465662833681
 33
0
  0
TEXT
  8
0
 62
2
 10
-124.787237454161
 20
240.7305662833681
 30
0
 40
3.2
  1
40
 41
0.9
  0
TEXT
  8
0
 62
2
 10
-118.387237454161
 20
240.7305662833681
 30
0
 40
3.2
  1
MAX.
 41
0.9
  0
ENDBLK
  8
0
  0
BLOCK
  8
0
  2
*D3
 70
1
 10
0
 20
0
 30
0
  0
LINE
  8
0
 62
2
 10
-131.1174396069864
 20
230.056345721786
 30
0
 11
-137.5174396069864
 21
230.056345721786
 31
0
  0
LINE
  8
0
 62
2
 10
-139.5174396069864
 20
230.056345721786
 30
0
 11
-137.5174396069864
 21
230.056345721786
 31
0
  0
LINE
  8
0
 62
2
 10
-139.5174396069864
 20
230.056345721786
 30
0
 11
-149.60709390541
 21
230.056345721786
 31
0
  0
LINE
  8
0
 62
2
 10
-139.5174396069864
 20
192.7170729120392
 30
0
 11
-139.5174396069864
 21
231.056345721786
 31
0
  0
LINE
  8
0
 62
2
 10
-137.5174396069864
 20
201.3480646216076
 30
0
 11
-137.5174396069864
 21
231.056345721786
 31
0
  0
SOLID
  8
0
 62
2
 10
-139.5174396069864
 20
230.056345721786
 30
0
 11
-142.7174396069864
 21
229.640345721786
 31
0
 12
-142.7174396069864
 22
230.472345721786
 32
0
 13
-142.7174396069864
 23
230.472345721786
 33
0
  0
SOLID
  8
0
 62
2
 10
-137.5174396069864
 20
230.056345721786
 30
0
 11
-134.3174396069864
 21
230.472345721786
 31
0
 12
-134.3174396069864
 22
229.640345721786
 32
0
 13
-134.3174396069864
 23
229.640345721786
 33
0
  0
TEXT
  8
0
 62
2
 10
-149.60709390541
 20
231.656345721786
 30
0
 40
3.2
  1
2
 41
0.9
  0
TEXT
  8
0
 62
2
 10
-146.08709390541
 20
232.296345721786
 30
0
 40
1.92
  1
%%p0.2
 41
0.9
  0
ENDBLK
  8
0
  0
BLOCK
  8
0
  2
*D4
 70
1
 10
0
 20
0
 30
0
  0
LINE
  8
0
 62
2
 10
-183.06848888445
 20
169.7170729120393
 30
0
 11
-183.06848888445
 21
191.7170729120392
 31
0
  0
LINE
  8
0
 62
2
 10
-140.5175396069865
 20
169.7170729120393
 30
0
 11
-184.06848888445
 21
169.7170729120393
 31
0
  0
LINE
  8
0
 62
2
 10
-140.5174396069864
 20
191.7170729120392
 30
0
 11
-184.06848888445
 21
191.7170729120392
 31
0
  0
SOLID
  8
0
 62
2
 10
-183.06848888445
 20
191.7170729120392
 30
0
 11
-182.65248888445
 21
188.5170729120392
 31
0
 12
-183.48448888445
 22
188.5170729120392
 32
0
 13
-183.48448888445
 23
188.5170729120392
 33
0
  0
SOLID
  8
0
 62
2
 10
-183.06848888445
 20
169.7170729120393
 30
0
 11
-183.48448888445
 21
172.9170729120393
 31
0
 12
-182.65248888445
 22
172.9170729120393
 32
0
 13
-182.65248888445
 23
172.9170729120393
 33
0
  0
TEXT
  8
0
 62
2
 10
-185.46848888445
 20
175.988185314255
 30
0
 40
3.2
  1
22
 50
90
 41
0.9
  0
TEXT
  8
0
 62
2
 10
-187.54848888445
 20
182.388185314255
 30
0
 40
1.92
  1
0
 50
90
 41
0.9
  0
TEXT
  8
0
 62
2
 10
-184.66848888445
 20
182.388185314255
 30
0
 40
1.92
  1
-0.05
 50
90
 41
0.9
  0
TEXT
  8
0
 62
2
 10
-185.46848888445
 20
172.148185314255
 30
0
 40
3.2
  1
%%c
 50
90
 41
0.9
  0
ENDBLK
  8
0
  0
BLOCK
  8
0
  2
*D5
 70
1
 10
0
 20
0
 30
0
  0
LINE
  8
0
 62
2
 10
-312.437577584873
 20
226.7170729120392
 30
0
 11
-270.4375763940537
 21
226.7170729120392
 31
0
  0
LINE
  8
0
 62
2
 10
-270.4375763940537
 20
197.7170729120392
 30
0
 11
-270.4375763940537
 21
227.7170729120392
 31
0
  0
LINE
  8
0
 62
2
 10
-312.437577584873
 20
197.7170741028588
 30
0
 11
-312.437577584873
 21
227.7170729120392
 31
0
  0
SOLID
  8
0
 62
2
 10
-312.437577584873
 20
226.7170729120392
 30
0
 11
-309.237577584873
 21
227.1330729120392
 31
0
 12
-309.237577584873
 22
226.3010729120392
 32
0
 13
-309.237577584873
 23
226.3010729120392
 33
0
  0
SOLID
  8
0
 62
2
 10
-270.4375763940537
 20
226.7170729120392
 30
0
 11
-273.6375763940537
 21
226.3010729120392
 31
0
 12
-273.6375763940537
 22
227.1330729120392
 32
0
 13
-273.6375763940537
 23
227.1330729120392
 33
0
  0
TEXT
  8
0
 62
2
 10
-293.8375769894634
 20
228.3170729120392
 30
0
 40
3.2
  1
42
 41
0.9
  0
TEXT
  8
0
 62
2
 10
-295.9175769894634
 20
228.3170729120392
 30
0
 40
3.2
  1
(
 41
0.9
  0
TEXT
  8
0
 62
2
 10
-287.4375769894634
 20
228.3170729120392
 30
0
 40
3.2
  1
)
 41
0.9
  0
ENDBLK
  8
0
  0
BLOCK
  8
0
  2
*D6
 70
1
 10
0
 20
0
 30
0
  0
LINE
  8
0
 62
2
 10
-306.9375663940535
 20
216.7170729120392
 30
0
 11
-275.9375763940537
 21
216.7170729120392
 31
0
  0
LINE
  8
0
 62
2
 10
-306.9375663940535
 20
198.7170729120392
 30
0
 11
-306.9375663940535
 21
217.7170729120392
 31
0
  0
LINE
  8
0
 62
2
 10
-275.9375763940537
 20
198.7170729120392
 30
0
 11
-275.9375763940537
 21
217.7170729120392
 31
0
  0
SOLID
  8
0
 62
2
 10
-306.9375663940535
 20
216.7170729120392
 30
0
 11
-303.7375663940535
 21
217.1330729120392
 31
0
 12
-303.7375663940535
 22
216.3010729120392
 32
0
 13
-303.7375663940535
 23
216.3010729120392
 33
0
  0
SOLID
  8
0
 62
2
 10
-275.9375763940537
 20
216.7170729120392
 30
0
 11
-279.1375763940537
 21
216.3010729120392
 31
0
 12
-279.1375763940537
 22
217.1330729120392
 32
0
 13
-279.1375763940537
 23
217.1330729120392
 33
0
  0
TEXT
  8
0
 62
2
 10
-296.5815763940537
 20
218.3170729120392
 30
0
 40
3.2
  1
31
 41
0.9
  0
TEXT
  8
0
 62
2
 10
-291.1415763940537
 20
218.9570729120392
 30
0
 40
1.92
  1
%%p0.2
 41
0.9
  0
ENDBLK
  8
0
  0
BLOCK
  8
1
  2
*D7
 70
1
 10
0
 20
0
 30
0
  0
LINE
  8
1
 62
2
 10
-253.0151906846922
 20
165.2170729120393
 30
0
 11
-253.0151906846922
 21
196.2170729120392
 31
0
  0
LINE
  8
1
 62
2
 10
-272.4375763940537
 20
196.2170729120392
 30
0
 11
-252.0151906846922
 21
196.2170729120392
 31
0
  0
LINE
  8
1
 62
2
 10
-272.4375763940537
 20
165.2170729120393
 30
0
 11
-252.0151906846922
 21
165.2170729120393
 31
0
  0
SOLID
  8
1
 62
2
 10
-253.0151906846922
 20
196.2170729120392
 30
0
 11
-252.5991906846922
 21
193.0170729120392
 31
0
 12
-253.4311906846922
 22
193.0170729120392
 32
0
 13
-253.4311906846922
 23
193.0170729120392
 33
0
  0
SOLID
  8
1
 62
2
 10
-253.0151906846922
 20
165.2170729120393
 30
0
 11
-253.4311906846922
 21
168.4170729120393
 31
0
 12
-252.5991906846922
 22
168.4170729120393
 32
0
 13
-252.5991906846922
 23
168.4170729120393
 33
0
  0
TEXT
  8
1
 62
2
 10
-255.0151906846922
 20
176.147499179405
 30
0
 40
3.200000000000001
  1
31
 50
90
 41
0.9
  0
TEXT
  8
1
 62
2
 10
-255.6551906846922
 20
181.587499179405
 30
0
 40
1.920000000000001
  1
%%p0.2
 50
90
 41
0.9
  0
ENDBLK
  8
0
  0
BLOCK
  8
1
  2
*D8
 70
1
 10
0
 20
0
 30
0
  0
LINE
  8
1
 62
2
 10
-173.471724462778
 20
178.2170729120392
 30
0
 11
-173.471724462778
 21
183.2170729120392
 31
0
  0
LINE
  8
1
 62
2
 10
-173.471724462778
 20
178.2170729120392
 30
0
 11
-173.471724462778
 21
171.8170729120392
 31
0
  0
LINE
  8
1
 62
2
 10
-173.471724462778
 20
183.2170729120392
 30
0
 11
-173.471724462778
 21
189.6170729120392
 31
0
  0
LINE
  8
1
 62
2
 10
-162.5174509706228
 20
178.2170729120392
 30
0
 11
-174.971724462778
 21
178.2170729120392
 31
0
  0
LINE
  8
1
 62
2
 10
-147.5174402045423
 20
183.2170729120392
 30
0
 11
-174.971724462778
 21
183.2170729120392
 31
0
  0
SOLID
  8
1
 62
2
 10
-173.471724462778
 20
178.2170729120392
 30
0
 11
-173.055724462778
 21
175.0170729120392
 31
0
 12
-173.887724462778
 22
175.0170729120392
 32
0
 13
-173.887724462778
 23
175.0170729120392
 33
0
  0
SOLID
  8
1
 62
2
 10
-173.471724462778
 20
183.2170729120392
 30
0
 11
-173.887724462778
 21
186.4170729120392
 31
0
 12
-173.055724462778
 22
186.4170729120392
 32
0
 13
-173.055724462778
 23
186.4170729120392
 33
0
  0
TEXT
  8
1
 62
2
 10
-176.3250577961114
 20
177.4836338365617
 30
0
 40
3.2
  1
5
 50
90
 41
0.9
  0
TEXT
  8
1
 62
2
 10
-178.4050577961114
 20
181.0036338365617
 30
0
 40
1.92
  1
 0
 50
90
 41
0.9
  0
TEXT
  8
1
 62
2
 10
-175.5250577961114
 20
181.0036338365617
 30
0
 40
1.92
  1
-0.011
 50
90
 41
0.9
  0
TEXT
  8
1
 62
2
 10
-176.3250577961114
 20
173.4365750130323
 30
0
 40
3.2
  1
âË
 50
90
 41
0.9
  0
ENDBLK
  8
0
  0
BLOCK
  8
1
  2
*D9
 70
1
 10
0
 20
0
 30
0
  0
LINE
  8
1
 62
2
 10
-161.5174384331781
 20
219.167281047888
 30
0
 11
-146.5174402045423
 21
219.167281047888
 31
0
  0
LINE
  8
1
 62
2
 10
-161.5174384331781
 20
183.7170729120392
 30
0
 11
-161.5174384331781
 21
220.667281047888
 31
0
  0
LINE
  8
1
 62
2
 10
-146.5174402045423
 20
184.2170729120392
 30
0
 11
-146.5174402045423
 21
220.667281047888
 31
0
  0
SOLID
  8
1
 62
2
 10
-161.5174384331781
 20
219.167281047888
 30
0
 11
-158.3174384331781
 21
219.583281047888
 31
0
 12
-158.3174384331781
 22
218.751281047888
 32
0
 13
-158.3174384331781
 23
218.751281047888
 33
0
  0
SOLID
  8
1
 62
2
 10
-146.5174402045423
 20
219.167281047888
 30
0
 11
-149.7174402045422
 21
218.751281047888
 31
0
 12
-149.7174402045422
 22
219.583281047888
 32
0
 13
-149.7174402045422
 23
219.583281047888
 33
0
  0
TEXT
  8
1
 62
2
 10
-159.118218392114
 20
221.167281047888
 30
0
 40
3.2
  1
15
 41
0.9
  0
TEXT
  8
1
 62
2
 10
-153.678218392114
 20
221.647281047888
 30
0
 40
2.24
  1
%%p0.2
 41
0.9900000000000001
  0
ENDBLK
  8
0
  0
BLOCK
  8
1
  2
*D10
 70
1
 10
0
 20
0
 30
0
  0
LINE
  8
1
 62
2
 10
-161.5174384331781
 20
239.130566283368
 30
0
 11
-137.5174396069864
 21
239.130566283368
 31
0
  0
LINE
  8
1
 62
2
 10
-161.5174384331781
 20
183.7170729120392
 30
0
 11
-161.5174384331781
 21
240.630566283368
 31
0
  0
LINE
  8
1
 62
2
 10
-137.5174396069864
 20
201.7170729120392
 30
0
 11
-137.5174396069864
 21
240.630566283368
 31
0
  0
SOLID
  8
1
 62
2
 10
-161.5174384331781
 20
239.130566283368
 30
0
 11
-158.3174384331781
 21
239.546566283368
 31
0
 12
-158.3174384331781
 22
238.714566283368
 32
0
 13
-158.3174384331781
 23
238.714566283368
 33
0
  0
SOLID
  8
1
 62
2
 10
-137.5174396069864
 20
239.130566283368
 30
0
 11
-140.7174396069864
 21
238.714566283368
 31
0
 12
-140.7174396069864
 22
239.546566283368
 32
0
 13
-140.7174396069864
 23
239.546566283368
 33
0
  0
TEXT
  8
1
 62
2
 10
-154.556984746791
 20
241.130566283368
 30
0
 40
3.2
  1
24
 41
0.9
  0
TEXT
  8
1
 62
2
 10
-148.156984746791
 20
241.610566283368
 30
0
 40
2.24
  1
%%p0.5
 41
0.9900000000000001
  0
ENDBLK
  8
0
  0
BLOCK
  8
1
  2
*D11
 70
1
 10
0
 20
0
 30
0
  0
LINE
  8
1
 62
2
 10
-97.91743210698638
 20
239.130566283368
 30
0
 11
-81.91743885698529
 21
239.130566283368
 31
0
  0
LINE
  8
1
 62
2
 10
-97.91743210698638
 20
201.7170729120392
 30
0
 11
-97.91743210698638
 21
240.630566283368
 31
0
  0
LINE
  8
1
 62
2
 10
-81.91743885698529
 20
183.7170729120392
 30
0
 11
-81.91743885698529
 21
240.630566283368
 31
0
  0
SOLID
  8
1
 62
2
 10
-97.91743210698638
 20
239.130566283368
 30
0
 11
-94.71743210698638
 21
239.546566283368
 31
0
 12
-94.71743210698638
 22
238.714566283368
 32
0
 13
-94.71743210698638
 23
238.714566283368
 33
0
  0
SOLID
  8
1
 62
2
 10
-81.91743885698529
 20
239.130566283368
 30
0
 11
-85.11743885698529
 21
238.714566283368
 31
0
 12
-85.11743885698529
 22
239.546566283368
 32
0
 13
-85.11743885698529
 23
239.546566283368
 33
0
  0
TEXT
  8
1
 62
2
 10
-91.36622511522809
 20
241.130566283368
 30
0
 40
3.2
  1
16
 41
0.9
  0
TEXT
  8
1
 62
2
 10
-93.6862251152281
 20
241.130566283368
 30
0
 40
3.2
  1
(
 41
1.35
  0
TEXT
  8
1
 62
2
 10
-85.92622511522809
 20
241.130566283368
 30
0
 40
3.2
  1
)
 41
0.9
  0
ENDBLK
  8
0
  0
BLOCK
  8
1
  2
*D12
 70
1
 10
0
 20
0
 30
0
  0
LINE
  8
1
 62
2
 10
-96.91743866948634
 20
219.167281047888
 30
0
 11
-81.91743885698529
 21
219.167281047888
 31
0
  0
LINE
  8
1
 62
2
 10
-96.91743866948634
 20
184.2170729120392
 30
0
 11
-96.91743866948634
 21
220.667281047888
 31
0
  0
LINE
  8
1
 62
2
 10
-81.91743885698529
 20
183.7170729120392
 30
0
 11
-81.91743885698529
 21
220.667281047888
 31
0
  0
SOLID
  8
1
 62
2
 10
-96.91743866948634
 20
219.167281047888
 30
0
 11
-93.71743866948634
 21
219.583281047888
 31
0
 12
-93.71743866948634
 22
218.751281047888
 32
0
 13
-93.71743866948634
 23
218.751281047888
 33
0
  0
SOLID
  8
1
 62
2
 10
-81.91743885698529
 20
219.167281047888
 30
0
 11
-85.11743885698529
 21
218.751281047888
 31
0
 12
-85.11743885698529
 22
219.583281047888
 32
0
 13
-85.11743885698529
 23
219.583281047888
 33
0
  0
TEXT
  8
1
 62
2
 10
-95.3588159668456
 20
221.167281047888
 30
0
 40
3.2
  1
15
 41
0.9
  0
TEXT
  8
1
 62
2
 10
-89.9188159668456
 20
221.647281047888
 30
0
 40
2.24
  1
%%p0.2
 41
0.9900000000000001
  0
ENDBLK
  8
0
  0
BLOCK
  8
1
  2
*D13
 70
1
 10
0
 20
0
 30
0
  0
LINE
  8
1
 62
2
 10
-60.63614845868641
 20
171.8170729120392
 30
0
 11
-60.63614845868641
 21
178.2170729120392
 31
0
  0
LINE
  8
1
 62
2
 10
-60.63614845868641
 20
178.2170729120392
 30
0
 11
-60.63614845868641
 21
183.2170729120392
 31
0
  0
LINE
  8
1
 62
2
 10
-60.63614845868641
 20
183.2170729120392
 30
0
 11
-60.63614845868641
 21
205.781266391509
 31
0
  0
LINE
  8
1
 62
2
 10
-80.91744054448529
 20
178.2170729120392
 30
0
 11
-59.13614845868641
 21
178.2170729120392
 31
0
  0
LINE
  8
1
 62
2
 10
-95.91743866948634
 20
183.2170729120392
 30
0
 11
-59.13614845868641
 21
183.2170729120392
 31
0
  0
SOLID
  8
1
 62
2
 10
-60.63614845868641
 20
183.2170729120392
 30
0
 11
-61.05214845868641
 21
186.4170729120392
 31
0
 12
-60.22014845868641
 22
186.4170729120392
 32
0
 13
-60.22014845868641
 23
186.4170729120392
 33
0
  0
SOLID
  8
1
 62
2
 10
-60.63614845868641
 20
178.2170729120392
 30
0
 11
-60.22014845868641
 21
175.0170729120392
 31
0
 12
-61.0521484586864
 22
175.0170729120392
 32
0
 13
-61.0521484586864
 23
175.0170729120392
 33
0
  0
TEXT
  8
1
 62
2
 10
-63.8361484586864
 20
192.8364663915091
 30
0
 40
3.2
  1
5
 50
90
 41
0.9
  0
TEXT
  8
1
 62
2
 10
-65.99614845868641
 20
196.3564663915091
 30
0
 40
2.24
  1
 0
 50
90
 41
0.9900000000000001
  0
TEXT
  8
1
 62
2
 10
-62.63614845868641
 20
196.3564663915091
 30
0
 40
2.24
  1
-0.011
 50
90
 41
0.9900000000000001
  0
TEXT
  8
1
 62
2
 10
-63.8361484586864
 20
187.5658781562149
 30
0
 40
3.2
  1
âË
 50
90
 41
1.35
  0
ENDBLK
  8
0
  0
BLOCK
  8
1
  2
*D14
 70
1
 10
0
 20
0
 30
0
  0
LINE
  8
1
 62
2
 10
-72.72065937957059
 20
171.8170694632458
 30
0
 11
-72.72065697957059
 21
178.2170694632454
 31
0
  0
LINE
  8
1
 62
2
 10
-72.72065697957059
 20
178.2170694632454
 30
0
 11
-72.72065529207059
 21
182.7170694632454
 31
0
  0
LINE
  8
1
 62
2
 10
-72.72065529207059
 20
182.7170694632454
 30
0
 11
-72.7206484549927
 21
200.9492771554855
 31
0
  0
LINE
  8
1
 62
2
 10
-80.91744054448536
 20
178.2170725370392
 30
0
 11
-71.22065697957069
 21
178.2170689007454
 31
0
  0
LINE
  8
1
 62
2
 10
-80.91743885698536
 20
182.7170725370392
 30
0
 11
-71.22065529207069
 21
182.7170689007454
 31
0
  0
SOLID
  8
1
 62
2
 10
-72.72065529207059
 20
182.7170694632454
 30
0
 11
-73.13665409207056
 21
185.9170696192452
 31
0
 12
-72.30465409207062
 22
185.9170693072451
 32
0
 13
-72.30465409207062
 23
185.9170693072451
 33
0
  0
SOLID
  8
1
 62
2
 10
-72.72065697957059
 20
178.2170694632454
 30
0
 11
-72.30465817957062
 21
175.0170693072456
 31
0
 12
-73.13665817957056
 22
175.0170696192456
 32
0
 13
-73.13665817957056
 23
175.0170696192456
 33
0
  0
TEXT
  8
1
 62
2
 10
-74.72065330089257
 20
188.0268779054864
 30
0
 40
3.2
  1
4.5
 50
89.99997851408264
 41
0.9
  0
TEXT
  8
1
 62
2
 10
-75.20065051089253
 20
195.4668780854859
 30
0
 40
2.24
  1
%%p0.1
 50
89.99997851408264
 41
0.9900000000000001
  0
ENDBLK
  8
0
  0
BLOCK
  8
1
  2
*D15
 70
1
 10
0
 20
0
 30
0
  0
LINE
  8
1
 62
2
 10
-168.1934289770408
 20
189.1170915120335
 30
0
 11
-168.1934468080733
 21
182.7170915120583
 31
0
  0
LINE
  8
1
 62
2
 10
-168.1934593455179
 20
178.2170915120583
 30
0
 11
-168.1934468080733
 21
182.7170915120583
 31
0
  0
LINE
  8
1
 62
2
 10
-168.1934593455179
 20
178.2170915120583
 30
0
 11
-168.1935220324007
 21
155.7172138025621
 31
0
  0
LINE
  8
1
 62
2
 10
-162.5174509706189
 20
178.2170756981381
 30
0
 11
-169.6934593455121
 21
178.2170956912065
 31
0
  0
LINE
  8
1
 62
2
 10
-162.5174384331742
 20
182.7170756981381
 30
0
 11
-169.6934468080674
 21
182.7170956912065
 31
0
  0
SOLID
  8
1
 62
2
 10
-168.1934468080733
 20
182.7170915120583
 30
0
 11
-168.6094378925554
 21
185.917092671063
 31
0
 12
-167.7774378925587
 22
185.9170903530288
 32
0
 13
-167.7774378925587
 23
185.9170903530288
 33
0
  0
SOLID
  8
1
 62
2
 10
-168.1934593455179
 20
178.2170915120583
 30
0
 11
-167.7774682610358
 21
175.0170903530536
 31
0
 12
-168.6094682610326
 22
175.0170926710878
 32
0
 13
-168.6094682610326
 23
175.0170926710878
 33
0
  0
TEXT
  8
1
 62
2
 10
-170.1935220323929
 20
155.7172193747598
 30
0
 40
3.2
  1
4.5
 50
89.99984036829632
 41
0.9
  0
TEXT
  8
1
 62
2
 10
-170.6735013038158
 20
163.1572207120583
 30
0
 40
2.24
  1
%%p0.1
 50
89.99984036829632
 41
0.9900000000000001
  0
ENDBLK
  8
0
  0
BLOCK
  8
1
  2
*D16
 70
1
 10
0
 20
0
 30
0
  0
LINE
  8
1
 62
2
 10
-245.437619919824
 20
166.1170743868716
 30
0
 11
-245.437619919824
 21
159.7170743868716
 31
0
  0
LINE
  8
1
 62
2
 10
-245.437619919824
 20
155.1670729120393
 30
0
 11
-245.437619919824
 21
159.7170743868716
 31
0
  0
LINE
  8
1
 62
2
 10
-245.437619919824
 20
155.1670729120393
 30
0
 11
-245.437619919824
 21
143.5148602687547
 31
0
  0
LINE
  8
1
 62
2
 10
-278.4875763940538
 20
155.1670729120393
 30
0
 11
-243.937619919824
 21
155.1670729120393
 31
0
  0
LINE
  8
1
 62
2
 10
-274.4375778688856
 20
159.7170743868716
 30
0
 11
-243.937619919824
 21
159.7170743868716
 31
0
  0
SOLID
  8
1
 62
2
 10
-245.437619919824
 20
159.7170743868716
 30
0
 11
-245.853619919824
 21
162.9170743868716
 31
0
 12
-245.021619919824
 22
162.9170743868716
 32
0
 13
-245.021619919824
 23
162.9170743868716
 33
0
  0
SOLID
  8
1
 62
2
 10
-245.437619919824
 20
155.1670729120393
 30
0
 11
-245.021619919824
 21
151.9670729120393
 31
0
 12
-245.853619919824
 22
151.9670729120393
 32
0
 13
-245.853619919824
 23
151.9670729120393
 33
0
  0
TEXT
  8
1
 62
2
 10
-247.437619919824
 20
145.5948602687547
 30
0
 40
3.2
  1
4.6
 50
90
 41
0.9
  0
TEXT
  8
1
 62
2
 10
-247.437619919824
 20
143.5148602687547
 30
0
 40
3.2
  1
(
 50
90
 41
0.9
  0
TEXT
  8
1
 62
2
 10
-247.437619919824
 20
153.0348602687547
 30
0
 40
3.2
  1
)
 50
90
 41
0.9
  0
ENDBLK
  8
0
  0
BLOCK
  8
1
  2
*D17
 70
1
 10
0
 20
0
 30
0
  0
LINE
  8
1
 62
2
 10
-332.8747601122336
 20
146.8170729120394
 30
0
 11
-332.8747601122336
 21
153.2170729120394
 31
0
  0
LINE
  8
1
 62
2
 10
-332.8747601122336
 20
153.2170729120394
 30
0
 11
-332.8747601122336
 21
159.7170838257988
 31
0
  0
LINE
  8
1
 62
2
 10
-332.8747601122336
 20
159.7170838257988
 30
0
 11
-332.8747601122336
 21
174.7934555776305
 31
0
  0
LINE
  8
1
 62
2
 10
-303.8375763940539
 20
153.2170729120394
 30
0
 11
-334.3747601122336
 21
153.2170729120394
 31
0
  0
LINE
  8
1
 62
2
 10
-308.437586680948
 20
159.7170838257988
 30
0
 11
-334.3747601122336
 21
159.7170838257988
 31
0
  0
SOLID
  8
1
 62
2
 10
-332.8747601122336
 20
159.7170838257988
 30
0
 11
-333.2907601122336
 21
162.9170838257988
 31
0
 12
-332.4587601122336
 22
162.9170838257988
 32
0
 13
-332.4587601122336
 23
162.9170838257988
 33
0
  0
SOLID
  8
1
 62
2
 10
-332.8747601122336
 20
153.2170729120394
 30
0
 11
-332.4587601122336
 21
150.0170729120394
 31
0
 12
-333.2907601122336
 22
150.0170729120394
 32
0
 13
-333.2907601122336
 23
150.0170729120394
 33
0
  0
TEXT
  8
1
 62
2
 10
-334.8747601122335
 20
166.8734555776305
 30
0
 40
3.2
  1
6.5
 50
90
 41
0.9
  0
TEXT
  8
1
 62
2
 10
-334.8747601122335
 20
161.0287496952775
 30
0
 40
3.2
  1
üª(
 50
90
 41
0.9
  0
TEXT
  8
1
 62
2
 10
-334.8747601122335
 20
174.3134555776305
 30
0
 40
3.2
  1
)
 50
90
 41
0.9
  0
ENDBLK
  8
0
  0
BLOCK
  8
1
  2
*D18
 70
1
 10
0
 20
0
 30
0
  0
LINE
  8
1
 62
2
 10
-245.4375763940537
 20
159.7170743868716
 30
0
 11
-245.4375763940537
 21
201.7170729120392
 31
0
  0
LINE
  8
1
 62
2
 10
-274.4375778688856
 20
159.7170743868716
 30
0
 11
-243.9375763940537
 21
159.7170743868716
 31
0
  0
LINE
  8
1
 62
2
 10
-274.4375763940537
 20
201.7170729120392
 30
0
 11
-243.9375763940537
 21
201.7170729120392
 31
0
  0
SOLID
  8
1
 62
2
 10
-245.4375763940537
 20
201.7170729120392
 30
0
 11
-245.0215763940537
 21
198.5170729120392
 31
0
 12
-245.8535763940537
 22
198.5170729120392
 32
0
 13
-245.8535763940537
 23
198.5170729120392
 33
0
  0
SOLID
  8
1
 62
2
 10
-245.4375763940537
 20
159.7170743868716
 30
0
 11
-245.8535763940537
 21
162.9170743868716
 31
0
 12
-245.0215763940537
 22
162.9170743868716
 32
0
 13
-245.0215763940537
 23
162.9170743868716
 33
0
  0
TEXT
  8
1
 62
2
 10
-247.4375763940537
 20
179.150916060879
 30
0
 40
3.2
  1
42
 50
90
 41
0.9
  0
TEXT
  8
1
 62
2
 10
-247.4375763940537
 20
177.070916060879
 30
0
 40
3.2
  1
(
 50
90
 41
0.9
  0
TEXT
  8
1
 62
2
 10
-247.4375763940537
 20
185.550916060879
 30
0
 40
3.2
  1
)
 50
90
 41
0.9
  0
ENDBLK
  8
0
  0
ENDSEC
  0
SECTION
  2
ENTITIES
  0
LINE
  8
1
 62
3
 10
-292.9375763940537
 20
182.7170729120392
 30
0
 11
-289.9375763940537
 21
182.7170729120392
 31
0
  0
LINE
  8
1
 62
2
 10
-268.2809108468005
 20
112.058293305242
 30
0
 11
-205.4811313590436
 21
112.058293305242
 31
0
  0
LINE
  8
1
 62
2
 10
-362.857355586891
 20
50.24810746355097
 30
0
 11
-272.857355586891
 21
50.24810746355097
 31
0
  0
LINE
  8
1
 62
2
 10
-362.857355586891
 20
64.24810746355092
 30
0
 11
-272.857355586891
 21
64.24810746355092
 31
0
  0
LINE
  8
1
 62
2
 10
-272.857355586891
 20
38.24810746355097
 30
0
 11
-362.857355586891
 21
38.24810746355097
 31
0
  0
LINE
  8
1
 62
2
 10
-362.857355586891
 20
38.24810746355097
 30
0
 11
-362.857355586891
 21
64.24810746355092
 31
0
  0
LINE
  8
1
 62
2
 10
-362.857355586891
 20
57.24810746355092
 30
0
 11
-272.857355586891
 21
57.24810746355092
 31
0
  0
LINE
  8
1
 62
2
 10
-279.2502317965881
 20
56.63918807021712
 30
0
 11
-276.560742585377
 21
56.63918807021712
 31
0
  0
LINE
  8
1
 62
2
 10
-309.506985422706
 20
56.39468905101602
 30
0
 11
-306.0228743990921
 21
56.39468905101602
 31
0
  0
LINE
  8
1
 62
2
 10
-272.857355586891
 20
64.24810746355092
 30
0
 11
-272.857355586891
 21
38.24810746355097
 31
0
  0
LINE
  8
1
 62
2
 10
-332.857355586891
 20
64.24810746355092
 30
0
 11
-332.857355586891
 21
38.24810746355097
 31
0
  0
LINE
  8
1
 62
2
 10
-322.857355586891
 20
64.24810746355092
 30
0
 11
-322.857355586891
 21
38.24810746355097
 31
0
  0
LINE
  8
1
 62
2
 10
-312.857355586891
 20
64.24810746355092
 30
0
 11
-312.857355586891
 21
38.24810746355097
 31
0
  0
LINE
  8
1
 62
2
 10
-302.857355586891
 20
64.24810746355092
 30
0
 11
-302.857355586891
 21
38.24810746355097
 31
0
  0
LINE
  8
1
 62
2
 10
-292.857355586891
 20
64.24810746355092
 30
0
 11
-292.857355586891
 21
38.24810746355097
 31
0
  0
LINE
  8
1
 62
2
 10
-282.857355586891
 20
64.24810746355092
 30
0
 11
-282.857355586891
 21
38.24810746355097
 31
0
  0
LINE
  8
1
 62
3
 10
-302.1075763940539
 20
96.79900830326831
 30
0
 11
-300.8675763940538
 21
96.79900830326831
 31
0
  0
LINE
  8
1
 62
3
 10
-302.1075763940539
 20
149.8405818422595
 30
0
 11
-302.1075763940539
 21
153.2170729120394
 31
0
  0
LINE
  8
1
 62
3
 10
-300.8675763940539
 20
149.8405818422595
 30
0
 11
-300.8675763940539
 21
153.2170729120394
 31
0
  0
LINE
  8
1
 62
3
 10
-298.1075763940539
 20
149.8405818422595
 30
0
 11
-298.1075763940539
 21
153.2170729120394
 31
0
  0
LINE
  8
1
 62
3
 10
-296.8675763940539
 20
149.8405818422595
 30
0
 11
-296.8675763940539
 21
153.2170729120394
 31
0
  0
LINE
  8
1
 62
3
 10
-294.1075763940538
 20
149.8405818422595
 30
0
 11
-294.1075763940538
 21
153.2170729120394
 31
0
  0
LINE
  8
1
 62
3
 10
-292.8675763940539
 20
149.8405818422595
 30
0
 11
-292.8675763940539
 21
153.2170729120394
 31
0
  0
LINE
  8
1
 62
3
 10
-290.1075763940538
 20
149.8405818422595
 30
0
 11
-290.1075763940538
 21
153.2170729120394
 31
0
  0
LINE
  8
1
 62
3
 10
-288.8675763940539
 20
149.8405818422595
 30
0
 11
-288.8675763940539
 21
153.2170729120394
 31
0
  0
LINE
  8
1
 62
3
 10
-286.1075763940538
 20
149.8405818422595
 30
0
 11
-286.1075763940538
 21
153.2170729120394
 31
0
  0
LINE
  8
1
 62
3
 10
-284.8675763940539
 20
149.8405818422595
 30
0
 11
-284.8675763940539
 21
153.2170729120394
 31
0
  0
LINE
  8
1
 62
3
 10
-282.1075763940538
 20
149.8405818422595
 30
0
 11
-282.1075763940538
 21
153.2170729120394
 31
0
  0
LINE
  8
1
 62
3
 10
-280.8675763940539
 20
149.8405818422595
 30
0
 11
-280.8675763940539
 21
153.2170729120394
 31
0
  0
LINE
  8
1
 62
2
 10
-304.1075763940539
 20
121.9400735500307
 30
0
 11
-278.8675763940539
 21
121.9400735500307
 31
0
  0
LINE
  8
1
 62
2
 10
-304.1075763940539
 20
122.9400735500307
 30
0
 11
-278.8675763940539
 21
122.9400735500307
 31
0
  0
LINE
  8
1
 62
3
 10
-280.8675763940539
 20
121.9400735500307
 30
0
 11
-280.8675763940539
 21
96.79900830326831
 31
0
  0
LINE
  8
1
 62
3
 10
-282.1075763940538
 20
121.9400735500307
 30
0
 11
-282.1075763940538
 21
96.79900830326831
 31
0
  0
LINE
  8
1
 62
3
 10
-284.8675763940539
 20
121.9400735500307
 30
0
 11
-284.8675763940539
 21
96.79900830326831
 31
0
  0
LINE
  8
1
 62
3
 10
-286.1075763940538
 20
121.9400735500307
 30
0
 11
-286.1075763940538
 21
96.79900830326831
 31
0
  0
LINE
  8
1
 62
3
 10
-288.8675763940539
 20
121.9400735500307
 30
0
 11
-288.8675763940539
 21
96.79900830326831
 31
0
  0
LINE
  8
1
 62
3
 10
-290.1075763940539
 20
121.9400735500307
 30
0
 11
-290.1075763940538
 21
96.79900830326831
 31
0
  0
LINE
  8
1
 62
3
 10
-292.8675763940539
 20
121.9400735500307
 30
0
 11
-292.8675763940539
 21
96.79900830326831
 31
0
  0
LINE
  8
1
 62
3
 10
-294.1075763940538
 20
121.9400735500307
 30
0
 11
-294.1075763940538
 21
96.79900830326831
 31
0
  0
LINE
  8
1
 62
3
 10
-296.8675763940539
 20
121.9400735500307
 30
0
 11
-296.8675763940539
 21
96.79900830326831
 31
0
  0
LINE
  8
1
 62
3
 10
-298.1075763940538
 20
121.9400735500307
 30
0
 11
-298.1075763940539
 21
96.79900830326831
 31
0
  0
LINE
  8
1
 62
3
 10
-300.8675763940539
 20
121.9400735500307
 30
0
 11
-300.8675763940538
 21
96.79900830326831
 31
0
  0
LINE
  8
1
 62
3
 10
-302.1075763940539
 20
121.9400735500307
 30
0
 11
-302.1075763940539
 21
96.79900830326831
 31
0
  0
LINE
  8
1
 62
3
 10
-302.1075763940539
 20
149.8405818422595
 30
0
 11
-302.1075763940539
 21
141.966818765925
 31
0
  0
LINE
  8
1
 62
3
 10
-300.8675763940539
 20
141.966818765925
 30
0
 11
-300.8675763940539
 21
149.8405818422595
 31
0
  0
LINE
  8
1
 62
3
 10
-298.1075763940539
 20
141.966818765925
 30
0
 11
-298.1075763940539
 21
149.8405818422595
 31
0
  0
LINE
  8
1
 62
3
 10
-296.8675763940539
 20
141.966818765925
 30
0
 11
-296.8675763940539
 21
149.8405818422595
 31
0
  0
LINE
  8
1
 62
3
 10
-294.1075763940538
 20
141.966818765925
 30
0
 11
-294.1075763940538
 21
149.8405818422595
 31
0
  0
LINE
  8
1
 62
3
 10
-292.8675763940539
 20
141.966818765925
 30
0
 11
-292.8675763940539
 21
149.8405818422595
 31
0
  0
LINE
  8
1
 62
3
 10
-290.1075763940538
 20
141.966818765925
 30
0
 11
-290.1075763940538
 21
149.8405818422595
 31
0
  0
LINE
  8
1
 62
3
 10
-288.8675763940539
 20
141.966818765925
 30
0
 11
-288.8675763940539
 21
149.8405818422595
 31
0
  0
LINE
  8
1
 62
3
 10
-286.1075763940538
 20
141.966818765925
 30
0
 11
-286.1075763940538
 21
149.8405818422595
 31
0
  0
LINE
  8
1
 62
3
 10
-284.8675763940539
 20
141.966818765925
 30
0
 11
-284.8675763940539
 21
149.8405818422595
 31
0
  0
LINE
  8
1
 62
3
 10
-282.1075763940538
 20
141.966818765925
 30
0
 11
-282.1075763940538
 21
149.8405818422595
 31
0
  0
LINE
  8
1
 62
3
 10
-280.8675763940539
 20
141.966818765925
 30
0
 11
-280.8675763940539
 21
149.8405818422595
 31
0
  0
LINE
  8
1
 62
3
 10
-302.1075763940539
 20
122.9400735500307
 30
0
 11
-302.1075763940539
 21
141.966818765925
 31
0
  0
LINE
  8
1
 62
3
 10
-300.8675763940539
 20
122.9400735500307
 30
0
 11
-300.8675763940539
 21
141.966818765925
 31
0
  0
LINE
  8
1
 62
3
 10
-298.1075763940539
 20
122.9400735500307
 30
0
 11
-298.1075763940539
 21
141.966818765925
 31
0
  0
LINE
  8
1
 62
3
 10
-296.8675763940539
 20
122.9400735500307
 30
0
 11
-296.8675763940539
 21
141.966818765925
 31
0
  0
LINE
  8
1
 62
3
 10
-294.1075763940538
 20
122.9400735500307
 30
0
 11
-294.1075763940538
 21
141.966818765925
 31
0
  0
LINE
  8
1
 62
3
 10
-292.8675763940539
 20
122.9400735500307
 30
0
 11
-292.8675763940539
 21
141.966818765925
 31
0
  0
LINE
  8
1
 62
3
 10
-290.1075763940538
 20
122.9400735500307
 30
0
 11
-290.1075763940538
 21
141.966818765925
 31
0
  0
LINE
  8
1
 62
3
 10
-288.8675763940539
 20
122.9400735500307
 30
0
 11
-288.8675763940539
 21
141.966818765925
 31
0
  0
LINE
  8
1
 62
3
 10
-286.1075763940538
 20
122.9400735500307
 30
0
 11
-286.1075763940538
 21
141.966818765925
 31
0
  0
LINE
  8
1
 62
3
 10
-284.8675763940539
 20
122.9400735500307
 30
0
 11
-284.8675763940539
 21
141.966818765925
 31
0
  0
LINE
  8
1
 62
3
 10
-282.1075763940538
 20
122.9400735500307
 30
0
 11
-282.1075763940538
 21
141.966818765925
 31
0
  0
LINE
  8
1
 62
3
 10
-280.8675763940539
 20
122.9400735500307
 30
0
 11
-280.8675763940539
 21
141.966818765925
 31
0
  0
LINE
  8
1
 62
3
 10
-282.1075763940538
 20
96.79900830326831
 30
0
 11
-280.8675763940539
 21
96.79900830326831
 31
0
  0
LINE
  8
1
 62
3
 10
-286.1075763940538
 20
96.79900830326831
 30
0
 11
-284.8675763940539
 21
96.79900830326831
 31
0
  0
LINE
  8
1
 62
3
 10
-290.1075763940538
 20
96.79900830326831
 30
0
 11
-288.8675763940539
 21
96.79900830326831
 31
0
  0
LINE
  8
1
 62
3
 10
-294.1075763940538
 20
96.79900830326831
 30
0
 11
-292.8675763940539
 21
96.79900830326831
 31
0
  0
LINE
  8
1
 62
3
 10
-298.1075763940539
 20
96.79900830326831
 30
0
 11
-296.8675763940539
 21
96.79900830326831
 31
0
  0
LINE
  8
1
 62
2
 10
-281.1875763940539
 20
96.79900830326831
 30
0
 11
-281.1875763940539
 21
93.29900830326831
 31
0
  0
LINE
  8
1
 62
2
 10
-285.1875763940539
 20
96.79900830326831
 30
0
 11
-285.1875763940539
 21
93.29900830326831
 31
0
  0
LINE
  8
1
 62
2
 10
-289.1875763940539
 20
96.79900830326831
 30
0
 11
-289.1875763940539
 21
93.29900830326831
 31
0
  0
LINE
  8
1
 62
2
 10
-293.1875763940539
 20
96.79900830326831
 30
0
 11
-293.1875763940539
 21
93.29900830326831
 31
0
  0
LINE
  8
1
 62
2
 10
-297.1875763940539
 20
96.79900830326831
 30
0
 11
-297.1875763940539
 21
93.29900830326831
 31
0
  0
LINE
  8
1
 62
2
 10
-301.1875763940539
 20
96.79900830326831
 30
0
 11
-301.1875763940539
 21
93.29900830326831
 31
0
  0
LINE
  8
1
 62
2
 10
-281.4875763940538
 20
96.79900830326831
 30
0
 11
-281.4875763940538
 21
93.29900830326831
 31
0
  0
LINE
  8
1
 62
2
 10
-281.7875763940538
 20
96.79900830326831
 30
0
 11
-281.7875763940538
 21
93.29900830326831
 31
0
  0
LINE
  8
1
 62
2
 10
-285.4875763940538
 20
96.79900830326831
 30
0
 11
-285.4875763940538
 21
93.29900830326831
 31
0
  0
LINE
  8
1
 62
2
 10
-285.7875763940538
 20
96.79900830326831
 30
0
 11
-285.7875763940538
 21
93.29900830326831
 31
0
  0
LINE
  8
1
 62
2
 10
-289.4875763940538
 20
96.79900830326831
 30
0
 11
-289.4875763940538
 21
93.29900830326831
 31
0
  0
LINE
  8
1
 62
2
 10
-289.7875763940538
 20
96.79900830326831
 30
0
 11
-289.7875763940538
 21
93.29900830326831
 31
0
  0
LINE
  8
1
 62
2
 10
-293.4875763940538
 20
96.79900830326831
 30
0
 11
-293.4875763940538
 21
93.29900830326831
 31
0
  0
LINE
  8
1
 62
2
 10
-293.7875763940538
 20
96.79900830326831
 30
0
 11
-293.7875763940538
 21
93.29900830326831
 31
0
  0
LINE
  8
1
 62
2
 10
-297.4875763940539
 20
96.79900830326831
 30
0
 11
-297.4875763940539
 21
93.29900830326831
 31
0
  0
LINE
  8
1
 62
2
 10
-297.7875763940539
 20
96.79900830326831
 30
0
 11
-297.7875763940539
 21
93.29900830326831
 31
0
  0
LINE
  8
1
 62
2
 10
-301.4875763940539
 20
96.79900830326831
 30
0
 11
-301.4875763940539
 21
93.29900830326831
 31
0
  0
LINE
  8
1
 62
2
 10
-301.7875763940539
 20
96.79900830326831
 30
0
 11
-301.7875763940539
 21
93.29900830326831
 31
0
  0
LINE
  8
1
 62
2
 10
-104.2464021019086
 20
121.9400735500307
 30
0
 11
-109.121251131149
 21
121.9400735500307
 31
0
  0
LINE
  8
1
 62
2
 10
-109.121251131149
 20
122.9400735500307
 30
0
 11
-104.2464021019086
 21
122.9400735500307
 31
0
  0
LINE
  8
1
 62
3
 10
-107.7977104973492
 20
122.9400735500307
 30
0
 11
-107.7977104973492
 21
153.2170729120394
 31
0
  0
LINE
  8
1
 62
3
 10
-106.5977104973492
 20
122.9400735500307
 30
0
 11
-106.5977104973492
 21
153.2170729120394
 31
0
  0
LINE
  8
1
 62
3
 10
-105.4464021019086
 20
153.2170729120394
 30
0
 11
-105.4464021019087
 21
155.1670729120393
 31
0
  0
LINE
  8
1
 62
3
 10
-108.9490188927898
 20
153.2170729120394
 30
0
 11
-105.4464021019086
 21
153.2170729120394
 31
0
  0
LINE
  8
1
 62
3
 10
-108.9490188927898
 20
155.1670729120393
 30
0
 11
-108.9490188927898
 21
153.2170729120394
 31
0
  0
LINE
  8
1
 62
3
 10
-299.0875763940539
 20
159.7170813628264
 30
0
 11
-299.0875763940539
 21
154.4170729120394
 31
0
  0
LINE
  8
1
 62
3
 10
-282.8875763940539
 20
155.1670729120393
 30
0
 11
-282.4875763940538
 21
155.1670729120393
 31
0
  0
LINE
  8
1
 62
3
 10
-282.4875763940538
 20
155.1670729120393
 30
0
 11
-279.4875763940538
 21
155.1670729120393
 31
0
  0
LINE
  8
1
 62
3
 10
-300.0875763940539
 20
155.1670729120393
 30
0
 11
-300.0875763940539
 21
159.7170816577928
 31
0
  0
LINE
  8
1
 62
3
 10
-280.2875763940539
 20
155.1670729120393
 30
0
 11
-280.2875763940539
 21
154.9170729120394
 31
0
  0
LINE
  8
1
 62
3
 10
-303.9375763940537
 20
157.7170729120393
 30
0
 11
-304.4311322342094
 21
157.7170729120393
 31
0
  0
LINE
  8
1
 62
3
 10
-278.4440220610129
 20
157.7170729120393
 30
0
 11
-278.9375763940537
 21
157.7170729120393
 31
0
  0
LINE
  8
1
 62
4
  6
DASHED
 10
-279.037576394054
 20
153.2170729120394
 30
0
 11
-302.8375763940539
 21
153.2170729120394
 31
0
  0
LINE
  8
1
 62
4
  6
DASHED
 10
-302.6375763940538
 20
155.1670729120393
 30
0
 11
-303.3875763940538
 21
153.8170729120393
 31
0
  0
LINE
  8
1
 62
4
  6
DASHED
 10
-280.237576394054
 20
155.1670729120393
 30
0
 11
-279.5875763940539
 21
153.8170729120393
 31
0
  0
LINE
  8
1
 62
4
  6
DASHED
 10
-302.8375763940539
 20
153.2170729120394
 30
0
 11
-302.8375763940539
 21
153.8170729120393
 31
0
  0
LINE
  8
1
 62
3
 10
-281.0375763940536
 20
157.0670729120392
 30
0
 11
-281.0375763940536
 21
159.7170729120393
 31
0
  0
LINE
  8
1
 62
3
 10
-280.0375763940536
 20
157.0670729120392
 30
0
 11
-281.0375763940536
 21
157.0670729120392
 31
0
  0
LINE
  8
1
 62
3
 10
-280.0375763940536
 20
159.7170729120393
 30
0
 11
-280.0375763940536
 21
157.0670729120392
 31
0
  0
LINE
  8
1
 62
3
 10
-301.8375763940536
 20
157.0670729120392
 30
0
 11
-301.8375763940536
 21
159.7170729120393
 31
0
  0
LINE
  8
1
 62
3
 10
-302.8375763940536
 20
157.0670729120392
 30
0
 11
-301.8375763940536
 21
157.0670729120392
 31
0
  0
LINE
  8
1
 62
3
 10
-302.8375763940536
 20
159.7170729120393
 30
0
 11
-302.8375763940536
 21
157.0670729120392
 31
0
  0
LINE
  8
1
 62
3
 10
-282.4875763940538
 20
159.7170729120393
 30
0
 11
-282.4875763940538
 21
155.1670729120393
 31
0
  0
LINE
  8
1
 62
3
 10
-300.3875763940537
 20
159.7170729120393
 30
0
 11
-300.3875763940537
 21
155.1670729120393
 31
0
  0
LINE
  8
1
 62
3
 10
-303.3875763940537
 20
155.1670729120393
 30
0
 11
-300.0875763940539
 21
155.1670729120393
 31
0
  0
LINE
  8
1
 62
3
 10
-279.4875763940538
 20
155.1670729120393
 30
0
 11
-279.4875763940538
 21
159.7170729120393
 31
0
  0
LINE
  8
1
 62
3
 10
-303.3875763940537
 20
155.1670729120393
 30
0
 11
-303.3875763940537
 21
159.7170729120393
 31
0
  0
LINE
  8
1
 62
3
 10
-279.4375763940537
 20
156.1670729120393
 30
0
 11
-278.9375763940537
 21
156.1670729120393
 31
0
  0
LINE
  8
1
 62
3
 10
-279.4375763940537
 20
159.7170729120393
 30
0
 11
-279.4375763940537
 21
156.1670729120393
 31
0
  0
LINE
  8
1
 62
3
 10
-303.4375763940537
 20
156.1670729120393
 30
0
 11
-303.4375763940537
 21
159.7170729120393
 31
0
  0
LINE
  8
1
 62
3
 10
-303.9375763940537
 20
156.1670729120393
 30
0
 11
-303.4375763940537
 21
156.1670729120393
 31
0
  0
LINE
  8
1
 62
3
 10
-278.9375763940537
 20
156.1670729120393
 30
0
 11
-278.9375763940537
 21
159.7170729120393
 31
0
  0
LINE
  8
1
 62
3
 10
-303.9375763940537
 20
156.1670729120393
 30
0
 11
-303.9375763940537
 21
159.7170729120393
 31
0
  0
LINE
  8
1
 62
3
 10
-278.4875763940538
 20
157.7170729120393
 30
0
 11
-278.4440220610129
 21
157.7170729120393
 31
0
  0
LINE
  8
1
 62
3
 10
-278.7875763940536
 20
159.7170729120393
 30
0
 11
-278.7875763940536
 21
158.0170729120391
 31
0
  0
LINE
  8
1
 62
3
 10
-304.0875763940536
 20
158.0170729120392
 30
0
 11
-304.0875763940536
 21
159.7170729120393
 31
0
  0
LINE
  8
1
 62
3
 10
-109.6174396069864
 20
155.1670729120393
 30
0
 11
-109.6174396069864
 21
156.1670729120393
 31
0
  0
LINE
  8
1
 62
3
 10
-104.8174396069865
 20
155.1670729120393
 30
0
 11
-109.6174396069864
 21
155.1670729120393
 31
0
  0
LINE
  8
1
 62
3
 10
-104.8174396069865
 20
156.1670729120393
 30
0
 11
-104.8174396069865
 21
155.1670729120393
 31
0
  0
LINE
  8
1
 62
3
 10
-104.2174396069864
 20
156.1670729120393
 30
0
 11
-104.2174396069864
 21
157.7170729120393
 31
0
  0
LINE
  8
1
 62
3
 10
-109.6174396069864
 20
156.1670729120393
 30
0
 11
-104.2174396069864
 21
156.1670729120393
 31
0
  0
LINE
  8
1
 62
3
 10
-109.6174396069864
 20
157.7170729120393
 30
0
 11
-109.6174396069864
 21
156.1670729120393
 31
0
  0
LINE
  8
1
 62
3
 10
-97.91744360898878
 20
158.7170746610396
 30
0
 11
-97.91744710698646
 21
160.7170729120393
 31
0
  0
LINE
  8
1
 62
3
 10
-109.6174396069864
 20
157.7170729120393
 30
0
 11
-98.91744360898707
 21
157.7170729120393
 31
0
  0
LINE
  8
1
 62
3
 10
-109.6174396069864
 20
157.7170729120393
 30
0
 11
-109.6174396069864
 21
165.7170729120393
 31
0
  0
LINE
  8
1
 62
1
 10
-164.0174396070122
 20
180.7170729120392
 30
0
 11
-78.87086012773558
 21
180.7170729120392
 31
0
  0
LINE
  8
1
 62
3
 10
-161.5174282433474
 20
182.2170729120393
 30
0
 11
-161.5174289363533
 21
182.064612456714
 31
0
  0
LINE
  8
1
 62
3
 10
-97.91743210698638
 20
200.7170729120392
 30
0
 11
-97.91744710698646
 21
160.7170729120393
 31
0
  0
LINE
  8
1
 62
2
 10
-129.6174396069864
 20
165.7171729120392
 30
0
 11
-129.6175396069864
 21
159.7170729120393
 31
0
  0
LINE
  8
1
 62
2
 10
-109.6174396069864
 20
195.7170729120392
 30
0
 11
-109.6174396069864
 21
201.7170729120392
 31
0
  0
LINE
  8
1
 62
3
 10
-129.6174396069864
 20
195.7170729120392
 30
0
 11
-129.6174396069864
 21
201.7170729120392
 31
0
  0
LINE
  8
1
 62
3
 10
-139.5175396069865
 20
169.7170729120393
 30
0
 11
-139.5174396069864
 21
191.7170729120392
 31
0
  0
LINE
  8
1
 62
3
 10
-139.5175396069865
 20
169.7170729120393
 30
0
 11
-137.5174396069864
 21
169.7170729120393
 31
0
  0
LINE
  8
1
 62
3
 10
-139.5174396069864
 20
191.7170729120392
 30
0
 11
-137.5174396069864
 21
191.7170729120392
 31
0
  0
LINE
  8
1
 62
3
 10
-303.4375763940537
 20
202.7170729120392
 30
0
 11
-279.4375763940537
 21
202.7170729120392
 31
0
  0
LINE
  8
1
 62
3
 10
-270.4375763940537
 20
164.7170743868714
 30
0
 11
-270.4375763940537
 21
196.7170729120392
 31
0
  0
LINE
  8
1
 62
3
 10
-275.4375763940537
 20
201.7170729120392
 30
0
 11
-307.4375775848731
 21
201.7170729120392
 31
0
  0
LINE
  8
1
 62
3
 10
-109.4936006578873
 20
202.8982810555713
 30
0
 11
-100.0847006578872
 21
202.8982810555713
 31
0
  0
LINE
  8
1
 62
3
 10
-137.5174396069864
 20
200.7170729120392
 30
0
 11
-137.5174396069864
 21
200.3480646216076
 31
0
  0
LINE
  8
1
 62
3
 10
-129.6174396069864
 20
195.7170729120392
 30
0
 11
-109.6174396069864
 21
195.7170729120392
 31
0
  0
LINE
  8
1
 62
3
 10
-129.6174396069864
 20
165.7171729120392
 30
0
 11
-109.6174396069864
 21
165.7170729120393
 31
0
  0
LINE
  8
2
 62
1
 10
-278.4375763940537
 20
165.2170729120393
 30
0
 11
-273.4375763940537
 21
165.2170729120393
 31
0
  0
LINE
  8
2
 62
1
 10
-275.9375763940537
 20
167.7170729120393
 30
0
 11
-275.9375763940537
 21
162.7170729120393
 31
0
  0
LINE
  8
2
 62
1
 10
-306.9375863940536
 20
167.7170729120393
 30
0
 11
-306.9375863940536
 21
162.7170729120393
 31
0
  0
LINE
  8
2
 62
1
 10
-304.4375763940537
 20
165.2170729120393
 30
0
 11
-309.4375763940537
 21
165.2170729120393
 31
0
  0
LINE
  8
2
 62
1
 10
-304.4375763940537
 20
196.2170729120392
 30
0
 11
-309.4375763940537
 21
196.2170729120392
 31
0
  0
LINE
  8
2
 62
1
 10
-306.9375663940537
 20
193.7170729120392
 30
0
 11
-306.9375663940537
 21
198.7170729120392
 31
0
  0
LINE
  8
2
 62
1
 10
-275.9375763940537
 20
193.7170729120392
 30
0
 11
-275.9375763940537
 21
198.7170729120392
 31
0
  0
LINE
  8
2
 62
1
 10
-278.4375763940537
 20
196.2170729120392
 30
0
 11
-273.4375763940537
 21
196.2170729120392
 31
0
  0
LINE
  8
2
 62
1
 10
-318.3590563940536
 20
180.7170729120392
 30
0
 11
-264.9380763940537
 21
180.7170729120392
 31
0
  0
LINE
  8
2
 62
1
 10
-291.4375763940537
 20
158.7170729120393
 30
0
 11
-291.4375763940537
 21
205.7170729120392
 31
0
  0
LINE
  8
4
 62
2
 10
-125.2175396069864
 20
163.0588729120392
 30
0
 11
-125.2175396069864
 21
159.7169729120391
 31
0
  0
LINE
  8
4
 62
2
 10
-126.0175396069864
 20
164.3286729120391
 30
0
 11
-126.0175396069864
 21
159.7169729120391
 31
0
  0
LINE
  8
4
 62
2
 10
-126.8175396069864
 20
165.5983729120392
 30
0
 11
-126.8175396069864
 21
159.7169729120391
 31
0
  0
LINE
  8
4
 62
2
 10
-127.6175396069864
 20
166.8681729120393
 30
0
 11
-127.6175396069864
 21
159.7169729120391
 31
0
  0
LINE
  8
4
 62
2
 10
-128.4175396069865
 20
168.1379729120393
 30
0
 11
-128.4175396069865
 21
159.7169729120391
 31
0
  0
LINE
  8
4
 62
2
 10
-129.2175396069864
 20
169.4077729120393
 30
0
 11
-129.2175396069864
 21
159.7169729120391
 31
0
  0
LINE
  8
4
 62
2
 10
-114.0174396069865
 20
198.3751729120393
 30
0
 11
-114.0174396069865
 21
201.7170729120392
 31
0
  0
LINE
  8
4
 62
2
 10
-113.2174396069864
 20
197.1054729120392
 30
0
 11
-113.2174396069864
 21
201.7170729120392
 31
0
  0
LINE
  8
4
 62
2
 10
-112.4174396069866
 20
195.8356729120391
 30
0
 11
-112.4174396069866
 21
201.7170729120392
 31
0
  0
LINE
  8
4
 62
2
 10
-111.6174396069864
 20
194.5658729120392
 30
0
 11
-111.6174396069864
 21
201.7170729120392
 31
0
  0
LINE
  8
4
 62
2
 10
-110.8174396069865
 20
193.2960729120391
 30
0
 11
-110.8174396069865
 21
201.7170729120392
 31
0
  0
LINE
  8
4
 62
2
 10
-110.0174396069865
 20
192.0262729120392
 30
0
 11
-110.0174396069865
 21
201.7170729120392
 31
0
  0
LINE
  8
1
 62
3
 10
-136.5174396069864
 20
201.7170729120392
 30
0
 11
-98.91743210698637
 21
201.7170729120392
 31
0
  0
LINE
  8
1
 62
3
 10
-136.5174392112079
 20
159.717073307818
 30
0
 11
-109.6174396069864
 21
159.7170831627027
 31
0
  0
LINE
  8
1
 62
3
 10
-304.4311322342094
 20
157.7170729120393
 30
0
 11
-304.3875763940537
 21
157.7170729120393
 31
0
  0
LINE
  8
1
 62
3
 10
-312.4375852061157
 20
164.7170850166182
 30
0
 11
-312.437577584873
 21
196.7170741028587
 31
0
  0
LINE
  8
1
 62
3
 10
-161.5174509706228
 20
178.2170729120392
 30
0
 11
-139.5175009706229
 21
178.2170729120392
 31
0
  0
LINE
  8
1
 62
3
 10
-109.6174396069864
 20
195.7170729120392
 30
0
 11
-109.6174396069864
 21
165.7170729120393
 31
0
  0
LINE
  8
1
 62
3
 10
-129.6174396069864
 20
165.7171729120392
 30
0
 11
-129.6174396069864
 21
195.7170729120392
 31
0
  0
LINE
  8
1
 62
3
 10
-137.5174396069864
 20
200.7170729120392
 30
0
 11
-137.5174396069864
 21
160.7170733078179
 31
0
  0
LINE
  8
1
 62
3
 10
-307.4375866809479
 20
159.7170838257988
 30
0
 11
-275.4375778688856
 21
159.7170743868716
 31
0
  0
LINE
  8
1
 62
3
 10
-146.5174402045423
 20
183.2170729120392
 30
0
 11
-139.51747824335
 21
183.2170729120392
 31
0
  0
LINE
  8
1
 62
3
 10
-280.8875763940539
 20
153.2170729120394
 30
0
 11
-280.8875763940539
 21
153.7170729120394
 31
0
  0
LINE
  8
1
 62
3
 10
-302.0875763940539
 20
153.2170729120394
 30
0
 11
-302.0875763940539
 21
153.7170729120394
 31
0
  0
LINE
  8
1
 62
3
 10
-299.0875763940539
 20
155.9170729120394
 30
0
 11
-283.8875763940539
 21
155.9170729120394
 31
0
  0
LINE
  8
1
 62
3
 10
-282.8875763940539
 20
153.7170729120394
 30
0
 11
-282.8875763940539
 21
159.7170765843708
 31
0
  0
LINE
  8
1
 62
3
 10
-283.8875763940539
 20
154.4170729120394
 30
0
 11
-283.8875763940539
 21
159.7170768793372
 31
0
  0
LINE
  8
1
 62
3
 10
-299.0875763940539
 20
154.4170729120394
 30
0
 11
-283.8875763940539
 21
154.4170729120394
 31
0
  0
LINE
  8
1
 62
3
 10
-300.0875763940539
 20
153.7170729120394
 30
0
 11
-300.0875763940539
 21
155.1670729120393
 31
0
  0
LINE
  8
1
 62
3
 10
-279.5375763940539
 20
153.2170729120394
 30
0
 11
-280.8875763940539
 21
153.2170729120394
 31
0
  0
LINE
  8
1
 62
3
 10
-279.5375763940539
 20
153.7170729120394
 30
0
 11
-279.5375763940539
 21
153.2170729120394
 31
0
  0
LINE
  8
1
 62
3
 10
-303.4375763940538
 20
153.2170729120394
 30
0
 11
-303.4375763940538
 21
153.7170729120394
 31
0
  0
LINE
  8
1
 62
3
 10
-302.0875763940539
 20
153.2170729120394
 30
0
 11
-303.4375763940538
 21
153.2170729120394
 31
0
  0
LINE
  8
1
 62
3
 10
-300.0875763940539
 20
153.2170729120394
 30
0
 11
-300.0875763940539
 21
153.7170729120394
 31
0
  0
LINE
  8
1
 62
3
 10
-300.8875763940539
 20
153.2170729120394
 30
0
 11
-300.0875763940539
 21
153.2170729120394
 31
0
  0
LINE
  8
1
 62
3
 10
-300.8875763940539
 20
153.7170729120394
 30
0
 11
-300.8875763940539
 21
153.2170729120394
 31
0
  0
LINE
  8
1
 62
3
 10
-298.0875763940539
 20
153.2170729120394
 30
0
 11
-298.0875763940539
 21
153.7170729120394
 31
0
  0
LINE
  8
1
 62
3
 10
-298.8875763940539
 20
153.2170729120394
 30
0
 11
-298.0875763940539
 21
153.2170729120394
 31
0
  0
LINE
  8
1
 62
3
 10
-298.8875763940539
 20
153.7170729120394
 30
0
 11
-298.8875763940539
 21
153.2170729120394
 31
0
  0
LINE
  8
1
 62
3
 10
-296.0875763940539
 20
153.2170729120394
 30
0
 11
-296.0875763940539
 21
153.7170729120394
 31
0
  0
LINE
  8
1
 62
3
 10
-296.8875763940539
 20
153.2170729120394
 30
0
 11
-296.0875763940539
 21
153.2170729120394
 31
0
  0
LINE
  8
1
 62
3
 10
-296.8875763940539
 20
153.7170729120394
 30
0
 11
-296.8875763940539
 21
153.2170729120394
 31
0
  0
LINE
  8
1
 62
3
 10
-294.0875763940539
 20
153.2170729120394
 30
0
 11
-294.0875763940539
 21
153.7170729120394
 31
0
  0
LINE
  8
1
 62
3
 10
-294.8875763940539
 20
153.2170729120394
 30
0
 11
-294.0875763940539
 21
153.2170729120394
 31
0
  0
LINE
  8
1
 62
3
 10
-294.8875763940539
 20
153.7170729120394
 30
0
 11
-294.8875763940539
 21
153.2170729120394
 31
0
  0
LINE
  8
1
 62
3
 10
-292.0875763940539
 20
153.2170729120394
 30
0
 11
-292.0875763940539
 21
153.7170729120394
 31
0
  0
LINE
  8
1
 62
3
 10
-292.8875763940539
 20
153.2170729120394
 30
0
 11
-292.0875763940539
 21
153.2170729120394
 31
0
  0
LINE
  8
1
 62
3
 10
-292.8875763940539
 20
153.7170729120394
 30
0
 11
-292.8875763940539
 21
153.2170729120394
 31
0
  0
LINE
  8
1
 62
3
 10
-290.0875763940539
 20
153.2170729120394
 30
0
 11
-290.0875763940539
 21
153.7170729120394
 31
0
  0
LINE
  8
1
 62
3
 10
-290.8875763940539
 20
153.2170729120394
 30
0
 11
-290.0875763940539
 21
153.2170729120394
 31
0
  0
LINE
  8
1
 62
3
 10
-290.8875763940539
 20
153.7170729120394
 30
0
 11
-290.8875763940539
 21
153.2170729120394
 31
0
  0
LINE
  8
1
 62
3
 10
-288.0875763940538
 20
153.2170729120394
 30
0
 11
-288.0875763940538
 21
153.7170729120394
 31
0
  0
LINE
  8
1
 62
3
 10
-288.8875763940539
 20
153.2170729120394
 30
0
 11
-288.0875763940538
 21
153.2170729120394
 31
0
  0
LINE
  8
1
 62
3
 10
-288.8875763940539
 20
153.7170729120394
 30
0
 11
-288.8875763940539
 21
153.2170729120394
 31
0
  0
LINE
  8
1
 62
3
 10
-286.0875763940538
 20
153.2170729120394
 30
0
 11
-286.0875763940538
 21
153.7170729120394
 31
0
  0
LINE
  8
1
 62
3
 10
-286.8875763940539
 20
153.2170729120394
 30
0
 11
-286.0875763940538
 21
153.2170729120394
 31
0
  0
LINE
  8
1
 62
3
 10
-286.8875763940539
 20
153.7170729120394
 30
0
 11
-286.8875763940539
 21
153.2170729120394
 31
0
  0
LINE
  8
1
 62
3
 10
-284.0875763940538
 20
153.2170729120394
 30
0
 11
-284.0875763940538
 21
153.7170729120394
 31
0
  0
LINE
  8
1
 62
3
 10
-284.8875763940539
 20
153.2170729120394
 30
0
 11
-284.0875763940538
 21
153.2170729120394
 31
0
  0
LINE
  8
1
 62
3
 10
-284.8875763940539
 20
153.7170729120394
 30
0
 11
-284.8875763940539
 21
153.2170729120394
 31
0
  0
LINE
  8
1
 62
3
 10
-282.0875763940538
 20
153.2170729120394
 30
0
 11
-282.0875763940538
 21
153.7170729120394
 31
0
  0
LINE
  8
1
 62
3
 10
-282.8875763940539
 20
153.2170729120394
 30
0
 11
-282.0875763940538
 21
153.2170729120394
 31
0
  0
LINE
  8
1
 62
3
 10
-282.8875763940539
 20
153.7170729120394
 30
0
 11
-282.8875763940539
 21
153.2170729120394
 31
0
  0
LINE
  8
1
 62
3
 10
-303.4375763940538
 20
153.7170729120394
 30
0
 11
-279.5375763940539
 21
153.7170729120394
 31
0
  0
LINE
  8
1
 62
3
 10
-302.6875763940538
 20
154.9170729120394
 30
0
 11
-303.4375763940538
 21
153.7170729120394
 31
0
  0
LINE
  8
1
 62
3
 10
-280.2875763940539
 20
154.9170729120394
 30
0
 11
-279.5375763940539
 21
153.7170729120394
 31
0
  0
LINE
  8
1
 62
3
 10
-302.6875763940538
 20
154.9170729120394
 30
0
 11
-302.6875763940538
 21
155.1670729120393
 31
0
  0
LINE
  8
1
 62
3
 10
-161.5174384331781
 20
182.7170729120392
 30
0
 11
-161.5174509706228
 21
178.2170729120392
 31
0
  0
LINE
  8
1
 62
3
 10
-146.5174402045423
 20
183.2170729120392
 30
0
 11
-146.5174384331199
 21
182.7170729120392
 31
0
  0
LINE
  8
1
 62
3
 10
-146.5174384331199
 20
182.7170729120392
 30
0
 11
-161.5174384331781
 21
182.7170729120392
 31
0
  0
LINE
  8
1
 62
3
 10
-97.91743866948642
 20
183.2170729120392
 30
0
 11
-96.91743866948634
 21
183.2170729120392
 31
0
  0
LINE
  8
1
 62
3
 10
-96.91743866948634
 20
183.2170729120392
 30
0
 11
-96.91743885698634
 21
182.7170729120392
 31
0
  0
LINE
  8
1
 62
3
 10
-96.91743885698634
 20
182.7170729120392
 30
0
 11
-81.91743885698529
 21
182.7170729120392
 31
0
  0
LINE
  8
1
 62
3
 10
-81.91743885698529
 20
182.7170729120392
 30
0
 11
-81.91744054448529
 21
178.2170729120392
 31
0
  0
LINE
  8
1
 62
3
 10
-81.91744054448529
 20
178.2170729120392
 30
0
 11
-97.91744054448643
 21
178.2170729120392
 31
0
  0
LINE
  8
1
 62
3
 10
-107.7977104973492
 20
121.9400735500307
 30
0
 11
-107.7977104973492
 21
96.79900830326831
 31
0
  0
LINE
  8
1
 62
3
 10
-106.5577104973493
 20
121.9400735500307
 30
0
 11
-106.5577104973493
 21
96.79900830326831
 31
0
  0
LINE
  8
1
 62
3
 10
-107.7977104973492
 20
96.79900830326831
 30
0
 11
-106.5577104973493
 21
96.79900830326831
 31
0
  0
LINE
  8
1
 62
2
 10
-106.8777104973493
 20
96.79900830326831
 30
0
 11
-106.8777104973493
 21
93.29900830326831
 31
0
  0
LINE
  8
1
 62
2
 10
-107.1777104973492
 20
96.79900830326831
 30
0
 11
-107.1777104973492
 21
93.29900830326831
 31
0
  0
LINE
  8
1
 62
2
 10
-107.4777104973492
 20
96.79900830326831
 30
0
 11
-107.4777104973492
 21
93.29900830326831
 31
0
  0
ARC
  8
1
 62
3
 10
-275.0634790670169
 20
156.8788376179217
 30
0
 40
2.851439871812186
 50
95.51614301828153
 51
152.8954534651714
  0
ARC
  8
1
 62
3
 10
-307.8116752282054
 20
156.8788376179217
 30
0
 40
2.851439871812135
 50
27.10454653483063
 51
84.48385698172302
  0
ARC
  8
1
 62
3
 10
-98.91743210698638
 20
200.7170729120392
 30
0
 40
1
 50
0
 51
90
  0
ARC
  8
1
 62
3
 10
-291.4375763940537
 20
180.7170729120392
 30
0
 40
2.5
 50
180
 51
270
  0
ARC
  8
1
 62
3
 10
-291.4375763940537
 20
180.7170729120392
 30
0
 40
2.5
 50
270
 51
180
  0
CIRCLE
  8
1
 62
2
 10
-275.9375763940537
 20
165.2170729120393
 30
0
 40
1.5
  0
CIRCLE
  8
1
 62
2
 10
-306.9375863940536
 20
165.2170729120393
 30
0
 40
1.5
  0
CIRCLE
  8
1
 62
2
 10
-306.9375763940537
 20
196.2170729120392
 30
0
 40
1.5
  0
CIRCLE
  8
1
 62
2
 10
-275.9375763940537
 20
196.2170729120392
 30
0
 40
1.5
  0
CIRCLE
  8
4
 62
3
 10
-275.9375763940537
 20
165.2170729120393
 30
0
 40
1
  0
CIRCLE
  8
4
 62
3
 10
-306.9375863940536
 20
165.2170729120393
 30
0
 40
1.000009999999918
  0
CIRCLE
  8
4
 62
3
 10
-275.9375763940537
 20
196.2170729120392
 30
0
 40
1
  0
CIRCLE
  8
4
 62
3
 10
-306.9375763940537
 20
196.2170729120392
 30
0
 40
1.000009999999975
  0
CIRCLE
  8
1
 62
3
 10
-291.4375763940537
 20
180.7170729120392
 30
0
 40
4.5
  0
CIRCLE
  8
1
 62
3
 10
-291.4375763940537
 20
180.7170729120392
 30
0
 40
11
  0
CIRCLE
  8
1
 62
3
 10
-291.4375763940537
 20
180.7170729120392
 30
0
 40
15
  0
CIRCLE
  8
1
 62
3
 10
-291.4375763940537
 20
180.7170729120392
 30
0
 40
12.75
  0
ARC
  8
1
 62
3
 10
-278.4440220610129
 20
158.7170729120393
 30
0
 40
1
 50
270
 51
327.3793104468809
  0
ARC
  8
1
 62
3
 10
-304.4311322342094
 20
158.7170729120393
 30
0
 40
1.000000000000007
 50
212.6206895531121
 51
270
  0
ARC
  8
1
 62
3
 10
-278.4875763940538
 20
158.0170729120391
 30
0
 40
0.299999999999784
 50
180
 51
270
  0
ARC
  8
1
 62
3
 10
-304.3875763940537
 20
158.0170729120391
 30
0
 40
0.2999999999998124
 50
270
 51
0
  0
ARC
  8
1
 62
3
 10
-98.91744360898707
 20
158.7170729120393
 30
0
 40
1
 50
270
 51
0.0001002103350056641
  0
ARC
  8
1
 62
3
 10
-136.5174396069864
 20
200.7170729120392
 30
0
 40
1
 50
90
 51
180
  0
ARC
  8
1
 62
3
 10
-136.5174396069864
 20
160.7170733078179
 30
0
 40
1
 50
180
 51
270.0000226764377
  0
ARC
  8
1
 62
3
 10
-275.4375763940537
 20
164.7170743868714
 30
0
 40
5.000000000000019
 50
269.9999830996708
 51
0
  0
ARC
  8
1
 62
3
 10
-307.4375852061158
 20
164.7170838257985
 30
0
 40
5.000000000000084
 50
179.9999863542116
 51
269.9999830996688
  0
ARC
  8
1
 62
3
 10
-307.4375775848731
 20
196.7170729120392
 30
0
 40
5
 50
90
 51
179.9999863542138
  0
ARC
  8
1
 62
3
 10
-275.4375763940537
 20
196.7170729120392
 30
0
 40
5
 50
0
 51
90
  0
LINE
  8
1
 62
2
 10
-205.4811313590436
 20
102.756057249772
 30
0
 11
-266.9997043999242
 21
102.756057249772
 31
0
  0
LINE
  8
1
 62
2
 10
-266.9997043999242
 20
102.756057249772
 30
0
 11
-279.037576394054
 21
153.2170729120394
 31
0
  0
SOLID
  8
1
 62
2
 10
-277.8852392208764
 20
150.2021761291043
 30
0
 11
-278.7048168643307
 21
150.0066594390086
 31
0
 12
-279.037576394054
 22
153.2170729120394
 32
0
 13
-279.037576394054
 23
153.2170729120394
 33
0
  0
LINE
  8
1
 62
2
 10
-57.75298112059612
 20
219.167281047888
 30
0
 11
-76.07979836934258
 21
219.167281047888
 31
0
  0
LINE
  8
1
 62
2
 10
-76.07979836934258
 20
219.167281047888
 30
0
 11
-100.8626388425236
 21
202.8982810555713
 31
0
  0
SOLID
  8
1
 62
2
 10
-98.41874066674187
 20
205.0065612264333
 30
0
 11
-97.95635141708421
 21
204.3021959294764
 31
0
 12
-100.8626388425236
 22
202.8982810555713
 32
0
 13
-100.8626388425236
 23
202.8982810555713
 33
0
  0
LINE
  8
1
 62
2
 10
-229.5501356358802
 20
133.2549187115592
 30
0
 11
-266.7068628931282
 21
133.2549187115592
 31
0
  0
LINE
  8
1
 62
2
 10
-266.7068628931282
 20
133.2549187115592
 30
0
 11
-274.9431764989936
 21
164.0940551701026
 31
0
  0
SOLID
  8
1
 62
2
 10
-273.7104601027645
 20
161.1111214030023
 30
0
 11
-274.5245039645909
 21
160.8937119257965
 31
0
 12
-274.9431764989936
 22
164.0940551701026
 32
0
 13
-274.9431764989936
 23
164.0940551701026
 33
0
  0
LINE
  8
1
 62
2
 10
-304.2252289939865
 20
86.78740564272221
 30
0
 11
-293.0243032976475
 21
86.78740564272221
 31
0
  0
SOLID
  8
1
 62
2
 10
-296.2243032976475
 20
86.36611765044255
 30
0
 11
-296.2243032976475
 21
87.20869363500188
 31
0
 12
-293.0243032976475
 22
86.78740564272221
 32
0
 13
-293.0243032976475
 23
86.78740564272221
 33
0
  0
TEXT
  8
1
 62
2
 10
-90.92869169767869
 20
50.62247547302371
 30
0
 40
4
  1
KH42JM2-911
 41
0.9
  0
TEXT
  8
1
 62
2
 10
-46.7041116080343
 20
50.61086821824591
 30
0
 40
4
  1
,912,913ü@ü@ü@ü@
 41
0.9
  0
TEXT
  8
1
 62
6
 10
-265.3961480063254
 20
104.3211491169231
 30
0
 40
1.6
  1
CONTACT
 41
0.72
  0
TEXT
  8
1
 62
6
 10
-242.254350141722
 20
104.7195222206734
 30
0
 40
1.6
  1
(JST)
 41
0.9
  0
TEXT
  8
1
 62
2
 10
-244.8626391204004
 20
107.1984560945681
 30
0
 40
2.4
  1
SPH-002T-P0.5S
 41
0.9
  0
TEXT
  8
1
 62
2
 10
-266.1808680911383
 20
106.9368827329641
 30
0
 40
2.4
  1
âRâôâ^âNâg
 41
1.215000000000001
  0
TEXT
  8
1
 62
6
 10
-247.8965035755661
 20
113.1018097518114
 30
0
 40
1.6
  1
(JST)
 41
0.9
  0
TEXT
  8
1
 62
6
 10
-264.9812616904845
 20
112.9883713210453
 30
0
 40
1.6
  1
HOUSING
 41
0.72
  0
TEXT
  8
1
 62
2
 10
-359.594855586891
 20
40.49810746355097
 30
0
 40
2.5
  1
COLOR OF LEAD
 41
0.63
 72
1
 73
2
 11
-349.357355586891
 21
41.74810746355097
 31
0
  0
TEXT
  8
1
 62
2
 10
-360.527355586891
 20
59.24810746355092
 30
0
 40
3
  1
PHR-11
 41
0.6300000000000001
 72
1
 73
2
 11
-354.857355586891
 21
60.74810746355092
 31
0
  0
TEXT
  8
1
 62
2
 10
-362.957355586891
 20
52.24810746355092
 30
0
 40
3
  1
ùÒÄÑæè
 41
0.9
 72
1
 73
2
 11
-354.857355586891
 21
53.74810746355092
 31
0
  0
TEXT
  8
1
 62
2
 10
-281.637355586891
 20
40.74810746355097
 30
0
 40
2
  1
ORANGE
 41
0.63
 72
1
 73
2
 11
-277.857355586891
 21
41.74810746355097
 31
0
  0
TEXT
  8
1
 62
2
 10
-291.457355586891
 20
40.74810746355097
 30
0
 40
2
  1
BLUE
 41
0.9
 72
1
 73
2
 11
-287.857355586891
 21
41.74810746355097
 31
0
  0
TEXT
  8
1
 62
2
 10
-301.637355586891
 20
40.74810746355097
 30
0
 40
2
  1
YELLOW
 41
0.63
 72
1
 73
2
 11
-297.857355586891
 21
41.74810746355097
 31
0
  0
TEXT
  8
1
 62
2
 10
-311.457355586891
 20
40.74810746355097
 30
0
 40
2
  1
BROWN
 41
0.7200000000000001
 72
1
 73
2
 11
-307.857355586891
 21
41.74810746355097
 31
0
  0
TEXT
  8
1
 62
2
 10
-320.557355586891
 20
40.74810746355097
 30
0
 40
2
  1
RED
 41
0.9
 72
1
 73
2
 11
-317.857355586891
 21
41.74810746355097
 31
0
  0
TEXT
  8
1
 62
2
 10
-331.457355586891
 20
40.74810746355097
 30
0
 40
2
  1
BLACK
 41
0.7200000000000001
 72
1
 73
2
 11
-327.857355586891
 21
41.74810746355097
 31
0
  0
TEXT
  8
1
 62
2
 10
-347.4006934678511
 20
52.49810746355092
 30
0
 40
2.5
  1
(PHASE)
 41
0.54
 73
2
 11
-347.4006934678511
 21
53.74810746355092
 31
0
  0
TEXT
  8
1
 62
2
 10
-347.4006934678511
 20
59.49810746355092
 30
0
 40
2.5
  1
(PIN NO.)
 41
0.54
 73
2
 11
-347.4006934678511
 21
60.74810746355092
 31
0
  0
TEXT
  8
1
 62
2
 10
-281.457355586891
 20
44.74810746355097
 30
0
 40
4
  1
×%%d
 41
0.9
 72
1
 73
2
 11
-277.857355586891
 21
46.74810746355097
 31
0
  0
TEXT
  8
1
 62
2
 10
-291.457355586891
 20
44.74810746355097
 30
0
 40
4
  1
É┬
 41
0.9
 72
1
 73
2
 11
-287.857355586891
 21
46.74810746355097
 31
0
  0
TEXT
  8
1
 62
2
 10
-301.457355586891
 20
44.74810746355097
 30
0
 40
4
  1
ë®
 41
0.9
 72
1
 73
2
 11
-297.857355586891
 21
46.74810746355097
 31
0
  0
TEXT
  8
1
 62
2
 10
-311.457355586891
 20
44.74810746355097
 30
0
 40
4
  1
Æâ
 41
0.9
 72
1
 73
2
 11
-307.857355586891
 21
46.74810746355097
 31
0
  0
TEXT
  8
1
 62
2
 10
-321.457355586891
 20
44.74810746355097
 30
0
 40
4
  1
ÉÈ
 41
0.9
 72
1
 73
2
 11
-317.857355586891
 21
46.74810746355097
 31
0
  0
TEXT
  8
1
 62
2
 10
-331.457355586891
 20
44.74810746355097
 30
0
 40
4
  1
ìò
 41
0.9
 72
1
 73
2
 11
-327.857355586891
 21
46.74810746355097
 31
0
  0
TEXT
  8
1
 62
2
 10
-360.157355586891
 20
45.24810746355097
 30
0
 40
3
  1
âèü[âhÉ³ÉF
 41
0.72
 72
1
 73
2
 11
-349.357355586891
 21
46.74810746355097
 31
0
  0
TEXT
  8
1
 62
2
 10
-329.657355586891
 20
58.74810746355092
 30
0
 40
4
  1
1
 41
0.9
 72
1
 73
2
 11
-327.857355586891
 21
60.74810746355092
 31
0
  0
TEXT
  8
1
 62
2
 10
-319.657355586891
 20
58.74810746355092
 30
0
 40
4
  1
3
 41
0.9
 72
1
 73
2
 11
-317.857355586891
 21
60.74810746355092
 31
0
  0
TEXT
  8
1
 62
2
 10
-309.657355586891
 20
58.74810746355092
 30
0
 40
4
  1
5
 41
0.9
 72
1
 73
2
 11
-307.857355586891
 21
60.74810746355092
 31
0
  0
TEXT
  8
1
 62
2
 10
-299.657355586891
 20
58.74810746355092
 30
0
 40
4
  1
7
 41
0.9
 72
1
 73
2
 11
-297.857355586891
 21
60.74810746355092
 31
0
  0
TEXT
  8
1
 62
2
 10
-289.657355586891
 20
58.74810746355092
 30
0
 40
4
  1
9
 41
0.9
 72
1
 73
2
 11
-287.857355586891
 21
60.74810746355092
 31
0
  0
TEXT
  8
1
 62
2
 10
-281.457355586891
 20
58.74810746355092
 30
0
 40
4
  1
11
 41
0.9
 72
1
 73
2
 11
-277.857355586891
 21
60.74810746355092
 31
0
  0
TEXT
  8
1
 62
2
 10
-329.657355586891
 20
51.74810746355092
 30
0
 40
4
  1
A
 41
0.9
 72
1
 73
2
 11
-327.857355586891
 21
53.74810746355092
 31
0
  0
TEXT
  8
1
 62
2
 10
-309.657355586891
 20
51.74810746355092
 30
0
 40
4
  1
A
 41
0.9
 72
1
 73
2
 11
-307.857355586891
 21
53.74810746355092
 31
0
  0
TEXT
  8
1
 62
2
 10
-299.657355586891
 20
51.74810746355092
 30
0
 40
4
  1
B
 41
0.9
 72
1
 73
2
 11
-297.857355586891
 21
53.74810746355092
 31
0
  0
TEXT
  8
1
 62
2
 10
-279.657355586891
 20
51.74810746355092
 30
0
 40
4
  1
B
 41
0.9
 72
1
 73
2
 11
-277.857355586891
 21
53.74810746355092
 31
0
  0
TEXT
  8
1
 62
2
 10
-322.177355586891
 20
51.74810746355092
 30
0
 40
4
  1
Acom
 41
0.54
 72
1
 73
2
 11
-317.857355586891
 21
53.74810746355092
 31
0
  0
TEXT
  8
1
 62
2
 10
-292.177355586891
 20
51.74810746355092
 30
0
 40
4
  1
Bcom
 41
0.54
 72
1
 73
2
 11
-287.857355586891
 21
53.74810746355092
 31
0
  0
TEXT
  8
1
 62
2
 10
-265.7326930582036
 20
115.8245527571773
 30
0
 40
3.5
  1
ânâEâWâôâOü@üFü@éoégéqü|éPéPüiéiérésüj
 41
0.6299999999999997
  0
TEXT
  8
1
 62
2
 10
-74.71830172625396
 20
215.3301150195574
 30
0
 40
2.5
  1
(NAME PLATE)
 41
0.45
  0
TEXT
  8
1
 62
2
 10
-75.5588482465015
 20
220.472119447165
 30
0
 40
3.5
  1
âlü|âÇâvâîü|âg
 41
0.6300000000000001
  0
TEXT
  8
1
 62
2
 10
-262.1846797641073
 20
135.7807616994311
 30
0
 40
3.5
  1
4-M3ü~0.5
 41
0.9
  0
TEXT
  8
1
 62
2
 10
-278.4767288184065
 20
129.0128059200593
 30
0
 40
3.499999999999999
  1
É[é(écédéoéségüjü@éRüDéWéléhém.
 50
0.0009745374036200501
 41
0.5400000000000003
 72
1
 73
2
 11
-248.2367585883319
 21
130.7633202685302
 31
0
  0
TEXT
  8
1
 62
2
 10
-303.2918185192915
 20
89.3542844481323
 30
0
 40
2
  1
1 3 5 7 9 11
 41
0.855
  0
TEXT
  8
1
 62
2
 10
-318.2263861144096
 20
88.42087397343821
 30
0
 40
3.5
  1
âsâôöÈìå
 41
0.9
  0
TEXT
  8
1
 62
2
 10
-317.5263282583885
 20
84.453879455985
 30
0
 40
2.5
  1
PIN NO.
 41
0.63
  0
DIMENSION
  8
0
  6
CONTINUOUS
 62
2
  2
*D2
  3
DMST_1
 10
-97.91743210698638
 20
239.1305662833681
 30
0
 11
-116.587237454161
 21
242.3305662833681
 31
0
 12
0
 22
0
 32
0
 70
0
  1
40
 13
-137.5174396069864
 23
200.3480646216076
 33
0
 14
-97.91743210698638
 24
200.7170729120392
 34
0
 53
0
  0
DIMENSION
  8
0
  6
CONTINUOUS
 62
2
  2
*D3
  3
DMST_2
 10
-139.5174396069864
 20
230.056345721786
 30
0
 11
-145.42309390541
 21
233.256345721786
 31
0
 12
0
 22
0
 32
0
 70
0
 13
-137.5174396069864
 23
200.3480646216076
 33
0
 14
-139.5174396069864
 24
191.7170729120392
 34
0
 53
0
  0
DIMENSION
  8
0
  6
CONTINUOUS
 62
2
  2
*D4
  3
DMST_2
 10
-183.06848888445
 20
169.7170729120393
 30
0
 11
-187.06848888445
 21
180.652185314255
 31
0
 12
0
 22
0
 32
0
 70
0
  1
%%c<>
 13
-139.5174396069864
 23
191.7170729120392
 33
0
 14
-139.5175396069865
 24
169.7170729120393
 34
0
 50
90
 53
0
  0
DIMENSION
  8
0
  6
CONTINUOUS
 62
2
  2
*D5
  3
DMST_3
 10
-312.437577584873
 20
226.7170729120392
 30
0
 11
-291.4375769894634
 21
229.9170729120392
 31
0
 12
0
 22
0
 32
0
 70
0
  1
(<>
 13
-270.4375763940537
 23
196.7170729120392
 33
0
 14
-312.437577584873
 24
196.7170741028587
 34
0
 53
0
  0
DIMENSION
  8
0
  6
CONTINUOUS
 62
2
  2
*D6
  3
DMST_4
 10
-306.9375663940535
 20
216.7170729120392
 30
0
 11
-291.4375763940537
 21
219.9170729120392
 31
0
 12
0
 22
0
 32
0
 70
0
 13
-275.9375763940537
 23
198.7170729120392
 33
0
 14
-306.9375663940537
 24
198.7170729120392
 34
0
 53
0
  0
DIMENSION
  8
1
  6
CONTINUOUS
 62
2
  2
*D7
  3
DMST_5
 10
-253.0151906846922
 20
196.2170729120392
 30
0
 11
-256.6151906846922
 21
181.291499179405
 31
0
 12
0
 22
0
 32
0
 70
0
 13
-273.4375763940537
 23
165.2170729120393
 33
0
 14
-273.4375763940537
 24
196.2170729120392
 34
0
 50
90
 53
0
  0
DIMENSION
  8
1
  6
CONTINUOUS
 62
2
  2
*D8
  3
DMST_6
 10
-173.471724462778
 20
183.2170729120392
 30
0
 11
-177.8983911294447
 21
180.892104424797
 31
0
 12
0
 22
0
 32
0
 70
0
  1
âË<>
 13
-161.5174509706228
 23
178.2170729120392
 33
0
 14
-146.5174402045423
 24
183.2170729120392
 34
0
 50
90
 53
0
  0
DIMENSION
  8
1
  6
CONTINUOUS
 62
2
  2
*D9
  3
DMST_7
 10
-146.5174402045423
 20
219.167281047888
 30
0
 11
-153.287418392114
 21
222.767281047888
 31
0
 12
0
 22
0
 32
0
 70
0
 13
-161.5174384331781
 23
182.7170729120392
 33
0
 14
-146.5174402045423
 24
183.2170729120392
 34
0
 53
0
  0
DIMENSION
  8
1
  6
CONTINUOUS
 62
2
  2
*D10
  3
DMST_8
 10
-137.5174396069864
 20
239.130566283368
 30
0
 11
-148.246184746791
 21
242.730566283368
 31
0
 12
0
 22
0
 32
0
 70
0
 13
-161.5174384331781
 23
182.7170729120392
 33
0
 14
-137.5174396069864
 24
200.7170729120392
 34
0
 53
0
  0
DIMENSION
  8
1
  6
CONTINUOUS
 62
2
  2
*D11
  3
DMST_9
 10
-81.91743885698529
 20
239.130566283368
 30
0
 11
-89.56622511522809
 21
242.730566283368
 31
0
 12
0
 22
0
 32
0
 70
0
  1
(<>
 13
-97.91743210698638
 23
200.7170729120392
 33
0
 14
-81.91743885698529
 24
182.7170729120392
 34
0
 53
0
  0
DIMENSION
  8
1
  6
CONTINUOUS
 62
2
  2
*D12
  3
DMST_7
 10
-96.91743866948634
 20
219.167281047888
 30
0
 11
-89.5280159668456
 21
222.767281047888
 31
0
 12
0
 22
0
 32
0
 70
0
 13
-81.91743885698529
 23
182.7170729120392
 33
0
 14
-96.91743866948634
 24
183.2170729120392
 34
0
 53
0
  0
DIMENSION
  8
1
  6
CONTINUOUS
 62
2
  2
*D13
  3
DMST_10
 10
-60.63614845868641
 20
183.2170729120392
 30
0
 11
-65.4361484586864
 21
196.673572273862
 31
0
 12
0
 22
0
 32
0
 70
0
  1
âË<>
 13
-81.91744054448529
 23
178.2170729120392
 33
0
 14
-96.91743866948634
 24
183.2170729120392
 34
0
 50
90
 53
0
  0
DIMENSION
  8
1
  6
CONTINUOUS
 62
2
  2
*D14
  3
DMST_11
 10
-72.72065529207059
 20
182.7170694632454
 30
0
 11
-76.32065087794246
 21
194.488078505486
 31
0
 12
0
 22
0
 32
0
 70
1
 13
-81.91744054448529
 23
178.2170729120392
 33
0
 14
-81.91743885698529
 24
182.7170729120392
 34
0
 53
0
  0
DIMENSION
  8
1
  6
CONTINUOUS
 62
2
  2
*D15
  3
DMST_11
 10
-168.1934593455179
 20
178.2170915120583
 30
0
 11
-171.793504030845
 21
162.1784238324928
 31
0
 12
0
 22
0
 32
0
 70
1
 13
-161.5174384331781
 23
182.7170729120392
 33
0
 14
-161.5174509706228
 24
178.2170729120392
 34
0
 53
0
  0
DIMENSION
  8
1
  6
CONTINUOUS
 62
2
  2
*D16
  3
DMST_9
 10
-245.437619919824
 20
155.1670729120393
 30
0
 11
-249.037619919824
 21
148.5148602687547
 31
0
 12
0
 22
0
 32
0
 70
0
  1
4.6
 13
-275.4375778688856
 23
159.7170743868716
 33
0
 14
-279.4875763940538
 24
155.1670729120393
 34
0
 50
90
 53
0
  0
DIMENSION
  8
1
  6
CONTINUOUS
 62
2
  2
*D17
  3
DMST_9
 10
-332.8747601122336
 20
159.7170838257988
 30
0
 11
-336.4747601122335
 21
167.911102636454
 31
0
 12
0
 22
0
 32
0
 70
0
  1
üª(<>
 13
-302.8375763940539
 23
153.2170729120394
 33
0
 14
-307.4375866809479
 24
159.7170838257988
 34
0
 50
90
 53
0
  0
DIMENSION
  8
1
  6
CONTINUOUS
 62
2
  2
*D18
  3
DMST_9
 10
-245.4375763940537
 20
201.7170729120392
 30
0
 11
-249.0375763940537
 21
181.550916060879
 31
0
 12
0
 22
0
 32
0
 70
0
  1
(<>
 13
-275.4375778688856
 23
159.7170743868716
 33
0
 14
-275.4375763940537
 24
201.7170729120392
 34
0
 50
90
 53
0
  0
INSERT
  8
0
  2
MOJINOMUKI
 10
-109.3475135772548
 20
485.0784630642792
 30
0
  0
INSERT
  8
1
  2
*D0
 10
0
 20
0
 30
0
  0
INSERT
  8
1
  2
*D1
 10
0
 20
0
 30
0
  0
ENDSEC
  0
EOF
