  0
SECTION
  2
HEADER
  9
$ACADVER
  1
AC1009
  9
$INSBASE
 10
0
 20
0
  9
$EXTMIN
 10
-314.4922758792179
 20
29.78797393800839
  9
$EXTMAX
 10
-16.30142986671206
 20
235.480732341335
  9
$LIMMIN
 10
-314.4922758792179
 20
29.78797393800839
  9
$LIMMAX
 10
-16.30142986671206
 20
235.480732341335
  9
$VIEWCTR
 10
10
 20
10
  9
$VIEWSIZE
 40
10
  9
$SNAPMODE
 70
0
  9
$SNAPUNIT
 10
1
 20
1
  9
$SNAPBASE
 10
0
 20
0
  9
$SNAPANG
 50
0
  9
$SNAPSTYLE
 70
0
  9
$SNAPISOPAIR
 70
0
  9
$GRIDMODE
 70
0
  9
$GRIDUNIT
 10
0
 20
0
  9
$ORTHOMODE
 70
0
  9
$REGENMODE
 70
1
  9
$FILLMODE
 70
1
  9
$QTEXTMODE
 70
0
  9
$DRAGMODE
 70
2
  9
$LTSCALE
 40
1
  9
$OSMODE
 70
0
  9
$ATTMODE
 70
1
  9
$TEXTSIZE
 40
3.5
  9
$TRACEWID
 40
0.5
  9
$TEXTSTYLE
  7
STANDARD
  9
$CLAYER
  8
0
  9
$CELTYPE
  6
BYLAYER
  9
$CECOLOR
 62
256
  9
$DIMSCALE
 40
1
  9
$DIMASZ
 40
0.18
  9
$DIMEXO
 40
0.0625
  9
$DIMDLI
 40
0.38
  9
$DIMRND
 40
0
  9
$DIMDLE
 40
0
  9
$DIMEXE
 40
0.18
  9
$DIMTP
 40
0
  9
$DIMTM
 40
0
  9
$DIMTXT
 40
0.18
  9
$DIMCEN
 40
0.09
  9
$DIMTSZ
 40
0
  9
$DIMTOL
 70
0
  9
$DIMLIM
 70
0
  9
$DIMTIH
 70
1
  9
$DIMTOH
 70
1
  9
$DIMSE1
 70
0
  9
$DIMSE2
 70
0
  9
$DIMTAD
 70
0
  9
$DIMZIN
 70
0
  9
$DIMBLK
  1

  9
$DIMASO
 70
1
  9
$DIMSHO
 70
1
  9
$DIMPOST
  1

  9
$DIMAPOST
  1

  9
$DIMALT
 70
0
  9
$DIMALTD
 70
2
  9
$DIMALTF
 40
25.4
  9
$DIMLFAC
 40
1
  9
$DIMTOFL
 70
0
  9
$DIMTVP
 40
0
  9
$DIMTIX
 70
0
  9
$DIMSOXD
 70
0
  9
$DIMSAH
 70
0
  9
$DIMBLK1
  1

  9
$DIMBLK2
  1

  9
$DIMSTYLE
  2
*UNNAMED
  9
$DIMCLRD
 70
0
  9
$DIMCLRE
 70
0
  9
$DIMCLRT
 70
0
  9
$DIMTFAC
 40
1
  9
$DIMGAP
 40
0.09
  9
$LUNITS
 70
2
  9
$LUPREC
 70
4
  9
$AXISMODE
 70
0
  9
$AXISUNIT
 10
0
 20
0
  9
$SKETCHINC
 40
0.1
  9
$FILLETRAD
 40
2
  9
$AUNITS
 70
0
  9
$AUPREC
 70
0
  9
$MENU
  1
ACAD
  9
$ELEVATION
 40
0
  9
$THICKNESS
 40
0
  9
$VIEWDIR
 10
0
 20
0
 30
1
  9
$LIMCHECK
 70
0
  9
$BLIPMODE
 70
1
  9
$CHAMFERA
 40
0
  9
$CHAMFERB
 40
0
  9
$FASTZOOM
 70
1
  9
$SKPOLY
 70
0
  9
$ANGBASE
 50
0
  9
$ANGDIR
 70
0
  9
$PDMODE
 70
0
  9
$PDSIZE
 40
0
  9
$PLINEWID
 40
0
  9
$COORDS
 70
2
  0
ENDSEC
  0
SECTION
  2
TABLES
  0
TABLE
  2
DIMSTYLE
 70
11
  0
DIMSTYLE
  2
DMST_1
 70
0
  3

  4

  5

  6

  7

 40
1
 41
3.2
 42
1
 43
7
 44
1.5
 45
0
 46
0
 47
40
 48
0
140
3.2
141
0
142
0
143
25.4
144
1
145
0
146
0.7
147
0.09
 71
1
 72
0
 73
0
 74
0
 75
0
 76
0
 77
1
 78
9
170
0
171
2
172
0
173
0
174
0
175
0
176
2
177
2
178
2
  0
DIMSTYLE
  2
DMST_2
 70
0
  3
)
  4

  5

  6

  7

 40
1
 41
3.2
 42
1
 43
7
 44
1.5
 45
0
 46
0
 47
0
 48
0
140
3.2
141
0
142
0
143
25.4
144
1
145
0
146
1
147
0.09
 71
0
 72
0
 73
0
 74
0
 75
0
 76
0
 77
1
 78
9
170
0
171
2
172
0
173
0
174
0
175
0
176
2
177
2
178
2
  0
DIMSTYLE
  2
DMST_3
 70
0
  3
)
  4

  5

  6

  7

 40
1
 41
3.2
 42
1
 43
7
 44
1
 45
0
 46
0
 47
0
 48
0
140
3.2
141
0
142
0
143
25.4
144
1
145
0
146
1
147
0.09
 71
0
 72
0
 73
0
 74
0
 75
0
 76
0
 77
1
 78
9
170
0
171
2
172
0
173
0
174
0
175
0
176
2
177
2
178
2
  0
DIMSTYLE
  2
DMST_4
 70
0
  3

  4

  5

  6

  7

 40
1
 41
3.2
 42
0
 43
7
 44
1
 45
0
 46
0
 47
0
 48
0
140
3.2
141
0
142
0
143
25.4
144
1
145
0
146
0.6
147
0.09
 71
1
 72
0
 73
0
 74
0
 75
0
 76
0
 77
1
 78
9
170
0
171
2
172
0
173
0
174
0
175
0
176
2
177
2
178
2
  0
DIMSTYLE
  2
DMST_5
 70
0
  3

  4

  5

  6

  7

 40
1
 41
3.200000000000001
 42
1
 43
7
 44
1
 45
0
 46
0
 47
0.2
 48
0.2
140
3.200000000000001
141
0
142
0
143
25.4
144
1
145
0
146
0.6
147
0.09
 71
1
 72
0
 73
0
 74
0
 75
0
 76
0
 77
1
 78
9
170
0
171
2
172
0
173
0
174
0
175
0
176
2
177
2
178
2
  0
DIMSTYLE
  2
DMST_6
 70
0
  3
MAX.
  4

  5

  6

  7

 40
1
 41
3.2
 42
1
 43
7
 44
1
 45
0
 46
0
 47
0
 48
0
140
3.2
141
0
142
0
143
25.4
144
1
145
0
146
1
147
0.09
 71
0
 72
0
 73
0
 74
0
 75
0
 76
0
 77
1
 78
9
170
0
171
2
172
0
173
0
174
0
175
0
176
2
177
2
178
2
  0
DIMSTYLE
  2
DMST_7
 70
0
  3

  4

  5

  6

  7

 40
1
 41
3.2
 42
1
 43
7
 44
1
 45
0
 46
0
 47
0
 48
0
140
3.2
141
0
142
0
143
25.4
144
1
145
0
146
0.6
147
0.09
 71
1
 72
0
 73
0
 74
0
 75
0
 76
0
 77
1
 78
9
170
0
171
2
172
0
173
0
174
0
175
0
176
2
177
2
178
2
  0
DIMSTYLE
  2
DMST_8
 70
0
  3

  4

  5

  6

  7

 40
1
 41
3.2
 42
1
 43
7
 44
1.5
 45
0
 46
0
 47
0.5
 48
0.5
140
3.2
141
0
142
0
143
25.4
144
1
145
0
146
0.7
147
0.09
 71
1
 72
0
 73
0
 74
0
 75
0
 76
0
 77
1
 78
9
170
0
171
2
172
0
173
0
174
0
175
0
176
2
177
2
178
2
  0
DIMSTYLE
  2
DMST_9
 70
0
  3

  4

  5

  6

  7

 40
1
 41
3.2
 42
1
 43
7
 44
1.5
 45
0
 46
0
 47
0.2
 48
0.2
140
3.2
141
0
142
0
143
25.4
144
1
145
0
146
0.7
147
0.09
 71
1
 72
0
 73
0
 74
0
 75
0
 76
0
 77
1
 78
9
170
0
171
2
172
0
173
0
174
0
175
0
176
2
177
2
178
2
  0
DIMSTYLE
  2
DMST_10
 70
0
  3

  4

  5

  6

  7

 40
1
 41
3.2
 42
1
 43
7
 44
1.5
 45
0
 46
0
 47
0.1
 48
0.1
140
3.2
141
0
142
0
143
25.4
144
1
145
0
146
0.7
147
0.09
 71
1
 72
0
 73
0
 74
0
 75
0
 76
0
 77
1
 78
9
170
0
171
2
172
0
173
0
174
0
175
0
176
2
177
2
178
2
  0
DIMSTYLE
  2
DMST_11
 70
0
  3

  4

  5

  6

  7

 40
1
 41
3.2
 42
1
 43
7
 44
1.5
 45
0
 46
0
 47
0
 48
0.011
140
3.2
141
0
142
0
143
25.4
144
1
145
0
146
0.7
147
0.09
 71
1
 72
0
 73
0
 74
0
 75
0
 76
0
 77
1
 78
9
170
0
171
2
172
0
173
0
174
0
175
0
176
2
177
2
178
2
  0
ENDTAB
  0
TABLE
  2
LTYPE
 70
9
  0
LTYPE
  2
CONTINUOUS
 70
64
  3
Solid line
 72
65
 73
0
 40
0
  0
LTYPE
  2
BORDER
 70
64
  3
__ __ . __ __ .
 72
65
 73
6
 40
13.73247317162856
 49
3.923563763322445
 49
-1.961781881661223
 49
3.923563763322445
 49
-1.961781881661223
 49
0
 49
-1.961781881661223
  0
LTYPE
  2
CENTER
 70
64
  3
____ _ ____ _
 72
65
 73
4
 40
15.69425505328978
 49
9.808909408306114
 49
-1.961781881661223
 49
1.961781881661223
 49
-1.961781881661223
  0
LTYPE
  2
DASHDOT
 70
64
  3
__ . __ . __ .
 72
65
 73
4
 40
7.847127526644891
 49
3.923563763322445
 49
-1.961781881661223
 49
0
 49
-1.961781881661223
  0
LTYPE
  2
DASHED
 70
64
  3
__ __ __ __ __
 72
65
 73
2
 40
5.885345644983668
 49
3.923563763322445
 49
-1.961781881661223
  0
LTYPE
  2
DIVIDE
 70
64
  3
__ . . __ . . 
 72
65
 73
6
 40
9.808909408306114
 49
3.923563763322445
 49
-1.961781881661223
 49
0
 49
-1.961781881661223
 49
0
 49
-1.961781881661223
  0
LTYPE
  2
DOT
 70
64
  3
..............
 72
65
 73
4
 40
3.923563763322445
 49
0
 49
-1.961781881661223
 49
0
 49
-1.961781881661223
  0
LTYPE
  2
HIDDEN
 70
64
  3
_ _ _ _ _ _ _
 72
65
 73
2
 40
2.942672822491834
 49
1.961781881661223
 49
-0.9808909408306114
  0
LTYPE
  2
PHANTOM
 70
64
  3
_____ _ _ _____ _ _ 
 72
65
 73
6
 40
19.61781881661223
 49
9.808909408306114
 49
-1.961781881661223
 49
1.961781881661223
 49
-1.961781881661223
 49
1.961781881661223
 49
-1.961781881661223
  0
ENDTAB
  0
TABLE
  2
LAYER
 70
5
  0
LAYER
  2
1
 70
0
 62
7
  6
CONTINUOUS
  0
LAYER
  2
2
 70
0
 62
7
  6
CONTINUOUS
  0
LAYER
  2
4
 70
0
 62
7
  6
CONTINUOUS
  0
LAYER
  2
0
 70
0
 62
7
  6
CONTINUOUS
  0
ENDTAB
  0
TABLE
  2
STYLE
 70
4
  0
STYLE
  2
STANDARD
 70
0
 40
0
 41
1
 50
0
 71
0
 42
3.5
  3
txt
  4

  0
STYLE
  2
SIMPLEX
 70
0
 40
0
 41
1
 50
0
 71
0
 42
3.5
  3
simplex
  4

  0
STYLE
  2
COMPLEX
 70
0
 40
0
 41
1
 50
0
 71
0
 42
3.5
  3
complex
  4

  0
STYLE
  2
ITALIC
 70
0
 40
0
 41
1
 50
0
 71
0
 42
3.5
  3
italic
  4

  0
ENDTAB
  0
TABLE
  2
VIEW
 70
0
  0
ENDTAB
  0
ENDSEC
  0
SECTION
  2
BLOCKS
  0
BLOCK
  8
1
  2
*D0
 70
1
 10
0
 20
0
 30
0
  0
LINE
  8
1
 62
2
 10
-306.8922758792179
 20
88.27478096896309
 30
0
 11
-306.8922758792179
 21
142.1928455777343
 31
0
  0
LINE
  8
1
 62
2
 10
-273.4603146075779
 20
142.1928455777343
 30
0
 11
-308.3922758792179
 21
142.1928455777343
 31
0
  0
LINE
  8
1
 62
2
 10
-272.360314607578
 20
88.27478096896309
 30
0
 11
-308.3922758792179
 21
88.27478096896309
 31
0
  0
SOLID
  8
1
 62
2
 10
-306.8922758792179
 20
88.27478096896309
 30
0
 11
-307.3082758792179
 21
91.47478096896309
 31
0
 12
-306.4762758792179
 22
91.47478096896309
 32
0
 13
-306.4762758792179
 23
91.47478096896309
 33
0
  0
SOLID
  8
1
 62
2
 10
-306.8922758792179
 20
142.1928455777343
 30
0
 11
-306.4762758792179
 21
138.9928455777343
 31
0
 12
-307.3082758792179
 22
138.9928455777343
 32
0
 13
-307.3082758792179
 23
138.9928455777343
 33
0
  0
TEXT
  8
1
 62
2
 10
-310.0922758792179
 20
108.003224568996
 30
0
 40
3.2
  1
300
 50
90
 41
0.9
  0
TEXT
  8
1
 62
2
 10
-312.2522758792179
 20
117.283224568996
 30
0
 40
2.24
  1
+40
 50
90
 41
0.9900000000000001
  0
TEXT
  8
1
 62
2
 10
-308.8922758792179
 20
117.283224568996
 30
0
 40
2.24
  1
 0
 50
90
 41
0.9900000000000001
  0
ENDBLK
  8
0
  0
BLOCK
  8
1
  2
*D1
 70
1
 10
0
 20
0
 30
0
  0
LINE
  8
1
 62
2
 10
-297.6570991584449
 20
91.77478096896309
 30
0
 11
-297.6570991584449
 21
103.430847424545
 31
0
  0
LINE
  8
1
 62
2
 10
-297.6570991584449
 20
88.27478096896309
 30
0
 11
-297.6570991584449
 21
91.77478096896309
 31
0
  0
LINE
  8
1
 62
2
 10
-297.6570991584449
 20
81.87478096896308
 30
0
 11
-297.6570991584449
 21
88.27478096896309
 31
0
  0
LINE
  8
1
 62
2
 10
-272.6803146075777
 20
91.77478096896309
 30
0
 11
-299.1570991584449
 21
91.77478096896309
 31
0
  0
LINE
  8
1
 62
2
 10
-272.3603146075778
 20
88.27478096896309
 30
0
 11
-299.1570991584449
 21
88.27478096896309
 31
0
  0
SOLID
  8
1
 62
2
 10
-297.6570991584449
 20
88.27478096896309
 30
0
 11
-297.2410991584449
 21
85.07478096896308
 31
0
 12
-298.0730991584449
 22
85.07478096896308
 32
0
 13
-298.0730991584449
 23
85.07478096896308
 33
0
  0
SOLID
  8
1
 62
2
 10
-297.6570991584449
 20
91.77478096896309
 30
0
 11
-298.0730991584449
 21
94.97478096896309
 31
0
 12
-297.2410991584449
 22
94.97478096896309
 32
0
 13
-297.2410991584449
 23
94.97478096896309
 33
0
  0
TEXT
  8
1
 62
2
 10
-299.6570991584448
 20
95.51084742454499
 30
0
 40
3.2
  1
3.5
 50
90
 41
0.9
  0
TEXT
  8
1
 62
2
 10
-299.6570991584448
 20
93.19084742454498
 30
0
 40
3.2
  1
(
 50
90
 41
1.35
  0
TEXT
  8
1
 62
2
 10
-299.6570991584448
 20
102.950847424545
 30
0
 40
3.2
  1
)
 50
90
 41
0.9
  0
ENDBLK
  8
0
  0
BLOCK
  8
1
  2
*D2
 70
1
 10
0
 20
0
 30
0
  0
LINE
  8
1
 62
2
 10
-306.8922758792178
 20
135.7928455777343
 30
0
 11
-306.8922758792178
 21
142.1928455777343
 31
0
  0
LINE
  8
1
 62
2
 10
-306.8922758792178
 20
142.1928455777343
 30
0
 11
-306.8922758792178
 21
148.6723590094207
 31
0
  0
LINE
  8
1
 62
2
 10
-306.8922758792178
 20
148.6723590094207
 30
0
 11
-306.8922758792178
 21
163.5810579117505
 31
0
  0
LINE
  8
1
 62
2
 10
-278.2103146075776
 20
142.1928455777343
 30
0
 11
-308.3922758792178
 21
142.1928455777343
 31
0
  0
LINE
  8
1
 62
2
 10
-282.1603153611353
 20
148.6723590094207
 30
0
 11
-308.3922758792178
 21
148.6723590094207
 31
0
  0
SOLID
  8
1
 62
2
 10
-306.8922758792178
 20
142.1928455777343
 30
0
 11
-306.4762758792178
 21
138.9928455777343
 31
0
 12
-307.3082758792178
 22
138.9928455777343
 32
0
 13
-307.3082758792178
 23
138.9928455777343
 33
0
  0
SOLID
  8
1
 62
2
 10
-306.8922758792178
 20
148.6723590094207
 30
0
 11
-307.3082758792178
 21
151.8723590094207
 31
0
 12
-306.4762758792178
 22
151.8723590094207
 32
0
 13
-306.4762758792178
 23
151.8723590094207
 33
0
  0
TEXT
  8
1
 62
2
 10
-308.8922758792178
 20
151.0963520293975
 30
0
 40
3.2
  1
üª(6.5)
 50
90
 41
0.9
  0
ENDBLK
  8
0
  0
BLOCK
  8
0
  2
*D3
 70
1
 10
0
 20
0
 30
0
  0
LINE
  8
0
 62
2
 10
-286.0603157983971
 20
215.6723590094207
 30
0
 11
-244.0603146075778
 21
215.6723590094207
 31
0
  0
LINE
  8
0
 62
2
 10
-244.0603146075778
 20
186.6723590094207
 30
0
 11
-244.0603146075778
 21
216.6723590094207
 31
0
  0
LINE
  8
0
 62
2
 10
-286.0603157983971
 20
186.6723602002402
 30
0
 11
-286.0603157983971
 21
216.6723590094207
 31
0
  0
SOLID
  8
0
 62
2
 10
-286.0603157983971
 20
215.6723590094207
 30
0
 11
-282.8603157983971
 21
216.0883590094207
 31
0
 12
-282.8603157983971
 22
215.2563590094207
 32
0
 13
-282.8603157983971
 23
215.2563590094207
 33
0
  0
SOLID
  8
0
 62
2
 10
-244.0603146075778
 20
215.6723590094207
 30
0
 11
-247.2603146075778
 21
215.2563590094207
 31
0
 12
-247.2603146075778
 22
216.0883590094207
 32
0
 13
-247.2603146075778
 23
216.0883590094207
 33
0
  0
TEXT
  8
0
 62
2
 10
-267.4603152029875
 20
217.2723590094207
 30
0
 40
3.2
  1
42
 41
0.9
  0
TEXT
  8
0
 62
2
 10
-269.5403152029875
 20
217.2723590094207
 30
0
 40
3.2
  1
(
 41
0.9
  0
TEXT
  8
0
 62
2
 10
-261.0603152029875
 20
217.2723590094207
 30
0
 40
3.2
  1
)
 41
0.9
  0
ENDBLK
  8
0
  0
BLOCK
  8
0
  2
*D4
 70
1
 10
0
 20
0
 30
0
  0
LINE
  8
0
 62
2
 10
-280.5603046075777
 20
205.6723590094207
 30
0
 11
-249.5603146075777
 21
205.6723590094207
 31
0
  0
LINE
  8
0
 62
2
 10
-249.5603146075777
 20
187.6723590094207
 30
0
 11
-249.5603146075777
 21
206.6723590094207
 31
0
  0
LINE
  8
0
 62
2
 10
-280.5603046075777
 20
187.6723590094207
 30
0
 11
-280.5603046075777
 21
206.6723590094207
 31
0
  0
SOLID
  8
0
 62
2
 10
-280.5603046075777
 20
205.6723590094207
 30
0
 11
-277.3603046075778
 21
206.0883590094207
 31
0
 12
-277.3603046075778
 22
205.2563590094207
 32
0
 13
-277.3603046075778
 23
205.2563590094207
 33
0
  0
SOLID
  8
0
 62
2
 10
-249.5603146075777
 20
205.6723590094207
 30
0
 11
-252.7603146075777
 21
205.2563590094207
 31
0
 12
-252.7603146075777
 22
206.0883590094207
 32
0
 13
-252.7603146075777
 23
206.0883590094207
 33
0
  0
TEXT
  8
0
 62
2
 10
-270.2043146075777
 20
207.2723590094207
 30
0
 40
3.2
  1
31
 41
0.9
  0
TEXT
  8
0
 62
2
 10
-264.7643146075777
 20
207.9123590094207
 30
0
 40
1.92
  1
%%p0.2
 41
0.9
  0
ENDBLK
  8
0
  0
BLOCK
  8
1
  2
*D5
 70
1
 10
0
 20
0
 30
0
  0
LINE
  8
1
 62
2
 10
-229.0603146075775
 20
154.1723590094209
 30
0
 11
-229.0603146075775
 21
185.1723590094208
 31
0
  0
LINE
  8
1
 62
2
 10
-246.0603146075775
 20
185.1723590094208
 30
0
 11
-228.0603146075775
 21
185.1723590094208
 31
0
  0
LINE
  8
1
 62
2
 10
-246.0603146075775
 20
154.1723590094209
 30
0
 11
-228.0603146075775
 21
154.1723590094209
 31
0
  0
SOLID
  8
1
 62
2
 10
-229.0603146075775
 20
185.1723590094208
 30
0
 11
-228.6443146075775
 21
181.9723590094208
 31
0
 12
-229.4763146075775
 22
181.9723590094208
 32
0
 13
-229.4763146075775
 23
181.9723590094208
 33
0
  0
SOLID
  8
1
 62
2
 10
-229.0603146075775
 20
154.1723590094209
 30
0
 11
-229.4763146075775
 21
157.3723590094209
 31
0
 12
-228.6443146075775
 22
157.3723590094209
 32
0
 13
-228.6443146075775
 23
157.3723590094209
 33
0
  0
TEXT
  8
1
 62
2
 10
-231.0603146075775
 20
163.7470964705136
 30
0
 40
3.200000000000001
  1
31
 50
90
 41
0.9
  0
TEXT
  8
1
 62
2
 10
-231.7003146075775
 20
169.1870964705136
 30
0
 40
1.920000000000001
  1
%%p0.2
 50
90
 41
0.9
  0
ENDBLK
  8
0
  0
BLOCK
  8
0
  2
*D6
 70
1
 10
0
 20
0
 30
0
  0
LINE
  8
0
 62
2
 10
-93.13395831055151
 20
230.280732341335
 30
0
 11
-59.5339583105513
 21
230.280732341335
 31
0
  0
LINE
  8
0
 62
2
 10
-93.13395831055151
 20
190.9795590094209
 30
0
 11
-93.13395831055151
 21
231.280732341335
 31
0
  0
LINE
  8
0
 62
2
 10
-59.5339583105513
 20
190.6723590094207
 30
0
 11
-59.5339583105513
 21
231.280732341335
 31
0
  0
SOLID
  8
0
 62
2
 10
-93.13395831055151
 20
230.280732341335
 30
0
 11
-89.9339583105515
 21
230.696732341335
 31
0
 12
-89.9339583105515
 22
229.864732341335
 32
0
 13
-89.9339583105515
 23
229.864732341335
 33
0
  0
SOLID
  8
0
 62
2
 10
-59.5339583105513
 20
230.280732341335
 30
0
 11
-62.7339583105513
 21
229.864732341335
 31
0
 12
-62.7339583105513
 22
230.696732341335
 32
0
 13
-62.7339583105513
 23
230.696732341335
 33
0
  0
TEXT
  8
0
 62
2
 10
-85.6657940993389
 20
231.880732341335
 30
0
 40
3.2
  1
34
 41
0.9
  0
TEXT
  8
0
 62
2
 10
-79.26579409933889
 20
231.880732341335
 30
0
 40
3.2
  1
MAX.
 41
0.9
  0
ENDBLK
  8
0
  0
BLOCK
  8
0
  2
*D7
 70
1
 10
0
 20
0
 30
0
  0
LINE
  8
0
 62
2
 10
-86.7339583105515
 20
222.960048990895
 30
0
 11
-93.13395831055151
 21
222.960048990895
 31
0
  0
LINE
  8
0
 62
2
 10
-95.13395831055151
 20
222.960048990895
 30
0
 11
-93.13395831055151
 21
222.960048990895
 31
0
  0
LINE
  8
0
 62
2
 10
-95.13395831055151
 20
222.960048990895
 30
0
 11
-105.554066264044
 21
222.960048990895
 31
0
  0
LINE
  8
0
 62
2
 10
-95.13395831055151
 20
181.6723590094207
 30
0
 11
-95.13395831055151
 21
223.960048990895
 31
0
  0
LINE
  8
0
 62
2
 10
-93.13395831055151
 20
190.9795590094209
 30
0
 11
-93.13395831055151
 21
223.960048990895
 31
0
  0
SOLID
  8
0
 62
2
 10
-95.13395831055151
 20
222.960048990895
 30
0
 11
-98.33395831055151
 21
222.544048990895
 31
0
 12
-98.33395831055151
 22
223.376048990895
 32
0
 13
-98.33395831055151
 23
223.376048990895
 33
0
  0
SOLID
  8
0
 62
2
 10
-93.13395831055151
 20
222.960048990895
 30
0
 11
-89.9339583105515
 21
223.376048990895
 31
0
 12
-89.9339583105515
 22
222.544048990895
 32
0
 13
-89.9339583105515
 23
222.544048990895
 33
0
  0
TEXT
  8
0
 62
2
 10
-105.554066264044
 20
224.560048990895
 30
0
 40
3.2
  1
2
 41
0.9
  0
TEXT
  8
0
 62
2
 10
-102.034066264044
 20
225.200048990895
 30
0
 40
1.92
  1
%%p0.2
 41
0.9
  0
ENDBLK
  8
0
  0
BLOCK
  8
0
  2
*D8
 70
1
 10
0
 20
0
 30
0
  0
LINE
  8
0
 62
2
 10
-144.615956122789
 20
158.6723590094208
 30
0
 11
-144.615956122789
 21
180.6723590094207
 31
0
  0
LINE
  8
0
 62
2
 10
-96.13395831055151
 20
180.6723590094207
 30
0
 11
-145.615956122789
 21
180.6723590094207
 31
0
  0
LINE
  8
0
 62
2
 10
-96.13405831055147
 20
158.6723590094208
 30
0
 11
-145.615956122789
 21
158.6723590094208
 31
0
  0
SOLID
  8
0
 62
2
 10
-144.615956122789
 20
180.6723590094207
 30
0
 11
-144.199956122789
 21
177.4723590094207
 31
0
 12
-145.031956122789
 22
177.4723590094207
 32
0
 13
-145.031956122789
 23
177.4723590094207
 33
0
  0
SOLID
  8
0
 62
2
 10
-144.615956122789
 20
158.6723590094208
 30
0
 11
-145.031956122789
 21
161.8723590094208
 31
0
 12
-144.199956122789
 22
161.8723590094208
 32
0
 13
-144.199956122789
 23
161.8723590094208
 33
0
  0
TEXT
  8
0
 62
2
 10
-147.015956122789
 20
164.9680712120739
 30
0
 40
3.2
  1
22
 50
90
 41
0.9
  0
TEXT
  8
0
 62
2
 10
-149.095956122789
 20
171.3680712120739
 30
0
 40
1.92
  1
0
 50
90
 41
0.9
  0
TEXT
  8
0
 62
2
 10
-146.215956122789
 20
171.3680712120739
 30
0
 40
1.92
  1
-0.05
 50
90
 41
0.9
  0
TEXT
  8
0
 62
2
 10
-147.015956122789
 20
161.1280712120739
 30
0
 40
3.2
  1
%%c
 50
90
 41
0.9
  0
ENDBLK
  8
0
  0
BLOCK
  8
1
  2
*D9
 70
1
 10
0
 20
0
 30
0
  0
LINE
  8
1
 62
2
 10
-133.7579012465407
 20
167.1723590094207
 30
0
 11
-133.7579012465407
 21
172.1723590094207
 31
0
  0
LINE
  8
1
 62
2
 10
-133.7579012465407
 20
167.1723590094207
 30
0
 11
-133.7579012465407
 21
160.7723590094207
 31
0
  0
LINE
  8
1
 62
2
 10
-133.7579012465407
 20
172.1723590094207
 30
0
 11
-133.7579012465407
 21
178.5723590094207
 31
0
  0
LINE
  8
1
 62
2
 10
-118.133978765097
 20
167.1723590094207
 30
0
 11
-135.2579012465407
 21
167.1723590094207
 31
0
  0
LINE
  8
1
 62
2
 10
-103.1339583105515
 20
172.1723590094207
 30
0
 11
-135.2579012465407
 21
172.1723590094207
 31
0
  0
SOLID
  8
1
 62
2
 10
-133.7579012465407
 20
172.1723590094207
 30
0
 11
-134.1739012465407
 21
175.3723590094207
 31
0
 12
-133.3419012465407
 22
175.3723590094207
 32
0
 13
-133.3419012465407
 23
175.3723590094207
 33
0
  0
SOLID
  8
1
 62
2
 10
-133.7579012465407
 20
167.1723590094207
 30
0
 11
-133.3419012465407
 21
163.9723590094207
 31
0
 12
-134.1739012465407
 22
163.9723590094207
 32
0
 13
-134.1739012465407
 23
163.9723590094207
 33
0
  0
TEXT
  8
1
 62
2
 10
-136.9579012465407
 20
165.9851883311981
 30
0
 40
3.200000000000001
  1
5
 50
90
 41
0.9
  0
TEXT
  8
1
 62
2
 10
-139.1179012465407
 20
169.5051883311981
 30
0
 40
2.240000000000001
  1
 0
 50
90
 41
0.9900000000000001
  0
TEXT
  8
1
 62
2
 10
-135.7579012465407
 20
169.5051883311981
 30
0
 40
2.240000000000001
  1
-0.011
 50
90
 41
0.9900000000000001
  0
TEXT
  8
1
 62
2
 10
-136.9579012465407
 20
160.7146000959039
 30
0
 40
3.200000000000001
  1
âË
 50
90
 41
1.35
  0
ENDBLK
  8
0
  0
BLOCK
  8
1
  2
*D10
 70
1
 10
0
 20
0
 30
0
  0
LINE
  8
1
 62
2
 10
-117.1339583105515
 20
230.280732341335
 30
0
 11
-93.13395831055151
 21
230.280732341335
 31
0
  0
LINE
  8
1
 62
2
 10
-117.1339583105515
 20
172.6723590094207
 30
0
 11
-117.1339583105515
 21
231.780732341335
 31
0
  0
LINE
  8
1
 62
2
 10
-93.13395831055151
 20
190.9795590094209
 30
0
 11
-93.13395831055151
 21
231.780732341335
 31
0
  0
SOLID
  8
1
 62
2
 10
-93.13395831055151
 20
230.280732341335
 30
0
 11
-96.33395831055151
 21
229.864732341335
 31
0
 12
-96.33395831055151
 22
230.696732341335
 32
0
 13
-96.33395831055151
 23
230.696732341335
 33
0
  0
SOLID
  8
1
 62
2
 10
-117.1339583105515
 20
230.280732341335
 30
0
 11
-113.9339583105515
 21
230.696732341335
 31
0
 12
-113.9339583105515
 22
229.864732341335
 32
0
 13
-113.9339583105515
 23
229.864732341335
 33
0
  0
TEXT
  8
1
 62
2
 10
-111.864113892867
 20
232.280732341335
 30
0
 40
3.2
  1
24
 41
0.9
  0
TEXT
  8
1
 62
2
 10
-105.464113892867
 20
232.760732341335
 30
0
 40
2.24
  1
%%p0.5
 41
0.9900000000000001
  0
ENDBLK
  8
0
  0
BLOCK
  8
1
  2
*D11
 70
1
 10
0
 20
0
 30
0
  0
LINE
  8
1
 62
2
 10
-117.1339583105515
 20
212.352528217807
 30
0
 11
-102.1339583105515
 21
212.352528217807
 31
0
  0
LINE
  8
1
 62
2
 10
-117.1339583105515
 20
172.6723590094207
 30
0
 11
-117.1339583105515
 21
213.852528217807
 31
0
  0
LINE
  8
1
 62
2
 10
-102.1339583105515
 20
173.1723590094207
 30
0
 11
-102.1339583105515
 21
213.852528217807
 31
0
  0
SOLID
  8
1
 62
2
 10
-117.1339583105515
 20
212.352528217807
 30
0
 11
-113.9339583105515
 21
212.768528217807
 31
0
 12
-113.9339583105515
 22
211.936528217807
 32
0
 13
-113.9339583105515
 23
211.936528217807
 33
0
  0
SOLID
  8
1
 62
2
 10
-102.1339583105515
 20
212.352528217807
 30
0
 11
-105.3339583105515
 21
211.936528217807
 31
0
 12
-105.3339583105515
 22
212.768528217807
 32
0
 13
-105.3339583105515
 23
212.768528217807
 33
0
  0
TEXT
  8
1
 62
2
 10
-115.268558119631
 20
214.352528217807
 30
0
 40
3.2
  1
15
 41
0.9
  0
TEXT
  8
1
 62
2
 10
-109.828558119631
 20
214.832528217807
 30
0
 40
2.24
  1
%%p0.2
 41
0.9900000000000001
  0
ENDBLK
  8
0
  0
BLOCK
  8
1
  2
*D12
 70
1
 10
0
 20
0
 30
0
  0
LINE
  8
1
 62
2
 10
-126.198560569227
 20
178.0723590094207
 30
0
 11
-126.198560569227
 21
171.6723590094207
 31
0
  0
LINE
  8
1
 62
2
 10
-126.198560569227
 20
167.1723590094207
 30
0
 11
-126.198560569227
 21
171.6723590094207
 31
0
  0
LINE
  8
1
 62
2
 10
-126.198560569227
 20
167.1723590094207
 30
0
 11
-126.198560569227
 21
144.685945576752
 31
0
  0
LINE
  8
1
 62
2
 10
-118.1339583105515
 20
167.1723590094207
 30
0
 11
-127.698560569227
 21
167.1723590094207
 31
0
  0
LINE
  8
1
 62
2
 10
-118.1339583105515
 20
171.6723590094207
 30
0
 11
-127.698560569227
 21
171.6723590094207
 31
0
  0
SOLID
  8
1
 62
2
 10
-126.198560569227
 20
171.6723590094207
 30
0
 11
-126.614560569227
 21
174.8723590094207
 31
0
 12
-125.782560569227
 22
174.8723590094207
 32
0
 13
-125.782560569227
 23
174.8723590094207
 33
0
  0
SOLID
  8
1
 62
2
 10
-126.198560569227
 20
167.1723590094207
 30
0
 11
-125.782560569227
 21
163.9723590094207
 31
0
 12
-126.614560569227
 22
163.9723590094207
 32
0
 13
-126.614560569227
 23
163.9723590094207
 33
0
  0
TEXT
  8
1
 62
2
 10
-128.198560569227
 20
144.685945576752
 30
0
 40
3.2
  1
4.5
 50
90
 41
0.9
  0
TEXT
  8
1
 62
2
 10
-128.678560569227
 20
152.125945576752
 30
0
 40
2.24
  1
%%p0.1
 50
90
 41
0.9900000000000001
  0
ENDBLK
  8
0
  0
BLOCK
  8
1
  2
*D13
 70
1
 10
0
 20
0
 30
0
  0
LINE
  8
1
 62
2
 10
-59.5339583105513
 20
230.280732341335
 30
0
 11
-43.53396506055021
 21
230.280732341335
 31
0
  0
LINE
  8
1
 62
2
 10
-59.5339583105513
 20
190.6723590094207
 30
0
 11
-59.5339583105513
 21
231.780732341335
 31
0
  0
LINE
  8
1
 62
2
 10
-43.53396506055021
 20
172.6723590094207
 30
0
 11
-43.53396506055021
 21
231.780732341335
 31
0
  0
SOLID
  8
1
 62
2
 10
-59.5339583105513
 20
230.280732341335
 30
0
 11
-56.3339583105513
 21
230.696732341335
 31
0
 12
-56.3339583105513
 22
229.864732341335
 32
0
 13
-56.3339583105513
 23
229.864732341335
 33
0
  0
SOLID
  8
1
 62
2
 10
-43.53396506055021
 20
230.280732341335
 30
0
 11
-46.73396506055021
 21
229.864732341335
 31
0
 12
-46.73396506055021
 22
230.696732341335
 32
0
 13
-46.73396506055021
 23
230.696732341335
 33
0
  0
TEXT
  8
1
 62
2
 10
-53.419299821252
 20
232.280732341335
 30
0
 40
3.2
  1
16
 41
0.9
  0
TEXT
  8
1
 62
2
 10
-55.739299821252
 20
232.280732341335
 30
0
 40
3.2
  1
(
 41
1.35
  0
TEXT
  8
1
 62
2
 10
-47.979299821252
 20
232.280732341335
 30
0
 40
3.2
  1
)
 41
0.9
  0
ENDBLK
  8
0
  0
BLOCK
  8
1
  2
*D14
 70
1
 10
0
 20
0
 30
0
  0
LINE
  8
1
 62
2
 10
-58.53396487305126
 20
212.352528217807
 30
0
 11
-43.53396506055021
 21
212.352528217807
 31
0
  0
LINE
  8
1
 62
2
 10
-58.53396487305126
 20
173.1723590094207
 30
0
 11
-58.53396487305126
 21
213.852528217807
 31
0
  0
LINE
  8
1
 62
2
 10
-43.53396506055021
 20
172.6723590094207
 30
0
 11
-43.53396506055021
 21
213.852528217807
 31
0
  0
SOLID
  8
1
 62
2
 10
-58.53396487305126
 20
212.352528217807
 30
0
 11
-55.33396487305126
 21
212.768528217807
 31
0
 12
-55.33396487305126
 22
211.936528217807
 32
0
 13
-55.33396487305126
 23
211.936528217807
 33
0
  0
SOLID
  8
1
 62
2
 10
-43.53396506055021
 20
212.352528217807
 30
0
 11
-46.73396506055021
 21
211.936528217807
 31
0
 12
-46.73396506055021
 22
212.768528217807
 32
0
 13
-46.73396506055021
 23
212.768528217807
 33
0
  0
TEXT
  8
1
 62
2
 10
-56.85249301713441
 20
214.352528217807
 30
0
 40
3.2
  1
15
 41
0.9
  0
TEXT
  8
1
 62
2
 10
-51.4124930171344
 20
214.832528217807
 30
0
 40
2.24
  1
%%p0.2
 41
0.9900000000000001
  0
ENDBLK
  8
0
  0
BLOCK
  8
1
  2
*D15
 70
1
 10
0
 20
0
 30
0
  0
LINE
  8
1
 62
2
 10
-20.6129441713868
 20
160.7723590094207
 30
0
 11
-20.6129441713868
 21
167.1723590094207
 31
0
  0
LINE
  8
1
 62
2
 10
-20.6129441713868
 20
167.1723590094207
 30
0
 11
-20.6129441713868
 21
172.1723590094207
 31
0
  0
LINE
  8
1
 62
2
 10
-20.6129441713868
 20
172.1723590094207
 30
0
 11
-20.6129441713868
 21
191.9368783233551
 31
0
  0
LINE
  8
1
 62
2
 10
-42.53396674805022
 20
167.1723590094207
 30
0
 11
-19.1129441713868
 21
167.1723590094207
 31
0
  0
LINE
  8
1
 62
2
 10
-57.53396487305126
 20
172.1723590094207
 30
0
 11
-19.1129441713868
 21
172.1723590094207
 31
0
  0
SOLID
  8
1
 62
2
 10
-20.6129441713868
 20
172.1723590094207
 30
0
 11
-21.0289441713868
 21
175.3723590094207
 31
0
 12
-20.1969441713868
 22
175.3723590094207
 32
0
 13
-20.1969441713868
 23
175.3723590094207
 33
0
  0
SOLID
  8
1
 62
2
 10
-20.6129441713868
 20
167.1723590094207
 30
0
 11
-20.1969441713868
 21
163.9723590094207
 31
0
 12
-21.0289441713868
 22
163.9723590094207
 32
0
 13
-21.0289441713868
 23
163.9723590094207
 33
0
  0
TEXT
  8
1
 62
2
 10
-23.8129441713868
 20
178.9920783233551
 30
0
 40
3.2
  1
5
 50
90
 41
0.9
  0
TEXT
  8
1
 62
2
 10
-25.9729441713868
 20
182.5120783233551
 30
0
 40
2.24
  1
 0
 50
90
 41
0.9900000000000001
  0
TEXT
  8
1
 62
2
 10
-22.6129441713868
 20
182.5120783233551
 30
0
 40
2.24
  1
-0.011
 50
90
 41
0.9900000000000001
  0
TEXT
  8
1
 62
2
 10
-23.8129441713868
 20
173.7214900880609
 30
0
 40
3.2
  1
âË
 50
90
 41
1.35
  0
ENDBLK
  8
0
  0
BLOCK
  8
1
  2
*D16
 70
1
 10
0
 20
0
 30
0
  0
LINE
  8
1
 62
2
 10
-32.32689005115867
 20
160.7723548067665
 30
0
 11
-32.32688765115866
 21
167.172354806766
 31
0
  0
LINE
  8
1
 62
2
 10
-32.32688765115866
 20
167.172354806766
 30
0
 11
-32.32688596365864
 21
171.672354806766
 31
0
  0
LINE
  8
1
 62
2
 10
-32.32688596365864
 20
171.672354806766
 30
0
 11
-32.32687935689758
 21
189.2903842057075
 31
0
  0
LINE
  8
1
 62
2
 10
-42.53396674805029
 20
167.1723586344207
 30
0
 11
-30.82688765115876
 21
167.172354244266
 31
0
  0
LINE
  8
1
 62
2
 10
-42.53396506055028
 20
171.6723586344207
 30
0
 11
-30.82688596365875
 21
171.672354244266
 31
0
  0
SOLID
  8
1
 62
2
 10
-32.32688596365864
 20
171.672354806766
 30
0
 11
-32.7428847636586
 21
174.8723549627658
 31
0
 12
-31.91088476365866
 22
174.8723546507658
 32
0
 13
-31.91088476365866
 23
174.8723546507658
 33
0
  0
SOLID
  8
1
 62
2
 10
-32.32688765115866
 20
167.172354806766
 30
0
 11
-31.91088885115869
 21
163.9723546507662
 31
0
 12
-32.74288885115863
 22
163.9723549627663
 32
0
 13
-32.74288885115863
 23
163.9723549627663
 33
0
  0
TEXT
  8
1
 62
2
 10
-34.32688420279747
 20
176.3679849557084
 30
0
 40
3.2
  1
4.5
 50
89.99997851408256
 41
0.9
  0
TEXT
  8
1
 62
2
 10
-34.80688141279742
 20
183.8079851357079
 30
0
 40
2.24
  1
%%p0.1
 50
89.99997851408256
 41
0.9900000000000001
  0
ENDBLK
  8
0
  0
BLOCK
  8
1
  2
*D17
 70
1
 10
0
 20
0
 30
0
  0
LINE
  8
1
 62
2
 10
-219.0603146075775
 20
144.1223590094209
 30
0
 11
-219.0603146075775
 21
130.8618831097886
 31
0
  0
LINE
  8
1
 62
2
 10
-219.0603146075775
 20
144.1223590094209
 30
0
 11
-219.0603146075775
 21
148.6723604842532
 31
0
  0
LINE
  8
1
 62
2
 10
-219.0603146075775
 20
155.0723604842532
 30
0
 11
-219.0603146075775
 21
148.6723604842532
 31
0
  0
LINE
  8
1
 62
2
 10
-248.0603160824096
 20
148.6723604842532
 30
0
 11
-217.5603146075775
 21
148.6723604842532
 31
0
  0
LINE
  8
1
 62
2
 10
-252.1103146075777
 20
144.1223590094209
 30
0
 11
-217.5603146075775
 21
144.1223590094209
 31
0
  0
SOLID
  8
1
 62
2
 10
-219.0603146075775
 20
148.6723604842532
 30
0
 11
-219.4763146075775
 21
151.8723604842532
 31
0
 12
-218.6443146075775
 22
151.8723604842532
 32
0
 13
-218.6443146075775
 23
151.8723604842532
 33
0
  0
SOLID
  8
1
 62
2
 10
-219.0603146075775
 20
144.1223590094209
 30
0
 11
-218.6443146075775
 21
140.9223590094209
 31
0
 12
-219.4763146075775
 22
140.9223590094209
 32
0
 13
-219.4763146075775
 23
140.9223590094209
 33
0
  0
TEXT
  8
1
 62
2
 10
-221.0603146075775
 20
132.9418831097886
 30
0
 40
3.2
  1
4.6
 50
90
 41
0.9
  0
TEXT
  8
1
 62
2
 10
-221.0603146075775
 20
130.8618831097886
 30
0
 40
3.2
  1
(
 50
90
 41
0.9
  0
TEXT
  8
1
 62
2
 10
-221.0603146075775
 20
140.3818831097886
 30
0
 40
3.2
  1
)
 50
90
 41
0.9
  0
ENDBLK
  8
0
  0
BLOCK
  8
1
  2
*D18
 70
1
 10
0
 20
0
 30
0
  0
LINE
  8
1
 62
2
 10
-219.0603146075775
 20
148.6723604842531
 30
0
 11
-219.0603146075775
 21
190.6723590094207
 31
0
  0
LINE
  8
1
 62
2
 10
-248.0603146075776
 20
190.6723590094207
 30
0
 11
-217.5603146075775
 21
190.6723590094207
 31
0
  0
LINE
  8
1
 62
2
 10
-248.0603160824095
 20
148.6723604842531
 30
0
 11
-217.5603146075775
 21
148.6723604842531
 31
0
  0
SOLID
  8
1
 62
2
 10
-219.0603146075775
 20
190.6723590094207
 30
0
 11
-218.6443146075775
 21
187.4723590094207
 31
0
 12
-219.4763146075775
 22
187.4723590094207
 32
0
 13
-219.4763146075775
 23
187.4723590094207
 33
0
  0
SOLID
  8
1
 62
2
 10
-219.0603146075775
 20
148.6723604842531
 30
0
 11
-219.4763146075775
 21
151.8723604842531
 31
0
 12
-218.6443146075775
 22
151.8723604842531
 32
0
 13
-218.6443146075775
 23
151.8723604842531
 33
0
  0
TEXT
  8
1
 62
2
 10
-221.0603146075775
 20
166.7471368841625
 30
0
 40
3.2
  1
42
 50
90
 41
0.9
  0
TEXT
  8
1
 62
2
 10
-221.0603146075775
 20
164.6671368841625
 30
0
 40
3.2
  1
(
 50
90
 41
0.9
  0
TEXT
  8
1
 62
2
 10
-221.0603146075775
 20
173.1471368841625
 30
0
 40
3.2
  1
)
 50
90
 41
0.9
  0
ENDBLK
  8
0
  0
ENDSEC
  0
SECTION
  2
ENTITIES
  0
LINE
  8
1
 62
3
 10
-266.5603146075777
 20
171.6723590094207
 30
0
 11
-263.5603146075777
 21
171.6723590094207
 31
0
  0
LINE
  8
1
 62
2
 10
-312.540638704553
 20
41.78797393800839
 30
0
 11
-242.540638704553
 21
41.78797393800839
 31
0
  0
LINE
  8
1
 62
2
 10
-248.9335149142501
 20
48.17905454467458
 30
0
 11
-246.244025703039
 21
48.17905454467458
 31
0
  0
LINE
  8
1
 62
2
 10
-269.190268540368
 20
47.93455552547348
 30
0
 11
-265.7061575167541
 21
47.93455552547348
 31
0
  0
LINE
  8
1
 62
2
 10
-312.540638704553
 20
55.78797393800833
 30
0
 11
-242.540638704553
 21
55.78797393800833
 31
0
  0
LINE
  8
1
 62
2
 10
-242.540638704553
 20
55.78797393800833
 30
0
 11
-242.540638704553
 21
29.78797393800839
 31
0
  0
LINE
  8
1
 62
2
 10
-242.540638704553
 20
29.78797393800839
 30
0
 11
-312.540638704553
 21
29.78797393800839
 31
0
  0
LINE
  8
1
 62
2
 10
-312.540638704553
 20
29.78797393800839
 30
0
 11
-312.540638704553
 21
55.78797393800833
 31
0
  0
LINE
  8
1
 62
2
 10
-282.540638704553
 20
55.78797393800833
 30
0
 11
-282.540638704553
 21
29.78797393800839
 31
0
  0
LINE
  8
1
 62
2
 10
-312.540638704553
 20
48.78797393800827
 30
0
 11
-242.540638704553
 21
48.78797393800827
 31
0
  0
LINE
  8
1
 62
2
 10
-272.540638704553
 20
55.78797393800833
 30
0
 11
-272.540638704553
 21
29.78797393800839
 31
0
  0
LINE
  8
1
 62
2
 10
-262.540638704553
 20
55.78797393800833
 30
0
 11
-262.540638704553
 21
29.78797393800839
 31
0
  0
LINE
  8
1
 62
2
 10
-252.540638704553
 20
55.78797393800833
 30
0
 11
-252.540638704553
 21
29.78797393800839
 31
0
  0
LINE
  8
1
 62
2
 10
-244.6246987873456
 20
110.1926735788306
 30
0
 11
-181.8249192995887
 21
110.1926735788306
 31
0
  0
LINE
  8
1
 62
2
 10
-271.3603146075778
 20
91.77478096896309
 30
0
 11
-271.3603146075778
 21
88.27478096896309
 31
0
  0
LINE
  8
1
 62
2
 10
-271.0603146075777
 20
91.77478096896309
 30
0
 11
-271.0603146075777
 21
88.27478096896309
 31
0
  0
LINE
  8
1
 62
2
 10
-267.3603146075778
 20
91.77478096896309
 30
0
 11
-267.3603146075778
 21
88.27478096896309
 31
0
  0
LINE
  8
1
 62
2
 10
-267.0603146075777
 20
91.77478096896309
 30
0
 11
-267.0603146075777
 21
88.27478096896309
 31
0
  0
LINE
  8
1
 62
2
 10
-263.3603146075778
 20
91.77478096896309
 30
0
 11
-263.3603146075778
 21
88.27478096896309
 31
0
  0
LINE
  8
1
 62
2
 10
-263.0603146075777
 20
91.77478096896309
 30
0
 11
-263.0603146075777
 21
88.27478096896309
 31
0
  0
LINE
  8
1
 62
2
 10
-259.3603146075778
 20
91.77478096896309
 30
0
 11
-259.3603146075778
 21
88.27478096896309
 31
0
  0
LINE
  8
1
 62
2
 10
-259.0603146075777
 20
91.77478096896309
 30
0
 11
-259.0603146075777
 21
88.27478096896309
 31
0
  0
LINE
  8
1
 62
2
 10
-270.7603146075778
 20
91.77478096896309
 30
0
 11
-270.7603146075778
 21
88.27478096896309
 31
0
  0
LINE
  8
1
 62
2
 10
-266.7603146075778
 20
91.77478096896309
 30
0
 11
-266.7603146075778
 21
88.27478096896309
 31
0
  0
LINE
  8
1
 62
2
 10
-262.7603146075778
 20
91.77478096896309
 30
0
 11
-262.7603146075778
 21
88.27478096896309
 31
0
  0
LINE
  8
1
 62
2
 10
-258.7603146075778
 20
91.77478096896309
 30
0
 11
-258.7603146075778
 21
88.27478096896309
 31
0
  0
LINE
  8
1
 62
3
 10
-271.6803146075777
 20
91.77478096896309
 30
0
 11
-270.4403146075778
 21
91.77478096896309
 31
0
  0
LINE
  8
1
 62
3
 10
-267.6803146075777
 20
91.77478096896309
 30
0
 11
-266.4403146075778
 21
91.77478096896309
 31
0
  0
LINE
  8
1
 62
3
 10
-263.6803146075777
 20
91.77478096896309
 30
0
 11
-262.4403146075778
 21
91.77478096896309
 31
0
  0
LINE
  8
1
 62
3
 10
-259.6803146075777
 20
91.77478096896309
 30
0
 11
-258.4403146075778
 21
91.77478096896309
 31
0
  0
LINE
  8
1
 62
3
 10
-258.4403146075778
 20
114.9158462157255
 30
0
 11
-258.4403146075778
 21
130.9425914316199
 31
0
  0
LINE
  8
1
 62
3
 10
-259.6803146075777
 20
114.9158462157255
 30
0
 11
-259.6803146075777
 21
130.9425914316199
 31
0
  0
LINE
  8
1
 62
3
 10
-262.4403146075778
 20
114.9158462157255
 30
0
 11
-262.4403146075778
 21
130.9425914316199
 31
0
  0
LINE
  8
1
 62
3
 10
-263.6803146075777
 20
114.9158462157255
 30
0
 11
-263.6803146075777
 21
130.9425914316199
 31
0
  0
LINE
  8
1
 62
3
 10
-266.4403146075778
 20
114.9158462157255
 30
0
 11
-266.4403146075778
 21
130.9425914316199
 31
0
  0
LINE
  8
1
 62
3
 10
-267.6803146075777
 20
114.9158462157255
 30
0
 11
-267.6803146075777
 21
130.9425914316199
 31
0
  0
LINE
  8
1
 62
3
 10
-270.4403146075778
 20
114.9158462157255
 30
0
 11
-270.4403146075778
 21
130.9425914316199
 31
0
  0
LINE
  8
1
 62
3
 10
-271.6803146075777
 20
114.9158462157255
 30
0
 11
-271.6803146075777
 21
130.9425914316199
 31
0
  0
LINE
  8
1
 62
3
 10
-271.6803146075777
 20
113.9158462157255
 30
0
 11
-271.6803146075777
 21
91.77478096896309
 31
0
  0
LINE
  8
1
 62
3
 10
-270.4403146075778
 20
113.9158462157255
 30
0
 11
-270.4403146075778
 21
91.77478096896309
 31
0
  0
LINE
  8
1
 62
3
 10
-267.6803146075777
 20
113.9158462157255
 30
0
 11
-267.6803146075777
 21
91.77478096896309
 31
0
  0
LINE
  8
1
 62
3
 10
-266.4403146075778
 20
113.9158462157255
 30
0
 11
-266.4403146075778
 21
91.77478096896309
 31
0
  0
LINE
  8
1
 62
3
 10
-263.680314607578
 20
113.9158462157255
 30
0
 11
-263.6803146075777
 21
91.77478096896309
 31
0
  0
LINE
  8
1
 62
3
 10
-262.4403146075778
 20
113.9158462157255
 30
0
 11
-262.4403146075778
 21
91.77478096896309
 31
0
  0
LINE
  8
1
 62
3
 10
-259.6803146075777
 20
113.9158462157255
 30
0
 11
-259.6803146075777
 21
91.77478096896309
 31
0
  0
LINE
  8
1
 62
3
 10
-258.4403146075778
 20
113.9158462157255
 30
0
 11
-258.4403146075778
 21
91.77478096896309
 31
0
  0
LINE
  8
1
 62
2
 10
-274.4403146075778
 20
114.9158462157255
 30
0
 11
-255.6803146075777
 21
114.9158462157255
 31
0
  0
LINE
  8
1
 62
2
 10
-274.4403146075778
 20
113.9158462157255
 30
0
 11
-255.6803146075777
 21
113.9158462157255
 31
0
  0
LINE
  8
2
 62
1
 10
-291.9817946075776
 20
169.6723590094207
 30
0
 11
-238.5608146075777
 21
169.6723590094207
 31
0
  0
LINE
  8
1
 62
3
 10
-254.6603146075776
 20
146.7223590094206
 30
0
 11
-253.6603146075776
 21
146.7223590094206
 31
0
  0
LINE
  8
1
 62
3
 10
-254.6603146075776
 20
146.5723590094207
 30
0
 11
-253.6603146075776
 21
146.5723590094207
 31
0
  0
LINE
  8
1
 62
3
 10
-254.6603146075776
 20
146.1723590094207
 30
0
 11
-253.6603146075776
 21
146.1723590094207
 31
0
  0
LINE
  8
1
 62
3
 10
-276.4603146075776
 20
146.7223590094206
 30
0
 11
-275.4603146075776
 21
146.7223590094206
 31
0
  0
LINE
  8
1
 62
3
 10
-276.4603146075776
 20
146.5723590094207
 30
0
 11
-275.4603146075776
 21
146.5723590094207
 31
0
  0
LINE
  8
1
 62
3
 10
-276.4603146075776
 20
146.1723590094207
 30
0
 11
-275.4603146075776
 21
146.1723590094207
 31
0
  0
LINE
  8
1
 62
3
 10
-276.4603146075776
 20
143.8928455777343
 30
0
 11
-276.4603146075776
 21
144.1223590094208
 31
0
  0
LINE
  8
1
 62
3
 10
-253.6210042561857
 20
143.8928455777343
 30
0
 11
-253.6210042561857
 21
144.1223590094208
 31
0
  0
LINE
  8
1
 62
3
 10
-256.4603146075779
 20
144.1223590094208
 30
0
 11
-253.1103146075777
 21
144.1223590094208
 31
0
  0
LINE
  8
1
 62
3
 10
-277.5603146075777
 20
146.6723590094207
 30
0
 11
-278.0538704477334
 21
146.6723590094207
 31
0
  0
LINE
  8
1
 62
3
 10
-252.0667602745369
 20
146.6723590094207
 30
0
 11
-252.5603146075776
 21
146.6723590094207
 31
0
  0
LINE
  8
1
 62
3
 10
-254.6603146075776
 20
146.0223590094207
 30
0
 11
-254.6603146075776
 21
148.6723590094207
 31
0
  0
LINE
  8
1
 62
3
 10
-253.6603146075776
 20
146.0223590094207
 30
0
 11
-254.6603146075776
 21
146.0223590094207
 31
0
  0
LINE
  8
1
 62
3
 10
-253.6603146075776
 20
148.6723590094207
 30
0
 11
-253.6603146075776
 21
146.0223590094207
 31
0
  0
LINE
  8
1
 62
3
 10
-275.4603146075776
 20
146.0223590094207
 30
0
 11
-275.4603146075776
 21
148.6723590094207
 31
0
  0
LINE
  8
1
 62
3
 10
-276.4603146075776
 20
146.0223590094207
 30
0
 11
-275.4603146075776
 21
146.0223590094207
 31
0
  0
LINE
  8
1
 62
3
 10
-276.4603146075776
 20
148.6723590094207
 30
0
 11
-276.4603146075776
 21
146.0223590094207
 31
0
  0
LINE
  8
1
 62
3
 10
-277.0103146075778
 20
144.1223590094208
 30
0
 11
-273.6603146075779
 21
144.1223590094208
 31
0
  0
LINE
  8
1
 62
3
 10
-253.1103146075777
 20
144.1223590094208
 30
0
 11
-253.1103146075777
 21
148.6723590094207
 31
0
  0
LINE
  8
1
 62
3
 10
-277.0103146075778
 20
144.1223590094208
 30
0
 11
-277.0103146075778
 21
148.6723590094207
 31
0
  0
LINE
  8
1
 62
3
 10
-253.0603146075776
 20
145.1223590094208
 30
0
 11
-252.5603146075776
 21
145.1223590094208
 31
0
  0
LINE
  8
1
 62
3
 10
-253.0603146075776
 20
148.6723590094207
 30
0
 11
-253.0603146075776
 21
145.1223590094208
 31
0
  0
LINE
  8
1
 62
3
 10
-277.0603146075777
 20
145.1223590094208
 30
0
 11
-277.0603146075777
 21
148.6723590094207
 31
0
  0
LINE
  8
1
 62
3
 10
-277.5603146075777
 20
145.1223590094208
 30
0
 11
-277.0603146075777
 21
145.1223590094208
 31
0
  0
LINE
  8
1
 62
3
 10
-252.5603146075776
 20
145.1223590094208
 30
0
 11
-252.5603146075776
 21
148.6723590094207
 31
0
  0
LINE
  8
1
 62
3
 10
-277.5603146075777
 20
145.1223590094208
 30
0
 11
-277.5603146075777
 21
148.6723590094207
 31
0
  0
LINE
  8
1
 62
3
 10
-252.1103146075777
 20
146.6723590094207
 30
0
 11
-252.0667602745369
 21
146.6723590094207
 31
0
  0
LINE
  8
1
 62
3
 10
-252.4103146075776
 20
148.6723590094207
 30
0
 11
-252.4103146075776
 21
146.9723590094206
 31
0
  0
LINE
  8
1
 62
3
 10
-277.7103146075776
 20
146.9723590094206
 30
0
 11
-277.7103146075776
 21
148.6723590094207
 31
0
  0
LINE
  8
1
 62
3
 10
-277.0603146075777
 20
191.6723590094207
 30
0
 11
-253.0603146075776
 21
191.6723590094207
 31
0
  0
LINE
  8
1
 62
3
 10
-244.0603146075776
 20
153.6723604842529
 30
0
 11
-244.0603146075776
 21
185.6723590094207
 31
0
  0
LINE
  8
2
 62
1
 10
-252.0603146075776
 20
154.1723590094207
 30
0
 11
-247.0603146075776
 21
154.1723590094207
 31
0
  0
LINE
  8
2
 62
1
 10
-249.5603146075776
 20
156.6723590094207
 30
0
 11
-249.5603146075776
 21
151.6723590094207
 31
0
  0
LINE
  8
2
 62
1
 10
-280.5603246075776
 20
156.6723590094207
 30
0
 11
-280.5603246075776
 21
151.6723590094207
 31
0
  0
LINE
  8
2
 62
1
 10
-278.0603146075777
 20
154.1723590094207
 30
0
 11
-283.0603146075777
 21
154.1723590094207
 31
0
  0
LINE
  8
2
 62
1
 10
-278.0603146075777
 20
185.1723590094207
 30
0
 11
-283.0603146075777
 21
185.1723590094207
 31
0
  0
LINE
  8
2
 62
1
 10
-280.5603046075776
 20
182.6723590094207
 30
0
 11
-280.5603046075776
 21
187.6723590094207
 31
0
  0
LINE
  8
2
 62
1
 10
-249.5603146075776
 20
182.6723590094207
 30
0
 11
-249.5603146075776
 21
187.6723590094207
 31
0
  0
LINE
  8
2
 62
1
 10
-252.0603146075776
 20
185.1723590094207
 30
0
 11
-247.0603146075776
 21
185.1723590094207
 31
0
  0
LINE
  8
2
 62
1
 10
-265.0603146075777
 20
147.6723590094207
 30
0
 11
-265.0603146075777
 21
194.6723590094207
 31
0
  0
LINE
  8
1
 62
3
 10
-278.0538704477334
 20
146.6723590094207
 30
0
 11
-278.0103146075778
 21
146.6723590094207
 31
0
  0
LINE
  8
1
 62
3
 10
-286.0603234196398
 20
153.6723711139996
 30
0
 11
-286.060315798397
 21
185.6723602002402
 31
0
  0
LINE
  8
1
 62
3
 10
-281.0603248944718
 20
148.6723699231802
 30
0
 11
-249.0603160824097
 21
148.6723604842531
 31
0
  0
LINE
  8
1
 62
3
 10
-258.4403146075778
 20
130.9425914316199
 30
0
 11
-258.4403146075778
 21
138.8163545079543
 31
0
  0
LINE
  8
1
 62
3
 10
-259.6803146075777
 20
130.9425914316199
 30
0
 11
-259.6803146075777
 21
138.8163545079543
 31
0
  0
LINE
  8
1
 62
3
 10
-262.4403146075778
 20
130.9425914316199
 30
0
 11
-262.4403146075778
 21
138.8163545079543
 31
0
  0
LINE
  8
1
 62
3
 10
-263.6803146075777
 20
130.9425914316199
 30
0
 11
-263.6803146075777
 21
138.8163545079543
 31
0
  0
LINE
  8
1
 62
3
 10
-266.4403146075778
 20
130.9425914316199
 30
0
 11
-266.4403146075778
 21
138.8163545079543
 31
0
  0
LINE
  8
1
 62
3
 10
-267.6803146075777
 20
130.9425914316199
 30
0
 11
-267.6803146075777
 21
138.8163545079543
 31
0
  0
LINE
  8
1
 62
3
 10
-270.4403146075778
 20
130.9425914316199
 30
0
 11
-270.4403146075778
 21
138.8163545079543
 31
0
  0
LINE
  8
1
 62
3
 10
-271.6803146075777
 20
130.9425914316199
 30
0
 11
-271.6803146075777
 21
138.8163545079543
 31
0
  0
LINE
  8
1
 62
3
 10
-258.4403146075778
 20
138.8163545079543
 30
0
 11
-258.4403146075778
 21
142.1928455777343
 31
0
  0
LINE
  8
1
 62
3
 10
-259.6803146075777
 20
138.8163545079543
 30
0
 11
-259.6803146075777
 21
142.1928455777343
 31
0
  0
LINE
  8
1
 62
3
 10
-262.4403146075778
 20
138.8163545079543
 30
0
 11
-262.4403146075778
 21
142.1928455777343
 31
0
  0
LINE
  8
1
 62
3
 10
-263.6803146075777
 20
138.8163545079543
 30
0
 11
-263.6803146075777
 21
142.1928455777343
 31
0
  0
LINE
  8
1
 62
3
 10
-266.4403146075778
 20
138.8163545079543
 30
0
 11
-266.4403146075778
 21
142.1928455777343
 31
0
  0
LINE
  8
1
 62
3
 10
-267.6803146075777
 20
138.8163545079543
 30
0
 11
-267.6803146075777
 21
142.1928455777343
 31
0
  0
LINE
  8
1
 62
3
 10
-270.4403146075778
 20
138.8163545079543
 30
0
 11
-270.4403146075778
 21
142.1928455777343
 31
0
  0
LINE
  8
1
 62
3
 10
-271.6803146075777
 20
138.8163545079543
 30
0
 11
-271.6803146075777
 21
142.1928455777343
 31
0
  0
LINE
  8
1
 62
3
 10
-254.4603146075778
 20
142.1928455777343
 30
0
 11
-254.4603146075778
 21
142.6928455777343
 31
0
  0
LINE
  8
1
 62
3
 10
-275.6603146075779
 20
142.1928455777343
 30
0
 11
-275.6603146075779
 21
142.6928455777343
 31
0
  0
LINE
  8
1
 62
3
 10
-272.6603146075779
 20
144.1223590094208
 30
0
 11
-257.4603146075779
 21
144.1223590094208
 31
0
  0
LINE
  8
1
 62
3
 10
-256.4603146075779
 20
142.6928455777343
 30
0
 11
-256.4603146075779
 21
148.6723629921551
 31
0
  0
LINE
  8
1
 62
3
 10
-257.4603146075779
 20
142.9081862100575
 30
0
 11
-257.4603146075779
 21
148.6723629921551
 31
0
  0
LINE
  8
1
 62
3
 10
-272.6603146075779
 20
142.9081862100575
 30
0
 11
-257.4603146075779
 21
142.9081862100575
 31
0
  0
LINE
  8
1
 62
3
 10
-272.6603146075779
 20
148.6723629921551
 30
0
 11
-272.6603146075779
 21
142.9081862100575
 31
0
  0
LINE
  8
1
 62
3
 10
-273.6603146075779
 20
142.6928455777343
 30
0
 11
-273.6603146075779
 21
148.6723629921551
 31
0
  0
LINE
  8
1
 62
3
 10
-252.8710042561857
 20
142.1928455777343
 30
0
 11
-254.4603146075778
 21
142.1928455777343
 31
0
  0
LINE
  8
1
 62
3
 10
-252.8710042561857
 20
142.6928455777343
 30
0
 11
-252.8710042561857
 21
142.1928455777343
 31
0
  0
LINE
  8
1
 62
3
 10
-277.2103146075776
 20
142.1928455777343
 30
0
 11
-277.2103146075776
 21
142.6928455777343
 31
0
  0
LINE
  8
1
 62
3
 10
-275.6603146075779
 20
142.1928455777343
 30
0
 11
-277.2103146075776
 21
142.1928455777343
 31
0
  0
LINE
  8
1
 62
3
 10
-273.6603146075779
 20
142.1928455777343
 30
0
 11
-273.6603146075779
 21
142.6928455777343
 31
0
  0
LINE
  8
1
 62
3
 10
-274.4603146075779
 20
142.1928455777343
 30
0
 11
-273.6603146075779
 21
142.1928455777343
 31
0
  0
LINE
  8
1
 62
3
 10
-274.4603146075779
 20
142.6928455777343
 30
0
 11
-274.4603146075779
 21
142.1928455777343
 31
0
  0
LINE
  8
1
 62
3
 10
-271.6603146075779
 20
142.1928455777343
 30
0
 11
-271.6603146075779
 21
142.6928455777343
 31
0
  0
LINE
  8
1
 62
3
 10
-272.4603146075779
 20
142.1928455777343
 30
0
 11
-271.6603146075779
 21
142.1928455777343
 31
0
  0
LINE
  8
1
 62
3
 10
-272.4603146075779
 20
142.6928455777343
 30
0
 11
-272.4603146075779
 21
142.1928455777343
 31
0
  0
LINE
  8
1
 62
3
 10
-269.6603146075776
 20
142.1928455777343
 30
0
 11
-269.6603146075776
 21
142.6928455777343
 31
0
  0
LINE
  8
1
 62
3
 10
-270.4603146075779
 20
142.1928455777343
 30
0
 11
-269.6603146075776
 21
142.1928455777343
 31
0
  0
LINE
  8
1
 62
3
 10
-270.4603146075779
 20
142.6928455777343
 30
0
 11
-270.4603146075779
 21
142.1928455777343
 31
0
  0
LINE
  8
1
 62
3
 10
-267.6603146075776
 20
142.1928455777343
 30
0
 11
-267.6603146075776
 21
142.6928455777343
 31
0
  0
LINE
  8
1
 62
3
 10
-268.4603146075779
 20
142.1928455777343
 30
0
 11
-267.6603146075776
 21
142.1928455777343
 31
0
  0
LINE
  8
1
 62
3
 10
-268.4603146075779
 20
142.6928455777343
 30
0
 11
-268.4603146075779
 21
142.1928455777343
 31
0
  0
LINE
  8
1
 62
3
 10
-265.6603146075776
 20
142.1928455777343
 30
0
 11
-265.6603146075776
 21
142.6928455777343
 31
0
  0
LINE
  8
1
 62
3
 10
-266.4603146075779
 20
142.1928455777343
 30
0
 11
-265.6603146075776
 21
142.1928455777343
 31
0
  0
LINE
  8
1
 62
3
 10
-266.4603146075779
 20
142.6928455777343
 30
0
 11
-266.4603146075779
 21
142.1928455777343
 31
0
  0
LINE
  8
1
 62
3
 10
-263.6603146075776
 20
142.1928455777343
 30
0
 11
-263.6603146075776
 21
142.6928455777343
 31
0
  0
LINE
  8
1
 62
3
 10
-264.4603146075779
 20
142.1928455777343
 30
0
 11
-263.6603146075776
 21
142.1928455777343
 31
0
  0
LINE
  8
1
 62
3
 10
-264.4603146075779
 20
142.6928455777343
 30
0
 11
-264.4603146075779
 21
142.1928455777343
 31
0
  0
LINE
  8
1
 62
3
 10
-261.6603146075776
 20
142.1928455777343
 30
0
 11
-261.6603146075776
 21
142.6928455777343
 31
0
  0
LINE
  8
1
 62
3
 10
-262.4603146075779
 20
142.1928455777343
 30
0
 11
-261.6603146075776
 21
142.1928455777343
 31
0
  0
LINE
  8
1
 62
3
 10
-262.4603146075779
 20
142.6928455777343
 30
0
 11
-262.4603146075779
 21
142.1928455777343
 31
0
  0
LINE
  8
1
 62
3
 10
-259.6603146075776
 20
142.1928455777343
 30
0
 11
-259.6603146075776
 21
142.6928455777343
 31
0
  0
LINE
  8
1
 62
3
 10
-260.4603146075779
 20
142.1928455777343
 30
0
 11
-259.6603146075776
 21
142.1928455777343
 31
0
  0
LINE
  8
1
 62
3
 10
-260.4603146075779
 20
142.6928455777343
 30
0
 11
-260.4603146075779
 21
142.1928455777343
 31
0
  0
LINE
  8
1
 62
3
 10
-257.6603146075776
 20
142.1928455777343
 30
0
 11
-257.6603146075776
 21
142.6928455777343
 31
0
  0
LINE
  8
1
 62
3
 10
-258.4603146075779
 20
142.1928455777343
 30
0
 11
-257.6603146075776
 21
142.1928455777343
 31
0
  0
LINE
  8
1
 62
3
 10
-258.4603146075779
 20
142.6928455777343
 30
0
 11
-258.4603146075779
 21
142.1928455777343
 31
0
  0
LINE
  8
1
 62
3
 10
-255.6603146075776
 20
142.1928455777343
 30
0
 11
-255.6603146075776
 21
142.6928455777343
 31
0
  0
LINE
  8
1
 62
3
 10
-256.4603146075779
 20
142.1928455777343
 30
0
 11
-255.6603146075776
 21
142.1928455777343
 31
0
  0
LINE
  8
1
 62
3
 10
-256.4603146075779
 20
142.6928455777343
 30
0
 11
-256.4603146075779
 21
142.1928455777343
 31
0
  0
LINE
  8
1
 62
3
 10
-277.2103146075776
 20
142.6928455777343
 30
0
 11
-252.8710042561857
 21
142.6928455777343
 31
0
  0
LINE
  8
1
 62
3
 10
-276.4603146075776
 20
143.8928455777343
 30
0
 11
-277.2103146075776
 21
142.6928455777343
 31
0
  0
LINE
  8
1
 62
3
 10
-253.6210042561857
 20
143.8928455777343
 30
0
 11
-252.8710042561857
 21
142.6928455777343
 31
0
  0
LINE
  8
1
 62
3
 10
-249.0603146075776
 20
190.6723590094207
 30
0
 11
-281.0603157983973
 21
190.6723590094207
 31
0
  0
LINE
  8
1
 62
7
 10
-72.2339583105516
 20
177.1722875808494
 30
0
 11
-72.2339583105516
 21
190.6723590094207
 31
0
  0
LINE
  8
1
 62
7
 10
-73.0339583105516
 20
184.6723590094207
 30
0
 11
-73.0339583105516
 21
190.6723590094207
 31
0
  0
LINE
  8
1
 62
7
 10
-73.83395831055138
 20
184.6723590094207
 30
0
 11
-73.83395831055138
 21
190.6723590094207
 31
0
  0
LINE
  8
1
 62
7
 10
-84.3340583105515
 20
162.1724256760872
 30
0
 11
-84.3340583105515
 21
148.6723629850975
 31
0
  0
LINE
  8
1
 62
7
 10
-83.5340583105515
 20
160.9026423427539
 30
0
 11
-83.5340583105515
 21
148.6723633682999
 31
0
  0
LINE
  8
1
 62
7
 10
-82.7340583105515
 20
154.6722590094206
 30
0
 11
-82.7340583105515
 21
148.6723637515022
 31
0
  0
LINE
  8
1
 62
3
 10
-70.78231833820267
 20
143.5223590094209
 30
0
 11
-70.78231833820267
 21
142.172359009421
 31
0
  0
LINE
  8
1
 62
3
 10
-71.23395831055147
 20
141.8223590094209
 30
0
 11
-70.35020964531087
 21
141.8223590094209
 31
0
  0
LINE
  8
1
 62
3
 10
-71.23395831055147
 20
144.1223590094209
 30
0
 11
-71.23395831055147
 21
141.8223590094209
 31
0
  0
LINE
  8
1
 62
3
 10
-66.98431035331298
 20
143.5223590094209
 30
0
 11
-71.23395831055147
 21
143.5223590094209
 31
0
  0
LINE
  8
1
 62
3
 10
-70.33395831055138
 20
145.1223590094209
 30
0
 11
-70.33395831055138
 21
144.1223590094209
 31
0
  0
LINE
  8
1
 62
3
 10
-70.63395831055151
 20
145.1223590094209
 30
0
 11
-70.63395831055151
 21
144.1223590094209
 31
0
  0
LINE
  8
1
 62
3
 10
-69.62020964531102
 20
114.9158462157255
 30
0
 11
-69.62020964531102
 21
141.672359009421
 31
0
  0
LINE
  8
1
 62
3
 10
-68.38020964531101
 20
141.672359009421
 30
0
 11
-68.38020964531101
 21
114.9158462157255
 31
0
  0
LINE
  8
1
 62
3
 10
-70.35020964531087
 20
141.672359009421
 30
0
 11
-67.62110211125848
 21
141.672359009421
 31
0
  0
LINE
  8
1
 62
3
 10
-67.62110211125848
 20
141.672359009421
 30
0
 11
-67.62110211125848
 21
142.172359009421
 31
0
  0
LINE
  8
1
 62
3
 10
-70.35020964531087
 20
141.672359009421
 30
0
 11
-70.35020964531087
 21
142.172359009421
 31
0
  0
LINE
  8
1
 62
3
 10
-70.78231833820267
 20
142.172359009421
 30
0
 11
-66.34751859536736
 21
142.172359009421
 31
0
  0
LINE
  8
1
 62
3
 10
-66.98431035331298
 20
143.5223590094209
 30
0
 11
-66.34751859536736
 21
142.172359009421
 31
0
  0
LINE
  8
1
 62
3
 10
-66.98431035331298
 20
144.1223590094209
 30
0
 11
-66.98431035331298
 21
143.5223590094209
 31
0
  0
LINE
  8
1
 62
3
 10
-71.23395831055147
 20
144.1223590094209
 30
0
 11
-71.23395831055147
 21
145.1223590094209
 31
0
  0
LINE
  8
1
 62
3
 10
-66.43395831055146
 20
144.1223590094209
 30
0
 11
-71.23395831055147
 21
144.1223590094209
 31
0
  0
LINE
  8
1
 62
3
 10
-66.43395831055146
 20
145.1223590094209
 30
0
 11
-66.43395831055146
 21
144.1223590094209
 31
0
  0
LINE
  8
1
 62
3
 10
-65.8339583105515
 20
145.1223590094209
 30
0
 11
-65.83395831055138
 21
146.6723590094208
 31
0
  0
LINE
  8
1
 62
3
 10
-71.23395831055147
 20
145.1223590094209
 30
0
 11
-65.8339583105515
 21
145.1223590094209
 31
0
  0
LINE
  8
1
 62
3
 10
-71.23395831055147
 20
146.6723590094208
 30
0
 11
-71.23395831055147
 21
145.1223590094209
 31
0
  0
LINE
  8
1
 62
3
 10
-71.23395831055147
 20
144.1223590094209
 30
0
 11
-71.23395831055147
 21
145.1223590094209
 31
0
  0
LINE
  8
1
 62
3
 10
-71.23395831055147
 20
146.6723590094208
 30
0
 11
-71.23395831055147
 21
145.1223590094209
 31
0
  0
LINE
  8
1
 62
3
 10
-59.53396981255369
 20
147.6723607584212
 30
0
 11
-59.53397331055137
 21
149.6723590094208
 31
0
  0
LINE
  8
1
 62
3
 10
-71.23395831055147
 20
146.6723590094208
 30
0
 11
-60.5339698125521
 21
146.6723590094208
 31
0
  0
LINE
  8
1
 62
3
 10
-71.23395831055147
 20
146.6723590094208
 30
0
 11
-71.23395831055147
 21
154.6723590094208
 31
0
  0
LINE
  8
1
 62
1
 10
-119.6339674014865
 20
169.6723590094207
 30
0
 11
-35.8929783975745
 21
169.6723590094207
 31
0
  0
LINE
  8
1
 62
3
 10
-59.5339583105513
 20
189.6723590094207
 30
0
 11
-59.53397331055137
 21
149.6723590094208
 31
0
  0
LINE
  8
1
 62
3
 10
-93.13395831055151
 20
159.6723590094208
 30
0
 11
-93.13395831055151
 21
149.3651590094208
 31
0
  0
LINE
  8
1
 62
3
 10
-93.13395831055151
 20
159.6723590094208
 30
0
 11
-93.13395831055151
 21
189.9795590094209
 31
0
  0
LINE
  8
1
 62
3
 10
-71.23395831055147
 20
154.6723590094208
 30
0
 11
-74.23395831055147
 21
154.6723590094208
 31
0
  0
LINE
  8
1
 62
3
 10
-71.23395831055147
 20
184.6723590094207
 30
0
 11
-71.23395831055147
 21
154.6723590094208
 31
0
  0
LINE
  8
1
 62
3
 10
-85.23392127527482
 20
154.6724590094208
 30
0
 11
-85.23402127527479
 21
148.6723590094208
 31
0
  0
LINE
  8
1
 62
3
 10
-85.23395831055152
 20
154.6723590094208
 30
0
 11
-82.33395831055138
 21
154.6724590094208
 31
0
  0
LINE
  8
1
 62
3
 10
-85.23385831055138
 20
184.6723590094207
 30
0
 11
-85.23395831055152
 21
154.6723590094208
 31
0
  0
LINE
  8
1
 62
3
 10
-74.23395831055147
 20
184.6723590094207
 30
0
 11
-71.23395831055147
 21
184.6723590094207
 31
0
  0
LINE
  8
1
 62
3
 10
-71.23395831055147
 20
184.6723590094207
 30
0
 11
-71.23395831055147
 21
190.6723590094207
 31
0
  0
LINE
  8
1
 62
3
 10
-85.23385831055138
 20
184.6723590094207
 30
0
 11
-82.33395831055138
 21
184.6723590094207
 31
0
  0
LINE
  8
1
 62
3
 10
-85.23392127527482
 20
184.6723590094207
 30
0
 11
-85.23392127527482
 21
190.6723590094207
 31
0
  0
LINE
  8
1
 62
3
 10
-95.13405831055148
 20
158.6723590094208
 30
0
 11
-95.13395831055151
 21
180.6723590094207
 31
0
  0
LINE
  8
1
 62
3
 10
-95.13405831055148
 20
158.6723590094208
 30
0
 11
-93.13395831055151
 21
158.6723590094208
 31
0
  0
LINE
  8
1
 62
3
 10
-95.13395831055151
 20
180.6723590094207
 30
0
 11
-93.13395831055151
 21
180.6723590094207
 31
0
  0
LINE
  8
1
 62
3
 10
-92.63395831055151
 20
148.6723590094208
 30
0
 11
-93.13395831055151
 21
149.3651590094208
 31
0
  0
LINE
  8
1
 62
3
 10
-74.23395831055147
 20
191.8535671529528
 30
0
 11
-62.8250583105514
 21
191.8535671529528
 31
0
  0
LINE
  8
1
 62
3
 10
-92.63395831055151
 20
190.6723590094207
 30
0
 11
-93.13395831055151
 21
189.9795590094209
 31
0
  0
LINE
  8
1
 62
3
 10
-82.33395831055138
 20
184.6723590094207
 30
0
 11
-74.23395831055147
 21
184.6723590094207
 31
0
  0
LINE
  8
1
 62
3
 10
-82.33395831055138
 20
154.6724590094208
 30
0
 11
-71.23395831055147
 21
154.6723590094208
 31
0
  0
LINE
  8
4
 62
7
 10
-82.7340583105515
 20
154.6722590094206
 30
0
 11
-82.7340583105515
 21
159.6328590094206
 31
0
  0
LINE
  8
4
 62
7
 10
-77.93405831055138
 20
152.0141590094208
 30
0
 11
-77.93405831055138
 21
148.6722590094206
 31
0
  0
LINE
  8
4
 62
7
 10
-78.7340583105515
 20
153.2839590094208
 30
0
 11
-78.7340583105515
 21
148.6722590094206
 31
0
  0
LINE
  8
4
 62
7
 10
-79.53405831055146
 20
154.5536590094207
 30
0
 11
-79.53405831055146
 21
148.6722590094206
 31
0
  0
LINE
  8
4
 62
7
 10
-80.33405831055153
 20
155.8234590094209
 30
0
 11
-80.33405831055153
 21
148.6722590094206
 31
0
  0
LINE
  8
4
 62
7
 10
-81.13405831055148
 20
157.0932590094209
 30
0
 11
-81.13405831055148
 21
148.6722590094206
 31
0
  0
LINE
  8
4
 62
7
 10
-81.93405831055138
 20
158.3630590094209
 30
0
 11
-81.93405831055138
 21
148.6722590094206
 31
0
  0
LINE
  8
4
 62
7
 10
-73.83395831055138
 20
184.6723590094207
 30
0
 11
-73.83395831055138
 21
179.7117590094208
 31
0
  0
LINE
  8
4
 62
7
 10
-73.0339583105516
 20
184.6723590094207
 30
0
 11
-73.0339583105516
 21
178.4420590094208
 31
0
  0
LINE
  8
4
 62
7
 10
-78.63395831055151
 20
187.3304590094208
 30
0
 11
-78.63395831055151
 21
190.6723590094207
 31
0
  0
LINE
  8
4
 62
7
 10
-77.83395831055138
 20
186.0607590094209
 30
0
 11
-77.83395831055138
 21
190.6723590094207
 31
0
  0
LINE
  8
4
 62
7
 10
-77.03395831055148
 20
184.7909590094207
 30
0
 11
-77.03395831055148
 21
190.6723590094207
 31
0
  0
LINE
  8
4
 62
7
 10
-76.23395831055153
 20
183.5211590094208
 30
0
 11
-76.23395831055153
 21
190.6723590094207
 31
0
  0
LINE
  8
4
 62
7
 10
-75.4339583105514
 20
182.2513590094208
 30
0
 11
-75.4339583105514
 21
190.6723590094207
 31
0
  0
LINE
  8
4
 62
7
 10
-74.63395831055151
 20
180.9815590094208
 30
0
 11
-74.63395831055151
 21
190.6723590094207
 31
0
  0
LINE
  8
1
 62
3
 10
-92.63395831055151
 20
190.6723590094207
 30
0
 11
-60.5339583105513
 21
190.6723590094207
 31
0
  0
LINE
  8
1
 62
3
 10
-92.63395831055151
 20
148.6723590094208
 30
0
 11
-71.23395831055147
 21
148.6723692600842
 31
0
  0
LINE
  8
1
 62
3
 10
-117.133978765097
 20
167.1723590094207
 30
0
 11
-95.13401967418791
 21
167.1723590094207
 31
0
  0
LINE
  8
1
 62
2
 10
-72.40418921129604
 20
114.9158462157255
 30
0
 11
-65.50217909196805
 21
114.9158462157255
 31
0
  0
LINE
  8
1
 62
2
 10
-63.87916088753239
 20
193.6746678976585
 30
0
 11
-69.87916088753239
 21
193.6746678976585
 31
0
  0
LINE
  8
1
 62
2
 10
-69.87916088753239
 20
199.6746678976587
 30
0
 11
-63.87916088753239
 21
199.6746678976587
 31
0
  0
LINE
  8
1
 62
2
 10
-69.37916088753239
 20
196.6746678976585
 30
0
 11
-66.87916088753239
 21
195.1746678976585
 31
0
  0
LINE
  8
1
 62
2
 10
-64.37916088753239
 20
196.6746678976585
 30
0
 11
-69.37916088753239
 21
196.6746678976585
 31
0
  0
LINE
  8
1
 62
2
 10
-66.87916088753239
 20
195.1746678976585
 30
0
 11
-66.87916088753239
 21
197.6746678976585
 31
0
  0
LINE
  8
1
 62
2
 10
-69.87916088753239
 20
219.6746678976587
 30
0
 11
-63.87916088753239
 21
219.6746678976587
 31
0
  0
LINE
  8
1
 62
2
 10
-69.87916088753239
 20
193.6746678976585
 30
0
 11
-69.87916088753239
 21
219.6746678976587
 31
0
  0
LINE
  8
1
 62
2
 10
-63.87916088753239
 20
219.6746678976587
 30
0
 11
-63.87916088753239
 21
193.6746678976585
 31
0
  0
LINE
  8
1
 62
3
 10
-95.13399808327878
 20
172.1723590094207
 30
0
 11
-102.1339583105515
 21
172.1723590094207
 31
0
  0
LINE
  8
1
 62
3
 10
-117.1339583105515
 20
171.6723590094207
 30
0
 11
-117.1339583105515
 21
167.1723590094207
 31
0
  0
LINE
  8
1
 62
3
 10
-102.1339583105515
 20
172.1723590094207
 30
0
 11
-102.1339583105515
 21
171.6723590094207
 31
0
  0
LINE
  8
1
 62
3
 10
-102.1339583105515
 20
171.6723590094207
 30
0
 11
-117.1339583105515
 21
171.6723590094207
 31
0
  0
LINE
  8
1
 62
2
 10
-72.40418921129604
 20
113.9158462157255
 30
0
 11
-65.50217909196805
 21
113.9158462157255
 31
0
  0
LINE
  8
1
 62
3
 10
-59.53396487305133
 20
172.1723590094207
 30
0
 11
-58.53396487305126
 21
172.1723590094207
 31
0
  0
LINE
  8
1
 62
3
 10
-58.53396487305126
 20
172.1723590094207
 30
0
 11
-58.53396506055126
 21
171.6723590094207
 31
0
  0
LINE
  8
1
 62
3
 10
-58.53396506055126
 20
171.6723590094207
 30
0
 11
-43.53396506055021
 21
171.6723590094207
 31
0
  0
LINE
  8
1
 62
3
 10
-43.53396506055021
 20
171.6723590094207
 30
0
 11
-43.53396674805022
 21
167.1723590094207
 31
0
  0
LINE
  8
1
 62
3
 10
-43.53396674805022
 20
167.1723590094207
 30
0
 11
-59.53396674805134
 21
167.1723590094207
 31
0
  0
LINE
  8
1
 62
2
 10
-69.3002096453111
 20
91.77478096896309
 30
0
 11
-69.3002096453111
 21
88.27478096896309
 31
0
  0
LINE
  8
1
 62
2
 10
-69.00020964531103
 20
91.77478096896309
 30
0
 11
-69.00020964531103
 21
88.27478096896309
 31
0
  0
LINE
  8
1
 62
2
 10
-68.70020964531113
 20
91.77478096896309
 30
0
 11
-68.70020964531113
 21
88.27478096896309
 31
0
  0
LINE
  8
1
 62
3
 10
-69.62020964531104
 20
91.77478096896309
 30
0
 11
-68.38020964531114
 21
91.77478096896309
 31
0
  0
LINE
  8
1
 62
3
 10
-69.62020964531104
 20
113.9158462157255
 30
0
 11
-69.62020964531104
 21
91.77478096896309
 31
0
  0
LINE
  8
1
 62
3
 10
-68.38020964531114
 20
113.9158462157255
 30
0
 11
-68.38020964531114
 21
91.77478096896309
 31
0
  0
ARC
  8
1
 62
3
 10
-248.6862172805408
 20
145.8341237153032
 30
0
 40
2.851439871812079
 50
95.51614301828289
 51
152.8954534651705
  0
ARC
  8
1
 62
3
 10
-281.4344134417294
 20
145.8341237153032
 30
0
 40
2.851439871812136
 50
27.10454653483319
 51
84.48385698172281
  0
ARC
  8
1
 62
3
 10
-60.5339583105513
 20
189.6723590094207
 30
0
 40
1
 50
0
 51
90
  0
CIRCLE
  8
1
 62
3
 10
-265.0603146075777
 20
169.6723590094207
 30
0
 40
4.549999999999898
  0
CIRCLE
  8
1
 62
2
 10
-249.5603146075776
 20
154.1723590094207
 30
0
 40
1.5
  0
CIRCLE
  8
1
 62
2
 10
-280.5603246075776
 20
154.1723590094207
 30
0
 40
1.5
  0
CIRCLE
  8
1
 62
2
 10
-280.5603146075777
 20
185.1723590094207
 30
0
 40
1.5
  0
CIRCLE
  8
1
 62
2
 10
-249.5603146075776
 20
185.1723590094207
 30
0
 40
1.5
  0
CIRCLE
  8
4
 62
3
 10
-249.5603146075776
 20
154.1723590094207
 30
0
 40
1
  0
CIRCLE
  8
4
 62
3
 10
-280.5603246075776
 20
154.1723590094207
 30
0
 40
1.000009999999918
  0
CIRCLE
  8
4
 62
3
 10
-249.5603146075776
 20
185.1723590094207
 30
0
 40
1
  0
CIRCLE
  8
4
 62
3
 10
-280.5603146075777
 20
185.1723590094207
 30
0
 40
1.000010000000088
  0
CIRCLE
  8
1
 62
3
 10
-265.0603146075777
 20
169.6723590094207
 30
0
 40
2.5
  0
CIRCLE
  8
1
 62
3
 10
-265.0603146075777
 20
169.6723590094207
 30
0
 40
11
  0
CIRCLE
  8
1
 62
3
 10
-265.0603146075777
 20
169.6723590094207
 30
0
 40
15
  0
CIRCLE
  8
1
 62
3
 10
-265.0603146075777
 20
169.6723590094207
 30
0
 40
12.75
  0
ARC
  8
1
 62
3
 10
-252.0667602745369
 20
147.6723590094207
 30
0
 40
1
 50
270
 51
327.379310446891
  0
ARC
  8
1
 62
3
 10
-278.0538704477334
 20
147.6723590094207
 30
0
 40
0.9999999999999325
 50
212.6206895530994
 51
270
  0
ARC
  8
1
 62
3
 10
-252.1103146075777
 20
146.9723590094206
 30
0
 40
0.2999999999998977
 50
180
 51
270
  0
ARC
  8
1
 62
3
 10
-278.0103146075778
 20
146.9723590094206
 30
0
 40
0.2999999999998977
 50
270
 51
0
  0
ARC
  8
1
 62
3
 10
-249.0603146075776
 20
153.6723604842529
 30
0
 40
5.000000000000019
 50
269.9999830996688
 51
0
  0
ARC
  8
1
 62
3
 10
-281.0603234196398
 20
153.67236992318
 30
0
 40
5.000000000000141
 50
179.9999863542128
 51
269.9999830996702
  0
ARC
  8
1
 62
3
 10
-281.0603157983973
 20
185.6723590094207
 30
0
 40
5
 50
90
 51
179.9999863542135
  0
ARC
  8
1
 62
3
 10
-249.0603146075776
 20
185.6723590094207
 30
0
 40
5
 50
0
 51
90
  0
ARC
  8
1
 62
3
 10
-60.5339698125521
 20
147.6723590094208
 30
0
 40
1
 50
270
 51
0.0001002103415194287
  0
LINE
  8
1
 62
2
 10
-181.6941326187867
 20
102.4848176003526
 30
0
 11
-243.1931636281644
 21
102.4848176003526
 31
0
  0
LINE
  8
1
 62
2
 10
-243.1931636281644
 20
102.4848176003526
 30
0
 11
-254.4603146075778
 21
142.6928455777343
 31
0
  0
SOLID
  8
1
 62
2
 10
-253.1912043339345
 20
139.7252130725592
 30
0
 11
-254.0025280290616
 21
139.4978627888966
 31
0
 12
-254.4603146075778
 22
142.6928455777343
 32
0
 13
-254.4603146075778
 23
142.6928455777343
 33
0
  0
LINE
  8
1
 62
2
 10
-203.1728738494042
 20
122.2102048089407
 30
0
 11
-240.3296011066522
 21
122.2102048089407
 31
0
  0
LINE
  8
1
 62
2
 10
-240.3296011066522
 20
122.2102048089407
 30
0
 11
-248.5659147125176
 21
153.0493412674841
 31
0
  0
SOLID
  8
1
 62
2
 10
-247.3331983162885
 20
150.0664075003838
 30
0
 11
-248.1472421781149
 21
149.848998023178
 31
0
 12
-248.5659147125176
 22
153.0493412674841
 32
0
 13
-248.5659147125176
 23
153.0493412674841
 33
0
  0
LINE
  8
1
 62
2
 10
-20.9306411908793
 20
212.4110804981129
 30
0
 11
-38.21329394812759
 21
212.4110804981129
 31
0
  0
LINE
  8
1
 62
2
 10
-38.21329394812759
 20
212.4110804981129
 30
0
 11
-62.8250583105514
 21
191.8535671529528
 31
0
  0
SOLID
  8
1
 62
2
 10
-60.6391649597559
 20
194.2282995234289
 30
0
 11
-60.09902150500381
 21
193.5816316503715
 31
0
 12
-62.8250583105514
 22
191.8535671529528
 32
0
 13
-62.8250583105514
 23
191.8535671529528
 33
0
  0
LINE
  8
1
 62
2
 10
-277.6996454654518
 20
81.33556855264619
 30
0
 11
-266.5321856154098
 21
81.33556855264619
 31
0
  0
SOLID
  8
1
 62
2
 10
-269.7321856154098
 20
80.91428056036654
 30
0
 11
-269.7321856154098
 21
81.75685654492587
 31
0
 12
-266.5321856154098
 22
81.33556855264619
 32
0
 13
-266.5321856154098
 23
81.33556855264619
 33
0
  0
TEXT
  8
1
 62
2
 10
-64.55142986671206
 20
39.57776166713882
 30
0
 40
4.5
  1
KH42HM2-961
 41
0.9
  0
TEXT
  8
1
 62
2
 10
-271.140638704553
 20
32.28797393800839
 30
0
 40
2
  1
BLUE
 41
0.9
 72
1
 73
2
 11
-267.540638704553
 21
33.28797393800839
 31
0
  0
TEXT
  8
1
 62
2
 10
-261.320638704553
 20
32.28797393800839
 30
0
 40
2
  1
YELLOW
 41
0.63
 72
1
 73
2
 11
-257.540638704553
 21
33.28797393800839
 31
0
  0
TEXT
  8
1
 62
2
 10
-280.240638704553
 20
32.28797393800839
 30
0
 40
2
  1
RED
 41
0.9
 72
1
 73
2
 11
-277.540638704553
 21
33.28797393800839
 31
0
  0
TEXT
  8
1
 62
2
 10
-251.140638704553
 20
32.28797393800839
 30
0
 40
2
  1
WHITE
 41
0.7200000000000001
 72
1
 73
2
 11
-247.540638704553
 21
33.28797393800839
 31
0
  0
TEXT
  8
1
 62
2
 10
-309.278138704553
 20
32.03797393800839
 30
0
 40
2.5
  1
COLOR OF LEAD
 41
0.63
 72
1
 73
2
 11
-299.040638704553
 21
33.28797393800839
 31
0
  0
TEXT
  8
1
 62
2
 10
-297.0839765855131
 20
44.03797393800827
 30
0
 40
2.5
  1
(PHASE)
 41
0.54
 73
2
 11
-297.0839765855131
 21
45.28797393800827
 31
0
  0
TEXT
  8
1
 62
2
 10
-297.0839765855131
 20
51.03797393800833
 30
0
 40
2.5
  1
(PIN NO.)
 41
0.54
 73
2
 11
-297.0839765855131
 21
52.28797393800833
 31
0
  0
TEXT
  8
1
 62
2
 10
-271.140638704553
 20
36.28797393800839
 30
0
 40
4
  1
É┬
 41
0.9
 72
1
 73
2
 11
-267.540638704553
 21
38.28797393800839
 31
0
  0
TEXT
  8
1
 62
2
 10
-261.140638704553
 20
36.28797393800839
 30
0
 40
4
  1
ë®
 41
0.9
 72
1
 73
2
 11
-257.540638704553
 21
38.28797393800839
 31
0
  0
TEXT
  8
1
 62
2
 10
-281.140638704553
 20
36.28797393800839
 30
0
 40
4
  1
ÉÈ
 41
0.9
 72
1
 73
2
 11
-277.540638704553
 21
38.28797393800839
 31
0
  0
TEXT
  8
1
 62
2
 10
-251.140638704553
 20
36.28797393800839
 30
0
 40
4
  1
öÆ
 41
0.9
 72
1
 73
2
 11
-247.540638704553
 21
38.28797393800839
 31
0
  0
TEXT
  8
1
 62
2
 10
-309.840638704553
 20
36.78797393800839
 30
0
 40
3
  1
âèü[âhÉ³ÉF
 41
0.72
 72
1
 73
2
 11
-299.040638704553
 21
38.28797393800839
 31
0
  0
TEXT
  8
1
 62
2
 10
-310.210638704553
 20
50.78797393800833
 30
0
 40
3
  1
PHR-11
 41
0.6300000000000001
 72
1
 73
2
 11
-304.540638704553
 21
52.28797393800833
 31
0
  0
TEXT
  8
1
 62
2
 10
-312.640638704553
 20
43.78797393800827
 30
0
 40
3
  1
ùÒÄÑæè
 41
0.9
 72
1
 73
2
 11
-304.540638704553
 21
45.28797393800827
 31
0
  0
TEXT
  8
1
 62
2
 10
-279.340638704553
 20
50.28797393800833
 30
0
 40
4
  1
3
 41
0.9
 72
1
 73
2
 11
-277.540638704553
 21
52.28797393800833
 31
0
  0
TEXT
  8
1
 62
2
 10
-269.340638704553
 20
50.28797393800833
 30
0
 40
4
  1
5
 41
0.9
 72
1
 73
2
 11
-267.540638704553
 21
52.28797393800833
 31
0
  0
TEXT
  8
1
 62
2
 10
-259.340638704553
 20
50.28797393800833
 30
0
 40
4
  1
7
 41
0.9
 72
1
 73
2
 11
-257.540638704553
 21
52.28797393800833
 31
0
  0
TEXT
  8
1
 62
2
 10
-249.340638704553
 20
50.28797393800833
 30
0
 40
4
  1
9
 41
0.9
 72
1
 73
2
 11
-247.540638704553
 21
52.28797393800833
 31
0
  0
TEXT
  8
1
 62
2
 10
-279.340638704553
 20
43.28797393800827
 30
0
 40
4
  1
A
 41
0.9
 72
1
 73
2
 11
-277.540638704553
 21
45.28797393800827
 31
0
  0
TEXT
  8
1
 62
2
 10
-269.340638704553
 20
43.28797393800827
 30
0
 40
4
  1
A
 41
0.9
 72
1
 73
2
 11
-267.540638704553
 21
45.28797393800827
 31
0
  0
TEXT
  8
1
 62
2
 10
-259.340638704553
 20
43.28797393800827
 30
0
 40
4
  1
B
 41
0.9
 72
1
 73
2
 11
-257.540638704553
 21
45.28797393800827
 31
0
  0
TEXT
  8
1
 62
2
 10
-249.340638704553
 20
43.28797393800827
 30
0
 40
4
  1
B
 41
0.9
 72
1
 73
2
 11
-247.540638704553
 21
45.28797393800827
 31
0
  0
TEXT
  8
1
 62
6
 10
-240.8097123413227
 20
103.9234710891756
 30
0
 40
1.6
  1
CONTACT
 41
0.72
  0
TEXT
  8
1
 62
6
 10
-217.6679144767193
 20
104.3218441929259
 30
0
 40
1.6
  1
(JST)
 41
0.9
  0
TEXT
  8
1
 62
2
 10
-220.2762034553977
 20
106.8007780668206
 30
0
 40
2.4
  1
SPH-002T-P0.5S
 41
0.9
  0
TEXT
  8
1
 62
2
 10
-241.5944324261356
 20
106.5392047052166
 30
0
 40
2.4
  1
âRâôâ^âNâg
 41
1.215000000000001
  0
TEXT
  8
1
 62
6
 10
-218.8449946039384
 20
111.1227515946339
 30
0
 40
1.6
  1
(JST)
 41
0.9
  0
TEXT
  8
1
 62
6
 10
-241.3250496310296
 20
111.1227515946339
 30
0
 40
1.6
  1
HOUSING
 41
0.72
  0
TEXT
  8
1
 62
2
 10
-242.1250496310295
 20
113.5227515946338
 30
0
 40
2.4
  1
ânâEâWâôâO
 41
1.215000000000001
  0
TEXT
  8
1
 62
2
 10
-218.9250496310295
 20
113.5227515946338
 30
0
 40
2.4
  1
PHR-11
 41
0.9
  0
TEXT
  8
1
 62
2
 10
-253.0444670317938
 20
117.9680759440432
 30
0
 40
3.499999999999999
  1
É[é(écédéoéségüjü@éRüDéTéléhémüD
 50
0.0009745374036200501
 41
0.5400000000000003
 72
1
 73
2
 11
-221.8594968018559
 21
119.7186063659117
 31
0
  0
TEXT
  8
1
 62
2
 10
-235.8074179776313
 20
124.7360477968126
 30
0
 40
3.5
  1
4-M3ü~0.5
 41
0.9
  0
TEXT
  8
1
 62
2
 10
-37.38499415947356
 20
208.3885651961482
 30
0
 40
2.5
  1
(NAME PLATE)
 41
0.54
  0
TEXT
  8
1
 62
2
 10
-38.08259836008719
 20
213.5258653274698
 30
0
 40
4
  1
âlü|âÇâvâîü|âg
 41
0.54
  0
TEXT
  8
1
 62
2
 10
-64.87916088753239
 20
191.7214134597887
 30
0
 40
4
  1
òÂÄÜé╠î³é½
 50
90
 41
0.9
 72
1
 73
2
 11
-66.87916088753239
 21
209.7214134597887
 31
0
  0
TEXT
  8
1
 62
2
 10
-74.35603242130627
 20
197.2404354514603
 30
0
 40
2.5
  1
DIRECTION
 50
90
 41
0.675
  0
TEXT
  8
1
 62
2
 10
-70.60603242130627
 20
197.2404354514603
 30
0
 40
2.5
  1
OF LETTERS
 50
90
 41
0.675
  0
TEXT
  8
1
 62
2
 10
-71.4102528041938
 20
193.0231140947201
 30
0
 40
5
  1
(   )
 50
90
 41
0.9900000000000001
  0
TEXT
  8
1
 62
2
 10
-289.0505534596418
 20
79.6792995144903
 30
0
 40
2
  1
PIN NO.
 41
0.63
  0
TEXT
  8
1
 62
2
 10
-289.9531875449568
 20
82.47256406750279
 30
0
 40
3
  1
âsâôöÈìå
 41
0.9
  0
TEXT
  8
1
 62
2
 10
-276.1107673339618
 20
83.86306061989379
 30
0
 40
2
  1
  3 5 7 9
 41
0.855
  0
DIMENSION
  8
1
  6
CONTINUOUS
 62
2
  2
*D0
  3
DMST_1
 10
-306.8922758792179
 20
142.1928455777343
 30
0
 11
-311.6922758792179
 21
115.476824568996
 31
0
 12
0
 22
0
 32
0
 70
0
  1
300
 13
-271.3603146075778
 23
88.27478096896309
 33
0
 14
-272.4603146075779
 24
142.1928455777343
 34
0
 50
90
 53
0
  0
DIMENSION
  8
1
  6
CONTINUOUS
 62
2
  2
*D1
  3
DMST_2
 10
-297.6570991584449
 20
91.77478096896309
 30
0
 11
-301.2570991584448
 21
98.31084742454499
 31
0
 12
0
 22
0
 32
0
 70
0
  1
(<>
 13
-271.3603146075778
 23
88.27478096896309
 33
0
 14
-271.6803146075777
 24
91.77478096896309
 34
0
 50
90
 53
0
  0
DIMENSION
  8
0
  6
CONTINUOUS
 62
2
  2
*D3
  3
DMST_3
 10
-286.0603157983971
 20
215.6723590094207
 30
0
 11
-265.0603152029875
 21
218.8723590094207
 31
0
 12
0
 22
0
 32
0
 70
0
  1
(<>
 13
-244.0603146075776
 23
185.6723590094207
 33
0
 14
-286.060315798397
 24
185.6723602002402
 34
0
 53
0
  0
DIMENSION
  8
0
  6
CONTINUOUS
 62
2
  2
*D4
  3
DMST_4
 10
-280.5603046075777
 20
205.6723590094207
 30
0
 11
-265.0603146075777
 21
208.8723590094207
 31
0
 12
0
 22
0
 32
0
 70
0
 13
-249.5603146075776
 23
187.6723590094207
 33
0
 14
-280.5603046075776
 24
187.6723590094207
 34
0
 53
0
  0
DIMENSION
  8
1
  6
CONTINUOUS
 62
2
  2
*D5
  3
DMST_5
 10
-229.0603146075775
 20
154.1723590094209
 30
0
 11
-232.6603146075775
 21
168.8910964705136
 31
0
 12
0
 22
0
 32
0
 70
0
 13
-247.0603146075776
 23
185.1723590094207
 33
0
 14
-247.0603146075776
 24
154.1723590094207
 34
0
 50
90
 53
0
  0
DIMENSION
  8
0
  6
CONTINUOUS
 62
2
  2
*D6
  3
DMST_6
 10
-93.13395831055151
 20
230.280732341335
 30
0
 11
-77.46579409933889
 21
233.480732341335
 31
0
 12
0
 22
0
 32
0
 70
0
  1
34
 13
-59.5339583105513
 23
189.6723590094207
 33
0
 14
-93.13395831055151
 24
189.9795590094209
 34
0
 53
0
  0
DIMENSION
  8
0
  6
CONTINUOUS
 62
2
  2
*D7
  3
DMST_7
 10
-95.13395831055151
 20
222.960048990895
 30
0
 11
-101.370066264044
 21
226.160048990895
 31
0
 12
0
 22
0
 32
0
 70
0
 13
-93.13395831055151
 23
189.9795590094209
 33
0
 14
-95.13395831055151
 24
180.6723590094207
 34
0
 53
0
  0
DIMENSION
  8
0
  6
CONTINUOUS
 62
2
  2
*D8
  3
DMST_7
 10
-144.615956122789
 20
158.6723590094208
 30
0
 11
-148.615956122789
 21
169.6320712120739
 31
0
 12
0
 22
0
 32
0
 70
0
  1
%%c<>
 13
-95.13395831055151
 23
180.6723590094207
 33
0
 14
-95.13405831055148
 24
158.6723590094208
 34
0
 50
90
 53
0
  0
DIMENSION
  8
1
  6
CONTINUOUS
 62
2
  2
*D10
  3
DMST_8
 10
-117.1339583105515
 20
230.280732341335
 30
0
 11
-105.553313892867
 21
233.880732341335
 31
0
 12
0
 22
0
 32
0
 70
0
 13
-93.13395831055151
 23
189.9795590094209
 33
0
 14
-117.1339583105515
 24
171.6723590094207
 34
0
 53
0
  0
DIMENSION
  8
1
  6
CONTINUOUS
 62
2
  2
*D11
  3
DMST_9
 10
-102.1339583105515
 20
212.352528217807
 30
0
 11
-109.437758119631
 21
215.952528217807
 31
0
 12
0
 22
0
 32
0
 70
0
 13
-117.1339583105515
 23
171.6723590094207
 33
0
 14
-102.1339583105515
 24
172.1723590094207
 34
0
 53
0
  0
DIMENSION
  8
1
  6
CONTINUOUS
 62
2
  2
*D12
  3
DMST_10
 10
-126.198560569227
 20
167.1723590094207
 30
0
 11
-129.798560569227
 21
151.147145576752
 31
0
 12
0
 22
0
 32
0
 70
0
 13
-117.1339583105515
 23
171.6723590094207
 33
0
 14
-117.1339583105515
 24
167.1723590094207
 34
0
 50
90
 53
0
  0
DIMENSION
  8
1
  6
CONTINUOUS
 62
2
  2
*D13
  3
DMST_2
 10
-59.5339583105513
 20
230.280732341335
 30
0
 11
-51.619299821252
 21
233.880732341335
 31
0
 12
0
 22
0
 32
0
 70
0
  1
(<>
 13
-43.53396506055021
 23
171.6723590094207
 33
0
 14
-59.5339583105513
 24
189.6723590094207
 34
0
 53
0
  0
DIMENSION
  8
1
  6
CONTINUOUS
 62
2
  2
*D14
  3
DMST_9
 10
-43.53396506055021
 20
212.352528217807
 30
0
 11
-51.0216930171344
 21
215.952528217807
 31
0
 12
0
 22
0
 32
0
 70
0
 13
-58.53396487305126
 23
172.1723590094207
 33
0
 14
-43.53396506055021
 24
171.6723590094207
 34
0
 53
0
  0
DIMENSION
  8
1
  6
CONTINUOUS
 62
2
  2
*D15
  3
DMST_11
 10
-20.6129441713868
 20
172.1723590094207
 30
0
 11
-25.4129441713868
 21
182.829184205708
 31
0
 12
0
 22
0
 32
0
 70
0
  1
âË<>
 13
-43.53396674805022
 23
167.1723590094207
 33
0
 14
-58.53396487305126
 24
172.1723590094207
 34
0
 50
90
 53
0
  0
DIMENSION
  8
1
  6
CONTINUOUS
 62
2
  2
*D16
  3
DMST_10
 10
-32.32688596365865
 20
171.672354806766
 30
0
 11
-35.92688177984734
 21
182.829185555708
 31
0
 12
0
 22
0
 32
0
 70
1
 13
-43.53396674805022
 23
167.1723590094207
 33
0
 14
-43.53396506055021
 24
171.6723590094207
 34
0
 53
0
  0
DIMENSION
  8
1
  6
CONTINUOUS
 62
2
  2
*D17
  3
DMST_2
 10
-219.0603146075775
 20
144.1223590094209
 30
0
 11
-222.6603146075775
 21
135.8618831097886
 31
0
 12
0
 22
0
 32
0
 70
0
  1
4.6
 13
-249.0603160824097
 23
148.6723604842531
 33
0
 14
-253.1103146075777
 24
144.1223590094208
 34
0
 50
90
 53
0
  0
DIMENSION
  8
1
  6
CONTINUOUS
 62
2
  2
*D18
  3
DMST_2
 10
-219.0603146075775
 20
148.6723604842531
 30
0
 11
-222.6603146075775
 21
169.1471368841625
 31
0
 12
0
 22
0
 32
0
 70
0
  1
(<>
 13
-249.0603146075776
 23
190.6723590094207
 33
0
 14
-249.0603160824097
 24
148.6723604842531
 34
0
 50
90
 53
0
  0
INSERT
  8
1
  2
*D2
 10
0
 20
0
 30
0
  0
INSERT
  8
1
  2
*D9
 10
0
 20
0
 30
0
  0
ENDSEC
  0
EOF
