  0
SECTION
  2
HEADER
  9
$ACADVER
  1
AC1009
  9
$INSBASE
 10
0
 20
0
  9
$EXTMIN
 10
-348.134987846833
 20
35.12225410145229
  9
$EXTMAX
 10
19.01002902019536
 20
231.963529100472
  9
$LIMMIN
 10
-348.134987846833
 20
35.12225410145229
  9
$LIMMAX
 10
19.01002902019536
 20
231.963529100472
  9
$VIEWCTR
 10
10
 20
10
  9
$VIEWSIZE
 40
10
  9
$SNAPMODE
 70
0
  9
$SNAPUNIT
 10
1
 20
1
  9
$SNAPBASE
 10
0
 20
0
  9
$SNAPANG
 50
0
  9
$SNAPSTYLE
 70
0
  9
$SNAPISOPAIR
 70
0
  9
$GRIDMODE
 70
0
  9
$GRIDUNIT
 10
0
 20
0
  9
$ORTHOMODE
 70
0
  9
$REGENMODE
 70
1
  9
$FILLMODE
 70
1
  9
$QTEXTMODE
 70
0
  9
$DRAGMODE
 70
2
  9
$LTSCALE
 40
1
  9
$OSMODE
 70
0
  9
$ATTMODE
 70
1
  9
$TEXTSIZE
 40
3.5
  9
$TRACEWID
 40
0.5
  9
$TEXTSTYLE
  7
STANDARD
  9
$CLAYER
  8
0
  9
$CELTYPE
  6
BYLAYER
  9
$CECOLOR
 62
256
  9
$DIMSCALE
 40
1
  9
$DIMASZ
 40
0.18
  9
$DIMEXO
 40
0.0625
  9
$DIMDLI
 40
0.38
  9
$DIMRND
 40
0
  9
$DIMDLE
 40
0
  9
$DIMEXE
 40
0.18
  9
$DIMTP
 40
0
  9
$DIMTM
 40
0
  9
$DIMTXT
 40
0.18
  9
$DIMCEN
 40
0.09
  9
$DIMTSZ
 40
0
  9
$DIMTOL
 70
0
  9
$DIMLIM
 70
0
  9
$DIMTIH
 70
1
  9
$DIMTOH
 70
1
  9
$DIMSE1
 70
0
  9
$DIMSE2
 70
0
  9
$DIMTAD
 70
0
  9
$DIMZIN
 70
0
  9
$DIMBLK
  1

  9
$DIMASO
 70
1
  9
$DIMSHO
 70
1
  9
$DIMPOST
  1

  9
$DIMAPOST
  1

  9
$DIMALT
 70
0
  9
$DIMALTD
 70
2
  9
$DIMALTF
 40
25.4
  9
$DIMLFAC
 40
1
  9
$DIMTOFL
 70
0
  9
$DIMTVP
 40
0
  9
$DIMTIX
 70
0
  9
$DIMSOXD
 70
0
  9
$DIMSAH
 70
0
  9
$DIMBLK1
  1

  9
$DIMBLK2
  1

  9
$DIMSTYLE
  2
*UNNAMED
  9
$DIMCLRD
 70
0
  9
$DIMCLRE
 70
0
  9
$DIMCLRT
 70
0
  9
$DIMTFAC
 40
1
  9
$DIMGAP
 40
0.09
  9
$LUNITS
 70
2
  9
$LUPREC
 70
4
  9
$AXISMODE
 70
0
  9
$AXISUNIT
 10
0
 20
0
  9
$SKETCHINC
 40
0.1
  9
$FILLETRAD
 40
2
  9
$AUNITS
 70
0
  9
$AUPREC
 70
0
  9
$MENU
  1
ACAD
  9
$ELEVATION
 40
0
  9
$THICKNESS
 40
0
  9
$VIEWDIR
 10
0
 20
0
 30
1
  9
$LIMCHECK
 70
0
  9
$BLIPMODE
 70
1
  9
$CHAMFERA
 40
0
  9
$CHAMFERB
 40
0
  9
$FASTZOOM
 70
1
  9
$SKPOLY
 70
0
  9
$ANGBASE
 50
0
  9
$ANGDIR
 70
0
  9
$PDMODE
 70
0
  9
$PDSIZE
 40
0
  9
$PLINEWID
 40
0
  9
$COORDS
 70
2
  0
ENDSEC
  0
SECTION
  2
TABLES
  0
TABLE
  2
DIMSTYLE
 70
10
  0
DIMSTYLE
  2
DMST_1
 70
0
  3

  4

  5

  6

  7

 40
1
 41
3.2
 42
1
 43
7
 44
1.5
 45
0
 46
0
 47
0.2
 48
0.2
140
3.2
141
0
142
0
143
25.4
144
1
145
0
146
0.7
147
0.09
 71
1
 72
0
 73
0
 74
0
 75
0
 76
0
 77
1
 78
9
170
0
171
2
172
0
173
0
174
0
175
0
176
2
177
2
178
2
  0
DIMSTYLE
  2
DMST_2
 70
0
  3
)
  4

  5

  6

  7

 40
1
 41
3.2
 42
1
 43
7
 44
1.5
 45
0
 46
0
 47
0
 48
0
140
3.2
141
0
142
0
143
25.4
144
1
145
0
146
1
147
0.09
 71
0
 72
0
 73
0
 74
0
 75
0
 76
0
 77
1
 78
9
170
0
171
2
172
0
173
0
174
0
175
0
176
2
177
2
178
2
  0
DIMSTYLE
  2
DMST_3
 70
0
  3

  4

  5

  6

  7

 40
1
 41
3.2
 42
1
 43
7
 44
1
 45
0
 46
0
 47
0
 48
0
140
3.2
141
0
142
0
143
25.4
144
1
145
0
146
0.6
147
0.09
 71
1
 72
0
 73
0
 74
0
 75
0
 76
0
 77
1
 78
9
170
0
171
2
172
0
173
0
174
0
175
0
176
2
177
2
178
2
  0
DIMSTYLE
  2
DMST_4
 70
0
  3
MAX.
  4

  5

  6

  7

 40
1
 41
3.2
 42
1
 43
7
 44
1
 45
0
 46
0
 47
0
 48
0
140
3.2
141
0
142
0
143
25.4
144
1
145
0
146
1
147
0.09
 71
0
 72
0
 73
0
 74
0
 75
0
 76
0
 77
1
 78
9
170
0
171
2
172
0
173
0
174
0
175
0
176
2
177
2
178
2
  0
DIMSTYLE
  2
DMST_5
 70
0
  3

  4

  5

  6

  7

 40
1
 41
3.2
 42
1
 43
7
 44
1.5
 45
0
 46
0
 47
0.5
 48
0.5
140
3.2
141
0
142
0
143
25.4
144
1
145
0
146
0.7
147
0.09
 71
1
 72
0
 73
1
 74
1
 75
0
 76
0
 77
1
 78
9
170
0
171
2
172
0
173
0
174
0
175
0
176
2
177
2
178
2
  0
DIMSTYLE
  2
DMST_6
 70
0
  3

  4

  5

  6

  7

 40
1
 41
3.200000000000001
 42
1
 43
7
 44
1
 45
0
 46
0
 47
0.2
 48
0.2
140
3.200000000000001
141
0
142
0
143
25.4
144
1
145
0
146
0.6
147
0.09
 71
1
 72
0
 73
0
 74
0
 75
0
 76
0
 77
1
 78
9
170
0
171
2
172
0
173
0
174
0
175
0
176
2
177
2
178
2
  0
DIMSTYLE
  2
DMST_7
 70
0
  3

  4

  5

  6

  7

 40
1
 41
3.2
 42
0
 43
7
 44
1
 45
0
 46
0
 47
0
 48
0
140
3.2
141
0
142
0
143
25.4
144
1
145
0
146
0.6
147
0.09
 71
1
 72
0
 73
0
 74
0
 75
0
 76
0
 77
1
 78
9
170
0
171
2
172
0
173
0
174
0
175
0
176
2
177
2
178
2
  0
DIMSTYLE
  2
DMST_8
 70
0
  3
)
  4

  5

  6

  7

 40
1
 41
3.2
 42
1
 43
7
 44
1
 45
0
 46
0
 47
0
 48
0
140
3.2
141
0
142
0
143
25.4
144
1
145
0
146
1
147
0.09
 71
0
 72
0
 73
0
 74
0
 75
0
 76
0
 77
1
 78
9
170
0
171
2
172
0
173
0
174
0
175
0
176
2
177
2
178
2
  0
DIMSTYLE
  2
DMST_9
 70
0
  3

  4

  5

  6

  7

 40
1
 41
3.2
 42
1
 43
7
 44
1.5
 45
0
 46
0
 47
0
 48
0.011
140
3.2
141
0
142
0
143
25.4
144
1
145
0
146
0.7
147
0.09
 71
1
 72
0
 73
0
 74
0
 75
0
 76
0
 77
1
 78
9
170
0
171
2
172
0
173
0
174
0
175
0
176
2
177
2
178
2
  0
DIMSTYLE
  2
DMST_10
 70
0
  3

  4

  5

  6

  7

 40
1
 41
3.2
 42
1
 43
7
 44
1.5
 45
0
 46
0
 47
0.1
 48
0.1
140
3.2
141
0
142
0
143
25.4
144
1
145
0
146
0.7
147
0.09
 71
1
 72
0
 73
0
 74
0
 75
0
 76
0
 77
1
 78
9
170
0
171
2
172
0
173
0
174
0
175
0
176
2
177
2
178
2
  0
ENDTAB
  0
TABLE
  2
LTYPE
 70
9
  0
LTYPE
  2
CONTINUOUS
 70
64
  3
Solid line
 72
65
 73
0
 40
0
  0
LTYPE
  2
BORDER
 70
64
  3
__ __ . __ __ .
 72
65
 73
6
 40
16.90799419782367
 49
4.830855485092478
 49
-2.415427742546239
 49
4.830855485092478
 49
-2.415427742546239
 49
0
 49
-2.415427742546239
  0
LTYPE
  2
CENTER
 70
64
  3
____ _ ____ _
 72
65
 73
4
 40
19.32342194036991
 49
12.0771387127312
 49
-2.415427742546239
 49
2.415427742546239
 49
-2.415427742546239
  0
LTYPE
  2
DASHDOT
 70
64
  3
__ . __ . __ .
 72
65
 73
4
 40
9.661710970184956
 49
4.830855485092478
 49
-2.415427742546239
 49
0
 49
-2.415427742546239
  0
LTYPE
  2
DASHED
 70
64
  3
__ __ __ __ __
 72
65
 73
2
 40
7.246283227638717
 49
4.830855485092478
 49
-2.415427742546239
  0
LTYPE
  2
DIVIDE
 70
64
  3
__ . . __ . . 
 72
65
 73
6
 40
12.0771387127312
 49
4.830855485092478
 49
-2.415427742546239
 49
0
 49
-2.415427742546239
 49
0
 49
-2.415427742546239
  0
LTYPE
  2
DOT
 70
64
  3
..............
 72
65
 73
4
 40
4.830855485092478
 49
0
 49
-2.415427742546239
 49
0
 49
-2.415427742546239
  0
LTYPE
  2
HIDDEN
 70
64
  3
_ _ _ _ _ _ _
 72
65
 73
2
 40
3.623141613819358
 49
2.415427742546239
 49
-1.20771387127312
  0
LTYPE
  2
PHANTOM
 70
64
  3
_____ _ _ _____ _ _ 
 72
65
 73
6
 40
24.15427742546239
 49
12.0771387127312
 49
-2.415427742546239
 49
2.415427742546239
 49
-2.415427742546239
 49
2.415427742546239
 49
-2.415427742546239
  0
ENDTAB
  0
TABLE
  2
LAYER
 70
5
  0
LAYER
  2
1
 70
0
 62
7
  6
CONTINUOUS
  0
LAYER
  2
2
 70
0
 62
7
  6
CONTINUOUS
  0
LAYER
  2
4
 70
0
 62
7
  6
CONTINUOUS
  0
LAYER
  2
0
 70
0
 62
7
  6
CONTINUOUS
  0
ENDTAB
  0
TABLE
  2
STYLE
 70
4
  0
STYLE
  2
STANDARD
 70
0
 40
0
 41
1
 50
0
 71
0
 42
3.5
  3
txt
  4

  0
STYLE
  2
SIMPLEX
 70
0
 40
0
 41
1
 50
0
 71
0
 42
3.5
  3
simplex
  4

  0
STYLE
  2
COMPLEX
 70
0
 40
0
 41
1
 50
0
 71
0
 42
3.5
  3
complex
  4

  0
STYLE
  2
ITALIC
 70
0
 40
0
 41
1
 50
0
 71
0
 42
3.5
  3
italic
  4

  0
ENDTAB
  0
TABLE
  2
VIEW
 70
0
  0
ENDTAB
  0
ENDSEC
  0
SECTION
  2
BLOCKS
  0
BLOCK
  8
1
  2
*D0
 70
1
 10
0
 20
0
 30
0
  0
LINE
  8
1
 62
2
 10
-63.47771665582768
 20
211.390294514336
 30
0
 11
-48.47771684332663
 21
211.390294514336
 31
0
  0
LINE
  8
1
 62
2
 10
-48.47771684332663
 20
172.6723590094207
 30
0
 11
-48.47771684332663
 21
212.890294514336
 31
0
  0
LINE
  8
1
 62
2
 10
-63.47771665582768
 20
173.1723590094207
 30
0
 11
-63.47771665582768
 21
212.890294514336
 31
0
  0
SOLID
  8
1
 62
2
 10
-63.47771665582768
 20
211.390294514336
 30
0
 11
-60.27771665582768
 21
211.806294514336
 31
0
 12
-60.27771665582768
 22
210.974294514336
 32
0
 13
-60.27771665582768
 23
210.974294514336
 33
0
  0
SOLID
  8
1
 62
2
 10
-48.47771684332663
 20
211.390294514336
 30
0
 11
-51.67771684332663
 21
210.974294514336
 31
0
 12
-51.67771684332663
 22
211.806294514336
 32
0
 13
-51.67771684332663
 23
211.806294514336
 33
0
  0
TEXT
  8
1
 62
2
 10
-61.8692912531375
 20
213.390294514336
 30
0
 40
3.2
  1
15
 41
0.9
  0
TEXT
  8
1
 62
2
 10
-56.4292912531375
 20
213.870294514336
 30
0
 40
2.24
  1
%%p0.2
 41
0.9900000000000001
  0
ENDBLK
  8
0
  0
BLOCK
  8
1
  2
*D1
 70
1
 10
0
 20
0
 30
0
  0
LINE
  8
1
 62
2
 10
-64.47771009332772
 20
226.763529100472
 30
0
 11
-48.47771684332663
 21
226.763529100472
 31
0
  0
LINE
  8
1
 62
2
 10
-48.47771684332663
 20
172.6723590094207
 30
0
 11
-48.47771684332663
 21
228.263529100472
 31
0
  0
LINE
  8
1
 62
2
 10
-64.47771009332772
 20
190.6723590094207
 30
0
 11
-64.47771009332772
 21
228.263529100472
 31
0
  0
SOLID
  8
1
 62
2
 10
-64.47771009332772
 20
226.763529100472
 30
0
 11
-61.27771009332771
 21
227.179529100472
 31
0
 12
-61.27771009332771
 22
226.347529100472
 32
0
 13
-61.27771009332771
 23
226.347529100472
 33
0
  0
SOLID
  8
1
 62
2
 10
-48.47771684332663
 20
226.763529100472
 30
0
 11
-51.67771684332663
 21
226.347529100472
 31
0
 12
-51.67771684332663
 22
227.179529100472
 32
0
 13
-51.67771684332663
 23
227.179529100472
 33
0
  0
TEXT
  8
1
 62
2
 10
-58.2906452115532
 20
228.763529100472
 30
0
 40
3.2
  1
16
 41
0.9
  0
TEXT
  8
1
 62
2
 10
-60.6106452115532
 20
228.763529100472
 30
0
 40
3.2
  1
(
 41
1.35
  0
TEXT
  8
1
 62
2
 10
-52.8506452115532
 20
228.763529100472
 30
0
 40
3.2
  1
)
 41
0.9
  0
ENDBLK
  8
0
  0
BLOCK
  8
0
  2
*D2
 70
1
 10
0
 20
0
 30
0
  0
LINE
  8
0
 62
2
 10
-149.5597079055654
 20
158.6723590094208
 30
0
 11
-149.5597079055654
 21
180.6723590094207
 31
0
  0
LINE
  8
0
 62
2
 10
-101.0778100933279
 20
158.6723590094208
 30
0
 11
-150.5597079055654
 21
158.6723590094208
 31
0
  0
LINE
  8
0
 62
2
 10
-101.0777100933279
 20
180.6723590094207
 30
0
 11
-150.5597079055654
 21
180.6723590094207
 31
0
  0
SOLID
  8
0
 62
2
 10
-149.5597079055654
 20
180.6723590094207
 30
0
 11
-149.1437079055654
 21
177.4723590094207
 31
0
 12
-149.9757079055654
 22
177.4723590094207
 32
0
 13
-149.9757079055654
 23
177.4723590094207
 33
0
  0
SOLID
  8
0
 62
2
 10
-149.5597079055654
 20
158.6723590094208
 30
0
 11
-149.9757079055654
 21
161.8723590094208
 31
0
 12
-149.1437079055654
 22
161.8723590094208
 32
0
 13
-149.1437079055654
 23
161.8723590094208
 33
0
  0
TEXT
  8
0
 62
2
 10
-151.9597079055654
 20
164.9680712120739
 30
0
 40
3.2
  1
22
 50
90
 41
0.9
  0
TEXT
  8
0
 62
2
 10
-154.0397079055654
 20
171.3680712120739
 30
0
 40
1.92
  1
0
 50
90
 41
0.9
  0
TEXT
  8
0
 62
2
 10
-151.1597079055654
 20
171.3680712120739
 30
0
 40
1.92
  1
-0.05
 50
90
 41
0.9
  0
TEXT
  8
0
 62
2
 10
-151.9597079055654
 20
161.1280712120739
 30
0
 40
3.2
  1
%%c
 50
90
 41
0.9
  0
ENDBLK
  8
0
  0
BLOCK
  8
0
  2
*D3
 70
1
 10
0
 20
0
 30
0
  0
LINE
  8
0
 62
2
 10
-100.0777100933279
 20
219.981219724236
 30
0
 11
-109.507272720455
 21
219.981219724236
 31
0
  0
LINE
  8
0
 62
2
 10
-100.0777100933279
 20
219.981219724236
 30
0
 11
-98.07771009332792
 21
219.981219724236
 31
0
  0
LINE
  8
0
 62
2
 10
-91.67771009332792
 20
219.981219724236
 30
0
 11
-98.07771009332792
 21
219.981219724236
 31
0
  0
LINE
  8
0
 62
2
 10
-98.07771009332792
 20
190.9795590094209
 30
0
 11
-98.07771009332792
 21
220.981219724236
 31
0
  0
LINE
  8
0
 62
2
 10
-100.0777100933279
 20
181.6723590094207
 30
0
 11
-100.0777100933279
 21
220.981219724236
 31
0
  0
SOLID
  8
0
 62
2
 10
-100.0777100933279
 20
219.981219724236
 30
0
 11
-103.2777100933279
 21
219.565219724236
 31
0
 12
-103.2777100933279
 22
220.397219724236
 32
0
 13
-103.2777100933279
 23
220.397219724236
 33
0
  0
SOLID
  8
0
 62
2
 10
-98.07771009332792
 20
219.981219724236
 30
0
 11
-94.87771009332792
 21
220.397219724236
 31
0
 12
-94.87771009332792
 22
219.565219724236
 32
0
 13
-94.87771009332792
 23
219.565219724236
 33
0
  0
TEXT
  8
0
 62
2
 10
-109.507272720455
 20
221.581219724236
 30
0
 40
3.2
  1
2
 41
0.9
  0
TEXT
  8
0
 62
2
 10
-105.987272720455
 20
222.221219724236
 30
0
 40
1.92
  1
%%p0.2
 41
0.9
  0
ENDBLK
  8
0
  0
BLOCK
  8
0
  2
*D4
 70
1
 10
0
 20
0
 30
0
  0
LINE
  8
0
 62
2
 10
-98.07771009332792
 20
226.763529100472
 30
0
 11
-64.47771009332772
 21
226.763529100472
 31
0
  0
LINE
  8
0
 62
2
 10
-64.47771009332772
 20
190.6723590094207
 30
0
 11
-64.47771009332772
 21
227.763529100472
 31
0
  0
LINE
  8
0
 62
2
 10
-98.07771009332792
 20
190.9795590094209
 30
0
 11
-98.07771009332792
 21
227.763529100472
 31
0
  0
SOLID
  8
0
 62
2
 10
-98.07771009332792
 20
226.763529100472
 30
0
 11
-94.87771009332792
 21
227.179529100472
 31
0
 12
-94.87771009332792
 22
226.347529100472
 32
0
 13
-94.87771009332792
 23
226.347529100472
 33
0
  0
SOLID
  8
0
 62
2
 10
-64.47771009332772
 20
226.763529100472
 30
0
 11
-67.67771009332772
 21
226.347529100472
 31
0
 12
-67.67771009332772
 22
227.179529100472
 32
0
 13
-67.67771009332772
 23
227.179529100472
 33
0
  0
TEXT
  8
0
 62
2
 10
-90.61413882739011
 20
228.363529100472
 30
0
 40
3.2
  1
34
 41
0.9
  0
TEXT
  8
0
 62
2
 10
-84.2141388273901
 20
228.363529100472
 30
0
 40
3.2
  1
MAX.
 41
0.9
  0
ENDBLK
  8
0
  0
BLOCK
  8
1
  2
*D5
 70
1
 10
0
 20
0
 30
0
  0
LINE
  8
1
 62
2
 10
-122.0777100933279
 20
226.763529100472
 30
0
 11
-98.07771009332792
 21
226.763529100472
 31
0
  0
LINE
  8
1
 62
2
 10
-98.07771009332792
 20
190.9795590094209
 30
0
 11
-98.07771009332792
 21
228.263529100472
 31
0
  0
LINE
  8
1
 62
2
 10
-122.0777100933279
 20
172.6723590094207
 30
0
 11
-122.0777100933279
 21
228.263529100472
 31
0
  0
SOLID
  8
1
 62
2
 10
-122.0777100933279
 20
226.763529100472
 30
0
 11
-118.8777100933279
 21
227.179529100472
 31
0
 12
-118.8777100933279
 22
226.347529100472
 32
0
 13
-118.8777100933279
 23
226.347529100472
 33
0
  0
SOLID
  8
1
 62
2
 10
-98.07771009332792
 20
226.763529100472
 30
0
 11
-101.2777100933279
 21
226.347529100472
 31
0
 12
-101.2777100933279
 22
227.179529100472
 32
0
 13
-101.2777100933279
 23
227.179529100472
 33
0
  0
TEXT
  8
1
 62
2
 10
-116.758484249167
 20
228.763529100472
 30
0
 40
3.2
  1
24
 41
0.9
  0
TEXT
  8
1
 62
2
 10
-110.358484249167
 20
229.243529100472
 30
0
 40
2.24
  1
%%p0.5
 41
0.9900000000000001
  0
ENDBLK
  8
0
  0
BLOCK
  8
1
  2
*D6
 70
1
 10
0
 20
0
 30
0
  0
LINE
  8
1
 62
2
 10
-223.7898818932509
 20
154.1723590094209
 30
0
 11
-223.7898818932509
 21
185.1723590094208
 31
0
  0
LINE
  8
1
 62
2
 10
-240.7898818932509
 20
154.1723590094209
 30
0
 11
-222.7898818932509
 21
154.1723590094209
 31
0
  0
LINE
  8
1
 62
2
 10
-240.7898818932509
 20
185.1723590094208
 30
0
 11
-222.7898818932509
 21
185.1723590094208
 31
0
  0
SOLID
  8
1
 62
2
 10
-223.7898818932509
 20
185.1723590094208
 30
0
 11
-223.3738818932509
 21
181.9723590094208
 31
0
 12
-224.2058818932509
 22
181.9723590094208
 32
0
 13
-224.2058818932509
 23
181.9723590094208
 33
0
  0
SOLID
  8
1
 62
2
 10
-223.7898818932509
 20
154.1723590094209
 30
0
 11
-224.2058818932509
 21
157.3723590094209
 31
0
 12
-223.3738818932509
 22
157.3723590094209
 32
0
 13
-223.3738818932509
 23
157.3723590094209
 33
0
  0
TEXT
  8
1
 62
2
 10
-225.7898818932509
 20
163.7470964705136
 30
0
 40
3.200000000000001
  1
31
 50
90
 41
0.9
  0
TEXT
  8
1
 62
2
 10
-226.4298818932509
 20
169.1870964705136
 30
0
 40
1.920000000000001
  1
%%p0.2
 50
90
 41
0.9
  0
ENDBLK
  8
0
  0
BLOCK
  8
0
  2
*D7
 70
1
 10
0
 20
0
 30
0
  0
LINE
  8
0
 62
2
 10
-275.289871893251
 20
205.6723590094207
 30
0
 11
-244.289881893251
 21
205.6723590094207
 31
0
  0
LINE
  8
0
 62
2
 10
-275.289871893251
 20
187.6723590094207
 30
0
 11
-275.289871893251
 21
206.6723590094207
 31
0
  0
LINE
  8
0
 62
2
 10
-244.289881893251
 20
187.6723590094207
 30
0
 11
-244.289881893251
 21
206.6723590094207
 31
0
  0
SOLID
  8
0
 62
2
 10
-275.289871893251
 20
205.6723590094207
 30
0
 11
-272.089871893251
 21
206.0883590094207
 31
0
 12
-272.089871893251
 22
205.2563590094207
 32
0
 13
-272.089871893251
 23
205.2563590094207
 33
0
  0
SOLID
  8
0
 62
2
 10
-244.289881893251
 20
205.6723590094207
 30
0
 11
-247.489881893251
 21
205.2563590094207
 31
0
 12
-247.489881893251
 22
206.0883590094207
 32
0
 13
-247.489881893251
 23
206.0883590094207
 33
0
  0
TEXT
  8
0
 62
2
 10
-264.933881893251
 20
207.2723590094207
 30
0
 40
3.2
  1
31
 41
0.9
  0
TEXT
  8
0
 62
2
 10
-259.493881893251
 20
207.9123590094207
 30
0
 40
1.92
  1
%%p0.2
 41
0.9
  0
ENDBLK
  8
0
  0
BLOCK
  8
0
  2
*D8
 70
1
 10
0
 20
0
 30
0
  0
LINE
  8
0
 62
2
 10
-280.7898830840704
 20
215.6723590094207
 30
0
 11
-238.7898818932511
 21
215.6723590094207
 31
0
  0
LINE
  8
0
 62
2
 10
-280.7898830840704
 20
186.6723602002402
 30
0
 11
-280.7898830840704
 21
216.6723590094207
 31
0
  0
LINE
  8
0
 62
2
 10
-238.7898818932511
 20
186.6723590094207
 30
0
 11
-238.7898818932511
 21
216.6723590094207
 31
0
  0
SOLID
  8
0
 62
2
 10
-280.7898830840704
 20
215.6723590094207
 30
0
 11
-277.5898830840704
 21
216.0883590094207
 31
0
 12
-277.5898830840704
 22
215.2563590094207
 32
0
 13
-277.5898830840704
 23
215.2563590094207
 33
0
  0
SOLID
  8
0
 62
2
 10
-238.7898818932511
 20
215.6723590094207
 30
0
 11
-241.9898818932511
 21
215.2563590094207
 31
0
 12
-241.9898818932511
 22
216.0883590094207
 32
0
 13
-241.9898818932511
 23
216.0883590094207
 33
0
  0
TEXT
  8
0
 62
2
 10
-262.1898824886608
 20
217.2723590094207
 30
0
 40
3.2
  1
42
 41
0.9
  0
TEXT
  8
0
 62
2
 10
-264.2698824886608
 20
217.2723590094207
 30
0
 40
3.2
  1
(
 41
0.9
  0
TEXT
  8
0
 62
2
 10
-255.7898824886608
 20
217.2723590094207
 30
0
 40
3.2
  1
)
 41
0.9
  0
ENDBLK
  8
0
  0
BLOCK
  8
1
  2
*D9
 70
1
 10
0
 20
0
 30
0
  0
LINE
  8
1
 62
2
 10
-301.6218431648912
 20
148.6723590094207
 30
0
 11
-301.6218431648912
 21
163.5810579117505
 31
0
  0
LINE
  8
1
 62
2
 10
-301.6218431648912
 20
142.1928455777343
 30
0
 11
-301.6218431648912
 21
148.6723590094207
 31
0
  0
LINE
  8
1
 62
2
 10
-301.6218431648912
 20
135.7928455777343
 30
0
 11
-301.6218431648912
 21
142.1928455777343
 31
0
  0
LINE
  8
1
 62
2
 10
-276.8898826468087
 20
148.6723590094207
 30
0
 11
-303.1218431648912
 21
148.6723590094207
 31
0
  0
LINE
  8
1
 62
2
 10
-272.939881893251
 20
142.1928455777343
 30
0
 11
-303.1218431648912
 21
142.1928455777343
 31
0
  0
SOLID
  8
1
 62
2
 10
-301.6218431648912
 20
142.1928455777343
 30
0
 11
-301.2058431648912
 21
138.9928455777343
 31
0
 12
-302.0378431648912
 22
138.9928455777343
 32
0
 13
-302.0378431648912
 23
138.9928455777343
 33
0
  0
SOLID
  8
1
 62
2
 10
-301.6218431648912
 20
148.6723590094207
 30
0
 11
-302.0378431648912
 21
151.8723590094207
 31
0
 12
-301.2058431648912
 22
151.8723590094207
 32
0
 13
-301.2058431648912
 23
151.8723590094207
 33
0
  0
TEXT
  8
1
 62
2
 10
-303.6218431648912
 20
151.0963520293975
 30
0
 40
3.2
  1
üª(6.5)
 50
90
 41
0.9
  0
ENDBLK
  8
0
  0
BLOCK
  8
1
  2
*D10
 70
1
 10
0
 20
0
 30
0
  0
LINE
  8
1
 62
2
 10
-301.6218431648912
 20
88.27478096896311
 30
0
 11
-301.6218431648912
 21
142.1928455777343
 31
0
  0
LINE
  8
1
 62
2
 10
-272.939881893251
 20
142.1928455777343
 30
0
 11
-303.1218431648912
 21
142.1928455777343
 31
0
  0
LINE
  8
1
 62
2
 10
-271.0898818932512
 20
88.27478096896311
 30
0
 11
-303.1218431648912
 21
88.27478096896311
 31
0
  0
SOLID
  8
1
 62
2
 10
-301.6218431648912
 20
142.1928455777343
 30
0
 11
-301.2058431648912
 21
138.9928455777343
 31
0
 12
-302.0378431648912
 22
138.9928455777343
 32
0
 13
-302.0378431648912
 23
138.9928455777343
 33
0
  0
SOLID
  8
1
 62
2
 10
-301.6218431648912
 20
88.27478096896311
 30
0
 11
-302.0378431648912
 21
91.47478096896312
 31
0
 12
-301.2058431648912
 22
91.47478096896312
 32
0
 13
-301.2058431648912
 23
91.47478096896312
 33
0
  0
TEXT
  8
1
 62
2
 10
-304.8218431648912
 20
109.609206444129
 30
0
 40
3.2
  1
300
 50
90
 41
0.9
  0
TEXT
  8
1
 62
2
 10
-306.9818431648912
 20
118.889206444129
 30
0
 40
2.24
  1
+40
 50
90
 41
0.9900000000000001
  0
TEXT
  8
1
 62
2
 10
-303.6218431648912
 20
118.889206444129
 30
0
 40
2.24
  1
 0
 50
90
 41
0.9900000000000001
  0
ENDBLK
  8
0
  0
BLOCK
  8
1
  2
*D11
 70
1
 10
0
 20
0
 30
0
  0
LINE
  8
1
 62
2
 10
-292.3866664441183
 20
91.77478096896311
 30
0
 11
-292.3866664441183
 21
98.17478096896312
 31
0
  0
LINE
  8
1
 62
2
 10
-292.3866664441183
 20
88.27478096896311
 30
0
 11
-292.3866664441183
 21
81.87478096896311
 31
0
  0
LINE
  8
1
 62
2
 10
-292.3866664441183
 20
88.27478096896311
 30
0
 11
-292.3866664441183
 21
91.77478096896311
 31
0
  0
LINE
  8
1
 62
2
 10
-271.4098818932511
 20
91.77478096896311
 30
0
 11
-293.8866664441183
 21
91.77478096896311
 31
0
  0
LINE
  8
1
 62
2
 10
-271.0898818932512
 20
88.27478096896311
 30
0
 11
-293.8866664441183
 21
88.27478096896311
 31
0
  0
SOLID
  8
1
 62
2
 10
-292.3866664441183
 20
91.77478096896311
 30
0
 11
-292.8026664441182
 21
94.97478096896312
 31
0
 12
-291.9706664441183
 22
94.97478096896312
 32
0
 13
-291.9706664441183
 23
94.97478096896312
 33
0
  0
SOLID
  8
1
 62
2
 10
-292.3866664441183
 20
88.27478096896311
 30
0
 11
-291.9706664441183
 21
85.07478096896311
 31
0
 12
-292.8026664441182
 22
85.07478096896311
 32
0
 13
-292.8026664441182
 23
85.07478096896311
 33
0
  0
TEXT
  8
1
 62
2
 10
-294.3866664441182
 20
89.99006374684302
 30
0
 40
3.2
  1
(3.5)
 50
90
 41
0.9
  0
ENDBLK
  8
0
  0
BLOCK
  8
1
  2
*D12
 70
1
 10
0
 20
0
 30
0
  0
LINE
  8
1
 62
2
 10
-136.444509400139
 20
167.1723590094207
 30
0
 11
-136.444509400139
 21
172.1723590094207
 31
0
  0
LINE
  8
1
 62
2
 10
-136.444509400139
 20
167.1723590094207
 30
0
 11
-136.444509400139
 21
160.7723590094207
 31
0
  0
LINE
  8
1
 62
2
 10
-136.444509400139
 20
172.1723590094207
 30
0
 11
-136.444509400139
 21
178.5723590094207
 31
0
  0
LINE
  8
1
 62
2
 10
-123.0777100933279
 20
167.1723590094207
 30
0
 11
-137.944509400139
 21
167.1723590094207
 31
0
  0
LINE
  8
1
 62
2
 10
-108.0777100933279
 20
172.1723590094207
 30
0
 11
-137.944509400139
 21
172.1723590094207
 31
0
  0
SOLID
  8
1
 62
2
 10
-136.444509400139
 20
172.1723590094207
 30
0
 11
-136.860509400139
 21
175.3723590094207
 31
0
 12
-136.028509400139
 22
175.3723590094207
 32
0
 13
-136.028509400139
 23
175.3723590094207
 33
0
  0
SOLID
  8
1
 62
2
 10
-136.444509400139
 20
167.1723590094207
 30
0
 11
-136.028509400139
 21
163.9723590094207
 31
0
 12
-136.860509400139
 22
163.9723590094207
 32
0
 13
-136.860509400139
 23
163.9723590094207
 33
0
  0
TEXT
  8
1
 62
2
 10
-139.644509400139
 20
165.643147434081
 30
0
 40
3.2
  1
5
 50
90
 41
0.9
  0
TEXT
  8
1
 62
2
 10
-141.804509400139
 20
169.1631474340811
 30
0
 40
2.24
  1
 0
 50
90
 41
0.9900000000000001
  0
TEXT
  8
1
 62
2
 10
-138.444509400139
 20
169.1631474340811
 30
0
 40
2.24
  1
-0.011
 50
90
 41
0.9900000000000001
  0
TEXT
  8
1
 62
2
 10
-139.644509400139
 20
160.3725591987869
 30
0
 40
3.2
  1
âË
 50
90
 41
1.35
  0
ENDBLK
  8
0
  0
BLOCK
  8
1
  2
*D13
 70
1
 10
0
 20
0
 30
0
  0
LINE
  8
1
 62
2
 10
-122.0777100933279
 20
211.390294514336
 30
0
 11
-107.0777100933279
 21
211.390294514336
 31
0
  0
LINE
  8
1
 62
2
 10
-107.0777100933279
 20
173.1723590094207
 30
0
 11
-107.0777100933279
 21
212.890294514336
 31
0
  0
LINE
  8
1
 62
2
 10
-122.0777100933279
 20
172.6723590094207
 30
0
 11
-122.0777100933279
 21
212.890294514336
 31
0
  0
SOLID
  8
1
 62
2
 10
-122.0777100933279
 20
211.390294514336
 30
0
 11
-118.8777100933279
 21
211.806294514336
 31
0
 12
-118.8777100933279
 22
210.974294514336
 32
0
 13
-118.8777100933279
 23
210.974294514336
 33
0
  0
SOLID
  8
1
 62
2
 10
-107.0777100933279
 20
211.390294514336
 30
0
 11
-110.2777100933279
 21
210.974294514336
 31
0
 12
-110.2777100933279
 22
211.806294514336
 32
0
 13
-110.2777100933279
 23
211.806294514336
 33
0
  0
TEXT
  8
1
 62
2
 10
-120.347869874909
 20
213.390294514336
 30
0
 40
3.2
  1
15
 41
0.9
  0
TEXT
  8
1
 62
2
 10
-114.907869874909
 20
213.870294514336
 30
0
 40
2.24
  1
%%p0.2
 41
0.9900000000000001
  0
ENDBLK
  8
0
  0
BLOCK
  8
1
  2
*D14
 70
1
 10
0
 20
0
 30
0
  0
LINE
  8
1
 62
2
 10
-130.118887710578
 20
178.0723955602943
 30
0
 11
-130.1189168014871
 21
171.6723955603604
 31
0
  0
LINE
  8
1
 62
2
 10
-130.1189372560326
 20
167.1723955603604
 30
0
 11
-130.1189168014871
 21
171.6723955603604
 31
0
  0
LINE
  8
1
 62
2
 10
-130.1189372560326
 20
167.1723955603604
 30
0
 11
-130.11903890049
 21
144.8106150026417
 31
0
  0
LINE
  8
1
 62
2
 10
-123.077730547863
 20
167.1723635548752
 30
0
 11
-131.6189372560171
 21
167.1724023785422
 31
0
  0
LINE
  8
1
 62
2
 10
-123.0777100933175
 20
171.6723635548752
 30
0
 11
-131.6189168014716
 21
171.6724023785422
 31
0
  0
SOLID
  8
1
 62
2
 10
-130.1189168014871
 20
171.6723955603604
 30
0
 11
-130.5349022560282
 21
174.8723974512364
 31
0
 12
-129.7029022560368
 22
174.8723936694182
 32
0
 13
-129.7029022560368
 23
174.8723936694182
 33
0
  0
SOLID
  8
1
 62
2
 10
-130.1189372560326
 20
167.1723955603604
 30
0
 11
-129.7029518014915
 21
163.9723936694844
 31
0
 12
-130.5349518014829
 22
163.9723974513025
 32
0
 13
-130.5349518014829
 23
163.9723974513025
 33
0
  0
TEXT
  8
1
 62
2
 10
-132.1190389004693
 20
144.8106240935508
 30
0
 40
3.2
  1
4.5
 50
89.99973956463794
 41
0.9
  0
TEXT
  8
1
 62
2
 10
-132.5990050822825
 20
152.2506262752922
 30
0
 40
2.24
  1
%%p0.1
 50
89.99973956463794
 41
0.9900000000000001
  0
ENDBLK
  8
0
  0
BLOCK
  8
1
  2
*D15
 70
1
 10
0
 20
0
 30
0
  0
LINE
  8
1
 62
2
 10
-29.3553352519861
 20
160.7723590094207
 30
0
 11
-29.3553352519861
 21
167.1723590094207
 31
0
  0
LINE
  8
1
 62
2
 10
-29.3553352519861
 20
167.1723590094207
 30
0
 11
-29.3553352519861
 21
172.1723590094207
 31
0
  0
LINE
  8
1
 62
2
 10
-29.3553352519861
 20
172.1723590094207
 30
0
 11
-29.3553352519861
 21
193.1686894424161
 31
0
  0
LINE
  8
1
 62
2
 10
-47.47771853082664
 20
167.1723590094207
 30
0
 11
-27.8553352519861
 21
167.1723590094207
 31
0
  0
LINE
  8
1
 62
2
 10
-62.47771665582768
 20
172.1723590094207
 30
0
 11
-27.8553352519861
 21
172.1723590094207
 31
0
  0
SOLID
  8
1
 62
2
 10
-29.3553352519861
 20
172.1723590094207
 30
0
 11
-29.7713352519861
 21
175.3723590094207
 31
0
 12
-28.93933525198611
 22
175.3723590094207
 32
0
 13
-28.93933525198611
 23
175.3723590094207
 33
0
  0
SOLID
  8
1
 62
2
 10
-29.3553352519861
 20
167.1723590094207
 30
0
 11
-28.9393352519861
 21
163.9723590094207
 31
0
 12
-29.7713352519861
 22
163.9723590094207
 32
0
 13
-29.7713352519861
 23
163.9723590094207
 33
0
  0
TEXT
  8
1
 62
2
 10
-32.5553352519861
 20
180.2238894424161
 30
0
 40
3.2
  1
5
 50
90
 41
0.9
  0
TEXT
  8
1
 62
2
 10
-34.7153352519861
 20
183.7438894424161
 30
0
 40
2.24
  1
 0
 50
90
 41
0.9900000000000001
  0
TEXT
  8
1
 62
2
 10
-31.3553352519861
 20
183.7438894424161
 30
0
 40
2.24
  1
-0.011
 50
90
 41
0.9900000000000001
  0
TEXT
  8
1
 62
2
 10
-32.5553352519861
 20
174.9533012071219
 30
0
 40
3.2
  1
âË
 50
90
 41
1.35
  0
ENDBLK
  8
0
  0
BLOCK
  8
1
  2
*D16
 70
1
 10
0
 20
0
 30
0
  0
LINE
  8
1
 62
2
 10
-40.3939664850514
 20
160.7723590094207
 30
0
 11
-40.3939664850514
 21
167.1723590094207
 31
0
  0
LINE
  8
1
 62
2
 10
-40.3939664850514
 20
167.1723590094207
 30
0
 11
-40.3939664850514
 21
171.6723590094207
 31
0
  0
LINE
  8
1
 62
2
 10
-40.3939664850514
 20
171.6723590094207
 30
0
 11
-40.3939664850514
 21
190.012720037089
 31
0
  0
LINE
  8
1
 62
2
 10
-47.47771853082663
 20
167.1723590094207
 30
0
 11
-38.8939664850514
 21
167.1723590094207
 31
0
  0
LINE
  8
1
 62
2
 10
-47.47771684332663
 20
171.6723590094207
 30
0
 11
-38.8939664850514
 21
171.6723590094207
 31
0
  0
SOLID
  8
1
 62
2
 10
-40.3939664850514
 20
171.6723590094207
 30
0
 11
-40.80996648505141
 21
174.8723590094207
 31
0
 12
-39.9779664850514
 22
174.8723590094207
 32
0
 13
-39.9779664850514
 23
174.8723590094207
 33
0
  0
SOLID
  8
1
 62
2
 10
-40.3939664850514
 20
167.1723590094207
 30
0
 11
-39.9779664850514
 21
163.9723590094207
 31
0
 12
-40.80996648505141
 22
163.9723590094207
 32
0
 13
-40.80996648505141
 23
163.9723590094207
 33
0
  0
TEXT
  8
1
 62
2
 10
-42.3939664850514
 20
177.090320037089
 30
0
 40
3.2
  1
4.5
 50
90
 41
0.9
  0
TEXT
  8
1
 62
2
 10
-42.87396648505141
 20
184.530320037089
 30
0
 40
2.24
  1
%%p0.1
 50
90
 41
0.9900000000000001
  0
ENDBLK
  8
0
  0
BLOCK
  8
1
  2
*D17
 70
1
 10
0
 20
0
 30
0
  0
LINE
  8
1
 62
2
 10
-213.7898818932509
 20
148.6723604842531
 30
0
 11
-213.7898818932509
 21
190.6723590094207
 31
0
  0
LINE
  8
1
 62
2
 10
-242.7898833680829
 20
148.6723604842531
 30
0
 11
-212.2898818932509
 21
148.6723604842531
 31
0
  0
LINE
  8
1
 62
2
 10
-242.789881893251
 20
190.6723590094207
 30
0
 11
-212.2898818932509
 21
190.6723590094207
 31
0
  0
SOLID
  8
1
 62
2
 10
-213.7898818932509
 20
190.6723590094207
 30
0
 11
-213.3738818932509
 21
187.4723590094207
 31
0
 12
-214.2058818932509
 22
187.4723590094207
 32
0
 13
-214.2058818932509
 23
187.4723590094207
 33
0
  0
SOLID
  8
1
 62
2
 10
-213.7898818932509
 20
148.6723604842531
 30
0
 11
-214.2058818932509
 21
151.8723604842531
 31
0
 12
-213.3738818932509
 22
151.8723604842531
 32
0
 13
-213.3738818932509
 23
151.8723604842531
 33
0
  0
TEXT
  8
1
 62
2
 10
-215.7898818932509
 20
166.7471368841625
 30
0
 40
3.2
  1
42
 50
90
 41
0.9
  0
TEXT
  8
1
 62
2
 10
-215.7898818932509
 20
164.6671368841625
 30
0
 40
3.2
  1
(
 50
90
 41
0.9
  0
TEXT
  8
1
 62
2
 10
-215.7898818932509
 20
173.1471368841625
 30
0
 40
3.2
  1
)
 50
90
 41
0.9
  0
ENDBLK
  8
0
  0
BLOCK
  8
1
  2
*D18
 70
1
 10
0
 20
0
 30
0
  0
LINE
  8
1
 62
2
 10
-213.7898818932509
 20
155.0723604842532
 30
0
 11
-213.7898818932509
 21
148.6723604842532
 31
0
  0
LINE
  8
1
 62
2
 10
-213.7898818932509
 20
144.1223590094209
 30
0
 11
-213.7898818932509
 21
148.6723604842532
 31
0
  0
LINE
  8
1
 62
2
 10
-213.7898818932509
 20
144.1223590094209
 30
0
 11
-213.7898818932509
 21
130.8618831097886
 31
0
  0
LINE
  8
1
 62
2
 10
-246.8398818932511
 20
144.1223590094209
 30
0
 11
-212.2898818932509
 21
144.1223590094209
 31
0
  0
LINE
  8
1
 62
2
 10
-242.789883368083
 20
148.6723604842532
 30
0
 11
-212.2898818932509
 21
148.6723604842532
 31
0
  0
SOLID
  8
1
 62
2
 10
-213.7898818932509
 20
148.6723604842532
 30
0
 11
-214.2058818932509
 21
151.8723604842532
 31
0
 12
-213.3738818932509
 22
151.8723604842532
 32
0
 13
-213.3738818932509
 23
151.8723604842532
 33
0
  0
SOLID
  8
1
 62
2
 10
-213.7898818932509
 20
144.1223590094209
 30
0
 11
-213.3738818932509
 21
140.9223590094209
 31
0
 12
-214.2058818932509
 22
140.9223590094209
 32
0
 13
-214.2058818932509
 23
140.9223590094209
 33
0
  0
TEXT
  8
1
 62
2
 10
-215.7898818932509
 20
132.9418831097886
 30
0
 40
3.2
  1
4.6
 50
90
 41
0.9
  0
TEXT
  8
1
 62
2
 10
-215.7898818932509
 20
130.8618831097886
 30
0
 40
3.2
  1
(
 50
90
 41
0.9
  0
TEXT
  8
1
 62
2
 10
-215.7898818932509
 20
140.3818831097886
 30
0
 40
3.2
  1
)
 50
90
 41
0.9
  0
ENDBLK
  8
0
  0
ENDSEC
  0
SECTION
  2
ENTITIES
  0
LINE
  8
1
 62
3
 10
-261.289881893251
 20
171.6723590094207
 30
0
 11
-258.289881893251
 21
171.6723590094207
 31
0
  0
LINE
  8
1
 62
3
 10
-48.47771853082663
 20
167.1723590094207
 30
0
 11
-64.47771853082776
 21
167.1723590094207
 31
0
  0
LINE
  8
1
 62
3
 10
-48.47771684332663
 20
171.6723590094207
 30
0
 11
-48.47771853082663
 21
167.1723590094207
 31
0
  0
LINE
  8
1
 62
3
 10
-63.47771684332768
 20
171.6723590094207
 30
0
 11
-48.47771684332663
 21
171.6723590094207
 31
0
  0
LINE
  8
1
 62
3
 10
-63.47771665582768
 20
172.1723590094207
 30
0
 11
-63.47771684332768
 21
171.6723590094207
 31
0
  0
LINE
  8
1
 62
3
 10
-64.47771665582775
 20
172.1723590094207
 30
0
 11
-63.47771665582768
 21
172.1723590094207
 31
0
  0
LINE
  8
1
 62
2
 10
-76.72794099407246
 20
118.1721088737074
 30
0
 11
-69.82593087474446
 21
118.1721088737074
 31
0
  0
LINE
  8
1
 62
3
 10
-100.0777498660552
 20
172.1723590094207
 30
0
 11
-107.0777100933279
 21
172.1723590094207
 31
0
  0
LINE
  8
1
 62
2
 10
-348.134987846833
 20
47.12225410145229
 30
0
 11
-258.134987846833
 21
47.12225410145227
 31
0
  0
LINE
  8
1
 62
2
 10
-348.134987846833
 20
61.12225410145217
 30
0
 11
-258.134987846833
 21
61.12225410145217
 31
0
  0
LINE
  8
1
 62
2
 10
-258.134987846833
 20
35.12225410145229
 30
0
 11
-348.134987846833
 21
35.12225410145229
 31
0
  0
LINE
  8
1
 62
2
 10
-348.134987846833
 20
35.12225410145229
 30
0
 11
-348.134987846833
 21
61.12225410145217
 31
0
  0
LINE
  8
1
 62
2
 10
-348.134987846833
 20
54.12225410145216
 30
0
 11
-258.134987846833
 21
54.12225410145216
 31
0
  0
LINE
  8
1
 62
2
 10
-264.5278640565301
 20
53.51333470811836
 30
0
 11
-261.838374845319
 21
53.51333470811836
 31
0
  0
LINE
  8
1
 62
2
 10
-294.784617682648
 20
53.26883568891726
 30
0
 11
-291.3005066590341
 21
53.26883568891726
 31
0
  0
LINE
  8
1
 62
2
 10
-258.134987846833
 20
61.12225410145217
 30
0
 11
-258.134987846833
 21
35.12225410145229
 31
0
  0
LINE
  8
1
 62
2
 10
-318.134987846833
 20
61.12225410145217
 30
0
 11
-318.134987846833
 21
35.12225410145229
 31
0
  0
LINE
  8
1
 62
2
 10
-308.134987846833
 20
61.12225410145217
 30
0
 11
-308.134987846833
 21
35.12225410145229
 31
0
  0
LINE
  8
1
 62
2
 10
-298.134987846833
 20
61.12225410145217
 30
0
 11
-298.134987846833
 21
35.12225410145229
 31
0
  0
LINE
  8
1
 62
2
 10
-288.134987846833
 20
61.12225410145217
 30
0
 11
-288.134987846833
 21
35.12225410145229
 31
0
  0
LINE
  8
1
 62
2
 10
-278.134987846833
 20
61.12225410145217
 30
0
 11
-278.134987846833
 21
35.12225410145229
 31
0
  0
LINE
  8
1
 62
2
 10
-268.134987846833
 20
61.12225410145217
 30
0
 11
-268.134987846833
 21
35.12225410145229
 31
0
  0
LINE
  8
1
 62
2
 10
-68.82291267030881
 20
219.6746678976587
 30
0
 11
-68.82291267030881
 21
193.6746678976585
 31
0
  0
LINE
  8
1
 62
2
 10
-74.82291267030881
 20
193.6746678976585
 30
0
 11
-74.82291267030881
 21
219.6746678976587
 31
0
  0
LINE
  8
1
 62
2
 10
-74.82291267030881
 20
219.6746678976587
 30
0
 11
-68.82291267030881
 21
219.6746678976587
 31
0
  0
LINE
  8
1
 62
2
 10
-71.82291267030881
 20
195.1746678976585
 30
0
 11
-71.82291267030881
 21
197.6746678976585
 31
0
  0
LINE
  8
1
 62
2
 10
-69.32291267030881
 20
196.6746678976585
 30
0
 11
-74.32291267030881
 21
196.6746678976585
 31
0
  0
LINE
  8
1
 62
2
 10
-74.32291267030881
 20
196.6746678976585
 30
0
 11
-71.82291267030881
 21
195.1746678976585
 31
0
  0
LINE
  8
1
 62
2
 10
-74.82291267030881
 20
199.6746678976587
 30
0
 11
-68.82291267030881
 21
199.6746678976587
 31
0
  0
LINE
  8
1
 62
2
 10
-68.82291267030881
 20
193.6746678976585
 30
0
 11
-74.82291267030881
 21
193.6746678976585
 31
0
  0
LINE
  8
1
 62
2
 10
-76.72794099407246
 20
119.1721088737074
 30
0
 11
-69.82593087474446
 21
119.1721088737074
 31
0
  0
LINE
  8
1
 62
3
 10
-122.0777305478734
 20
167.1723590094207
 30
0
 11
-100.0777714569643
 21
167.1723590094207
 31
0
  0
LINE
  8
1
 62
3
 10
-97.57771009332792
 20
148.6723590094208
 30
0
 11
-76.17771009332789
 21
148.6723692600842
 31
0
  0
LINE
  8
1
 62
3
 10
-97.57771009332792
 20
190.6723590094207
 30
0
 11
-65.47771009332772
 21
190.6723590094207
 31
0
  0
LINE
  8
4
 62
7
 10
-79.57771009332792
 20
180.9815590094208
 30
0
 11
-79.57771009332792
 21
190.6723590094207
 31
0
  0
LINE
  8
4
 62
7
 10
-80.37771009332782
 20
182.2513590094208
 30
0
 11
-80.37771009332782
 21
190.6723590094207
 31
0
  0
LINE
  8
4
 62
7
 10
-81.17771009332795
 20
183.5211590094208
 30
0
 11
-81.17771009332795
 21
190.6723590094207
 31
0
  0
LINE
  8
4
 62
7
 10
-81.9777100933279
 20
184.7909590094207
 30
0
 11
-81.9777100933279
 21
190.6723590094207
 31
0
  0
LINE
  8
4
 62
7
 10
-82.7777100933278
 20
186.0607590094209
 30
0
 11
-82.7777100933278
 21
190.6723590094207
 31
0
  0
LINE
  8
4
 62
7
 10
-83.57771009332792
 20
187.3304590094208
 30
0
 11
-83.57771009332792
 21
190.6723590094207
 31
0
  0
LINE
  8
4
 62
7
 10
-77.97771009332801
 20
184.6723590094207
 30
0
 11
-77.97771009332801
 21
178.4420590094208
 31
0
  0
LINE
  8
4
 62
7
 10
-78.7777100933278
 20
184.6723590094207
 30
0
 11
-78.7777100933278
 21
179.7117590094208
 31
0
  0
LINE
  8
4
 62
7
 10
-86.8778100933278
 20
158.3630590094209
 30
0
 11
-86.8778100933278
 21
148.6722590094206
 31
0
  0
LINE
  8
4
 62
7
 10
-86.0778100933279
 20
157.0932590094209
 30
0
 11
-86.0778100933279
 21
148.6722590094206
 31
0
  0
LINE
  8
4
 62
7
 10
-85.27781009332794
 20
155.8234590094209
 30
0
 11
-85.27781009332794
 21
148.6722590094206
 31
0
  0
LINE
  8
4
 62
7
 10
-84.47781009332788
 20
154.5536590094207
 30
0
 11
-84.47781009332788
 21
148.6722590094206
 31
0
  0
LINE
  8
4
 62
7
 10
-83.67781009332792
 20
153.2839590094208
 30
0
 11
-83.67781009332792
 21
148.6722590094206
 31
0
  0
LINE
  8
4
 62
7
 10
-82.8778100933278
 20
152.0141590094208
 30
0
 11
-82.8778100933278
 21
148.6722590094206
 31
0
  0
LINE
  8
4
 62
7
 10
-87.67781009332792
 20
154.6722590094206
 30
0
 11
-87.67781009332792
 21
159.6328590094206
 31
0
  0
LINE
  8
1
 62
3
 10
-87.2777100933278
 20
154.6724590094208
 30
0
 11
-76.17771009332789
 21
154.6723590094208
 31
0
  0
LINE
  8
1
 62
3
 10
-87.2777100933278
 20
184.6723590094207
 30
0
 11
-79.17771009332789
 21
184.6723590094207
 31
0
  0
LINE
  8
1
 62
3
 10
-97.57771009332792
 20
190.6723590094207
 30
0
 11
-98.07771009332792
 21
189.9795590094209
 31
0
  0
LINE
  8
1
 62
3
 10
-79.17771009332789
 20
191.8535671529528
 30
0
 11
-67.76881009332782
 21
191.8535671529528
 31
0
  0
LINE
  8
1
 62
3
 10
-97.57771009332792
 20
148.6723590094208
 30
0
 11
-98.07771009332792
 21
149.3651590094208
 31
0
  0
LINE
  8
1
 62
3
 10
-100.0777100933279
 20
180.6723590094207
 30
0
 11
-98.07771009332792
 21
180.6723590094207
 31
0
  0
LINE
  8
1
 62
3
 10
-100.0778100933279
 20
158.6723590094208
 30
0
 11
-98.07771009332792
 21
158.6723590094208
 31
0
  0
LINE
  8
1
 62
3
 10
-100.0778100933279
 20
158.6723590094208
 30
0
 11
-100.0777100933279
 21
180.6723590094207
 31
0
  0
LINE
  8
1
 62
3
 10
-90.17767305805124
 20
184.6723590094207
 30
0
 11
-90.17767305805124
 21
190.6723590094207
 31
0
  0
LINE
  8
1
 62
3
 10
-90.1776100933278
 20
184.6723590094207
 30
0
 11
-87.2777100933278
 21
184.6723590094207
 31
0
  0
LINE
  8
1
 62
3
 10
-76.17771009332789
 20
184.6723590094207
 30
0
 11
-76.17771009332789
 21
190.6723590094207
 31
0
  0
LINE
  8
1
 62
3
 10
-79.17771009332789
 20
184.6723590094207
 30
0
 11
-76.17771009332789
 21
184.6723590094207
 31
0
  0
LINE
  8
1
 62
3
 10
-90.1776100933278
 20
184.6723590094207
 30
0
 11
-90.17771009332793
 21
154.6723590094208
 31
0
  0
LINE
  8
1
 62
3
 10
-90.17771009332793
 20
154.6723590094208
 30
0
 11
-87.2777100933278
 21
154.6724590094208
 31
0
  0
LINE
  8
1
 62
3
 10
-90.17767305805124
 20
154.6724590094208
 30
0
 11
-90.1777730580512
 21
148.6723590094208
 31
0
  0
LINE
  8
1
 62
3
 10
-76.17771009332789
 20
184.6723590094207
 30
0
 11
-76.17771009332789
 21
154.6723590094208
 31
0
  0
LINE
  8
1
 62
3
 10
-76.17771009332789
 20
154.6723590094208
 30
0
 11
-79.17771009332789
 21
154.6723590094208
 31
0
  0
LINE
  8
1
 62
3
 10
-98.07771009332792
 20
159.6723590094208
 30
0
 11
-98.07771009332792
 21
189.9795590094209
 31
0
  0
LINE
  8
1
 62
3
 10
-98.07771009332792
 20
159.6723590094208
 30
0
 11
-98.07771009332792
 21
149.3651590094208
 31
0
  0
LINE
  8
1
 62
3
 10
-64.47771009332772
 20
189.6723590094207
 30
0
 11
-64.47772509332779
 21
149.6723590094208
 31
0
  0
LINE
  8
1
 62
1
 10
-124.5777191842629
 20
169.6723590094207
 30
0
 11
-44.59814623137071
 21
169.6723590094207
 31
0
  0
LINE
  8
1
 62
3
 10
-76.17771009332789
 20
146.6723590094208
 30
0
 11
-76.17771009332789
 21
154.6723590094208
 31
0
  0
LINE
  8
1
 62
3
 10
-76.17771009332789
 20
146.6723590094208
 30
0
 11
-65.47772159532852
 21
146.6723590094208
 31
0
  0
LINE
  8
1
 62
3
 10
-64.47772159533011
 20
147.6723607584212
 30
0
 11
-64.47772509332779
 21
149.6723590094208
 31
0
  0
LINE
  8
1
 62
3
 10
-76.17771009332789
 20
146.6723590094208
 30
0
 11
-76.17771009332789
 21
145.1223590094209
 31
0
  0
LINE
  8
1
 62
3
 10
-76.17771009332789
 20
144.1223590094209
 30
0
 11
-76.17771009332789
 21
145.1223590094209
 31
0
  0
LINE
  8
1
 62
3
 10
-76.17771009332789
 20
146.6723590094208
 30
0
 11
-76.17771009332789
 21
145.1223590094209
 31
0
  0
LINE
  8
1
 62
3
 10
-76.17771009332789
 20
145.1223590094209
 30
0
 11
-70.77771009332791
 21
145.1223590094209
 31
0
  0
LINE
  8
1
 62
3
 10
-70.77771009332791
 20
145.1223590094209
 30
0
 11
-70.7777100933278
 21
146.6723590094208
 31
0
  0
LINE
  8
1
 62
3
 10
-71.37771009332788
 20
145.1223590094209
 30
0
 11
-71.37771009332788
 21
144.1223590094209
 31
0
  0
LINE
  8
1
 62
3
 10
-71.37771009332788
 20
144.1223590094209
 30
0
 11
-76.17771009332789
 21
144.1223590094209
 31
0
  0
LINE
  8
1
 62
3
 10
-76.17771009332789
 20
144.1223590094209
 30
0
 11
-76.17771009332789
 21
145.1223590094209
 31
0
  0
LINE
  8
1
 62
3
 10
-71.92806213608941
 20
144.1223590094209
 30
0
 11
-71.92806213608941
 21
143.5223590094209
 31
0
  0
LINE
  8
1
 62
3
 10
-71.92806213608941
 20
143.5223590094209
 30
0
 11
-71.29127037814378
 21
142.172359009421
 31
0
  0
LINE
  8
1
 62
3
 10
-75.72607012097909
 20
142.172359009421
 30
0
 11
-71.29127037814378
 21
142.172359009421
 31
0
  0
LINE
  8
1
 62
3
 10
-75.29396142808729
 20
141.672359009421
 30
0
 11
-75.29396142808729
 21
142.172359009421
 31
0
  0
LINE
  8
1
 62
3
 10
-72.5648538940349
 20
141.672359009421
 30
0
 11
-72.5648538940349
 21
142.172359009421
 31
0
  0
LINE
  8
1
 62
3
 10
-75.29396142808729
 20
141.672359009421
 30
0
 11
-72.5648538940349
 21
141.672359009421
 31
0
  0
LINE
  8
1
 62
3
 10
-73.32396142808743
 20
141.672359009421
 30
0
 11
-73.32396142808743
 21
119.1721088737074
 31
0
  0
LINE
  8
1
 62
3
 10
-74.56396142808744
 20
119.1721088737074
 30
0
 11
-74.56396142808744
 21
141.672359009421
 31
0
  0
LINE
  8
1
 62
3
 10
-75.57771009332792
 20
145.1223590094209
 30
0
 11
-75.57771009332792
 21
144.1223590094209
 31
0
  0
LINE
  8
1
 62
3
 10
-75.2777100933278
 20
145.1223590094209
 30
0
 11
-75.2777100933278
 21
144.1223590094209
 31
0
  0
LINE
  8
1
 62
3
 10
-71.92806213608941
 20
143.5223590094209
 30
0
 11
-76.17771009332789
 21
143.5223590094209
 31
0
  0
LINE
  8
1
 62
3
 10
-76.17771009332789
 20
144.1223590094209
 30
0
 11
-76.17771009332789
 21
141.8223590094209
 31
0
  0
LINE
  8
1
 62
3
 10
-76.17771009332789
 20
141.8223590094209
 30
0
 11
-75.29396142808729
 21
141.8223590094209
 31
0
  0
LINE
  8
1
 62
3
 10
-75.72607012097909
 20
143.5223590094209
 30
0
 11
-75.72607012097909
 21
142.172359009421
 31
0
  0
LINE
  8
1
 62
3
 10
-122.0777100933279
 20
171.6723590094207
 30
0
 11
-122.0777100933279
 21
167.1723590094207
 31
0
  0
LINE
  8
1
 62
7
 10
-87.67781009332792
 20
154.6722590094206
 30
0
 11
-87.67781009332792
 21
148.6723637515022
 31
0
  0
LINE
  8
1
 62
7
 10
-88.47781009332792
 20
160.9026423427539
 30
0
 11
-88.47781009332792
 21
148.6723633682999
 31
0
  0
LINE
  8
1
 62
7
 10
-89.27781009332792
 20
162.1724256760872
 30
0
 11
-89.27781009332792
 21
148.6723629850975
 31
0
  0
LINE
  8
1
 62
7
 10
-78.7777100933278
 20
184.6723590094207
 30
0
 11
-78.7777100933278
 21
190.6723590094207
 31
0
  0
LINE
  8
1
 62
7
 10
-77.97771009332801
 20
184.6723590094207
 30
0
 11
-77.97771009332801
 21
190.6723590094207
 31
0
  0
LINE
  8
1
 62
7
 10
-77.17771009332802
 20
177.1722875808494
 30
0
 11
-77.17771009332802
 21
190.6723590094207
 31
0
  0
LINE
  8
1
 62
3
 10
-243.789881893251
 20
190.6723590094207
 30
0
 11
-275.7898830840706
 21
190.6723590094207
 31
0
  0
LINE
  8
1
 62
3
 10
-248.3505715418591
 20
143.8928455777343
 30
0
 11
-247.6005715418591
 21
142.6928455777343
 31
0
  0
LINE
  8
1
 62
3
 10
-271.189881893251
 20
143.8928455777343
 30
0
 11
-271.939881893251
 21
142.6928455777343
 31
0
  0
LINE
  8
1
 62
3
 10
-271.939881893251
 20
142.6928455777343
 30
0
 11
-247.6005715418591
 21
142.6928455777343
 31
0
  0
LINE
  8
1
 62
3
 10
-251.1898818932512
 20
142.6928455777343
 30
0
 11
-251.1898818932512
 21
142.1928455777343
 31
0
  0
LINE
  8
1
 62
3
 10
-251.1898818932512
 20
142.1928455777343
 30
0
 11
-250.389881893251
 21
142.1928455777343
 31
0
  0
LINE
  8
1
 62
3
 10
-250.389881893251
 20
142.1928455777343
 30
0
 11
-250.389881893251
 21
142.6928455777343
 31
0
  0
LINE
  8
1
 62
3
 10
-253.1898818932512
 20
142.6928455777343
 30
0
 11
-253.1898818932512
 21
142.1928455777343
 31
0
  0
LINE
  8
1
 62
3
 10
-253.1898818932512
 20
142.1928455777343
 30
0
 11
-252.389881893251
 21
142.1928455777343
 31
0
  0
LINE
  8
1
 62
3
 10
-252.389881893251
 20
142.1928455777343
 30
0
 11
-252.389881893251
 21
142.6928455777343
 31
0
  0
LINE
  8
1
 62
3
 10
-255.1898818932512
 20
142.6928455777343
 30
0
 11
-255.1898818932512
 21
142.1928455777343
 31
0
  0
LINE
  8
1
 62
3
 10
-255.1898818932512
 20
142.1928455777343
 30
0
 11
-254.389881893251
 21
142.1928455777343
 31
0
  0
LINE
  8
1
 62
3
 10
-254.389881893251
 20
142.1928455777343
 30
0
 11
-254.389881893251
 21
142.6928455777343
 31
0
  0
LINE
  8
1
 62
3
 10
-257.1898818932512
 20
142.6928455777343
 30
0
 11
-257.1898818932512
 21
142.1928455777343
 31
0
  0
LINE
  8
1
 62
3
 10
-257.1898818932512
 20
142.1928455777343
 30
0
 11
-256.389881893251
 21
142.1928455777343
 31
0
  0
LINE
  8
1
 62
3
 10
-256.389881893251
 20
142.1928455777343
 30
0
 11
-256.389881893251
 21
142.6928455777343
 31
0
  0
LINE
  8
1
 62
3
 10
-259.1898818932512
 20
142.6928455777343
 30
0
 11
-259.1898818932512
 21
142.1928455777343
 31
0
  0
LINE
  8
1
 62
3
 10
-259.1898818932512
 20
142.1928455777343
 30
0
 11
-258.389881893251
 21
142.1928455777343
 31
0
  0
LINE
  8
1
 62
3
 10
-258.389881893251
 20
142.1928455777343
 30
0
 11
-258.389881893251
 21
142.6928455777343
 31
0
  0
LINE
  8
1
 62
3
 10
-261.1898818932512
 20
142.6928455777343
 30
0
 11
-261.1898818932512
 21
142.1928455777343
 31
0
  0
LINE
  8
1
 62
3
 10
-261.1898818932512
 20
142.1928455777343
 30
0
 11
-260.389881893251
 21
142.1928455777343
 31
0
  0
LINE
  8
1
 62
3
 10
-260.389881893251
 20
142.1928455777343
 30
0
 11
-260.389881893251
 21
142.6928455777343
 31
0
  0
LINE
  8
1
 62
3
 10
-263.1898818932512
 20
142.6928455777343
 30
0
 11
-263.1898818932512
 21
142.1928455777343
 31
0
  0
LINE
  8
1
 62
3
 10
-263.1898818932512
 20
142.1928455777343
 30
0
 11
-262.389881893251
 21
142.1928455777343
 31
0
  0
LINE
  8
1
 62
3
 10
-262.389881893251
 20
142.1928455777343
 30
0
 11
-262.389881893251
 21
142.6928455777343
 31
0
  0
LINE
  8
1
 62
3
 10
-265.1898818932512
 20
142.6928455777343
 30
0
 11
-265.1898818932512
 21
142.1928455777343
 31
0
  0
LINE
  8
1
 62
3
 10
-265.1898818932512
 20
142.1928455777343
 30
0
 11
-264.389881893251
 21
142.1928455777343
 31
0
  0
LINE
  8
1
 62
3
 10
-264.389881893251
 20
142.1928455777343
 30
0
 11
-264.389881893251
 21
142.6928455777343
 31
0
  0
LINE
  8
1
 62
3
 10
-267.1898818932512
 20
142.6928455777343
 30
0
 11
-267.1898818932512
 21
142.1928455777343
 31
0
  0
LINE
  8
1
 62
3
 10
-267.1898818932512
 20
142.1928455777343
 30
0
 11
-266.3898818932513
 21
142.1928455777343
 31
0
  0
LINE
  8
1
 62
3
 10
-266.3898818932513
 20
142.1928455777343
 30
0
 11
-266.3898818932513
 21
142.6928455777343
 31
0
  0
LINE
  8
1
 62
3
 10
-269.1898818932512
 20
142.6928455777343
 30
0
 11
-269.1898818932512
 21
142.1928455777343
 31
0
  0
LINE
  8
1
 62
3
 10
-269.1898818932512
 20
142.1928455777343
 30
0
 11
-268.3898818932513
 21
142.1928455777343
 31
0
  0
LINE
  8
1
 62
3
 10
-268.3898818932513
 20
142.1928455777343
 30
0
 11
-268.3898818932513
 21
142.6928455777343
 31
0
  0
LINE
  8
1
 62
3
 10
-270.389881893251
 20
142.1928455777343
 30
0
 11
-271.939881893251
 21
142.1928455777343
 31
0
  0
LINE
  8
1
 62
3
 10
-271.939881893251
 20
142.1928455777343
 30
0
 11
-271.939881893251
 21
142.6928455777343
 31
0
  0
LINE
  8
1
 62
3
 10
-247.6005715418591
 20
142.6928455777343
 30
0
 11
-247.6005715418591
 21
142.1928455777343
 31
0
  0
LINE
  8
1
 62
3
 10
-247.6005715418591
 20
142.1928455777343
 30
0
 11
-249.1898818932512
 21
142.1928455777343
 31
0
  0
LINE
  8
1
 62
3
 10
-268.3898818932513
 20
142.6928455777343
 30
0
 11
-268.3898818932513
 21
148.6723629921551
 31
0
  0
LINE
  8
1
 62
3
 10
-267.3898818932513
 20
148.6723629921551
 30
0
 11
-267.3898818932513
 21
142.9081862100575
 31
0
  0
LINE
  8
1
 62
3
 10
-267.3898818932513
 20
142.9081862100575
 30
0
 11
-252.1898818932512
 21
142.9081862100575
 31
0
  0
LINE
  8
1
 62
3
 10
-252.1898818932512
 20
142.9081862100575
 30
0
 11
-252.1898818932512
 21
148.6723629921551
 31
0
  0
LINE
  8
1
 62
3
 10
-251.1898818932512
 20
142.6928455777343
 30
0
 11
-251.1898818932512
 21
148.6723629921551
 31
0
  0
LINE
  8
1
 62
3
 10
-267.3898818932513
 20
144.1223590094208
 30
0
 11
-252.1898818932512
 21
144.1223590094208
 31
0
  0
LINE
  8
1
 62
3
 10
-270.389881893251
 20
142.1928455777343
 30
0
 11
-270.3898818932513
 21
142.6928455777343
 31
0
  0
LINE
  8
1
 62
3
 10
-249.1898818932512
 20
142.1928455777343
 30
0
 11
-249.1898818932512
 21
142.6928455777343
 31
0
  0
LINE
  8
1
 62
3
 10
-270.4098818932511
 20
138.8163545079543
 30
0
 11
-270.4098818932511
 21
142.1928455777343
 31
0
  0
LINE
  8
1
 62
3
 10
-269.1698818932511
 20
138.8163545079543
 30
0
 11
-269.1698818932511
 21
142.1928455777343
 31
0
  0
LINE
  8
1
 62
3
 10
-266.4098818932511
 20
138.8163545079543
 30
0
 11
-266.4098818932511
 21
142.1928455777343
 31
0
  0
LINE
  8
1
 62
3
 10
-265.1698818932511
 20
138.8163545079543
 30
0
 11
-265.1698818932511
 21
142.1928455777343
 31
0
  0
LINE
  8
1
 62
3
 10
-262.4098818932511
 20
138.8163545079543
 30
0
 11
-262.4098818932511
 21
142.1928455777343
 31
0
  0
LINE
  8
1
 62
3
 10
-261.1698818932511
 20
138.8163545079543
 30
0
 11
-261.1698818932511
 21
142.1928455777343
 31
0
  0
LINE
  8
1
 62
3
 10
-258.4098818932511
 20
138.8163545079543
 30
0
 11
-258.4098818932511
 21
142.1928455777343
 31
0
  0
LINE
  8
1
 62
3
 10
-257.1698818932511
 20
138.8163545079543
 30
0
 11
-257.1698818932511
 21
142.1928455777343
 31
0
  0
LINE
  8
1
 62
3
 10
-254.4098818932511
 20
138.8163545079543
 30
0
 11
-254.4098818932511
 21
142.1928455777343
 31
0
  0
LINE
  8
1
 62
3
 10
-253.1698818932511
 20
138.8163545079543
 30
0
 11
-253.1698818932511
 21
142.1928455777343
 31
0
  0
LINE
  8
1
 62
3
 10
-250.4098818932511
 20
138.8163545079543
 30
0
 11
-250.4098818932511
 21
142.1928455777343
 31
0
  0
LINE
  8
1
 62
3
 10
-249.1698818932511
 20
138.8163545079543
 30
0
 11
-249.1698818932511
 21
142.1928455777343
 31
0
  0
LINE
  8
1
 62
3
 10
-270.4098818932511
 20
138.8163545079543
 30
0
 11
-270.4098818932511
 21
130.9425914316199
 31
0
  0
LINE
  8
1
 62
3
 10
-269.1698818932511
 20
130.9425914316199
 30
0
 11
-269.1698818932511
 21
138.8163545079543
 31
0
  0
LINE
  8
1
 62
3
 10
-266.4098818932511
 20
130.9425914316199
 30
0
 11
-266.4098818932511
 21
138.8163545079543
 31
0
  0
LINE
  8
1
 62
3
 10
-265.1698818932511
 20
130.9425914316199
 30
0
 11
-265.1698818932511
 21
138.8163545079543
 31
0
  0
LINE
  8
1
 62
3
 10
-262.4098818932511
 20
130.9425914316199
 30
0
 11
-262.4098818932511
 21
138.8163545079543
 31
0
  0
LINE
  8
1
 62
3
 10
-261.1698818932511
 20
130.9425914316199
 30
0
 11
-261.1698818932511
 21
138.8163545079543
 31
0
  0
LINE
  8
1
 62
3
 10
-258.4098818932511
 20
130.9425914316199
 30
0
 11
-258.4098818932511
 21
138.8163545079543
 31
0
  0
LINE
  8
1
 62
3
 10
-257.1698818932511
 20
130.9425914316199
 30
0
 11
-257.1698818932511
 21
138.8163545079543
 31
0
  0
LINE
  8
1
 62
3
 10
-254.4098818932511
 20
130.9425914316199
 30
0
 11
-254.4098818932511
 21
138.8163545079543
 31
0
  0
LINE
  8
1
 62
3
 10
-253.1698818932511
 20
130.9425914316199
 30
0
 11
-253.1698818932511
 21
138.8163545079543
 31
0
  0
LINE
  8
1
 62
3
 10
-250.4098818932511
 20
130.9425914316199
 30
0
 11
-250.4098818932511
 21
138.8163545079543
 31
0
  0
LINE
  8
1
 62
3
 10
-249.1698818932511
 20
130.9425914316199
 30
0
 11
-249.1698818932511
 21
138.8163545079543
 31
0
  0
LINE
  8
1
 62
3
 10
-275.7898921801452
 20
148.6723699231802
 30
0
 11
-243.7898833680831
 21
148.6723604842531
 31
0
  0
LINE
  8
1
 62
3
 10
-280.7898907053131
 20
153.6723711139996
 30
0
 11
-280.7898830840704
 21
185.6723602002402
 31
0
  0
LINE
  8
1
 62
3
 10
-272.7834377334068
 20
146.6723590094207
 30
0
 11
-272.7398818932512
 21
146.6723590094207
 31
0
  0
LINE
  8
2
 62
1
 10
-259.789881893251
 20
147.6723590094207
 30
0
 11
-259.789881893251
 21
194.6723590094207
 31
0
  0
LINE
  8
2
 62
1
 10
-246.789881893251
 20
185.1723590094207
 30
0
 11
-241.789881893251
 21
185.1723590094207
 31
0
  0
LINE
  8
2
 62
1
 10
-244.289881893251
 20
182.6723590094207
 30
0
 11
-244.289881893251
 21
187.6723590094207
 31
0
  0
LINE
  8
2
 62
1
 10
-275.289871893251
 20
182.6723590094207
 30
0
 11
-275.289871893251
 21
187.6723590094207
 31
0
  0
LINE
  8
2
 62
1
 10
-272.789881893251
 20
185.1723590094207
 30
0
 11
-277.789881893251
 21
185.1723590094207
 31
0
  0
LINE
  8
2
 62
1
 10
-272.789881893251
 20
154.1723590094207
 30
0
 11
-277.789881893251
 21
154.1723590094207
 31
0
  0
LINE
  8
2
 62
1
 10
-275.289891893251
 20
156.6723590094207
 30
0
 11
-275.289891893251
 21
151.6723590094207
 31
0
  0
LINE
  8
2
 62
1
 10
-244.289881893251
 20
156.6723590094207
 30
0
 11
-244.289881893251
 21
151.6723590094207
 31
0
  0
LINE
  8
2
 62
1
 10
-246.789881893251
 20
154.1723590094207
 30
0
 11
-241.789881893251
 21
154.1723590094207
 31
0
  0
LINE
  8
1
 62
3
 10
-238.789881893251
 20
153.6723604842529
 30
0
 11
-238.789881893251
 21
185.6723590094207
 31
0
  0
LINE
  8
1
 62
3
 10
-271.789881893251
 20
191.6723590094207
 30
0
 11
-247.789881893251
 21
191.6723590094207
 31
0
  0
LINE
  8
1
 62
3
 10
-272.439881893251
 20
146.9723590094206
 30
0
 11
-272.439881893251
 21
148.6723590094207
 31
0
  0
LINE
  8
1
 62
3
 10
-247.139881893251
 20
148.6723590094207
 30
0
 11
-247.139881893251
 21
146.9723590094206
 31
0
  0
LINE
  8
1
 62
3
 10
-246.8398818932511
 20
146.6723590094207
 30
0
 11
-246.7963275602103
 21
146.6723590094207
 31
0
  0
LINE
  8
1
 62
3
 10
-272.289881893251
 20
145.1223590094208
 30
0
 11
-272.289881893251
 21
148.6723590094207
 31
0
  0
LINE
  8
1
 62
3
 10
-247.289881893251
 20
145.1223590094208
 30
0
 11
-247.289881893251
 21
148.6723590094207
 31
0
  0
LINE
  8
1
 62
3
 10
-272.289881893251
 20
145.1223590094208
 30
0
 11
-271.789881893251
 21
145.1223590094208
 31
0
  0
LINE
  8
1
 62
3
 10
-271.789881893251
 20
145.1223590094208
 30
0
 11
-271.789881893251
 21
148.6723590094207
 31
0
  0
LINE
  8
1
 62
3
 10
-247.789881893251
 20
148.6723590094207
 30
0
 11
-247.789881893251
 21
145.1223590094208
 31
0
  0
LINE
  8
1
 62
3
 10
-247.789881893251
 20
145.1223590094208
 30
0
 11
-247.289881893251
 21
145.1223590094208
 31
0
  0
LINE
  8
1
 62
3
 10
-271.7398818932512
 20
144.1223590094208
 30
0
 11
-271.7398818932512
 21
148.6723590094207
 31
0
  0
LINE
  8
1
 62
3
 10
-247.8398818932511
 20
144.1223590094208
 30
0
 11
-247.8398818932511
 21
148.6723590094207
 31
0
  0
LINE
  8
1
 62
3
 10
-271.7398818932512
 20
144.1223590094208
 30
0
 11
-268.3898818932513
 21
144.1223590094208
 31
0
  0
LINE
  8
1
 62
3
 10
-271.189881893251
 20
148.6723590094207
 30
0
 11
-271.189881893251
 21
146.0223590094207
 31
0
  0
LINE
  8
1
 62
3
 10
-271.189881893251
 20
146.0223590094207
 30
0
 11
-270.189881893251
 21
146.0223590094207
 31
0
  0
LINE
  8
1
 62
3
 10
-270.189881893251
 20
146.0223590094207
 30
0
 11
-270.189881893251
 21
148.6723590094207
 31
0
  0
LINE
  8
1
 62
3
 10
-248.389881893251
 20
148.6723590094207
 30
0
 11
-248.389881893251
 21
146.0223590094207
 31
0
  0
LINE
  8
1
 62
3
 10
-248.389881893251
 20
146.0223590094207
 30
0
 11
-249.389881893251
 21
146.0223590094207
 31
0
  0
LINE
  8
1
 62
3
 10
-249.389881893251
 20
146.0223590094207
 30
0
 11
-249.389881893251
 21
148.6723590094207
 31
0
  0
LINE
  8
1
 62
3
 10
-246.7963275602103
 20
146.6723590094207
 30
0
 11
-247.289881893251
 21
146.6723590094207
 31
0
  0
LINE
  8
1
 62
3
 10
-272.289881893251
 20
146.6723590094207
 30
0
 11
-272.7834377334068
 21
146.6723590094207
 31
0
  0
LINE
  8
1
 62
3
 10
-251.1898818932512
 20
144.1223590094208
 30
0
 11
-247.8398818932511
 21
144.1223590094208
 31
0
  0
LINE
  8
1
 62
3
 10
-248.3505715418591
 20
143.8928455777343
 30
0
 11
-248.3505715418591
 21
144.1223590094208
 31
0
  0
LINE
  8
1
 62
3
 10
-271.189881893251
 20
143.8928455777343
 30
0
 11
-271.189881893251
 21
144.1223590094208
 31
0
  0
LINE
  8
1
 62
3
 10
-271.189881893251
 20
146.1723590094207
 30
0
 11
-270.189881893251
 21
146.1723590094207
 31
0
  0
LINE
  8
1
 62
3
 10
-271.189881893251
 20
146.5723590094207
 30
0
 11
-270.189881893251
 21
146.5723590094207
 31
0
  0
LINE
  8
1
 62
3
 10
-271.189881893251
 20
146.7223590094206
 30
0
 11
-270.189881893251
 21
146.7223590094206
 31
0
  0
LINE
  8
1
 62
3
 10
-249.389881893251
 20
146.1723590094207
 30
0
 11
-248.389881893251
 21
146.1723590094207
 31
0
  0
LINE
  8
1
 62
3
 10
-249.389881893251
 20
146.5723590094207
 30
0
 11
-248.389881893251
 21
146.5723590094207
 31
0
  0
LINE
  8
1
 62
3
 10
-249.389881893251
 20
146.7223590094206
 30
0
 11
-248.389881893251
 21
146.7223590094206
 31
0
  0
LINE
  8
2
 62
1
 10
-286.711361893251
 20
169.6723590094207
 30
0
 11
-233.2903818932511
 21
169.6723590094207
 31
0
  0
LINE
  8
1
 62
3
 10
-270.4098818932511
 20
91.77478096896311
 30
0
 11
-269.1698818932511
 21
91.77478096896311
 31
0
  0
LINE
  8
1
 62
2
 10
-272.4098818932511
 20
113.9158462157255
 30
0
 11
-247.1698818932511
 21
113.9158462157255
 31
0
  0
LINE
  8
1
 62
2
 10
-272.4098818932511
 20
114.9158462157255
 30
0
 11
-247.1698818932511
 21
114.9158462157255
 31
0
  0
LINE
  8
1
 62
3
 10
-249.1698818932511
 20
113.9158462157255
 30
0
 11
-249.1698818932511
 21
91.77478096896311
 31
0
  0
LINE
  8
1
 62
3
 10
-250.4098818932511
 20
113.9158462157255
 30
0
 11
-250.4098818932511
 21
91.77478096896311
 31
0
  0
LINE
  8
1
 62
3
 10
-253.1698818932511
 20
113.9158462157255
 30
0
 11
-253.1698818932511
 21
91.77478096896311
 31
0
  0
LINE
  8
1
 62
3
 10
-254.4098818932511
 20
113.9158462157255
 30
0
 11
-254.4098818932511
 21
91.77478096896311
 31
0
  0
LINE
  8
1
 62
3
 10
-257.1698818932511
 20
113.9158462157255
 30
0
 11
-257.1698818932511
 21
91.77478096896311
 31
0
  0
LINE
  8
1
 62
3
 10
-258.4098818932514
 20
113.9158462157255
 30
0
 11
-258.4098818932511
 21
91.77478096896311
 31
0
  0
LINE
  8
1
 62
3
 10
-261.1698818932511
 20
113.9158462157255
 30
0
 11
-261.1698818932511
 21
91.77478096896311
 31
0
  0
LINE
  8
1
 62
3
 10
-262.4098818932511
 20
113.9158462157255
 30
0
 11
-262.4098818932511
 21
91.77478096896311
 31
0
  0
LINE
  8
1
 62
3
 10
-265.1698818932511
 20
113.9158462157255
 30
0
 11
-265.1698818932511
 21
91.77478096896311
 31
0
  0
LINE
  8
1
 62
3
 10
-266.4098818932511
 20
113.9158462157255
 30
0
 11
-266.4098818932511
 21
91.77478096896311
 31
0
  0
LINE
  8
1
 62
3
 10
-269.1698818932511
 20
113.9158462157255
 30
0
 11
-269.1698818932511
 21
91.77478096896311
 31
0
  0
LINE
  8
1
 62
3
 10
-270.4098818932511
 20
113.9158462157255
 30
0
 11
-270.4098818932511
 21
91.77478096896311
 31
0
  0
LINE
  8
1
 62
3
 10
-270.4098818932511
 20
114.9158462157255
 30
0
 11
-270.4098818932511
 21
130.9425914316199
 31
0
  0
LINE
  8
1
 62
3
 10
-269.1698818932511
 20
114.9158462157255
 30
0
 11
-269.1698818932511
 21
130.9425914316199
 31
0
  0
LINE
  8
1
 62
3
 10
-266.4098818932511
 20
114.9158462157255
 30
0
 11
-266.4098818932511
 21
130.9425914316199
 31
0
  0
LINE
  8
1
 62
3
 10
-265.1698818932511
 20
114.9158462157255
 30
0
 11
-265.1698818932511
 21
130.9425914316199
 31
0
  0
LINE
  8
1
 62
3
 10
-262.4098818932511
 20
114.9158462157255
 30
0
 11
-262.4098818932511
 21
130.9425914316199
 31
0
  0
LINE
  8
1
 62
3
 10
-261.1698818932511
 20
114.9158462157255
 30
0
 11
-261.1698818932511
 21
130.9425914316199
 31
0
  0
LINE
  8
1
 62
3
 10
-258.4098818932511
 20
114.9158462157255
 30
0
 11
-258.4098818932511
 21
130.9425914316199
 31
0
  0
LINE
  8
1
 62
3
 10
-257.1698818932511
 20
114.9158462157255
 30
0
 11
-257.1698818932511
 21
130.9425914316199
 31
0
  0
LINE
  8
1
 62
3
 10
-254.4098818932511
 20
114.9158462157255
 30
0
 11
-254.4098818932511
 21
130.9425914316199
 31
0
  0
LINE
  8
1
 62
3
 10
-253.1698818932511
 20
114.9158462157255
 30
0
 11
-253.1698818932511
 21
130.9425914316199
 31
0
  0
LINE
  8
1
 62
3
 10
-250.4098818932511
 20
114.9158462157255
 30
0
 11
-250.4098818932511
 21
130.9425914316199
 31
0
  0
LINE
  8
1
 62
3
 10
-249.1698818932511
 20
114.9158462157255
 30
0
 11
-249.1698818932511
 21
130.9425914316199
 31
0
  0
LINE
  8
1
 62
3
 10
-250.4098818932511
 20
91.77478096896311
 30
0
 11
-249.1698818932511
 21
91.77478096896311
 31
0
  0
LINE
  8
1
 62
3
 10
-254.4098818932511
 20
91.77478096896311
 30
0
 11
-253.1698818932511
 21
91.77478096896311
 31
0
  0
LINE
  8
1
 62
3
 10
-258.4098818932511
 20
91.77478096896311
 30
0
 11
-257.1698818932511
 21
91.77478096896311
 31
0
  0
LINE
  8
1
 62
3
 10
-262.4098818932511
 20
91.77478096896311
 30
0
 11
-261.1698818932511
 21
91.77478096896311
 31
0
  0
LINE
  8
1
 62
3
 10
-266.4098818932511
 20
91.77478096896311
 30
0
 11
-265.1698818932511
 21
91.77478096896311
 31
0
  0
LINE
  8
1
 62
2
 10
-249.4898818932512
 20
91.77478096896311
 30
0
 11
-249.4898818932512
 21
88.27478096896311
 31
0
  0
LINE
  8
1
 62
2
 10
-253.4898818932512
 20
91.77478096896311
 30
0
 11
-253.4898818932512
 21
88.27478096896311
 31
0
  0
LINE
  8
1
 62
2
 10
-257.4898818932512
 20
91.77478096896311
 30
0
 11
-257.4898818932512
 21
88.27478096896311
 31
0
  0
LINE
  8
1
 62
2
 10
-261.4898818932512
 20
91.77478096896311
 30
0
 11
-261.4898818932512
 21
88.27478096896311
 31
0
  0
LINE
  8
1
 62
2
 10
-265.4898818932512
 20
91.77478096896311
 30
0
 11
-265.4898818932512
 21
88.27478096896311
 31
0
  0
LINE
  8
1
 62
2
 10
-269.4898818932512
 20
91.77478096896311
 30
0
 11
-269.4898818932512
 21
88.27478096896311
 31
0
  0
LINE
  8
1
 62
2
 10
-249.7898818932511
 20
91.77478096896311
 30
0
 11
-249.7898818932511
 21
88.27478096896311
 31
0
  0
LINE
  8
1
 62
2
 10
-250.0898818932512
 20
91.77478096896311
 30
0
 11
-250.0898818932512
 21
88.27478096896311
 31
0
  0
LINE
  8
1
 62
2
 10
-253.7898818932511
 20
91.77478096896311
 30
0
 11
-253.7898818932511
 21
88.27478096896311
 31
0
  0
LINE
  8
1
 62
2
 10
-254.0898818932512
 20
91.77478096896311
 30
0
 11
-254.0898818932512
 21
88.27478096896311
 31
0
  0
LINE
  8
1
 62
2
 10
-257.7898818932511
 20
91.77478096896311
 30
0
 11
-257.7898818932511
 21
88.27478096896311
 31
0
  0
LINE
  8
1
 62
2
 10
-258.0898818932512
 20
91.77478096896311
 30
0
 11
-258.0898818932512
 21
88.27478096896311
 31
0
  0
LINE
  8
1
 62
2
 10
-261.7898818932511
 20
91.77478096896311
 30
0
 11
-261.7898818932511
 21
88.27478096896311
 31
0
  0
LINE
  8
1
 62
2
 10
-262.0898818932512
 20
91.77478096896311
 30
0
 11
-262.0898818932512
 21
88.27478096896311
 31
0
  0
LINE
  8
1
 62
2
 10
-265.7898818932511
 20
91.77478096896311
 30
0
 11
-265.7898818932511
 21
88.27478096896311
 31
0
  0
LINE
  8
1
 62
2
 10
-266.0898818932512
 20
91.77478096896311
 30
0
 11
-266.0898818932512
 21
88.27478096896311
 31
0
  0
LINE
  8
1
 62
2
 10
-269.7898818932511
 20
91.77478096896311
 30
0
 11
-269.7898818932511
 21
88.27478096896311
 31
0
  0
LINE
  8
1
 62
2
 10
-270.0898818932512
 20
91.77478096896311
 30
0
 11
-270.0898818932512
 21
88.27478096896311
 31
0
  0
LINE
  8
1
 62
2
 10
-239.354266073019
 20
110.1926735788306
 30
0
 11
-176.5544865852621
 21
110.1926735788306
 31
0
  0
LINE
  8
1
 62
3
 10
-107.0777100933279
 20
172.1723590094207
 30
0
 11
-107.0777100933279
 21
171.6723590094207
 31
0
  0
LINE
  8
1
 62
3
 10
-107.0777100933279
 20
171.6723590094207
 30
0
 11
-122.0777100933279
 21
171.6723590094207
 31
0
  0
LINE
  8
1
 62
3
 10
-73.32396142808743
 20
118.1721088737074
 30
0
 11
-73.32396142808743
 21
96.03104362694502
 31
0
  0
LINE
  8
1
 62
3
 10
-74.56396142808744
 20
118.1721088737074
 30
0
 11
-74.56396142808744
 21
96.03104362694502
 31
0
  0
LINE
  8
1
 62
3
 10
-74.56396142808744
 20
96.03104362694502
 30
0
 11
-73.32396142808743
 21
96.03104362694502
 31
0
  0
LINE
  8
1
 62
2
 10
-73.64396142808754
 20
96.03104362694502
 30
0
 11
-73.64396142808754
 21
92.53104362694502
 31
0
  0
LINE
  8
1
 62
2
 10
-73.94396142808743
 20
96.03104362694502
 30
0
 11
-73.94396142808743
 21
92.53104362694502
 31
0
  0
LINE
  8
1
 62
2
 10
-74.24396142808753
 20
96.03104362694502
 30
0
 11
-74.24396142808753
 21
92.53104362694502
 31
0
  0
ARC
  8
1
 62
3
 10
-65.47771009332772
 20
189.6723590094207
 30
0
 40
1
 50
0
 51
90
  0
ARC
  8
1
 62
3
 10
-276.1639807274028
 20
145.8341237153032
 30
0
 40
2.851439871812238
 50
27.10454653483215
 51
84.48385698172281
  0
ARC
  8
1
 62
3
 10
-243.4157845662142
 20
145.8341237153032
 30
0
 40
2.851439871812079
 50
95.51614301828289
 51
152.8954534651705
  0
CIRCLE
  8
1
 62
3
 10
-259.789881893251
 20
169.6723590094207
 30
0
 40
12.75
  0
CIRCLE
  8
1
 62
3
 10
-259.789881893251
 20
169.6723590094207
 30
0
 40
15
  0
CIRCLE
  8
1
 62
3
 10
-259.789881893251
 20
169.6723590094207
 30
0
 40
11
  0
CIRCLE
  8
1
 62
3
 10
-259.789881893251
 20
169.6723590094207
 30
0
 40
2.5
  0
CIRCLE
  8
4
 62
3
 10
-275.289881893251
 20
185.1723590094207
 30
0
 40
1.000009999999975
  0
CIRCLE
  8
4
 62
3
 10
-244.289881893251
 20
185.1723590094207
 30
0
 40
1
  0
CIRCLE
  8
4
 62
3
 10
-275.289891893251
 20
154.1723590094207
 30
0
 40
1.000010000000032
  0
CIRCLE
  8
4
 62
3
 10
-244.289881893251
 20
154.1723590094207
 30
0
 40
1
  0
CIRCLE
  8
1
 62
2
 10
-244.289881893251
 20
185.1723590094207
 30
0
 40
1.5
  0
CIRCLE
  8
1
 62
2
 10
-275.289881893251
 20
185.1723590094207
 30
0
 40
1.5
  0
CIRCLE
  8
1
 62
2
 10
-275.289891893251
 20
154.1723590094207
 30
0
 40
1.5
  0
CIRCLE
  8
1
 62
2
 10
-244.289881893251
 20
154.1723590094207
 30
0
 40
1.5
  0
CIRCLE
  8
1
 62
3
 10
-259.789881893251
 20
169.6723590094207
 30
0
 40
4.550000000000011
  0
ARC
  8
1
 62
3
 10
-65.47772159532852
 20
147.6723590094208
 30
0
 40
1
 50
270
 51
0.0001002103415194287
  0
ARC
  8
1
 62
3
 10
-243.789881893251
 20
185.6723590094207
 30
0
 40
5
 50
0
 51
90
  0
ARC
  8
1
 62
3
 10
-275.7898830840706
 20
185.6723590094207
 30
0
 40
5
 50
90
 51
179.9999863542135
  0
ARC
  8
1
 62
3
 10
-275.7898907053131
 20
153.67236992318
 30
0
 40
5.000000000000141
 50
179.9999863542128
 51
269.9999830996688
  0
ARC
  8
1
 62
3
 10
-243.789881893251
 20
153.6723604842529
 30
0
 40
5.000000000000019
 50
269.9999830996688
 51
0
  0
ARC
  8
1
 62
3
 10
-272.7398818932512
 20
146.9723590094206
 30
0
 40
0.2999999999998977
 50
270
 51
0
  0
ARC
  8
1
 62
3
 10
-246.8398818932511
 20
146.9723590094206
 30
0
 40
0.2999999999998977
 50
180
 51
270
  0
ARC
  8
1
 62
3
 10
-272.7834377334068
 20
147.6723590094207
 30
0
 40
0.9999999999998368
 50
212.6206895531029
 51
270
  0
ARC
  8
1
 62
3
 10
-246.7963275602103
 20
147.6723590094207
 30
0
 40
1
 50
270
 51
327.379310446891
  0
LINE
  8
1
 62
2
 10
-272.4292127511252
 20
81.33556855264622
 30
0
 11
-261.2617529010832
 21
81.33556855264622
 31
0
  0
SOLID
  8
1
 62
2
 10
-264.4617529010832
 20
80.91428056036656
 30
0
 11
-264.4617529010832
 21
81.7568565449259
 31
0
 12
-261.2617529010832
 22
81.33556855264622
 32
0
 13
-261.2617529010832
 23
81.33556855264622
 33
0
  0
LINE
  8
1
 62
2
 10
-27.23099453094387
 20
211.842448472752
 30
0
 11
-44.51364728819215
 21
211.842448472752
 31
0
  0
LINE
  8
1
 62
2
 10
-44.51364728819215
 20
211.842448472752
 30
0
 11
-67.76881009332782
 21
191.8535671529528
 31
0
  0
SOLID
  8
1
 62
2
 10
-65.61668576036337
 20
194.25894538265
 30
0
 11
-65.06745992221168
 21
193.6199733422111
 31
0
 12
-67.76881009332782
 22
191.8535671529528
 32
0
 13
-67.76881009332782
 23
191.8535671529528
 33
0
  0
LINE
  8
1
 62
2
 10
-197.9024411350775
 20
122.2102048089407
 30
0
 11
-235.0591683923256
 21
122.2102048089407
 31
0
  0
LINE
  8
1
 62
2
 10
-235.0591683923256
 20
122.2102048089407
 30
0
 11
-243.295481998191
 21
153.0493412674841
 31
0
  0
SOLID
  8
1
 62
2
 10
-242.0627656019619
 20
150.0664075003838
 30
0
 11
-242.8768094637883
 21
149.848998023178
 31
0
 12
-243.295481998191
 22
153.0493412674841
 32
0
 13
-243.295481998191
 23
153.0493412674841
 33
0
  0
LINE
  8
1
 62
2
 10
-176.4236999044601
 20
102.4848176003526
 30
0
 11
-237.9227309138378
 21
102.4848176003526
 31
0
  0
LINE
  8
1
 62
2
 10
-237.9227309138378
 20
102.4848176003526
 30
0
 11
-249.1898818932512
 21
142.6928455777343
 31
0
  0
SOLID
  8
1
 62
2
 10
-247.9207716196079
 20
139.7252130725592
 30
0
 11
-248.732095314735
 21
139.4978627888966
 31
0
 12
-249.1898818932512
 22
142.6928455777343
 32
0
 13
-249.1898818932512
 23
142.6928455777343
 33
0
  0
TEXT
  8
1
 62
2
 10
-64.55142986671206
 20
39.57776166713882
 30
0
 40
4
  1
KH42HM2-911
 41
0.9
  0
TEXT
  8
1
 62
2
 10
-24.18997097980464
 20
39.4925935605401
 30
0
 40
4
  1
,912,913ü@ü@
 41
0.9
 72
2
 11
19.01002902019536
 21
39.4925935605401
 31
0
  0
TEXT
  8
1
 62
2
 10
-270.8403346196352
 20
83.86306061989382
 30
0
 40
2
  1
1 3 5 7 9 11
 41
0.855
  0
TEXT
  8
1
 62
2
 10
-284.6827548306302
 20
82.47256406750282
 30
0
 40
3
  1
âsâôöÈìå
 41
0.9
  0
TEXT
  8
1
 62
2
 10
-283.7801207453152
 20
79.67929951449032
 30
0
 40
2
  1
PIN NO.
 41
0.63
  0
TEXT
  8
1
 62
2
 10
-344.872487846833
 20
37.37225410145229
 30
0
 40
2.5
  1
COLOR OF LEAD
 41
0.63
 72
1
 73
2
 11
-334.634987846833
 21
38.62225410145229
 31
0
  0
TEXT
  8
1
 62
2
 10
-345.804987846833
 20
56.12225410145216
 30
0
 40
3
  1
PHR-11
 41
0.6300000000000001
 72
1
 73
2
 11
-340.134987846833
 21
57.62225410145216
 31
0
  0
TEXT
  8
1
 62
2
 10
-348.234987846833
 20
49.12225410145216
 30
0
 40
3
  1
ùÒÄÑæè
 41
0.9
 72
1
 73
2
 11
-340.134987846833
 21
50.62225410145216
 31
0
  0
TEXT
  8
1
 62
2
 10
-266.914987846833
 20
37.62225410145229
 30
0
 40
2
  1
ORANGE
 41
0.63
 72
1
 73
2
 11
-263.134987846833
 21
38.62225410145229
 31
0
  0
TEXT
  8
1
 62
2
 10
-276.734987846833
 20
37.62225410145229
 30
0
 40
2
  1
BLUE
 41
0.9
 72
1
 73
2
 11
-273.134987846833
 21
38.62225410145229
 31
0
  0
TEXT
  8
1
 62
2
 10
-286.914987846833
 20
37.62225410145229
 30
0
 40
2
  1
YELLOW
 41
0.63
 72
1
 73
2
 11
-283.134987846833
 21
38.62225410145229
 31
0
  0
TEXT
  8
1
 62
2
 10
-296.734987846833
 20
37.62225410145229
 30
0
 40
2
  1
BROWN
 41
0.7200000000000001
 72
1
 73
2
 11
-293.134987846833
 21
38.62225410145229
 31
0
  0
TEXT
  8
1
 62
2
 10
-305.834987846833
 20
37.62225410145229
 30
0
 40
2
  1
RED
 41
0.9
 72
1
 73
2
 11
-303.134987846833
 21
38.62225410145229
 31
0
  0
TEXT
  8
1
 62
2
 10
-316.734987846833
 20
37.62225410145229
 30
0
 40
2
  1
BLACK
 41
0.7200000000000001
 72
1
 73
2
 11
-313.134987846833
 21
38.62225410145229
 31
0
  0
TEXT
  8
1
 62
2
 10
-332.6783257277931
 20
49.37225410145216
 30
0
 40
2.5
  1
(PHASE)
 41
0.54
 73
2
 11
-332.6783257277931
 21
50.62225410145216
 31
0
  0
TEXT
  8
1
 62
2
 10
-332.6783257277931
 20
56.37225410145216
 30
0
 40
2.5
  1
(PIN NO.)
 41
0.54
 73
2
 11
-332.6783257277931
 21
57.62225410145216
 31
0
  0
TEXT
  8
1
 62
2
 10
-266.734987846833
 20
41.62225410145227
 30
0
 40
4
  1
×%%d
 41
0.9
 72
1
 73
2
 11
-263.134987846833
 21
43.62225410145227
 31
0
  0
TEXT
  8
1
 62
2
 10
-276.734987846833
 20
41.62225410145227
 30
0
 40
4
  1
É┬
 41
0.9
 72
1
 73
2
 11
-273.134987846833
 21
43.62225410145227
 31
0
  0
TEXT
  8
1
 62
2
 10
-286.734987846833
 20
41.62225410145227
 30
0
 40
4
  1
ë®
 41
0.9
 72
1
 73
2
 11
-283.134987846833
 21
43.62225410145227
 31
0
  0
TEXT
  8
1
 62
2
 10
-296.734987846833
 20
41.62225410145227
 30
0
 40
4
  1
Æâ
 41
0.9
 72
1
 73
2
 11
-293.134987846833
 21
43.62225410145227
 31
0
  0
TEXT
  8
1
 62
2
 10
-306.734987846833
 20
41.62225410145227
 30
0
 40
4
  1
ÉÈ
 41
0.9
 72
1
 73
2
 11
-303.134987846833
 21
43.62225410145227
 31
0
  0
TEXT
  8
1
 62
2
 10
-316.734987846833
 20
41.62225410145227
 30
0
 40
4
  1
ìò
 41
0.9
 72
1
 73
2
 11
-313.134987846833
 21
43.62225410145227
 31
0
  0
TEXT
  8
1
 62
2
 10
-345.434987846833
 20
42.12225410145227
 30
0
 40
3
  1
âèü[âhÉ³ÉF
 41
0.72
 72
1
 73
2
 11
-334.634987846833
 21
43.62225410145227
 31
0
  0
TEXT
  8
1
 62
2
 10
-314.934987846833
 20
55.62225410145216
 30
0
 40
4
  1
1
 41
0.9
 72
1
 73
2
 11
-313.134987846833
 21
57.62225410145216
 31
0
  0
TEXT
  8
1
 62
2
 10
-304.934987846833
 20
55.62225410145216
 30
0
 40
4
  1
3
 41
0.9
 72
1
 73
2
 11
-303.134987846833
 21
57.62225410145216
 31
0
  0
TEXT
  8
1
 62
2
 10
-294.934987846833
 20
55.62225410145216
 30
0
 40
4
  1
5
 41
0.9
 72
1
 73
2
 11
-293.134987846833
 21
57.62225410145216
 31
0
  0
TEXT
  8
1
 62
2
 10
-284.934987846833
 20
55.62225410145216
 30
0
 40
4
  1
7
 41
0.9
 72
1
 73
2
 11
-283.134987846833
 21
57.62225410145216
 31
0
  0
TEXT
  8
1
 62
2
 10
-274.934987846833
 20
55.62225410145216
 30
0
 40
4
  1
9
 41
0.9
 72
1
 73
2
 11
-273.134987846833
 21
57.62225410145216
 31
0
  0
TEXT
  8
1
 62
2
 10
-266.734987846833
 20
55.62225410145216
 30
0
 40
4
  1
11
 41
0.9
 72
1
 73
2
 11
-263.134987846833
 21
57.62225410145216
 31
0
  0
TEXT
  8
1
 62
2
 10
-314.934987846833
 20
48.62225410145216
 30
0
 40
4
  1
A
 41
0.9
 72
1
 73
2
 11
-313.134987846833
 21
50.62225410145216
 31
0
  0
TEXT
  8
1
 62
2
 10
-294.934987846833
 20
48.62225410145216
 30
0
 40
4
  1
A
 41
0.9
 72
1
 73
2
 11
-293.134987846833
 21
50.62225410145216
 31
0
  0
TEXT
  8
1
 62
2
 10
-284.934987846833
 20
48.62225410145216
 30
0
 40
4
  1
B
 41
0.9
 72
1
 73
2
 11
-283.134987846833
 21
50.62225410145216
 31
0
  0
TEXT
  8
1
 62
2
 10
-264.934987846833
 20
48.62225410145216
 30
0
 40
4
  1
B
 41
0.9
 72
1
 73
2
 11
-263.134987846833
 21
50.62225410145216
 31
0
  0
TEXT
  8
1
 62
2
 10
-307.454987846833
 20
48.62225410145216
 30
0
 40
4
  1
Acom
 41
0.54
 72
1
 73
2
 11
-303.134987846833
 21
50.62225410145216
 31
0
  0
TEXT
  8
1
 62
2
 10
-277.454987846833
 20
48.62225410145216
 30
0
 40
4
  1
Bcom
 41
0.54
 72
1
 73
2
 11
-273.134987846833
 21
50.62225410145216
 31
0
  0
TEXT
  8
1
 62
2
 10
-76.35400458697022
 20
193.0231140947201
 30
0
 40
5
  1
(   )
 50
90
 41
0.9900000000000001
  0
TEXT
  8
1
 62
2
 10
-79.29978420408268
 20
197.2404354514603
 30
0
 40
2.5
  1
DIRECTION
 50
90
 41
0.675
  0
TEXT
  8
1
 62
2
 10
-75.54978420408268
 20
197.2404354514603
 30
0
 40
2.5
  1
OF LETTERS
 50
90
 41
0.675
  0
TEXT
  8
1
 62
2
 10
-69.82291267030881
 20
191.7214134597887
 30
0
 40
4
  1
òÂÄÜé╠î³é½
 50
90
 41
0.9
 72
1
 73
2
 11
-71.82291267030881
 21
209.7214134597887
 31
0
  0
TEXT
  8
1
 62
2
 10
-44.38295170015176
 20
212.9572333021089
 30
0
 40
4
  1
âlü|âÇâvâîü|âg
 41
0.54
  0
TEXT
  8
1
 62
2
 10
-43.68534749953813
 20
207.8199331707873
 30
0
 40
2.5
  1
(NAME PLATE)
 41
0.54
  0
TEXT
  8
1
 62
2
 10
-230.5369852633047
 20
124.7360477968126
 30
0
 40
3.5
  1
4-M3ü~0.5
 41
0.9
  0
TEXT
  8
1
 62
2
 10
-247.7740343174672
 20
117.9680759440432
 30
0
 40
3.499999999999999
  1
É[é(écédéoéségüjü@éRüDéTéléhémüD
 50
0.0009745374036200501
 41
0.5400000000000003
 72
1
 73
2
 11
-216.5890640875293
 21
119.7186063659117
 31
0
  0
TEXT
  8
1
 62
2
 10
-213.6546169167029
 20
113.5227515946338
 30
0
 40
2.4
  1
PHR-11
 41
0.9
  0
TEXT
  8
1
 62
2
 10
-236.8546169167029
 20
113.5227515946338
 30
0
 40
2.4
  1
ânâEâWâôâO
 41
1.215000000000001
  0
TEXT
  8
1
 62
6
 10
-236.054616916703
 20
111.1227515946339
 30
0
 40
1.6
  1
HOUSING
 41
0.72
  0
TEXT
  8
1
 62
6
 10
-213.5745618896118
 20
111.1227515946339
 30
0
 40
1.6
  1
(JST)
 41
0.9
  0
TEXT
  8
1
 62
2
 10
-236.323999711809
 20
106.5392047052166
 30
0
 40
2.4
  1
âRâôâ^âNâg
 41
1.215000000000001
  0
TEXT
  8
1
 62
2
 10
-215.0057707410711
 20
106.8007780668206
 30
0
 40
2.4
  1
SPH-002T-P0.5S
 41
0.9
  0
TEXT
  8
1
 62
6
 10
-212.3974817623927
 20
104.3218441929259
 30
0
 40
1.6
  1
(JST)
 41
0.9
  0
TEXT
  8
1
 62
6
 10
-235.5392796269961
 20
103.9234710891756
 30
0
 40
1.6
  1
CONTACT
 41
0.72
  0
DIMENSION
  8
1
  6
CONTINUOUS
 62
2
  2
*D0
  3
DMST_1
 10
-63.47771665582768
 20
211.390294514336
 30
0
 11
-56.0384912531375
 21
214.990294514336
 31
0
 12
0
 22
0
 32
0
 70
0
 13
-48.47771684332663
 23
171.6723590094207
 33
0
 14
-63.47771665582768
 24
172.1723590094207
 34
0
 53
0
  0
DIMENSION
  8
1
  6
CONTINUOUS
 62
2
  2
*D1
  3
DMST_2
 10
-64.47771009332772
 20
226.763529100472
 30
0
 11
-56.4906452115532
 21
230.363529100472
 31
0
 12
0
 22
0
 32
0
 70
0
  1
(<>
 13
-48.47771684332663
 23
171.6723590094207
 33
0
 14
-64.47771009332772
 24
189.6723590094207
 34
0
 53
0
  0
DIMENSION
  8
0
  6
CONTINUOUS
 62
2
  2
*D2
  3
DMST_3
 10
-149.5597079055654
 20
158.6723590094208
 30
0
 11
-153.5597079055654
 21
169.6320712120739
 31
0
 12
0
 22
0
 32
0
 70
0
  1
%%c<>
 13
-100.0777100933279
 23
180.6723590094207
 33
0
 14
-100.0778100933279
 24
158.6723590094208
 34
0
 50
90
 53
0
  0
DIMENSION
  8
0
  6
CONTINUOUS
 62
2
  2
*D3
  3
DMST_3
 10
-100.0777100933279
 20
219.981219724236
 30
0
 11
-105.323272720455
 21
223.181219724236
 31
0
 12
0
 22
0
 32
0
 70
0
 13
-98.07771009332792
 23
189.9795590094209
 33
0
 14
-100.0777100933279
 24
180.6723590094207
 34
0
 53
0
  0
DIMENSION
  8
0
  6
CONTINUOUS
 62
2
  2
*D4
  3
DMST_4
 10
-98.07771009332792
 20
226.763529100472
 30
0
 11
-82.4141388273901
 21
229.963529100472
 31
0
 12
0
 22
0
 32
0
 70
0
  1
34
 13
-64.47771009332772
 23
189.6723590094207
 33
0
 14
-98.07771009332792
 24
189.9795590094209
 34
0
 53
0
  0
DIMENSION
  8
1
  6
CONTINUOUS
 62
2
  2
*D5
  3
DMST_5
 10
-122.0777100933279
 20
226.763529100472
 30
0
 11
-110.447684249167
 21
230.363529100472
 31
0
 12
0
 22
0
 32
0
 70
0
 13
-98.07771009332792
 23
189.9795590094209
 33
0
 14
-122.0777100933279
 24
171.6723590094207
 34
0
 53
0
  0
DIMENSION
  8
1
  6
CONTINUOUS
 62
2
  2
*D6
  3
DMST_6
 10
-223.7898818932509
 20
154.1723590094209
 30
0
 11
-227.3898818932509
 21
168.8910964705136
 31
0
 12
0
 22
0
 32
0
 70
0
 13
-241.789881893251
 23
185.1723590094207
 33
0
 14
-241.789881893251
 24
154.1723590094207
 34
0
 50
90
 53
0
  0
DIMENSION
  8
0
  6
CONTINUOUS
 62
2
  2
*D7
  3
DMST_7
 10
-275.289871893251
 20
205.6723590094207
 30
0
 11
-259.789881893251
 21
208.8723590094207
 31
0
 12
0
 22
0
 32
0
 70
0
 13
-244.289881893251
 23
187.6723590094207
 33
0
 14
-275.289871893251
 24
187.6723590094207
 34
0
 53
0
  0
DIMENSION
  8
0
  6
CONTINUOUS
 62
2
  2
*D8
  3
DMST_8
 10
-280.7898830840704
 20
215.6723590094207
 30
0
 11
-259.7898824886608
 21
218.8723590094207
 31
0
 12
0
 22
0
 32
0
 70
0
  1
(<>
 13
-238.789881893251
 23
185.6723590094207
 33
0
 14
-280.7898830840704
 24
185.6723602002402
 34
0
 53
0
  0
DIMENSION
  8
1
  6
CONTINUOUS
 62
2
  2
*D12
  3
DMST_9
 10
-136.444509400139
 20
167.1723590094207
 30
0
 11
-141.244509400139
 21
169.480253316434
 31
0
 12
0
 22
0
 32
0
 70
0
  1
âË<>
 13
-107.0777100933279
 23
172.1723590094207
 33
0
 14
-122.0777100933279
 24
167.1723590094207
 34
0
 50
90
 53
0
  0
DIMENSION
  8
1
  6
CONTINUOUS
 62
2
  2
*D13
  3
DMST_1
 10
-107.0777100933279
 20
211.390294514336
 30
0
 11
-114.517069874909
 21
214.990294514336
 31
0
 12
0
 22
0
 32
0
 70
0
 13
-122.0777100933279
 23
171.6723590094207
 33
0
 14
-107.0777100933279
 24
172.1723590094207
 34
0
 53
0
  0
DIMENSION
  8
1
  6
CONTINUOUS
 62
2
  2
*D14
  3
DMST_10
 10
-130.1189372560326
 20
167.1723955603604
 30
0
 11
-133.7190095313618
 21
151.2718313662114
 31
0
 12
0
 22
0
 32
0
 70
1
 13
-122.0777100933279
 23
171.6723590094207
 33
0
 14
-122.0777305478734
 24
167.1723590094207
 34
0
 53
0
  0
DIMENSION
  8
1
  6
CONTINUOUS
 62
2
  2
*D15
  3
DMST_9
 10
-29.3553352519861
 20
172.1723590094207
 30
0
 11
-34.1553352519861
 21
184.060995324769
 31
0
 12
0
 22
0
 32
0
 70
0
  1
âË<>
 13
-48.47771853082663
 23
167.1723590094207
 33
0
 14
-63.47771665582768
 24
172.1723590094207
 34
0
 50
90
 53
0
  0
DIMENSION
  8
1
  6
CONTINUOUS
 62
2
  2
*D16
  3
DMST_10
 10
-40.3939664850514
 20
171.6723590094207
 30
0
 11
-43.9939664850514
 21
183.551520037089
 31
0
 12
0
 22
0
 32
0
 70
0
 13
-48.47771853082663
 23
167.1723590094207
 33
0
 14
-48.47771684332663
 24
171.6723590094207
 34
0
 50
90
 53
0
  0
DIMENSION
  8
1
  6
CONTINUOUS
 62
2
  2
*D17
  3
DMST_2
 10
-213.7898818932509
 20
148.6723604842531
 30
0
 11
-217.3898818932509
 21
169.1471368841625
 31
0
 12
0
 22
0
 32
0
 70
0
  1
(<>
 13
-243.789881893251
 23
190.6723590094207
 33
0
 14
-243.7898833680831
 24
148.6723604842531
 34
0
 50
90
 53
0
  0
DIMENSION
  8
1
  6
CONTINUOUS
 62
2
  2
*D18
  3
DMST_2
 10
-213.7898818932509
 20
144.1223590094209
 30
0
 11
-217.3898818932509
 21
135.8618831097886
 31
0
 12
0
 22
0
 32
0
 70
0
  1
4.6
 13
-243.7898833680831
 23
148.6723604842531
 33
0
 14
-247.8398818932511
 24
144.1223590094208
 34
0
 50
90
 53
0
  0
INSERT
  8
1
  2
*D9
 10
0
 20
0
 30
0
  0
INSERT
  8
1
  2
*D10
 10
0
 20
0
 30
0
  0
INSERT
  8
1
  2
*D11
 10
0
 20
0
 30
0
  0
ENDSEC
  0
EOF
