  0
SECTION
  2
HEADER
  9
$ACADVER
  1
AC1014
  9
$ACADMAINTVER
 70
             0
  9
$DWGCODEPAGE
  3
ANSI_1252
  9
$INSBASE
 10
0.0
 20
0.0
 30
0.0
  9
$EXTMIN
 10
44.8818951757772
 20
229.53315691868821
 30
0.0
  9
$EXTMAX
 10
243.23733797214351
 20
325.10714817880569
 30
0.0
  9
$LIMMIN
 10
0.0
 20
0.0
  9
$LIMMAX
 10
0.0
 20
0.0
  9
$ORTHOMODE
 70
             0
  9
$REGENMODE
 70
             1
  9
$FILLMODE
 70
             1
  9
$QTEXTMODE
 70
             0
  9
$MIRRTEXT
 70
             1
  9
$DRAGMODE
 70
             2
  9
$LTSCALE
 40
1.0
  9
$OSMODE
 70
             0
  9
$ATTMODE
 70
             1
  9
$TEXTSIZE
 40
0.2
  9
$TRACEWID
 40
0.05
  9
$TEXTSTYLE
  7
STANDARD
  9
$CLAYER
  8
0
  9
$CELTYPE
  6
CONTINUOUS
  9
$CECOLOR
 62
           256
  9
$CELTSCALE
 40
1.0
  9
$DELOBJ
 70
             1
  9
$DISPSILH
 70
             0
  9
$DIMSCALE
 40
1.0
  9
$DIMASZ
 40
0.18
  9
$DIMEXO
 40
0.0625
  9
$DIMDLI
 40
0.38
  9
$DIMRND
 40
0.0
  9
$DIMDLE
 40
0.0
  9
$DIMEXE
 40
0.18
  9
$DIMTP
 40
0.0
  9
$DIMTM
 40
0.0
  9
$DIMTXT
 40
0.18
  9
$DIMCEN
 40
0.09
  9
$DIMTSZ
 40
0.0
  9
$DIMTOL
 70
             0
  9
$DIMLIM
 70
             0
  9
$DIMTIH
 70
             1
  9
$DIMTOH
 70
             1
  9
$DIMSE1
 70
             0
  9
$DIMSE2
 70
             0
  9
$DIMTAD
 70
             0
  9
$DIMZIN
 70
             0
  9
$DIMBLK
  1

  9
$DIMASO
 70
             1
  9
$DIMSHO
 70
             1
  9
$DIMPOST
  1

  9
$DIMAPOST
  1

  9
$DIMALT
 70
             0
  9
$DIMALTD
 70
             2
  9
$DIMALTF
 40
25.4
  9
$DIMLFAC
 40
1.0
  9
$DIMTOFL
 70
             0
  9
$DIMTVP
 40
0.0
  9
$DIMTIX
 70
             0
  9
$DIMSOXD
 70
             0
  9
$DIMSAH
 70
             0
  9
$DIMBLK1
  1

  9
$DIMBLK2
  1

  9
$DIMSTYLE
  2
STANDARD
  9
$DIMCLRD
 70
             0
  9
$DIMCLRE
 70
             0
  9
$DIMCLRT
 70
             0
  9
$DIMTFAC
 40
1.0
  9
$DIMGAP
 40
0.09
  9
$DIMJUST
 70
             0
  9
$DIMSD1
 70
             0
  9
$DIMSD2
 70
             0
  9
$DIMTOLJ
 70
             1
  9
$DIMTZIN
 70
             0
  9
$DIMALTZ
 70
             0
  9
$DIMALTTZ
 70
             0
  9
$DIMFIT
 70
             3
  9
$DIMUPT
 70
             0
  9
$DIMUNIT
 70
             2
  9
$DIMDEC
 70
             4
  9
$DIMTDEC
 70
             4
  9
$DIMALTU
 70
             2
  9
$DIMALTTD
 70
             2
  9
$DIMTXSTY
  7
STANDARD
  9
$DIMAUNIT
 70
             0
  9
$LUNITS
 70
             2
  9
$LUPREC
 70
             4
  9
$SKETCHINC
 40
0.1
  9
$FILLETRAD
 40
0.0
  9
$AUNITS
 70
             0
  9
$AUPREC
 70
             0
  9
$MENU
  1
acad
  9
$ELEVATION
 40
0.0
  9
$PELEVATION
 40
0.0
  9
$THICKNESS
 40
0.0
  9
$LIMCHECK
 70
             0
  9
$BLIPMODE
 70
             1
  9
$CHAMFERA
 40
0.0
  9
$CHAMFERB
 40
0.0
  9
$CHAMFERC
 40
0.0
  9
$CHAMFERD
 40
0.0
  9
$SKPOLY
 70
             0
  9
$TDCREATE
 40
0.000000000
  9
$TDUPDATE
 40
0.000000000
  9
$TDINDWG
 40
0.0000000000
  9
$TDUSRTIMER
 40
0.0000000000
  9
$USRTIMER
 70
             1
  9
$ANGBASE
 50
0.0
  9
$ANGDIR
 70
             0
  9
$PDMODE
 70
             0
  9
$PDSIZE
 40
0.0
  9
$PLINEWID
 40
0.0
  9
$COORDS
 70
             0
  9
$SPLFRAME
 70
             0
  9
$SPLINETYPE
 70
             6
  9
$SPLINESEGS
 70
             8
  9
$ATTDIA
 70
             0
  9
$ATTREQ
 70
             1
  9
$HANDLING
 70
             1
  9
$HANDSEED
  5
172
  9
$SURFTAB1
 70
             6
  9
$SURFTAB2
 70
             6
  9
$SURFTYPE
 70
             6
  9
$SURFU
 70
             6
  9
$SURFV
 70
             6
  9
$UCSNAME
  2

  9
$UCSORG
 10
0.0
 20
0.0
 30
0.0
  9
$UCSXDIR
 10
1.0
 20
0.0
 30
0.0
  9
$UCSYDIR
 10
0.0
 20
1.0
 30
0.0
  9
$PUCSNAME
  2

  9
$PUCSORG
 10
0.0
 20
0.0
 30
0.0
  9
$PUCSXDIR
 10
1.0
 20
0.0
 30
0.0
  9
$PUCSYDIR
 10
0.0
 20
1.0
 30
0.0
  9
$USERI1
 70
             0
  9
$USERI2
 70
             0
  9
$USERI3
 70
             0
  9
$USERI4
 70
             0
  9
$USERI5
 70
             0
  9
$USERR1
 40
12.01
  9
$USERR2
 40
0.0
  9
$USERR3
 40
0.0
  9
$USERR4
 40
0.0
  9
$USERR5
 40
0.0
  9
$WORLDVIEW
 70
             1
  9
$SHADEDGE
 70
             3
  9
$SHADEDIF
 70
            70
  9
$TILEMODE
 70
             1
  9
$MAXACTVP
 70
            16
  9
$PINSBASE
 10
0.0
 20
0.0
 30
0.0
  9
$PLIMCHECK
 70
             0
  9
$PEXTMIN
 10
1.00000000000000E+20
 20
1.00000000000000E+20
 30
1.00000000000000E+20
  9
$PEXTMAX
 10
-1.00000000000000E+20
 20
-1.00000000000000E+20
 30
-1.00000000000000E+20
  9
$PLIMMIN
 10
0.0
 20
0.0
  9
$PLIMMAX
 10
12.0
 20
9.0
  9
$UNITMODE
 70
             0
  9
$VISRETAIN
 70
             0
  9
$PLINEGEN
 70
             1
  9
$PSLTSCALE
 70
             0
  9
$TREEDEPTH
 70
          3020
  9
$PICKSTYLE
 70
             1
  9
$CMLSTYLE
  2
STANDARD
  9
$CMLJUST
 70
             0
  9
$CMLSCALE
 40
1.0
  9
$PROXYGRAPHICS
 70
             0
  9
$MEASUREMENT
 70
             1
  0
ENDSEC
  0
SECTION
  2
CLASSES
  0
CLASS
  1
LWPOLYLINE
  2
AcDbPolyline
  3
"AutoCAD"
 90
        0
280
             0
281
             1
  0
CLASS
  1
IMAGE
  2
AcDbRasterImage
  3
ISM
 90
      127
280
             0
281
             1
  0
CLASS
  1
OLE2FRAME
  2
AcDbOle2Frame
  3
""
 90
        0
280
             0
281
             1
  0
CLASS
  1
HATCH
  2
AcDbHatch
  3
"ACAD_SEDONA"
 90
        0
280
             0
281
             1
  0
CLASS
  1
DICTIONARYVAR
  2
AcDbDictionaryVar
  3
"AutoCAD"
 90
        0
280
             0
281
             0
  0
CLASS
  1
RASTERVARIABLES
  2
AcDbRasterVariables
  3
ISM
 90
        0
280
             0
281
             0
  0
CLASS
  1
IMAGEDEF
  2
AcDbRasterImageDef
  3
ISM
 90
        0
280
             0
281
             0
  0
CLASS
  1
IMAGEDEF_REACTOR
  2
AcDbRasterImageDefReactor
  3
ISM
 90
        1
280
             0
281
             0
  0
CLASS
  1
IDBUFFER
  2
AcDbIdBuffer
  3
"Acad"
 90
        0
280
             0
281
             0
  0
CLASS
  1
SPATIAL_FILTER
  2
AcDbSpatialFilter
  3
"Acad"
 90
        0
280
             0
281
             0
  0
CLASS
  1
XRECORD
  2
AcDbXrecord
  3
"<Built In>"
 90
        0
280
             0
281
             0
  0
CLASS
  1
SORTENTSTABLE
  2
AcDbSortentsTable
  3
"AutoCAD"
 90
        0
280
             0
281
             0
  0
CLASS
  1
LAYER_INDEX
  2
AcDbLayerIndex
  3
"Acad"
 90
        0
280
             0
281
             0
  0
CLASS
  1
SPATIAL_INDEX
  2
AcDbSpatialIndex
  3
"Acad"
 90
        0
280
             0
281
             0
  0
CLASS
  1
OBJECT_PTR
  2
CAseDLPNTableRecord
  3
"ASE-LPNTableRecord"
 90
        1
280
             0
281
             0
  0
CLASS
  1
LAYOUT
  2
AcDbLayout
  3
"AutoCAD 2000"
 90
        0
280
             0
281
             0
  0
CLASS
  1
PLOTSETTINGS
  2
AcDbPlotSettings
  3
"AutoCAD 2000"
 90
        0
280
             0
281
             0
  0
CLASS
  1
ACDBDICTIONARYWDFLT
  2
AcDbDictionaryWithDefault
  3
"AutoCAD 2000"
 90
        0
280
             0
281
             0
  0
CLASS
  1
ACDBPLACEHOLDER
  2
AcDbPlaceHolder
  3
"AutoCAD 2000"
 90
        0
280
             0
281
             0
  0
ENDSEC
  0
SECTION
  2
TABLES
  0
TABLE
  2
VPORT
  5
7
100
AcDbSymbolTable
 70
             1
  0
VPORT
  5
15
100
AcDbSymbolTableRecord
100
AcDbViewportTableRecord
  2
*ACTIVE
 70
             0
 10
0.0
 20
0.0
 11
1.0
 21
1.0
 12
144.05961657396034
 22
277.32015254874693
 13
0.0
 23
0.0
 14
1.0
 24
1.0
 15
0.0
 25
0.0
 16
0.0
 26
0.0
 36
1.0
 17
0.0
 27
0.0
 37
0.0
 40
136.14145154602974
 41
1.60267857142857
 42
50.0
 43
0.0
 44
0.0
 50
0.0
 51
0.0
 71
             0
 72
           100
 73
             1
 74
             1
 75
             0
 76
             0
 77
             0
 78
             0
  0
ENDTAB
  0
TABLE
  2
LTYPE
  5
4
100
AcDbSymbolTable
 70
            10
  0
LTYPE
  5
11
100
AcDbSymbolTableRecord
100
AcDbLinetypeTableRecord
  2
BYBLOCK
 70
            64
  3

 72
            65
 73
             0
 40
0.0
  0
LTYPE
  5
12
100
AcDbSymbolTableRecord
100
AcDbLinetypeTableRecord
  2
BYLAYER
 70
            64
  3

 72
            65
 73
             0
 40
0.0
  0
LTYPE
  5
13
100
AcDbSymbolTableRecord
100
AcDbLinetypeTableRecord
  2
CONTINUOUS
 70
            64
  3
Solid line
 72
            65
 73
             0
 40
0.0
  0
LTYPE
  5
1D
100
AcDbSymbolTableRecord
100
AcDbLinetypeTableRecord
  2
DASHED
 70
            64
  3
Dashed
 72
            65
 73
             2
 40
15.0
 49
7.0
 74
             0
 49
-8.0
 74
             0
  0
LTYPE
  5
1E
100
AcDbSymbolTableRecord
100
AcDbLinetypeTableRecord
  2
DOTTED
 70
            64
  3
Dotted
 72
            65
 73
             2
 40
1.0
 49
0.0
 74
             0
 49
-1.0
 74
             0
  0
LTYPE
  5
1F
100
AcDbSymbolTableRecord
100
AcDbLinetypeTableRecord
  2
DOT_CENTER
 70
            64
  3
Dot_Center
 72
            65
 73
             4
 40
14.0
 49
12.0
 74
             0
 49
-1.0
 74
             0
 49
0.0
 74
             0
 49
-1.0
 74
             0
  0
LTYPE
  5
20
100
AcDbSymbolTableRecord
100
AcDbLinetypeTableRecord
  2
LONG_DASHED
 70
            64
  3
Long_Dashed
 72
            65
 73
             2
 40
15.0
 49
10.0
 74
             0
 49
-5.0
 74
             0
  0
LTYPE
  5
21
100
AcDbSymbolTableRecord
100
AcDbLinetypeTableRecord
  2
DASH_CENTER
 70
            64
  3
Dash_Center
 72
            65
 73
             4
 40
14.0
 49
11.0
 74
             0
 49
-1.0
 74
             0
 49
1.0
 74
             0
 49
-1.0
 74
             0
  0
LTYPE
  5
22
100
AcDbSymbolTableRecord
100
AcDbLinetypeTableRecord
  2
PHANTOM
 70
            64
  3
Phantom
 72
            65
 73
             6
 40
13.0
 49
10.0
 74
             0
 49
-1.0
 74
             0
 49
0.0
 74
             0
 49
-1.0
 74
             0
 49
0.0
 74
             0
 49
-1.0
 74
             0
  0
LTYPE
  5
23
100
AcDbSymbolTableRecord
100
AcDbLinetypeTableRecord
  2
CENTER_DASH_DASH
 70
            64
  3
Center_Dash_Dash
 72
            65
 73
             6
 40
14.0
 49
9.0
 74
             0
 49
-1.0
 74
             0
 49
1.0
 74
             0
 49
-1.0
 74
             0
 49
1.0
 74
             0
 49
-1.0
 74
             0
  0
ENDTAB
  0
TABLE
  2
LAYER
  5
2
100
AcDbSymbolTable
 70
             4
  0
LAYER
  5
14
100
AcDbSymbolTableRecord
100
AcDbLayerTableRecord
  2
0
 70
             0
 62
             7
  6
CONTINUOUS
  0
LAYER
  5
24
100
AcDbSymbolTableRecord
100
AcDbLayerTableRecord
  2
1
 70
             0
 62
             7
  6
CONTINUOUS
  0
LAYER
  5
25
100
AcDbSymbolTableRecord
100
AcDbLayerTableRecord
  2
2
 70
             0
 62
             7
  6
CONTINUOUS
  0
LAYER
  5
26
100
AcDbSymbolTableRecord
100
AcDbLayerTableRecord
  2
4
 70
             0
 62
             7
  6
CONTINUOUS
  0
ENDTAB
  0
TABLE
  2
STYLE
  5
3
100
AcDbSymbolTable
 70
             2
  0
STYLE
  5
17
100
AcDbSymbolTableRecord
100
AcDbTextStyleTableRecord
  2
STANDARD
 70
             0
 40
0.0
 41
1.0
 50
0.0
 71
             0
 42
0.0
  3
txt
  4

  0
STYLE
  5
DD
100
AcDbSymbolTableRecord
100
AcDbTextStyleTableRecord
  2
CONVERTER_1
 70
             0
 40
0.0
 41
0.9
 50
0.0
 71
             0
 42
0.0
  3
txt.shx
  4

  0
ENDTAB
  0
TABLE
  2
VIEW
  5
5
100
AcDbSymbolTable
 70
             0
  0
ENDTAB
  0
TABLE
  2
UCS
  5
6
100
AcDbSymbolTable
 70
             0
  0
ENDTAB
  0
TABLE
  2
APPID
  5
8
100
AcDbSymbolTable
 70
             1
  0
APPID
  5
16
100
AcDbSymbolTableRecord
100
AcDbRegAppTableRecord
  2
ACAD
 70
             0
  0
ENDTAB
  0
TABLE
  2
DIMSTYLE
  5
9
100
AcDbSymbolTable
 70
            14
  0
DIMSTYLE
105
18
100
AcDbSymbolTableRecord
100
AcDbDimStyleTableRecord
  2
STANDARD
 70
             0
  3

  4

  5

  6

  7

 40
1.0
 41
0.18
 42
0.0625
 43
0.38
 44
0.18
 45
0.0
 46
0.0
 47
0.0
 48
0.0
 71
             0
 72
             0
 73
             1
 74
             1
 75
             0
 76
             0
 77
             0
 78
             0
140
0.18
141
0.09
142
0.0
143
25.4
144
1.0
145
0.0
146
1.0
147
0.09
170
             0
171
             2
172
             0
173
             0
174
             0
175
             0
176
             0
177
             0
178
             0
270
             2
271
             4
272
             4
273
             2
274
             2
275
             0
280
             0
281
             0
282
             0
283
             1
284
             0
285
             0
286
             0
287
             3
288
             0
340
17
  0
DIMSTYLE
105
E0
100
AcDbSymbolTableRecord
100
AcDbDimStyleTableRecord
  2
ME10_DIM_0
 70
             0
  3
(<>)
  4

  5

  6

  7

 40
1.0
 41
3.0
 42
1.0
 43
0.38
 44
1.0
 45
0.0
 46
0.0
 47
0.0
 48
0.0
 71
             0
 72
             0
 73
             0
 74
             0
 75
             0
 76
             0
 77
             1
 78
             8
140
3.2
141
0.09
142
0.0
143
25.4
144
1.0
145
0.0
146
1.0
147
0.625
170
             0
171
             2
172
             1
173
             1
174
             0
175
             0
176
             2
177
             2
178
             2
270
             2
271
             2
272
             4
273
             2
274
             2
275
             0
280
             0
281
             0
282
             0
283
             1
284
             0
285
             0
286
             0
287
             3
288
             0
340
DD
  0
DIMSTYLE
105
ED
100
AcDbSymbolTableRecord
100
AcDbDimStyleTableRecord
  2
ME10_DIM_1
 70
             0
  3

  4

  5

  6

  7

 40
1.0
 41
3.0
 42
1.0
 43
0.38
 44
1.5
 45
0.0
 46
0.0
 47
0.1
 48
0.1
 71
             1
 72
             0
 73
             0
 74
             0
 75
             0
 76
             0
 77
             1
 78
             8
140
3.2
141
0.09
142
0.0
143
25.4
144
1.0
145
0.0
146
0.6
147
0.625
170
             0
171
             2
172
             1
173
             1
174
             0
175
             0
176
             2
177
             2
178
             2
270
             2
271
             4
272
             1
273
             2
274
             2
275
             0
280
             0
281
             0
282
             0
283
             1
284
             0
285
             0
286
             0
287
             3
288
             0
340
DD
  0
DIMSTYLE
105
F8
100
AcDbSymbolTableRecord
100
AcDbDimStyleTableRecord
  2
ME10_DIM_2
 70
             0
  3
MAX.
  4

  5

  6

  7

 40
1.0
 41
3.0
 42
1.0
 43
0.38
 44
1.5
 45
0.0
 46
0.0
 47
0.0
 48
0.0
 71
             0
 72
             0
 73
             0
 74
             0
 75
             0
 76
             0
 77
             1
 78
             8
140
3.2
141
0.09
142
0.0
143
25.4
144
1.0
145
0.0
146
1.0
147
0.625
170
             0
171
             2
172
             1
173
             1
174
             0
175
             0
176
             2
177
             2
178
             2
270
             2
271
             4
272
             4
273
             2
274
             2
275
             0
280
             0
281
             0
282
             0
283
             1
284
             0
285
             0
286
             0
287
             3
288
             0
340
DD
  0
DIMSTYLE
105
105
100
AcDbSymbolTableRecord
100
AcDbDimStyleTableRecord
  2
ME10_DIM_3
 70
             0
  3

  4

  5

  6

  7

 40
1.0
 41
3.0
 42
1.0
 43
0.38
 44
1.5
 45
0.0
 46
0.0
 47
0.2
 48
0.2
 71
             1
 72
             0
 73
             0
 74
             0
 75
             0
 76
             0
 77
             1
 78
             8
140
3.2
141
0.09
142
0.0
143
25.4
144
1.0
145
0.0
146
0.6
147
0.625
170
             0
171
             2
172
             1
173
             1
174
             0
175
             0
176
             2
177
             2
178
             2
270
             2
271
             4
272
             1
273
             2
274
             2
275
             0
280
             0
281
             0
282
             0
283
             1
284
             0
285
             0
286
             0
287
             3
288
             0
340
DD
  0
DIMSTYLE
105
110
100
AcDbSymbolTableRecord
100
AcDbDimStyleTableRecord
  2
ME10_DIM_4
 70
             0
  3

  4

  5

  6

  7

 40
1.0
 41
3.0
 42
0.0
 43
0.38
 44
1.0
 45
0.0
 46
0.0
 47
0.2
 48
0.2
 71
             1
 72
             0
 73
             0
 74
             0
 75
             0
 76
             0
 77
             1
 78
             8
140
3.2
141
0.09
142
0.0
143
25.4
144
1.0
145
0.0
146
0.6
147
0.625
170
             0
171
             2
172
             1
173
             1
174
             0
175
             0
176
             2
177
             2
178
             2
270
             2
271
             2
272
             1
273
             2
274
             2
275
             0
280
             0
281
             0
282
             0
283
             1
284
             0
285
             0
286
             0
287
             3
288
             0
340
DD
  0
DIMSTYLE
105
11B
100
AcDbSymbolTableRecord
100
AcDbDimStyleTableRecord
  2
ME10_DIM_5
 70
             0
  3

  4

  5

  6

  7

 40
1.0
 41
3.0
 42
1.0
 43
0.38
 44
1.0
 45
0.0
 46
0.0
 47
0.2
 48
0.2
 71
             1
 72
             0
 73
             0
 74
             0
 75
             0
 76
             0
 77
             1
 78
             8
140
3.2
141
0.09
142
0.0
143
25.4
144
1.0
145
0.0
146
0.6
147
0.625
170
             0
171
             2
172
             1
173
             1
174
             0
175
             0
176
             2
177
             2
178
             2
270
             2
271
             4
272
             1
273
             2
274
             2
275
             0
280
             0
281
             0
282
             0
283
             1
284
             0
285
             0
286
             0
287
             3
288
             0
340
DD
  0
DIMSTYLE
105
128
100
AcDbSymbolTableRecord
100
AcDbDimStyleTableRecord
  2
ME10_DIM_6
 70
             0
  3
Î(<>)
  4

  5

  6

  7

 40
1.0
 41
3.0
 42
1.0
 43
0.38
 44
1.5
 45
0.0
 46
0.0
 47
0.0
 48
0.0
 71
             0
 72
             0
 73
             0
 74
             0
 75
             0
 76
             0
 77
             1
 78
             8
140
3.2
141
0.09
142
0.0
143
25.4
144
1.0
145
0.0
146
1.0
147
0.625
170
             0
171
             2
172
             1
173
             1
174
             0
175
             0
176
             2
177
             2
178
             2
270
             2
271
             4
272
             4
273
             2
274
             2
275
             0
280
             0
281
             0
282
             0
283
             1
284
             0
285
             0
286
             0
287
             3
288
             0
340
DD
  0
DIMSTYLE
105
135
100
AcDbSymbolTableRecord
100
AcDbDimStyleTableRecord
  2
ME10_DIM_7
 70
             0
  3
Æ<>
  4

  5

  6

  7

 40
1.0
 41
3.0
 42
1.0
 43
0.38
 44
1.5
 45
0.0
 46
0.0
 47
0.0
 48
-0.011
 71
             1
 72
             0
 73
             0
 74
             0
 75
             0
 76
             0
 77
             1
 78
             8
140
3.2
141
0.09
142
0.0
143
25.4
144
1.0
145
0.0
146
0.6
147
0.625
170
             0
171
             2
172
             1
173
             1
174
             0
175
             0
176
             2
177
             2
178
             2
270
             2
271
             4
272
             0
273
             2
274
             2
275
             0
280
             0
281
             0
282
             0
283
             1
284
             0
285
             0
286
             0
287
             3
288
             0
340
DD
  0
DIMSTYLE
105
141
100
AcDbSymbolTableRecord
100
AcDbDimStyleTableRecord
  2
ME10_DIM_8
 70
             0
  3
Æ<>
  4

  5

  6

  7

 40
1.0
 41
3.0
 42
1.0
 43
0.38
 44
1.5
 45
0.0
 46
0.0
 47
0.0
 48
-0.05
 71
             1
 72
             0
 73
             0
 74
             0
 75
             0
 76
             0
 77
             1
 78
             8
140
3.2
141
0.09
142
0.0
143
25.4
144
1.0
145
0.0
146
0.6
147
0.625
170
             0
171
             2
172
             1
173
             1
174
             0
175
             0
176
             2
177
             2
178
             2
270
             2
271
             4
272
             0
273
             2
274
             2
275
             0
280
             0
281
             0
282
             0
283
             1
284
             0
285
             0
286
             0
287
             3
288
             0
340
DD
  0
DIMSTYLE
105
14C
100
AcDbSymbolTableRecord
100
AcDbDimStyleTableRecord
  2
ME10_DIM_9
 70
             0
  3

  4

  5

  6

  7

 40
1.0
 41
3.0
 42
1.0
 43
0.38
 44
1.5
 45
0.0
 46
0.0
 47
0.5
 48
0.5
 71
             1
 72
             0
 73
             0
 74
             0
 75
             0
 76
             0
 77
             1
 78
             8
140
3.2
141
0.09
142
0.0
143
25.4
144
1.0
145
0.0
146
0.6
147
0.625
170
             0
171
             2
172
             1
173
             1
174
             0
175
             0
176
             2
177
             2
178
             2
270
             2
271
             4
272
             1
273
             2
274
             2
275
             0
280
             0
281
             0
282
             0
283
             1
284
             0
285
             0
286
             0
287
             3
288
             0
340
DD
  0
DIMSTYLE
105
157
100
AcDbSymbolTableRecord
100
AcDbDimStyleTableRecord
  2
ME10_DIM_10
 70
             0
  3

  4

  5

  6

  7

 40
1.0
 41
3.0
 42
1.0
 43
0.38
 44
1.5
 45
0.0
 46
0.0
 47
0.2
 48
0.2
 71
             1
 72
             0
 73
             0
 74
             0
 75
             0
 76
             0
 77
             1
 78
             8
140
3.2
141
0.09
142
0.0
143
25.4
144
1.0
145
0.0
146
0.6
147
0.625
170
             0
171
             2
172
             1
173
             1
174
             0
175
             0
176
             2
177
             2
178
             2
270
             2
271
             4
272
             1
273
             2
274
             2
275
             0
280
             0
281
             0
282
             0
283
             1
284
             0
285
             0
286
             0
287
             3
288
             0
340
DD
  0
DIMSTYLE
105
164
100
AcDbSymbolTableRecord
100
AcDbDimStyleTableRecord
  2
ME10_DIM_11
 70
             0
  3
(<>)
  4

  5

  6

  7

 40
1.0
 41
3.0
 42
1.0
 43
0.38
 44
1.5
 45
0.0
 46
0.0
 47
0.0
 48
0.0
 71
             0
 72
             0
 73
             0
 74
             0
 75
             0
 76
             0
 77
             1
 78
             8
140
3.2
141
0.09
142
0.0
143
25.4
144
1.0
145
0.0
146
1.0
147
0.625
170
             0
171
             2
172
             1
173
             1
174
             0
175
             0
176
             2
177
             2
178
             2
270
             2
271
             4
272
             4
273
             2
274
             2
275
             0
280
             0
281
             0
282
             0
283
             1
284
             0
285
             0
286
             0
287
             3
288
             0
340
DD
  0
DIMSTYLE
105
16F
100
AcDbSymbolTableRecord
100
AcDbDimStyleTableRecord
  2
ME10_DIM_12
 70
             0
  3
(<>)
  4

  5

  6

  7

 40
1.0
 41
3.0
 42
1.0
 43
0.38
 44
1.5
 45
0.0
 46
0.0
 47
0.0
 48
0.0
 71
             0
 72
             0
 73
             0
 74
             0
 75
             0
 76
             0
 77
             1
 78
             8
140
3.2
141
0.09
142
0.0
143
25.4
144
1.0
145
0.0
146
1.0
147
0.625
170
             0
171
             2
172
             1
173
             1
174
             0
175
             0
176
             2
177
             2
178
             2
270
             2
271
             4
272
             4
273
             2
274
             2
275
             0
280
             0
281
             0
282
             0
283
             1
284
             0
285
             0
286
             0
287
             3
288
             0
340
DD
  0
ENDTAB
  0
TABLE
  2
BLOCK_RECORD
  5
1
100
AcDbSymbolTable
 70
            13
  0
BLOCK_RECORD
  5
A
100
AcDbSymbolTableRecord
100
AcDbBlockTableRecord
  2
*MODEL_SPACE
  0
BLOCK_RECORD
  5
B
100
AcDbSymbolTableRecord
100
AcDbBlockTableRecord
  2
*PAPER_SPACE
  0
BLOCK_RECORD
  5
D6
100
AcDbSymbolTableRecord
100
AcDbBlockTableRecord
  2
*D0
  0
BLOCK_RECORD
  5
E2
100
AcDbSymbolTableRecord
100
AcDbBlockTableRecord
  2
*D1
  0
BLOCK_RECORD
  5
EF
100
AcDbSymbolTableRecord
100
AcDbBlockTableRecord
  2
*D2
  0
BLOCK_RECORD
  5
FA
100
AcDbSymbolTableRecord
100
AcDbBlockTableRecord
  2
*D3
  0
BLOCK_RECORD
  5
107
100
AcDbSymbolTableRecord
100
AcDbBlockTableRecord
  2
*D4
  0
BLOCK_RECORD
  5
112
100
AcDbSymbolTableRecord
100
AcDbBlockTableRecord
  2
*D5
  0
BLOCK_RECORD
  5
11D
100
AcDbSymbolTableRecord
100
AcDbBlockTableRecord
  2
*D6
  0
BLOCK_RECORD
  5
12A
100
AcDbSymbolTableRecord
100
AcDbBlockTableRecord
  2
*D7
  0
BLOCK_RECORD
  5
137
100
AcDbSymbolTableRecord
100
AcDbBlockTableRecord
  2
*D8
  0
BLOCK_RECORD
  5
143
100
AcDbSymbolTableRecord
100
AcDbBlockTableRecord
  2
*D9
  0
BLOCK_RECORD
  5
14E
100
AcDbSymbolTableRecord
100
AcDbBlockTableRecord
  2
*D10
  0
BLOCK_RECORD
  5
159
100
AcDbSymbolTableRecord
100
AcDbBlockTableRecord
  2
*D11
  0
BLOCK_RECORD
  5
166
100
AcDbSymbolTableRecord
100
AcDbBlockTableRecord
  2
*D12
  0
ENDTAB
  0
ENDSEC
  0
SECTION
  2
BLOCKS
  0
BLOCK
  5
D
100
AcDbEntity
  8
0
100
AcDbBlockBegin
  2
*MODEL_SPACE
 70
             0
 10
0.0
 20
0.0
 30
0.0
  3
*MODEL_SPACE
  1

  0
ENDBLK
  5
E
100
AcDbEntity
  8
0
100
AcDbBlockEnd
  0
BLOCK
  5
F
100
AcDbEntity
 67
             1
  8
0
100
AcDbBlockBegin
  2
*PAPER_SPACE
 70
             0
 10
0.0
 20
0.0
 30
0.0
  3
*PAPER_SPACE
  1

  0
ENDBLK
  5
10
100
AcDbEntity
 67
             1
  8
0
100
AcDbBlockEnd
  0
BLOCK
  5
D7
100
AcDbEntity
  8
0
100
AcDbBlockBegin
  2
*D0
 70
             1
 10
0.0
 20
0.0
 30
0.0
  3
*D0
  1

  0
LINE
  5
D8
100
AcDbEntity
  8
0
  6
CONTINUOUS
 62
             2
100
AcDbLine
 10
59.43591058656187
 20
319.90714817880558
 11
101.43591177738119
 21
319.90714817880558
  0
LINE
  5
D9
100
AcDbEntity
  8
0
  6
CONTINUOUS
 62
             2
100
AcDbLine
 10
101.43591177738119
 20
290.90714817880558
 11
101.43591177738119
 21
320.90714817880558
  0
LINE
  5
DA
100
AcDbEntity
  8
0
  6
CONTINUOUS
 62
             2
100
AcDbLine
 10
59.43591058656187
 20
290.90714936962507
 11
59.43591058656187
 21
320.90714817880558
  0
SOLID
  5
DB
100
AcDbEntity
  8
0
 62
             2
100
AcDbTrace
 10
62.43591058656187
 20
320.30210567156774
 11
62.43591058656187
 21
319.51219068604343
 12
59.43591058656187
 22
319.90714817880558
 13
59.43591058656187
 23
319.90714817880558
  0
SOLID
  5
DC
100
AcDbEntity
  8
0
 62
             2
100
AcDbTrace
 10
98.43591177738119
 20
319.51219068604343
 11
98.43591177738119
 21
320.30210567156774
 12
101.43591177738119
 22
319.90714817880558
 13
101.43591177738119
 23
319.90714817880558
  0
MTEXT
  5
DE
100
AcDbEntity
  8
0
 62
             2
100
AcDbMText
 10
75.41191118197921
 20
321.50714181805006
 30
0.0
 40
3.2
 41
0.0
 71
             7
 72
             1
  1
\C2;(\C2;42\C2;)
  7
CONVERTER_1
 11
0.99999999999706
 21
0.00000242406841
 31
0.0
  0
ENDBLK
  5
DF
100
AcDbEntity
  8
0
100
AcDbBlockEnd
  0
BLOCK
  5
E3
100
AcDbEntity
  8
0
100
AcDbBlockBegin
  2
*D1
 70
             1
 10
0.0
 20
0.0
 30
0.0
  3
*D1
  1

  0
LINE
  5
E4
100
AcDbEntity
  8
0
  6
CONTINUOUS
 62
             2
100
AcDbLine
 10
174.2374383451002
 20
275.90714817880564
 11
174.2374383451002
 21
299.51173464775366
  0
LINE
  5
E5
100
AcDbEntity
  8
0
  6
CONTINUOUS
 62
             2
100
AcDbLine
 10
174.2374383451002
 20
271.40714817880564
 11
174.2374383451002
 21
275.90714817880564
  0
LINE
  5
E6
100
AcDbEntity
  8
0
  6
CONTINUOUS
 62
             2
100
AcDbLine
 10
174.2374383451002
 20
265.40714817880564
 11
174.2374383451002
 21
271.40714817880564
  0
LINE
  5
E7
100
AcDbEntity
  8
0
  6
CONTINUOUS
 62
             2
100
AcDbLine
 10
182.2374383451002
 20
275.90714817880564
 11
172.7374383451002
 21
275.90714817880564
  0
LINE
  5
E8
100
AcDbEntity
  8
0
  6
CONTINUOUS
 62
             2
100
AcDbLine
 10
183.2374191085174
 20
271.40714817880564
 11
172.7374383451002
 21
271.40714817880564
  0
SOLID
  5
E9
100
AcDbEntity
  8
0
 62
             2
100
AcDbTrace
 10
173.84248085233801
 20
278.90714817880564
 11
174.63239583786239
 21
278.90714817880564
 12
174.2374383451002
 22
275.90714817880564
 13
174.2374383451002
 23
275.90714817880564
  0
SOLID
  5
EA
100
AcDbEntity
  8
0
 62
             2
100
AcDbTrace
 10
174.63239583786239
 20
268.40714817880564
 11
173.84248085233801
 21
268.40714817880564
 12
174.2374383451002
 22
271.40714817880564
 13
174.2374383451002
 23
271.40714817880564
  0
MTEXT
  5
EB
100
AcDbEntity
  8
0
 62
             2
100
AcDbMText
 10
172.2374383451002
 20
287.54373464775369
 30
0.0
 40
3.2
 41
0.0
 71
             7
 72
             1
  1
\C2;4.5\C2;\H1.920000;{\Fgdt;`}0.1
  7
CONVERTER_1
 11
0.0
 21
1.0
 31
0.0
  0
ENDBLK
  5
EC
100
AcDbEntity
  8
0
100
AcDbBlockEnd
  0
BLOCK
  5
F0
100
AcDbEntity
  8
0
100
AcDbBlockBegin
  2
*D2
 70
             1
 10
0.0
 20
0.0
 30
0.0
  3
*D2
  1

  0
LINE
  5
F1
100
AcDbEntity
  8
0
  6
CONTINUOUS
 62
             2
100
AcDbLine
 10
203.2374304721435
 20
319.9071481788057
 11
240.83743797214353
 21
319.9071481788057
  0
LINE
  5
F2
100
AcDbEntity
  8
0
  6
CONTINUOUS
 62
             2
100
AcDbLine
 10
240.83743797214353
 20
294.9071481788057
 11
240.83743797214353
 21
321.4071481788057
  0
LINE
  5
F3
100
AcDbEntity
  8
0
  6
CONTINUOUS
 62
             2
100
AcDbLine
 10
203.2374304721435
 20
294.9071481788057
 11
203.2374304721435
 21
321.4071481788057
  0
SOLID
  5
F4
100
AcDbEntity
  8
0
 62
             2
100
AcDbTrace
 10
206.2374304721435
 20
320.30210567156786
 11
206.2374304721435
 21
319.51219068604354
 12
203.2374304721435
 22
319.9071481788057
 13
203.2374304721435
 23
319.9071481788057
  0
SOLID
  5
F5
100
AcDbEntity
  8
0
 62
             2
100
AcDbTrace
 10
237.83743797214353
 20
319.51219068604354
 11
237.83743797214353
 21
320.30210567156786
 12
240.83743797214353
 22
319.9071481788057
 13
240.83743797214353
 23
319.9071481788057
  0
MTEXT
  5
F6
100
AcDbEntity
  8
0
 62
             2
100
AcDbMText
 10
213.87485111216699
 20
321.9071481788057
 30
0.0
 40
3.2
 41
0.0
 71
             7
 72
             1
  1
\C2;38\C2;MAX.
  7
CONVERTER_1
 11
0.99999999999706
 21
0.00000242406841
 31
0.0
  0
ENDBLK
  5
F7
100
AcDbEntity
  8
0
100
AcDbBlockEnd
  0
BLOCK
  5
FB
100
AcDbEntity
  8
0
100
AcDbBlockBegin
  2
*D3
 70
             1
 10
0.0
 20
0.0
 30
0.0
  3
*D3
  1

  0
LINE
  5
FC
100
AcDbEntity
  8
0
  6
CONTINUOUS
 62
             2
100
AcDbLine
 10
195.2374304721435
 20
309.90714817880576
 11
201.23743047214347
 21
309.90714817880576
  0
LINE
  5
FD
100
AcDbEntity
  8
0
  6
CONTINUOUS
 62
             2
100
AcDbLine
 10
201.23743047214347
 20
309.90714817880576
 11
203.2374304721435
 21
309.90714817880576
  0
LINE
  5
FE
100
AcDbEntity
  8
0
  6
CONTINUOUS
 62
             2
100
AcDbLine
 10
203.2374304721435
 20
309.90714817880576
 11
216.48788185492219
 21
309.90714817880576
  0
LINE
  5
FF
100
AcDbEntity
  8
0
  6
CONTINUOUS
 62
             2
100
AcDbLine
 10
201.23743047214347
 20
285.90714817880576
 11
201.23743047214347
 21
311.40714817880576
  0
LINE
  5
100
100
AcDbEntity
  8
0
  6
CONTINUOUS
 62
             2
100
AcDbLine
 10
203.2374304721435
 20
294.90714817880576
 11
203.2374304721435
 21
311.40714817880576
  0
SOLID
  5
101
100
AcDbEntity
  8
0
 62
             2
100
AcDbTrace
 10
198.23743047214347
 20
309.5121906860436
 11
198.23743047214347
 21
310.30210567156792
 12
201.23743047214347
 22
309.90714817880576
 13
201.23743047214347
 23
309.90714817880576
  0
SOLID
  5
102
100
AcDbEntity
  8
0
 62
             2
100
AcDbTrace
 10
206.2374304721435
 20
310.30210567156792
 11
206.2374304721435
 21
309.5121906860436
 12
203.2374304721435
 22
309.90714817880576
 13
203.2374304721435
 23
309.90714817880576
  0
MTEXT
  5
103
100
AcDbEntity
  8
0
 62
             2
100
AcDbMText
 10
208.02388185492219
 20
311.9071481788057
 30
0.0
 40
3.2
 41
0.0
 71
             7
 72
             1
  1
\C2;2\C2;\H1.920000;{\Fgdt;`}0.2
  7
CONVERTER_1
 11
0.99999999999706
 21
0.00000242406841
 31
0.0
  0
ENDBLK
  5
104
100
AcDbEntity
  8
0
100
AcDbBlockEnd
  0
BLOCK
  5
108
100
AcDbEntity
  8
0
100
AcDbBlockBegin
  2
*D4
 70
             1
 10
0.0
 20
0.0
 30
0.0
  3
*D4
  1

  0
LINE
  5
109
100
AcDbEntity
  8
0
  6
CONTINUOUS
 62
             2
100
AcDbLine
 10
64.93592177738117
 20
309.90714817880558
 11
95.93591177738119
 21
309.90714817880558
  0
LINE
  5
10A
100
AcDbEntity
  8
0
  6
CONTINUOUS
 62
             2
100
AcDbLine
 10
64.93592177738117
 20
291.90714817880558
 11
64.93592177738117
 21
310.90714817880558
  0
LINE
  5
10B
100
AcDbEntity
  8
0
  6
CONTINUOUS
 62
             2
100
AcDbLine
 10
95.93591177738119
 20
291.90714817880558
 11
95.93591177738119
 21
310.90714817880558
  0
SOLID
  5
10C
100
AcDbEntity
  8
0
 62
             2
100
AcDbTrace
 10
67.93592177738117
 20
310.30210567156774
 11
67.93592177738117
 21
309.51219068604343
 12
64.93592177738117
 22
309.90714817880558
 13
64.93592177738117
 23
309.90714817880558
  0
SOLID
  5
10D
100
AcDbEntity
  8
0
 62
             2
100
AcDbTrace
 10
92.93591177738119
 20
309.51219068604343
 11
92.93591177738119
 21
310.30210567156774
 12
95.93591177738119
 22
309.90714817880558
 13
95.93591177738119
 23
309.90714817880558
  0
MTEXT
  5
10E
100
AcDbEntity
  8
0
 62
             2
100
AcDbMText
 10
75.24391177738119
 20
311.50714817880555
 30
0.0
 40
3.2
 41
0.0
 71
             7
 72
             1
  1
\C2;31\C2;\H1.920000;{\Fgdt;`}0.2
  7
CONVERTER_1
 11
0.99999999999706
 21
0.00000242406841
 31
0.0
  0
ENDBLK
  5
10F
100
AcDbEntity
  8
0
100
AcDbBlockEnd
  0
BLOCK
  5
113
100
AcDbEntity
  8
0
100
AcDbBlockBegin
  2
*D5
 70
             1
 10
0.0
 20
0.0
 30
0.0
  3
*D5
  1

  0
LINE
  5
114
100
AcDbEntity
  8
0
  6
CONTINUOUS
 62
             2
100
AcDbLine
 10
114.01248880657059
 20
258.40714817880581
 11
114.01248880657059
 21
289.40714817880576
  0
LINE
  5
115
100
AcDbEntity
  8
0
  6
CONTINUOUS
 62
             2
100
AcDbLine
 10
99.43591177738128
 20
258.40714817880581
 11
115.01248880657059
 21
258.40714817880581
  0
LINE
  5
116
100
AcDbEntity
  8
0
  6
CONTINUOUS
 62
             2
100
AcDbLine
 10
99.43591177738128
 20
289.40714817880576
 11
115.01248880657059
 21
289.40714817880576
  0
SOLID
  5
117
100
AcDbEntity
  8
0
 62
             2
100
AcDbTrace
 10
114.40744629933278
 20
286.40714817880576
 11
113.6175313138084
 21
286.40714817880576
 12
114.01248880657059
 22
289.40714817880576
 13
114.01248880657059
 23
289.40714817880576
  0
SOLID
  5
118
100
AcDbEntity
  8
0
 62
             2
100
AcDbTrace
 10
113.6175313138084
 20
261.40714817880581
 11
114.40744629933278
 21
261.40714817880581
 12
114.01248880657059
 22
258.40714817880581
 13
114.01248880657059
 23
258.40714817880581
  0
MTEXT
  5
119
100
AcDbEntity
  8
0
 62
             2
100
AcDbMText
 10
112.01248880657059
 20
268.11482847086512
 30
0.0
 40
3.2
 41
0.0
 71
             7
 72
             1
  1
\C2;31\C2;\H1.920000;{\Fgdt;`}0.2
  7
CONVERTER_1
 11
0.0
 21
1.0
 31
0.0
  0
ENDBLK
  5
11A
100
AcDbEntity
  8
0
100
AcDbBlockEnd
  0
BLOCK
  5
11E
100
AcDbEntity
  8
0
100
AcDbBlockBegin
  2
*D6
 70
             1
 10
0.0
 20
0.0
 30
0.0
  3
*D6
  1

  0
LINE
  5
11F
100
AcDbEntity
  8
0
  6
CONTINUOUS
 62
             2
100
AcDbLine
 10
50.08189517577722
 20
258.90715909256522
 11
50.08189517577722
 21
252.90715909256519
  0
LINE
  5
120
100
AcDbEntity
  8
0
  6
CONTINUOUS
 62
             2
100
AcDbLine
 10
50.08189517577722
 20
246.40714817880581
 11
50.08189517577722
 21
252.90715909256519
  0
LINE
  5
121
100
AcDbEntity
  8
0
  6
CONTINUOUS
 62
             2
100
AcDbLine
 10
50.08189517577722
 20
246.40714817880581
 11
50.08189517577722
 21
229.53315691868812
  0
LINE
  5
122
100
AcDbEntity
  8
0
  6
CONTINUOUS
 62
             2
100
AcDbLine
 10
67.48591177738121
 20
246.40714817880581
 11
48.58189517577722
 21
246.40714817880581
  0
LINE
  5
123
100
AcDbEntity
  8
0
  6
CONTINUOUS
 62
             2
100
AcDbLine
 10
63.43590149048708
 20
252.90715909256519
 11
48.58189517577722
 21
252.90715909256519
  0
SOLID
  5
124
100
AcDbEntity
  8
0
 62
             2
100
AcDbTrace
 10
49.68693768301503
 20
255.90715909256519
 11
50.47685266853941
 21
255.90715909256519
 12
50.08189517577722
 22
252.90715909256519
 13
50.08189517577722
 23
252.90715909256519
  0
SOLID
  5
125
100
AcDbEntity
  8
0
 62
             2
100
AcDbTrace
 10
50.47685266853941
 20
243.40714817880581
 11
49.68693768301503
 21
243.40714817880581
 12
50.08189517577722
 22
246.40714817880581
 13
50.08189517577722
 23
246.40714817880581
  0
MTEXT
  5
126
100
AcDbEntity
  8
0
 62
             2
100
AcDbMText
 10
48.0818951757772
 20
227.50586280104108
 30
0.0
 40
3.2
 41
0.0
 71
             7
 72
             1
  1
\C2;Î(\C2;6.5\C2;)
  7
CONVERTER_1
 11
0.0
 21
1.0
 31
0.0
  0
ENDBLK
  5
127
100
AcDbEntity
  8
0
100
AcDbBlockEnd
  0
BLOCK
  5
12B
100
AcDbEntity
  8
0
100
AcDbBlockBegin
  2
*D7
 70
             1
 10
0.0
 20
0.0
 30
0.0
  3
*D7
  1

  0
LINE
  5
12C
100
AcDbEntity
  8
0
  6
CONTINUOUS
 62
             2
100
AcDbLine
 10
165.23743834510017
 20
276.40714817880576
 11
165.23743834510017
 21
301.19490223255542
  0
LINE
  5
12D
100
AcDbEntity
  8
0
  6
CONTINUOUS
 62
             2
100
AcDbLine
 10
165.23743834510017
 20
271.40714817880576
 11
165.23743834510017
 21
276.40714817880576
  0
LINE
  5
12E
100
AcDbEntity
  8
0
  6
CONTINUOUS
 62
             2
100
AcDbLine
 10
165.23743834510017
 20
265.40714817880576
 11
165.23743834510017
 21
271.40714817880576
  0
LINE
  5
12F
100
AcDbEntity
  8
0
  6
CONTINUOUS
 62
             2
100
AcDbLine
 10
197.23743047214347
 20
276.40714817880576
 11
163.73743834510017
 21
276.40714817880576
  0
LINE
  5
130
100
AcDbEntity
  8
0
  6
CONTINUOUS
 62
             2
100
AcDbLine
 10
183.23741910851737
 20
271.40714817880576
 11
163.73743834510017
 21
271.40714817880576
  0
SOLID
  5
131
100
AcDbEntity
  8
0
 62
             2
100
AcDbTrace
 10
164.84248085233799
 20
279.40714817880576
 11
165.63239583786236
 21
279.40714817880576
 12
165.23743834510017
 22
276.40714817880576
 13
165.23743834510017
 23
276.40714817880576
  0
SOLID
  5
132
100
AcDbEntity
  8
0
 62
             2
100
AcDbTrace
 10
165.63239583786236
 20
268.40714817880576
 11
164.84248085233799
 21
268.40714817880576
 12
165.23743834510017
 22
271.40714817880576
 13
165.23743834510017
 23
271.40714817880576
  0
MTEXT
  5
133
100
AcDbEntity
  8
0
 62
             2
100
AcDbMText
 10
162.38410501176682
 20
284.98690223255545
 30
0.0
 40
3.2
 41
0.0
 71
             7
 72
             1
  1
\C2;Æ\C2;\C2;5\C2;\H1.920000;\S 0^ -0.011;
  7
CONVERTER_1
 11
0.0
 21
1.0
 31
0.0
  0
ENDBLK
  5
134
100
AcDbEntity
  8
0
100
AcDbBlockEnd
  0
BLOCK
  5
138
100
AcDbEntity
  8
0
100
AcDbBlockBegin
  2
*D8
 70
             1
 10
0.0
 20
0.0
 30
0.0
  3
*D8
  1

  0
LINE
  5
139
100
AcDbEntity
  8
0
  6
CONTINUOUS
 62
             2
100
AcDbLine
 10
156.23743834510017
 20
284.90714817880558
 11
156.23743834510017
 21
304.14692213597027
  0
LINE
  5
13A
100
AcDbEntity
  8
0
  6
CONTINUOUS
 62
             2
100
AcDbLine
 10
156.23743834510017
 20
262.90714817880564
 11
156.23743834510017
 21
284.90714817880558
  0
LINE
  5
13B
100
AcDbEntity
  8
0
  6
CONTINUOUS
 62
             2
100
AcDbLine
 10
200.23743047214347
 20
284.90714817880558
 11
154.73743834510017
 21
284.90714817880558
  0
LINE
  5
13C
100
AcDbEntity
  8
0
  6
CONTINUOUS
 62
             2
100
AcDbLine
 10
200.23743047214347
 20
262.90714817880564
 11
154.73743834510017
 21
262.90714817880564
  0
SOLID
  5
13D
100
AcDbEntity
  8
0
 62
             2
100
AcDbTrace
 10
156.63239583786236
 20
281.90714817880558
 11
155.84248085233799
 21
281.90714817880558
 12
156.23743834510017
 22
284.90714817880558
 13
156.23743834510017
 23
284.90714817880558
  0
SOLID
  5
13E
100
AcDbEntity
  8
0
 62
             2
100
AcDbTrace
 10
155.84248085233799
 20
265.90714817880564
 11
156.63239583786236
 21
265.90714817880564
 12
156.23743834510017
 22
262.90714817880564
 13
156.23743834510017
 23
262.90714817880564
  0
MTEXT
  5
13F
100
AcDbEntity
  8
0
 62
             2
100
AcDbMText
 10
153.38410501176682
 20
285.63492213597027
 30
0.0
 40
3.2
 41
0.0
 71
             7
 72
             1
  1
\C2;Æ\C2;\C2;22\C2;\H1.920000;\S 0^ -0.05;
  7
CONVERTER_1
 11
0.0
 21
1.0
 31
0.0
  0
ENDBLK
  5
140
100
AcDbEntity
  8
0
100
AcDbBlockEnd
  0
BLOCK
  5
144
100
AcDbEntity
  8
0
100
AcDbBlockBegin
  2
*D9
 70
             1
 10
0.0
 20
0.0
 30
0.0
  3
*D9
  1

  0
LINE
  5
145
100
AcDbEntity
  8
0
  6
CONTINUOUS
 62
             2
100
AcDbLine
 10
183.2374383451002
 20
319.90714817880576
 11
203.2374304721435
 21
319.90714817880576
  0
LINE
  5
146
100
AcDbEntity
  8
0
  6
CONTINUOUS
 62
             2
100
AcDbLine
 10
183.2374383451002
 20
276.90714817880576
 11
183.2374383451002
 21
321.40714817880576
  0
LINE
  5
147
100
AcDbEntity
  8
0
  6
CONTINUOUS
 62
             2
100
AcDbLine
 10
203.2374304721435
 20
294.90714817880576
 11
203.2374304721435
 21
321.40714817880576
  0
SOLID
  5
148
100
AcDbEntity
  8
0
 62
             2
100
AcDbTrace
 10
186.2374383451002
 20
320.30210567156792
 11
186.2374383451002
 21
319.5121906860436
 12
183.2374383451002
 22
319.90714817880576
 13
183.2374383451002
 23
319.90714817880576
  0
SOLID
  5
149
100
AcDbEntity
  8
0
 62
             2
100
AcDbTrace
 10
200.2374304721435
 20
319.5121906860436
 11
200.2374304721435
 21
320.30210567156792
 12
203.2374304721435
 22
319.90714817880576
 13
203.2374304721435
 23
319.90714817880576
  0
MTEXT
  5
14A
100
AcDbEntity
  8
0
 62
             2
100
AcDbMText
 10
187.72153547005121
 20
321.9071481788057
 30
0.0
 40
3.2
 41
0.0
 71
             7
 72
             1
  1
\C2;20\C2;\H1.920000;{\Fgdt;`}0.5
  7
CONVERTER_1
 11
0.99999999999706
 21
0.00000242406841
 31
0.0
  0
ENDBLK
  5
14B
100
AcDbEntity
  8
0
100
AcDbBlockEnd
  0
BLOCK
  5
14F
100
AcDbEntity
  8
0
100
AcDbBlockBegin
  2
*D10
 70
             1
 10
0.0
 20
0.0
 30
0.0
  3
*D10
  1

  0
LINE
  5
150
100
AcDbEntity
  8
0
  6
CONTINUOUS
 62
             2
100
AcDbLine
 10
183.2374383451002
 20
299.51771791009975
 11
198.2374304721435
 21
299.51771791009975
  0
LINE
  5
151
100
AcDbEntity
  8
0
  6
CONTINUOUS
 62
             2
100
AcDbLine
 10
183.2374383451002
 20
276.9071481788057
 11
183.2374383451002
 21
301.01771791009975
  0
LINE
  5
152
100
AcDbEntity
  8
0
  6
CONTINUOUS
 62
             2
100
AcDbLine
 10
198.2374304721435
 20
277.4071481788057
 11
198.2374304721435
 21
301.01771791009975
  0
SOLID
  5
153
100
AcDbEntity
  8
0
 62
             2
100
AcDbTrace
 10
186.2374383451002
 20
299.91267540286191
 11
186.2374383451002
 21
299.12276041733759
 12
183.2374383451002
 22
299.51771791009975
 13
183.2374383451002
 23
299.51771791009975
  0
SOLID
  5
154
100
AcDbEntity
  8
0
 62
             2
100
AcDbTrace
 10
195.2374304721435
 20
299.12276041733759
 11
195.2374304721435
 21
299.91267540286191
 12
198.2374304721435
 22
299.51771791009975
 13
198.2374304721435
 23
299.51771791009975
  0
MTEXT
  5
155
100
AcDbEntity
  8
0
 62
             2
100
AcDbMText
 10
185.34415109798519
 20
301.51771791009969
 30
0.0
 40
3.2
 41
0.0
 71
             7
 72
             1
  1
\C2;15\C2;\H1.920000;{\Fgdt;`}0.2
  7
CONVERTER_1
 11
0.99999999999706
 21
0.00000242406841
 31
0.0
  0
ENDBLK
  5
156
100
AcDbEntity
  8
0
100
AcDbBlockEnd
  0
BLOCK
  5
15A
100
AcDbEntity
  8
0
100
AcDbBlockBegin
  2
*D11
 70
             1
 10
0.0
 20
0.0
 30
0.0
  3
*D11
  1

  0
LINE
  5
15B
100
AcDbEntity
  8
0
  6
CONTINUOUS
 62
             2
100
AcDbLine
 10
122.5282853915777
 20
258.9071496536381
 11
122.5282853915777
 21
252.9071496536381
  0
LINE
  5
15C
100
AcDbEntity
  8
0
  6
CONTINUOUS
 62
             2
100
AcDbLine
 10
122.5282853915777
 20
248.3571481788058
 11
122.5282853915777
 21
252.9071496536381
  0
LINE
  5
15D
100
AcDbEntity
  8
0
  6
CONTINUOUS
 62
             2
100
AcDbLine
 10
122.5282853915777
 20
248.3571481788058
 11
122.5282853915777
 21
235.50183873705208
  0
LINE
  5
15E
100
AcDbEntity
  8
0
  6
CONTINUOUS
 62
             2
100
AcDbLine
 10
93.38591177738118
 20
248.3571481788058
 11
124.0282853915777
 21
248.3571481788058
  0
LINE
  5
15F
100
AcDbEntity
  8
0
  6
CONTINUOUS
 62
             2
100
AcDbLine
 10
97.4359103025493
 20
252.9071496536381
 11
124.0282853915777
 21
252.9071496536381
  0
SOLID
  5
160
100
AcDbEntity
  8
0
 62
             2
100
AcDbTrace
 10
122.13332789881551
 20
255.9071496536381
 11
122.92324288433988
 21
255.9071496536381
 12
122.5282853915777
 22
252.9071496536381
 13
122.5282853915777
 23
252.9071496536381
  0
SOLID
  5
161
100
AcDbEntity
  8
0
 62
             2
100
AcDbTrace
 10
122.92324288433988
 20
245.3571481788058
 11
122.13332789881551
 21
245.3571481788058
 12
122.5282853915777
 22
248.3571481788058
 13
122.5282853915777
 23
248.3571481788058
  0
MTEXT
  5
162
100
AcDbEntity
  8
0
 62
             2
100
AcDbMText
 10
120.5282853915777
 20
234.9578387370521
 30
0.0
 40
3.2
 41
0.0
 71
             7
 72
             1
  1
\C2;(\C2;4.6\C2;)
  7
CONVERTER_1
 11
0.0
 21
1.0
 31
0.0
  0
ENDBLK
  5
163
100
AcDbEntity
  8
0
100
AcDbBlockEnd
  0
BLOCK
  5
167
100
AcDbEntity
  8
0
100
AcDbBlockBegin
  2
*D12
 70
             1
 10
0.0
 20
0.0
 30
0.0
  3
*D12
  1

  0
LINE
  5
168
100
AcDbEntity
  8
0
  6
CONTINUOUS
 62
             2
100
AcDbLine
 10
122.5282853915777
 20
252.9071496536381
 11
122.5282853915777
 21
294.9071481788057
  0
LINE
  5
169
100
AcDbEntity
  8
0
  6
CONTINUOUS
 62
             2
100
AcDbLine
 10
97.4359103025493
 20
252.9071496536381
 11
124.0282853915777
 21
252.9071496536381
  0
LINE
  5
16A
100
AcDbEntity
  8
0
  6
CONTINUOUS
 62
             2
100
AcDbLine
 10
97.43591177738119
 20
294.9071481788057
 11
124.0282853915777
 21
294.9071481788057
  0
SOLID
  5
16B
100
AcDbEntity
  8
0
 62
             2
100
AcDbTrace
 10
122.92324288433988
 20
291.9071481788057
 11
122.13332789881551
 21
291.9071481788057
 12
122.5282853915777
 22
294.9071481788057
 13
122.5282853915777
 23
294.9071481788057
  0
SOLID
  5
16C
100
AcDbEntity
  8
0
 62
             2
100
AcDbTrace
 10
122.13332789881551
 20
255.9071496536381
 11
122.92324288433988
 21
255.9071496536381
 12
122.5282853915777
 22
252.9071496536381
 13
122.5282853915777
 23
252.9071496536381
  0
MTEXT
  5
16D
100
AcDbEntity
  8
0
 62
             2
100
AcDbMText
 10
120.5282853915777
 20
268.4044827077941
 30
0.0
 40
3.2
 41
0.0
 71
             7
 72
             1
  1
\C2;(\C2;42\C2;)
  7
CONVERTER_1
 11
0.0
 21
1.0
 31
0.0
  0
ENDBLK
  5
16E
100
AcDbEntity
  8
0
100
AcDbBlockEnd
  0
ENDSEC
  0
SECTION
  2
ENTITIES
  0
DIMENSION
  5
170
100
AcDbEntity
  8
1
100
AcDbDimension
  2
*D12
 10
122.5282853915777
 20
294.9071481788057
 11
118.9282853915777
 21
273.4284827077941
 31
0.0
 53
90.0
  1
<>
  3
ME10_DIM_12
100
AcDbAlignedDimension
 13
96.4359103025493
 23
252.90714965363799
 14
96.43591177738119
 24
294.90714817880558
 50
90.0
100
AcDbRotatedDimension
  0
DIMENSION
  5
165
100
AcDbEntity
  8
1
100
AcDbDimension
  2
*D11
 10
122.5282853915777
 20
252.9071496536381
 11
118.9282853915777
 21
240.5818387370521
 31
0.0
 53
90.0
  1
(4.6
  3
ME10_DIM_11
100
AcDbAlignedDimension
 13
92.38591177738118
 23
248.35714817880569
 14
96.4359103025493
 24
252.90714965363799
 50
90.0
100
AcDbRotatedDimension
  0
DIMENSION
  5
158
100
AcDbEntity
  8
1
100
AcDbDimension
  2
*D10
 10
183.2374383451002
 20
299.51771791009975
 11
190.5361510979852
 21
303.11771791009971
 31
0.0
 53
0.00013888888889
  1
<>
  3
ME10_DIM_10
100
AcDbAlignedDimension
 13
198.2374304721435
 23
276.40714817880558
 14
183.2374383451002
 24
275.90714817880558
100
AcDbRotatedDimension
  0
DIMENSION
  5
14D
100
AcDbEntity
  8
1
100
AcDbDimension
  2
*D9
 10
183.2374383451002
 20
319.90714817880576
 11
193.39353547005121
 21
323.50714817880572
 31
0.0
 53
0.00013888888889
  1
<>
  3
ME10_DIM_9
100
AcDbAlignedDimension
 13
203.2374304721435
 23
293.90714817880558
 14
183.2374383451002
 24
275.90714817880558
100
AcDbRotatedDimension
  0
DIMENSION
  5
142
100
AcDbEntity
  8
1
100
AcDbDimension
  2
*D8
 10
156.23743834510017
 20
284.90714817880558
 11
151.8107716784335
 21
295.49139272420558
 31
0.0
 53
90.0
  1
<>
  3
ME10_DIM_8
100
AcDbAlignedDimension
 13
201.2374304721435
 23
262.90714817880581
 14
201.2374304721435
 24
284.90714817880558
 50
90.0
100
AcDbRotatedDimension
  0
DIMENSION
  5
136
100
AcDbEntity
  8
1
100
AcDbDimension
  2
*D7
 10
165.23743834510017
 20
276.40714817880576
 11
160.8107716784335
 21
293.69137282079072
 31
0.0
 53
90.0
  1
<>
  3
ME10_DIM_7
100
AcDbAlignedDimension
 13
184.2374191085174
 23
271.40714817880558
 14
198.2374304721435
 24
276.40714817880558
 50
90.0
100
AcDbRotatedDimension
  0
DIMENSION
  5
129
100
AcDbEntity
  8
1
100
AcDbDimension
  2
*D6
 10
50.08189517577722
 20
252.90715909256519
 11
46.4818951757772
 21
236.4955098598646
 31
0.0
 53
90.0
  1
<>
  3
ME10_DIM_6
100
AcDbAlignedDimension
 13
68.48591177738121
 23
246.4071481788059
 14
64.43590149048708
 24
252.90715909256519
 50
90.0
100
AcDbRotatedDimension
  0
DIMENSION
  5
11C
100
AcDbEntity
  8
1
100
AcDbDimension
  2
*D5
 10
114.01248880657059
 20
289.40714817880576
 11
110.41248880657059
 21
273.30682847086513
 31
0.0
 53
90.0
  1
<>
  3
ME10_DIM_5
100
AcDbAlignedDimension
 13
98.43591177738128
 23
258.40714817880581
 14
98.43591177738128
 24
289.40714817880558
 50
90.0
100
AcDbRotatedDimension
  0
DIMENSION
  5
111
100
AcDbEntity
  8
0
100
AcDbDimension
  2
*D4
 10
64.93592177738117
 20
309.90714817880558
 11
80.43591177738119
 21
313.10714817880557
 31
0.0
 53
0.00013888888889
  1
<>
  3
ME10_DIM_4
100
AcDbAlignedDimension
 13
95.93591177738119
 23
291.90714817880558
 14
64.93592177738117
 24
291.90714817880558
100
AcDbRotatedDimension
  0
DIMENSION
  5
106
100
AcDbEntity
  8
1
100
AcDbDimension
  2
*D3
 10
201.23743047214347
 20
309.90714817880576
 11
212.25588185492219
 21
313.50714817880572
 31
0.0
 53
0.00013888888889
  1
<>
  3
ME10_DIM_3
100
AcDbAlignedDimension
 13
203.2374304721435
 23
293.90714817880558
 14
201.2374304721435
 24
284.90714817880558
100
AcDbRotatedDimension
  0
DIMENSION
  5
F9
100
AcDbEntity
  8
1
100
AcDbDimension
  2
*D2
 10
203.2374304721435
 20
319.9071481788057
 11
222.274851112167
 21
323.50714817880572
 31
0.0
 53
0.00013888888889
  1
38
  3
ME10_DIM_2
100
AcDbAlignedDimension
 13
240.8374379721435
 23
293.90714817880558
 14
203.2374304721435
 24
293.90714817880558
100
AcDbRotatedDimension
  0
DIMENSION
  5
EE
100
AcDbEntity
  8
1
100
AcDbDimension
  2
*D1
 10
174.2374383451002
 20
275.90714817880564
 11
170.63743834510021
 21
293.52773464775368
 31
0.0
 53
90.0
  1
<>
  3
ME10_DIM_1
100
AcDbAlignedDimension
 13
184.2374191085174
 23
271.40714817880558
 14
183.2374383451002
 24
275.90714817880558
 50
90.0
100
AcDbRotatedDimension
  0
DIMENSION
  5
E1
100
AcDbEntity
  8
0
100
AcDbDimension
  2
*D0
 10
59.43591058656187
 20
319.90714817880558
 11
80.43591118197151
 21
323.10714817880557
 31
0.0
 53
0.00013888888889
  1
<>
  3
ME10_DIM_0
100
AcDbAlignedDimension
 13
101.43591177738119
 23
289.90714817880558
 14
59.43591058656187
 24
289.90714936962507
100
AcDbRotatedDimension
  0
ARC
  5
D5
100
AcDbEntity
  8
1
  6
CONTINUOUS
 62
             3
100
AcDbCircle
 10
96.43591177738119
 20
289.90714817880558
 40
5.0
100
AcDbArc
 50
0.0
 51
90.0
  0
ARC
  5
D4
100
AcDbEntity
  8
1
  6
CONTINUOUS
 62
             3
100
AcDbCircle
 10
64.43591058656182
 20
289.90714817880558
 40
5.0
100
AcDbArc
 50
90.0
 51
179.9999863542138
  0
ARC
  5
D3
100
AcDbEntity
  8
1
  6
CONTINUOUS
 62
             3
100
AcDbCircle
 10
64.43590296531909
 20
257.90715909256488
 40
5.00000000000003
100
AcDbArc
 50
179.99998635420991
 51
-90.00001690032987
  0
ARC
  5
D2
100
AcDbEntity
  8
1
  6
CONTINUOUS
 62
             3
100
AcDbCircle
 10
96.43591177738128
 20
257.90714965363787
 40
5.0000000000001
100
AcDbArc
 50
-90.00001690032954
 51
0.0
  0
ARC
  5
D1
100
AcDbEntity
  8
1
  6
CONTINUOUS
 62
             3
100
AcDbCircle
 10
204.2374304721435
 20
253.9071485745844
 40
1.0
100
AcDbArc
 50
180.0
 51
-89.99997732355746
  0
ARC
  5
D0
100
AcDbEntity
  8
1
  6
CONTINUOUS
 62
             3
100
AcDbCircle
 10
204.2374304721435
 20
293.90714817880558
 40
1.0
100
AcDbArc
 50
90.0
 51
180.0
  0
ARC
  5
CF
100
AcDbEntity
  8
1
  6
CONTINUOUS
 62
             3
100
AcDbCircle
 10
239.83742647014279
 20
251.90714817880581
 40
1.0
100
AcDbArc
 50
-90.0
 51
0.00010021033501
  0
ARC
  5
CE
100
AcDbEntity
  8
1
  6
CONTINUOUS
 62
             3
100
AcDbCircle
 10
67.48591177738121
 20
251.20714817880571
 40
0.2999999999999
100
AcDbArc
 50
-90.0
 51
0.0
  0
ARC
  5
CD
100
AcDbEntity
  8
1
  6
CONTINUOUS
 62
             3
100
AcDbCircle
 10
93.38591177738118
 20
251.20714817880571
 40
0.29999999999998
100
AcDbArc
 50
180.0
 51
-90.0
  0
ARC
  5
CC
100
AcDbEntity
  8
1
  6
CONTINUOUS
 62
             3
100
AcDbCircle
 10
67.44235593722539
 20
251.90714817880581
 40
0.99999999999986
100
AcDbArc
 50
-147.37931044688264
 51
-90.0
  0
ARC
  5
CB
100
AcDbEntity
  8
1
  6
CONTINUOUS
 62
             3
100
AcDbCircle
 10
93.429466110422
 20
251.90714817880581
 40
1.0
100
AcDbArc
 50
-90.0
 51
-32.62068955311734
  0
ARC
  5
CA
100
AcDbEntity
  8
1
  6
CONTINUOUS
 62
             3
100
AcDbCircle
 10
88.72044291811611
 20
275.80851520515068
 40
0.49999999999939
100
AcDbArc
 50
-75.00000000001386
 51
14.56004299679298
  0
ARC
  5
C9
100
AcDbEntity
  8
1
  6
CONTINUOUS
 62
             3
100
AcDbCircle
 10
88.7215519523491
 20
272.00366708240762
 40
0.50000000000135
100
AcDbArc
 50
-14.56004299683654
 51
75.00000000001722
  0
ARC
  5
C8
100
AcDbEntity
  8
1
  6
CONTINUOUS
 62
             3
100
AcDbCircle
 10
82.33727880372618
 20
265.62261703807059
 40
0.50000000000032
100
AcDbArc
 50
-165.00000000005593
 51
-75.43995700320141
  0
ARC
  5
C7
100
AcDbEntity
  8
1
  6
CONTINUOUS
 62
             3
100
AcDbCircle
 10
78.53243068098308
 20
265.62150800383648
 40
0.50000000000019
100
AcDbArc
 50
-104.56004299688119
 51
-14.99999999994321
  0
ARC
  5
C6
100
AcDbEntity
  8
1
  6
CONTINUOUS
 62
             3
100
AcDbCircle
 10
72.15138063664728
 20
272.00578115246071
 40
0.49999999999955
100
AcDbArc
 50
105.00000000000165
 51
-165.43995700313744
  0
ARC
  5
C5
100
AcDbEntity
  8
1
  6
CONTINUOUS
 62
             3
100
AcDbCircle
 10
72.15027160241232
 20
275.81062927520372
 40
0.49999999999933
100
AcDbArc
 50
165.43995700323799
 51
-104.99999999996378
  0
ARC
  5
C4
100
AcDbEntity
  8
1
  6
CONTINUOUS
 62
             3
100
AcDbCircle
 10
78.53454475103609
 20
282.19167931953967
 40
0.50000000000063
100
AcDbArc
 50
15.00000000006276
 51
104.56004299674062
  0
ARC
  5
C3
100
AcDbEntity
  8
1
  6
CONTINUOUS
 62
             3
100
AcDbCircle
 10
82.3393928737801
 20
282.19278835377372
 40
0.50000000000001
100
AcDbArc
 50
75.43995700332559
 51
164.99999999993724
  0
CIRCLE
  5
C2
100
AcDbEntity
  8
4
  6
CONTINUOUS
 62
             3
100
AcDbCircle
 10
64.93591177738119
 20
289.40714817880558
 40
1.00000999999997
  0
CIRCLE
  5
C1
100
AcDbEntity
  8
4
  6
CONTINUOUS
 62
             3
100
AcDbCircle
 10
95.93591177738119
 20
289.40714817880558
 40
1.0
  0
CIRCLE
  5
C0
100
AcDbEntity
  8
4
  6
CONTINUOUS
 62
             3
100
AcDbCircle
 10
64.93590177738128
 20
258.40714817880581
 40
1.00000999999992
  0
CIRCLE
  5
BF
100
AcDbEntity
  8
4
  6
CONTINUOUS
 62
             3
100
AcDbCircle
 10
95.93591177738119
 20
258.40714817880581
 40
1.0
  0
CIRCLE
  5
BE
100
AcDbEntity
  8
1
  6
CONTINUOUS
 62
             2
100
AcDbCircle
 10
95.93591177738119
 20
289.40714817880558
 40
1.5
  0
CIRCLE
  5
BD
100
AcDbEntity
  8
1
  6
CONTINUOUS
 62
             2
100
AcDbCircle
 10
64.93591177738119
 20
289.40714817880558
 40
1.5
  0
CIRCLE
  5
BC
100
AcDbEntity
  8
1
  6
CONTINUOUS
 62
             2
100
AcDbCircle
 10
64.93590177738128
 20
258.40714817880581
 40
1.5
  0
CIRCLE
  5
BB
100
AcDbEntity
  8
1
  6
CONTINUOUS
 62
             2
100
AcDbCircle
 10
95.93591177738119
 20
258.40714817880581
 40
1.5
  0
CIRCLE
  5
BA
100
AcDbEntity
  8
1
  6
CONTINUOUS
 62
             3
100
AcDbCircle
 10
80.43591177738108
 20
273.90714817880558
 40
15.0
  0
CIRCLE
  5
B9
100
AcDbEntity
  8
1
  6
CONTINUOUS
 62
             3
100
AcDbCircle
 10
80.43591177738108
 20
273.90714817880558
 40
15.25191576983013
  0
CIRCLE
  5
B8
100
AcDbEntity
  8
1
  6
CONTINUOUS
 62
             3
100
AcDbCircle
 10
80.43591177738108
 20
273.90714817880558
 40
8.99972871884506
  0
CIRCLE
  5
B7
100
AcDbEntity
  8
1
  6
CONTINUOUS
 62
             3
100
AcDbCircle
 10
80.43591177738108
 20
273.90714817880558
 40
4.5
  0
CIRCLE
  5
B6
100
AcDbEntity
  8
1
  6
CONTINUOUS
 62
             3
100
AcDbCircle
 10
80.43591177738108
 20
273.90714817880558
 40
4.69999999999942
  0
CIRCLE
  5
B5
100
AcDbEntity
  8
1
  6
CONTINUOUS
 62
             3
100
AcDbCircle
 10
80.43591177738108
 20
273.90714817880558
 40
11.0
  0
CIRCLE
  5
B4
100
AcDbEntity
  8
1
  6
CONTINUOUS
 62
             3
100
AcDbCircle
 10
80.43591177738108
 20
273.90714817880558
 40
11.0
  0
CIRCLE
  5
B3
100
AcDbEntity
  8
1
  6
CONTINUOUS
 62
             3
100
AcDbCircle
 10
80.43591177738108
 20
273.90714817880558
 40
10.5
  0
CIRCLE
  5
B2
100
AcDbEntity
  8
1
  6
CONTINUOUS
 62
             3
100
AcDbCircle
 10
80.43591177738108
 20
273.90714817880558
 40
12.21961524227112
  0
CIRCLE
  5
B1
100
AcDbEntity
  8
1
  6
CONTINUOUS
 62
             3
100
AcDbCircle
 10
80.43591177738108
 20
273.90714817880558
 40
11.7000000000001
  0
CIRCLE
  5
B0
100
AcDbEntity
  8
1
  6
CONTINUOUS
 62
             3
100
AcDbCircle
 10
80.43591177738108
 20
273.90714817880558
 40
2.49999999999989
  0
ARC
  5
AF
100
AcDbEntity
  8
1
  6
CONTINUOUS
 62
             3
100
AcDbCircle
 10
239.8374379721435
 20
293.90714817880558
 40
1.0
100
AcDbArc
 50
0.0
 51
90.0
  0
ARC
  5
AE
100
AcDbEntity
  8
1
  6
CONTINUOUS
 62
             3
100
AcDbCircle
 10
64.06181294322937
 20
250.0689128846881
 40
2.85143987181234
100
AcDbArc
 50
27.10454653483111
 51
84.48385698171869
  0
ARC
  5
AD
100
AcDbEntity
  8
1
  6
CONTINUOUS
 62
             3
100
AcDbCircle
 10
96.81000910441799
 20
250.0689128846881
 40
2.85143987181229
100
AcDbArc
 50
95.51614301828018
 51
152.89545346516863
  0
ARC
  5
AC
100
AcDbEntity
  8
1
  6
CONTINUOUS
 62
             3
100
AcDbCircle
 10
80.43591177738108
 20
273.90714817880558
 40
5.999691753028
100
AcDbArc
 50
-82.81986083958118
 51
-7.19104784555467
  0
ARC
  5
AB
100
AcDbEntity
  8
1
  6
CONTINUOUS
 62
             3
100
AcDbCircle
 10
80.43591177738108
 20
273.90714817880558
 40
5.99969175302765
100
AcDbArc
 50
-172.81986083958375
 51
-97.1910478455665
  0
ARC
  5
AA
100
AcDbEntity
  8
1
  6
CONTINUOUS
 62
             3
100
AcDbCircle
 10
80.43591177738108
 20
273.90714817880558
 40
5.999691753027
100
AcDbArc
 50
97.18013916041676
 51
172.80895215444195
  0
ARC
  5
A9
100
AcDbEntity
  8
1
  6
CONTINUOUS
 62
             3
100
AcDbCircle
 10
80.43591177738108
 20
273.90714817880558
 40
5.99969175302678
100
AcDbArc
 50
7.18013916040854
 51
82.80895215444187
  0
ARC
  5
A8
100
AcDbEntity
  8
1
  6
CONTINUOUS
 62
             3
100
AcDbCircle
 10
80.43591177738108
 20
273.90714817880558
 40
8.99972871884506
100
AcDbArc
 50
13.01676499027872
 51
77.32542857058225
  0
ARC
  5
A7
100
AcDbEntity
  8
1
  6
CONTINUOUS
 62
             3
100
AcDbCircle
 10
80.43591177738108
 20
273.90714817880558
 40
8.99972871884495
100
AcDbArc
 50
-76.98323500972094
 51
-12.67457142941455
  0
ARC
  5
A6
100
AcDbEntity
  8
1
  6
CONTINUOUS
 62
             3
100
AcDbCircle
 10
80.43591177738108
 20
273.90714817880558
 40
8.99972871884598
100
AcDbArc
 50
-166.98323500971671
 51
-102.67457142941596
  0
ARC
  5
A5
100
AcDbEntity
  8
1
  6
CONTINUOUS
 62
             3
100
AcDbCircle
 10
80.43591177738108
 20
273.90714817880558
 40
8.9997287188451
100
AcDbArc
 50
103.01676499027663
 51
167.32542857058348
  0
ARC
  5
A4
100
AcDbEntity
  8
1
  6
CONTINUOUS
 62
             3
100
AcDbCircle
 10
80.43591177738108
 20
273.90714817880558
 40
4.69999999999922
100
AcDbArc
 50
0.0
 51
6.72022296018744
  0
ARC
  5
A3
100
AcDbEntity
  8
1
  6
CONTINUOUS
 62
             3
100
AcDbCircle
 10
80.43591177738108
 20
273.90714817880558
 40
4.69999999999938
100
AcDbArc
 50
-6.72022296018469
 51
0.0
  0
ARC
  5
A2
100
AcDbEntity
  8
1
  6
CONTINUOUS
 62
             3
100
AcDbCircle
 10
80.43591177738108
 20
273.90714817880558
 40
4.69999999999987
100
AcDbArc
 50
-90.0
 51
-83.27977703981499
  0
ARC
  5
A1
100
AcDbEntity
  8
1
  6
CONTINUOUS
 62
             3
100
AcDbCircle
 10
80.43591177738108
 20
273.90714817880558
 40
4.70000000000022
100
AcDbArc
 50
-96.72022296019431
 51
-90.0
  0
ARC
  5
A0
100
AcDbEntity
  8
1
  6
CONTINUOUS
 62
             3
100
AcDbCircle
 10
80.43591177738108
 20
273.90714817880558
 40
5.4163170886198
100
AcDbArc
 50
7.96367922423285
 51
82.02964145417394
  0
ARC
  5
9F
100
AcDbEntity
  8
1
  6
CONTINUOUS
 62
             3
100
AcDbCircle
 10
80.43591177738108
 20
273.90714817880558
 40
5.41631708861987
100
AcDbArc
 50
97.96367922423124
 51
172.036320775767
  0
ARC
  5
9E
100
AcDbEntity
  8
1
  6
CONTINUOUS
 62
             3
100
AcDbCircle
 10
80.43591177738108
 20
273.90714817880558
 40
5.41631708861967
100
AcDbArc
 50
-172.03632077576879
 51
-97.96367922423949
  0
ARC
  5
9D
100
AcDbEntity
  8
1
  6
CONTINUOUS
 62
             3
100
AcDbCircle
 10
80.43591177738108
 20
273.90714817880558
 40
5.41631708861951
100
AcDbArc
 50
-82.03632077577885
 51
-7.9636792242406
  0
LINE
  5
9C
100
AcDbEntity
  8
1
  6
CONTINUOUS
 62
             3
100
AcDbLine
 10
183.2374383451002
 20
275.90714817880558
 11
183.23742032645649
 21
271.675097044891
  0
LINE
  5
9B
100
AcDbEntity
  8
1
  6
CONTINUOUS
 62
             3
100
AcDbLine
 10
184.23743956306291
 20
271.40714817880558
 11
201.2373691085071
 21
271.40714817880558
  0
LINE
  5
9A
100
AcDbEntity
  8
1
  6
CONTINUOUS
 62
             3
100
AcDbLine
 10
184.23743956306291
 20
275.90714817880558
 11
184.23743956306291
 21
271.40714817880558
  0
LINE
  5
99
100
AcDbEntity
  8
1
  6
CONTINUOUS
 62
             3
100
AcDbLine
 10
183.23742032645649
 20
271.675097044891
 11
184.2374191085174
 21
271.40714817880558
  0
LINE
  5
98
100
AcDbEntity
  8
1
  6
CONTINUOUS
 62
             3
100
AcDbLine
 10
183.2374383451002
 20
275.90714817880558
 11
184.23743956306291
 21
275.90714817880558
  0
LINE
  5
97
100
AcDbEntity
  8
1
  6
LONG_DASHED
 62
             2
100
AcDbLine
 10
91.6359117773809
 20
248.35714817880569
 11
92.28591177738099
 21
247.00714817880581
  0
LINE
  5
96
100
AcDbEntity
  8
1
  6
LONG_DASHED
 62
             2
100
AcDbLine
 10
92.28591177738099
 20
246.4071481788059
 11
92.28591177738099
 21
247.00714817880581
  0
LINE
  5
95
100
AcDbEntity
  8
1
  6
DASHED
 62
             2
100
AcDbLine
 10
81.73591177738109
 20
246.4071481788059
 11
81.73591177738069
 21
237.89178987601571
  0
LINE
  5
94
100
AcDbEntity
  8
1
  6
DASHED
 62
             2
100
AcDbLine
 10
83.03591177738099
 20
246.4071481788059
 11
83.03591177738099
 21
237.89178987601571
  0
LINE
  5
93
100
AcDbEntity
  8
1
  6
DASHED
 62
             2
100
AcDbLine
 10
87.03591177738099
 20
246.4071481788059
 11
87.03591177738099
 21
237.89178987601571
  0
LINE
  5
92
100
AcDbEntity
  8
1
  6
DASHED
 62
             2
100
AcDbLine
 10
85.73591177738109
 20
246.4071481788059
 11
85.73591177738109
 21
237.89178987601571
  0
LINE
  5
91
100
AcDbEntity
  8
1
  6
DASHED
 62
             2
100
AcDbLine
 10
79.03591177738099
 20
237.89178987601571
 11
79.03591177738099
 21
246.4071481788059
  0
LINE
  5
90
100
AcDbEntity
  8
1
  6
DASHED
 62
             2
100
AcDbLine
 10
77.73591177738109
 20
246.4071481788059
 11
77.73591177738109
 21
237.89178987601571
  0
LINE
  5
8F
100
AcDbEntity
  8
1
  6
DASHED
 62
             2
100
AcDbLine
 10
73.73591177738109
 20
246.4071481788059
 11
73.73591177738109
 21
237.89178987601571
  0
LINE
  5
8E
100
AcDbEntity
  8
1
  6
DASHED
 62
             2
100
AcDbLine
 10
75.03591177738099
 20
237.89178987601571
 11
75.03591177738099
 21
246.4071481788059
  0
LINE
  5
8D
100
AcDbEntity
  8
1
  6
LONG_DASHED
 62
             2
100
AcDbLine
 10
68.48591177738121
 20
246.4071481788059
 11
68.48591177738121
 21
247.00714817880581
  0
LINE
  5
8C
100
AcDbEntity
  8
1
  6
LONG_DASHED
 62
             2
100
AcDbLine
 10
69.23591177738121
 20
248.35714817880569
 11
68.48591177738121
 21
247.00714817880581
  0
LINE
  5
8B
100
AcDbEntity
  8
1
  6
LONG_DASHED
 62
             2
100
AcDbLine
 10
92.28591177738099
 20
246.4071481788059
 11
68.48591177738121
 21
246.4071481788059
  0
LINE
  5
8A
100
AcDbEntity
  8
1
  6
CONTINUOUS
 62
             3
100
AcDbLine
 10
64.43590149048708
 20
252.90715909256519
 11
96.4359103025493
 21
252.90714965363799
  0
LINE
  5
89
100
AcDbEntity
  8
1
  6
CONTINUOUS
 62
             3
100
AcDbLine
 10
203.2374304721435
 20
293.90714817880558
 11
203.2374304721435
 21
253.9071485745844
  0
LINE
  5
88
100
AcDbEntity
  8
1
  6
CONTINUOUS
 62
             3
100
AcDbLine
 10
211.13743047214351
 20
258.90724817880567
 11
211.13743047214351
 21
288.90714817880558
  0
LINE
  5
87
100
AcDbEntity
  8
1
  6
CONTINUOUS
 62
             3
100
AcDbLine
 10
229.13743797214349
 20
288.90714817880558
 11
229.13743797214349
 21
258.90714817880581
  0
LINE
  5
86
100
AcDbEntity
  8
1
  6
CONTINUOUS
 62
             3
100
AcDbLine
 10
59.4359029653192
 20
257.90716028338471
 11
59.43591058656187
 21
289.90714936962507
  0
LINE
  5
85
100
AcDbEntity
  8
1
  6
CONTINUOUS
 62
             3
100
AcDbLine
 10
67.44235593722539
 20
250.90714817880581
 11
67.48591177738121
 21
250.90714817880581
  0
LINE
  5
84
100
AcDbEntity
  8
1
  6
CONTINUOUS
 62
             3
100
AcDbLine
 10
204.23743086792209
 20
252.9071485745844
 11
229.13743797214349
 21
252.90715842946921
  0
LINE
  5
83
100
AcDbEntity
  8
1
  6
CONTINUOUS
 62
             3
100
AcDbLine
 10
204.2374304721435
 20
294.90714817880558
 11
239.8374379721435
 21
294.90714817880558
  0
LINE
  5
82
100
AcDbEntity
  8
4
  6
CONTINUOUS
 62
             2
100
AcDbLine
 10
228.3374379721435
 20
285.21634817880567
 11
228.3374379721435
 21
294.90714817880558
  0
LINE
  5
81
100
AcDbEntity
  8
4
  6
CONTINUOUS
 62
             2
100
AcDbLine
 10
227.53743797214349
 20
286.48614817880548
 11
227.53743797214349
 21
294.90714817880558
  0
LINE
  5
80
100
AcDbEntity
  8
4
  6
CONTINUOUS
 62
             2
100
AcDbLine
 10
226.73743797214351
 20
287.75594817880562
 11
226.73743797214351
 21
294.90714817880558
  0
LINE
  5
7F
100
AcDbEntity
  8
4
  6
CONTINUOUS
 62
             2
100
AcDbLine
 10
225.93743797214341
 20
289.02574817880549
 11
225.93743797214341
 21
294.90714817880558
  0
LINE
  5
7E
100
AcDbEntity
  8
4
  6
CONTINUOUS
 62
             2
100
AcDbLine
 10
225.13743797214349
 20
290.29554817880557
 11
225.13743797214349
 21
294.90714817880558
  0
LINE
  5
7D
100
AcDbEntity
  8
4
  6
CONTINUOUS
 62
             2
100
AcDbLine
 10
224.3374379721435
 20
291.5652481788058
 11
224.3374379721435
 21
294.90714817880558
  0
LINE
  5
7C
100
AcDbEntity
  8
4
  6
CONTINUOUS
 62
             2
100
AcDbLine
 10
211.93733047214349
 20
262.5978481788058
 11
211.93733047214349
 21
252.90704817880561
  0
LINE
  5
7B
100
AcDbEntity
  8
4
  6
CONTINUOUS
 62
             2
100
AcDbLine
 10
212.7373304721435
 20
261.32804817880577
 11
212.7373304721435
 21
252.90704817880561
  0
LINE
  5
7A
100
AcDbEntity
  8
4
  6
CONTINUOUS
 62
             2
100
AcDbLine
 10
213.53733047214351
 20
260.05824817880568
 11
213.53733047214351
 21
252.90704817880561
  0
LINE
  5
79
100
AcDbEntity
  8
4
  6
CONTINUOUS
 62
             2
100
AcDbLine
 10
214.33733047214349
 20
258.78844817880571
 11
214.33733047214349
 21
252.90704817880561
  0
LINE
  5
78
100
AcDbEntity
  8
4
  6
CONTINUOUS
 62
             2
100
AcDbLine
 10
215.1373304721435
 20
257.51874817880548
 11
215.1373304721435
 21
252.90704817880561
  0
LINE
  5
77
100
AcDbEntity
  8
4
  6
CONTINUOUS
 62
             2
100
AcDbLine
 10
215.93733047214349
 20
256.24894817880568
 11
215.93733047214349
 21
252.90704817880561
  0
LINE
  5
76
100
AcDbEntity
  8
2
  6
CONTINUOUS
 62
             1
100
AcDbLine
 10
80.43591177738119
 20
244.71539589453269
 11
80.43591177738119
 21
298.90714817880558
  0
LINE
  5
75
100
AcDbEntity
  8
2
  6
CONTINUOUS
 62
             1
100
AcDbLine
 10
53.51443177738128
 20
273.90714817880558
 11
106.9354117773812
 21
273.90714817880558
  0
LINE
  5
74
100
AcDbEntity
  8
2
  6
CONTINUOUS
 62
             1
100
AcDbLine
 10
93.43591177738119
 20
289.40714817880558
 11
98.43591177738128
 21
289.40714817880558
  0
LINE
  5
73
100
AcDbEntity
  8
2
  6
CONTINUOUS
 62
             1
100
AcDbLine
 10
95.93591177738119
 20
286.90714817880558
 11
95.93591177738119
 21
291.90714817880558
  0
LINE
  5
72
100
AcDbEntity
  8
2
  6
CONTINUOUS
 62
             1
100
AcDbLine
 10
64.93592177738117
 20
286.90714817880558
 11
64.93592177738117
 21
291.90714817880558
  0
LINE
  5
71
100
AcDbEntity
  8
2
  6
CONTINUOUS
 62
             1
100
AcDbLine
 10
67.43591177738119
 20
289.40714817880558
 11
62.43591177738119
 21
289.40714817880558
  0
LINE
  5
70
100
AcDbEntity
  8
2
  6
CONTINUOUS
 62
             1
100
AcDbLine
 10
67.43591177738119
 20
258.40714817880581
 11
62.43591177738119
 21
258.40714817880581
  0
LINE
  5
6F
100
AcDbEntity
  8
2
  6
CONTINUOUS
 62
             1
100
AcDbLine
 10
64.93590177738128
 20
260.90714817880581
 11
64.93590177738128
 21
255.90714817880581
  0
LINE
  5
6E
100
AcDbEntity
  8
2
  6
CONTINUOUS
 62
             1
100
AcDbLine
 10
95.93591177738119
 20
260.90714817880581
 11
95.93591177738119
 21
255.90714817880581
  0
LINE
  5
6D
100
AcDbEntity
  8
2
  6
CONTINUOUS
 62
             1
100
AcDbLine
 10
93.43591177738128
 20
258.40714817880581
 11
98.43591177738128
 21
258.40714817880581
  0
LINE
  5
6C
100
AcDbEntity
  8
1
  6
CONTINUOUS
 62
             3
100
AcDbLine
 10
211.13743047214351
 20
258.90724817880567
 11
229.13743797214349
 21
258.90714817880581
  0
LINE
  5
6B
100
AcDbEntity
  8
1
  6
CONTINUOUS
 62
             3
100
AcDbLine
 10
211.13743047214351
 20
288.90714817880558
 11
229.13743797214349
 21
288.90714817880558
  0
LINE
  5
6A
100
AcDbEntity
  8
1
  6
CONTINUOUS
 62
             3
100
AcDbLine
 10
203.2374304721435
 20
293.90714817880558
 11
203.2374304721435
 21
293.53813988837408
  0
LINE
  5
69
100
AcDbEntity
  8
1
  6
CONTINUOUS
 62
             3
100
AcDbLine
 10
229.72853897738759
 20
296.0883563223378
 11
239.83743897738771
 21
296.0883563223378
  0
LINE
  5
68
100
AcDbEntity
  8
1
  6
CONTINUOUS
 62
             3
100
AcDbLine
 10
96.43591177738119
 20
294.90714817880558
 11
64.43591058656182
 21
294.90714817880558
  0
LINE
  5
67
100
AcDbEntity
  8
1
  6
CONTINUOUS
 62
             3
100
AcDbLine
 10
101.43591177738131
 20
257.90714965363787
 11
101.43591177738119
 21
289.90714817880558
  0
LINE
  5
66
100
AcDbEntity
  8
1
  6
CONTINUOUS
 62
             3
100
AcDbLine
 10
68.43591177738119
 20
295.90714817880558
 11
92.43591177738119
 21
295.90714817880558
  0
LINE
  5
65
100
AcDbEntity
  8
1
  6
CONTINUOUS
 62
             3
100
AcDbLine
 10
211.13743047214351
 20
288.90714817880558
 11
211.13743047214359
 21
294.90714817880558
  0
LINE
  5
64
100
AcDbEntity
  8
1
  6
CONTINUOUS
 62
             3
100
AcDbLine
 10
229.13743797214349
 20
288.90714817880558
 11
229.13743797214349
 21
294.90714817880558
  0
LINE
  5
63
100
AcDbEntity
  8
1
  6
CONTINUOUS
 62
             3
100
AcDbLine
 10
211.13743047214351
 20
258.90724817880567
 11
211.1373304721435
 21
252.90714817880581
  0
LINE
  5
62
100
AcDbEntity
  8
1
  6
CONTINUOUS
 62
             3
100
AcDbLine
 10
240.8374379721435
 20
293.90714817880558
 11
240.83742297214349
 21
253.90714817880581
  0
LINE
  5
61
100
AcDbEntity
  8
1
  6
CONTINUOUS
 62
             1
100
AcDbLine
 10
179.4968477799512
 20
273.90714817880558
 11
243.23733797214351
 21
273.90714817880558
  0
LINE
  5
60
100
AcDbEntity
  8
1
  6
CONTINUOUS
 62
             3
100
AcDbLine
 10
229.13743797214349
 20
250.90714817880581
 11
229.13743797214349
 21
258.90714817880581
  0
LINE
  5
5F
100
AcDbEntity
  8
1
  6
CONTINUOUS
 62
             3
100
AcDbLine
 10
229.13743797214349
 20
250.90714817880581
 11
239.83742647014279
 21
250.90714817880581
  0
LINE
  5
5E
100
AcDbEntity
  8
1
  6
CONTINUOUS
 62
             3
100
AcDbLine
 10
240.83742647014111
 20
251.9071499278061
 11
240.83742297214349
 21
253.90714817880581
  0
LINE
  5
5D
100
AcDbEntity
  8
1
  6
CONTINUOUS
 62
             3
100
AcDbLine
 10
229.13743797214349
 20
250.90714817880581
 11
229.13743797214349
 21
249.35714817880569
  0
LINE
  5
5C
100
AcDbEntity
  8
1
  6
CONTINUOUS
 62
             3
100
AcDbLine
 10
229.13743797214349
 20
249.35714817880569
 11
234.53743797214349
 21
249.35714817880569
  0
LINE
  5
5B
100
AcDbEntity
  8
1
  6
CONTINUOUS
 62
             3
100
AcDbLine
 10
234.53743797214349
 20
249.35714817880569
 11
234.53743797214349
 21
250.90714817880581
  0
LINE
  5
5A
100
AcDbEntity
  8
1
  6
CONTINUOUS
 62
             3
100
AcDbLine
 10
233.93743797214341
 20
249.35714817880569
 11
233.93743797214341
 21
248.35714817880569
  0
LINE
  5
59
100
AcDbEntity
  8
1
  6
CONTINUOUS
 62
             3
100
AcDbLine
 10
233.93743797214341
 20
248.35714817880569
 11
229.13743797214349
 21
248.35714817880569
  0
LINE
  5
58
100
AcDbEntity
  8
1
  6
CONTINUOUS
 62
             3
100
AcDbLine
 10
229.13743797214349
 20
248.35714817880569
 11
229.13743797214349
 21
249.35714817880569
  0
LINE
  5
57
100
AcDbEntity
  8
1
  6
CONTINUOUS
 62
             3
100
AcDbLine
 10
67.78591177738127
 20
251.20714817880571
 11
67.78591177738127
 21
252.90714817880581
  0
LINE
  5
56
100
AcDbEntity
  8
1
  6
CONTINUOUS
 62
             3
100
AcDbLine
 10
93.0859117773812
 20
252.90714817880581
 11
93.0859117773812
 21
251.20714817880571
  0
LINE
  5
55
100
AcDbEntity
  8
1
  6
CONTINUOUS
 62
             3
100
AcDbLine
 10
93.38591177738118
 20
250.90714817880581
 11
93.429466110422
 21
250.90714817880581
  0
LINE
  5
54
100
AcDbEntity
  8
1
  6
CONTINUOUS
 62
             3
100
AcDbLine
 10
67.93591177738119
 20
249.35714817880569
 11
67.93591177738119
 21
252.90714817880581
  0
LINE
  5
53
100
AcDbEntity
  8
1
  6
CONTINUOUS
 62
             3
100
AcDbLine
 10
92.93591177738119
 20
249.35714817880569
 11
92.93591177738119
 21
252.90714817880581
  0
LINE
  5
52
100
AcDbEntity
  8
1
  6
CONTINUOUS
 62
             3
100
AcDbLine
 10
67.93591177738119
 20
249.35714817880569
 11
68.43591177738119
 21
249.35714817880569
  0
LINE
  5
51
100
AcDbEntity
  8
1
  6
CONTINUOUS
 62
             3
100
AcDbLine
 10
68.43591177738119
 20
249.35714817880569
 11
68.43591177738119
 21
252.90714817880581
  0
LINE
  5
50
100
AcDbEntity
  8
1
  6
CONTINUOUS
 62
             3
100
AcDbLine
 10
92.43591177738119
 20
252.90714817880581
 11
92.43591177738119
 21
249.35714817880569
  0
LINE
  5
4F
100
AcDbEntity
  8
1
  6
CONTINUOUS
 62
             3
100
AcDbLine
 10
92.43591177738119
 20
249.35714817880569
 11
92.93591177738119
 21
249.35714817880569
  0
LINE
  5
4E
100
AcDbEntity
  8
1
  6
CONTINUOUS
 62
             3
100
AcDbLine
 10
68.48591177738121
 20
248.35714817880569
 11
68.48591177738121
 21
252.90714817880581
  0
LINE
  5
4D
100
AcDbEntity
  8
1
  6
CONTINUOUS
 62
             3
100
AcDbLine
 10
92.38591177738118
 20
248.35714817880569
 11
92.38591177738118
 21
252.90714817880581
  0
LINE
  5
4C
100
AcDbEntity
  8
1
  6
CONTINUOUS
 62
             3
100
AcDbLine
 10
68.48591177738121
 20
248.35714817880569
 11
92.38591177738118
 21
248.35714817880569
  0
LINE
  5
4B
100
AcDbEntity
  8
1
  6
CONTINUOUS
 62
             3
100
AcDbLine
 10
71.48591177738121
 20
252.90714817880581
 11
71.48591177738121
 21
248.35714817880569
  0
LINE
  5
4A
100
AcDbEntity
  8
1
  6
CONTINUOUS
 62
             3
100
AcDbLine
 10
89.38591177738118
 20
252.90714817880581
 11
89.38591177738118
 21
248.35714817880569
  0
LINE
  5
49
100
AcDbEntity
  8
1
  6
CONTINUOUS
 62
             3
100
AcDbLine
 10
69.03591177738127
 20
252.90714817880581
 11
69.03591177738127
 21
250.25714817880569
  0
LINE
  5
48
100
AcDbEntity
  8
1
  6
CONTINUOUS
 62
             3
100
AcDbLine
 10
69.03591177738127
 20
250.25714817880569
 11
70.03591177738127
 21
250.25714817880569
  0
LINE
  5
47
100
AcDbEntity
  8
1
  6
CONTINUOUS
 62
             3
100
AcDbLine
 10
70.03591177738127
 20
250.25714817880569
 11
70.03591177738127
 21
252.90714817880581
  0
LINE
  5
46
100
AcDbEntity
  8
1
  6
CONTINUOUS
 62
             3
100
AcDbLine
 10
91.8359117773812
 20
252.90714817880581
 11
91.8359117773812
 21
250.25714817880569
  0
LINE
  5
45
100
AcDbEntity
  8
1
  6
CONTINUOUS
 62
             3
100
AcDbLine
 10
91.8359117773812
 20
250.25714817880569
 11
90.8359117773812
 21
250.25714817880569
  0
LINE
  5
44
100
AcDbEntity
  8
1
  6
CONTINUOUS
 62
             3
100
AcDbLine
 10
90.8359117773812
 20
250.25714817880569
 11
90.8359117773812
 21
252.90714817880581
  0
LINE
  5
43
100
AcDbEntity
  8
1
  6
CONTINUOUS
 62
             3
100
AcDbLine
 10
93.429466110422
 20
250.90714817880581
 11
92.93591177738119
 21
250.90714817880581
  0
LINE
  5
42
100
AcDbEntity
  8
1
  6
CONTINUOUS
 62
             3
100
AcDbLine
 10
67.93591177738119
 20
250.90714817880581
 11
67.44235593722539
 21
250.90714817880581
  0
LINE
  5
41
100
AcDbEntity
  8
1
  6
CONTINUOUS
 62
             3
100
AcDbLine
 10
81.1858091838113
 20
279.85979087017972
 11
81.18694250857411
 21
278.54675514931472
  0
LINE
  5
40
100
AcDbEntity
  8
1
  6
CONTINUOUS
 62
             3
100
AcDbLine
 10
88.8440955969632
 20
275.3250420242457
 11
86.3885544687551
 21
274.65704558523458
  0
LINE
  5
3F
100
AcDbEntity
  8
1
  6
CONTINUOUS
 62
             3
100
AcDbLine
 10
86.3885544687551
 20
273.15725077237568
 11
88.8440955969632
 21
272.48925433336581
  0
LINE
  5
3E
100
AcDbEntity
  8
1
  6
CONTINUOUS
 62
             3
100
AcDbLine
 10
81.85380562282109
 20
265.49896435922358
 11
81.1858091838113
 21
267.95450548743048
  0
LINE
  5
3D
100
AcDbEntity
  8
1
  6
CONTINUOUS
 62
             3
100
AcDbLine
 10
79.68601437095009
 20
267.95450548743048
 11
79.01801793194008
 21
265.49896435922358
  0
LINE
  5
3C
100
AcDbEntity
  8
1
  6
CONTINUOUS
 62
             3
100
AcDbLine
 10
72.02772795779907
 20
272.48925433336581
 11
74.48326908600629
 21
273.15725077237568
  0
LINE
  5
3B
100
AcDbEntity
  8
1
  6
CONTINUOUS
 62
             3
100
AcDbLine
 10
74.48326908600629
 20
274.65704558523561
 11
72.02772795779907
 21
275.3250420242457
  0
LINE
  5
3A
100
AcDbEntity
  8
1
  6
CONTINUOUS
 62
             3
100
AcDbLine
 10
79.01801793194008
 20
282.31533199838782
 11
79.6860143709512
 21
279.85979087017972
  0
LINE
  5
39
100
AcDbEntity
  8
1
  6
CONTINUOUS
 62
             3
100
AcDbLine
 10
81.1858091838113
 20
279.85979087017972
 11
81.85380562282109
 21
282.31533199838782
  0
LINE
  5
38
100
AcDbEntity
  8
1
  6
CONTINUOUS
 62
             3
100
AcDbLine
 10
79.68488104618709
 20
278.54675514931472
 11
79.6860143709512
 21
279.85979087017972
  0
LINE
  5
37
100
AcDbEntity
  8
1
  6
CONTINUOUS
 62
             3
100
AcDbLine
 10
75.7963048068701
 20
273.15611744761162
 11
74.48326908600629
 21
273.15725077237568
  0
LINE
  5
36
100
AcDbEntity
  8
1
  6
CONTINUOUS
 62
             3
100
AcDbLine
 10
74.48326908600629
 20
274.65704558523561
 11
75.7963048068701
 21
274.65817890999858
  0
LINE
  5
35
100
AcDbEntity
  8
1
  6
CONTINUOUS
 62
             3
100
AcDbLine
 10
79.68601437095009
 20
267.95450548743048
 11
79.68488104618709
 21
269.26754120829582
  0
LINE
  5
34
100
AcDbEntity
  8
1
  6
CONTINUOUS
 62
             3
100
AcDbLine
 10
81.18694250857411
 20
269.26754120829582
 11
81.1858091838113
 21
267.95450548743048
  0
LINE
  5
33
100
AcDbEntity
  8
1
  6
CONTINUOUS
 62
             3
100
AcDbLine
 10
86.3885544687551
 20
273.15725077237568
 11
85.07551874789019
 21
273.15611744761162
  0
LINE
  5
32
100
AcDbEntity
  8
1
  6
CONTINUOUS
 62
             3
100
AcDbLine
 10
85.07551874789019
 20
274.65817890999858
 11
86.3885544687551
 21
274.65704558523458
  0
LINE
  5
31
100
AcDbEntity
  8
1
  6
CONTINUOUS
 62
             3
100
AcDbLine
 10
198.2374304721435
 20
276.40714817880558
 11
198.2374304721435
 21
275.90714817880558
  0
LINE
  5
30
100
AcDbEntity
  8
1
  6
CONTINUOUS
 62
             3
100
AcDbLine
 10
198.2374304721435
 20
275.90714817880558
 11
184.23743956306291
 21
275.90714817880558
  0
LINE
  5
2F
100
AcDbEntity
  8
1
  6
CONTINUOUS
 62
             3
100
AcDbLine
 10
198.2374304721435
 20
276.40714817880558
 11
201.2373918357799
 21
276.40714817880558
  0
LINE
  5
2E
100
AcDbEntity
  8
1
  6
CONTINUOUS
 62
             3
100
AcDbLine
 10
78.93591177738128
 20
275.90714817880558
 11
81.93591177738088
 21
275.90714817880558
  0
LINE
  5
2D
100
AcDbEntity
  8
1
  6
CONTINUOUS
 62
             3
100
AcDbLine
 10
201.2374304721435
 20
284.90714817880558
 11
201.2374304721435
 21
284.9070201892257
  0
LINE
  5
2C
100
AcDbEntity
  8
1
  6
CONTINUOUS
 62
             3
100
AcDbLine
 10
203.2374304721435
 20
284.90714817880558
 11
201.2374304721435
 21
284.90714817880558
  0
LINE
  5
2B
100
AcDbEntity
  8
1
  6
CONTINUOUS
 62
             3
100
AcDbLine
 10
201.2374304721435
 20
284.90714817880558
 11
201.2374304721435
 21
262.90714817880581
  0
LINE
  5
2A
100
AcDbEntity
  8
1
  6
CONTINUOUS
 62
             3
100
AcDbLine
 10
201.2374304721435
 20
262.90714817880581
 11
203.2374304721435
 21
262.90714817880581
  0
ENDSEC
  0
SECTION
  2
OBJECTS
  0
DICTIONARY
  5
19
100
AcDbDictionary
  3
ACAD_GROUP
350
1A
  3
ACAD_MLINESTYLE
350
1B
  0
DICTIONARY
  5
1A
102
{ACAD_REACTORS
330
19
102
}
100
AcDbDictionary
  0
DICTIONARY
  5
1B
102
{ACAD_REACTORS
330
19
102
}
100
AcDbDictionary
  3
STANDARD
350
1C
  0
MLINESTYLE
  5
1C
102
{ACAD_REACTORS
330
1B
102
}
100
AcDbMlineStyle
  2
STANDARD
 70
             0
  3

 62
             0
 51
90.0
 52
90.0
 71
             2
 49
0.5
 62
           256
  6
BYLAYER
 49
-0.5
 62
           256
  6
BYLAYER
  0
ENDSEC
  0
EOF
