  0
SECTION
  2
HEADER
  9
$ACADVER
  1
AC1015
  9
$ACADMAINTVER
 70
     6
  9
$DWGCODEPAGE
  3
ANSI_1252
  9
$INSBASE
 10
0.0
 20
0.0
 30
0.0
  9
$EXTMIN
 10
-347.009433055144
 20
74.76098474391286
 30
0.0
  9
$EXTMAX
 10
-123.395750306887
 20
220.58008191821
 30
0.0
  9
$LIMMIN
 10
0.0
 20
0.0
  9
$LIMMAX
 10
12.0
 20
9.0
  9
$ORTHOMODE
 70
     0
  9
$REGENMODE
 70
     1
  9
$FILLMODE
 70
     1
  9
$QTEXTMODE
 70
     0
  9
$MIRRTEXT
 70
     1
  9
$LTSCALE
 40
1.0
  9
$ATTMODE
 70
     1
  9
$TEXTSIZE
 40
0.2
  9
$TRACEWID
 40
0.05
  9
$TEXTSTYLE
  7
Standard
  9
$CLAYER
  8
0
  9
$CELTYPE
  6
ByLayer
  9
$CECOLOR
 62
   256
  9
$CELTSCALE
 40
1.0
  9
$DISPSILH
 70
     0
  9
$DIMSCALE
 40
1.0
  9
$DIMASZ
 40
0.18
  9
$DIMEXO
 40
0.0625
  9
$DIMDLI
 40
0.38
  9
$DIMRND
 40
0.0
  9
$DIMDLE
 40
0.0
  9
$DIMEXE
 40
0.18
  9
$DIMTP
 40
0.0
  9
$DIMTM
 40
0.0
  9
$DIMTXT
 40
0.18
  9
$DIMCEN
 40
0.09
  9
$DIMTSZ
 40
0.0
  9
$DIMTOL
 70
     0
  9
$DIMLIM
 70
     0
  9
$DIMTIH
 70
     1
  9
$DIMTOH
 70
     1
  9
$DIMSE1
 70
     0
  9
$DIMSE2
 70
     0
  9
$DIMTAD
 70
     0
  9
$DIMZIN
 70
     0
  9
$DIMBLK
  1

  9
$DIMASO
 70
     1
  9
$DIMSHO
 70
     1
  9
$DIMPOST
  1

  9
$DIMAPOST
  1

  9
$DIMALT
 70
     0
  9
$DIMALTD
 70
     2
  9
$DIMALTF
 40
25.4
  9
$DIMLFAC
 40
1.0
  9
$DIMTOFL
 70
     0
  9
$DIMTVP
 40
0.0
  9
$DIMTIX
 70
     0
  9
$DIMSOXD
 70
     0
  9
$DIMSAH
 70
     0
  9
$DIMBLK1
  1

  9
$DIMBLK2
  1

  9
$DIMSTYLE
  2
Standard
  9
$DIMCLRD
 70
     0
  9
$DIMCLRE
 70
     0
  9
$DIMCLRT
 70
     0
  9
$DIMTFAC
 40
1.0
  9
$DIMGAP
 40
0.09
  9
$DIMJUST
 70
     0
  9
$DIMSD1
 70
     0
  9
$DIMSD2
 70
     0
  9
$DIMTOLJ
 70
     1
  9
$DIMTZIN
 70
     0
  9
$DIMALTZ
 70
     0
  9
$DIMALTTZ
 70
     0
  9
$DIMUPT
 70
     0
  9
$DIMDEC
 70
     4
  9
$DIMTDEC
 70
     4
  9
$DIMALTU
 70
     2
  9
$DIMALTTD
 70
     2
  9
$DIMTXSTY
  7
Standard
  9
$DIMAUNIT
 70
     0
  9
$DIMADEC
 70
     0
  9
$DIMALTRND
 40
0.0
  9
$DIMAZIN
 70
     0
  9
$DIMDSEP
 70
    46
  9
$DIMATFIT
 70
     3
  9
$DIMFRAC
 70
     0
  9
$DIMLDRBLK
  1

  9
$DIMLUNIT
 70
     2
  9
$DIMLWD
 70
    -2
  9
$DIMLWE
 70
    -2
  9
$DIMTMOVE
 70
     0
  9
$LUNITS
 70
     2
  9
$LUPREC
 70
     4
  9
$SKETCHINC
 40
0.1
  9
$FILLETRAD
 40
0.5
  9
$AUNITS
 70
     0
  9
$AUPREC
 70
     0
  9
$MENU
  1
.
  9
$ELEVATION
 40
0.0
  9
$PELEVATION
 40
0.0
  9
$THICKNESS
 40
0.0
  9
$LIMCHECK
 70
     0
  9
$CHAMFERA
 40
0.5
  9
$CHAMFERB
 40
0.5
  9
$CHAMFERC
 40
1.0
  9
$CHAMFERD
 40
0.0
  9
$SKPOLY
 70
     0
  9
$TDCREATE
 40
2457273.682363866
  9
$TDUCREATE
 40
2457273.307363866
  9
$TDUPDATE
 40
2457273.682365185
  9
$TDUUPDATE
 40
2457273.307365185
  9
$TDINDWG
 40
0.0000000116
  9
$TDUSRTIMER
 40
0.0000000116
  9
$USRTIMER
 70
     1
  9
$ANGBASE
 50
0.0
  9
$ANGDIR
 70
     0
  9
$PDMODE
 70
     0
  9
$PDSIZE
 40
0.0
  9
$PLINEWID
 40
0.0
  9
$SPLFRAME
 70
     0
  9
$SPLINETYPE
 70
     6
  9
$SPLINESEGS
 70
     8
  9
$HANDSEED
  5
5D7
  9
$SURFTAB1
 70
     6
  9
$SURFTAB2
 70
     6
  9
$SURFTYPE
 70
     6
  9
$SURFU
 70
     6
  9
$SURFV
 70
     6
  9
$UCSBASE
  2

  9
$UCSNAME
  2

  9
$UCSORG
 10
0.0
 20
0.0
 30
0.0
  9
$UCSXDIR
 10
1.0
 20
0.0
 30
0.0
  9
$UCSYDIR
 10
0.0
 20
1.0
 30
0.0
  9
$UCSORTHOREF
  2

  9
$UCSORTHOVIEW
 70
     0
  9
$UCSORGTOP
 10
0.0
 20
0.0
 30
0.0
  9
$UCSORGBOTTOM
 10
0.0
 20
0.0
 30
0.0
  9
$UCSORGLEFT
 10
0.0
 20
0.0
 30
0.0
  9
$UCSORGRIGHT
 10
0.0
 20
0.0
 30
0.0
  9
$UCSORGFRONT
 10
0.0
 20
0.0
 30
0.0
  9
$UCSORGBACK
 10
0.0
 20
0.0
 30
0.0
  9
$PUCSBASE
  2

  9
$PUCSNAME
  2

  9
$PUCSORG
 10
0.0
 20
0.0
 30
0.0
  9
$PUCSXDIR
 10
1.0
 20
0.0
 30
0.0
  9
$PUCSYDIR
 10
0.0
 20
1.0
 30
0.0
  9
$PUCSORTHOREF
  2

  9
$PUCSORTHOVIEW
 70
     0
  9
$PUCSORGTOP
 10
0.0
 20
0.0
 30
0.0
  9
$PUCSORGBOTTOM
 10
0.0
 20
0.0
 30
0.0
  9
$PUCSORGLEFT
 10
0.0
 20
0.0
 30
0.0
  9
$PUCSORGRIGHT
 10
0.0
 20
0.0
 30
0.0
  9
$PUCSORGFRONT
 10
0.0
 20
0.0
 30
0.0
  9
$PUCSORGBACK
 10
0.0
 20
0.0
 30
0.0
  9
$USERI1
 70
     0
  9
$USERI2
 70
     0
  9
$USERI3
 70
     0
  9
$USERI4
 70
     0
  9
$USERI5
 70
     0
  9
$USERR1
 40
18.1
  9
$USERR2
 40
0.0
  9
$USERR3
 40
0.0
  9
$USERR4
 40
0.0
  9
$USERR5
 40
0.0
  9
$WORLDVIEW
 70
     1
  9
$SHADEDGE
 70
     3
  9
$SHADEDIF
 70
    70
  9
$TILEMODE
 70
     1
  9
$MAXACTVP
 70
    64
  9
$PINSBASE
 10
0.0
 20
0.0
 30
0.0
  9
$PLIMCHECK
 70
     0
  9
$PEXTMIN
 10
1.00000000000000E+20
 20
1.00000000000000E+20
 30
1.00000000000000E+20
  9
$PEXTMAX
 10
-1.00000000000000E+20
 20
-1.00000000000000E+20
 30
-1.00000000000000E+20
  9
$PLIMMIN
 10
0.0
 20
0.0
  9
$PLIMMAX
 10
12.0
 20
9.0
  9
$UNITMODE
 70
     0
  9
$VISRETAIN
 70
     1
  9
$PLINEGEN
 70
     0
  9
$PSLTSCALE
 70
     1
  9
$TREEDEPTH
 70
  3020
  9
$CMLSTYLE
  2
Standard
  9
$CMLJUST
 70
     0
  9
$CMLSCALE
 40
1.0
  9
$PROXYGRAPHICS
 70
     1
  9
$MEASUREMENT
 70
     1
  9
$CELWEIGHT
370
    -1
  9
$ENDCAPS
280
     0
  9
$JOINSTYLE
280
     0
  9
$LWDISPLAY
290
     0
  9
$INSUNITS
 70
     4
  9
$HYPERLINKBASE
  1

  9
$STYLESHEET
  1

  9
$XEDIT
290
     1
  9
$CEPSNTYPE
380
     0
  9
$PSTYLEMODE
290
     1
  9
$FINGERPRINTGUID
  2
{21CA9BA9-3EB9-4C83-8BE2-11A509D5095D}
  9
$VERSIONGUID
  2
{FAEB1C32-E019-11D5-929B-00C0DF256EC4}
  9
$EXTNAMES
290
     1
  9
$PSVPSCALE
 40
0.0
  9
$OLESTARTUP
290
     0
  0
ENDSEC
  0
SECTION
  2
CLASSES
  0
CLASS
  1
ACDBDICTIONARYWDFLT
  2
AcDbDictionaryWithDefault
  3
ObjectDBX Classes
 90
        0
280
     0
281
     0
  0
CLASS
  1
VISUALSTYLE
  2
AcDbVisualStyle
  3
ObjectDBX Classes
 90
     4095
280
     0
281
     0
  0
CLASS
  1
MATERIAL
  2
AcDbMaterial
  3
ObjectDBX Classes
 90
     1153
280
     0
281
     0
  0
CLASS
  1
DICTIONARYVAR
  2
AcDbDictionaryVar
  3
ObjectDBX Classes
 90
        0
280
     0
281
     0
  0
CLASS
  1
ACDBPLACEHOLDER
  2
AcDbPlaceHolder
  3
ObjectDBX Classes
 90
        0
280
     0
281
     0
  0
CLASS
  1
LAYOUT
  2
AcDbLayout
  3
ObjectDBX Classes
 90
        0
280
     0
281
     0
  0
ENDSEC
  0
SECTION
  2
TABLES
  0
TABLE
  2
VPORT
  5
8
330
0
100
AcDbSymbolTable
 70
     1
  0
VPORT
  5
29
330
8
100
AcDbSymbolTableRecord
100
AcDbViewportTableRecord
  2
*Active
 70
     0
 10
0.0
 20
0.0
 11
1.0
 21
1.0
 12
-235.2025916810155
 22
147.6705333310614
 13
0.0
 23
0.0
 14
0.5
 24
0.5
 15
0.5
 25
0.5
 16
0.0
 26
0.0
 36
1.0
 17
0.0
 27
0.0
 37
0.0
 40
160.4010068917269
 41
1.60267857142857
 42
50.0
 43
0.0
 44
0.0
 50
0.0
 51
0.0
 71
     0
 72
   100
 73
     1
 74
     3
 75
     0
 76
     0
 77
     0
 78
     0
281
     0
 65
     1
110
0.0
120
0.0
130
0.0
111
1.0
121
0.0
131
0.0
112
0.0
122
1.0
132
0.0
 79
     0
146
0.0
  0
ENDTAB
  0
TABLE
  2
LTYPE
  5
5
330
0
100
AcDbSymbolTable
 70
     8
  0
LTYPE
  5
14
330
5
100
AcDbSymbolTableRecord
100
AcDbLinetypeTableRecord
  2
ByBlock
 70
     0
  3

 72
    65
 73
     0
 40
0.0
  0
LTYPE
  5
15
330
5
100
AcDbSymbolTableRecord
100
AcDbLinetypeTableRecord
  2
ByLayer
 70
     0
  3

 72
    65
 73
     0
 40
0.0
  0
LTYPE
  5
16
330
5
100
AcDbSymbolTableRecord
100
AcDbLinetypeTableRecord
  2
Continuous
 70
     0
  3
Solid line
 72
    65
 73
     0
 40
0.0
  0
LTYPE
  5
3F
330
5
100
AcDbSymbolTableRecord
100
AcDbLinetypeTableRecord
  2
DASHED
 70
     0
  3
Dashed
 72
    65
 73
     2
 40
15.0
 49
7.0
 74
     0
 49
-8.0
 74
     0
  0
LTYPE
  5
40
330
5
100
AcDbSymbolTableRecord
100
AcDbLinetypeTableRecord
  2
DOTTED
 70
     0
  3
Dotted
 72
    65
 73
     2
 40
1.0
 49
0.0
 74
     0
 49
-1.0
 74
     0
  0
LTYPE
  5
41
330
5
100
AcDbSymbolTableRecord
100
AcDbLinetypeTableRecord
  2
DOT_CENTER
 70
     0
  3
Dot_Center
 72
    65
 73
     4
 40
14.0
 49
12.0
 74
     0
 49
-1.0
 74
     0
 49
0.0
 74
     0
 49
-1.0
 74
     0
  0
LTYPE
  5
42
330
5
100
AcDbSymbolTableRecord
100
AcDbLinetypeTableRecord
  2
LONG_DASHED
 70
     0
  3
Long_Dashed
 72
    65
 73
     2
 40
15.0
 49
10.0
 74
     0
 49
-5.0
 74
     0
  0
LTYPE
  5
43
330
5
100
AcDbSymbolTableRecord
100
AcDbLinetypeTableRecord
  2
DASH_CENTER
 70
     0
  3
Dash_Center
 72
    65
 73
     4
 40
14.0
 49
11.0
 74
     0
 49
-1.0
 74
     0
 49
1.0
 74
     0
 49
-1.0
 74
     0
  0
LTYPE
  5
44
330
5
100
AcDbSymbolTableRecord
100
AcDbLinetypeTableRecord
  2
PHANTOM
 70
     0
  3
Phantom
 72
    65
 73
     6
 40
13.0
 49
10.0
 74
     0
 49
-1.0
 74
     0
 49
0.0
 74
     0
 49
-1.0
 74
     0
 49
0.0
 74
     0
 49
-1.0
 74
     0
  0
LTYPE
  5
45
330
5
100
AcDbSymbolTableRecord
100
AcDbLinetypeTableRecord
  2
CENTER_DASH_DASH
 70
     0
  3
Center_Dash_Dash
 72
    65
 73
     6
 40
14.0
 49
9.0
 74
     0
 49
-1.0
 74
     0
 49
1.0
 74
     0
 49
-1.0
 74
     0
 49
1.0
 74
     0
 49
-1.0
 74
     0
  0
ENDTAB
  0
TABLE
  2
LAYER
  5
2
330
0
100
AcDbSymbolTable
 70
     5
  0
LAYER
  5
10
330
2
100
AcDbSymbolTableRecord
100
AcDbLayerTableRecord
  2
0
 70
     0
 62
     7
  6
Continuous
370
    -3
390
F
  0
LAYER
  5
46
330
2
100
AcDbSymbolTableRecord
100
AcDbLayerTableRecord
  2
1
 70
     0
 62
     7
  6
Continuous
370
    -3
390
F
  0
LAYER
  5
47
330
2
100
AcDbSymbolTableRecord
100
AcDbLayerTableRecord
  2
10
 70
     0
 62
     7
  6
Continuous
370
    -3
390
F
  0
LAYER
  5
48
330
2
100
AcDbSymbolTableRecord
100
AcDbLayerTableRecord
  2
2
 70
     0
 62
     7
  6
Continuous
370
    -3
390
F
  0
LAYER
  5
49
330
2
100
AcDbSymbolTableRecord
100
AcDbLayerTableRecord
  2
9
 70
     0
 62
     7
  6
Continuous
370
    -3
390
F
  0
ENDTAB
  0
TABLE
  2
STYLE
  5
3
330
0
100
AcDbSymbolTable
 70
    11
  0
STYLE
  5
11
330
3
100
AcDbSymbolTableRecord
100
AcDbTextStyleTableRecord
  2
Standard
 70
     0
 40
0.0
 41
1.0
 50
0.0
 71
     0
 42
0.2
  3
txt
  4

  0
STYLE
  5
4E3
330
3
100
AcDbSymbolTableRecord
100
AcDbTextStyleTableRecord
  2
CONVERTER_11
 70
     0
 40
0.0
 41
1.07
 50
0.0
 71
     0
 42
0.2
  3
txt.shx
  4

  0
STYLE
  5
4E6
330
3
100
AcDbSymbolTableRecord
100
AcDbTextStyleTableRecord
  2
CONVERTER_12
 70
     0
 40
0.0
 41
0.749
 50
0.0
 71
     0
 42
0.2
  3
txt.shx
  4

  0
STYLE
  5
4E9
330
3
100
AcDbSymbolTableRecord
100
AcDbTextStyleTableRecord
  2
CONVERTER_13
 70
     0
 40
0.0
 41
0.9
 50
0.0
 71
     0
 42
0.2
  3
txt.shx
  4

  0
STYLE
  5
4F7
330
3
100
AcDbSymbolTableRecord
100
AcDbTextStyleTableRecord
  2
CONVERTER_14
 70
     0
 40
0.0
 41
0.675
 50
0.0
 71
     0
 42
0.2
  3
txt.shx
  4

  0
STYLE
  5
4F9
330
3
100
AcDbSymbolTableRecord
100
AcDbTextStyleTableRecord
  2
CONVERTER_15
 70
     0
 40
0.0
 41
0.642
 50
0.0
 71
     0
 42
0.2
  3
txt.shx
  4

  0
STYLE
  5
4FC
330
3
100
AcDbSymbolTableRecord
100
AcDbTextStyleTableRecord
  2
CONVERTER_16
 70
     0
 40
0.0
 41
0.63
 50
0.0
 71
     0
 42
0.2
  3
txt.shx
  4

  0
STYLE
  5
500
330
3
100
AcDbSymbolTableRecord
100
AcDbTextStyleTableRecord
  2
CONVERTER_17
 70
     0
 40
0.0
 41
0.856
 50
0.0
 71
     0
 42
0.2
  3
txt.shx
  4

  0
STYLE
  5
504
330
3
100
AcDbSymbolTableRecord
100
AcDbTextStyleTableRecord
  2
CONVERTER_18
 70
     0
 40
0.0
 41
0.72
 50
0.0
 71
     0
 42
0.2
  3
txt.shx
  4

  0
STYLE
  5
506
330
3
100
AcDbSymbolTableRecord
100
AcDbTextStyleTableRecord
  2
CONVERTER_19
 70
     0
 40
0.0
 41
1.215
 50
0.0
 71
     0
 42
0.2
  3
txt.shx
  4

  0
STYLE
  5
513
330
3
100
AcDbSymbolTableRecord
100
AcDbTextStyleTableRecord
  2
CONVERTER_20
 70
     0
 40
0.0
 41
0.54
 50
0.0
 71
     0
 42
0.2
  3
txt.shx
  4

  0
ENDTAB
  0
TABLE
  2
VIEW
  5
6
330
0
100
AcDbSymbolTable
 70
     0
  0
ENDTAB
  0
TABLE
  2
UCS
  5
7
330
0
100
AcDbSymbolTable
 70
     0
  0
ENDTAB
  0
TABLE
  2
APPID
  5
9
330
0
100
AcDbSymbolTable
 70
     1
  0
APPID
  5
12
330
9
100
AcDbSymbolTableRecord
100
AcDbRegAppTableRecord
  2
ACAD
 70
     0
  0
ENDTAB
  0
TABLE
  2
DIMSTYLE
  5
A
330
0
100
AcDbSymbolTable
 70
    13
100
AcDbDimStyleTable
  0
DIMSTYLE
105
27
330
A
100
AcDbSymbolTableRecord
100
AcDbDimStyleTableRecord
  2
Standard
 70
     0
178
     0
340
11
  0
DIMSTYLE
105
529
102
{ACAD_REACTORS
330
52A
102
}
330
A
100
AcDbSymbolTableRecord
100
AcDbDimStyleTableRecord
  2
ME10_DIM_10
 70
     0
 41
3.2
 42
1.0
 44
1.5
 47
40.0
 71
     1
 73
     0
 74
     0
 77
     1
 78
     8
140
3.2
146
0.6
147
2.0
172
     1
173
     1
174
     1
175
     1
176
     2
177
     2
178
     2
272
     0
340
4E9
  0
DIMSTYLE
105
536
102
{ACAD_REACTORS
330
537
102
}
330
A
100
AcDbSymbolTableRecord
100
AcDbDimStyleTableRecord
  2
ME10_DIM_11
 70
     0
  3
(<>)
 41
3.2
 42
1.0
 44
1.5
 73
     0
 74
     0
 77
     1
 78
     8
140
3.2
147
2.0
172
     1
173
     1
174
     1
175
     1
176
     2
177
     2
178
     2
340
4E9
  0
DIMSTYLE
105
541
102
{ACAD_REACTORS
330
542
102
}
330
A
100
AcDbSymbolTableRecord
100
AcDbDimStyleTableRecord
  2
ME10_DIM_12
 70
     0
 41
3.2
 42
1.0
 44
1.5
 47
0.5
 48
0.5
 71
     1
 73
     0
 74
     0
 77
     1
 78
     8
140
3.2
146
0.6
147
2.0
172
     1
173
     1
174
     1
175
     1
176
     2
177
     2
178
     2
272
     1
340
4E9
  0
DIMSTYLE
105
54E
102
{ACAD_REACTORS
330
54F
102
}
330
A
100
AcDbSymbolTableRecord
100
AcDbDimStyleTableRecord
  2
ME10_DIM_13
 70
     0
 41
3.2
 42
1.0
 44
1.5
 47
0.2
 48
0.2
 71
     1
 73
     0
 74
     0
 77
     1
 78
     8
140
3.2
146
0.6
147
2.0
172
     1
173
     1
174
     1
175
     1
176
     2
177
     2
178
     2
272
     1
340
4E9
  0
DIMSTYLE
105
559
102
{ACAD_REACTORS
330
55A
102
}
330
A
100
AcDbSymbolTableRecord
100
AcDbDimStyleTableRecord
  2
ME10_DIM_14
 70
     0
 41
3.2
 42
1.0
 44
1.5
 47
0.5
 48
0.5
 71
     1
 73
     0
 74
     0
 77
     1
 78
     8
140
3.2
146
0.6
147
2.0
172
     1
173
     1
174
     1
175
     1
176
     2
177
     2
178
     2
272
     1
340
4E9
  0
DIMSTYLE
105
564
102
{ACAD_REACTORS
330
565
102
}
330
A
100
AcDbSymbolTableRecord
100
AcDbDimStyleTableRecord
  2
ME10_DIM_15
 70
     0
 41
3.2
 42
1.0
 44
1.5
 73
     0
 74
     0
 77
     1
 78
     8
140
3.2
147
2.0
172
     1
173
     1
174
     1
175
     1
176
     2
177
     2
178
     2
340
4E9
  0
DIMSTYLE
105
56F
102
{ACAD_REACTORS
330
570
102
}
330
A
100
AcDbSymbolTableRecord
100
AcDbDimStyleTableRecord
  2
ME10_DIM_16
 70
     0
 41
3.2
 42
1.0
 44
1.5
 73
     0
 74
     0
 77
     1
 78
     8
140
3.2
147
2.0
172
     1
173
     1
174
     1
175
     1
176
     2
177
     2
178
     2
340
4E9
  0
DIMSTYLE
105
57A
102
{ACAD_REACTORS
330
57B
102
}
330
A
100
AcDbSymbolTableRecord
100
AcDbDimStyleTableRecord
  2
ME10_DIM_17
 70
     0
 41
3.2
 42
1.0
 44
1.5
 47
0.2
 48
0.2
 71
     1
 73
     0
 74
     0
 77
     1
 78
     8
140
3.2
146
0.6
147
2.0
172
     1
173
     1
174
     1
175
     1
176
     2
177
     2
178
     2
272
     1
340
4E9
  0
DIMSTYLE
105
587
102
{ACAD_REACTORS
330
588
102
}
330
A
100
AcDbSymbolTableRecord
100
AcDbDimStyleTableRecord
  2
ME10_DIM_18
 70
     0
  3
\U+03C6<>
 41
3.2
 42
1.0
 44
1.5
 48
0.011
 71
     1
 73
     0
 74
     0
 77
     1
 78
     8
140
3.2
146
0.6
147
2.0
172
     1
173
     1
174
     1
175
     1
176
     2
177
     2
178
     2
272
     0
340
4E9
  0
DIMSTYLE
105
592
102
{ACAD_REACTORS
330
593
102
}
330
A
100
AcDbSymbolTableRecord
100
AcDbDimStyleTableRecord
  2
ME10_DIM_19
 70
     0
 41
3.2
 42
1.0
 44
1.5
 47
0.2
 48
0.2
 71
     1
 73
     0
 74
     0
 77
     1
 78
     8
140
3.2
146
0.6
147
2.0
172
     1
173
     1
174
     1
175
     1
176
     2
177
     2
178
     2
272
     1
340
4E9
  0
DIMSTYLE
105
59D
102
{ACAD_REACTORS
330
59E
102
}
330
A
100
AcDbSymbolTableRecord
100
AcDbDimStyleTableRecord
  2
ME10_DIM_20
 70
     0
  3
\U+03C6<>
 41
3.2
 42
1.0
 44
1.5
 48
0.05
 71
     1
 73
     0
 74
     0
 77
     1
 78
     8
140
3.2
146
0.6
147
2.0
172
     1
173
     1
174
     1
175
     1
176
     2
177
     2
178
     2
272
     0
340
4E9
  0
DIMSTYLE
105
5AA
102
{ACAD_REACTORS
330
5AB
102
}
330
A
100
AcDbSymbolTableRecord
100
AcDbDimStyleTableRecord
  2
ME10_DIM_21
 70
     0
  3
(<>)
 41
3.2
 42
1.0
 44
1.5
 73
     0
 74
     0
 77
     1
 78
     8
140
3.2
147
2.0
172
     1
173
     1
174
     1
175
     1
176
     2
177
     2
178
     2
340
4E9
  0
ENDTAB
  0
TABLE
  2
BLOCK_RECORD
  5
1
330
0
100
AcDbSymbolTable
 70
    44
  0
BLOCK_RECORD
  5
1F
330
1
100
AcDbSymbolTableRecord
100
AcDbBlockTableRecord
  2
*Model_Space
340
22
  0
BLOCK_RECORD
  5
1B
330
1
100
AcDbSymbolTableRecord
100
AcDbBlockTableRecord
  2
*Paper_Space
340
1E
  0
BLOCK_RECORD
  5
23
330
1
100
AcDbSymbolTableRecord
100
AcDbBlockTableRecord
  2
*Paper_Space0
340
26
  0
BLOCK_RECORD
  5
4A
330
1
100
AcDbSymbolTableRecord
100
AcDbBlockTableRecord
  2
AD08895-01_DB__1
340
0
102
{BLKREFS
331
9F
102
}
  0
BLOCK_RECORD
  5
4D
330
1
100
AcDbSymbolTableRecord
100
AcDbBlockTableRecord
  2
AD08895-01_DB__2
340
0
102
{BLKREFS
331
A0
102
}
  0
BLOCK_RECORD
  5
50
330
1
100
AcDbSymbolTableRecord
100
AcDbBlockTableRecord
  2
AD08895-01_DB__3
340
0
102
{BLKREFS
331
A1
102
}
  0
BLOCK_RECORD
  5
53
330
1
100
AcDbSymbolTableRecord
100
AcDbBlockTableRecord
  2
AD08895-01_DB__4
340
0
102
{BLKREFS
331
A2
102
}
  0
BLOCK_RECORD
  5
56
330
1
100
AcDbSymbolTableRecord
100
AcDbBlockTableRecord
  2
AD08895-01_DB__5
340
0
102
{BLKREFS
331
A3
102
}
  0
BLOCK_RECORD
  5
59
330
1
100
AcDbSymbolTableRecord
100
AcDbBlockTableRecord
  2
AD08895-01_DB__6
340
0
102
{BLKREFS
331
A4
102
}
  0
BLOCK_RECORD
  5
5C
330
1
100
AcDbSymbolTableRecord
100
AcDbBlockTableRecord
  2
AD08895-01_DB__7
340
0
102
{BLKREFS
331
A5
102
}
  0
BLOCK_RECORD
  5
5F
330
1
100
AcDbSymbolTableRecord
100
AcDbBlockTableRecord
  2
AD08895-01_DB__8
340
0
102
{BLKREFS
331
A6
102
}
  0
BLOCK_RECORD
  5
62
330
1
100
AcDbSymbolTableRecord
100
AcDbBlockTableRecord
  2
AD08895-01_DB__9
340
0
102
{BLKREFS
331
A7
102
}
  0
BLOCK_RECORD
  5
65
330
1
100
AcDbSymbolTableRecord
100
AcDbBlockTableRecord
  2
AD08895-01_DB__10
340
0
102
{BLKREFS
331
A8
102
}
  0
BLOCK_RECORD
  5
68
330
1
100
AcDbSymbolTableRecord
100
AcDbBlockTableRecord
  2
AD08895-01_DB__11
340
0
102
{BLKREFS
331
A9
102
}
  0
BLOCK_RECORD
  5
6B
330
1
100
AcDbSymbolTableRecord
100
AcDbBlockTableRecord
  2
AD08895-01_DB__12
340
0
102
{BLKREFS
331
AA
102
}
  0
BLOCK_RECORD
  5
6E
330
1
100
AcDbSymbolTableRecord
100
AcDbBlockTableRecord
  2
AD08895-01_DB__13
340
0
102
{BLKREFS
331
AB
102
}
  0
BLOCK_RECORD
  5
71
330
1
100
AcDbSymbolTableRecord
100
AcDbBlockTableRecord
  2
AD08895-01_DB__14
340
0
102
{BLKREFS
331
AC
102
}
  0
BLOCK_RECORD
  5
74
330
1
100
AcDbSymbolTableRecord
100
AcDbBlockTableRecord
  2
AD08895-01_DB__15
340
0
102
{BLKREFS
331
AD
102
}
  0
BLOCK_RECORD
  5
77
330
1
100
AcDbSymbolTableRecord
100
AcDbBlockTableRecord
  2
AD08895-01_DB__16
340
0
102
{BLKREFS
331
AE
102
}
  0
BLOCK_RECORD
  5
7A
330
1
100
AcDbSymbolTableRecord
100
AcDbBlockTableRecord
  2
AD08895-01_DB__17
340
0
102
{BLKREFS
331
AF
102
}
  0
BLOCK_RECORD
  5
7D
330
1
100
AcDbSymbolTableRecord
100
AcDbBlockTableRecord
  2
AD08895-01_DB__18
340
0
102
{BLKREFS
331
B0
102
}
  0
BLOCK_RECORD
  5
80
330
1
100
AcDbSymbolTableRecord
100
AcDbBlockTableRecord
  2
AD08895-01_DB__19
340
0
102
{BLKREFS
331
B1
102
}
  0
BLOCK_RECORD
  5
83
330
1
100
AcDbSymbolTableRecord
100
AcDbBlockTableRecord
  2
AD08895-01_DB__20
340
0
102
{BLKREFS
331
B2
102
}
  0
BLOCK_RECORD
  5
86
330
1
100
AcDbSymbolTableRecord
100
AcDbBlockTableRecord
  2
AD08895-01_DB__21
340
0
102
{BLKREFS
331
B3
102
}
  0
BLOCK_RECORD
  5
89
330
1
100
AcDbSymbolTableRecord
100
AcDbBlockTableRecord
  2
AD08895-01_DB__22
340
0
102
{BLKREFS
331
B4
102
}
  0
BLOCK_RECORD
  5
8C
330
1
100
AcDbSymbolTableRecord
100
AcDbBlockTableRecord
  2
AD08895-01_DB__23
340
0
102
{BLKREFS
331
B5
102
}
  0
BLOCK_RECORD
  5
8F
330
1
100
AcDbSymbolTableRecord
100
AcDbBlockTableRecord
  2
AD08895-01_DB__24
340
0
102
{BLKREFS
331
B6
102
}
  0
BLOCK_RECORD
  5
92
330
1
100
AcDbSymbolTableRecord
100
AcDbBlockTableRecord
  2
AD08895-01_DB__25
340
0
102
{BLKREFS
331
B7
102
}
  0
BLOCK_RECORD
  5
95
330
1
100
AcDbSymbolTableRecord
100
AcDbBlockTableRecord
  2
AD08895-01_DB__26
340
0
102
{BLKREFS
331
B8
102
}
  0
BLOCK_RECORD
  5
98
330
1
100
AcDbSymbolTableRecord
100
AcDbBlockTableRecord
  2
AD08895-01_DB__27
340
0
102
{BLKREFS
331
B9
102
}
  0
BLOCK_RECORD
  5
9B
330
1
100
AcDbSymbolTableRecord
100
AcDbBlockTableRecord
  2
AD08895-01_DB__28
340
0
102
{BLKREFS
331
BA
102
}
  0
BLOCK_RECORD
  5
9E
330
1
100
AcDbSymbolTableRecord
100
AcDbBlockTableRecord
  2
AC00771-01_DB
340
0
102
{BLKREFS
331
BE
102
}
  0
BLOCK_RECORD
  5
BD
330
1
100
AcDbSymbolTableRecord
100
AcDbBlockTableRecord
  2
GIB2875-32_蹦妒薨A
340
0
102
{BLKREFS
331
C2
102
}
  0
BLOCK_RECORD
  5
C1
330
1
100
AcDbSymbolTableRecord
100
AcDbBlockTableRecord
  2
AD14436-01_DB
340
0
102
{BLKREFS
331
C5
102
}
  0
BLOCK_RECORD
  5
520
330
1
100
AcDbSymbolTableRecord
100
AcDbBlockTableRecord
  2
*D32
340
0
  0
BLOCK_RECORD
  5
52B
330
1
100
AcDbSymbolTableRecord
100
AcDbBlockTableRecord
  2
*D33
340
0
  0
BLOCK_RECORD
  5
538
330
1
100
AcDbSymbolTableRecord
100
AcDbBlockTableRecord
  2
*D34
340
0
  0
BLOCK_RECORD
  5
543
330
1
100
AcDbSymbolTableRecord
100
AcDbBlockTableRecord
  2
*D35
340
0
  0
BLOCK_RECORD
  5
550
330
1
100
AcDbSymbolTableRecord
100
AcDbBlockTableRecord
  2
*D36
340
0
  0
BLOCK_RECORD
  5
55B
330
1
100
AcDbSymbolTableRecord
100
AcDbBlockTableRecord
  2
*D37
340
0
  0
BLOCK_RECORD
  5
566
330
1
100
AcDbSymbolTableRecord
100
AcDbBlockTableRecord
  2
*D38
340
0
  0
BLOCK_RECORD
  5
571
330
1
100
AcDbSymbolTableRecord
100
AcDbBlockTableRecord
  2
*D39
340
0
  0
BLOCK_RECORD
  5
57C
330
1
100
AcDbSymbolTableRecord
100
AcDbBlockTableRecord
  2
*D40
340
0
  0
BLOCK_RECORD
  5
589
330
1
100
AcDbSymbolTableRecord
100
AcDbBlockTableRecord
  2
*D41
340
0
  0
BLOCK_RECORD
  5
594
330
1
100
AcDbSymbolTableRecord
100
AcDbBlockTableRecord
  2
*D42
340
0
  0
BLOCK_RECORD
  5
59F
330
1
100
AcDbSymbolTableRecord
100
AcDbBlockTableRecord
  2
*D43
340
0
  0
ENDTAB
  0
ENDSEC
  0
SECTION
  2
BLOCKS
  0
BLOCK
  5
20
330
1F
100
AcDbEntity
  8
0
100
AcDbBlockBegin
  2
*Model_Space
 70
     0
 10
0.0
 20
0.0
 30
0.0
  3
*Model_Space
  1

  0
ENDBLK
  5
21
330
1F
100
AcDbEntity
  8
0
100
AcDbBlockEnd
  0
BLOCK
  5
1C
330
1B
100
AcDbEntity
 67
     1
  8
0
100
AcDbBlockBegin
  2
*Paper_Space
 70
     0
 10
0.0
 20
0.0
 30
0.0
  3
*Paper_Space
  1

  0
ENDBLK
  5
1D
330
1B
100
AcDbEntity
 67
     1
  8
0
100
AcDbBlockEnd
  0
BLOCK
  5
24
330
23
100
AcDbEntity
  8
0
100
AcDbBlockBegin
  2
*Paper_Space0
 70
     0
 10
0.0
 20
0.0
 30
0.0
  3
*Paper_Space0
  1

  0
ENDBLK
  5
25
330
23
100
AcDbEntity
  8
0
100
AcDbBlockEnd
  0
BLOCK
  5
4B
330
4A
100
AcDbEntity
  8
0
100
AcDbBlockBegin
  2
AD08895-01_DB__1
 70
     0
 10
1469.684648468321
 20
323.36635187189
 30
0.0
  3
AD08895-01_DB__1
  1

  0
POINT
  5
C6
330
4A
100
AcDbEntity
  8
1
 62
     3
 60
     1
100
AcDbPoint
 10
1231.30912635624
 20
57.63890736814301
 30
0.0
  0
POINT
  5
C7
330
4A
100
AcDbEntity
  8
1
 62
     3
 60
     1
100
AcDbPoint
 10
1232.10912635624
 20
56.83890736814306
 30
0.0
  0
POINT
  5
C8
330
4A
100
AcDbEntity
  8
1
 62
     3
 60
     1
100
AcDbPoint
 10
1231.30912635624
 20
56.83890736814306
 30
0.0
  0
POINT
  5
C9
330
4A
100
AcDbEntity
  8
1
 62
     3
 60
     1
100
AcDbPoint
 10
1232.10912635624
 20
54.33890736814306
 30
0.0
  0
POINT
  5
CA
330
4A
100
AcDbEntity
  8
1
 62
     3
 60
     1
100
AcDbPoint
 10
1231.30912635624
 20
53.5389073681431
 30
0.0
  0
POINT
  5
CB
330
4A
100
AcDbEntity
  8
1
 62
     3
 60
     1
100
AcDbPoint
 10
1231.30912635624
 20
54.33890736814306
 30
0.0
  0
ENDBLK
  5
4C
330
4A
100
AcDbEntity
  8
0
100
AcDbBlockEnd
  0
BLOCK
  5
4E
330
4D
100
AcDbEntity
  8
0
100
AcDbBlockBegin
  2
AD08895-01_DB__2
 70
     0
 10
1693.089158480473
 20
414.3102051846378
 30
0.0
  3
AD08895-01_DB__2
  1

  0
POINT
  5
CC
330
4D
100
AcDbEntity
  8
1
 62
     3
 60
     1
100
AcDbPoint
 10
1454.713636368392
 20
148.5827606808905
 30
0.0
  0
POINT
  5
CD
330
4D
100
AcDbEntity
  8
1
 62
     3
 60
     1
100
AcDbPoint
 10
1455.513636368392
 20
147.7827606808907
 30
0.0
  0
POINT
  5
CE
330
4D
100
AcDbEntity
  8
1
 62
     3
 60
     1
100
AcDbPoint
 10
1454.713636368392
 20
147.7827606808907
 30
0.0
  0
POINT
  5
CF
330
4D
100
AcDbEntity
  8
1
 62
     3
 60
     1
100
AcDbPoint
 10
1455.513636368392
 20
145.2827606808907
 30
0.0
  0
POINT
  5
D0
330
4D
100
AcDbEntity
  8
1
 62
     3
 60
     1
100
AcDbPoint
 10
1454.713636368392
 20
144.4827606808906
 30
0.0
  0
POINT
  5
D1
330
4D
100
AcDbEntity
  8
1
 62
     3
 60
     1
100
AcDbPoint
 10
1454.713636368392
 20
145.2827606808907
 30
0.0
  0
ENDBLK
  5
4F
330
4D
100
AcDbEntity
  8
0
100
AcDbBlockEnd
  0
BLOCK
  5
51
330
50
100
AcDbEntity
  8
0
100
AcDbBlockBegin
  2
AD08895-01_DB__3
 70
     0
 10
2094.610118484338
 20
335.078393892852
 30
0.0
  3
AD08895-01_DB__3
  1

  0
POINT
  5
D2
330
50
100
AcDbEntity
  8
1
 62
     3
 60
     1
100
AcDbPoint
 10
1856.234596372258
 20
69.35094938910515
 30
0.0
  0
POINT
  5
D3
330
50
100
AcDbEntity
  8
1
 62
     3
 60
     1
100
AcDbPoint
 10
1857.034596372258
 20
68.5509493891052
 30
0.0
  0
POINT
  5
D4
330
50
100
AcDbEntity
  8
1
 62
     3
 60
     1
100
AcDbPoint
 10
1856.234596372258
 20
68.5509493891052
 30
0.0
  0
POINT
  5
D5
330
50
100
AcDbEntity
  8
1
 62
     3
 60
     1
100
AcDbPoint
 10
1857.034596372258
 20
66.0509493891052
 30
0.0
  0
POINT
  5
D6
330
50
100
AcDbEntity
  8
1
 62
     3
 60
     1
100
AcDbPoint
 10
1856.234596372258
 20
65.25094938910502
 30
0.0
  0
POINT
  5
D7
330
50
100
AcDbEntity
  8
1
 62
     3
 60
     1
100
AcDbPoint
 10
1856.234596372258
 20
66.0509493891052
 30
0.0
  0
ENDBLK
  5
52
330
50
100
AcDbEntity
  8
0
100
AcDbBlockEnd
  0
BLOCK
  5
54
330
53
100
AcDbEntity
  8
0
100
AcDbBlockBegin
  2
AD08895-01_DB__4
 70
     0
 10
2087.948873582975
 20
557.7237637464993
 30
0.0
  3
AD08895-01_DB__4
  1

  0
POINT
  5
D8
330
53
100
AcDbEntity
  8
1
 62
     3
 60
     1
100
AcDbPoint
 10
1849.573351470895
 20
291.9963192427524
 30
0.0
  0
POINT
  5
D9
330
53
100
AcDbEntity
  8
1
 62
     3
 60
     1
100
AcDbPoint
 10
1850.373351470894
 20
291.1963192427526
 30
0.0
  0
POINT
  5
DA
330
53
100
AcDbEntity
  8
1
 62
     3
 60
     1
100
AcDbPoint
 10
1849.573351470895
 20
291.1963192427526
 30
0.0
  0
POINT
  5
DB
330
53
100
AcDbEntity
  8
1
 62
     3
 60
     1
100
AcDbPoint
 10
1850.373351470894
 20
288.6963192427526
 30
0.0
  0
POINT
  5
DC
330
53
100
AcDbEntity
  8
1
 62
     3
 60
     1
100
AcDbPoint
 10
1849.573351470895
 20
287.8963192427524
 30
0.0
  0
POINT
  5
DD
330
53
100
AcDbEntity
  8
1
 62
     3
 60
     1
100
AcDbPoint
 10
1849.573351470895
 20
288.6963192427526
 30
0.0
  0
ENDBLK
  5
55
330
53
100
AcDbEntity
  8
0
100
AcDbBlockEnd
  0
BLOCK
  5
57
330
56
100
AcDbEntity
  8
0
100
AcDbBlockBegin
  2
AD08895-01_DB__5
 70
     0
 10
2398.535618721153
 20
787.9494381176867
 30
0.0
  3
AD08895-01_DB__5
  1

  0
POINT
  5
DE
330
56
100
AcDbEntity
  8
1
 62
     3
 60
     1
100
AcDbPoint
 10
2160.160096609073
 20
518.9219936139398
 30
0.0
  0
POINT
  5
DF
330
56
100
AcDbEntity
  8
1
 62
     3
 60
     1
100
AcDbPoint
 10
2160.160096609073
 20
518.1219936139395
 30
0.0
  0
POINT
  5
E0
330
56
100
AcDbEntity
  8
1
 62
     3
 60
     1
100
AcDbPoint
 10
2160.960096609073
 20
518.9219936139398
 30
0.0
  0
POINT
  5
E1
330
56
100
AcDbEntity
  8
1
 62
     3
 60
     1
100
AcDbPoint
 10
2160.160096609073
 20
521.4219936139398
 30
0.0
  0
POINT
  5
E2
330
56
100
AcDbEntity
  8
1
 62
     3
 60
     1
100
AcDbPoint
 10
2160.960096609073
 20
521.4219936139398
 30
0.0
  0
POINT
  5
E3
330
56
100
AcDbEntity
  8
1
 62
     3
 60
     1
100
AcDbPoint
 10
2160.160096609073
 20
522.2219936139396
 30
0.0
  0
ENDBLK
  5
58
330
56
100
AcDbEntity
  8
0
100
AcDbBlockEnd
  0
BLOCK
  5
5A
330
59
100
AcDbEntity
  8
0
100
AcDbBlockBegin
  2
AD08895-01_DB__6
 70
     0
 10
2405.196863622516
 20
565.3040682640391
 30
0.0
  3
AD08895-01_DB__6
  1

  0
POINT
  5
E4
330
59
100
AcDbEntity
  8
1
 62
     3
 60
     1
100
AcDbPoint
 10
2166.821341510436
 20
296.2766237602922
 30
0.0
  0
POINT
  5
E5
330
59
100
AcDbEntity
  8
1
 62
     3
 60
     1
100
AcDbPoint
 10
2166.821341510436
 20
295.4766237602921
 30
0.0
  0
POINT
  5
E6
330
59
100
AcDbEntity
  8
1
 62
     3
 60
     1
100
AcDbPoint
 10
2167.621341510435
 20
296.2766237602922
 30
0.0
  0
POINT
  5
E7
330
59
100
AcDbEntity
  8
1
 62
     3
 60
     1
100
AcDbPoint
 10
2166.821341510436
 20
298.7766237602922
 30
0.0
  0
POINT
  5
E8
330
59
100
AcDbEntity
  8
1
 62
     3
 60
     1
100
AcDbPoint
 10
2167.621341510435
 20
298.7766237602922
 30
0.0
  0
POINT
  5
E9
330
59
100
AcDbEntity
  8
1
 62
     3
 60
     1
100
AcDbPoint
 10
2166.821341510436
 20
299.5766237602921
 30
0.0
  0
ENDBLK
  5
5B
330
59
100
AcDbEntity
  8
0
100
AcDbBlockEnd
  0
BLOCK
  5
5D
330
5C
100
AcDbEntity
  8
0
100
AcDbBlockBegin
  2
AD08895-01_DB__7
 70
     0
 10
2003.675903618651
 20
644.5358795558249
 30
0.0
  3
AD08895-01_DB__7
  1

  0
POINT
  5
EA
330
5C
100
AcDbEntity
  8
1
 62
     3
 60
     1
100
AcDbPoint
 10
1765.30038150657
 20
375.5084350520777
 30
0.0
  0
POINT
  5
EB
330
5C
100
AcDbEntity
  8
1
 62
     3
 60
     1
100
AcDbPoint
 10
1765.30038150657
 20
374.7084350520777
 30
0.0
  0
POINT
  5
EC
330
5C
100
AcDbEntity
  8
1
 62
     3
 60
     1
100
AcDbPoint
 10
1766.10038150657
 20
375.5084350520777
 30
0.0
  0
POINT
  5
ED
330
5C
100
AcDbEntity
  8
1
 62
     3
 60
     1
100
AcDbPoint
 10
1765.30038150657
 20
378.0084350520777
 30
0.0
  0
POINT
  5
EE
330
5C
100
AcDbEntity
  8
1
 62
     3
 60
     1
100
AcDbPoint
 10
1766.10038150657
 20
378.0084350520777
 30
0.0
  0
POINT
  5
EF
330
5C
100
AcDbEntity
  8
1
 62
     3
 60
     1
100
AcDbPoint
 10
1765.30038150657
 20
378.8084350520778
 30
0.0
  0
ENDBLK
  5
5E
330
5C
100
AcDbEntity
  8
0
100
AcDbBlockEnd
  0
BLOCK
  5
60
330
5F
100
AcDbEntity
  8
0
100
AcDbBlockBegin
  2
AD08895-01_DB__8
 70
     0
 10
1780.271393606498
 20
553.592026243077
 30
0.0
  3
AD08895-01_DB__8
  1

  0
POINT
  5
F0
330
5F
100
AcDbEntity
  8
1
 62
     3
 60
     1
100
AcDbPoint
 10
1541.895871494418
 20
284.56458173933
 30
0.0
  0
POINT
  5
F1
330
5F
100
AcDbEntity
  8
1
 62
     3
 60
     1
100
AcDbPoint
 10
1541.895871494418
 20
283.7645817393301
 30
0.0
  0
POINT
  5
F2
330
5F
100
AcDbEntity
  8
1
 62
     3
 60
     1
100
AcDbPoint
 10
1542.695871494418
 20
284.56458173933
 30
0.0
  0
POINT
  5
F3
330
5F
100
AcDbEntity
  8
1
 62
     3
 60
     1
100
AcDbPoint
 10
1541.895871494418
 20
287.06458173933
 30
0.0
  0
POINT
  5
F4
330
5F
100
AcDbEntity
  8
1
 62
     3
 60
     1
100
AcDbPoint
 10
1542.695871494418
 20
287.06458173933
 30
0.0
  0
POINT
  5
F5
330
5F
100
AcDbEntity
  8
1
 62
     3
 60
     1
100
AcDbPoint
 10
1541.895871494418
 20
287.86458173933
 30
0.0
  0
ENDBLK
  5
61
330
5F
100
AcDbEntity
  8
0
100
AcDbBlockEnd
  0
BLOCK
  5
63
330
62
100
AcDbEntity
  8
0
100
AcDbBlockBegin
  2
AD08895-01_DB__9
 70
     0
 10
1155.34592359048
 20
551.6959157006002
 30
0.0
  3
AD08895-01_DB__9
  1

  0
POINT
  5
F6
330
62
100
AcDbEntity
  8
1
 62
     3
 60
     1
100
AcDbPoint
 10
916.9704014783997
 20
285.968471196853
 30
0.0
  0
POINT
  5
F7
330
62
100
AcDbEntity
  8
1
 62
     3
 60
     1
100
AcDbPoint
 10
917.7704014783999
 20
285.1684711968532
 30
0.0
  0
POINT
  5
F8
330
62
100
AcDbEntity
  8
1
 62
     3
 60
     1
100
AcDbPoint
 10
916.9704014783997
 20
285.1684711968532
 30
0.0
  0
POINT
  5
F9
330
62
100
AcDbEntity
  8
1
 62
     3
 60
     1
100
AcDbPoint
 10
917.7704014783999
 20
282.6684711968532
 30
0.0
  0
POINT
  5
FA
330
62
100
AcDbEntity
  8
1
 62
     3
 60
     1
100
AcDbPoint
 10
916.9704014783997
 20
281.8684711968531
 30
0.0
  0
POINT
  5
FB
330
62
100
AcDbEntity
  8
1
 62
     3
 60
     1
100
AcDbPoint
 10
916.9704014783997
 20
282.6684711968532
 30
0.0
  0
ENDBLK
  5
64
330
62
100
AcDbEntity
  8
0
100
AcDbBlockEnd
  0
BLOCK
  5
66
330
65
100
AcDbEntity
  8
0
100
AcDbBlockBegin
  2
AD08895-01_DB__10
 70
     0
 10
1378.750433602633
 20
642.6397690133479
 30
0.0
  3
AD08895-01_DB__10
  1

  0
POINT
  5
FC
330
65
100
AcDbEntity
  8
1
 62
     3
 60
     1
100
AcDbPoint
 10
1140.374911490552
 20
376.9123245096008
 30
0.0
  0
POINT
  5
FD
330
65
100
AcDbEntity
  8
1
 62
     3
 60
     1
100
AcDbPoint
 10
1141.174911490552
 20
376.1123245096007
 30
0.0
  0
POINT
  5
FE
330
65
100
AcDbEntity
  8
1
 62
     3
 60
     1
100
AcDbPoint
 10
1140.374911490552
 20
376.1123245096007
 30
0.0
  0
POINT
  5
FF
330
65
100
AcDbEntity
  8
1
 62
     3
 60
     1
100
AcDbPoint
 10
1141.174911490552
 20
373.6123245096007
 30
0.0
  0
POINT
  5
100
330
65
100
AcDbEntity
  8
1
 62
     3
 60
     1
100
AcDbPoint
 10
1140.374911490552
 20
372.8123245096008
 30
0.0
  0
POINT
  5
101
330
65
100
AcDbEntity
  8
1
 62
     3
 60
     1
100
AcDbPoint
 10
1140.374911490552
 20
373.6123245096007
 30
0.0
  0
ENDBLK
  5
67
330
65
100
AcDbEntity
  8
0
100
AcDbBlockEnd
  0
BLOCK
  5
69
330
68
100
AcDbEntity
  8
0
100
AcDbBlockBegin
  2
AD08895-01_DB__11
 70
     0
 10
1780.271393606498
 20
563.4079577215621
 30
0.0
  3
AD08895-01_DB__11
  1

  0
POINT
  5
102
330
68
100
AcDbEntity
  8
1
 62
     3
 60
     1
100
AcDbPoint
 10
1541.895871494418
 20
297.6805132178151
 30
0.0
  0
POINT
  5
103
330
68
100
AcDbEntity
  8
1
 62
     3
 60
     1
100
AcDbPoint
 10
1542.695871494418
 20
296.8805132178152
 30
0.0
  0
POINT
  5
104
330
68
100
AcDbEntity
  8
1
 62
     3
 60
     1
100
AcDbPoint
 10
1541.895871494418
 20
296.8805132178152
 30
0.0
  0
POINT
  5
105
330
68
100
AcDbEntity
  8
1
 62
     3
 60
     1
100
AcDbPoint
 10
1542.695871494418
 20
294.3805132178152
 30
0.0
  0
POINT
  5
106
330
68
100
AcDbEntity
  8
1
 62
     3
 60
     1
100
AcDbPoint
 10
1541.895871494418
 20
293.580513217815
 30
0.0
  0
POINT
  5
107
330
68
100
AcDbEntity
  8
1
 62
     3
 60
     1
100
AcDbPoint
 10
1541.895871494418
 20
294.3805132178152
 30
0.0
  0
ENDBLK
  5
6A
330
68
100
AcDbEntity
  8
0
100
AcDbBlockEnd
  0
BLOCK
  5
6C
330
6B
100
AcDbEntity
  8
0
100
AcDbBlockBegin
  2
AD08895-01_DB__12
 70
     0
 10
1773.610148705135
 20
786.0533275752096
 30
0.0
  3
AD08895-01_DB__12
  1

  0
POINT
  5
108
330
6B
100
AcDbEntity
  8
1
 62
     3
 60
     1
100
AcDbPoint
 10
1535.234626593055
 20
520.3258830714625
 30
0.0
  0
POINT
  5
109
330
6B
100
AcDbEntity
  8
1
 62
     3
 60
     1
100
AcDbPoint
 10
1536.034626593055
 20
519.5258830714627
 30
0.0
  0
POINT
  5
10A
330
6B
100
AcDbEntity
  8
1
 62
     3
 60
     1
100
AcDbPoint
 10
1535.234626593055
 20
519.5258830714627
 30
0.0
  0
POINT
  5
10B
330
6B
100
AcDbEntity
  8
1
 62
     3
 60
     1
100
AcDbPoint
 10
1536.034626593055
 20
517.0258830714627
 30
0.0
  0
POINT
  5
10C
330
6B
100
AcDbEntity
  8
1
 62
     3
 60
     1
100
AcDbPoint
 10
1535.234626593055
 20
516.2258830714625
 30
0.0
  0
POINT
  5
10D
330
6B
100
AcDbEntity
  8
1
 62
     3
 60
     1
100
AcDbPoint
 10
1535.234626593055
 20
517.0258830714627
 30
0.0
  0
ENDBLK
  5
6D
330
6B
100
AcDbEntity
  8
0
100
AcDbBlockEnd
  0
BLOCK
  5
6F
330
6E
100
AcDbEntity
  8
0
100
AcDbBlockBegin
  2
AD08895-01_DB__13
 70
     0
 10
2403.535618721153
 20
773.0646659257548
 30
0.0
  3
AD08895-01_DB__13
  1

  0
POINT
  5
10E
330
6E
100
AcDbEntity
  8
1
 62
     3
 60
     1
100
AcDbPoint
 10
2165.160096609073
 20
504.0372214220079
 30
0.0
  0
POINT
  5
10F
330
6E
100
AcDbEntity
  8
1
 62
     3
 60
     1
100
AcDbPoint
 10
2165.160096609073
 20
503.2372214220077
 30
0.0
  0
POINT
  5
110
330
6E
100
AcDbEntity
  8
1
 62
     3
 60
     1
100
AcDbPoint
 10
2165.960096609073
 20
504.0372214220079
 30
0.0
  0
POINT
  5
111
330
6E
100
AcDbEntity
  8
1
 62
     3
 60
     1
100
AcDbPoint
 10
2165.160096609073
 20
506.5372214220079
 30
0.0
  0
POINT
  5
112
330
6E
100
AcDbEntity
  8
1
 62
     3
 60
     1
100
AcDbPoint
 10
2165.960096609073
 20
506.5372214220079
 30
0.0
  0
POINT
  5
113
330
6E
100
AcDbEntity
  8
1
 62
     3
 60
     1
100
AcDbPoint
 10
2165.160096609073
 20
507.3372214220077
 30
0.0
  0
ENDBLK
  5
70
330
6E
100
AcDbEntity
  8
0
100
AcDbBlockEnd
  0
BLOCK
  5
72
330
71
100
AcDbEntity
  8
0
100
AcDbBlockBegin
  2
AD08895-01_DB__14
 70
     0
 10
2410.196863622516
 20
550.4192960721073
 30
0.0
  3
AD08895-01_DB__14
  1

  0
POINT
  5
114
330
71
100
AcDbEntity
  8
1
 62
     3
 60
     1
100
AcDbPoint
 10
2171.821341510436
 20
281.3918515683604
 30
0.0
  0
POINT
  5
115
330
71
100
AcDbEntity
  8
1
 62
     3
 60
     1
100
AcDbPoint
 10
2171.821341510436
 20
280.5918515683602
 30
0.0
  0
POINT
  5
116
330
71
100
AcDbEntity
  8
1
 62
     3
 60
     1
100
AcDbPoint
 10
2172.621341510435
 20
281.3918515683604
 30
0.0
  0
POINT
  5
117
330
71
100
AcDbEntity
  8
1
 62
     3
 60
     1
100
AcDbPoint
 10
2171.821341510436
 20
283.8918515683604
 30
0.0
  0
POINT
  5
118
330
71
100
AcDbEntity
  8
1
 62
     3
 60
     1
100
AcDbPoint
 10
2172.621341510435
 20
283.8918515683604
 30
0.0
  0
POINT
  5
119
330
71
100
AcDbEntity
  8
1
 62
     3
 60
     1
100
AcDbPoint
 10
2171.821341510436
 20
284.6918515683603
 30
0.0
  0
ENDBLK
  5
73
330
71
100
AcDbEntity
  8
0
100
AcDbBlockEnd
  0
BLOCK
  5
75
330
74
100
AcDbEntity
  8
0
100
AcDbBlockBegin
  2
AD08895-01_DB__15
 70
     0
 10
2008.675903618651
 20
629.6511073638931
 30
0.0
  3
AD08895-01_DB__15
  1

  0
POINT
  5
11A
330
74
100
AcDbEntity
  8
1
 62
     3
 60
     1
100
AcDbPoint
 10
1770.30038150657
 20
360.6236628601461
 30
0.0
  0
POINT
  5
11B
330
74
100
AcDbEntity
  8
1
 62
     3
 60
     1
100
AcDbPoint
 10
1770.30038150657
 20
359.823662860146
 30
0.0
  0
POINT
  5
11C
330
74
100
AcDbEntity
  8
1
 62
     3
 60
     1
100
AcDbPoint
 10
1771.10038150657
 20
360.6236628601461
 30
0.0
  0
POINT
  5
11D
330
74
100
AcDbEntity
  8
1
 62
     3
 60
     1
100
AcDbPoint
 10
1770.30038150657
 20
363.1236628601461
 30
0.0
  0
POINT
  5
11E
330
74
100
AcDbEntity
  8
1
 62
     3
 60
     1
100
AcDbPoint
 10
1771.10038150657
 20
363.1236628601461
 30
0.0
  0
POINT
  5
11F
330
74
100
AcDbEntity
  8
1
 62
     3
 60
     1
100
AcDbPoint
 10
1770.30038150657
 20
363.9236628601459
 30
0.0
  0
ENDBLK
  5
76
330
74
100
AcDbEntity
  8
0
100
AcDbBlockEnd
  0
BLOCK
  5
78
330
77
100
AcDbEntity
  8
0
100
AcDbBlockBegin
  2
AD08895-01_DB__16
 70
     0
 10
1785.271393606498
 20
538.7072540511454
 30
0.0
  3
AD08895-01_DB__16
  1

  0
POINT
  5
120
330
77
100
AcDbEntity
  8
1
 62
     3
 60
     1
100
AcDbPoint
 10
1546.895871494418
 20
269.6798095473984
 30
0.0
  0
POINT
  5
121
330
77
100
AcDbEntity
  8
1
 62
     3
 60
     1
100
AcDbPoint
 10
1546.895871494418
 20
268.8798095473983
 30
0.0
  0
POINT
  5
122
330
77
100
AcDbEntity
  8
1
 62
     3
 60
     1
100
AcDbPoint
 10
1547.695871494418
 20
269.6798095473984
 30
0.0
  0
POINT
  5
123
330
77
100
AcDbEntity
  8
1
 62
     3
 60
     1
100
AcDbPoint
 10
1546.895871494418
 20
272.1798095473984
 30
0.0
  0
POINT
  5
124
330
77
100
AcDbEntity
  8
1
 62
     3
 60
     1
100
AcDbPoint
 10
1547.695871494418
 20
272.1798095473984
 30
0.0
  0
POINT
  5
125
330
77
100
AcDbEntity
  8
1
 62
     3
 60
     1
100
AcDbPoint
 10
1546.895871494418
 20
272.9798095473982
 30
0.0
  0
ENDBLK
  5
79
330
77
100
AcDbEntity
  8
0
100
AcDbBlockEnd
  0
BLOCK
  5
7B
330
7A
100
AcDbEntity
  8
0
100
AcDbBlockBegin
  2
AD08895-01_DB__17
 70
     0
 10
1160.34592359048
 20
536.8111435086684
 30
0.0
  3
AD08895-01_DB__17
  1

  0
POINT
  5
126
330
7A
100
AcDbEntity
  8
1
 62
     3
 60
     1
100
AcDbPoint
 10
921.9704014783997
 20
271.0836990049213
 30
0.0
  0
POINT
  5
127
330
7A
100
AcDbEntity
  8
1
 62
     3
 60
     1
100
AcDbPoint
 10
922.7704014783999
 20
270.2836990049214
 30
0.0
  0
POINT
  5
128
330
7A
100
AcDbEntity
  8
1
 62
     3
 60
     1
100
AcDbPoint
 10
921.9704014783997
 20
270.2836990049214
 30
0.0
  0
POINT
  5
129
330
7A
100
AcDbEntity
  8
1
 62
     3
 60
     1
100
AcDbPoint
 10
922.7704014783999
 20
267.7836990049214
 30
0.0
  0
POINT
  5
12A
330
7A
100
AcDbEntity
  8
1
 62
     3
 60
     1
100
AcDbPoint
 10
921.9704014783997
 20
266.9836990049213
 30
0.0
  0
POINT
  5
12B
330
7A
100
AcDbEntity
  8
1
 62
     3
 60
     1
100
AcDbPoint
 10
921.9704014783997
 20
267.7836990049214
 30
0.0
  0
ENDBLK
  5
7C
330
7A
100
AcDbEntity
  8
0
100
AcDbBlockEnd
  0
BLOCK
  5
7E
330
7D
100
AcDbEntity
  8
0
100
AcDbBlockBegin
  2
AD08895-01_DB__18
 70
     0
 10
1383.750433602633
 20
627.7549968214162
 30
0.0
  3
AD08895-01_DB__18
  1

  0
POINT
  5
12C
330
7D
100
AcDbEntity
  8
1
 62
     3
 60
     1
100
AcDbPoint
 10
1145.374911490552
 20
362.027552317669
 30
0.0
  0
POINT
  5
12D
330
7D
100
AcDbEntity
  8
1
 62
     3
 60
     1
100
AcDbPoint
 10
1146.174911490552
 20
361.2275523176691
 30
0.0
  0
POINT
  5
12E
330
7D
100
AcDbEntity
  8
1
 62
     3
 60
     1
100
AcDbPoint
 10
1145.374911490552
 20
361.2275523176691
 30
0.0
  0
POINT
  5
12F
330
7D
100
AcDbEntity
  8
1
 62
     3
 60
     1
100
AcDbPoint
 10
1146.174911490552
 20
358.7275523176691
 30
0.0
  0
POINT
  5
130
330
7D
100
AcDbEntity
  8
1
 62
     3
 60
     1
100
AcDbPoint
 10
1145.374911490552
 20
357.927552317669
 30
0.0
  0
POINT
  5
131
330
7D
100
AcDbEntity
  8
1
 62
     3
 60
     1
100
AcDbPoint
 10
1145.374911490552
 20
358.7275523176691
 30
0.0
  0
ENDBLK
  5
7F
330
7D
100
AcDbEntity
  8
0
100
AcDbBlockEnd
  0
BLOCK
  5
81
330
80
100
AcDbEntity
  8
0
100
AcDbBlockBegin
  2
AD08895-01_DB__19
 70
     0
 10
1785.271393606498
 20
548.5231855296304
 30
0.0
  3
AD08895-01_DB__19
  1

  0
POINT
  5
132
330
80
100
AcDbEntity
  8
1
 62
     3
 60
     1
100
AcDbPoint
 10
1546.895871494418
 20
282.7957410258832
 30
0.0
  0
POINT
  5
133
330
80
100
AcDbEntity
  8
1
 62
     3
 60
     1
100
AcDbPoint
 10
1547.695871494418
 20
281.9957410258834
 30
0.0
  0
POINT
  5
134
330
80
100
AcDbEntity
  8
1
 62
     3
 60
     1
100
AcDbPoint
 10
1546.895871494418
 20
281.9957410258834
 30
0.0
  0
POINT
  5
135
330
80
100
AcDbEntity
  8
1
 62
     3
 60
     1
100
AcDbPoint
 10
1547.695871494418
 20
279.4957410258834
 30
0.0
  0
POINT
  5
136
330
80
100
AcDbEntity
  8
1
 62
     3
 60
     1
100
AcDbPoint
 10
1546.895871494418
 20
278.6957410258833
 30
0.0
  0
POINT
  5
137
330
80
100
AcDbEntity
  8
1
 62
     3
 60
     1
100
AcDbPoint
 10
1546.895871494418
 20
279.4957410258834
 30
0.0
  0
ENDBLK
  5
82
330
80
100
AcDbEntity
  8
0
100
AcDbBlockEnd
  0
BLOCK
  5
84
330
83
100
AcDbEntity
  8
0
100
AcDbBlockBegin
  2
AD08895-01_DB__20
 70
     0
 10
1778.610148705135
 20
771.1685553832779
 30
0.0
  3
AD08895-01_DB__20
  1

  0
POINT
  5
138
330
83
100
AcDbEntity
  8
1
 62
     3
 60
     1
100
AcDbPoint
 10
1540.234626593055
 20
505.4411108795307
 30
0.0
  0
POINT
  5
139
330
83
100
AcDbEntity
  8
1
 62
     3
 60
     1
100
AcDbPoint
 10
1541.034626593055
 20
504.641110879531
 30
0.0
  0
POINT
  5
13A
330
83
100
AcDbEntity
  8
1
 62
     3
 60
     1
100
AcDbPoint
 10
1540.234626593055
 20
504.641110879531
 30
0.0
  0
POINT
  5
13B
330
83
100
AcDbEntity
  8
1
 62
     3
 60
     1
100
AcDbPoint
 10
1541.034626593055
 20
502.141110879531
 30
0.0
  0
POINT
  5
13C
330
83
100
AcDbEntity
  8
1
 62
     3
 60
     1
100
AcDbPoint
 10
1540.234626593055
 20
501.3411108795308
 30
0.0
  0
POINT
  5
13D
330
83
100
AcDbEntity
  8
1
 62
     3
 60
     1
100
AcDbPoint
 10
1540.234626593055
 20
502.141110879531
 30
0.0
  0
ENDBLK
  5
85
330
83
100
AcDbEntity
  8
0
100
AcDbBlockEnd
  0
BLOCK
  5
87
330
86
100
AcDbEntity
  8
0
100
AcDbBlockBegin
  2
AD08895-01_DB__21
 70
     0
 10
2398.535618721153
 20
780.723144260794
 30
0.0
  3
AD08895-01_DB__21
  1

  0
POINT
  5
13E
330
86
100
AcDbEntity
  8
1
 62
     3
 60
     1
100
AcDbPoint
 10
2160.160096609073
 20
511.6956997570474
 30
0.0
  0
POINT
  5
13F
330
86
100
AcDbEntity
  8
1
 62
     3
 60
     1
100
AcDbPoint
 10
2160.160096609073
 20
510.8956997570471
 30
0.0
  0
POINT
  5
140
330
86
100
AcDbEntity
  8
1
 62
     3
 60
     1
100
AcDbPoint
 10
2160.960096609073
 20
511.6956997570474
 30
0.0
  0
POINT
  5
141
330
86
100
AcDbEntity
  8
1
 62
     3
 60
     1
100
AcDbPoint
 10
2160.160096609073
 20
514.1956997570474
 30
0.0
  0
POINT
  5
142
330
86
100
AcDbEntity
  8
1
 62
     3
 60
     1
100
AcDbPoint
 10
2160.960096609073
 20
514.1956997570474
 30
0.0
  0
POINT
  5
143
330
86
100
AcDbEntity
  8
1
 62
     3
 60
     1
100
AcDbPoint
 10
2160.160096609073
 20
514.9956997570471
 30
0.0
  0
ENDBLK
  5
88
330
86
100
AcDbEntity
  8
0
100
AcDbBlockEnd
  0
BLOCK
  5
8A
330
89
100
AcDbEntity
  8
0
100
AcDbBlockBegin
  2
AD08895-01_DB__22
 70
     0
 10
2405.196863622516
 20
558.0777744071468
 30
0.0
  3
AD08895-01_DB__22
  1

  0
POINT
  5
144
330
89
100
AcDbEntity
  8
1
 62
     3
 60
     1
100
AcDbPoint
 10
2166.821341510436
 20
289.0503299033996
 30
0.0
  0
POINT
  5
145
330
89
100
AcDbEntity
  8
1
 62
     3
 60
     1
100
AcDbPoint
 10
2166.821341510436
 20
288.2503299033996
 30
0.0
  0
POINT
  5
146
330
89
100
AcDbEntity
  8
1
 62
     3
 60
     1
100
AcDbPoint
 10
2167.621341510435
 20
289.0503299033996
 30
0.0
  0
POINT
  5
147
330
89
100
AcDbEntity
  8
1
 62
     3
 60
     1
100
AcDbPoint
 10
2166.821341510436
 20
291.5503299033996
 30
0.0
  0
POINT
  5
148
330
89
100
AcDbEntity
  8
1
 62
     3
 60
     1
100
AcDbPoint
 10
2167.621341510435
 20
291.5503299033996
 30
0.0
  0
POINT
  5
149
330
89
100
AcDbEntity
  8
1
 62
     3
 60
     1
100
AcDbPoint
 10
2166.821341510436
 20
292.3503299033996
 30
0.0
  0
ENDBLK
  5
8B
330
89
100
AcDbEntity
  8
0
100
AcDbBlockEnd
  0
BLOCK
  5
8D
330
8C
100
AcDbEntity
  8
0
100
AcDbBlockBegin
  2
AD08895-01_DB__23
 70
     0
 10
2003.675903618651
 20
637.3095856989323
 30
0.0
  3
AD08895-01_DB__23
  1

  0
POINT
  5
14A
330
8C
100
AcDbEntity
  8
1
 62
     3
 60
     1
100
AcDbPoint
 10
1765.30038150657
 20
368.2821411951854
 30
0.0
  0
POINT
  5
14B
330
8C
100
AcDbEntity
  8
1
 62
     3
 60
     1
100
AcDbPoint
 10
1765.30038150657
 20
367.4821411951853
 30
0.0
  0
POINT
  5
14C
330
8C
100
AcDbEntity
  8
1
 62
     3
 60
     1
100
AcDbPoint
 10
1766.10038150657
 20
368.2821411951854
 30
0.0
  0
POINT
  5
14D
330
8C
100
AcDbEntity
  8
1
 62
     3
 60
     1
100
AcDbPoint
 10
1765.30038150657
 20
370.7821411951854
 30
0.0
  0
POINT
  5
14E
330
8C
100
AcDbEntity
  8
1
 62
     3
 60
     1
100
AcDbPoint
 10
1766.10038150657
 20
370.7821411951854
 30
0.0
  0
POINT
  5
14F
330
8C
100
AcDbEntity
  8
1
 62
     3
 60
     1
100
AcDbPoint
 10
1765.30038150657
 20
371.5821411951853
 30
0.0
  0
ENDBLK
  5
8E
330
8C
100
AcDbEntity
  8
0
100
AcDbBlockEnd
  0
BLOCK
  5
90
330
8F
100
AcDbEntity
  8
0
100
AcDbBlockBegin
  2
AD08895-01_DB__24
 70
     0
 10
1780.271393606498
 20
546.3657323861847
 30
0.0
  3
AD08895-01_DB__24
  1

  0
POINT
  5
150
330
8F
100
AcDbEntity
  8
1
 62
     3
 60
     1
100
AcDbPoint
 10
1541.895871494418
 20
277.3382878824377
 30
0.0
  0
POINT
  5
151
330
8F
100
AcDbEntity
  8
1
 62
     3
 60
     1
100
AcDbPoint
 10
1541.895871494418
 20
276.5382878824375
 30
0.0
  0
POINT
  5
152
330
8F
100
AcDbEntity
  8
1
 62
     3
 60
     1
100
AcDbPoint
 10
1542.695871494418
 20
277.3382878824377
 30
0.0
  0
POINT
  5
153
330
8F
100
AcDbEntity
  8
1
 62
     3
 60
     1
100
AcDbPoint
 10
1541.895871494418
 20
279.8382878824377
 30
0.0
  0
POINT
  5
154
330
8F
100
AcDbEntity
  8
1
 62
     3
 60
     1
100
AcDbPoint
 10
1542.695871494418
 20
279.8382878824377
 30
0.0
  0
POINT
  5
155
330
8F
100
AcDbEntity
  8
1
 62
     3
 60
     1
100
AcDbPoint
 10
1541.895871494418
 20
280.6382878824376
 30
0.0
  0
ENDBLK
  5
91
330
8F
100
AcDbEntity
  8
0
100
AcDbBlockEnd
  0
BLOCK
  5
93
330
92
100
AcDbEntity
  8
0
100
AcDbBlockBegin
  2
AD08895-01_DB__25
 70
     0
 10
1155.34592359048
 20
544.4696218437077
 30
0.0
  3
AD08895-01_DB__25
  1

  0
POINT
  5
156
330
92
100
AcDbEntity
  8
1
 62
     3
 60
     1
100
AcDbPoint
 10
916.9704014783997
 20
278.7421773399606
 30
0.0
  0
POINT
  5
157
330
92
100
AcDbEntity
  8
1
 62
     3
 60
     1
100
AcDbPoint
 10
917.7704014783999
 20
277.9421773399606
 30
0.0
  0
POINT
  5
158
330
92
100
AcDbEntity
  8
1
 62
     3
 60
     1
100
AcDbPoint
 10
916.9704014783997
 20
277.9421773399606
 30
0.0
  0
POINT
  5
159
330
92
100
AcDbEntity
  8
1
 62
     3
 60
     1
100
AcDbPoint
 10
917.7704014783999
 20
275.4421773399606
 30
0.0
  0
POINT
  5
15A
330
92
100
AcDbEntity
  8
1
 62
     3
 60
     1
100
AcDbPoint
 10
916.9704014783997
 20
274.6421773399605
 30
0.0
  0
POINT
  5
15B
330
92
100
AcDbEntity
  8
1
 62
     3
 60
     1
100
AcDbPoint
 10
916.9704014783997
 20
275.4421773399606
 30
0.0
  0
ENDBLK
  5
94
330
92
100
AcDbEntity
  8
0
100
AcDbBlockEnd
  0
BLOCK
  5
96
330
95
100
AcDbEntity
  8
0
100
AcDbBlockBegin
  2
AD08895-01_DB__26
 70
     0
 10
1378.750433602633
 20
635.4134751564554
 30
0.0
  3
AD08895-01_DB__26
  1

  0
POINT
  5
15C
330
95
100
AcDbEntity
  8
1
 62
     3
 60
     1
100
AcDbPoint
 10
1140.374911490552
 20
369.6860306527083
 30
0.0
  0
POINT
  5
15D
330
95
100
AcDbEntity
  8
1
 62
     3
 60
     1
100
AcDbPoint
 10
1141.174911490552
 20
368.8860306527084
 30
0.0
  0
POINT
  5
15E
330
95
100
AcDbEntity
  8
1
 62
     3
 60
     1
100
AcDbPoint
 10
1140.374911490552
 20
368.8860306527084
 30
0.0
  0
POINT
  5
15F
330
95
100
AcDbEntity
  8
1
 62
     3
 60
     1
100
AcDbPoint
 10
1141.174911490552
 20
366.3860306527084
 30
0.0
  0
POINT
  5
160
330
95
100
AcDbEntity
  8
1
 62
     3
 60
     1
100
AcDbPoint
 10
1140.374911490552
 20
365.5860306527083
 30
0.0
  0
POINT
  5
161
330
95
100
AcDbEntity
  8
1
 62
     3
 60
     1
100
AcDbPoint
 10
1140.374911490552
 20
366.3860306527084
 30
0.0
  0
ENDBLK
  5
97
330
95
100
AcDbEntity
  8
0
100
AcDbBlockEnd
  0
BLOCK
  5
99
330
98
100
AcDbEntity
  8
0
100
AcDbBlockBegin
  2
AD08895-01_DB__27
 70
     0
 10
1780.271393606498
 20
556.1816638646696
 30
0.0
  3
AD08895-01_DB__27
  1

  0
POINT
  5
162
330
98
100
AcDbEntity
  8
1
 62
     3
 60
     1
100
AcDbPoint
 10
1541.895871494418
 20
290.4542193609225
 30
0.0
  0
POINT
  5
163
330
98
100
AcDbEntity
  8
1
 62
     3
 60
     1
100
AcDbPoint
 10
1542.695871494418
 20
289.6542193609226
 30
0.0
  0
POINT
  5
164
330
98
100
AcDbEntity
  8
1
 62
     3
 60
     1
100
AcDbPoint
 10
1541.895871494418
 20
289.6542193609226
 30
0.0
  0
POINT
  5
165
330
98
100
AcDbEntity
  8
1
 62
     3
 60
     1
100
AcDbPoint
 10
1542.695871494418
 20
287.1542193609226
 30
0.0
  0
POINT
  5
166
330
98
100
AcDbEntity
  8
1
 62
     3
 60
     1
100
AcDbPoint
 10
1541.895871494418
 20
286.3542193609226
 30
0.0
  0
POINT
  5
167
330
98
100
AcDbEntity
  8
1
 62
     3
 60
     1
100
AcDbPoint
 10
1541.895871494418
 20
287.1542193609226
 30
0.0
  0
ENDBLK
  5
9A
330
98
100
AcDbEntity
  8
0
100
AcDbBlockEnd
  0
BLOCK
  5
9C
330
9B
100
AcDbEntity
  8
0
100
AcDbBlockBegin
  2
AD08895-01_DB__28
 70
     0
 10
1773.610148705135
 20
778.8270337183171
 30
0.0
  3
AD08895-01_DB__28
  1

  0
POINT
  5
168
330
9B
100
AcDbEntity
  8
1
 62
     3
 60
     1
100
AcDbPoint
 10
1535.234626593055
 20
513.09958921457
 30
0.0
  0
POINT
  5
169
330
9B
100
AcDbEntity
  8
1
 62
     3
 60
     1
100
AcDbPoint
 10
1536.034626593055
 20
512.2995892145703
 30
0.0
  0
POINT
  5
16A
330
9B
100
AcDbEntity
  8
1
 62
     3
 60
     1
100
AcDbPoint
 10
1535.234626593055
 20
512.2995892145703
 30
0.0
  0
POINT
  5
16B
330
9B
100
AcDbEntity
  8
1
 62
     3
 60
     1
100
AcDbPoint
 10
1536.034626593055
 20
509.7995892145704
 30
0.0
  0
POINT
  5
16C
330
9B
100
AcDbEntity
  8
1
 62
     3
 60
     1
100
AcDbPoint
 10
1535.234626593055
 20
508.9995892145701
 30
0.0
  0
POINT
  5
16D
330
9B
100
AcDbEntity
  8
1
 62
     3
 60
     1
100
AcDbPoint
 10
1535.234626593055
 20
509.7995892145704
 30
0.0
  0
ENDBLK
  5
9D
330
9B
100
AcDbEntity
  8
0
100
AcDbBlockEnd
  0
BLOCK
  5
BB
330
9E
100
AcDbEntity
  8
0
100
AcDbBlockBegin
  2
AC00771-01_DB
 70
     0
 10
670.3652597714226
 20
-257.364532878383
 30
0.0
  3
AC00771-01_DB
  1

  0
INSERT
  5
9F
330
9E
100
AcDbEntity
  8
0
100
AcDbBlockReference
  2
AD08895-01_DB__1
 10
1469.684648468321
 20
323.36635187189
 30
0.0
  0
INSERT
  5
A0
330
9E
100
AcDbEntity
  8
0
100
AcDbBlockReference
  2
AD08895-01_DB__2
 10
1693.089158480473
 20
414.3102051846378
 30
0.0
  0
INSERT
  5
A1
330
9E
100
AcDbEntity
  8
0
100
AcDbBlockReference
  2
AD08895-01_DB__3
 10
2094.610118484338
 20
335.078393892852
 30
0.0
  0
INSERT
  5
A2
330
9E
100
AcDbEntity
  8
0
100
AcDbBlockReference
  2
AD08895-01_DB__4
 10
2087.948873582975
 20
557.7237637464993
 30
0.0
  0
INSERT
  5
A3
330
9E
100
AcDbEntity
  8
0
100
AcDbBlockReference
  2
AD08895-01_DB__5
 10
2398.535618721153
 20
787.9494381176867
 30
0.0
  0
INSERT
  5
A4
330
9E
100
AcDbEntity
  8
0
100
AcDbBlockReference
  2
AD08895-01_DB__6
 10
2405.196863622516
 20
565.3040682640391
 30
0.0
  0
INSERT
  5
A5
330
9E
100
AcDbEntity
  8
0
100
AcDbBlockReference
  2
AD08895-01_DB__7
 10
2003.675903618651
 20
644.5358795558249
 30
0.0
  0
INSERT
  5
A6
330
9E
100
AcDbEntity
  8
0
100
AcDbBlockReference
  2
AD08895-01_DB__8
 10
1780.271393606498
 20
553.592026243077
 30
0.0
  0
INSERT
  5
A7
330
9E
100
AcDbEntity
  8
0
100
AcDbBlockReference
  2
AD08895-01_DB__9
 10
1155.34592359048
 20
551.6959157006002
 30
0.0
  0
INSERT
  5
A8
330
9E
100
AcDbEntity
  8
0
100
AcDbBlockReference
  2
AD08895-01_DB__10
 10
1378.750433602633
 20
642.6397690133479
 30
0.0
  0
INSERT
  5
A9
330
9E
100
AcDbEntity
  8
0
100
AcDbBlockReference
  2
AD08895-01_DB__11
 10
1780.271393606498
 20
563.4079577215621
 30
0.0
  0
INSERT
  5
AA
330
9E
100
AcDbEntity
  8
0
100
AcDbBlockReference
  2
AD08895-01_DB__12
 10
1773.610148705135
 20
786.0533275752096
 30
0.0
  0
INSERT
  5
AB
330
9E
100
AcDbEntity
  8
0
100
AcDbBlockReference
  2
AD08895-01_DB__13
 10
2403.535618721153
 20
773.0646659257548
 30
0.0
  0
INSERT
  5
AC
330
9E
100
AcDbEntity
  8
0
100
AcDbBlockReference
  2
AD08895-01_DB__14
 10
2410.196863622516
 20
550.4192960721073
 30
0.0
  0
INSERT
  5
AD
330
9E
100
AcDbEntity
  8
0
100
AcDbBlockReference
  2
AD08895-01_DB__15
 10
2008.675903618651
 20
629.6511073638931
 30
0.0
  0
INSERT
  5
AE
330
9E
100
AcDbEntity
  8
0
100
AcDbBlockReference
  2
AD08895-01_DB__16
 10
1785.271393606498
 20
538.7072540511454
 30
0.0
  0
INSERT
  5
AF
330
9E
100
AcDbEntity
  8
0
100
AcDbBlockReference
  2
AD08895-01_DB__17
 10
1160.34592359048
 20
536.8111435086684
 30
0.0
  0
INSERT
  5
B0
330
9E
100
AcDbEntity
  8
0
100
AcDbBlockReference
  2
AD08895-01_DB__18
 10
1383.750433602633
 20
627.7549968214162
 30
0.0
  0
INSERT
  5
B1
330
9E
100
AcDbEntity
  8
0
100
AcDbBlockReference
  2
AD08895-01_DB__19
 10
1785.271393606498
 20
548.5231855296304
 30
0.0
  0
INSERT
  5
B2
330
9E
100
AcDbEntity
  8
0
100
AcDbBlockReference
  2
AD08895-01_DB__20
 10
1778.610148705135
 20
771.1685553832779
 30
0.0
  0
INSERT
  5
B3
330
9E
100
AcDbEntity
  8
0
100
AcDbBlockReference
  2
AD08895-01_DB__21
 10
2398.535618721153
 20
780.723144260794
 30
0.0
  0
INSERT
  5
B4
330
9E
100
AcDbEntity
  8
0
100
AcDbBlockReference
  2
AD08895-01_DB__22
 10
2405.196863622516
 20
558.0777744071468
 30
0.0
  0
INSERT
  5
B5
330
9E
100
AcDbEntity
  8
0
100
AcDbBlockReference
  2
AD08895-01_DB__23
 10
2003.675903618651
 20
637.3095856989323
 30
0.0
  0
INSERT
  5
B6
330
9E
100
AcDbEntity
  8
0
100
AcDbBlockReference
  2
AD08895-01_DB__24
 10
1780.271393606498
 20
546.3657323861847
 30
0.0
  0
INSERT
  5
B7
330
9E
100
AcDbEntity
  8
0
100
AcDbBlockReference
  2
AD08895-01_DB__25
 10
1155.34592359048
 20
544.4696218437077
 30
0.0
  0
INSERT
  5
B8
330
9E
100
AcDbEntity
  8
0
100
AcDbBlockReference
  2
AD08895-01_DB__26
 10
1378.750433602633
 20
635.4134751564554
 30
0.0
  0
INSERT
  5
B9
330
9E
100
AcDbEntity
  8
0
100
AcDbBlockReference
  2
AD08895-01_DB__27
 10
1780.271393606498
 20
556.1816638646696
 30
0.0
  0
INSERT
  5
BA
330
9E
100
AcDbEntity
  8
0
100
AcDbBlockReference
  2
AD08895-01_DB__28
 10
1773.610148705135
 20
778.8270337183171
 30
0.0
  0
POINT
  5
16E
330
9E
100
AcDbEntity
  8
1
 62
     3
 60
     1
100
AcDbPoint
 10
1901.751236574469
 20
-261.3863727466289
 30
0.0
  0
POINT
  5
16F
330
9E
100
AcDbEntity
  8
1
 62
     3
 60
     1
100
AcDbPoint
 10
1901.251236574469
 20
-261.8863727466289
 30
0.0
  0
POINT
  5
170
330
9E
100
AcDbEntity
  8
1
 62
     3
 60
     1
100
AcDbPoint
 10
1901.251236574469
 20
-261.3863727466289
 30
0.0
  0
POINT
  5
171
330
9E
100
AcDbEntity
  8
1
 62
     3
 60
     1
100
AcDbPoint
 10
1901.751236574469
 20
-266.3863727466289
 30
0.0
  0
POINT
  5
172
330
9E
100
AcDbEntity
  8
1
 62
     3
 60
     1
100
AcDbPoint
 10
1901.251236574469
 20
-265.8863727466289
 30
0.0
  0
POINT
  5
173
330
9E
100
AcDbEntity
  8
1
 62
     3
 60
     1
100
AcDbPoint
 10
1901.251236574469
 20
-266.3863727466289
 30
0.0
  0
POINT
  5
174
330
9E
100
AcDbEntity
  8
1
 62
     3
 60
     1
100
AcDbPoint
 10
1796.251236574469
 20
-266.3863727466289
 30
0.0
  0
POINT
  5
175
330
9E
100
AcDbEntity
  8
1
 62
     3
 60
     1
100
AcDbPoint
 10
1796.251236574469
 20
-265.8863727466289
 30
0.0
  0
POINT
  5
176
330
9E
100
AcDbEntity
  8
1
 62
     3
 60
     1
100
AcDbPoint
 10
1796.751236574469
 20
-266.3863727466289
 30
0.0
  0
POINT
  5
177
330
9E
100
AcDbEntity
  8
1
 62
     3
 60
     1
100
AcDbPoint
 10
1796.251236574469
 20
-261.3863727466289
 30
0.0
  0
POINT
  5
178
330
9E
100
AcDbEntity
  8
1
 62
     3
 60
     1
100
AcDbPoint
 10
1796.251236574469
 20
-261.8863727466289
 30
0.0
  0
POINT
  5
179
330
9E
100
AcDbEntity
  8
1
 62
     3
 60
     1
100
AcDbPoint
 10
1796.751236574469
 20
-261.3863727466289
 30
0.0
  0
POINT
  5
17A
330
9E
100
AcDbEntity
  8
1
 62
     3
 60
     1
100
AcDbPoint
 10
2520.015461689124
 20
-27.02896087201884
 30
0.0
  0
POINT
  5
17B
330
9E
100
AcDbEntity
  8
1
 62
     3
 60
     1
100
AcDbPoint
 10
2519.515461689124
 20
-27.52896087201884
 30
0.0
  0
POINT
  5
17C
330
9E
100
AcDbEntity
  8
1
 62
     3
 60
     1
100
AcDbPoint
 10
2519.515461689124
 20
-27.02896087201884
 30
0.0
  0
POINT
  5
17D
330
9E
100
AcDbEntity
  8
1
 62
     3
 60
     1
100
AcDbPoint
 10
2520.015461689124
 20
-32.02896087201884
 30
0.0
  0
POINT
  5
17E
330
9E
100
AcDbEntity
  8
1
 62
     3
 60
     1
100
AcDbPoint
 10
2519.515461689124
 20
-31.52896087201884
 30
0.0
  0
POINT
  5
17F
330
9E
100
AcDbEntity
  8
1
 62
     3
 60
     1
100
AcDbPoint
 10
2519.515461689124
 20
-32.02896087201884
 30
0.0
  0
POINT
  5
180
330
9E
100
AcDbEntity
  8
1
 62
     3
 60
     1
100
AcDbPoint
 10
2414.515461689124
 20
-32.02896087201884
 30
0.0
  0
POINT
  5
181
330
9E
100
AcDbEntity
  8
1
 62
     3
 60
     1
100
AcDbPoint
 10
2414.515461689124
 20
-31.52896087201884
 30
0.0
  0
POINT
  5
182
330
9E
100
AcDbEntity
  8
1
 62
     3
 60
     1
100
AcDbPoint
 10
2415.015461689124
 20
-32.02896087201884
 30
0.0
  0
POINT
  5
183
330
9E
100
AcDbEntity
  8
1
 62
     3
 60
     1
100
AcDbPoint
 10
2414.515461689124
 20
-27.02896087201884
 30
0.0
  0
POINT
  5
184
330
9E
100
AcDbEntity
  8
1
 62
     3
 60
     1
100
AcDbPoint
 10
2414.515461689124
 20
-27.52896087201884
 30
0.0
  0
POINT
  5
185
330
9E
100
AcDbEntity
  8
1
 62
     3
 60
     1
100
AcDbPoint
 10
2415.015461689124
 20
-27.02896087201884
 30
0.0
  0
POINT
  5
186
330
9E
100
AcDbEntity
  8
1
 62
     3
 60
     1
100
AcDbPoint
 10
2526.676706590486
 20
-249.674330725667
 30
0.0
  0
POINT
  5
187
330
9E
100
AcDbEntity
  8
1
 62
     3
 60
     1
100
AcDbPoint
 10
2526.176706590486
 20
-250.174330725667
 30
0.0
  0
POINT
  5
188
330
9E
100
AcDbEntity
  8
1
 62
     3
 60
     1
100
AcDbPoint
 10
2526.176706590486
 20
-249.674330725667
 30
0.0
  0
POINT
  5
189
330
9E
100
AcDbEntity
  8
1
 62
     3
 60
     1
100
AcDbPoint
 10
2526.676706590486
 20
-254.674330725667
 30
0.0
  0
POINT
  5
18A
330
9E
100
AcDbEntity
  8
1
 62
     3
 60
     1
100
AcDbPoint
 10
2526.176706590486
 20
-254.174330725667
 30
0.0
  0
POINT
  5
18B
330
9E
100
AcDbEntity
  8
1
 62
     3
 60
     1
100
AcDbPoint
 10
2526.176706590486
 20
-254.674330725667
 30
0.0
  0
POINT
  5
18C
330
9E
100
AcDbEntity
  8
1
 62
     3
 60
     1
100
AcDbPoint
 10
2421.176706590486
 20
-254.674330725667
 30
0.0
  0
POINT
  5
18D
330
9E
100
AcDbEntity
  8
1
 62
     3
 60
     1
100
AcDbPoint
 10
2421.176706590486
 20
-254.174330725667
 30
0.0
  0
POINT
  5
18E
330
9E
100
AcDbEntity
  8
1
 62
     3
 60
     1
100
AcDbPoint
 10
2421.676706590486
 20
-254.674330725667
 30
0.0
  0
POINT
  5
18F
330
9E
100
AcDbEntity
  8
1
 62
     3
 60
     1
100
AcDbPoint
 10
2421.176706590486
 20
-249.674330725667
 30
0.0
  0
POINT
  5
190
330
9E
100
AcDbEntity
  8
1
 62
     3
 60
     1
100
AcDbPoint
 10
2421.176706590486
 20
-250.174330725667
 30
0.0
  0
POINT
  5
191
330
9E
100
AcDbEntity
  8
1
 62
     3
 60
     1
100
AcDbPoint
 10
2421.676706590486
 20
-249.674330725667
 30
0.0
  0
POINT
  5
192
330
9E
100
AcDbEntity
  8
1
 62
     3
 60
     1
100
AcDbPoint
 10
2020.155746586621
 20
-170.442519433881
 30
0.0
  0
POINT
  5
193
330
9E
100
AcDbEntity
  8
1
 62
     3
 60
     1
100
AcDbPoint
 10
2019.655746586621
 20
-170.942519433881
 30
0.0
  0
POINT
  5
194
330
9E
100
AcDbEntity
  8
1
 62
     3
 60
     1
100
AcDbPoint
 10
2019.655746586621
 20
-170.442519433881
 30
0.0
  0
POINT
  5
195
330
9E
100
AcDbEntity
  8
1
 62
     3
 60
     1
100
AcDbPoint
 10
2020.155746586621
 20
-175.442519433881
 30
0.0
  0
POINT
  5
196
330
9E
100
AcDbEntity
  8
1
 62
     3
 60
     1
100
AcDbPoint
 10
2019.655746586621
 20
-174.942519433881
 30
0.0
  0
POINT
  5
197
330
9E
100
AcDbEntity
  8
1
 62
     3
 60
     1
100
AcDbPoint
 10
2019.655746586621
 20
-175.442519433881
 30
0.0
  0
POINT
  5
198
330
9E
100
AcDbEntity
  8
1
 62
     3
 60
     1
100
AcDbPoint
 10
2124.655746586621
 20
-175.442519433881
 30
0.0
  0
POINT
  5
199
330
9E
100
AcDbEntity
  8
1
 62
     3
 60
     1
100
AcDbPoint
 10
2124.655746586621
 20
-174.942519433881
 30
0.0
  0
POINT
  5
19A
330
9E
100
AcDbEntity
  8
1
 62
     3
 60
     1
100
AcDbPoint
 10
2125.155746586621
 20
-175.442519433881
 30
0.0
  0
POINT
  5
19B
330
9E
100
AcDbEntity
  8
1
 62
     3
 60
     1
100
AcDbPoint
 10
2124.655746586621
 20
-170.442519433881
 30
0.0
  0
POINT
  5
19C
330
9E
100
AcDbEntity
  8
1
 62
     3
 60
     1
100
AcDbPoint
 10
2124.655746586621
 20
-170.942519433881
 30
0.0
  0
POINT
  5
19D
330
9E
100
AcDbEntity
  8
1
 62
     3
 60
     1
100
AcDbPoint
 10
2125.155746586621
 20
-170.442519433881
 30
0.0
  0
POINT
  5
19E
330
9E
100
AcDbEntity
  8
1
 62
     3
 60
     1
100
AcDbPoint
 10
1810.817021708781
 20
57.88704439482899
 30
0.0
  0
POINT
  5
19F
330
9E
100
AcDbEntity
  8
1
 62
     3
 60
     1
100
AcDbPoint
 10
1810.317021708781
 20
57.38704439482899
 30
0.0
  0
POINT
  5
1A0
330
9E
100
AcDbEntity
  8
1
 62
     3
 60
     1
100
AcDbPoint
 10
1810.317021708781
 20
57.88704439482899
 30
0.0
  0
POINT
  5
1A1
330
9E
100
AcDbEntity
  8
1
 62
     3
 60
     1
100
AcDbPoint
 10
1810.817021708781
 20
52.88704439482899
 30
0.0
  0
POINT
  5
1A2
330
9E
100
AcDbEntity
  8
1
 62
     3
 60
     1
100
AcDbPoint
 10
1810.317021708781
 20
53.38704439482899
 30
0.0
  0
POINT
  5
1A3
330
9E
100
AcDbEntity
  8
1
 62
     3
 60
     1
100
AcDbPoint
 10
1810.317021708781
 20
52.88704439482899
 30
0.0
  0
POINT
  5
1A4
330
9E
100
AcDbEntity
  8
1
 62
     3
 60
     1
100
AcDbPoint
 10
1705.317021708781
 20
52.88704439482899
 30
0.0
  0
POINT
  5
1A5
330
9E
100
AcDbEntity
  8
1
 62
     3
 60
     1
100
AcDbPoint
 10
1705.317021708781
 20
53.38704439482899
 30
0.0
  0
POINT
  5
1A6
330
9E
100
AcDbEntity
  8
1
 62
     3
 60
     1
100
AcDbPoint
 10
1705.817021708781
 20
52.88704439482899
 30
0.0
  0
POINT
  5
1A7
330
9E
100
AcDbEntity
  8
1
 62
     3
 60
     1
100
AcDbPoint
 10
1705.317021708781
 20
57.88704439482899
 30
0.0
  0
POINT
  5
1A8
330
9E
100
AcDbEntity
  8
1
 62
     3
 60
     1
100
AcDbPoint
 10
1705.317021708781
 20
57.38704439482899
 30
0.0
  0
POINT
  5
1A9
330
9E
100
AcDbEntity
  8
1
 62
     3
 60
     1
100
AcDbPoint
 10
1705.817021708781
 20
57.88704439482899
 30
0.0
  0
POINT
  5
1AA
330
9E
100
AcDbEntity
  8
1
 62
     3
 60
     1
100
AcDbPoint
 10
2107.337981712647
 20
-21.34476689695703
 30
0.0
  0
POINT
  5
1AB
330
9E
100
AcDbEntity
  8
1
 62
     3
 60
     1
100
AcDbPoint
 10
2106.837981712647
 20
-21.84476689695703
 30
0.0
  0
POINT
  5
1AC
330
9E
100
AcDbEntity
  8
1
 62
     3
 60
     1
100
AcDbPoint
 10
2106.837981712647
 20
-21.34476689695703
 30
0.0
  0
POINT
  5
1AD
330
9E
100
AcDbEntity
  8
1
 62
     3
 60
     1
100
AcDbPoint
 10
2107.337981712647
 20
-26.34476689695703
 30
0.0
  0
POINT
  5
1AE
330
9E
100
AcDbEntity
  8
1
 62
     3
 60
     1
100
AcDbPoint
 10
2106.837981712647
 20
-25.84476689695703
 30
0.0
  0
POINT
  5
1AF
330
9E
100
AcDbEntity
  8
1
 62
     3
 60
     1
100
AcDbPoint
 10
2106.837981712647
 20
-26.34476689695703
 30
0.0
  0
POINT
  5
1B0
330
9E
100
AcDbEntity
  8
1
 62
     3
 60
     1
100
AcDbPoint
 10
2211.837981712647
 20
-26.34476689695703
 30
0.0
  0
POINT
  5
1B1
330
9E
100
AcDbEntity
  8
1
 62
     3
 60
     1
100
AcDbPoint
 10
2211.837981712647
 20
-25.84476689695703
 30
0.0
  0
POINT
  5
1B2
330
9E
100
AcDbEntity
  8
1
 62
     3
 60
     1
100
AcDbPoint
 10
2212.337981712647
 20
-26.34476689695703
 30
0.0
  0
POINT
  5
1B3
330
9E
100
AcDbEntity
  8
1
 62
     3
 60
     1
100
AcDbPoint
 10
2211.837981712647
 20
-21.34476689695703
 30
0.0
  0
POINT
  5
1B4
330
9E
100
AcDbEntity
  8
1
 62
     3
 60
     1
100
AcDbPoint
 10
2211.837981712647
 20
-21.84476689695703
 30
0.0
  0
POINT
  5
1B5
330
9E
100
AcDbEntity
  8
1
 62
     3
 60
     1
100
AcDbPoint
 10
2212.337981712647
 20
-21.34476689695703
 30
0.0
  0
POINT
  5
1B6
330
9E
100
AcDbEntity
  8
1
 62
     3
 60
     1
100
AcDbPoint
 10
2100.676736811284
 20
201.3006029566907
 30
0.0
  0
POINT
  5
1B7
330
9E
100
AcDbEntity
  8
1
 62
     3
 60
     1
100
AcDbPoint
 10
2100.176736811284
 20
200.8006029566907
 30
0.0
  0
POINT
  5
1B8
330
9E
100
AcDbEntity
  8
1
 62
     3
 60
     1
100
AcDbPoint
 10
2100.176736811284
 20
201.3006029566907
 30
0.0
  0
POINT
  5
1B9
330
9E
100
AcDbEntity
  8
1
 62
     3
 60
     1
100
AcDbPoint
 10
2100.676736811284
 20
196.3006029566907
 30
0.0
  0
POINT
  5
1BA
330
9E
100
AcDbEntity
  8
1
 62
     3
 60
     1
100
AcDbPoint
 10
2100.176736811284
 20
196.8006029566907
 30
0.0
  0
POINT
  5
1BB
330
9E
100
AcDbEntity
  8
1
 62
     3
 60
     1
100
AcDbPoint
 10
2100.176736811284
 20
196.3006029566907
 30
0.0
  0
POINT
  5
1BC
330
9E
100
AcDbEntity
  8
1
 62
     3
 60
     1
100
AcDbPoint
 10
2205.176736811284
 20
196.3006029566907
 30
0.0
  0
POINT
  5
1BD
330
9E
100
AcDbEntity
  8
1
 62
     3
 60
     1
100
AcDbPoint
 10
2205.176736811284
 20
196.8006029566907
 30
0.0
  0
POINT
  5
1BE
330
9E
100
AcDbEntity
  8
1
 62
     3
 60
     1
100
AcDbPoint
 10
2205.676736811284
 20
196.3006029566907
 30
0.0
  0
POINT
  5
1BF
330
9E
100
AcDbEntity
  8
1
 62
     3
 60
     1
100
AcDbPoint
 10
2205.176736811284
 20
201.3006029566907
 30
0.0
  0
POINT
  5
1C0
330
9E
100
AcDbEntity
  8
1
 62
     3
 60
     1
100
AcDbPoint
 10
2205.176736811284
 20
200.8006029566907
 30
0.0
  0
POINT
  5
1C1
330
9E
100
AcDbEntity
  8
1
 62
     3
 60
     1
100
AcDbPoint
 10
2205.676736811284
 20
201.3006029566907
 30
0.0
  0
POINT
  5
1C2
330
9E
100
AcDbEntity
  8
1
 62
     3
 60
     1
100
AcDbPoint
 10
1482.412511696629
 20
-33.05680891791894
 30
0.0
  0
POINT
  5
1C3
330
9E
100
AcDbEntity
  8
1
 62
     3
 60
     1
100
AcDbPoint
 10
1481.912511696629
 20
-33.55680891791894
 30
0.0
  0
POINT
  5
1C4
330
9E
100
AcDbEntity
  8
1
 62
     3
 60
     1
100
AcDbPoint
 10
1481.912511696629
 20
-33.05680891791894
 30
0.0
  0
POINT
  5
1C5
330
9E
100
AcDbEntity
  8
1
 62
     3
 60
     1
100
AcDbPoint
 10
1482.412511696629
 20
-38.05680891791894
 30
0.0
  0
POINT
  5
1C6
330
9E
100
AcDbEntity
  8
1
 62
     3
 60
     1
100
AcDbPoint
 10
1481.912511696629
 20
-37.55680891791894
 30
0.0
  0
POINT
  5
1C7
330
9E
100
AcDbEntity
  8
1
 62
     3
 60
     1
100
AcDbPoint
 10
1481.912511696629
 20
-38.05680891791894
 30
0.0
  0
POINT
  5
1C8
330
9E
100
AcDbEntity
  8
1
 62
     3
 60
     1
100
AcDbPoint
 10
1586.912511696629
 20
-38.05680891791894
 30
0.0
  0
POINT
  5
1C9
330
9E
100
AcDbEntity
  8
1
 62
     3
 60
     1
100
AcDbPoint
 10
1586.912511696629
 20
-37.55680891791894
 30
0.0
  0
POINT
  5
1CA
330
9E
100
AcDbEntity
  8
1
 62
     3
 60
     1
100
AcDbPoint
 10
1587.412511696629
 20
-38.05680891791894
 30
0.0
  0
POINT
  5
1CB
330
9E
100
AcDbEntity
  8
1
 62
     3
 60
     1
100
AcDbPoint
 10
1586.912511696629
 20
-33.05680891791894
 30
0.0
  0
POINT
  5
1CC
330
9E
100
AcDbEntity
  8
1
 62
     3
 60
     1
100
AcDbPoint
 10
1586.912511696629
 20
-33.55680891791894
 30
0.0
  0
POINT
  5
1CD
330
9E
100
AcDbEntity
  8
1
 62
     3
 60
     1
100
AcDbPoint
 10
1587.412511696629
 20
-33.05680891791894
 30
0.0
  0
POINT
  5
1CE
330
9E
100
AcDbEntity
  8
1
 62
     3
 60
     1
100
AcDbPoint
 10
2435.742491724799
 20
59.78315493730611
 30
0.0
  0
POINT
  5
1CF
330
9E
100
AcDbEntity
  8
1
 62
     3
 60
     1
100
AcDbPoint
 10
2435.242491724799
 20
59.28315493730611
 30
0.0
  0
POINT
  5
1D0
330
9E
100
AcDbEntity
  8
1
 62
     3
 60
     1
100
AcDbPoint
 10
2435.242491724799
 20
59.78315493730611
 30
0.0
  0
POINT
  5
1D1
330
9E
100
AcDbEntity
  8
1
 62
     3
 60
     1
100
AcDbPoint
 10
2435.742491724799
 20
54.78315493730611
 30
0.0
  0
POINT
  5
1D2
330
9E
100
AcDbEntity
  8
1
 62
     3
 60
     1
100
AcDbPoint
 10
2435.242491724799
 20
55.28315493730611
 30
0.0
  0
POINT
  5
1D3
330
9E
100
AcDbEntity
  8
1
 62
     3
 60
     1
100
AcDbPoint
 10
2435.242491724799
 20
54.78315493730611
 30
0.0
  0
POINT
  5
1D4
330
9E
100
AcDbEntity
  8
1
 62
     3
 60
     1
100
AcDbPoint
 10
2330.242491724799
 20
54.78315493730611
 30
0.0
  0
POINT
  5
1D5
330
9E
100
AcDbEntity
  8
1
 62
     3
 60
     1
100
AcDbPoint
 10
2330.242491724799
 20
55.28315493730611
 30
0.0
  0
POINT
  5
1D6
330
9E
100
AcDbEntity
  8
1
 62
     3
 60
     1
100
AcDbPoint
 10
2330.742491724799
 20
54.78315493730611
 30
0.0
  0
POINT
  5
1D7
330
9E
100
AcDbEntity
  8
1
 62
     3
 60
     1
100
AcDbPoint
 10
2330.242491724799
 20
59.78315493730611
 30
0.0
  0
POINT
  5
1D8
330
9E
100
AcDbEntity
  8
1
 62
     3
 60
     1
100
AcDbPoint
 10
2330.242491724799
 20
59.28315493730611
 30
0.0
  0
POINT
  5
1D9
330
9E
100
AcDbEntity
  8
1
 62
     3
 60
     1
100
AcDbPoint
 10
2330.742491724799
 20
59.78315493730611
 30
0.0
  0
POINT
  5
1DA
330
9E
100
AcDbEntity
  8
1
 62
     3
 60
     1
100
AcDbPoint
 10
2732.263451728665
 20
-19.44865635447991
 30
0.0
  0
POINT
  5
1DB
330
9E
100
AcDbEntity
  8
1
 62
     3
 60
     1
100
AcDbPoint
 10
2731.763451728665
 20
-19.94865635447991
 30
0.0
  0
POINT
  5
1DC
330
9E
100
AcDbEntity
  8
1
 62
     3
 60
     1
100
AcDbPoint
 10
2731.763451728665
 20
-19.44865635447991
 30
0.0
  0
POINT
  5
1DD
330
9E
100
AcDbEntity
  8
1
 62
     3
 60
     1
100
AcDbPoint
 10
2732.263451728665
 20
-24.44865635447991
 30
0.0
  0
POINT
  5
1DE
330
9E
100
AcDbEntity
  8
1
 62
     3
 60
     1
100
AcDbPoint
 10
2731.763451728665
 20
-23.94865635447991
 30
0.0
  0
POINT
  5
1DF
330
9E
100
AcDbEntity
  8
1
 62
     3
 60
     1
100
AcDbPoint
 10
2731.763451728665
 20
-24.44865635447991
 30
0.0
  0
POINT
  5
1E0
330
9E
100
AcDbEntity
  8
1
 62
     3
 60
     1
100
AcDbPoint
 10
2836.763451728665
 20
-24.44865635447991
 30
0.0
  0
POINT
  5
1E1
330
9E
100
AcDbEntity
  8
1
 62
     3
 60
     1
100
AcDbPoint
 10
2836.763451728665
 20
-23.94865635447991
 30
0.0
  0
POINT
  5
1E2
330
9E
100
AcDbEntity
  8
1
 62
     3
 60
     1
100
AcDbPoint
 10
2837.263451728665
 20
-24.44865635447991
 30
0.0
  0
POINT
  5
1E3
330
9E
100
AcDbEntity
  8
1
 62
     3
 60
     1
100
AcDbPoint
 10
2836.763451728665
 20
-19.44865635447991
 30
0.0
  0
POINT
  5
1E4
330
9E
100
AcDbEntity
  8
1
 62
     3
 60
     1
100
AcDbPoint
 10
2836.763451728665
 20
-19.94865635447991
 30
0.0
  0
POINT
  5
1E5
330
9E
100
AcDbEntity
  8
1
 62
     3
 60
     1
100
AcDbPoint
 10
2837.263451728665
 20
-19.44865635447991
 30
0.0
  0
POINT
  5
1E6
330
9E
100
AcDbEntity
  8
1
 62
     3
 60
     1
100
AcDbPoint
 10
2725.602206827303
 20
203.1967134991677
 30
0.0
  0
POINT
  5
1E7
330
9E
100
AcDbEntity
  8
1
 62
     3
 60
     1
100
AcDbPoint
 10
2725.102206827303
 20
202.6967134991677
 30
0.0
  0
POINT
  5
1E8
330
9E
100
AcDbEntity
  8
1
 62
     3
 60
     1
100
AcDbPoint
 10
2725.102206827303
 20
203.1967134991677
 30
0.0
  0
POINT
  5
1E9
330
9E
100
AcDbEntity
  8
1
 62
     3
 60
     1
100
AcDbPoint
 10
2725.602206827303
 20
198.1967134991677
 30
0.0
  0
POINT
  5
1EA
330
9E
100
AcDbEntity
  8
1
 62
     3
 60
     1
100
AcDbPoint
 10
2725.102206827303
 20
198.6967134991677
 30
0.0
  0
POINT
  5
1EB
330
9E
100
AcDbEntity
  8
1
 62
     3
 60
     1
100
AcDbPoint
 10
2725.102206827303
 20
198.1967134991677
 30
0.0
  0
POINT
  5
1EC
330
9E
100
AcDbEntity
  8
1
 62
     3
 60
     1
100
AcDbPoint
 10
2830.102206827303
 20
198.1967134991677
 30
0.0
  0
POINT
  5
1ED
330
9E
100
AcDbEntity
  8
1
 62
     3
 60
     1
100
AcDbPoint
 10
2830.102206827303
 20
198.6967134991677
 30
0.0
  0
POINT
  5
1EE
330
9E
100
AcDbEntity
  8
1
 62
     3
 60
     1
100
AcDbPoint
 10
2830.602206827303
 20
198.1967134991677
 30
0.0
  0
POINT
  5
1EF
330
9E
100
AcDbEntity
  8
1
 62
     3
 60
     1
100
AcDbPoint
 10
2830.102206827303
 20
203.1967134991677
 30
0.0
  0
POINT
  5
1F0
330
9E
100
AcDbEntity
  8
1
 62
     3
 60
     1
100
AcDbPoint
 10
2830.102206827303
 20
202.6967134991677
 30
0.0
  0
POINT
  5
1F1
330
9E
100
AcDbEntity
  8
1
 62
     3
 60
     1
100
AcDbPoint
 10
2830.602206827303
 20
203.1967134991677
 30
0.0
  0
POINT
  5
1F2
330
9E
100
AcDbEntity
  8
1
 62
     3
 60
     1
100
AcDbPoint
 10
2107.337981712647
 20
-31.16069837544183
 30
0.0
  0
POINT
  5
1F3
330
9E
100
AcDbEntity
  8
1
 62
     3
 60
     1
100
AcDbPoint
 10
2106.837981712647
 20
-31.66069837544183
 30
0.0
  0
POINT
  5
1F4
330
9E
100
AcDbEntity
  8
1
 62
     3
 60
     1
100
AcDbPoint
 10
2106.837981712647
 20
-31.16069837544183
 30
0.0
  0
POINT
  5
1F5
330
9E
100
AcDbEntity
  8
1
 62
     3
 60
     1
100
AcDbPoint
 10
2107.337981712647
 20
-36.16069837544183
 30
0.0
  0
POINT
  5
1F6
330
9E
100
AcDbEntity
  8
1
 62
     3
 60
     1
100
AcDbPoint
 10
2106.837981712647
 20
-35.66069837544183
 30
0.0
  0
POINT
  5
1F7
330
9E
100
AcDbEntity
  8
1
 62
     3
 60
     1
100
AcDbPoint
 10
2106.837981712647
 20
-36.16069837544183
 30
0.0
  0
POINT
  5
1F8
330
9E
100
AcDbEntity
  8
1
 62
     3
 60
     1
100
AcDbPoint
 10
2211.837981712647
 20
-36.16069837544183
 30
0.0
  0
POINT
  5
1F9
330
9E
100
AcDbEntity
  8
1
 62
     3
 60
     1
100
AcDbPoint
 10
2211.837981712647
 20
-35.66069837544183
 30
0.0
  0
POINT
  5
1FA
330
9E
100
AcDbEntity
  8
1
 62
     3
 60
     1
100
AcDbPoint
 10
2212.337981712647
 20
-36.16069837544183
 30
0.0
  0
POINT
  5
1FB
330
9E
100
AcDbEntity
  8
1
 62
     3
 60
     1
100
AcDbPoint
 10
2211.837981712647
 20
-31.16069837544183
 30
0.0
  0
POINT
  5
1FC
330
9E
100
AcDbEntity
  8
1
 62
     3
 60
     1
100
AcDbPoint
 10
2211.837981712647
 20
-31.66069837544183
 30
0.0
  0
POINT
  5
1FD
330
9E
100
AcDbEntity
  8
1
 62
     3
 60
     1
100
AcDbPoint
 10
2212.337981712647
 20
-31.16069837544183
 30
0.0
  0
POINT
  5
1FE
330
9E
100
AcDbEntity
  8
1
 62
     3
 60
     1
100
AcDbPoint
 10
1815.817021708781
 20
43.00227220289708
 30
0.0
  0
POINT
  5
1FF
330
9E
100
AcDbEntity
  8
1
 62
     3
 60
     1
100
AcDbPoint
 10
1815.317021708781
 20
42.50227220289708
 30
0.0
  0
POINT
  5
200
330
9E
100
AcDbEntity
  8
1
 62
     3
 60
     1
100
AcDbPoint
 10
1815.317021708781
 20
43.00227220289708
 30
0.0
  0
POINT
  5
201
330
9E
100
AcDbEntity
  8
1
 62
     3
 60
     1
100
AcDbPoint
 10
1815.817021708781
 20
38.00227220289708
 30
0.0
  0
POINT
  5
202
330
9E
100
AcDbEntity
  8
1
 62
     3
 60
     1
100
AcDbPoint
 10
1815.317021708781
 20
38.50227220289708
 30
0.0
  0
POINT
  5
203
330
9E
100
AcDbEntity
  8
1
 62
     3
 60
     1
100
AcDbPoint
 10
1815.317021708781
 20
38.00227220289708
 30
0.0
  0
POINT
  5
204
330
9E
100
AcDbEntity
  8
1
 62
     3
 60
     1
100
AcDbPoint
 10
1710.317021708781
 20
38.00227220289708
 30
0.0
  0
POINT
  5
205
330
9E
100
AcDbEntity
  8
1
 62
     3
 60
     1
100
AcDbPoint
 10
1710.317021708781
 20
38.50227220289708
 30
0.0
  0
POINT
  5
206
330
9E
100
AcDbEntity
  8
1
 62
     3
 60
     1
100
AcDbPoint
 10
1710.817021708781
 20
38.00227220289708
 30
0.0
  0
POINT
  5
207
330
9E
100
AcDbEntity
  8
1
 62
     3
 60
     1
100
AcDbPoint
 10
1710.317021708781
 20
43.00227220289708
 30
0.0
  0
POINT
  5
208
330
9E
100
AcDbEntity
  8
1
 62
     3
 60
     1
100
AcDbPoint
 10
1710.317021708781
 20
42.50227220289708
 30
0.0
  0
POINT
  5
209
330
9E
100
AcDbEntity
  8
1
 62
     3
 60
     1
100
AcDbPoint
 10
1710.817021708781
 20
43.00227220289708
 30
0.0
  0
POINT
  5
20A
330
9E
100
AcDbEntity
  8
1
 62
     3
 60
     1
100
AcDbPoint
 10
2112.337981712647
 20
-36.22953908888894
 30
0.0
  0
POINT
  5
20B
330
9E
100
AcDbEntity
  8
1
 62
     3
 60
     1
100
AcDbPoint
 10
2111.837981712647
 20
-36.72953908888894
 30
0.0
  0
POINT
  5
20C
330
9E
100
AcDbEntity
  8
1
 62
     3
 60
     1
100
AcDbPoint
 10
2111.837981712647
 20
-36.22953908888894
 30
0.0
  0
POINT
  5
20D
330
9E
100
AcDbEntity
  8
1
 62
     3
 60
     1
100
AcDbPoint
 10
2112.337981712647
 20
-41.22953908888894
 30
0.0
  0
POINT
  5
20E
330
9E
100
AcDbEntity
  8
1
 62
     3
 60
     1
100
AcDbPoint
 10
2111.837981712647
 20
-40.72953908888894
 30
0.0
  0
POINT
  5
20F
330
9E
100
AcDbEntity
  8
1
 62
     3
 60
     1
100
AcDbPoint
 10
2111.837981712647
 20
-41.22953908888894
 30
0.0
  0
POINT
  5
210
330
9E
100
AcDbEntity
  8
1
 62
     3
 60
     1
100
AcDbPoint
 10
2216.837981712647
 20
-41.22953908888894
 30
0.0
  0
POINT
  5
211
330
9E
100
AcDbEntity
  8
1
 62
     3
 60
     1
100
AcDbPoint
 10
2216.837981712647
 20
-40.72953908888894
 30
0.0
  0
POINT
  5
212
330
9E
100
AcDbEntity
  8
1
 62
     3
 60
     1
100
AcDbPoint
 10
2217.337981712647
 20
-41.22953908888894
 30
0.0
  0
POINT
  5
213
330
9E
100
AcDbEntity
  8
1
 62
     3
 60
     1
100
AcDbPoint
 10
2216.837981712647
 20
-36.22953908888894
 30
0.0
  0
POINT
  5
214
330
9E
100
AcDbEntity
  8
1
 62
     3
 60
     1
100
AcDbPoint
 10
2216.837981712647
 20
-36.72953908888894
 30
0.0
  0
POINT
  5
215
330
9E
100
AcDbEntity
  8
1
 62
     3
 60
     1
100
AcDbPoint
 10
2217.337981712647
 20
-36.22953908888894
 30
0.0
  0
POINT
  5
216
330
9E
100
AcDbEntity
  8
1
 62
     3
 60
     1
100
AcDbPoint
 10
2105.676736811284
 20
186.4158307647589
 30
0.0
  0
POINT
  5
217
330
9E
100
AcDbEntity
  8
1
 62
     3
 60
     1
100
AcDbPoint
 10
2105.176736811284
 20
185.9158307647589
 30
0.0
  0
POINT
  5
218
330
9E
100
AcDbEntity
  8
1
 62
     3
 60
     1
100
AcDbPoint
 10
2105.176736811284
 20
186.4158307647589
 30
0.0
  0
POINT
  5
219
330
9E
100
AcDbEntity
  8
1
 62
     3
 60
     1
100
AcDbPoint
 10
2105.676736811284
 20
181.4158307647589
 30
0.0
  0
POINT
  5
21A
330
9E
100
AcDbEntity
  8
1
 62
     3
 60
     1
100
AcDbPoint
 10
2105.176736811284
 20
181.9158307647589
 30
0.0
  0
POINT
  5
21B
330
9E
100
AcDbEntity
  8
1
 62
     3
 60
     1
100
AcDbPoint
 10
2105.176736811284
 20
181.4158307647589
 30
0.0
  0
POINT
  5
21C
330
9E
100
AcDbEntity
  8
1
 62
     3
 60
     1
100
AcDbPoint
 10
2210.176736811284
 20
181.4158307647589
 30
0.0
  0
POINT
  5
21D
330
9E
100
AcDbEntity
  8
1
 62
     3
 60
     1
100
AcDbPoint
 10
2210.176736811284
 20
181.9158307647589
 30
0.0
  0
POINT
  5
21E
330
9E
100
AcDbEntity
  8
1
 62
     3
 60
     1
100
AcDbPoint
 10
2210.676736811284
 20
181.4158307647589
 30
0.0
  0
POINT
  5
21F
330
9E
100
AcDbEntity
  8
1
 62
     3
 60
     1
100
AcDbPoint
 10
2210.176736811284
 20
186.4158307647589
 30
0.0
  0
POINT
  5
220
330
9E
100
AcDbEntity
  8
1
 62
     3
 60
     1
100
AcDbPoint
 10
2210.176736811284
 20
185.9158307647589
 30
0.0
  0
POINT
  5
221
330
9E
100
AcDbEntity
  8
1
 62
     3
 60
     1
100
AcDbPoint
 10
2210.676736811284
 20
186.4158307647589
 30
0.0
  0
POINT
  5
222
330
9E
100
AcDbEntity
  8
1
 62
     3
 60
     1
100
AcDbPoint
 10
1487.412511696629
 20
-47.94158110985086
 30
0.0
  0
POINT
  5
223
330
9E
100
AcDbEntity
  8
1
 62
     3
 60
     1
100
AcDbPoint
 10
1486.912511696629
 20
-48.44158110985086
 30
0.0
  0
POINT
  5
224
330
9E
100
AcDbEntity
  8
1
 62
     3
 60
     1
100
AcDbPoint
 10
1486.912511696629
 20
-47.94158110985086
 30
0.0
  0
POINT
  5
225
330
9E
100
AcDbEntity
  8
1
 62
     3
 60
     1
100
AcDbPoint
 10
1487.412511696629
 20
-52.94158110985086
 30
0.0
  0
POINT
  5
226
330
9E
100
AcDbEntity
  8
1
 62
     3
 60
     1
100
AcDbPoint
 10
1486.912511696629
 20
-52.44158110985086
 30
0.0
  0
POINT
  5
227
330
9E
100
AcDbEntity
  8
1
 62
     3
 60
     1
100
AcDbPoint
 10
1486.912511696629
 20
-52.94158110985086
 30
0.0
  0
POINT
  5
228
330
9E
100
AcDbEntity
  8
1
 62
     3
 60
     1
100
AcDbPoint
 10
1591.912511696629
 20
-52.94158110985086
 30
0.0
  0
POINT
  5
229
330
9E
100
AcDbEntity
  8
1
 62
     3
 60
     1
100
AcDbPoint
 10
1591.912511696629
 20
-52.44158110985086
 30
0.0
  0
POINT
  5
22A
330
9E
100
AcDbEntity
  8
1
 62
     3
 60
     1
100
AcDbPoint
 10
1592.412511696629
 20
-52.94158110985086
 30
0.0
  0
POINT
  5
22B
330
9E
100
AcDbEntity
  8
1
 62
     3
 60
     1
100
AcDbPoint
 10
1591.912511696629
 20
-47.94158110985086
 30
0.0
  0
POINT
  5
22C
330
9E
100
AcDbEntity
  8
1
 62
     3
 60
     1
100
AcDbPoint
 10
1591.912511696629
 20
-48.44158110985086
 30
0.0
  0
POINT
  5
22D
330
9E
100
AcDbEntity
  8
1
 62
     3
 60
     1
100
AcDbPoint
 10
1592.412511696629
 20
-47.94158110985086
 30
0.0
  0
POINT
  5
22E
330
9E
100
AcDbEntity
  8
1
 62
     3
 60
     1
100
AcDbPoint
 10
2440.742491724799
 20
44.89838274537419
 30
0.0
  0
POINT
  5
22F
330
9E
100
AcDbEntity
  8
1
 62
     3
 60
     1
100
AcDbPoint
 10
2440.242491724799
 20
44.39838274537419
 30
0.0
  0
POINT
  5
230
330
9E
100
AcDbEntity
  8
1
 62
     3
 60
     1
100
AcDbPoint
 10
2440.242491724799
 20
44.89838274537419
 30
0.0
  0
POINT
  5
231
330
9E
100
AcDbEntity
  8
1
 62
     3
 60
     1
100
AcDbPoint
 10
2440.742491724799
 20
39.89838274537419
 30
0.0
  0
POINT
  5
232
330
9E
100
AcDbEntity
  8
1
 62
     3
 60
     1
100
AcDbPoint
 10
2440.242491724799
 20
40.39838274537419
 30
0.0
  0
POINT
  5
233
330
9E
100
AcDbEntity
  8
1
 62
     3
 60
     1
100
AcDbPoint
 10
2440.242491724799
 20
39.89838274537419
 30
0.0
  0
POINT
  5
234
330
9E
100
AcDbEntity
  8
1
 62
     3
 60
     1
100
AcDbPoint
 10
2335.242491724799
 20
39.89838274537419
 30
0.0
  0
POINT
  5
235
330
9E
100
AcDbEntity
  8
1
 62
     3
 60
     1
100
AcDbPoint
 10
2335.242491724799
 20
40.39838274537419
 30
0.0
  0
POINT
  5
236
330
9E
100
AcDbEntity
  8
1
 62
     3
 60
     1
100
AcDbPoint
 10
2335.742491724799
 20
39.89838274537419
 30
0.0
  0
POINT
  5
237
330
9E
100
AcDbEntity
  8
1
 62
     3
 60
     1
100
AcDbPoint
 10
2335.242491724799
 20
44.89838274537419
 30
0.0
  0
POINT
  5
238
330
9E
100
AcDbEntity
  8
1
 62
     3
 60
     1
100
AcDbPoint
 10
2335.242491724799
 20
44.39838274537419
 30
0.0
  0
POINT
  5
239
330
9E
100
AcDbEntity
  8
1
 62
     3
 60
     1
100
AcDbPoint
 10
2335.742491724799
 20
44.89838274537419
 30
0.0
  0
POINT
  5
23A
330
9E
100
AcDbEntity
  8
1
 62
     3
 60
     1
100
AcDbPoint
 10
2737.263451728665
 20
-34.33342854641182
 30
0.0
  0
POINT
  5
23B
330
9E
100
AcDbEntity
  8
1
 62
     3
 60
     1
100
AcDbPoint
 10
2736.763451728665
 20
-34.83342854641182
 30
0.0
  0
POINT
  5
23C
330
9E
100
AcDbEntity
  8
1
 62
     3
 60
     1
100
AcDbPoint
 10
2736.763451728665
 20
-34.33342854641182
 30
0.0
  0
POINT
  5
23D
330
9E
100
AcDbEntity
  8
1
 62
     3
 60
     1
100
AcDbPoint
 10
2737.263451728665
 20
-39.33342854641182
 30
0.0
  0
POINT
  5
23E
330
9E
100
AcDbEntity
  8
1
 62
     3
 60
     1
100
AcDbPoint
 10
2736.763451728665
 20
-38.83342854641182
 30
0.0
  0
POINT
  5
23F
330
9E
100
AcDbEntity
  8
1
 62
     3
 60
     1
100
AcDbPoint
 10
2736.763451728665
 20
-39.33342854641182
 30
0.0
  0
POINT
  5
240
330
9E
100
AcDbEntity
  8
1
 62
     3
 60
     1
100
AcDbPoint
 10
2841.763451728665
 20
-39.33342854641182
 30
0.0
  0
POINT
  5
241
330
9E
100
AcDbEntity
  8
1
 62
     3
 60
     1
100
AcDbPoint
 10
2841.763451728665
 20
-38.83342854641182
 30
0.0
  0
POINT
  5
242
330
9E
100
AcDbEntity
  8
1
 62
     3
 60
     1
100
AcDbPoint
 10
2842.263451728665
 20
-39.33342854641182
 30
0.0
  0
POINT
  5
243
330
9E
100
AcDbEntity
  8
1
 62
     3
 60
     1
100
AcDbPoint
 10
2841.763451728665
 20
-34.33342854641182
 30
0.0
  0
POINT
  5
244
330
9E
100
AcDbEntity
  8
1
 62
     3
 60
     1
100
AcDbPoint
 10
2841.763451728665
 20
-34.83342854641182
 30
0.0
  0
POINT
  5
245
330
9E
100
AcDbEntity
  8
1
 62
     3
 60
     1
100
AcDbPoint
 10
2842.263451728665
 20
-34.33342854641182
 30
0.0
  0
POINT
  5
246
330
9E
100
AcDbEntity
  8
1
 62
     3
 60
     1
100
AcDbPoint
 10
2730.602206827303
 20
188.3119413072359
 30
0.0
  0
POINT
  5
247
330
9E
100
AcDbEntity
  8
1
 62
     3
 60
     1
100
AcDbPoint
 10
2730.102206827303
 20
187.8119413072359
 30
0.0
  0
POINT
  5
248
330
9E
100
AcDbEntity
  8
1
 62
     3
 60
     1
100
AcDbPoint
 10
2730.102206827303
 20
188.3119413072359
 30
0.0
  0
POINT
  5
249
330
9E
100
AcDbEntity
  8
1
 62
     3
 60
     1
100
AcDbPoint
 10
2730.602206827303
 20
183.3119413072359
 30
0.0
  0
POINT
  5
24A
330
9E
100
AcDbEntity
  8
1
 62
     3
 60
     1
100
AcDbPoint
 10
2730.102206827303
 20
183.8119413072359
 30
0.0
  0
POINT
  5
24B
330
9E
100
AcDbEntity
  8
1
 62
     3
 60
     1
100
AcDbPoint
 10
2730.102206827303
 20
183.3119413072359
 30
0.0
  0
POINT
  5
24C
330
9E
100
AcDbEntity
  8
1
 62
     3
 60
     1
100
AcDbPoint
 10
2835.102206827303
 20
183.3119413072359
 30
0.0
  0
POINT
  5
24D
330
9E
100
AcDbEntity
  8
1
 62
     3
 60
     1
100
AcDbPoint
 10
2835.102206827303
 20
183.8119413072359
 30
0.0
  0
POINT
  5
24E
330
9E
100
AcDbEntity
  8
1
 62
     3
 60
     1
100
AcDbPoint
 10
2835.602206827303
 20
183.3119413072359
 30
0.0
  0
POINT
  5
24F
330
9E
100
AcDbEntity
  8
1
 62
     3
 60
     1
100
AcDbPoint
 10
2835.102206827303
 20
188.3119413072359
 30
0.0
  0
POINT
  5
250
330
9E
100
AcDbEntity
  8
1
 62
     3
 60
     1
100
AcDbPoint
 10
2835.102206827303
 20
187.8119413072359
 30
0.0
  0
POINT
  5
251
330
9E
100
AcDbEntity
  8
1
 62
     3
 60
     1
100
AcDbPoint
 10
2835.602206827303
 20
188.3119413072359
 30
0.0
  0
POINT
  5
252
330
9E
100
AcDbEntity
  8
1
 62
     3
 60
     1
100
AcDbPoint
 10
2112.337981712647
 20
-46.04547056737397
 30
0.0
  0
POINT
  5
253
330
9E
100
AcDbEntity
  8
1
 62
     3
 60
     1
100
AcDbPoint
 10
2111.837981712647
 20
-46.54547056737397
 30
0.0
  0
POINT
  5
254
330
9E
100
AcDbEntity
  8
1
 62
     3
 60
     1
100
AcDbPoint
 10
2111.837981712647
 20
-46.04547056737397
 30
0.0
  0
POINT
  5
255
330
9E
100
AcDbEntity
  8
1
 62
     3
 60
     1
100
AcDbPoint
 10
2112.337981712647
 20
-51.04547056737397
 30
0.0
  0
POINT
  5
256
330
9E
100
AcDbEntity
  8
1
 62
     3
 60
     1
100
AcDbPoint
 10
2111.837981712647
 20
-50.54547056737397
 30
0.0
  0
POINT
  5
257
330
9E
100
AcDbEntity
  8
1
 62
     3
 60
     1
100
AcDbPoint
 10
2111.837981712647
 20
-51.04547056737397
 30
0.0
  0
POINT
  5
258
330
9E
100
AcDbEntity
  8
1
 62
     3
 60
     1
100
AcDbPoint
 10
2216.837981712647
 20
-51.04547056737397
 30
0.0
  0
POINT
  5
259
330
9E
100
AcDbEntity
  8
1
 62
     3
 60
     1
100
AcDbPoint
 10
2216.837981712647
 20
-50.54547056737397
 30
0.0
  0
POINT
  5
25A
330
9E
100
AcDbEntity
  8
1
 62
     3
 60
     1
100
AcDbPoint
 10
2217.337981712647
 20
-51.04547056737397
 30
0.0
  0
POINT
  5
25B
330
9E
100
AcDbEntity
  8
1
 62
     3
 60
     1
100
AcDbPoint
 10
2216.837981712647
 20
-46.04547056737397
 30
0.0
  0
POINT
  5
25C
330
9E
100
AcDbEntity
  8
1
 62
     3
 60
     1
100
AcDbPoint
 10
2216.837981712647
 20
-46.54547056737397
 30
0.0
  0
POINT
  5
25D
330
9E
100
AcDbEntity
  8
1
 62
     3
 60
     1
100
AcDbPoint
 10
2217.337981712647
 20
-46.04547056737397
 30
0.0
  0
POINT
  5
25E
330
9E
100
AcDbEntity
  8
1
 62
     3
 60
     1
100
AcDbPoint
 10
1810.817021708781
 20
50.66075053793611
 30
0.0
  0
POINT
  5
25F
330
9E
100
AcDbEntity
  8
1
 62
     3
 60
     1
100
AcDbPoint
 10
1810.317021708781
 20
50.16075053793611
 30
0.0
  0
POINT
  5
260
330
9E
100
AcDbEntity
  8
1
 62
     3
 60
     1
100
AcDbPoint
 10
1810.317021708781
 20
50.66075053793611
 30
0.0
  0
POINT
  5
261
330
9E
100
AcDbEntity
  8
1
 62
     3
 60
     1
100
AcDbPoint
 10
1810.817021708781
 20
45.66075053793611
 30
0.0
  0
POINT
  5
262
330
9E
100
AcDbEntity
  8
1
 62
     3
 60
     1
100
AcDbPoint
 10
1810.317021708781
 20
46.16075053793611
 30
0.0
  0
POINT
  5
263
330
9E
100
AcDbEntity
  8
1
 62
     3
 60
     1
100
AcDbPoint
 10
1810.317021708781
 20
45.66075053793611
 30
0.0
  0
POINT
  5
264
330
9E
100
AcDbEntity
  8
1
 62
     3
 60
     1
100
AcDbPoint
 10
1705.317021708781
 20
45.66075053793611
 30
0.0
  0
POINT
  5
265
330
9E
100
AcDbEntity
  8
1
 62
     3
 60
     1
100
AcDbPoint
 10
1705.317021708781
 20
46.16075053793611
 30
0.0
  0
POINT
  5
266
330
9E
100
AcDbEntity
  8
1
 62
     3
 60
     1
100
AcDbPoint
 10
1705.817021708781
 20
45.66075053793611
 30
0.0
  0
POINT
  5
267
330
9E
100
AcDbEntity
  8
1
 62
     3
 60
     1
100
AcDbPoint
 10
1705.317021708781
 20
50.66075053793611
 30
0.0
  0
POINT
  5
268
330
9E
100
AcDbEntity
  8
1
 62
     3
 60
     1
100
AcDbPoint
 10
1705.317021708781
 20
50.16075053793611
 30
0.0
  0
POINT
  5
269
330
9E
100
AcDbEntity
  8
1
 62
     3
 60
     1
100
AcDbPoint
 10
1705.817021708781
 20
50.66075053793611
 30
0.0
  0
POINT
  5
26A
330
9E
100
AcDbEntity
  8
1
 62
     3
 60
     1
100
AcDbPoint
 10
2107.337981712647
 20
-28.571060753849
 30
0.0
  0
POINT
  5
26B
330
9E
100
AcDbEntity
  8
1
 62
     3
 60
     1
100
AcDbPoint
 10
2106.837981712647
 20
-29.071060753849
 30
0.0
  0
POINT
  5
26C
330
9E
100
AcDbEntity
  8
1
 62
     3
 60
     1
100
AcDbPoint
 10
2106.837981712647
 20
-28.571060753849
 30
0.0
  0
POINT
  5
26D
330
9E
100
AcDbEntity
  8
1
 62
     3
 60
     1
100
AcDbPoint
 10
2107.337981712647
 20
-33.571060753849
 30
0.0
  0
POINT
  5
26E
330
9E
100
AcDbEntity
  8
1
 62
     3
 60
     1
100
AcDbPoint
 10
2106.837981712647
 20
-33.071060753849
 30
0.0
  0
POINT
  5
26F
330
9E
100
AcDbEntity
  8
1
 62
     3
 60
     1
100
AcDbPoint
 10
2106.837981712647
 20
-33.571060753849
 30
0.0
  0
POINT
  5
270
330
9E
100
AcDbEntity
  8
1
 62
     3
 60
     1
100
AcDbPoint
 10
2211.837981712647
 20
-33.571060753849
 30
0.0
  0
POINT
  5
271
330
9E
100
AcDbEntity
  8
1
 62
     3
 60
     1
100
AcDbPoint
 10
2211.837981712647
 20
-33.071060753849
 30
0.0
  0
POINT
  5
272
330
9E
100
AcDbEntity
  8
1
 62
     3
 60
     1
100
AcDbPoint
 10
2212.337981712647
 20
-33.571060753849
 30
0.0
  0
POINT
  5
273
330
9E
100
AcDbEntity
  8
1
 62
     3
 60
     1
100
AcDbPoint
 10
2211.837981712647
 20
-28.571060753849
 30
0.0
  0
POINT
  5
274
330
9E
100
AcDbEntity
  8
1
 62
     3
 60
     1
100
AcDbPoint
 10
2211.837981712647
 20
-29.071060753849
 30
0.0
  0
POINT
  5
275
330
9E
100
AcDbEntity
  8
1
 62
     3
 60
     1
100
AcDbPoint
 10
2212.337981712647
 20
-28.571060753849
 30
0.0
  0
POINT
  5
276
330
9E
100
AcDbEntity
  8
1
 62
     3
 60
     1
100
AcDbPoint
 10
2100.676736811284
 20
194.0743090997983
 30
0.0
  0
POINT
  5
277
330
9E
100
AcDbEntity
  8
1
 62
     3
 60
     1
100
AcDbPoint
 10
2100.176736811284
 20
193.5743090997983
 30
0.0
  0
POINT
  5
278
330
9E
100
AcDbEntity
  8
1
 62
     3
 60
     1
100
AcDbPoint
 10
2100.176736811284
 20
194.0743090997983
 30
0.0
  0
POINT
  5
279
330
9E
100
AcDbEntity
  8
1
 62
     3
 60
     1
100
AcDbPoint
 10
2100.676736811284
 20
189.0743090997983
 30
0.0
  0
POINT
  5
27A
330
9E
100
AcDbEntity
  8
1
 62
     3
 60
     1
100
AcDbPoint
 10
2100.176736811284
 20
189.5743090997983
 30
0.0
  0
POINT
  5
27B
330
9E
100
AcDbEntity
  8
1
 62
     3
 60
     1
100
AcDbPoint
 10
2100.176736811284
 20
189.0743090997983
 30
0.0
  0
POINT
  5
27C
330
9E
100
AcDbEntity
  8
1
 62
     3
 60
     1
100
AcDbPoint
 10
2205.176736811284
 20
189.0743090997983
 30
0.0
  0
POINT
  5
27D
330
9E
100
AcDbEntity
  8
1
 62
     3
 60
     1
100
AcDbPoint
 10
2205.176736811284
 20
189.5743090997983
 30
0.0
  0
POINT
  5
27E
330
9E
100
AcDbEntity
  8
1
 62
     3
 60
     1
100
AcDbPoint
 10
2205.676736811284
 20
189.0743090997983
 30
0.0
  0
POINT
  5
27F
330
9E
100
AcDbEntity
  8
1
 62
     3
 60
     1
100
AcDbPoint
 10
2205.176736811284
 20
194.0743090997983
 30
0.0
  0
POINT
  5
280
330
9E
100
AcDbEntity
  8
1
 62
     3
 60
     1
100
AcDbPoint
 10
2205.176736811284
 20
193.5743090997983
 30
0.0
  0
POINT
  5
281
330
9E
100
AcDbEntity
  8
1
 62
     3
 60
     1
100
AcDbPoint
 10
2205.676736811284
 20
194.0743090997983
 30
0.0
  0
POINT
  5
282
330
9E
100
AcDbEntity
  8
1
 62
     3
 60
     1
100
AcDbPoint
 10
1482.412511696629
 20
-40.28310277481182
 30
0.0
  0
POINT
  5
283
330
9E
100
AcDbEntity
  8
1
 62
     3
 60
     1
100
AcDbPoint
 10
1481.912511696629
 20
-40.78310277481182
 30
0.0
  0
POINT
  5
284
330
9E
100
AcDbEntity
  8
1
 62
     3
 60
     1
100
AcDbPoint
 10
1481.912511696629
 20
-40.28310277481182
 30
0.0
  0
POINT
  5
285
330
9E
100
AcDbEntity
  8
1
 62
     3
 60
     1
100
AcDbPoint
 10
1482.412511696629
 20
-45.28310277481182
 30
0.0
  0
POINT
  5
286
330
9E
100
AcDbEntity
  8
1
 62
     3
 60
     1
100
AcDbPoint
 10
1481.912511696629
 20
-44.78310277481182
 30
0.0
  0
POINT
  5
287
330
9E
100
AcDbEntity
  8
1
 62
     3
 60
     1
100
AcDbPoint
 10
1481.912511696629
 20
-45.28310277481182
 30
0.0
  0
POINT
  5
288
330
9E
100
AcDbEntity
  8
1
 62
     3
 60
     1
100
AcDbPoint
 10
1586.912511696629
 20
-45.28310277481182
 30
0.0
  0
POINT
  5
289
330
9E
100
AcDbEntity
  8
1
 62
     3
 60
     1
100
AcDbPoint
 10
1586.912511696629
 20
-44.78310277481182
 30
0.0
  0
POINT
  5
28A
330
9E
100
AcDbEntity
  8
1
 62
     3
 60
     1
100
AcDbPoint
 10
1587.412511696629
 20
-45.28310277481182
 30
0.0
  0
POINT
  5
28B
330
9E
100
AcDbEntity
  8
1
 62
     3
 60
     1
100
AcDbPoint
 10
1586.912511696629
 20
-40.28310277481182
 30
0.0
  0
POINT
  5
28C
330
9E
100
AcDbEntity
  8
1
 62
     3
 60
     1
100
AcDbPoint
 10
1586.912511696629
 20
-40.78310277481182
 30
0.0
  0
POINT
  5
28D
330
9E
100
AcDbEntity
  8
1
 62
     3
 60
     1
100
AcDbPoint
 10
1587.412511696629
 20
-40.28310277481182
 30
0.0
  0
POINT
  5
28E
330
9E
100
AcDbEntity
  8
1
 62
     3
 60
     1
100
AcDbPoint
 10
2435.742491724799
 20
52.55686108041414
 30
0.0
  0
POINT
  5
28F
330
9E
100
AcDbEntity
  8
1
 62
     3
 60
     1
100
AcDbPoint
 10
2435.242491724799
 20
52.056861080413
 30
0.0
  0
POINT
  5
290
330
9E
100
AcDbEntity
  8
1
 62
     3
 60
     1
100
AcDbPoint
 10
2435.242491724799
 20
52.55686108041414
 30
0.0
  0
POINT
  5
291
330
9E
100
AcDbEntity
  8
1
 62
     3
 60
     1
100
AcDbPoint
 10
2435.742491724799
 20
47.556861080413
 30
0.0
  0
POINT
  5
292
330
9E
100
AcDbEntity
  8
1
 62
     3
 60
     1
100
AcDbPoint
 10
2435.242491724799
 20
48.05686108041414
 30
0.0
  0
POINT
  5
293
330
9E
100
AcDbEntity
  8
1
 62
     3
 60
     1
100
AcDbPoint
 10
2435.242491724799
 20
47.556861080413
 30
0.0
  0
POINT
  5
294
330
9E
100
AcDbEntity
  8
1
 62
     3
 60
     1
100
AcDbPoint
 10
2330.242491724799
 20
47.556861080413
 30
0.0
  0
POINT
  5
295
330
9E
100
AcDbEntity
  8
1
 62
     3
 60
     1
100
AcDbPoint
 10
2330.242491724799
 20
48.05686108041414
 30
0.0
  0
POINT
  5
296
330
9E
100
AcDbEntity
  8
1
 62
     3
 60
     1
100
AcDbPoint
 10
2330.742491724799
 20
47.556861080413
 30
0.0
  0
POINT
  5
297
330
9E
100
AcDbEntity
  8
1
 62
     3
 60
     1
100
AcDbPoint
 10
2330.242491724799
 20
52.55686108041414
 30
0.0
  0
POINT
  5
298
330
9E
100
AcDbEntity
  8
1
 62
     3
 60
     1
100
AcDbPoint
 10
2330.242491724799
 20
52.056861080413
 30
0.0
  0
POINT
  5
299
330
9E
100
AcDbEntity
  8
1
 62
     3
 60
     1
100
AcDbPoint
 10
2330.742491724799
 20
52.55686108041414
 30
0.0
  0
POINT
  5
29A
330
9E
100
AcDbEntity
  8
1
 62
     3
 60
     1
100
AcDbPoint
 10
2732.263451728665
 20
-26.67495021137188
 30
0.0
  0
POINT
  5
29B
330
9E
100
AcDbEntity
  8
1
 62
     3
 60
     1
100
AcDbPoint
 10
2731.763451728665
 20
-27.17495021137188
 30
0.0
  0
POINT
  5
29C
330
9E
100
AcDbEntity
  8
1
 62
     3
 60
     1
100
AcDbPoint
 10
2731.763451728665
 20
-26.67495021137188
 30
0.0
  0
POINT
  5
29D
330
9E
100
AcDbEntity
  8
1
 62
     3
 60
     1
100
AcDbPoint
 10
2732.263451728665
 20
-31.67495021137188
 30
0.0
  0
POINT
  5
29E
330
9E
100
AcDbEntity
  8
1
 62
     3
 60
     1
100
AcDbPoint
 10
2731.763451728665
 20
-31.17495021137188
 30
0.0
  0
POINT
  5
29F
330
9E
100
AcDbEntity
  8
1
 62
     3
 60
     1
100
AcDbPoint
 10
2731.763451728665
 20
-31.67495021137188
 30
0.0
  0
POINT
  5
2A0
330
9E
100
AcDbEntity
  8
1
 62
     3
 60
     1
100
AcDbPoint
 10
2836.763451728665
 20
-31.67495021137188
 30
0.0
  0
POINT
  5
2A1
330
9E
100
AcDbEntity
  8
1
 62
     3
 60
     1
100
AcDbPoint
 10
2836.763451728665
 20
-31.17495021137188
 30
0.0
  0
POINT
  5
2A2
330
9E
100
AcDbEntity
  8
1
 62
     3
 60
     1
100
AcDbPoint
 10
2837.263451728665
 20
-31.67495021137188
 30
0.0
  0
POINT
  5
2A3
330
9E
100
AcDbEntity
  8
1
 62
     3
 60
     1
100
AcDbPoint
 10
2836.763451728665
 20
-26.67495021137188
 30
0.0
  0
POINT
  5
2A4
330
9E
100
AcDbEntity
  8
1
 62
     3
 60
     1
100
AcDbPoint
 10
2836.763451728665
 20
-27.17495021137188
 30
0.0
  0
POINT
  5
2A5
330
9E
100
AcDbEntity
  8
1
 62
     3
 60
     1
100
AcDbPoint
 10
2837.263451728665
 20
-26.67495021137188
 30
0.0
  0
POINT
  5
2A6
330
9E
100
AcDbEntity
  8
1
 62
     3
 60
     1
100
AcDbPoint
 10
2725.602206827303
 20
195.9704196422752
 30
0.0
  0
POINT
  5
2A7
330
9E
100
AcDbEntity
  8
1
 62
     3
 60
     1
100
AcDbPoint
 10
2725.102206827303
 20
195.4704196422752
 30
0.0
  0
POINT
  5
2A8
330
9E
100
AcDbEntity
  8
1
 62
     3
 60
     1
100
AcDbPoint
 10
2725.102206827303
 20
195.9704196422752
 30
0.0
  0
POINT
  5
2A9
330
9E
100
AcDbEntity
  8
1
 62
     3
 60
     1
100
AcDbPoint
 10
2725.602206827303
 20
190.9704196422752
 30
0.0
  0
POINT
  5
2AA
330
9E
100
AcDbEntity
  8
1
 62
     3
 60
     1
100
AcDbPoint
 10
2725.102206827303
 20
191.4704196422752
 30
0.0
  0
POINT
  5
2AB
330
9E
100
AcDbEntity
  8
1
 62
     3
 60
     1
100
AcDbPoint
 10
2725.102206827303
 20
190.9704196422752
 30
0.0
  0
POINT
  5
2AC
330
9E
100
AcDbEntity
  8
1
 62
     3
 60
     1
100
AcDbPoint
 10
2830.102206827303
 20
190.9704196422752
 30
0.0
  0
POINT
  5
2AD
330
9E
100
AcDbEntity
  8
1
 62
     3
 60
     1
100
AcDbPoint
 10
2830.102206827303
 20
191.4704196422752
 30
0.0
  0
POINT
  5
2AE
330
9E
100
AcDbEntity
  8
1
 62
     3
 60
     1
100
AcDbPoint
 10
2830.602206827303
 20
190.9704196422752
 30
0.0
  0
POINT
  5
2AF
330
9E
100
AcDbEntity
  8
1
 62
     3
 60
     1
100
AcDbPoint
 10
2830.102206827303
 20
195.9704196422752
 30
0.0
  0
POINT
  5
2B0
330
9E
100
AcDbEntity
  8
1
 62
     3
 60
     1
100
AcDbPoint
 10
2830.102206827303
 20
195.4704196422752
 30
0.0
  0
POINT
  5
2B1
330
9E
100
AcDbEntity
  8
1
 62
     3
 60
     1
100
AcDbPoint
 10
2830.602206827303
 20
195.9704196422752
 30
0.0
  0
POINT
  5
2B2
330
9E
100
AcDbEntity
  8
1
 62
     3
 60
     1
100
AcDbPoint
 10
2107.337981712647
 20
-38.38699223233402
 30
0.0
  0
POINT
  5
2B3
330
9E
100
AcDbEntity
  8
1
 62
     3
 60
     1
100
AcDbPoint
 10
2106.837981712647
 20
-38.88699223233402
 30
0.0
  0
POINT
  5
2B4
330
9E
100
AcDbEntity
  8
1
 62
     3
 60
     1
100
AcDbPoint
 10
2106.837981712647
 20
-38.38699223233402
 30
0.0
  0
POINT
  5
2B5
330
9E
100
AcDbEntity
  8
1
 62
     3
 60
     1
100
AcDbPoint
 10
2107.337981712647
 20
-43.38699223233402
 30
0.0
  0
POINT
  5
2B6
330
9E
100
AcDbEntity
  8
1
 62
     3
 60
     1
100
AcDbPoint
 10
2106.837981712647
 20
-42.88699223233402
 30
0.0
  0
POINT
  5
2B7
330
9E
100
AcDbEntity
  8
1
 62
     3
 60
     1
100
AcDbPoint
 10
2106.837981712647
 20
-43.38699223233402
 30
0.0
  0
POINT
  5
2B8
330
9E
100
AcDbEntity
  8
1
 62
     3
 60
     1
100
AcDbPoint
 10
2211.837981712647
 20
-43.38699223233402
 30
0.0
  0
POINT
  5
2B9
330
9E
100
AcDbEntity
  8
1
 62
     3
 60
     1
100
AcDbPoint
 10
2211.837981712647
 20
-42.88699223233402
 30
0.0
  0
POINT
  5
2BA
330
9E
100
AcDbEntity
  8
1
 62
     3
 60
     1
100
AcDbPoint
 10
2212.337981712647
 20
-43.38699223233402
 30
0.0
  0
POINT
  5
2BB
330
9E
100
AcDbEntity
  8
1
 62
     3
 60
     1
100
AcDbPoint
 10
2211.837981712647
 20
-38.38699223233402
 30
0.0
  0
POINT
  5
2BC
330
9E
100
AcDbEntity
  8
1
 62
     3
 60
     1
100
AcDbPoint
 10
2211.837981712647
 20
-38.88699223233402
 30
0.0
  0
POINT
  5
2BD
330
9E
100
AcDbEntity
  8
1
 62
     3
 60
     1
100
AcDbPoint
 10
2212.337981712647
 20
-38.38699223233402
 30
0.0
  0
ENDBLK
  5
BC
330
9E
100
AcDbEntity
  8
0
100
AcDbBlockEnd
  0
BLOCK
  5
BF
330
BD
100
AcDbEntity
  8
0
100
AcDbBlockBegin
  2
GIB2875-32_蹦妒薨A
 70
     0
 10
-254.1723743005641
 20
-289.46313018911
 30
0.0
  3
GIB2875-32_蹦妒薨A
  1

  0
INSERT
  5
BE
330
BD
100
AcDbEntity
  8
0
100
AcDbBlockReference
  2
AC00771-01_DB
 10
670.3652597714226
 20
-257.364532878383
 30
0.0
  0
ENDBLK
  5
C0
330
BD
100
AcDbEntity
  8
0
100
AcDbBlockEnd
  0
BLOCK
  5
C3
330
C1
100
AcDbEntity
  8
0
100
AcDbBlockBegin
  2
AD14436-01_DB
 70
     0
 10
-1348.28543551836
 20
1195.92661798973
 30
0.0
  3
AD14436-01_DB
  1

  0
INSERT
  5
C2
330
C1
100
AcDbEntity
  8
0
100
AcDbBlockReference
  2
GIB2875-32_蹦妒薨A
 10
-254.1723743005641
 20
-289.46313018911
 30
0.0
  0
ENDBLK
  5
C4
330
C1
100
AcDbEntity
  8
0
100
AcDbBlockEnd
  0
BLOCK
  5
527
330
520
100
AcDbEntity
  8
0
100
AcDbBlockBegin
  2
*D32
 70
     1
 10
0.0
 20
0.0
 30
0.0
  3
*D32
  1

  0
LINE
  5
521
330
520
100
AcDbEntity
  8
1
  6
Continuous
 62
     2
100
AcDbLine
 10
-197.6289911385385
 20
122.1924074480029
 30
0.0
 11
-135.8202446605919
 21
122.1924074480029
 31
0.0
  0
LINE
  5
522
330
520
100
AcDbEntity
  8
1
  6
Continuous
 62
     2
100
AcDbLine
 10
-197.6289911385385
 20
115.2069523579393
 30
0.0
 11
-197.6289911385385
 21
123.6924074480029
 31
0.0
  0
LINE
  5
523
330
520
100
AcDbEntity
  8
1
  6
Continuous
 62
     2
100
AcDbLine
 10
-135.8202446605919
 20
113.4569523579391
 30
0.0
 11
-135.8202446605919
 21
123.6924074480029
 31
0.0
  0
SOLID
  5
524
330
520
100
AcDbEntity
  8
1
 62
     2
100
AcDbTrace
 10
-194.4289911385385
 20
122.6136954402826
 30
0.0
 11
-194.4289911385385
 21
121.7711194557232
 31
0.0
 12
-197.6289911385385
 22
122.1924074480029
 32
0.0
 13
-197.6289911385385
 23
122.1924074480029
 33
0.0
  0
SOLID
  5
525
330
520
100
AcDbEntity
  8
1
 62
     2
100
AcDbTrace
 10
-139.0202446605919
 20
121.7711194557232
 30
0.0
 11
-139.0202446605919
 21
122.6136954402826
 31
0.0
 12
-135.8202446605919
 22
122.1924074480029
 32
0.0
 13
-135.8202446605919
 23
122.1924074480029
 33
0.0
  0
MTEXT
  5
526
330
520
100
AcDbEntity
  8
1
 62
     2
100
AcDbMText
 10
-174.9304197949557
 20
124.9924074480029
 30
0.0
 40
3.2
 41
0.0
 71
     7
 72
     1
  1
\C2;300\C2;\H1.92;\S+40^  0;
  7
CONVERTER_13
 11
0.9999999999970619
 21
2.424068405545306E-6
 31
0.0
 73
     1
 44
0.60024009603842
  0
ENDBLK
  5
528
330
520
100
AcDbEntity
  8
0
100
AcDbBlockEnd
  0
BLOCK
  5
534
330
52B
100
AcDbEntity
  8
0
100
AcDbBlockBegin
  2
*D33
 70
     1
 10
0.0
 20
0.0
 30
0.0
  3
*D33
  1

  0
LINE
  5
52C
330
52B
100
AcDbEntity
  8
1
  6
Continuous
 62
     2
100
AcDbLine
 10
-123.395750306887
 20
116.3561325232869
 30
0.0
 11
-135.8202446605918
 21
116.3561325232869
 31
0.0
  0
LINE
  5
52D
330
52B
100
AcDbEntity
  8
1
  6
Continuous
 62
     2
100
AcDbLine
 10
-135.8202446605918
 20
116.3561325232869
 30
0.0
 11
-139.3202446605918
 21
116.3561325232869
 31
0.0
  0
LINE
  5
52E
330
52B
100
AcDbEntity
  8
1
  6
Continuous
 62
     2
100
AcDbLine
 10
-139.3202446605918
 20
116.3561325232869
 30
0.0
 11
-145.7202446605918
 21
116.3561325232869
 31
0.0
  0
LINE
  5
52F
330
52B
100
AcDbEntity
  8
1
  6
Continuous
 62
     2
100
AcDbLine
 10
-135.8202446605918
 20
113.456952357939
 30
0.0
 11
-135.8202446605918
 21
117.8561325232869
 31
0.0
  0
LINE
  5
530
330
52B
100
AcDbEntity
  8
1
  6
Continuous
 62
     2
100
AcDbLine
 10
-139.3202446605918
 20
113.8569523579392
 30
0.0
 11
-139.3202446605918
 21
117.8561325232869
 31
0.0
  0
SOLID
  5
531
330
52B
100
AcDbEntity
  8
1
 62
     2
100
AcDbTrace
 10
-132.6202446605918
 20
116.7774205155666
 30
0.0
 11
-132.6202446605918
 21
115.9348445310072
 31
0.0
 12
-135.8202446605918
 22
116.3561325232869
 32
0.0
 13
-135.8202446605918
 23
116.3561325232869
 33
0.0
  0
SOLID
  5
532
330
52B
100
AcDbEntity
  8
1
 62
     2
100
AcDbTrace
 10
-142.5202446605918
 20
115.9348445310072
 30
0.0
 11
-142.5202446605918
 21
116.7774205155666
 31
0.0
 12
-139.3202446605918
 22
116.3561325232869
 32
0.0
 13
-139.3202446605918
 23
116.3561325232869
 33
0.0
  0
MTEXT
  5
533
330
52B
100
AcDbEntity
  8
1
 62
     2
100
AcDbMText
 10
-133.9397503068793
 20
118.3561261625314
 30
0.0
 40
3.2
 41
0.0
 71
     7
 72
     1
  1
\C2;(\C2;3.5\C2;)
  7
CONVERTER_13
 11
0.9999999999970619
 21
2.424068405545306E-6
 31
0.0
 73
     1
 44
0.60024009603842
  0
ENDBLK
  5
535
330
52B
100
AcDbEntity
  8
0
100
AcDbBlockEnd
  0
BLOCK
  5
53F
330
538
100
AcDbEntity
  8
0
100
AcDbBlockBegin
  2
*D34
 70
     1
 10
0.0
 20
0.0
 30
0.0
  3
*D34
  1

  0
LINE
  5
539
330
538
100
AcDbEntity
  8
1
  6
Continuous
 62
     2
100
AcDbLine
 10
-157.0883606860418
 20
215.38008191821
 30
0.0
 11
-199.8883606860417
 21
215.38008191821
 31
0.0
  0
LINE
  5
53A
330
538
100
AcDbEntity
  8
1
  6
Continuous
 62
     2
100
AcDbLine
 10
-157.0883606860418
 20
194.3108431270879
 30
0.0
 11
-157.0883606860418
 21
216.88008191821
 31
0.0
  0
LINE
  5
53B
330
538
100
AcDbEntity
  8
1
  6
Continuous
 62
     2
100
AcDbLine
 10
-199.8883606860417
 20
193.9108431262389
 30
0.0
 11
-199.8883606860417
 21
216.88008191821
 31
0.0
  0
SOLID
  5
53C
330
538
100
AcDbEntity
  8
1
 62
     2
100
AcDbTrace
 10
-160.2883606860418
 20
214.9587939259303
 30
0.0
 11
-160.2883606860418
 21
215.8013699104897
 31
0.0
 12
-157.0883606860418
 22
215.38008191821
 32
0.0
 13
-157.0883606860418
 23
215.38008191821
 33
0.0
  0
SOLID
  5
53D
330
538
100
AcDbEntity
  8
1
 62
     2
100
AcDbTrace
 10
-196.6883606860417
 20
215.8013699104897
 30
0.0
 11
-196.6883606860417
 21
214.9587939259303
 31
0.0
 12
-199.8883606860417
 22
215.38008191821
 32
0.0
 13
-199.8883606860417
 23
215.38008191821
 33
0.0
  0
MTEXT
  5
53E
330
538
100
AcDbEntity
  8
1
 62
     2
100
AcDbMText
 10
-183.380778857459
 20
217.38008191821
 30
0.0
 40
3.2
 41
0.0
 71
     7
 72
     1
  1
\C2;L\C2;\H1.92;{\Fgdt;`}0.5
  7
CONVERTER_13
 11
0.9999999999970619
 21
2.424068405545306E-6
 31
0.0
 73
     1
 44
0.60024009603842
  0
ENDBLK
  5
540
330
538
100
AcDbEntity
  8
0
100
AcDbBlockEnd
  0
BLOCK
  5
54C
330
543
100
AcDbEntity
  8
0
100
AcDbBlockBegin
  2
*D35
 70
     1
 10
0.0
 20
0.0
 30
0.0
  3
*D35
  1

  0
LINE
  5
544
330
543
100
AcDbEntity
  8
1
  6
Continuous
 62
     2
100
AcDbLine
 10
-188.921039510757
 20
206.158300398089
 30
0.0
 11
-199.8883606860417
 21
206.158300398089
 31
0.0
  0
LINE
  5
545
330
543
100
AcDbEntity
  8
1
  6
Continuous
 62
     2
100
AcDbLine
 10
-199.8883606860417
 20
206.158300398089
 30
0.0
 11
-201.8883606863099
 21
206.158300398089
 31
0.0
  0
LINE
  5
546
330
543
100
AcDbEntity
  8
1
  6
Continuous
 62
     2
100
AcDbLine
 10
-201.8883606863099
 20
206.158300398089
 30
0.0
 11
-208.2883606863099
 21
206.158300398089
 31
0.0
  0
LINE
  5
547
330
543
100
AcDbEntity
  8
1
  6
Continuous
 62
     2
100
AcDbLine
 10
-199.8883606860417
 20
193.9108431262389
 30
0.0
 11
-199.8883606860417
 21
207.658300398089
 31
0.0
  0
LINE
  5
548
330
543
100
AcDbEntity
  8
1
  6
Continuous
 62
     2
100
AcDbLine
 10
-201.8883606863099
 20
182.510843126567
 30
0.0
 11
-201.8883606863099
 21
207.658300398089
 31
0.0
  0
SOLID
  5
549
330
543
100
AcDbEntity
  8
1
 62
     2
100
AcDbTrace
 10
-196.6883606860417
 20
206.5795883903687
 30
0.0
 11
-196.6883606860417
 21
205.7370124058093
 31
0.0
 12
-199.8883606860417
 22
206.158300398089
 32
0.0
 13
-199.8883606860417
 23
206.158300398089
 33
0.0
  0
SOLID
  5
54A
330
543
100
AcDbEntity
  8
1
 62
     2
100
AcDbTrace
 10
-205.0883606863099
 20
205.7370124058093
 30
0.0
 11
-205.0883606863099
 21
206.5795883903687
 31
0.0
 12
-201.8883606863099
 22
206.158300398089
 32
0.0
 13
-201.8883606863099
 23
206.158300398089
 33
0.0
  0
MTEXT
  5
54B
330
543
100
AcDbEntity
  8
1
 62
     2
100
AcDbMText
 10
-197.289039510757
 20
208.158300398089
 30
0.0
 40
3.2
 41
0.0
 71
     7
 72
     1
  1
\C2;2\C2;\H1.92;{\Fgdt;`}0.2
  7
CONVERTER_13
 11
0.9999999999970619
 21
2.424068405545306E-6
 31
0.0
 73
     1
 44
0.60024009603842
  0
ENDBLK
  5
54D
330
543
100
AcDbEntity
  8
0
100
AcDbBlockEnd
  0
BLOCK
  5
557
330
550
100
AcDbEntity
  8
0
100
AcDbBlockBegin
  2
*D36
 70
     1
 10
0.0
 20
0.0
 30
0.0
  3
*D36
  1

  0
LINE
  5
551
330
550
100
AcDbEntity
  8
1
  6
Continuous
 62
     2
100
AcDbLine
 10
-199.8883606860418
 20
215.38008191821
 30
0.0
 11
-221.8883606860418
 21
215.38008191821
 31
0.0
  0
LINE
  5
552
330
550
100
AcDbEntity
  8
1
  6
Continuous
 62
     2
100
AcDbLine
 10
-199.8883606860418
 20
193.9108431262389
 30
0.0
 11
-199.8883606860418
 21
216.88008191821
 31
0.0
  0
LINE
  5
553
330
550
100
AcDbEntity
  8
1
  6
Continuous
 62
     2
100
AcDbLine
 10
-221.8883606860418
 20
175.4288771161727
 30
0.0
 11
-221.8883606860418
 21
216.88008191821
 31
0.0
  0
SOLID
  5
554
330
550
100
AcDbEntity
  8
1
 62
     2
100
AcDbTrace
 10
-203.0883606860418
 20
214.9587939259303
 30
0.0
 11
-203.0883606860418
 21
215.8013699104897
 31
0.0
 12
-199.8883606860418
 22
215.38008191821
 32
0.0
 13
-199.8883606860418
 23
215.38008191821
 33
0.0
  0
SOLID
  5
555
330
550
100
AcDbEntity
  8
1
 62
     2
100
AcDbTrace
 10
-218.6883606860418
 20
215.8013699104897
 30
0.0
 11
-218.6883606860418
 21
214.9587939259303
 31
0.0
 12
-221.8883606860418
 22
215.38008191821
 32
0.0
 13
-221.8883606860418
 23
215.38008191821
 33
0.0
  0
MTEXT
  5
556
330
550
100
AcDbEntity
  8
1
 62
     2
100
AcDbMText
 10
-216.114365327379
 20
217.38008191821
 30
0.0
 40
3.2
 41
0.0
 71
     7
 72
     1
  1
\C2;22\C2;\H1.92;{\Fgdt;`}0.5
  7
CONVERTER_13
 11
0.9999999999970619
 21
2.424068405545306E-6
 31
0.0
 73
     1
 44
0.60024009603842
  0
ENDBLK
  5
558
330
550
100
AcDbEntity
  8
0
100
AcDbBlockEnd
  0
BLOCK
  5
562
330
55B
100
AcDbEntity
  8
0
100
AcDbBlockBegin
  2
*D37
 70
     1
 10
0.0
 20
0.0
 30
0.0
  3
*D37
  1

  0
LINE
  5
55C
330
55B
100
AcDbEntity
  8
1
  6
Continuous
 62
     2
100
AcDbLine
 10
-330.1287504390298
 20
215.38008191821
 30
0.0
 11
-288.42875043903
 21
215.38008191821
 31
0.0
  0
LINE
  5
55D
330
55B
100
AcDbEntity
  8
1
  6
Continuous
 62
     2
100
AcDbLine
 10
-330.1287504390298
 20
192.1608431586206
 30
0.0
 11
-330.1287504390298
 21
216.88008191821
 31
0.0
  0
LINE
  5
55E
330
55B
100
AcDbEntity
  8
1
  6
Continuous
 62
     2
100
AcDbLine
 10
-288.42875043903
 20
192.1608431586206
 30
0.0
 11
-288.42875043903
 21
216.88008191821
 31
0.0
  0
SOLID
  5
55F
330
55B
100
AcDbEntity
  8
1
 62
     2
100
AcDbTrace
 10
-326.9287504390298
 20
215.8013699104897
 30
0.0
 11
-326.9287504390298
 21
214.9587939259303
 31
0.0
 12
-330.1287504390298
 22
215.38008191821
 32
0.0
 13
-330.1287504390298
 23
215.38008191821
 33
0.0
  0
SOLID
  5
560
330
55B
100
AcDbEntity
  8
1
 62
     2
100
AcDbTrace
 10
-291.6287504390299
 20
214.9587939259303
 30
0.0
 11
-291.6287504390299
 21
215.8013699104897
 31
0.0
 12
-288.42875043903
 22
215.38008191821
 32
0.0
 13
-288.42875043903
 23
215.38008191821
 33
0.0
  0
MTEXT
  5
561
330
55B
100
AcDbEntity
  8
1
 62
     2
100
AcDbMText
 10
-313.921705894173
 20
217.38008191821
 30
0.0
 40
3.2
 41
0.0
 71
     7
 72
     1
  1
(42.5)
  7
CONVERTER_13
 11
0.9999999999970619
 21
2.424068405545306E-6
 31
0.0
 73
     1
 44
0.60024009603842
  0
ENDBLK
  5
563
330
55B
100
AcDbEntity
  8
0
100
AcDbBlockEnd
  0
BLOCK
  5
56D
330
566
100
AcDbEntity
  8
0
100
AcDbBlockBegin
  2
*D38
 70
     1
 10
0.0
 20
0.0
 30
0.0
  3
*D38
  1

  0
LINE
  5
567
330
566
100
AcDbEntity
  8
1
  6
Continuous
 62
     2
100
AcDbLine
 10
-262.474328025212
 20
193.1608431586206
 30
0.0
 11
-262.474328025212
 21
151.4608431586205
 31
0.0
  0
LINE
  5
568
330
566
100
AcDbEntity
  8
1
  6
Continuous
 62
     2
100
AcDbLine
 10
-289.4287504390299
 20
193.1608431586206
 30
0.0
 11
-260.974328025212
 21
193.1608431586206
 31
0.0
  0
LINE
  5
569
330
566
100
AcDbEntity
  8
1
  6
Continuous
 62
     2
100
AcDbLine
 10
-289.4287504390299
 20
151.4608431586205
 30
0.0
 11
-260.974328025212
 21
151.4608431586205
 31
0.0
  0
SOLID
  5
56A
330
566
100
AcDbEntity
  8
1
 62
     2
100
AcDbTrace
 10
-262.0530400329324
 20
189.9608431586206
 30
0.0
 11
-262.8956160174916
 21
189.9608431586206
 31
0.0
 12
-262.474328025212
 22
193.1608431586206
 32
0.0
 13
-262.474328025212
 23
193.1608431586206
 33
0.0
  0
SOLID
  5
56B
330
566
100
AcDbEntity
  8
1
 62
     2
100
AcDbTrace
 10
-262.8956160174916
 20
154.6608431586205
 30
0.0
 11
-262.0530400329324
 21
154.6608431586205
 31
0.0
 12
-262.474328025212
 22
151.4608431586205
 32
0.0
 13
-262.474328025212
 23
151.4608431586205
 33
0.0
  0
MTEXT
  5
56C
330
566
100
AcDbEntity
  8
1
 62
     2
100
AcDbMText
 10
-264.474328025212
 20
166.785805335783
 30
0.0
 40
3.2
 41
0.0
 71
     7
 72
     1
  1
(42.5)
  7
CONVERTER_13
 11
0.0
 21
1.0
 31
0.0
 73
     1
 44
0.60024009603842
  0
ENDBLK
  5
56E
330
566
100
AcDbEntity
  8
0
100
AcDbBlockEnd
  0
BLOCK
  5
578
330
571
100
AcDbEntity
  8
0
100
AcDbBlockBegin
  2
*D39
 70
     1
 10
0.0
 20
0.0
 30
0.0
  3
*D39
  1

  0
LINE
  5
572
330
571
100
AcDbEntity
  8
1
  6
Continuous
 62
     2
100
AcDbLine
 10
-274.563587917448
 20
187.8108430962246
 30
0.0
 11
-274.563587917448
 21
156.8108432210165
 31
0.0
  0
LINE
  5
573
330
571
100
AcDbEntity
  8
1
  6
Continuous
 62
     2
100
AcDbLine
 10
-290.2787503790529
 20
187.8108430962246
 30
0.0
 11
-273.063587917448
 21
187.8108430962246
 31
0.0
  0
LINE
  5
574
330
571
100
AcDbEntity
  8
1
  6
Continuous
 62
     2
100
AcDbLine
 10
-290.2787503790529
 20
156.8108432210165
 30
0.0
 11
-273.063587917448
 21
156.8108432210165
 31
0.0
  0
SOLID
  5
575
330
571
100
AcDbEntity
  8
1
 62
     2
100
AcDbTrace
 10
-274.1422999251683
 20
184.6108430962246
 30
0.0
 11
-274.9848759097276
 21
184.6108430962246
 31
0.0
 12
-274.563587917448
 22
187.8108430962246
 32
0.0
 13
-274.563587917448
 23
187.8108430962246
 33
0.0
  0
SOLID
  5
576
330
571
100
AcDbEntity
  8
1
 62
     2
100
AcDbTrace
 10
-274.9848759097276
 20
160.0108432210165
 30
0.0
 11
-274.1422999251683
 21
160.0108432210165
 31
0.0
 12
-274.563587917448
 22
156.8108432210165
 32
0.0
 13
-274.563587917448
 23
156.8108432210165
 33
0.0
  0
MTEXT
  5
577
330
571
100
AcDbEntity
  8
1
 62
     2
100
AcDbMText
 10
-276.563587917448
 20
167.85867636655
 30
0.0
 40
3.2
 41
0.0
 71
     7
 72
     1
  1
\C2;31\C2;\H1.92;{\Fgdt;`}0.2
  7
CONVERTER_13
 11
0.0
 21
1.0
 31
0.0
 73
     1
 44
0.60024009603842
  0
ENDBLK
  5
579
330
571
100
AcDbEntity
  8
0
100
AcDbBlockEnd
  0
BLOCK
  5
585
330
57C
100
AcDbEntity
  8
0
100
AcDbBlockBegin
  2
*D40
 70
     1
 10
0.0
 20
0.0
 30
0.0
  3
*D40
  1

  0
LINE
  5
57D
330
57C
100
AcDbEntity
  8
1
  6
Continuous
 62
     2
100
AcDbLine
 10
-232.410993530947
 20
163.4108431274227
 30
0.0
 11
-232.410993530947
 21
169.8108431274227
 31
0.0
  0
LINE
  5
57E
330
57C
100
AcDbEntity
  8
1
  6
Continuous
 62
     2
100
AcDbLine
 10
-232.410993530947
 20
169.8108431274227
 30
0.0
 11
-232.410993530947
 21
174.8108431274227
 31
0.0
  0
LINE
  5
57F
330
57C
100
AcDbEntity
  8
1
  6
Continuous
 62
     2
100
AcDbLine
 10
-232.410993530947
 20
174.8108431274227
 30
0.0
 11
-232.410993530947
 21
207.212053802597
 31
0.0
  0
LINE
  5
580
330
57C
100
AcDbEntity
  8
1
  6
Continuous
 62
     2
100
AcDbLine
 10
-221.888360686042
 20
169.8108431274227
 30
0.0
 11
-233.910993530947
 21
169.8108431274227
 31
0.0
  0
LINE
  5
581
330
57C
100
AcDbEntity
  8
1
  6
Continuous
 62
     2
100
AcDbLine
 10
-221.8883606860418
 20
174.8108431274227
 30
0.0
 11
-233.910993530947
 21
174.8108431274227
 31
0.0
  0
SOLID
  5
582
330
57C
100
AcDbEntity
  8
1
 62
     2
100
AcDbTrace
 10
-231.9897055386673
 20
166.6108431274227
 30
0.0
 11
-232.8322815232267
 21
166.6108431274227
 31
0.0
 12
-232.410993530947
 22
169.8108431274227
 32
0.0
 13
-232.410993530947
 23
169.8108431274227
 33
0.0
  0
SOLID
  5
583
330
57C
100
AcDbEntity
  8
1
 62
     2
100
AcDbTrace
 10
-232.8322815232267
 20
178.0108431274227
 30
0.0
 11
-231.9897055386673
 21
178.0108431274227
 31
0.0
 12
-232.410993530947
 22
174.8108431274227
 32
0.0
 13
-232.410993530947
 23
174.8108431274227
 33
0.0
  0
MTEXT
  5
584
330
57C
100
AcDbEntity
  8
1
 62
     2
100
AcDbMText
 10
-235.210993530947
 20
193.724053802597
 30
0.0
 40
3.2
 41
0.0
 71
     7
 72
     1
  1
\C2;\U+03c6\C2;\C2;5\C2;\H1.92;\S 0^ -0.011;
  7
CONVERTER_13
 11
0.0
 21
1.0
 31
0.0
 73
     1
 44
0.60024009603842
  0
ENDBLK
  5
586
330
57C
100
AcDbEntity
  8
0
100
AcDbBlockEnd
  0
BLOCK
  5
590
330
589
100
AcDbEntity
  8
0
100
AcDbBlockBegin
  2
*D41
 70
     1
 10
0.0
 20
0.0
 30
0.0
  3
*D41
  1

  0
LINE
  5
58A
330
589
100
AcDbEntity
  8
1
  6
Continuous
 62
     2
100
AcDbLine
 10
-324.7787504990067
 20
205.310181250975
 30
0.0
 11
-293.7787503790528
 21
205.310181250975
 31
0.0
  0
LINE
  5
58B
330
589
100
AcDbEntity
  8
1
  6
Continuous
 62
     2
100
AcDbLine
 10
-324.7787504990067
 20
191.3108430962246
 30
0.0
 11
-324.7787504990067
 21
206.810181250975
 31
0.0
  0
LINE
  5
58C
330
589
100
AcDbEntity
  8
1
  6
Continuous
 62
     2
100
AcDbLine
 10
-293.7787503790528
 20
191.3108430962246
 30
0.0
 11
-293.7787503790528
 21
206.810181250975
 31
0.0
  0
SOLID
  5
58D
330
589
100
AcDbEntity
  8
1
 62
     2
100
AcDbTrace
 10
-321.5787504990067
 20
205.7314692432547
 30
0.0
 11
-321.5787504990067
 21
204.8888932586953
 31
0.0
 12
-324.7787504990067
 22
205.310181250975
 32
0.0
 13
-324.7787504990067
 23
205.310181250975
 33
0.0
  0
SOLID
  5
58E
330
589
100
AcDbEntity
  8
1
 62
     2
100
AcDbTrace
 10
-296.9787503790528
 20
204.8888932586953
 30
0.0
 11
-296.9787503790528
 21
205.7314692432547
 31
0.0
 12
-293.7787503790528
 22
205.310181250975
 32
0.0
 13
-293.7787503790528
 23
205.310181250975
 33
0.0
  0
MTEXT
  5
58F
330
589
100
AcDbEntity
  8
1
 62
     2
100
AcDbMText
 10
-314.099447955707
 20
207.310181250975
 30
0.0
 40
3.2
 41
0.0
 71
     7
 72
     1
  1
\C2;31\C2;\H1.92;{\Fgdt;`}0.2
  7
CONVERTER_13
 11
0.9999999999970619
 21
2.424068405545306E-6
 31
0.0
 73
     1
 44
0.60024009603842
  0
ENDBLK
  5
591
330
589
100
AcDbEntity
  8
0
100
AcDbBlockEnd
  0
BLOCK
  5
59B
330
594
100
AcDbEntity
  8
0
100
AcDbBlockBegin
  2
*D42
 70
     1
 10
0.0
 20
0.0
 30
0.0
  3
*D42
  1

  0
LINE
  5
595
330
594
100
AcDbEntity
  8
1
  6
Continuous
 62
     2
100
AcDbLine
 10
-244.429450928583
 20
183.3108431265829
 30
0.0
 11
-244.429450928583
 21
161.310843126054
 31
0.0
  0
LINE
  5
596
330
594
100
AcDbEntity
  8
1
  6
Continuous
 62
     2
100
AcDbLine
 10
-202.388360686363
 20
183.3108431265829
 30
0.0
 11
-245.929450928583
 21
183.3108431265829
 31
0.0
  0
LINE
  5
597
330
594
100
AcDbEntity
  8
1
  6
Continuous
 62
     2
100
AcDbLine
 10
-202.3883606864469
 20
161.310843126054
 30
0.0
 11
-245.929450928583
 21
161.310843126054
 31
0.0
  0
SOLID
  5
598
330
594
100
AcDbEntity
  8
1
 62
     2
100
AcDbTrace
 10
-244.0081629363033
 20
180.1108431265829
 30
0.0
 11
-244.8507389208627
 21
180.1108431265829
 31
0.0
 12
-244.429450928583
 22
183.3108431265829
 32
0.0
 13
-244.429450928583
 23
183.3108431265829
 33
0.0
  0
SOLID
  5
599
330
594
100
AcDbEntity
  8
1
 62
     2
100
AcDbTrace
 10
-244.8507389208627
 20
164.510843126054
 30
0.0
 11
-244.0081629363033
 21
164.510843126054
 31
0.0
 12
-244.429450928583
 22
161.310843126054
 32
0.0
 13
-244.429450928583
 23
161.310843126054
 33
0.0
  0
MTEXT
  5
59A
330
594
100
AcDbEntity
  8
1
 62
     2
100
AcDbMText
 10
-247.229450928583
 20
164.972639586299
 30
0.0
 40
3.2
 41
0.0
 71
     7
 72
     1
  1
\C2;\U+03c6\C2;\C2;22\C2;\H1.92;\S 0^ -0.05;
  7
CONVERTER_13
 11
0.0
 21
1.0
 31
0.0
 73
     1
 44
0.60024009603842
  0
ENDBLK
  5
59C
330
594
100
AcDbEntity
  8
0
100
AcDbBlockEnd
  0
BLOCK
  5
5A8
330
59F
100
AcDbEntity
  8
0
100
AcDbBlockBegin
  2
*D43
 70
     1
 10
0.0
 20
0.0
 30
0.0
  3
*D43
  1

  0
LINE
  5
5A0
330
59F
100
AcDbEntity
  8
1
  6
Continuous
 62
     2
100
AcDbLine
 10
-267.738436504345
 20
157.8608431586205
 30
0.0
 11
-267.738436504345
 21
151.4608431586205
 31
0.0
  0
LINE
  5
5A1
330
59F
100
AcDbEntity
  8
1
  6
Continuous
 62
     2
100
AcDbLine
 10
-267.738436504345
 20
151.4608431586205
 30
0.0
 11
-267.738436504345
 21
145.0611169319731
 31
0.0
  0
LINE
  5
5A2
330
59F
100
AcDbEntity
  8
1
  6
Continuous
 62
     2
100
AcDbLine
 10
-267.738436504345
 20
145.0611169319731
 30
0.0
 11
-267.738436504345
 21
137.034093232051
 31
0.0
  0
LINE
  5
5A3
330
59F
100
AcDbEntity
  8
1
  6
Continuous
 62
     2
100
AcDbLine
 10
-289.4287504390298
 20
151.4608431586205
 30
0.0
 11
-266.238436504345
 21
151.4608431586205
 31
0.0
  0
LINE
  5
5A4
330
59F
100
AcDbEntity
  8
1
  6
Continuous
 62
     2
100
AcDbLine
 10
-301.3287504390299
 20
145.0611169319731
 30
0.0
 11
-266.238436504345
 21
145.0611169319731
 31
0.0
  0
SOLID
  5
5A5
330
59F
100
AcDbEntity
  8
1
 62
     2
100
AcDbTrace
 10
-268.1597244966246
 20
154.6608431586205
 30
0.0
 11
-267.3171485120653
 21
154.6608431586205
 31
0.0
 12
-267.738436504345
 22
151.4608431586205
 32
0.0
 13
-267.738436504345
 23
151.4608431586205
 33
0.0
  0
SOLID
  5
5A6
330
59F
100
AcDbEntity
  8
1
 62
     2
100
AcDbTrace
 10
-267.3171485120653
 20
141.8611169319731
 30
0.0
 11
-268.1597244966246
 21
141.8611169319731
 31
0.0
 12
-267.738436504345
 22
145.0611169319731
 32
0.0
 13
-267.738436504345
 23
145.0611169319731
 33
0.0
  0
MTEXT
  5
5A7
330
59F
100
AcDbEntity
  8
1
 62
     2
100
AcDbMText
 10
-269.738436504345
 20
136.490093232051
 30
0.0
 40
3.2
 41
0.0
 71
     7
 72
     1
  1
\C2;(\C2;6\C2;)
  7
CONVERTER_13
 11
0.0
 21
1.0
 31
0.0
 73
     1
 44
0.60024009603842
  0
ENDBLK
  5
5A9
330
59F
100
AcDbEntity
  8
0
100
AcDbBlockEnd
  0
ENDSEC
  0
SECTION
  2
ENTITIES
  0
INSERT
  5
C5
330
1F
100
AcDbEntity
  8
0
100
AcDbBlockReference
  2
AD14436-01_DB
 10
-1348.28543551836
 20
1195.92661798973
 30
0.0
  0
LINE
  5
2BE
330
1F
100
AcDbEntity
  8
1
  6
Continuous
 62
     2
100
AcDbLine
 10
-327.4594583021159
 20
79.82360893590165
 30
0.0
 11
-291.6217984514653
 21
79.82360893590165
 31
0.0
  0
LINE
  5
2BF
330
1F
100
AcDbEntity
  8
1
  6
Continuous
 62
     2
100
AcDbLine
 10
-347.009433055144
 20
113.1261181274731
 30
0.0
 11
-277.009433055144
 21
113.1261181274731
 31
0.0
  0
LINE
  5
2C0
330
1F
100
AcDbEntity
  8
1
  6
Continuous
 62
     2
100
AcDbLine
 10
-277.009433055144
 20
113.1261181274731
 30
0.0
 11
-277.009433055144
 21
99.12611812747316
 31
0.0
  0
LINE
  5
2C1
330
1F
100
AcDbEntity
  8
1
  6
Continuous
 62
     2
100
AcDbLine
 10
-287.009433055144
 20
113.1261181274731
 30
0.0
 11
-287.009433055144
 21
99.12611812747316
 31
0.0
  0
LINE
  5
2C2
330
1F
100
AcDbEntity
  8
1
  6
Continuous
 62
     2
100
AcDbLine
 10
-297.009433055144
 20
113.1261181274731
 30
0.0
 11
-297.009433055144
 21
99.12611812747316
 31
0.0
  0
LINE
  5
2C3
330
1F
100
AcDbEntity
  8
1
  6
Continuous
 62
     2
100
AcDbLine
 10
-307.009433055144
 20
113.1261181274731
 30
0.0
 11
-307.009433055144
 21
99.12611812747316
 31
0.0
  0
LINE
  5
2C4
330
1F
100
AcDbEntity
  8
1
  6
Continuous
 62
     2
100
AcDbLine
 10
-347.009433055144
 20
106.1261181274731
 30
0.0
 11
-277.009433055144
 21
106.1261181274731
 31
0.0
  0
LINE
  5
2C5
330
1F
100
AcDbEntity
  8
1
  6
Continuous
 62
     2
100
AcDbLine
 10
-317.009433055144
 20
113.1261181274731
 30
0.0
 11
-317.009433055144
 21
99.12611812747316
 31
0.0
  0
LINE
  5
2C6
330
1F
100
AcDbEntity
  8
1
  6
Continuous
 62
     2
100
AcDbLine
 10
-347.009433055144
 20
87.12611812747316
 30
0.0
 11
-347.009433055144
 21
99.12611812747316
 31
0.0
  0
LINE
  5
2C7
330
1F
100
AcDbEntity
  8
1
  6
Continuous
 62
     2
100
AcDbLine
 10
-277.009433055144
 20
87.12611812747316
 30
0.0
 11
-347.009433055144
 21
87.12611812747316
 31
0.0
  0
LINE
  5
2C8
330
1F
100
AcDbEntity
  8
1
  6
Continuous
 62
     2
100
AcDbLine
 10
-303.6590628909588
 20
105.2726997149383
 30
0.0
 11
-300.174951867345
 21
105.2726997149383
 31
0.0
  0
LINE
  5
2C9
330
1F
100
AcDbEntity
  8
1
  6
Continuous
 62
     2
100
AcDbLine
 10
-347.009433055144
 20
99.12611812747316
 30
0.0
 11
-277.009433055144
 21
99.12611812747316
 31
0.0
  0
LINE
  5
2CA
330
1F
100
AcDbEntity
  8
1
  6
Continuous
 62
     2
100
AcDbLine
 10
-277.009433055144
 20
99.12611812747316
 30
0.0
 11
-277.009433055144
 21
87.12611812747316
 31
0.0
  0
LINE
  5
2CB
330
1F
100
AcDbEntity
  8
1
  6
Continuous
 62
     2
100
AcDbLine
 10
-287.009433055144
 20
99.12611812747316
 30
0.0
 11
-287.009433055144
 21
87.12611812747316
 31
0.0
  0
LINE
  5
2CC
330
1F
100
AcDbEntity
  8
1
  6
Continuous
 62
     2
100
AcDbLine
 10
-297.009433055144
 20
99.12611812747316
 30
0.0
 11
-297.009433055144
 21
87.12611812747316
 31
0.0
  0
LINE
  5
2CD
330
1F
100
AcDbEntity
  8
1
  6
Continuous
 62
     2
100
AcDbLine
 10
-307.009433055144
 20
99.12611812747316
 30
0.0
 11
-307.009433055144
 21
87.12611812747316
 31
0.0
  0
LINE
  5
2CE
330
1F
100
AcDbEntity
  8
1
  6
Continuous
 62
     2
100
AcDbLine
 10
-317.009433055144
 20
99.12611812747316
 30
0.0
 11
-317.009433055144
 21
87.12611812747316
 31
0.0
  0
LINE
  5
2CF
330
1F
100
AcDbEntity
  8
1
  6
Continuous
 62
     2
100
AcDbLine
 10
-347.009433055144
 20
99.12611812747316
 30
0.0
 11
-347.009433055144
 21
113.1261181274731
 31
0.0
  0
LINE
  5
2D0
330
1F
100
AcDbEntity
  8
1
  6
Continuous
 62
     2
100
AcDbLine
 10
-283.6590628909588
 20
105.2726997149383
 30
0.0
 11
-280.174951867345
 21
105.2726997149383
 31
0.0
  0
LINE
  5
2D1
330
1F
100
AcDbEntity
  8
1
  6
Continuous
 62
     2
100
AcDbLine
 10
-267.5639017966616
 20
89.56046526377834
 30
0.0
 11
-204.4736682785728
 21
89.56046526377834
 31
0.0
  0
LINE
  5
2D2
330
1F
100
AcDbEntity
  8
1
  6
Continuous
 62
     6
100
AcDbLine
 10
-139.3202446605918
 20
112.0569523579388
 30
0.0
 11
-135.8202446605918
 21
112.0569523579388
 31
0.0
  0
LINE
  5
2D3
330
1F
100
AcDbEntity
  8
1
  6
Continuous
 62
     6
100
AcDbLine
 10
-139.3202446605918
 20
112.2569523579391
 30
0.0
 11
-135.8202446605918
 21
112.2569523579391
 31
0.0
  0
LINE
  5
2D4
330
1F
100
AcDbEntity
  8
1
  6
Continuous
 62
     2
100
AcDbLine
 10
-167.8318056905042
 20
114.0569523579392
 30
0.0
 11
-167.8318056905042
 21
100.4569523579391
 31
0.0
  0
LINE
  5
2D5
330
1F
100
AcDbEntity
  8
1
  6
Continuous
 62
     2
100
AcDbLine
 10
-168.8318056905042
 20
114.0569523579392
 30
0.0
 11
-168.8318056905042
 21
100.4569523579391
 31
0.0
  0
LINE
  5
2D6
330
1F
100
AcDbEntity
  8
1
  6
Continuous
 62
     3
100
AcDbLine
 10
-204.4789911385386
 20
113.4569523579393
 30
0.0
 11
-199.3289911385383
 21
113.4569523579393
 31
0.0
  0
LINE
  5
2D7
330
1F
100
AcDbEntity
  8
1
  6
Continuous
 62
     3
100
AcDbLine
 10
-204.4789911385386
 20
101.0569523579391
 30
0.0
 11
-204.4789911385386
 21
113.4569523579393
 31
0.0
  0
LINE
  5
2D8
330
1F
100
AcDbEntity
  8
1
  6
Continuous
 62
     3
100
AcDbLine
 10
-199.3289911385385
 20
101.0569523579391
 30
0.0
 11
-204.4789911385386
 21
101.0569523579391
 31
0.0
  0
LINE
  5
2D9
330
1F
100
AcDbEntity
  8
1
  6
Continuous
 62
     3
100
AcDbLine
 10
-198.1289911385386
 20
100.3069523579391
 30
0.0
 11
-199.3289911385385
 21
101.0569523579391
 31
0.0
  0
LINE
  5
2DA
330
1F
100
AcDbEntity
  8
1
  6
Continuous
 62
     3
100
AcDbLine
 10
-198.1289911385384
 20
114.2069523579393
 30
0.0
 11
-199.3289911385383
 21
113.4569523579393
 31
0.0
  0
LINE
  5
2DB
330
1F
100
AcDbEntity
  8
1
  6
Continuous
 62
     3
100
AcDbLine
 10
-198.1289911385386
 20
100.3069523579391
 30
0.0
 11
-198.1289911385384
 21
114.2069523579393
 31
0.0
  0
LINE
  5
2DC
330
1F
100
AcDbEntity
  8
1
  6
Continuous
 62
     3
100
AcDbLine
 10
-197.6289911385386
 20
103.6569523579392
 30
0.0
 11
-198.1289911385386
 21
103.6569523579392
 31
0.0
  0
LINE
  5
2DD
330
1F
100
AcDbEntity
  8
1
  6
Continuous
 62
     3
100
AcDbLine
 10
-197.6289911385386
 20
102.8569523579391
 30
0.0
 11
-197.6289911385386
 21
103.6569523579392
 31
0.0
  0
LINE
  5
2DE
330
1F
100
AcDbEntity
  8
1
  6
Continuous
 62
     3
100
AcDbLine
 10
-198.1289911385386
 20
102.8569523579391
 30
0.0
 11
-197.6289911385386
 21
102.8569523579391
 31
0.0
  0
LINE
  5
2DF
330
1F
100
AcDbEntity
  8
1
  6
Continuous
 62
     3
100
AcDbLine
 10
-197.6289911385386
 20
103.6569523579392
 30
0.0
 11
-198.1289911385386
 21
103.6569523579392
 31
0.0
  0
LINE
  5
2E0
330
1F
100
AcDbEntity
  8
1
  6
Continuous
 62
     3
100
AcDbLine
 10
-197.6289911385386
 20
102.8569523579391
 30
0.0
 11
-197.6289911385386
 21
103.6569523579392
 31
0.0
  0
LINE
  5
2E1
330
1F
100
AcDbEntity
  8
1
  6
Continuous
 62
     3
100
AcDbLine
 10
-198.1289911385386
 20
102.8569523579391
 30
0.0
 11
-197.6289911385386
 21
102.8569523579391
 31
0.0
  0
LINE
  5
2E2
330
1F
100
AcDbEntity
  8
1
  6
Continuous
 62
     3
100
AcDbLine
 10
-197.6289911385386
 20
105.6569523579392
 30
0.0
 11
-198.1289911385386
 21
105.6569523579392
 31
0.0
  0
LINE
  5
2E3
330
1F
100
AcDbEntity
  8
1
  6
Continuous
 62
     3
100
AcDbLine
 10
-197.6289911385386
 20
104.8569523579391
 30
0.0
 11
-197.6289911385386
 21
105.6569523579392
 31
0.0
  0
LINE
  5
2E4
330
1F
100
AcDbEntity
  8
1
  6
Continuous
 62
     3
100
AcDbLine
 10
-198.1289911385386
 20
104.8569523579391
 30
0.0
 11
-197.6289911385386
 21
104.8569523579391
 31
0.0
  0
LINE
  5
2E5
330
1F
100
AcDbEntity
  8
1
  6
Continuous
 62
     3
100
AcDbLine
 10
-197.6289911385386
 20
105.6569523579392
 30
0.0
 11
-198.1289911385386
 21
105.6569523579392
 31
0.0
  0
LINE
  5
2E6
330
1F
100
AcDbEntity
  8
1
  6
Continuous
 62
     3
100
AcDbLine
 10
-197.6289911385386
 20
104.8569523579391
 30
0.0
 11
-197.6289911385386
 21
105.6569523579392
 31
0.0
  0
LINE
  5
2E7
330
1F
100
AcDbEntity
  8
1
  6
Continuous
 62
     3
100
AcDbLine
 10
-198.1289911385386
 20
104.8569523579391
 30
0.0
 11
-197.6289911385386
 21
104.8569523579391
 31
0.0
  0
LINE
  5
2E8
330
1F
100
AcDbEntity
  8
1
  6
Continuous
 62
     3
100
AcDbLine
 10
-197.6289911385386
 20
107.6569523579392
 30
0.0
 11
-198.1289911385386
 21
107.6569523579392
 31
0.0
  0
LINE
  5
2E9
330
1F
100
AcDbEntity
  8
1
  6
Continuous
 62
     3
100
AcDbLine
 10
-197.6289911385386
 20
106.8569523579391
 30
0.0
 11
-197.6289911385386
 21
107.6569523579392
 31
0.0
  0
LINE
  5
2EA
330
1F
100
AcDbEntity
  8
1
  6
Continuous
 62
     3
100
AcDbLine
 10
-198.1289911385386
 20
106.8569523579391
 30
0.0
 11
-197.6289911385386
 21
106.8569523579391
 31
0.0
  0
LINE
  5
2EB
330
1F
100
AcDbEntity
  8
1
  6
Continuous
 62
     3
100
AcDbLine
 10
-197.6289911385386
 20
107.6569523579392
 30
0.0
 11
-198.1289911385386
 21
107.6569523579392
 31
0.0
  0
LINE
  5
2EC
330
1F
100
AcDbEntity
  8
1
  6
Continuous
 62
     3
100
AcDbLine
 10
-197.6289911385386
 20
106.8569523579391
 30
0.0
 11
-197.6289911385386
 21
107.6569523579392
 31
0.0
  0
LINE
  5
2ED
330
1F
100
AcDbEntity
  8
1
  6
Continuous
 62
     3
100
AcDbLine
 10
-198.1289911385386
 20
106.8569523579391
 30
0.0
 11
-197.6289911385386
 21
106.8569523579391
 31
0.0
  0
LINE
  5
2EE
330
1F
100
AcDbEntity
  8
1
  6
Continuous
 62
     3
100
AcDbLine
 10
-197.6289911385386
 20
109.6569523579392
 30
0.0
 11
-198.1289911385386
 21
109.6569523579392
 31
0.0
  0
LINE
  5
2EF
330
1F
100
AcDbEntity
  8
1
  6
Continuous
 62
     3
100
AcDbLine
 10
-197.6289911385386
 20
108.8569523579391
 30
0.0
 11
-197.6289911385386
 21
109.6569523579392
 31
0.0
  0
LINE
  5
2F0
330
1F
100
AcDbEntity
  8
1
  6
Continuous
 62
     3
100
AcDbLine
 10
-198.1289911385386
 20
108.8569523579391
 30
0.0
 11
-197.6289911385386
 21
108.8569523579391
 31
0.0
  0
LINE
  5
2F1
330
1F
100
AcDbEntity
  8
1
  6
Continuous
 62
     3
100
AcDbLine
 10
-197.6289911385386
 20
109.6569523579392
 30
0.0
 11
-198.1289911385386
 21
109.6569523579392
 31
0.0
  0
LINE
  5
2F2
330
1F
100
AcDbEntity
  8
1
  6
Continuous
 62
     3
100
AcDbLine
 10
-197.6289911385386
 20
108.8569523579391
 30
0.0
 11
-197.6289911385386
 21
109.6569523579392
 31
0.0
  0
LINE
  5
2F3
330
1F
100
AcDbEntity
  8
1
  6
Continuous
 62
     3
100
AcDbLine
 10
-198.1289911385386
 20
108.8569523579391
 30
0.0
 11
-197.6289911385386
 21
108.8569523579391
 31
0.0
  0
LINE
  5
2F4
330
1F
100
AcDbEntity
  8
1
  6
Continuous
 62
     3
100
AcDbLine
 10
-197.6289911385386
 20
111.6569523579392
 30
0.0
 11
-198.1289911385386
 21
111.6569523579392
 31
0.0
  0
LINE
  5
2F5
330
1F
100
AcDbEntity
  8
1
  6
Continuous
 62
     3
100
AcDbLine
 10
-197.6289911385386
 20
110.8569523579393
 30
0.0
 11
-197.6289911385386
 21
111.6569523579392
 31
0.0
  0
LINE
  5
2F6
330
1F
100
AcDbEntity
  8
1
  6
Continuous
 62
     3
100
AcDbLine
 10
-198.1289911385386
 20
110.8569523579391
 30
0.0
 11
-197.6289911385386
 21
110.8569523579393
 31
0.0
  0
LINE
  5
2F7
330
1F
100
AcDbEntity
  8
1
  6
Continuous
 62
     3
100
AcDbLine
 10
-197.6289911385386
 20
111.6569523579392
 30
0.0
 11
-198.1289911385386
 21
111.6569523579392
 31
0.0
  0
LINE
  5
2F8
330
1F
100
AcDbEntity
  8
1
  6
Continuous
 62
     3
100
AcDbLine
 10
-197.6289911385386
 20
110.8569523579393
 30
0.0
 11
-197.6289911385386
 21
111.6569523579392
 31
0.0
  0
LINE
  5
2F9
330
1F
100
AcDbEntity
  8
1
  6
Continuous
 62
     3
100
AcDbLine
 10
-198.1289911385386
 20
110.8569523579391
 30
0.0
 11
-197.6289911385386
 21
110.8569523579393
 31
0.0
  0
LINE
  5
2FA
330
1F
100
AcDbEntity
  8
1
  6
Continuous
 62
     3
100
AcDbLine
 10
-197.6289911385384
 20
114.2069523579393
 30
0.0
 11
-197.6289911385386
 21
112.8569523579391
 31
0.0
  0
LINE
  5
2FB
330
1F
100
AcDbEntity
  8
1
  6
Continuous
 62
     3
100
AcDbLine
 10
-198.1289911385384
 20
114.2069523579393
 30
0.0
 11
-197.6289911385384
 21
114.2069523579393
 31
0.0
  0
LINE
  5
2FC
330
1F
100
AcDbEntity
  8
1
  6
Continuous
 62
     3
100
AcDbLine
 10
-197.6289911385386
 20
100.3069523579391
 30
0.0
 11
-198.1289911385386
 21
100.3069523579391
 31
0.0
  0
LINE
  5
2FD
330
1F
100
AcDbEntity
  8
1
  6
Continuous
 62
     3
100
AcDbLine
 10
-197.6289911385386
 20
101.6569523579392
 30
0.0
 11
-197.6289911385386
 21
100.3069523579391
 31
0.0
  0
LINE
  5
2FE
330
1F
100
AcDbEntity
  8
1
  6
Continuous
 62
     3
100
AcDbLine
 10
-204.4789911385386
 20
111.6569523579392
 30
0.0
 11
-198.1289911385386
 21
111.6569523579392
 31
0.0
  0
LINE
  5
2FF
330
1F
100
AcDbEntity
  8
1
  6
Continuous
 62
     3
100
AcDbLine
 10
-198.8289911385383
 20
110.6569523579392
 30
0.0
 11
-204.4789911385386
 21
110.6569523579392
 31
0.0
  0
LINE
  5
300
330
1F
100
AcDbEntity
  8
1
  6
Continuous
 62
     3
100
AcDbLine
 10
-198.8289911385385
 20
103.8569523579391
 30
0.0
 11
-198.8289911385383
 21
110.6569523579392
 31
0.0
  0
LINE
  5
301
330
1F
100
AcDbEntity
  8
1
  6
Continuous
 62
     3
100
AcDbLine
 10
-204.4789911385386
 20
103.8569523579391
 30
0.0
 11
-198.8289911385385
 21
103.8569523579391
 31
0.0
  0
LINE
  5
302
330
1F
100
AcDbEntity
  8
1
  6
Continuous
 62
     3
100
AcDbLine
 10
-204.4789911385386
 20
102.8569523579391
 30
0.0
 11
-198.1289911385386
 21
102.8569523579391
 31
0.0
  0
LINE
  5
303
330
1F
100
AcDbEntity
  8
1
  6
Continuous
 62
     3
100
AcDbLine
 10
-200.3289911385385
 20
103.8569523579391
 30
0.0
 11
-200.3289911385383
 21
110.6569523579392
 31
0.0
  0
LINE
  5
304
330
1F
100
AcDbEntity
  8
1
  6
Continuous
 62
     3
100
AcDbLine
 10
-198.1289911385386
 20
112.8569523579391
 30
0.0
 11
-197.6289911385386
 21
112.8569523579391
 31
0.0
  0
LINE
  5
305
330
1F
100
AcDbEntity
  8
1
  6
Continuous
 62
     3
100
AcDbLine
 10
-198.1289911385386
 20
101.6569523579392
 30
0.0
 11
-197.6289911385386
 21
101.6569523579392
 31
0.0
  0
LINE
  5
306
330
1F
100
AcDbEntity
  8
1
  6
Continuous
 62
     3
100
AcDbLine
 10
-198.1289911385384
 20
114.2069523579393
 30
0.0
 11
-198.1289911385384
 21
106.2069523579392
 31
0.0
  0
LINE
  5
307
330
1F
100
AcDbEntity
  8
1
  6
Continuous
 62
     3
100
AcDbLine
 10
-167.8318056905042
 20
112.8569523579391
 30
0.0
 11
-139.3202446605918
 21
112.8569523579391
 31
0.0
  0
LINE
  5
308
330
1F
100
AcDbEntity
  8
1
  6
Continuous
 62
     3
100
AcDbLine
 10
-139.3202446605918
 20
112.8569523579391
 30
0.0
 11
-139.3202446605918
 21
111.6569523579392
 31
0.0
  0
LINE
  5
309
330
1F
100
AcDbEntity
  8
1
  6
Continuous
 62
     6
100
AcDbLine
 10
-139.3202446605918
 20
112.456952357939
 30
0.0
 11
-135.8202446605918
 21
112.456952357939
 31
0.0
  0
LINE
  5
30A
330
1F
100
AcDbEntity
  8
1
  6
Continuous
 62
     3
100
AcDbLine
 10
-168.8318056905042
 20
112.8569523579391
 30
0.0
 11
-197.6289911385386
 21
112.8569523579391
 31
0.0
  0
LINE
  5
30B
330
1F
100
AcDbEntity
  8
1
  6
Continuous
 62
     3
100
AcDbLine
 10
-139.3202446605918
 20
111.6569523579392
 30
0.0
 11
-167.8318056905042
 21
111.6569523579392
 31
0.0
  0
LINE
  5
30C
330
1F
100
AcDbEntity
  8
1
  6
Continuous
 62
     3
100
AcDbLine
 10
-168.8318056905042
 20
111.6569523579392
 30
0.0
 11
-197.6289911385386
 21
111.6569523579392
 31
0.0
  0
LINE
  5
30D
330
1F
100
AcDbEntity
  8
1
  6
Continuous
 62
     3
100
AcDbLine
 10
-168.8318056905042
 20
108.8569523579391
 30
0.0
 11
-197.6289911385386
 21
108.8569523579391
 31
0.0
  0
LINE
  5
30E
330
1F
100
AcDbEntity
  8
1
  6
Continuous
 62
     3
100
AcDbLine
 10
-168.8318056905042
 20
106.856952357939
 30
0.0
 11
-197.6289911385386
 21
106.8569523579391
 31
0.0
  0
LINE
  5
30F
330
1F
100
AcDbEntity
  8
1
  6
Continuous
 62
     3
100
AcDbLine
 10
-168.8318056905042
 20
102.8569523579389
 30
0.0
 11
-197.6289911385386
 21
102.8569523579391
 31
0.0
  0
LINE
  5
310
330
1F
100
AcDbEntity
  8
1
  6
Continuous
 62
     3
100
AcDbLine
 10
-168.8318056905042
 20
107.656952357939
 30
0.0
 11
-197.6289911385386
 21
107.6569523579392
 31
0.0
  0
LINE
  5
311
330
1F
100
AcDbEntity
  8
1
  6
Continuous
 62
     3
100
AcDbLine
 10
-168.8318056905042
 20
105.656952357939
 30
0.0
 11
-197.6289911385386
 21
105.6569523579392
 31
0.0
  0
LINE
  5
312
330
1F
100
AcDbEntity
  8
1
  6
Continuous
 62
     3
100
AcDbLine
 10
-168.8318056905042
 20
101.6569523579388
 30
0.0
 11
-197.6289911385386
 21
101.6569523579392
 31
0.0
  0
LINE
  5
313
330
1F
100
AcDbEntity
  8
1
  6
Continuous
 62
     3
100
AcDbLine
 10
-167.8318056905042
 20
108.8569523579391
 30
0.0
 11
-139.3202446605918
 21
108.8569523579391
 31
0.0
  0
LINE
  5
314
330
1F
100
AcDbEntity
  8
1
  6
Continuous
 62
     3
100
AcDbLine
 10
-167.8318056905042
 20
106.856952357939
 30
0.0
 11
-139.3202446605918
 21
106.856952357939
 31
0.0
  0
LINE
  5
315
330
1F
100
AcDbEntity
  8
1
  6
Continuous
 62
     3
100
AcDbLine
 10
-167.8318056905042
 20
102.8569523579389
 30
0.0
 11
-139.3202446605918
 21
102.8569523579389
 31
0.0
  0
LINE
  5
316
330
1F
100
AcDbEntity
  8
1
  6
Continuous
 62
     3
100
AcDbLine
 10
-139.3202446605918
 20
107.656952357939
 30
0.0
 11
-167.8318056905042
 21
107.656952357939
 31
0.0
  0
LINE
  5
317
330
1F
100
AcDbEntity
  8
1
  6
Continuous
 62
     3
100
AcDbLine
 10
-139.3202446605918
 20
105.656952357939
 30
0.0
 11
-167.8318056905042
 21
105.656952357939
 31
0.0
  0
LINE
  5
318
330
1F
100
AcDbEntity
  8
1
  6
Continuous
 62
     3
100
AcDbLine
 10
-139.3202446605918
 20
101.6569523579388
 30
0.0
 11
-167.8318056905042
 21
101.6569523579388
 31
0.0
  0
LINE
  5
319
330
1F
100
AcDbEntity
  8
1
  6
Continuous
 62
     6
100
AcDbLine
 10
-139.3202446605918
 20
108.4569523579389
 30
0.0
 11
-135.8202446605918
 21
108.4569523579389
 31
0.0
  0
LINE
  5
31A
330
1F
100
AcDbEntity
  8
1
  6
Continuous
 62
     3
100
AcDbLine
 10
-139.3202446605918
 20
108.8569523579391
 30
0.0
 11
-139.3202446605918
 21
107.656952357939
 31
0.0
  0
LINE
  5
31B
330
1F
100
AcDbEntity
  8
1
  6
Continuous
 62
     6
100
AcDbLine
 10
-139.3202446605918
 20
108.2569523579389
 30
0.0
 11
-135.8202446605918
 21
108.2569523579389
 31
0.0
  0
LINE
  5
31C
330
1F
100
AcDbEntity
  8
1
  6
Continuous
 62
     6
100
AcDbLine
 10
-139.3202446605918
 20
108.0569523579388
 30
0.0
 11
-135.8202446605918
 21
108.0569523579388
 31
0.0
  0
LINE
  5
31D
330
1F
100
AcDbEntity
  8
1
  6
Continuous
 62
     6
100
AcDbLine
 10
-139.3202446605918
 20
106.4569523579388
 30
0.0
 11
-135.8202446605918
 21
106.4569523579388
 31
0.0
  0
LINE
  5
31E
330
1F
100
AcDbEntity
  8
1
  6
Continuous
 62
     3
100
AcDbLine
 10
-139.3202446605918
 20
106.856952357939
 30
0.0
 11
-139.3202446605918
 21
105.656952357939
 31
0.0
  0
LINE
  5
31F
330
1F
100
AcDbEntity
  8
1
  6
Continuous
 62
     6
100
AcDbLine
 10
-139.3202446605918
 20
106.2569523579389
 30
0.0
 11
-135.8202446605918
 21
106.2569523579389
 31
0.0
  0
LINE
  5
320
330
1F
100
AcDbEntity
  8
1
  6
Continuous
 62
     6
100
AcDbLine
 10
-139.3202446605918
 20
106.0569523579388
 30
0.0
 11
-135.8202446605918
 21
106.0569523579388
 31
0.0
  0
LINE
  5
321
330
1F
100
AcDbEntity
  8
1
  6
Continuous
 62
     6
100
AcDbLine
 10
-139.3202446605918
 20
102.4569523579387
 30
0.0
 11
-135.8202446605918
 21
102.4569523579387
 31
0.0
  0
LINE
  5
322
330
1F
100
AcDbEntity
  8
1
  6
Continuous
 62
     3
100
AcDbLine
 10
-139.3202446605918
 20
102.8569523579389
 30
0.0
 11
-139.3202446605918
 21
101.6569523579388
 31
0.0
  0
LINE
  5
323
330
1F
100
AcDbEntity
  8
1
  6
Continuous
 62
     6
100
AcDbLine
 10
-139.3202446605918
 20
102.2569523579387
 30
0.0
 11
-135.8202446605918
 21
102.2569523579387
 31
0.0
  0
LINE
  5
324
330
1F
100
AcDbEntity
  8
1
  6
Continuous
 62
     6
100
AcDbLine
 10
-139.3202446605918
 20
102.0569523579387
 30
0.0
 11
-135.8202446605918
 21
102.0569523579387
 31
0.0
  0
LINE
  5
325
330
1F
100
AcDbEntity
  8
1
  6
Continuous
 62
     2
100
AcDbLine
 10
-191.1810272234535
 20
92.82679005851985
 30
0.0
 11
-143.4598832877535
 21
92.82679005851985
 31
0.0
  0
LINE
  5
326
330
1F
100
AcDbEntity
  8
1
  6
Continuous
 62
     2
100
AcDbLine
 10
-168.7216940193255
 20
155.5608431274227
 30
0.0
 11
-168.7216940193255
 21
164.9627231699449
 31
0.0
  0
LINE
  5
327
330
1F
100
AcDbEntity
  8
1
  6
Continuous
 62
     2
100
AcDbLine
 10
-169.2550273526588
 20
152.5608431274228
 30
0.0
 11
-169.2550273526588
 21
151.2108431274228
 31
0.0
  0
LINE
  5
328
330
1F
100
AcDbEntity
  8
1
  6
Continuous
 62
     2
100
AcDbLine
 10
-169.7883606859921
 20
155.5608431274227
 30
0.0
 11
-169.7883606859921
 21
162.3123471614404
 31
0.0
  0
LINE
  5
329
330
1F
100
AcDbEntity
  8
1
  6
Continuous
 62
     2
100
AcDbLine
 10
-170.3216940193254
 20
152.5608431274228
 30
0.0
 11
-170.3216940193254
 21
151.2108431274228
 31
0.0
  0
LINE
  5
32A
330
1F
100
AcDbEntity
  8
1
  6
Continuous
 62
     2
100
AcDbLine
 10
-170.8550273526587
 20
155.5608431274227
 30
0.0
 11
-170.8550273526587
 21
159.661971152936
 31
0.0
  0
LINE
  5
32B
330
1F
100
AcDbEntity
  8
1
  6
Continuous
 62
     2
100
AcDbLine
 10
-171.3883606859921
 20
152.5608431274228
 30
0.0
 11
-171.3883606859921
 21
151.2108431274228
 31
0.0
  0
LINE
  5
32C
330
1F
100
AcDbEntity
  8
1
  6
Continuous
 62
     2
100
AcDbLine
 10
-171.9216940193255
 20
155.5608431274227
 30
0.0
 11
-171.9216940193255
 21
157.0115951444315
 31
0.0
  0
LINE
  5
32D
330
1F
100
AcDbEntity
  8
1
  6
Continuous
 62
     2
100
AcDbLine
 10
-172.4550273526588
 20
152.5608431274228
 30
0.0
 11
-172.4550273526588
 21
151.2108431274228
 31
0.0
  0
LINE
  5
32E
330
1F
100
AcDbEntity
  8
1
  6
Continuous
 62
     2
100
AcDbLine
 10
-184.6216940193682
 20
192.0608431274227
 30
0.0
 11
-184.6216940193682
 21
193.4108431274227
 31
0.0
  0
LINE
  5
32F
330
1F
100
AcDbEntity
  8
1
  6
Continuous
 62
     2
100
AcDbLine
 10
-185.1550273527015
 20
189.0608431274227
 30
0.0
 11
-185.1550273527015
 21
187.6100911104138
 31
0.0
  0
LINE
  5
330
330
1F
100
AcDbEntity
  8
1
  6
Continuous
 62
     2
100
AcDbLine
 10
-185.6883606860348
 20
192.0608431274227
 30
0.0
 11
-185.6883606860348
 21
193.4108431274227
 31
0.0
  0
LINE
  5
331
330
1F
100
AcDbEntity
  8
1
  6
Continuous
 62
     2
100
AcDbLine
 10
-186.2216940193681
 20
189.0608431274227
 30
0.0
 11
-186.2216940193681
 21
184.9597151019094
 31
0.0
  0
LINE
  5
332
330
1F
100
AcDbEntity
  8
1
  6
Continuous
 62
     2
100
AcDbLine
 10
-186.7550273527017
 20
192.0608431274227
 30
0.0
 11
-186.7550273527017
 21
193.4108431274227
 31
0.0
  0
LINE
  5
333
330
1F
100
AcDbEntity
  8
1
  6
Continuous
 62
     2
100
AcDbLine
 10
-187.2883606860349
 20
189.0608431274227
 30
0.0
 11
-187.2883606860349
 21
182.3093390934049
 31
0.0
  0
LINE
  5
334
330
1F
100
AcDbEntity
  8
1
  6
Continuous
 62
     2
100
AcDbLine
 10
-187.8216940193682
 20
192.0608431274227
 30
0.0
 11
-187.8216940193682
 21
193.4108431274227
 31
0.0
  0
LINE
  5
335
330
1F
100
AcDbEntity
  8
1
  6
Continuous
 62
     2
100
AcDbLine
 10
-188.3550273527015
 20
189.0608431274227
 30
0.0
 11
-188.3550273527015
 21
179.6589630849005
 31
0.0
  0
LINE
  5
336
330
1F
100
AcDbEntity
  8
1
  6
Continuous
 62
     3
100
AcDbLine
 10
-161.0883606859922
 20
163.9341497560438
 30
0.0
 11
-161.0883606859922
 21
180.9949220993242
 31
0.0
  0
LINE
  5
337
330
1F
100
AcDbEntity
  8
0
  6
Continuous
 62
     3
100
AcDbLine
 10
-165.0883606859569
 20
173.1719302911067
 30
0.0
 11
-165.0883606859432
 21
176.7127509381696
 31
0.0
  0
LINE
  5
338
330
1F
100
AcDbEntity
  8
0
  6
Continuous
 62
     3
100
AcDbLine
 10
-165.0883606859432
 20
176.7127509381696
 30
0.0
 11
-165.0883606859922
 21
180.5951143748846
 31
0.0
  0
LINE
  5
339
330
1F
100
AcDbEntity
  8
0
  6
Continuous
 62
     3
100
AcDbLine
 10
-161.4928386846913
 20
180.8229318341898
 30
0.0
 11
-165.0883606859922
 21
180.8229318341898
 31
0.0
  0
LINE
  5
33A
330
1F
100
AcDbEntity
  8
1
  6
Continuous
 62
     3
100
AcDbLine
 10
-161.0883606859922
 20
180.9949220993242
 30
0.0
 11
-161.0883606859922
 21
181.1335920068468
 31
0.0
  0
LINE
  5
33B
330
1F
100
AcDbEntity
  8
1
  6
Continuous
 62
     3
100
AcDbLine
 10
-315.2287504390301
 20
151.4608431586205
 30
0.0
 11
-315.2287504390301
 21
151.0611169319731
 31
0.0
  0
LINE
  5
33C
330
1F
100
AcDbEntity
  8
1
  6
Continuous
 62
     3
100
AcDbLine
 10
-316.2287504390301
 20
145.0611169319731
 30
0.0
 11
-316.2287504390301
 21
151.4608431586205
 31
0.0
  0
LINE
  5
33D
330
1F
100
AcDbEntity
  8
0
  6
Continuous
 62
     3
100
AcDbLine
 10
-316.2287504390301
 20
148.810843158644
 30
0.0
 11
-316.6787504402005
 21
148.810843158644
 31
0.0
  0
LINE
  5
33E
330
1F
100
AcDbEntity
  8
0
  6
Continuous
 62
     3
100
AcDbLine
 10
-302.3287504390299
 20
150.810843158644
 30
0.0
 11
-301.8787504402006
 21
150.810843158644
 31
0.0
  0
LINE
  5
33F
330
1F
100
AcDbEntity
  8
1
  6
Continuous
 62
     3
100
AcDbLine
 10
-299.27875043903
 20
147.911116931973
 30
0.0
 11
-299.27875043903
 21
151.4608431586205
 31
0.0
  0
LINE
  5
340
330
1F
100
AcDbEntity
  8
1
  6
Continuous
 62
     3
100
AcDbLine
 10
-319.27875043903
 20
147.9111169319731
 30
0.0
 11
-319.27875043903
 21
151.4608431586205
 31
0.0
  0
LINE
  5
341
330
1F
100
AcDbEntity
  8
1
  6
Continuous
 62
     3
100
AcDbLine
 10
-302.3287504390299
 20
151.4608431586205
 30
0.0
 11
-302.3287504390299
 21
145.0611169319731
 31
0.0
  0
LINE
  5
342
330
1F
100
AcDbEntity
  8
1
  6
Continuous
 62
     3
100
AcDbLine
 10
-304.02875043903
 20
151.4608431586205
 30
0.0
 11
-304.02875043903
 21
151.0611169319731
 31
0.0
  0
LINE
  5
343
330
1F
100
AcDbEntity
  8
1
  6
Continuous
 62
     3
100
AcDbLine
 10
-306.02875043903
 20
151.4608431586205
 30
0.0
 11
-306.02875043903
 21
151.0611169319731
 31
0.0
  0
LINE
  5
344
330
1F
100
AcDbEntity
  8
1
  6
Continuous
 62
     3
100
AcDbLine
 10
-308.02875043903
 20
151.4608431586205
 30
0.0
 11
-308.02875043903
 21
151.0611169319731
 31
0.0
  0
LINE
  5
345
330
1F
100
AcDbEntity
  8
1
  6
Continuous
 62
     3
100
AcDbLine
 10
-310.02875043903
 20
151.4608431586205
 30
0.0
 11
-310.02875043903
 21
151.0611169319731
 31
0.0
  0
LINE
  5
346
330
1F
100
AcDbEntity
  8
1
  6
Continuous
 62
     3
100
AcDbLine
 10
-312.02875043903
 20
151.4608431586205
 30
0.0
 11
-312.02875043903
 21
151.0611169319731
 31
0.0
  0
LINE
  5
347
330
1F
100
AcDbEntity
  8
1
  6
Continuous
 62
     3
100
AcDbLine
 10
-314.02875043903
 20
151.4608431586205
 30
0.0
 11
-314.02875043903
 21
151.0611169319731
 31
0.0
  0
LINE
  5
348
330
1F
100
AcDbEntity
  8
0
  6
Continuous
 62
     3
100
AcDbLine
 10
-316.6787504402005
 20
150.810843158644
 30
0.0
 11
-316.6787504402005
 21
148.810843158644
 31
0.0
  0
LINE
  5
349
330
1F
100
AcDbEntity
  8
0
  6
Continuous
 62
     3
100
AcDbLine
 10
-316.6787504402005
 20
151.2108431586435
 30
0.0
 11
-316.6787504402005
 21
150.810843158644
 31
0.0
  0
LINE
  5
34A
330
1F
100
AcDbEntity
  8
0
  6
Continuous
 62
     3
100
AcDbLine
 10
-301.8787504402006
 20
151.2108431586425
 30
0.0
 11
-316.6787504402005
 21
151.2108431586435
 31
0.0
  0
LINE
  5
34B
330
1F
100
AcDbEntity
  8
0
  6
Continuous
 62
     3
100
AcDbLine
 10
-316.6787504402005
 20
150.810843158644
 30
0.0
 11
-316.2287504390301
 21
150.810843158644
 31
0.0
  0
LINE
  5
34C
330
1F
100
AcDbEntity
  8
0
  6
Continuous
 62
     3
100
AcDbLine
 10
-301.8787504402006
 20
150.810843158644
 30
0.0
 11
-301.8787504402006
 21
151.2108431586425
 31
0.0
  0
LINE
  5
34D
330
1F
100
AcDbEntity
  8
0
  6
Continuous
 62
     3
100
AcDbLine
 10
-301.8787504402006
 20
148.810843158644
 30
0.0
 11
-301.8787504402006
 21
150.810843158644
 31
0.0
  0
LINE
  5
34E
330
1F
100
AcDbEntity
  8
0
  6
Continuous
 62
     3
100
AcDbLine
 10
-301.8787504402006
 20
148.810843158644
 30
0.0
 11
-302.3287504390299
 21
148.810843158644
 31
0.0
  0
LINE
  5
34F
330
1F
100
AcDbEntity
  8
0
  6
Continuous
 62
     3
100
AcDbLine
 10
-316.6787504402005
 20
148.810843158644
 30
0.0
 11
-316.6787504402005
 21
148.310843158644
 31
0.0
  0
LINE
  5
350
330
1F
100
AcDbEntity
  8
0
  6
Continuous
 62
     3
100
AcDbLine
 10
-301.8787504402006
 20
148.310843158644
 30
0.0
 11
-301.8787504402006
 21
148.810843158644
 31
0.0
  0
LINE
  5
351
330
1F
100
AcDbEntity
  8
0
  6
Continuous
 62
     3
100
AcDbLine
 10
-316.6787504402005
 20
147.310843158644
 30
0.0
 11
-318.7787504410514
 21
147.310843158644
 31
0.0
  0
LINE
  5
352
330
1F
100
AcDbEntity
  8
0
  6
Continuous
 62
     3
100
AcDbLine
 10
-316.6787504402005
 20
148.310843158644
 30
0.0
 11
-316.6787504402005
 21
147.310843158644
 31
0.0
  0
LINE
  5
353
330
1F
100
AcDbEntity
  8
0
  6
Continuous
 62
     3
100
AcDbLine
 10
-301.8787504402006
 20
147.310843158644
 30
0.0
 11
-301.8787504402006
 21
148.310843158644
 31
0.0
  0
LINE
  5
354
330
1F
100
AcDbEntity
  8
0
  6
Continuous
 62
     3
100
AcDbLine
 10
-299.7787504393497
 20
147.310843158644
 30
0.0
 11
-301.8787504402006
 21
147.310843158644
 31
0.0
  0
LINE
  5
355
330
1F
100
AcDbEntity
  8
1
  6
Continuous
 62
     3
100
AcDbLine
 10
-302.3287504390299
 20
145.0611169319731
 30
0.0
 11
-316.2287504390301
 21
145.0611169319731
 31
0.0
  0
LINE
  5
356
330
1F
100
AcDbEntity
  8
1
  6
Continuous
 62
     3
100
AcDbLine
 10
-302.3287504390299
 20
151.0611169319731
 30
0.0
 11
-316.2287504390301
 21
151.0611169319731
 31
0.0
  0
LINE
  5
357
330
1F
100
AcDbEntity
  8
1
  6
Continuous
 62
     3
100
AcDbLine
 10
-303.3287504390299
 20
151.0611169319731
 30
0.0
 11
-303.3287504390299
 21
151.4608431586205
 31
0.0
  0
LINE
  5
358
330
1F
100
AcDbEntity
  8
1
  6
Continuous
 62
     3
100
AcDbLine
 10
-305.52875043903
 20
149.3111169319731
 30
0.0
 11
-313.02875043903
 21
149.3111169319731
 31
0.0
  0
LINE
  5
359
330
1F
100
AcDbEntity
  8
1
  6
Continuous
 62
     3
100
AcDbLine
 10
-305.52875043903
 20
145.0611169319731
 30
0.0
 11
-305.52875043903
 21
149.3111169319731
 31
0.0
  0
LINE
  5
35A
330
1F
100
AcDbEntity
  8
1
  6
Continuous
 62
     3
100
AcDbLine
 10
-302.9787504390301
 20
147.0611169319731
 30
0.0
 11
-303.9787504390301
 21
147.0611169319731
 31
0.0
  0
LINE
  5
35B
330
1F
100
AcDbEntity
  8
1
  6
Continuous
 62
     3
100
AcDbLine
 10
-303.9787504390301
 20
147.0611169319731
 30
0.0
 11
-303.9787504390301
 21
149.3111169319731
 31
0.0
  0
LINE
  5
35C
330
1F
100
AcDbEntity
  8
1
  6
Continuous
 62
     3
100
AcDbLine
 10
-303.9787504390301
 20
149.3111169319731
 30
0.0
 11
-302.9787504390301
 21
149.3111169319731
 31
0.0
  0
LINE
  5
35D
330
1F
100
AcDbEntity
  8
1
  6
Continuous
 62
     3
100
AcDbLine
 10
-302.9787504390301
 20
149.3111169319731
 30
0.0
 11
-302.9787504390301
 21
147.0611169319731
 31
0.0
  0
LINE
  5
35E
330
1F
100
AcDbEntity
  8
1
  6
Continuous
 62
     3
100
AcDbLine
 10
-315.5787504390299
 20
147.0611169319731
 30
0.0
 11
-315.5787504390299
 21
149.3111169319731
 31
0.0
  0
LINE
  5
35F
330
1F
100
AcDbEntity
  8
1
  6
Continuous
 62
     3
100
AcDbLine
 10
-315.5787504390299
 20
149.3111169319731
 30
0.0
 11
-314.5787504390299
 21
149.3111169319731
 31
0.0
  0
LINE
  5
360
330
1F
100
AcDbEntity
  8
1
  6
Continuous
 62
     3
100
AcDbLine
 10
-314.5787504390299
 20
149.3111169319731
 30
0.0
 11
-314.5787504390299
 21
147.0611169319731
 31
0.0
  0
LINE
  5
361
330
1F
100
AcDbEntity
  8
1
  6
Continuous
 62
     3
100
AcDbLine
 10
-314.5787504390299
 20
147.0611169319731
 30
0.0
 11
-315.5787504390299
 21
147.0611169319731
 31
0.0
  0
LINE
  5
362
330
1F
100
AcDbEntity
  8
1
  6
Continuous
 62
     3
100
AcDbLine
 10
-302.9787504390301
 20
149.3111169319731
 30
0.0
 11
-302.9787504390301
 21
151.0611169319731
 31
0.0
  0
LINE
  5
363
330
1F
100
AcDbEntity
  8
1
  6
Continuous
 62
     3
100
AcDbLine
 10
-303.9787504390301
 20
149.3111169319731
 30
0.0
 11
-303.9787504390301
 21
151.0611169319731
 31
0.0
  0
LINE
  5
364
330
1F
100
AcDbEntity
  8
1
  6
Continuous
 62
     3
100
AcDbLine
 10
-315.5787504390299
 20
149.3111169319731
 30
0.0
 11
-315.5787504390299
 21
151.0611169319731
 31
0.0
  0
LINE
  5
365
330
1F
100
AcDbEntity
  8
1
  6
Continuous
 62
     3
100
AcDbLine
 10
-314.5787504390299
 20
149.3111169319731
 30
0.0
 11
-314.5787504390299
 21
151.0611169319731
 31
0.0
  0
LINE
  5
366
330
1F
100
AcDbEntity
  8
1
  6
Continuous
 62
     3
100
AcDbLine
 10
-304.52875043903
 20
151.0611169319731
 30
0.0
 11
-304.52875043903
 21
151.4608431586205
 31
0.0
  0
LINE
  5
367
330
1F
100
AcDbEntity
  8
1
  6
Continuous
 62
     3
100
AcDbLine
 10
-306.52875043903
 20
151.0611169319731
 30
0.0
 11
-306.52875043903
 21
151.4608431586205
 31
0.0
  0
LINE
  5
368
330
1F
100
AcDbEntity
  8
1
  6
Continuous
 62
     3
100
AcDbLine
 10
-308.52875043903
 20
151.0611169319731
 30
0.0
 11
-308.52875043903
 21
151.4608431586205
 31
0.0
  0
LINE
  5
369
330
1F
100
AcDbEntity
  8
1
  6
Continuous
 62
     3
100
AcDbLine
 10
-310.52875043903
 20
151.0611169319731
 30
0.0
 11
-310.52875043903
 21
151.4608431586205
 31
0.0
  0
LINE
  5
36A
330
1F
100
AcDbEntity
  8
1
  6
Continuous
 62
     3
100
AcDbLine
 10
-312.52875043903
 20
151.0611169319731
 30
0.0
 11
-312.52875043903
 21
151.4608431586205
 31
0.0
  0
LINE
  5
36B
330
1F
100
AcDbEntity
  8
1
  6
Continuous
 62
     3
100
AcDbLine
 10
-314.52875043903
 20
151.0611169319731
 30
0.0
 11
-314.52875043903
 21
151.4608431586205
 31
0.0
  0
LINE
  5
36C
330
1F
100
AcDbEntity
  8
1
  6
Continuous
 62
     3
100
AcDbLine
 10
-313.02875043903
 20
149.3111169319731
 30
0.0
 11
-313.02875043903
 21
145.0611169319731
 31
0.0
  0
LINE
  5
36D
330
1F
100
AcDbEntity
  8
1
  6
Continuous
 62
     1
100
AcDbLine
 10
-325.5287503766361
 20
190.5608432185946
 30
0.0
 11
-329.5287503766361
 21
190.5608432185946
 31
0.0
  0
LINE
  5
36E
330
1F
100
AcDbEntity
  8
1
  6
Continuous
 62
     1
100
AcDbLine
 10
-327.5287504378198
 20
156.0608432198046
 30
0.0
 11
-327.5287504378198
 21
152.0608432198046
 31
0.0
  0
LINE
  5
36F
330
1F
100
AcDbEntity
  8
1
  6
Continuous
 62
     1
100
AcDbLine
 10
-327.5287503766361
 20
192.5608432185946
 30
0.0
 11
-327.5287503766361
 21
188.5608432185946
 31
0.0
  0
LINE
  5
370
330
1F
100
AcDbEntity
  8
1
  6
Continuous
 62
     1
100
AcDbLine
 10
-329.5287504378198
 20
154.0608432198046
 30
0.0
 11
-325.5287504378198
 21
154.0608432198046
 31
0.0
  0
LINE
  5
371
330
1F
100
AcDbEntity
  8
1
  6
Continuous
 62
     1
100
AcDbLine
 10
-327.2787504990068
 20
156.8108432210165
 30
0.0
 11
-322.2787504990068
 21
156.8108432210165
 31
0.0
  0
LINE
  5
372
330
1F
100
AcDbEntity
  8
1
  6
Continuous
 62
     1
100
AcDbLine
 10
-324.7787504990068
 20
154.3108432210165
 30
0.0
 11
-324.7787504990068
 21
159.3108432210165
 31
0.0
  0
LINE
  5
373
330
1F
100
AcDbEntity
  8
1
  6
Continuous
 62
     1
100
AcDbLine
 10
-324.7787504990068
 20
185.3108430962246
 30
0.0
 11
-324.7787504990068
 21
190.3108430962246
 31
0.0
  0
LINE
  5
374
330
1F
100
AcDbEntity
  8
1
  6
Continuous
 62
     1
100
AcDbLine
 10
-322.2787504990068
 20
187.8108430962246
 30
0.0
 11
-327.2787504990068
 21
187.8108430962246
 31
0.0
  0
LINE
  5
375
330
1F
100
AcDbEntity
  8
1
  6
Continuous
 62
     1
100
AcDbLine
 10
-325.5287504378198
 20
190.5608430974367
 30
0.0
 11
-329.5287504378198
 21
190.5608430974367
 31
0.0
  0
LINE
  5
376
330
1F
100
AcDbEntity
  8
1
  6
Continuous
 62
     1
100
AcDbLine
 10
-327.5287504378198
 20
192.5608430974367
 30
0.0
 11
-327.5287504378198
 21
188.5608430974367
 31
0.0
  0
LINE
  5
377
330
1F
100
AcDbEntity
  8
1
  6
Continuous
 62
     1
100
AcDbLine
 10
-291.0287504402398
 20
188.5608430974367
 30
0.0
 11
-291.0287504402398
 21
192.5608430974367
 31
0.0
  0
LINE
  5
378
330
1F
100
AcDbEntity
  8
1
  6
Continuous
 62
     1
100
AcDbLine
 10
-289.0287504402398
 20
190.5608430974367
 30
0.0
 11
-293.0287504402398
 21
190.5608430974367
 31
0.0
  0
LINE
  5
379
330
1F
100
AcDbEntity
  8
1
  6
Continuous
 62
     1
100
AcDbLine
 10
-291.2787503790528
 20
187.8108430962246
 30
0.0
 11
-296.2787503790528
 21
187.8108430962246
 31
0.0
  0
LINE
  5
37A
330
1F
100
AcDbEntity
  8
1
  6
Continuous
 62
     1
100
AcDbLine
 10
-293.7787503790528
 20
159.3108432210165
 30
0.0
 11
-293.7787503790528
 21
154.3108432210165
 31
0.0
  0
LINE
  5
37B
330
1F
100
AcDbEntity
  8
1
  6
Continuous
 62
     1
100
AcDbLine
 10
-296.2787503790528
 20
156.8108432210165
 30
0.0
 11
-291.2787503790528
 21
156.8108432210165
 31
0.0
  0
LINE
  5
37C
330
1F
100
AcDbEntity
  8
1
  6
Continuous
 62
     3
100
AcDbLine
 10
-330.1287504390298
 20
153.4608431586205
 30
0.0
 11
-330.1287504390298
 21
191.1608431586206
 31
0.0
  0
LINE
  5
37D
330
1F
100
AcDbEntity
  8
1
  6
Continuous
 62
     3
100
AcDbLine
 10
-290.4287504390298
 20
151.4608431586205
 30
0.0
 11
-328.1287504390298
 21
151.4608431586205
 31
0.0
  0
LINE
  5
37E
330
1F
100
AcDbEntity
  8
1
  6
Continuous
 62
     3
100
AcDbLine
 10
-288.4287504390298
 20
191.1608431586206
 30
0.0
 11
-288.4287504390298
 21
153.4608431586205
 31
0.0
  0
LINE
  5
37F
330
1F
100
AcDbEntity
  8
1
  6
Continuous
 62
     3
100
AcDbLine
 10
-328.1287504390298
 20
193.1608431586206
 30
0.0
 11
-290.4287504390298
 21
193.1608431586206
 31
0.0
  0
LINE
  5
380
330
1F
100
AcDbEntity
  8
1
  6
Continuous
 62
     3
100
AcDbLine
 10
-330.1287504390298
 20
193.1608429940136
 30
0.0
 11
-330.1287504390298
 21
193.1608431586206
 31
0.0
  0
LINE
  5
381
330
1F
100
AcDbEntity
  8
1
  6
Continuous
 62
     1
100
AcDbLine
 10
-309.27875043903
 20
145.6095737085807
 30
0.0
 11
-309.27875043903
 21
197.4108431586206
 31
0.0
  0
LINE
  5
382
330
1F
100
AcDbEntity
  8
1
  6
Continuous
 62
     1
100
AcDbLine
 10
-284.178750439028
 20
172.3108431586207
 30
0.0
 11
-334.5660870457689
 21
172.3108431586207
 31
0.0
  0
LINE
  5
383
330
1F
100
AcDbEntity
  8
1
  6
Continuous
 62
     1
100
AcDbLine
 10
-329.52875043903
 20
154.0608431586207
 30
0.0
 11
-325.52875043903
 21
154.0608431586207
 31
0.0
  0
LINE
  5
384
330
1F
100
AcDbEntity
  8
1
  6
Continuous
 62
     1
100
AcDbLine
 10
-327.52875043903
 20
156.0608431586207
 30
0.0
 11
-327.52875043903
 21
152.0608431586207
 31
0.0
  0
LINE
  5
385
330
1F
100
AcDbEntity
  8
1
  6
Continuous
 62
     1
100
AcDbLine
 10
-293.0287504402398
 20
154.0608432198046
 30
0.0
 11
-289.0287504402398
 21
154.0608432198046
 31
0.0
  0
LINE
  5
386
330
1F
100
AcDbEntity
  8
1
  6
Continuous
 62
     1
100
AcDbLine
 10
-291.028750501424
 20
188.5608432185946
 30
0.0
 11
-291.028750501424
 21
192.5608432185946
 31
0.0
  0
LINE
  5
387
330
1F
100
AcDbEntity
  8
1
  6
Continuous
 62
     1
100
AcDbLine
 10
-325.5287505002141
 20
190.5608431574106
 30
0.0
 11
-329.5287505002141
 21
190.5608431574106
 31
0.0
  0
LINE
  5
388
330
1F
100
AcDbEntity
  8
1
  6
Continuous
 62
     1
100
AcDbLine
 10
-291.0287504402398
 20
152.0608432198046
 30
0.0
 11
-291.0287504402398
 21
156.0608432198046
 31
0.0
  0
LINE
  5
389
330
1F
100
AcDbEntity
  8
1
  6
Continuous
 62
     1
100
AcDbLine
 10
-289.028750501424
 20
190.5608432185946
 30
0.0
 11
-293.028750501424
 21
190.5608432185946
 31
0.0
  0
LINE
  5
38A
330
1F
100
AcDbEntity
  8
1
  6
Continuous
 62
     1
100
AcDbLine
 10
-327.5287505002141
 20
192.5608431574106
 30
0.0
 11
-327.5287505002141
 21
188.5608431574106
 31
0.0
  0
LINE
  5
38B
330
1F
100
AcDbEntity
  8
1
  6
Continuous
 62
     3
100
AcDbLine
 10
-330.2787504390288
 20
152.7229137797827
 30
0.0
 11
-330.2787504390288
 21
152.7229139129395
 31
0.0
  0
LINE
  5
38C
330
1F
100
AcDbEntity
  8
1
  6
Continuous
 62
     1
100
AcDbLine
 10
-285.1874713976342
 20
172.3108431274227
 30
0.0
 11
-333.4488788752823
 21
172.3108431274227
 31
0.0
  0
LINE
  5
38D
330
1F
100
AcDbEntity
  8
2
  6
Continuous
 62
     1
100
AcDbLine
 10
-309.2787504690161
 20
142.9726266930299
 30
0.0
 11
-309.2787504690161
 21
199.4814899843686
 31
0.0
  0
LINE
  5
38E
330
1F
100
AcDbEntity
  8
1
  6
Continuous
 62
     3
100
AcDbLine
 10
-159.3883606860418
 20
151.2608431274228
 30
0.0
 11
-157.8896429481182
 21
151.2608431274228
 31
0.0
  0
LINE
  5
38F
330
1F
100
AcDbEntity
  8
1
  6
Continuous
 62
     3
100
AcDbLine
 10
-159.3883606860418
 20
152.3508431274227
 30
0.0
 11
-159.3883606860418
 21
151.2608431274228
 31
0.0
  0
LINE
  5
390
330
1F
100
AcDbEntity
  8
1
  6
Continuous
 62
     3
100
AcDbLine
 10
-157.8896429481182
 20
156.8608431274227
 30
0.0
 11
-159.3883606860418
 21
156.8608431274227
 31
0.0
  0
LINE
  5
391
330
1F
100
AcDbEntity
  8
1
  6
Continuous
 62
     3
100
AcDbLine
 10
-157.1770684101773
 20
153.6983431274228
 30
0.0
 11
-157.0020684101773
 21
153.6983431274228
 31
0.0
  0
LINE
  5
392
330
1F
100
AcDbEntity
  8
1
  6
Continuous
 62
     3
100
AcDbLine
 10
-157.1770684101773
 20
154.4233431274227
 30
0.0
 11
-157.1770684101773
 21
153.6983431274228
 31
0.0
  0
LINE
  5
393
330
1F
100
AcDbEntity
  8
1
  6
Continuous
 62
     3
100
AcDbLine
 10
-157.0020684101773
 20
154.4233431274227
 30
0.0
 11
-157.1770684101773
 21
154.4233431274227
 31
0.0
  0
LINE
  5
394
330
1F
100
AcDbEntity
  8
1
  6
Continuous
 62
     3
100
AcDbLine
 10
-159.3883606860418
 20
156.8608431274227
 30
0.0
 11
-159.3883606860418
 21
155.7708431274228
 31
0.0
  0
LINE
  5
395
330
1F
100
AcDbEntity
  8
1
  6
Continuous
 62
     3
100
AcDbLine
 10
-188.4883606870958
 20
155.5608431274227
 30
0.0
 11
-168.588360684787
 21
155.5608431274227
 31
0.0
  0
LINE
  5
396
330
1F
100
AcDbEntity
  8
1
  6
Continuous
 62
     2
100
AcDbLine
 10
-188.4883606870958
 20
155.2902101274227
 30
0.0
 11
-168.5883606849373
 21
155.2902101274227
 31
0.0
  0
LINE
  5
397
330
1F
100
AcDbEntity
  8
1
  6
Continuous
 62
     2
100
AcDbLine
 10
-188.4883606870958
 20
152.8314761274228
 30
0.0
 11
-168.5883606849003
 21
152.8314761274228
 31
0.0
  0
LINE
  5
398
330
1F
100
AcDbEntity
  8
1
  6
Continuous
 62
     3
100
AcDbLine
 10
-159.3883606860418
 20
155.7708431274228
 30
0.0
 11
-159.3883606860418
 21
152.3508431274227
 31
0.0
  0
LINE
  5
399
330
1F
100
AcDbEntity
  8
1
  6
Continuous
 62
     3
100
AcDbLine
 10
-159.3883606860418
 20
192.2708431274227
 30
0.0
 11
-159.3883606860418
 21
188.8508431274227
 31
0.0
  0
LINE
  5
39A
330
1F
100
AcDbEntity
  8
1
  6
Continuous
 62
     3
100
AcDbLine
 10
-168.5883606850918
 20
189.0608431274227
 30
0.0
 11
-188.4883606871155
 21
189.0608431274227
 31
0.0
  0
LINE
  5
39B
330
1F
100
AcDbEntity
  8
1
  6
Continuous
 62
     3
100
AcDbLine
 10
-188.4883606871155
 20
189.0608431274227
 30
0.0
 11
-188.4883606871155
 21
189.3314761274227
 31
0.0
  0
LINE
  5
39C
330
1F
100
AcDbEntity
  8
1
  6
Continuous
 62
     2
100
AcDbLine
 10
-188.4883606871155
 20
189.3314761274227
 30
0.0
 11
-168.5883606849115
 21
189.3314761274227
 31
0.0
  0
LINE
  5
39D
330
1F
100
AcDbEntity
  8
1
  6
Continuous
 62
     3
100
AcDbLine
 10
-188.4883606871155
 20
189.3314761274227
 30
0.0
 11
-188.4883606871155
 21
191.7902101274227
 31
0.0
  0
LINE
  5
39E
330
1F
100
AcDbEntity
  8
1
  6
Continuous
 62
     2
100
AcDbLine
 10
-188.4883606871155
 20
191.7902101274227
 30
0.0
 11
-168.5883606850918
 21
191.7902101274227
 31
0.0
  0
LINE
  5
39F
330
1F
100
AcDbEntity
  8
1
  6
Continuous
 62
     3
100
AcDbLine
 10
-188.4883606871155
 20
191.7902101274227
 30
0.0
 11
-188.4883606871155
 21
192.0608431274227
 31
0.0
  0
LINE
  5
3A0
330
1F
100
AcDbEntity
  8
1
  6
Continuous
 62
     3
100
AcDbLine
 10
-188.4883606871155
 20
192.0608431274227
 30
0.0
 11
-168.5883606849115
 21
192.0608431274227
 31
0.0
  0
LINE
  5
3A1
330
1F
100
AcDbEntity
  8
1
  6
Continuous
 62
     3
100
AcDbLine
 10
-159.3883606860418
 20
193.3608431274227
 30
0.0
 11
-159.3883606860418
 21
192.2708431274227
 31
0.0
  0
LINE
  5
3A2
330
1F
100
AcDbEntity
  8
1
  6
Continuous
 62
     3
100
AcDbLine
 10
-157.0020684101773
 20
190.9233431274227
 30
0.0
 11
-157.1770684101773
 21
190.9233431274227
 31
0.0
  0
LINE
  5
3A3
330
1F
100
AcDbEntity
  8
1
  6
Continuous
 62
     3
100
AcDbLine
 10
-157.1770684101773
 20
190.9233431274227
 30
0.0
 11
-157.1770684101773
 21
190.1983431274227
 31
0.0
  0
LINE
  5
3A4
330
1F
100
AcDbEntity
  8
1
  6
Continuous
 62
     3
100
AcDbLine
 10
-157.1770684101773
 20
190.1983431274227
 30
0.0
 11
-157.0020684101773
 21
190.1983431274227
 31
0.0
  0
LINE
  5
3A5
330
1F
100
AcDbEntity
  8
1
  6
Continuous
 62
     3
100
AcDbLine
 10
-157.8896429481182
 20
193.3608431274227
 30
0.0
 11
-159.3883606860418
 21
193.3608431274227
 31
0.0
  0
LINE
  5
3A6
330
1F
100
AcDbEntity
  8
1
  6
Continuous
 62
     3
100
AcDbLine
 10
-159.3883606860418
 20
188.8508431274227
 30
0.0
 11
-159.3883606860418
 21
187.7608431274227
 31
0.0
  0
LINE
  5
3A7
330
1F
100
AcDbEntity
  8
1
  6
Continuous
 62
     3
100
AcDbLine
 10
-159.3883606860418
 20
187.7608431274227
 30
0.0
 11
-157.8896429481182
 21
187.7608431274227
 31
0.0
  0
LINE
  5
3A8
330
1F
100
AcDbEntity
  8
1
  6
Continuous
 62
     1
100
AcDbLine
 10
-189.5559511737419
 20
190.5608431274227
 30
0.0
 11
-154.5883606860417
 21
190.5608431274227
 31
0.0
  0
LINE
  5
3A9
330
1F
100
AcDbEntity
  8
0
  6
Continuous
 62
     3
100
AcDbLine
 10
-161.0883606859922
 20
163.7987544206556
 30
0.0
 11
-165.0883606859922
 21
163.7987544206556
 31
0.0
  0
LINE
  5
3AA
330
1F
100
AcDbEntity
  8
0
  6
Continuous
 62
     3
100
AcDbLine
 10
-161.0883606859922
 20
180.8229318341898
 30
0.0
 11
-161.4928386846913
 21
180.8229318341898
 31
0.0
  0
LINE
  5
3AB
330
1F
100
AcDbEntity
  8
1
  6
Continuous
 62
     3
100
AcDbLine
 10
-161.2883606859866
 20
151.0108431269552
 30
0.0
 11
-161.2883606859922
 21
145.3087983110172
 31
0.0
  0
LINE
  5
3AC
330
1F
100
AcDbEntity
  8
0
  6
Continuous
 62
     2
100
AcDbLine
 10
-162.0883606859922
 20
151.0587983110172
 30
0.0
 11
-162.0883606859922
 21
148.8608431274227
 31
0.0
  0
LINE
  5
3AD
330
1F
100
AcDbEntity
  8
1
  6
Continuous
 62
     3
100
AcDbLine
 10
-168.5883606850918
 20
188.5885768852346
 30
0.0
 11
-188.488360687253
 21
188.5885768852346
 31
0.0
  0
LINE
  5
3AE
330
1F
100
AcDbEntity
  8
1
  6
Continuous
 62
     2
100
AcDbLine
 10
-189.9550273527015
 20
175.6833990721439
 30
0.0
 11
-189.9550273527015
 21
186.0589339167353
 31
0.0
  0
LINE
  5
3AF
330
1F
100
AcDbEntity
  8
1
  6
Continuous
 62
     2
100
AcDbLine
 10
-189.4216940193681
 20
186.0589339167353
 30
0.0
 11
-189.4216940193681
 21
177.008587076396
 31
0.0
  0
LINE
  5
3B0
330
1F
100
AcDbEntity
  8
1
  6
Continuous
 62
     2
100
AcDbLine
 10
-183.0216940193682
 20
192.9108431274227
 30
0.0
 11
-183.0216940193682
 21
193.4108431274227
 31
0.0
  0
LINE
  5
3B1
330
1F
100
AcDbEntity
  8
1
  6
Continuous
 62
     2
100
AcDbLine
 10
-188.8883606860348
 20
178.3337750806483
 30
0.0
 11
-188.8883606860348
 21
186.0589339167353
 31
0.0
  0
LINE
  5
3B2
330
1F
100
AcDbEntity
  8
1
  6
Continuous
 62
     2
100
AcDbLine
 10
-188.3550273527015
 20
193.4108431274227
 30
0.0
 11
-188.3550273527015
 21
192.0608431274227
 31
0.0
  0
LINE
  5
3B3
330
1F
100
AcDbEntity
  8
1
  6
Continuous
 62
     2
100
AcDbLine
 10
-187.8216940193682
 20
180.9841510891527
 30
0.0
 11
-187.8216940193682
 21
189.0608431274227
 31
0.0
  0
LINE
  5
3B4
330
1F
100
AcDbEntity
  8
1
  6
Continuous
 62
     2
100
AcDbLine
 10
-187.2883606860349
 20
193.4108431274227
 30
0.0
 11
-187.2883606860349
 21
192.0608431274227
 31
0.0
  0
LINE
  5
3B5
330
1F
100
AcDbEntity
  8
1
  6
Continuous
 62
     2
100
AcDbLine
 10
-186.7550273527017
 20
183.6345270976571
 30
0.0
 11
-186.7550273527017
 21
189.0608431274227
 31
0.0
  0
LINE
  5
3B6
330
1F
100
AcDbEntity
  8
1
  6
Continuous
 62
     2
100
AcDbLine
 10
-186.2216940193681
 20
193.4108431274227
 30
0.0
 11
-186.2216940193681
 21
192.0608431274227
 31
0.0
  0
LINE
  5
3B7
330
1F
100
AcDbEntity
  8
1
  6
Continuous
 62
     2
100
AcDbLine
 10
-185.6883606860348
 20
186.2849031061616
 30
0.0
 11
-185.6883606860348
 21
189.0608431274227
 31
0.0
  0
LINE
  5
3B8
330
1F
100
AcDbEntity
  8
1
  6
Continuous
 62
     2
100
AcDbLine
 10
-185.1550273527015
 20
193.4108431274227
 30
0.0
 11
-185.1550273527015
 21
192.0608431274227
 31
0.0
  0
LINE
  5
3B9
330
1F
100
AcDbEntity
  8
1
  6
Continuous
 62
     2
100
AcDbLine
 10
-184.6216940193682
 20
188.935279114666
 30
0.0
 11
-184.6216940193682
 21
189.0608431274227
 31
0.0
  0
LINE
  5
3BA
330
1F
100
AcDbEntity
  8
1
  6
Continuous
 62
     2
100
AcDbLine
 10
-184.0883606860349
 20
193.4108431274227
 30
0.0
 11
-184.0883606860349
 21
192.0608431274227
 31
0.0
  0
LINE
  5
3BB
330
1F
100
AcDbEntity
  8
1
  6
Continuous
 62
     2
100
AcDbLine
 10
-183.5550273527015
 20
192.0608431274227
 30
0.0
 11
-183.5550273527015
 21
193.4108431274227
 31
0.0
  0
LINE
  5
3BC
330
1F
100
AcDbEntity
  8
1
  6
Continuous
 62
     2
100
AcDbLine
 10
-173.5216940193255
 20
152.5608431274228
 30
0.0
 11
-173.5216940193255
 21
151.2108431274228
 31
0.0
  0
LINE
  5
3BD
330
1F
100
AcDbEntity
  8
1
  6
Continuous
 62
     2
100
AcDbLine
 10
-172.9883606859921
 20
151.2108431274228
 30
0.0
 11
-172.9883606859921
 21
152.5608431274228
 31
0.0
  0
LINE
  5
3BE
330
1F
100
AcDbEntity
  8
1
  6
Continuous
 62
     2
100
AcDbLine
 10
-172.4550273526588
 20
155.6864071401793
 30
0.0
 11
-172.4550273526588
 21
155.5608431274227
 31
0.0
  0
LINE
  5
3BF
330
1F
100
AcDbEntity
  8
1
  6
Continuous
 62
     2
100
AcDbLine
 10
-171.9216940193255
 20
151.2108431274228
 30
0.0
 11
-171.9216940193255
 21
152.5608431274228
 31
0.0
  0
LINE
  5
3C0
330
1F
100
AcDbEntity
  8
1
  6
Continuous
 62
     2
100
AcDbLine
 10
-171.3883606859921
 20
158.3367831486839
 30
0.0
 11
-171.3883606859921
 21
155.5608431274227
 31
0.0
  0
LINE
  5
3C1
330
1F
100
AcDbEntity
  8
1
  6
Continuous
 62
     2
100
AcDbLine
 10
-170.8550273526587
 20
151.2108431274228
 30
0.0
 11
-170.8550273526587
 21
152.5608431274228
 31
0.0
  0
LINE
  5
3C2
330
1F
100
AcDbEntity
  8
1
  6
Continuous
 62
     2
100
AcDbLine
 10
-170.3216940193254
 20
160.9871591571883
 30
0.0
 11
-170.3216940193254
 21
155.5608431274227
 31
0.0
  0
LINE
  5
3C3
330
1F
100
AcDbEntity
  8
1
  6
Continuous
 62
     2
100
AcDbLine
 10
-169.7883606859921
 20
151.2108431274228
 30
0.0
 11
-169.7883606859921
 21
152.5608431274228
 31
0.0
  0
LINE
  5
3C4
330
1F
100
AcDbEntity
  8
1
  6
Continuous
 62
     2
100
AcDbLine
 10
-169.2550273526588
 20
163.6375351656926
 30
0.0
 11
-169.2550273526588
 21
155.5608431274227
 31
0.0
  0
LINE
  5
3C5
330
1F
100
AcDbEntity
  8
1
  6
Continuous
 62
     2
100
AcDbLine
 10
-168.7216940193255
 20
151.2108431274228
 30
0.0
 11
-168.7216940193255
 21
152.5608431274228
 31
0.0
  0
LINE
  5
3C6
330
1F
100
AcDbEntity
  8
1
  6
Continuous
 62
     2
100
AcDbLine
 10
-168.188360685992
 20
166.2879111741972
 30
0.0
 11
-168.188360685992
 21
158.5627523381102
 31
0.0
  0
LINE
  5
3C7
330
1F
100
AcDbEntity
  8
1
  6
Continuous
 62
     2
100
AcDbLine
 10
-174.0550273526587
 20
151.7108431274228
 30
0.0
 11
-174.0550273526587
 21
151.2108431274228
 31
0.0
  0
LINE
  5
3C8
330
1F
100
AcDbEntity
  8
1
  6
Continuous
 62
     2
100
AcDbLine
 10
-167.6550273526587
 20
158.5627523381102
 30
0.0
 11
-167.6550273526587
 21
167.6130991784494
 31
0.0
  0
LINE
  5
3C9
330
1F
100
AcDbEntity
  8
1
  6
Continuous
 62
     2
100
AcDbLine
 10
-167.1216940193255
 20
168.9382871827016
 30
0.0
 11
-167.1216940193255
 21
158.5627523381102
 31
0.0
  0
LINE
  5
3CA
330
1F
100
AcDbEntity
  8
1
  6
Continuous
 62
     1
100
AcDbLine
 10
-164.0883606859922
 20
172.3108431274227
 30
0.0
 11
-192.9883606860348
 21
172.3108431274227
 31
0.0
  0
LINE
  5
3CB
330
1F
100
AcDbEntity
  8
1
  6
Continuous
 62
     3
100
AcDbLine
 10
-188.4883606872926
 20
151.2108431274228
 30
0.0
 11
-166.5883606859922
 21
151.2108431274228
 31
0.0
  0
LINE
  5
3CC
330
1F
100
AcDbEntity
  8
1
  6
Continuous
 62
     3
100
AcDbLine
 10
-168.5883606849373
 20
193.4108431274227
 30
0.0
 11
-188.4883606870958
 21
193.4108431274227
 31
0.0
  0
LINE
  5
3CD
330
1F
100
AcDbEntity
  8
1
  6
Continuous
 62
     3
100
AcDbLine
 10
-168.5883606850918
 20
187.2108431272839
 30
0.0
 11
-188.488360687253
 21
187.2108431272839
 31
0.0
  0
LINE
  5
3CE
330
1F
100
AcDbEntity
  8
0
  6
Continuous
 62
     3
100
AcDbLine
 10
-166.5883606859922
 20
147.8608431274227
 30
0.0
 11
-166.5883606859922
 21
147.3608431274227
 31
0.0
  0
LINE
  5
3CF
330
1F
100
AcDbEntity
  8
0
  6
Continuous
 62
     3
100
AcDbLine
 10
-162.0883606859922
 20
147.3608431274227
 30
0.0
 11
-166.5883606859922
 21
147.3608431274227
 31
0.0
  0
LINE
  5
3D0
330
1F
100
AcDbEntity
  8
0
  6
Continuous
 62
     3
100
AcDbLine
 10
-166.5883606859922
 20
151.2608431274228
 30
0.0
 11
-166.5883606859922
 21
147.8608431274227
 31
0.0
  0
LINE
  5
3D1
330
1F
100
AcDbEntity
  8
0
  6
Continuous
 62
     3
100
AcDbLine
 10
-165.0883606859922
 20
163.6730184893675
 30
0.0
 11
-165.0883606859922
 21
163.4880942497531
 31
0.0
  0
LINE
  5
3D2
330
1F
100
AcDbEntity
  8
0
  6
Continuous
 62
     3
100
AcDbLine
 10
-166.5883606859922
 20
158.5627523381102
 30
0.0
 11
-166.5883606859922
 21
160.4026802636116
 31
0.0
  0
LINE
  5
3D3
330
1F
100
AcDbEntity
  8
0
  6
Continuous
 62
     3
100
AcDbLine
 10
-166.5883606859922
 20
160.4026802636116
 30
0.0
 11
-166.5883606859922
 21
160.519837551137
 31
0.0
  0
LINE
  5
3D4
330
1F
100
AcDbEntity
  8
0
  6
Continuous
 62
     3
100
AcDbLine
 10
-166.5883606859922
 20
160.519837551137
 30
0.0
 11
-166.5883606859922
 21
161.422528328907
 31
0.0
  0
LINE
  5
3D5
330
1F
100
AcDbEntity
  8
0
  6
Continuous
 62
     3
100
AcDbLine
 10
-166.5883606859922
 20
161.422528328907
 30
0.0
 11
-166.5883606859922
 21
161.8355983031645
 31
0.0
  0
LINE
  5
3D6
330
1F
100
AcDbEntity
  8
0
  6
Continuous
 62
     3
100
AcDbLine
 10
-166.5883606859922
 20
161.8355983031645
 30
0.0
 11
-166.5883606859922
 21
163.8387039143167
 31
0.0
  0
LINE
  5
3D7
330
1F
100
AcDbEntity
  8
0
  6
Continuous
 62
     3
100
AcDbLine
 10
-166.5883606859922
 20
164.19225730491
 30
0.0
 11
-166.5883606859922
 21
163.8387039143167
 31
0.0
  0
LINE
  5
3D8
330
1F
100
AcDbEntity
  8
0
  6
Continuous
 62
     3
100
AcDbLine
 10
-165.0883606859922
 20
163.8387039143168
 30
0.0
 11
-166.5883606859922
 21
163.8387039143167
 31
0.0
  0
LINE
  5
3D9
330
1F
100
AcDbEntity
  8
0
  6
Continuous
 62
     3
100
AcDbLine
 10
-165.0883606859922
 20
163.6730184893675
 30
0.0
 11
-165.0883606859922
 21
163.7987544206556
 31
0.0
  0
LINE
  5
3DA
330
1F
100
AcDbEntity
  8
0
  6
Continuous
 62
     3
100
AcDbLine
 10
-166.5883606859922
 20
164.19225730491
 30
0.0
 11
-166.5883606859922
 21
164.2529174766899
 31
0.0
  0
LINE
  5
3DB
330
1F
100
AcDbEntity
  8
0
  6
Continuous
 62
     3
100
AcDbLine
 10
-166.5883606859922
 20
164.2529174766899
 30
0.0
 11
-166.5883606859922
 21
164.6064708672831
 31
0.0
  0
LINE
  5
3DC
330
1F
100
AcDbEntity
  8
0
  6
Continuous
 62
     3
100
AcDbLine
 10
-166.5883606859922
 20
164.6064708672831
 30
0.0
 11
-166.5883606859922
 21
165.1053046715774
 31
0.0
  0
LINE
  5
3DD
330
1F
100
AcDbEntity
  8
0
  6
Continuous
 62
     3
100
AcDbLine
 10
-165.0883606859922
 20
164.19225730491
 30
0.0
 11
-166.5883606859922
 21
164.19225730491
 31
0.0
  0
LINE
  5
3DE
330
1F
100
AcDbEntity
  8
0
  6
Continuous
 62
     3
100
AcDbLine
 10
-166.5883606859922
 20
165.3526877507949
 30
0.0
 11
-166.5883606859922
 21
166.9530637366
 31
0.0
  0
LINE
  5
3DF
330
1F
100
AcDbEntity
  8
0
  6
Continuous
 62
     3
100
AcDbLine
 10
-166.5883606859922
 20
165.1053046715774
 30
0.0
 11
-166.5883606859922
 21
165.3526877507949
 31
0.0
  0
LINE
  5
3E0
330
1F
100
AcDbEntity
  8
0
  6
Continuous
 62
     3
100
AcDbLine
 10
-166.5883606859922
 20
177.4212394390279
 30
0.0
 11
-166.5883606859922
 21
177.6686225182454
 31
0.0
  0
LINE
  5
3E1
330
1F
100
AcDbEntity
  8
0
  6
Continuous
 62
     3
100
AcDbLine
 10
-166.5883606859922
 20
174.560494668707
 30
0.0
 11
-166.5883606859922
 21
174.7358431274227
 31
0.0
  0
LINE
  5
3E2
330
1F
100
AcDbEntity
  8
0
  6
Continuous
 62
     3
100
AcDbLine
 10
-166.5883606859922
 20
174.7358431274227
 30
0.0
 11
-166.5883606859922
 21
177.4212394390279
 31
0.0
  0
LINE
  5
3E3
330
1F
100
AcDbEntity
  8
0
  6
Continuous
 62
     3
100
AcDbLine
 10
-166.5883606859922
 20
174.3358431274227
 30
0.0
 11
-166.5883606859922
 21
174.560494668707
 31
0.0
  0
LINE
  5
3E4
330
1F
100
AcDbEntity
  8
0
  6
Continuous
 62
     3
100
AcDbLine
 10
-166.5883606859922
 20
179.2689985040505
 30
0.0
 11
-166.5883606859922
 21
179.516381583268
 31
0.0
  0
LINE
  5
3E5
330
1F
100
AcDbEntity
  8
0
  6
Continuous
 62
     3
100
AcDbLine
 10
-166.5883606859922
 20
177.6686225182454
 30
0.0
 11
-166.5883606859922
 21
179.2689985040505
 31
0.0
  0
LINE
  5
3E6
330
1F
100
AcDbEntity
  8
0
  6
Continuous
 62
     3
100
AcDbLine
 10
-166.5883606859922
 20
169.8858431274228
 30
0.0
 11
-166.5883606859922
 21
170.0611915861384
 31
0.0
  0
LINE
  5
3E7
330
1F
100
AcDbEntity
  8
0
  6
Continuous
 62
     3
100
AcDbLine
 10
-166.5883606859922
 20
170.0611915861384
 30
0.0
 11
-166.5883606859922
 21
170.2858431274227
 31
0.0
  0
LINE
  5
3E8
330
1F
100
AcDbEntity
  8
0
  6
Continuous
 62
     3
100
AcDbLine
 10
-166.5883606859922
 20
170.2858431274227
 30
0.0
 11
-166.5883606859922
 21
174.3358431274227
 31
0.0
  0
LINE
  5
3E9
330
1F
100
AcDbEntity
  8
0
  6
Continuous
 62
     3
100
AcDbLine
 10
-166.5883606859922
 20
166.9530637366
 30
0.0
 11
-166.5883606859922
 21
167.2004468158175
 31
0.0
  0
LINE
  5
3EA
330
1F
100
AcDbEntity
  8
0
  6
Continuous
 62
     3
100
AcDbLine
 10
-166.5883606859922
 20
167.2004468158175
 30
0.0
 11
-166.5883606859922
 21
169.8858431274228
 31
0.0
  0
LINE
  5
3EB
330
1F
100
AcDbEntity
  8
0
  6
Continuous
 62
     3
100
AcDbLine
 10
-165.0883606859922
 20
180.4294289499354
 30
0.0
 11
-166.5883606859922
 21
180.4294289499354
 31
0.0
  0
LINE
  5
3EC
330
1F
100
AcDbEntity
  8
0
  6
Continuous
 62
     3
100
AcDbLine
 10
-166.5883606859922
 20
180.7829823405287
 30
0.0
 11
-166.5883606859922
 21
180.4294289499354
 31
0.0
  0
LINE
  5
3ED
330
1F
100
AcDbEntity
  8
0
  6
Continuous
 62
     3
100
AcDbLine
 10
-166.5883606859922
 20
180.3687687781556
 30
0.0
 11
-166.5883606859922
 21
180.4294289499354
 31
0.0
  0
LINE
  5
3EE
330
1F
100
AcDbEntity
  8
0
  6
Continuous
 62
     3
100
AcDbLine
 10
-165.0883606859922
 20
180.7829823405287
 30
0.0
 11
-166.5883606859922
 21
180.7829823405287
 31
0.0
  0
LINE
  5
3EF
330
1F
100
AcDbEntity
  8
0
  6
Continuous
 62
     3
100
AcDbLine
 10
-166.5883606859922
 20
179.516381583268
 30
0.0
 11
-166.5883606859922
 21
180.0152153875623
 31
0.0
  0
LINE
  5
3F0
330
1F
100
AcDbEntity
  8
0
  6
Continuous
 62
     3
100
AcDbLine
 10
-166.5883606859922
 20
180.0152153875623
 30
0.0
 11
-166.5883606859922
 21
180.3687687781556
 31
0.0
  0
LINE
  5
3F1
330
1F
100
AcDbEntity
  8
0
  6
Continuous
 62
     3
100
AcDbLine
 10
-166.5883606859922
 20
182.7860879516809
 30
0.0
 11
-166.5883606859922
 21
183.1991579259384
 31
0.0
  0
LINE
  5
3F2
330
1F
100
AcDbEntity
  8
0
  6
Continuous
 62
     3
100
AcDbLine
 10
-166.5883606859922
 20
183.1991579259384
 30
0.0
 11
-166.5883606859922
 21
185.9417766292098
 31
0.0
  0
LINE
  5
3F3
330
1F
100
AcDbEntity
  8
0
  6
Continuous
 62
     3
100
AcDbLine
 10
-166.5883606859922
 20
180.7829823405287
 30
0.0
 11
-166.5883606859922
 21
182.7860879516809
 31
0.0
  0
LINE
  5
3F4
330
1F
100
AcDbEntity
  8
0
  6
Continuous
 62
     3
100
AcDbLine
 10
-166.5883606859922
 20
185.9417766292098
 30
0.0
 11
-166.5883606859922
 21
186.0589339167353
 31
0.0
  0
LINE
  5
3F5
330
1F
100
AcDbEntity
  8
0
  6
Continuous
 62
     3
100
AcDbLine
 10
-165.0883606859922
 20
163.7987544206556
 30
0.0
 11
-165.0883606859922
 21
164.0265718799608
 31
0.0
  0
LINE
  5
3F6
330
1F
100
AcDbEntity
  8
0
  6
Continuous
 62
     3
100
AcDbLine
 10
-165.0883606859922
 20
164.0265718799608
 30
0.0
 11
-165.0883606859569
 21
173.1719302911067
 31
0.0
  0
LINE
  5
3F7
330
1F
100
AcDbEntity
  8
0
  6
Continuous
 62
     3
100
AcDbLine
 10
-165.0883606859922
 20
180.5951143748846
 30
0.0
 11
-165.0883606859922
 21
180.8229318341898
 31
0.0
  0
LINE
  5
3F8
330
1F
100
AcDbEntity
  8
0
  6
Continuous
 62
     3
100
AcDbLine
 10
-165.0883606859922
 20
180.948667765478
 30
0.0
 11
-165.0883606859922
 21
180.8229318341898
 31
0.0
  0
LINE
  5
3F9
330
1F
100
AcDbEntity
  8
0
  6
Continuous
 62
     3
100
AcDbLine
 10
-165.0883606859922
 20
180.948667765478
 30
0.0
 11
-165.0883606859922
 21
181.1764852247831
 31
0.0
  0
LINE
  5
3FA
330
1F
100
AcDbEntity
  8
0
  6
Continuous
 62
     3
100
AcDbLine
 10
-162.0883606859922
 20
147.8608431274227
 30
0.0
 11
-162.0883606859922
 21
147.3608431274227
 31
0.0
  0
LINE
  5
3FB
330
1F
100
AcDbEntity
  8
0
  6
Continuous
 62
     3
100
AcDbLine
 10
-162.0883606859922
 20
148.3608431274227
 30
0.0
 11
-162.0883606859922
 21
147.8608431274227
 31
0.0
  0
LINE
  5
3FC
330
1F
100
AcDbEntity
  8
0
  6
Continuous
 62
     3
100
AcDbLine
 10
-162.0883606859922
 20
148.8608431274227
 30
0.0
 11
-162.0883606859922
 21
148.3608431274227
 31
0.0
  0
LINE
  5
3FD
330
1F
100
AcDbEntity
  8
0
  6
Continuous
 62
     3
100
AcDbLine
 10
-190.4883606860348
 20
161.8355983031645
 30
0.0
 11
-190.4883606860348
 21
161.422528328907
 31
0.0
  0
LINE
  5
3FE
330
1F
100
AcDbEntity
  8
0
  6
Continuous
 62
     3
100
AcDbLine
 10
-190.4883606860348
 20
161.422528328907
 30
0.0
 11
-190.4883606860348
 21
160.519837551137
 31
0.0
  0
LINE
  5
3FF
330
1F
100
AcDbEntity
  8
0
  6
Continuous
 62
     3
100
AcDbLine
 10
-190.4883606860348
 20
160.519837551137
 30
0.0
 11
-190.4883606860348
 21
158.56275233811
 31
0.0
  0
LINE
  5
400
330
1F
100
AcDbEntity
  8
0
  6
Continuous
 62
     3
100
AcDbLine
 10
-191.9883606860348
 20
180.5951143748846
 30
0.0
 11
-191.9883606860348
 21
164.0265718799608
 31
0.0
  0
LINE
  5
401
330
1F
100
AcDbEntity
  8
0
  6
Continuous
 62
     3
100
AcDbLine
 10
-190.4883606860348
 20
180.0152153875622
 30
0.0
 11
-190.4883606860348
 21
179.516381583268
 31
0.0
  0
LINE
  5
402
330
1F
100
AcDbEntity
  8
0
  6
Continuous
 62
     3
100
AcDbLine
 10
-190.4883606860348
 20
177.6686225182454
 30
0.0
 11
-190.4883606860348
 21
177.421239439028
 31
0.0
  0
LINE
  5
403
330
1F
100
AcDbEntity
  8
0
  6
Continuous
 62
     3
100
AcDbLine
 10
-190.4883606860348
 20
179.2689985040505
 30
0.0
 11
-190.4883606860348
 21
177.6686225182454
 31
0.0
  0
LINE
  5
404
330
1F
100
AcDbEntity
  8
0
  6
Continuous
 62
     3
100
AcDbLine
 10
-190.4883606860348
 20
179.516381583268
 30
0.0
 11
-190.4883606860348
 21
179.2689985040505
 31
0.0
  0
LINE
  5
405
330
1F
100
AcDbEntity
  8
0
  6
Continuous
 62
     3
100
AcDbLine
 10
-190.4883606860348
 20
177.421239439028
 30
0.0
 11
-190.4883606860348
 21
174.7358431274227
 31
0.0
  0
LINE
  5
406
330
1F
100
AcDbEntity
  8
0
  6
Continuous
 62
     3
100
AcDbLine
 10
-190.4883606860348
 20
174.5604946687071
 30
0.0
 11
-190.4883606860348
 21
174.3358431274227
 31
0.0
  0
LINE
  5
407
330
1F
100
AcDbEntity
  8
0
  6
Continuous
 62
     3
100
AcDbLine
 10
-190.4883606860348
 20
174.7358431274227
 30
0.0
 11
-190.4883606860348
 21
174.5604946687071
 31
0.0
  0
LINE
  5
408
330
1F
100
AcDbEntity
  8
0
  6
Continuous
 62
     3
100
AcDbLine
 10
-190.4883606860348
 20
174.3358431274227
 30
0.0
 11
-190.4883606860348
 21
170.2858431274227
 31
0.0
  0
LINE
  5
409
330
1F
100
AcDbEntity
  8
0
  6
Continuous
 62
     3
100
AcDbLine
 10
-190.4883606860348
 20
169.8858431274228
 30
0.0
 11
-190.4883606860348
 21
167.2004468158175
 31
0.0
  0
LINE
  5
40A
330
1F
100
AcDbEntity
  8
0
  6
Continuous
 62
     3
100
AcDbLine
 10
-190.4883606860348
 20
170.2858431274227
 30
0.0
 11
-190.4883606860348
 21
170.0611915861383
 31
0.0
  0
LINE
  5
40B
330
1F
100
AcDbEntity
  8
0
  6
Continuous
 62
     3
100
AcDbLine
 10
-190.4883606860348
 20
170.0611915861383
 30
0.0
 11
-190.4883606860348
 21
169.8858431274228
 31
0.0
  0
LINE
  5
40C
330
1F
100
AcDbEntity
  8
0
  6
Continuous
 62
     3
100
AcDbLine
 10
-190.4883606860348
 20
167.2004468158175
 30
0.0
 11
-190.4883606860348
 21
166.9530637366001
 31
0.0
  0
LINE
  5
40D
330
1F
100
AcDbEntity
  8
0
  6
Continuous
 62
     3
100
AcDbLine
 10
-190.4883606860348
 20
166.9530637366001
 30
0.0
 11
-190.4883606860348
 21
165.352687750795
 31
0.0
  0
LINE
  5
40E
330
1F
100
AcDbEntity
  8
0
  6
Continuous
 62
     3
100
AcDbLine
 10
-191.9883606860348
 20
164.0265718799608
 30
0.0
 11
-191.9883606860348
 21
163.7987544206556
 31
0.0
  0
LINE
  5
40F
330
1F
100
AcDbEntity
  8
0
  6
Continuous
 62
     3
100
AcDbLine
 10
-190.4883606860348
 20
165.352687750795
 30
0.0
 11
-190.4883606860348
 21
165.1053046715774
 31
0.0
  0
LINE
  5
410
330
1F
100
AcDbEntity
  8
0
  6
Continuous
 62
     3
100
AcDbLine
 10
-190.4883606860348
 20
165.1053046715774
 30
0.0
 11
-190.4883606860348
 21
164.6064708672831
 31
0.0
  0
LINE
  5
411
330
1F
100
AcDbEntity
  8
0
  6
Continuous
 62
     3
100
AcDbLine
 10
-190.4883606860348
 20
164.6064708672831
 30
0.0
 11
-190.4883606860348
 21
164.2529174766899
 31
0.0
  0
LINE
  5
412
330
1F
100
AcDbEntity
  8
0
  6
Continuous
 62
     3
100
AcDbLine
 10
-191.9883606860348
 20
180.4294289499354
 30
0.0
 11
-190.4883606860348
 21
180.4294289499354
 31
0.0
  0
LINE
  5
413
330
1F
100
AcDbEntity
  8
0
  6
Continuous
 62
     3
100
AcDbLine
 10
-190.4883606860348
 20
180.3687687781556
 30
0.0
 11
-190.4883606860348
 21
180.0152153875622
 31
0.0
  0
LINE
  5
414
330
1F
100
AcDbEntity
  8
0
  6
Continuous
 62
     3
100
AcDbLine
 10
-190.4883606860348
 20
180.4294289499354
 30
0.0
 11
-190.4883606860348
 21
180.3687687781556
 31
0.0
  0
LINE
  5
415
330
1F
100
AcDbEntity
  8
0
  6
Continuous
 62
     3
100
AcDbLine
 10
-190.4883606860348
 20
180.4294289499354
 30
0.0
 11
-190.4883606860348
 21
180.7829823405287
 31
0.0
  0
LINE
  5
416
330
1F
100
AcDbEntity
  8
0
  6
Continuous
 62
     3
100
AcDbLine
 10
-191.9883606860348
 20
180.7829823405287
 30
0.0
 11
-190.4883606860348
 21
180.7829823405287
 31
0.0
  0
LINE
  5
417
330
1F
100
AcDbEntity
  8
0
  6
Continuous
 62
     3
100
AcDbLine
 10
-190.4883606860348
 20
183.1991579259384
 30
0.0
 11
-190.4883606860348
 21
182.7860879516809
 31
0.0
  0
LINE
  5
418
330
1F
100
AcDbEntity
  8
0
  6
Continuous
 62
     3
100
AcDbLine
 10
-190.4883606860348
 20
184.2190059912338
 30
0.0
 11
-190.4883606860348
 21
184.1018487037084
 31
0.0
  0
LINE
  5
419
330
1F
100
AcDbEntity
  8
0
  6
Continuous
 62
     3
100
AcDbLine
 10
-190.4883606860348
 20
184.1018487037084
 30
0.0
 11
-190.4883606860348
 21
183.1991579259384
 31
0.0
  0
LINE
  5
41A
330
1F
100
AcDbEntity
  8
0
  6
Continuous
 62
     3
100
AcDbLine
 10
-190.4883606860348
 20
185.9457831022185
 30
0.0
 11
-190.4883606860348
 21
184.2190059912338
 31
0.0
  0
LINE
  5
41B
330
1F
100
AcDbEntity
  8
0
  6
Continuous
 62
     3
100
AcDbLine
 10
-190.4883606860348
 20
182.7860879516809
 30
0.0
 11
-190.4883606860348
 21
180.7829823405287
 31
0.0
  0
LINE
  5
41C
330
1F
100
AcDbEntity
  8
0
  6
Continuous
 62
     3
100
AcDbLine
 10
-191.9883606860348
 20
180.8229318341899
 30
0.0
 11
-191.9883606860348
 21
180.5951143748846
 31
0.0
  0
LINE
  5
41D
330
1F
100
AcDbEntity
  8
0
  6
Continuous
 62
     3
100
AcDbLine
 10
-191.9883606860348
 20
180.8229318341899
 30
0.0
 11
-191.9883606860348
 21
180.9486677654778
 31
0.0
  0
LINE
  5
41E
330
1F
100
AcDbEntity
  8
0
  6
Continuous
 62
     3
100
AcDbLine
 10
-191.9883606860348
 20
180.9486677654778
 30
0.0
 11
-191.9883606860348
 21
181.1764852247831
 31
0.0
  0
LINE
  5
41F
330
1F
100
AcDbEntity
  8
0
  6
Continuous
 62
     3
100
AcDbLine
 10
-191.9883606860348
 20
163.4452010300624
 30
0.0
 11
-191.9883606860348
 21
163.185684127289
 31
0.0
  0
LINE
  5
420
330
1F
100
AcDbEntity
  8
0
  6
Continuous
 62
     3
100
AcDbLine
 10
-191.9883606860348
 20
163.4452010300624
 30
0.0
 11
-191.9883606860348
 21
163.6730184893675
 31
0.0
  0
LINE
  5
421
330
1F
100
AcDbEntity
  8
0
  6
DOTTED
 62
     4
100
AcDbLine
 10
-192.9883606860348
 20
163.6898076104203
 30
0.0
 11
-192.9883606860348
 21
163.6892960774654
 31
0.0
  0
LINE
  5
422
330
1F
100
AcDbEntity
  8
0
  6
Continuous
 62
     3
100
AcDbLine
 10
-191.9883606860348
 20
163.6730184893675
 30
0.0
 11
-191.9883606860348
 21
163.7987544206556
 31
0.0
  0
LINE
  5
423
330
1F
100
AcDbEntity
  8
0
  6
Continuous
 62
     3
100
AcDbLine
 10
-190.4883606860348
 20
163.8387039143168
 30
0.0
 11
-190.4883606860348
 21
161.8355983031645
 31
0.0
  0
LINE
  5
424
330
1F
100
AcDbEntity
  8
0
  6
Continuous
 62
     3
100
AcDbLine
 10
-191.9883606860348
 20
163.8387039143168
 30
0.0
 11
-190.4883606860348
 21
163.8387039143168
 31
0.0
  0
LINE
  5
425
330
1F
100
AcDbEntity
  8
0
  6
Continuous
 62
     3
100
AcDbLine
 10
-190.4883606860348
 20
163.8387039143168
 30
0.0
 11
-190.4883606860348
 21
164.1922573049101
 31
0.0
  0
LINE
  5
426
330
1F
100
AcDbEntity
  8
0
  6
Continuous
 62
     3
100
AcDbLine
 10
-190.4883606860348
 20
164.2529174766899
 30
0.0
 11
-190.4883606860348
 21
164.1922573049101
 31
0.0
  0
LINE
  5
427
330
1F
100
AcDbEntity
  8
0
  6
Continuous
 62
     3
100
AcDbLine
 10
-191.9883606860348
 20
164.1922573049101
 30
0.0
 11
-190.4883606860348
 21
164.1922573049101
 31
0.0
  0
LINE
  5
428
330
1F
100
AcDbEntity
  8
1
  6
Continuous
 62
     3
100
AcDbLine
 10
-161.2883606859922
 20
145.3087983110172
 30
0.0
 11
-162.0883606859922
 21
145.3087983110172
 31
0.0
  0
LINE
  5
429
330
1F
100
AcDbEntity
  8
1
  6
Continuous
 62
     3
100
AcDbLine
 10
-166.888360685992
 20
145.0587983110172
 30
0.0
 11
-166.888360685992
 21
147.0587983110172
 31
0.0
  0
LINE
  5
42A
330
1F
100
AcDbEntity
  8
1
  6
Continuous
 62
     3
100
AcDbLine
 10
-164.938360685992
 20
146.4900346965321
 30
0.0
 11
-164.938360685992
 21
147.2666862283077
 31
0.0
  0
LINE
  5
42B
330
1F
100
AcDbEntity
  8
1
  6
Continuous
 62
     3
100
AcDbLine
 10
-162.0883606859922
 20
151.0587983110172
 30
0.0
 11
-165.931755204271
 21
151.0587983110172
 31
0.0
  0
LINE
  5
42C
330
1F
100
AcDbEntity
  8
1
  6
Continuous
 62
     3
100
AcDbLine
 10
-164.438360685992
 20
145.0587983110172
 30
0.0
 11
-162.6475746359028
 21
145.0587983110172
 31
0.0
  0
LINE
  5
42D
330
1F
100
AcDbEntity
  8
1
  6
Continuous
 62
     3
100
AcDbLine
 10
-164.438360685992
 20
146.7666862283077
 30
0.0
 11
-164.438360685992
 21
145.0587983110172
 31
0.0
  0
LINE
  5
42E
330
1F
100
AcDbEntity
  8
1
  6
Continuous
 62
     3
100
AcDbLine
 10
-162.6475746359028
 20
145.0587983110172
 30
0.0
 11
-162.388360685992
 21
145.0587983110172
 31
0.0
  0
LINE
  5
42F
330
1F
100
AcDbEntity
  8
1
  6
Continuous
 62
     3
100
AcDbLine
 10
-165.931755204271
 20
151.0587983110172
 30
0.0
 11
-166.2883606859919
 21
151.0587983110172
 31
0.0
  0
LINE
  5
430
330
1F
100
AcDbEntity
  8
1
  6
DASH_CENTER
 62
     1
100
AcDbLine
 10
-165.188360685992
 20
144.2006673556376
 30
0.0
 11
-165.188360685992
 21
151.1087983110172
 31
0.0
  0
LINE
  5
431
330
1F
100
AcDbEntity
  8
1
  6
Continuous
 62
     3
100
AcDbLine
 10
-166.4856961396012
 20
145.0587983110172
 30
0.0
 11
-165.438360685992
 21
145.0587983110172
 31
0.0
  0
LINE
  5
432
330
1F
100
AcDbEntity
  8
1
  6
Continuous
 62
     3
100
AcDbLine
 10
-165.438360685992
 20
145.0587983110172
 30
0.0
 11
-165.438360685992
 21
146.4900346965321
 31
0.0
  0
LINE
  5
433
330
1F
100
AcDbEntity
  8
1
  6
Continuous
 62
     3
100
AcDbLine
 10
-165.438360685992
 20
146.4900346965321
 30
0.0
 11
-165.3630036236113
 21
146.0087983110172
 31
0.0
  0
LINE
  5
434
330
1F
100
AcDbEntity
  8
1
  6
Continuous
 62
     3
100
AcDbLine
 10
-165.438360685992
 20
146.7666862283077
 30
0.0
 11
-165.438360685992
 21
146.4900346965321
 31
0.0
  0
LINE
  5
435
330
1F
100
AcDbEntity
  8
1
  6
Continuous
 62
     3
100
AcDbLine
 10
-165.3630036236113
 20
146.0087983110172
 30
0.0
 11
-165.013717748373
 21
146.0087983110172
 31
0.0
  0
LINE
  5
436
330
1F
100
AcDbEntity
  8
1
  6
Continuous
 62
     3
100
AcDbLine
 10
-165.013717748373
 20
146.0087983110172
 30
0.0
 11
-164.938360685992
 21
146.4900346965321
 31
0.0
  0
LINE
  5
437
330
1F
100
AcDbEntity
  8
1
  6
Continuous
 62
     3
100
AcDbLine
 10
-165.438360685992
 20
146.4900346965321
 30
0.0
 11
-164.938360685992
 21
146.4900346965321
 31
0.0
  0
LINE
  5
438
330
1F
100
AcDbEntity
  8
1
  6
Continuous
 62
     3
100
AcDbLine
 10
-162.0883606859922
 20
151.0587983110172
 30
0.0
 11
-162.088360685992
 21
145.0587983110172
 31
0.0
  0
LINE
  5
439
330
1F
100
AcDbEntity
  8
1
  6
Continuous
 62
     3
100
AcDbLine
 10
-162.088360685992
 20
145.0587983110172
 30
0.0
 11
-162.388360685992
 21
145.0587983110172
 31
0.0
  0
LINE
  5
43A
330
1F
100
AcDbEntity
  8
1
  6
Continuous
 62
     3
100
AcDbLine
 10
-166.4856961396012
 20
145.0587983110172
 30
0.0
 11
-166.888360685992
 21
145.0587983110172
 31
0.0
  0
LINE
  5
43B
330
1F
100
AcDbEntity
  8
1
  6
Continuous
 62
     3
100
AcDbLine
 10
-166.888360685992
 20
147.0587983110172
 30
0.0
 11
-166.888360685992
 21
151.0587983110172
 31
0.0
  0
LINE
  5
43C
330
1F
100
AcDbEntity
  8
1
  6
Continuous
 62
     3
100
AcDbLine
 10
-166.888360685992
 20
151.0587983110172
 30
0.0
 11
-166.2883606859919
 21
151.0587983110172
 31
0.0
  0
LINE
  5
43D
330
1F
100
AcDbEntity
  8
0
  6
Continuous
 62
     3
100
AcDbLine
 10
-195.1883606858405
 20
180.8229318341899
 30
0.0
 11
-191.9883606860348
 21
180.8229318341899
 31
0.0
  0
LINE
  5
43E
330
1F
100
AcDbEntity
  8
0
  6
Continuous
 62
     3
100
AcDbLine
 10
-195.1883606858405
 20
181.1764852247831
 30
0.0
 11
-191.9883606860348
 21
181.1764852247831
 31
0.0
  0
LINE
  5
43F
330
1F
100
AcDbEntity
  8
0
  6
Continuous
 62
     3
100
AcDbLine
 10
-191.9883606860348
 20
181.433592059234
 30
0.0
 11
-191.9883606860348
 21
181.1764852247831
 31
0.0
  0
LINE
  5
440
330
1F
100
AcDbEntity
  8
0
  6
Continuous
 62
     3
100
AcDbLine
 10
-195.1883606858405
 20
163.7987544206556
 30
0.0
 11
-191.9883606860348
 21
163.7987544206556
 31
0.0
  0
LINE
  5
441
330
1F
100
AcDbEntity
  8
0
  6
Continuous
 62
     3
100
AcDbLine
 10
-195.1883606858405
 20
163.4452010300624
 30
0.0
 11
-191.9883606860348
 21
163.4452010300624
 31
0.0
  0
LINE
  5
442
330
1F
100
AcDbEntity
  8
9
  6
Continuous
 62
     3
100
AcDbLine
 10
-195.1883606859178
 20
193.31084312624
 30
0.0
 11
-188.4883606867949
 21
193.3108431258819
 31
0.0
  0
LINE
  5
443
330
1F
100
AcDbEntity
  8
1
  6
Continuous
 62
     3
100
AcDbLine
 10
-201.8883606863037
 20
181.510843126567
 30
0.0
 11
-201.8883606862628
 21
182.8108431266409
 31
0.0
  0
LINE
  5
444
330
1F
100
AcDbEntity
  8
1
  6
Continuous
 62
     3
100
AcDbLine
 10
-201.8883606869279
 20
163.110843126577
 30
0.0
 11
-201.8883606863099
 21
181.510843126567
 31
0.0
  0
LINE
  5
445
330
1F
100
AcDbEntity
  8
9
  6
Continuous
 62
     3
100
AcDbLine
 10
-199.0883606858447
 20
193.3108431264151
 30
0.0
 11
-195.1883606859178
 21
193.31084312624
 31
0.0
  0
LINE
  5
446
330
1F
100
AcDbEntity
  8
1
  6
Continuous
 62
     3
100
AcDbLine
 10
-201.8883606862628
 20
182.8108431266409
 30
0.0
 11
-201.3883606863408
 21
183.310843126605
 31
0.0
  0
LINE
  5
447
330
1F
100
AcDbEntity
  8
1
  6
Continuous
 62
     3
100
AcDbLine
 10
-201.3883606863408
 20
161.3108431259481
 30
0.0
 11
-201.8883606862628
 21
161.8108431259122
 31
0.0
  0
LINE
  5
448
330
1F
100
AcDbEntity
  8
9
  6
Continuous
 62
     3
100
AcDbLine
 10
-195.1883606859178
 20
151.310843126313
 30
0.0
 11
-199.0883606858447
 21
151.3108431261379
 31
0.0
  0
LINE
  5
449
330
1F
100
AcDbEntity
  8
1
  6
Continuous
 62
     3
100
AcDbLine
 10
-201.8883606862628
 20
161.8108431259122
 30
0.0
 11
-201.8883606863037
 21
163.110843125986
 31
0.0
  0
LINE
  5
44A
330
1F
100
AcDbEntity
  8
9
  6
Continuous
 62
     3
100
AcDbLine
 10
-188.4883606869916
 20
151.3108431266711
 30
0.0
 11
-195.1883606859178
 21
151.310843126313
 31
0.0
  0
LINE
  5
44B
330
1F
100
AcDbEntity
  8
1
  6
Continuous
 62
     3
100
AcDbLine
 10
-201.3883606864469
 20
161.310843126054
 30
0.0
 11
-199.8883606860417
 21
161.310843126054
 31
0.0
  0
LINE
  5
44C
330
1F
100
AcDbEntity
  8
1
  6
Continuous
 62
     3
100
AcDbLine
 10
-201.388360686363
 20
183.3108431265829
 30
0.0
 11
-199.8883606860417
 21
183.3108431265829
 31
0.0
  0
LINE
  5
44D
330
1F
100
AcDbEntity
  8
1
  6
Continuous
 62
     3
100
AcDbLine
 10
-199.8883606860417
 20
192.9108431262389
 30
0.0
 11
-199.8883606860417
 21
151.710843126314
 31
0.0
  0
LINE
  5
44E
330
1F
100
AcDbEntity
  8
1
  6
Continuous
 62
     3
100
AcDbLine
 10
-190.4883606860348
 20
181.433592059234
 30
0.0
 11
-195.1883606858405
 21
181.433592059234
 31
0.0
  0
LINE
  5
44F
330
1F
100
AcDbEntity
  8
1
  6
Continuous
 62
     3
100
AcDbLine
 10
-195.1883606858405
 20
181.433592059234
 30
0.0
 11
-195.1883606858405
 21
163.185684127289
 31
0.0
  0
LINE
  5
450
330
1F
100
AcDbEntity
  8
1
  6
Continuous
 62
     3
100
AcDbLine
 10
-195.1883606858405
 20
163.185684127289
 30
0.0
 11
-190.4883606860348
 21
163.185684127289
 31
0.0
  0
LINE
  5
451
330
1F
100
AcDbEntity
  8
1
  6
Continuous
 62
     1
100
AcDbLine
 10
-185.6893455838989
 20
172.3108431274227
 30
0.0
 11
-228.8163170283549
 21
172.3108431274227
 31
0.0
  0
LINE
  5
452
330
1F
100
AcDbEntity
  8
1
  6
Continuous
 62
     3
100
AcDbLine
 10
-159.3883606860418
 20
157.3108431274227
 30
0.0
 11
-157.0883606860417
 21
157.3108431274227
 31
0.0
  0
LINE
  5
453
330
1F
100
AcDbEntity
  8
1
  6
Continuous
 62
     3
100
AcDbLine
 10
-159.3883606860418
 20
151.2108431274228
 30
0.0
 11
-159.3883606860418
 21
157.3108431274227
 31
0.0
  0
LINE
  5
454
330
1F
100
AcDbEntity
  8
1
  6
Continuous
 62
     3
100
AcDbLine
 10
-157.0883606860417
 20
151.2108431274228
 30
0.0
 11
-159.3883606860418
 21
151.2108431274228
 31
0.0
  0
LINE
  5
455
330
1F
100
AcDbEntity
  8
1
  6
Continuous
 62
     3
100
AcDbLine
 10
-157.0883606860417
 20
147.8108431274752
 30
0.0
 11
-157.0883606860418
 21
193.3108431270879
 31
0.0
  0
LINE
  5
456
330
1F
100
AcDbEntity
  8
1
  6
Continuous
 62
     3
100
AcDbLine
 10
-159.3883606860418
 20
187.3108431275065
 30
0.0
 11
-159.3883606860418
 21
193.6108431270879
 31
0.0
  0
LINE
  5
457
330
1F
100
AcDbEntity
  8
1
  6
Continuous
 62
     3
100
AcDbLine
 10
-157.0883606860417
 20
187.3108431275065
 30
0.0
 11
-159.3883606860418
 21
187.3108431275065
 31
0.0
  0
LINE
  5
458
330
1F
100
AcDbEntity
  8
1
  6
Continuous
 62
     3
100
AcDbLine
 10
-157.3883606860418
 20
193.6108431270879
 30
0.0
 11
-168.5883606847569
 21
193.6108431270879
 31
0.0
  0
LINE
  5
459
330
1F
100
AcDbEntity
  8
1
  6
Continuous
 62
     3
100
AcDbLine
 10
-161.0883606859922
 20
181.1335920068468
 30
0.0
 11
-166.5883606859922
 21
181.1335920068468
 31
0.0
  0
LINE
  5
45A
330
1F
100
AcDbEntity
  8
1
  6
Continuous
 62
     3
100
AcDbLine
 10
-161.0883606859922
 20
163.4880942497531
 30
0.0
 11
-161.0883606859922
 21
163.9341497560438
 31
0.0
  0
LINE
  5
45B
330
1F
100
AcDbEntity
  8
1
  6
Continuous
 62
     3
100
AcDbLine
 10
-166.5883606859922
 20
163.4880942497531
 30
0.0
 11
-161.0883606859922
 21
163.4880942497531
 31
0.0
  0
LINE
  5
45C
330
1F
100
AcDbEntity
  8
1
  6
Continuous
 62
     3
100
AcDbLine
 10
-161.0883606859922
 20
147.3108431270879
 30
0.0
 11
-161.0883606859922
 21
151.0108431269422
 31
0.0
  0
LINE
  5
45D
330
1F
100
AcDbEntity
  8
9
  6
Continuous
 62
     3
100
AcDbLine
 10
-161.0883606859922
 20
151.0108431269422
 30
0.0
 11
-166.5883606859922
 21
151.0108431273003
 31
0.0
  0
LINE
  5
45E
330
1F
100
AcDbEntity
  8
1
  6
Continuous
 62
     1
100
AcDbLine
 10
-152.0883606843878
 20
172.3108431264905
 30
0.0
 11
-168.9883606843879
 21
172.3108431278366
 31
0.0
  0
LINE
  5
45F
330
1F
100
AcDbEntity
  8
9
  6
Continuous
 62
     3
100
AcDbLine
 10
-166.5883606859922
 20
151.0108431273003
 30
0.0
 11
-166.5883606862921
 21
151.0108431273042
 31
0.0
  0
LINE
  5
460
330
1F
100
AcDbEntity
  8
1
  6
Continuous
 62
     3
100
AcDbLine
 10
-157.0883606858881
 20
191.7072897089964
 30
0.0
 11
-157.0883606859048
 21
191.7072897089964
 31
0.0
  0
LINE
  5
461
330
1F
100
AcDbEntity
  8
9
  6
Continuous
 62
     3
100
AcDbLine
 10
-161.0883606859918
 20
147.3108431272361
 30
0.0
 11
-157.5883606860116
 21
147.3108431274791
 31
0.0
  0
LINE
  5
462
330
1F
100
AcDbEntity
  8
1
  6
Continuous
 62
     1
100
AcDbLine
 10
-151.5136901040943
 20
172.3108431274227
 30
0.0
 11
-171.2320948090913
 21
172.3108431274227
 31
0.0
  0
LINE
  5
463
330
1F
100
AcDbEntity
  8
1
  6
Continuous
 62
     3
100
AcDbLine
 10
-201.8883606867009
 20
169.8108431274227
 30
0.0
 11
-220.888360686042
 21
169.8108431274227
 31
0.0
  0
LINE
  5
464
330
1F
100
AcDbEntity
  8
1
  6
Continuous
 62
     3
100
AcDbLine
 10
-201.8883606865331
 20
174.8108431274227
 30
0.0
 11
-220.8883606860418
 21
174.8108431274227
 31
0.0
  0
LINE
  5
465
330
1F
100
AcDbEntity
  8
1
  6
Continuous
 62
     1
100
AcDbLine
 10
-198.5165857122395
 20
172.3108431274227
 30
0.0
 11
-192.868794072376
 21
172.3108431274227
 31
0.0
  0
LINE
  5
466
330
1F
100
AcDbEntity
  8
1
  6
Continuous
 62
     3
100
AcDbLine
 10
-221.8883606860417
 20
174.4288771161727
 30
0.0
 11
-221.8883606860417
 21
170.1928091386729
 31
0.0
  0
LINE
  5
467
330
1F
100
AcDbEntity
  8
1
  6
Continuous
 62
     1
100
AcDbLine
 10
-154.5883606860417
 20
154.0608431274227
 30
0.0
 11
-189.5559511737419
 21
154.0608431274227
 31
0.0
  0
LINE
  5
468
330
1F
100
AcDbEntity
  8
1
  6
Continuous
 62
     3
100
AcDbLine
 10
-190.4883606862307
 20
186.0589339167353
 30
0.0
 11
-188.4883606873646
 21
186.0589339167353
 31
0.0
  0
LINE
  5
469
330
1F
100
AcDbEntity
  8
1
  6
Continuous
 62
     3
100
AcDbLine
 10
-188.4883606873646
 20
186.0589339167353
 30
0.0
 11
-188.4883606870636
 21
193.3108431259853
 31
0.0
  0
LINE
  5
46A
330
1F
100
AcDbEntity
  8
1
  6
Continuous
 62
     3
100
AcDbLine
 10
-188.4883606870636
 20
193.3108431259853
 30
0.0
 11
-188.4883606869916
 21
193.3108431259103
 31
0.0
  0
LINE
  5
46B
330
1F
100
AcDbEntity
  8
1
  6
Continuous
 62
     3
100
AcDbLine
 10
-188.4883606870958
 20
193.3108431258819
 30
0.0
 11
-188.4883606870958
 21
193.4108431274227
 31
0.0
  0
LINE
  5
46C
330
1F
100
AcDbEntity
  8
1
  6
Continuous
 62
     3
100
AcDbLine
 10
-188.4883606870958
 20
151.2108431274228
 30
0.0
 11
-188.4883606870958
 21
151.3108431289636
 31
0.0
  0
LINE
  5
46D
330
1F
100
AcDbEntity
  8
1
  6
Continuous
 62
     3
100
AcDbLine
 10
-188.4883606869916
 20
151.3108431289352
 30
0.0
 11
-188.4883606870636
 21
151.3108431288602
 31
0.0
  0
LINE
  5
46E
330
1F
100
AcDbEntity
  8
1
  6
Continuous
 62
     3
100
AcDbLine
 10
-188.4883606870636
 20
151.3108431288602
 30
0.0
 11
-188.4883606873646
 21
158.5627523381102
 31
0.0
  0
LINE
  5
46F
330
1F
100
AcDbEntity
  8
1
  6
Continuous
 62
     3
100
AcDbLine
 10
-188.4883606873646
 20
158.5627523381102
 30
0.0
 11
-190.4883606862307
 21
158.5627523381102
 31
0.0
  0
LINE
  5
470
330
1F
100
AcDbEntity
  8
1
  6
Continuous
 62
     3
100
AcDbLine
 10
-168.5883606846623
 20
186.0589339167353
 30
0.0
 11
-166.5883606857962
 21
186.0589339167353
 31
0.0
  0
LINE
  5
471
330
1F
100
AcDbEntity
  8
1
  6
Continuous
 62
     3
100
AcDbLine
 10
-166.5883606857962
 20
158.5627523381102
 30
0.0
 11
-168.5883606846623
 21
158.5627523381102
 31
0.0
  0
LINE
  5
472
330
1F
100
AcDbEntity
  8
1
  6
Continuous
 62
     3
100
AcDbLine
 10
-168.5883606846623
 20
158.5627523381102
 30
0.0
 11
-168.5883606849634
 21
151.3108431288602
 31
0.0
  0
LINE
  5
473
330
1F
100
AcDbEntity
  8
1
  6
Continuous
 62
     3
100
AcDbLine
 10
-168.5883606849634
 20
151.3108431288602
 30
0.0
 11
-168.5883606850354
 21
151.3108431289352
 31
0.0
  0
LINE
  5
474
330
1F
100
AcDbEntity
  8
1
  6
Continuous
 62
     3
100
AcDbLine
 10
-168.5883606849312
 20
151.3108431289636
 30
0.0
 11
-168.5883606849312
 21
151.2108431274228
 31
0.0
  0
LINE
  5
475
330
1F
100
AcDbEntity
  8
0
  6
Continuous
 62
     3
100
AcDbLine
 10
-168.5883606850918
 20
191.4108431274227
 30
0.0
 11
-168.588360685092
 21
192.2643965180161
 31
0.0
  0
LINE
  5
476
330
1F
100
AcDbEntity
  8
0
  6
Continuous
 62
     3
100
AcDbLine
 10
-168.5883606850918
 20
191.2643965180161
 30
0.0
 11
-168.5883606850918
 21
191.4108431274227
 31
0.0
  0
LINE
  5
477
330
1F
100
AcDbEntity
  8
0
  6
Continuous
 62
     3
100
AcDbLine
 10
-168.5883606850918
 20
187.5313165924632
 30
0.0
 11
-168.5883606850918
 21
187.8587927267027
 31
0.0
  0
LINE
  5
478
330
1F
100
AcDbEntity
  8
0
  6
Continuous
 62
     3
100
AcDbLine
 10
-168.5883606850918
 20
189.7342455868713
 30
0.0
 11
-168.5883606850918
 21
191.2643965180161
 31
0.0
  0
LINE
  5
479
330
1F
100
AcDbEntity
  8
0
  6
Continuous
 62
     3
100
AcDbLine
 10
-168.5883606850918
 20
188.1108431274227
 30
0.0
 11
-168.5883606850918
 21
189.3747279683516
 31
0.0
  0
LINE
  5
47A
330
1F
100
AcDbEntity
  8
0
  6
Continuous
 62
     3
100
AcDbLine
 10
-168.5883606850918
 20
187.8587927267027
 30
0.0
 11
-168.5883606850918
 21
188.1108431274227
 31
0.0
  0
LINE
  5
47B
330
1F
100
AcDbEntity
  8
0
  6
Continuous
 62
     3
100
AcDbLine
 10
-168.5883606850918
 20
189.3747279683516
 30
0.0
 11
-168.5883606850918
 21
189.7342455868713
 31
0.0
  0
LINE
  5
47C
330
1F
100
AcDbEntity
  8
0
  6
Continuous
 62
     3
100
AcDbLine
 10
-168.5883606850918
 20
187.2615571417543
 30
0.0
 11
-168.5883606850918
 21
187.5313165924632
 31
0.0
  0
LINE
  5
47D
330
1F
100
AcDbEntity
  8
0
  6
Continuous
 62
     3
100
AcDbLine
 10
-168.5883606850919
 20
186.965631167514
 30
0.0
 11
-168.5883606850918
 21
187.0934258619725
 31
0.0
  0
LINE
  5
47E
330
1F
100
AcDbEntity
  8
0
  6
Continuous
 62
     3
100
AcDbLine
 10
-168.5883606850918
 20
187.0934258619725
 30
0.0
 11
-168.5883606850918
 21
187.2615571417543
 31
0.0
  0
LINE
  5
47F
330
1F
100
AcDbEntity
  8
1
  6
Continuous
 62
     3
100
AcDbLine
 10
-168.5883606849312
 20
193.4108431274227
 30
0.0
 11
-168.5883606849312
 21
193.3108431258819
 31
0.0
  0
LINE
  5
480
330
1F
100
AcDbEntity
  8
1
  6
Continuous
 62
     3
100
AcDbLine
 10
-168.5883606850354
 20
193.3108431259103
 30
0.0
 11
-168.5883606849634
 21
193.3108431259853
 31
0.0
  0
LINE
  5
481
330
1F
100
AcDbEntity
  8
1
  6
Continuous
 62
     3
100
AcDbLine
 10
-168.5883606849634
 20
193.3108431259853
 30
0.0
 11
-168.5883606846623
 21
186.0589339167353
 31
0.0
  0
LINE
  5
482
330
1F
100
AcDbEntity
  8
1
  6
Continuous
 62
     3
100
AcDbLine
 10
-168.5883606849115
 20
192.0608431274227
 30
0.0
 11
-168.5883606849115
 21
191.7902101274227
 31
0.0
  0
LINE
  5
483
330
1F
100
AcDbEntity
  8
1
  6
Continuous
 62
     3
100
AcDbLine
 10
-168.5883606849115
 20
191.7902101274227
 30
0.0
 11
-168.5883606849115
 21
189.3314761274227
 31
0.0
  0
LINE
  5
484
330
1F
100
AcDbEntity
  8
1
  6
Continuous
 62
     3
100
AcDbLine
 10
-168.5883606849115
 20
189.3314761274227
 30
0.0
 11
-168.5883606849115
 21
189.0608431274227
 31
0.0
  0
LINE
  5
485
330
1F
100
AcDbEntity
  8
1
  6
Continuous
 62
     3
100
AcDbLine
 10
-168.5883606849373
 20
157.4108431275717
 30
0.0
 11
-188.4883606870958
 21
157.4108431275717
 31
0.0
  0
LINE
  5
486
330
1F
100
AcDbEntity
  8
1
  6
Continuous
 62
     3
100
AcDbLine
 10
-168.5883606847674
 20
156.0331093692854
 30
0.0
 11
-188.4883606870958
 21
156.0331093692854
 31
0.0
  0
LINE
  5
487
330
1F
100
AcDbEntity
  8
1
  6
Continuous
 62
     3
100
AcDbLine
 10
-168.5883606849115
 20
152.5608431274228
 30
0.0
 11
-188.4883606870958
 21
152.5608431274227
 31
0.0
  0
LINE
  5
488
330
1F
100
AcDbEntity
  8
1
  6
Continuous
 62
     1
100
AcDbLine
 10
-293.7787503790528
 20
190.3108430962246
 30
0.0
 11
-293.7787503790528
 21
185.3108430962246
 31
0.0
  0
LINE
  5
489
330
1F
100
AcDbEntity
  8
1
  6
Continuous
 62
     3
100
AcDbLine
 10
-300.27875043903
 20
146.911116931973
 30
0.0
 11
-301.77875043903
 21
146.9111169319731
 31
0.0
  0
LINE
  5
48A
330
1F
100
AcDbEntity
  8
1
  6
Continuous
 62
     3
100
AcDbLine
 10
-302.27875043903
 20
146.4111169319729
 30
0.0
 11
-302.27875043903
 21
146.311116931973
 31
0.0
  0
LINE
  5
48B
330
1F
100
AcDbEntity
  8
1
  6
Continuous
 62
     3
100
AcDbLine
 10
-316.2787504690161
 20
146.3111169319731
 30
0.0
 11
-316.2787504690161
 21
146.4111169319731
 31
0.0
  0
LINE
  5
48C
330
1F
100
AcDbEntity
  8
1
  6
Continuous
 62
     3
100
AcDbLine
 10
-316.7787504690161
 20
146.9111169319731
 30
0.0
 11
-318.27875043903
 21
146.9111169319731
 31
0.0
  0
ARC
  5
48D
330
1F
100
AcDbEntity
  8
1
  6
Continuous
 62
     3
100
AcDbCircle
 10
-309.278750439028
 20
172.3108431586207
 30
0.0
 40
2.499999968801887
100
AcDbArc
 50
180.0
 51
90.00000068727634
  0
ARC
  5
48E
330
1F
100
AcDbEntity
  8
1
  6
Continuous
 62
     3
100
AcDbCircle
 10
-309.278750439028
 20
172.3108431586207
 30
0.0
 40
2.499999968801973
100
AcDbArc
 50
90.00000068727634
 51
180.0
  0
ARC
  5
48F
330
1F
100
AcDbEntity
  8
0
  6
Continuous
 62
     3
100
AcDbCircle
 10
-299.7787504393497
 20
147.810843158644
 30
0.0
 40
0.5
100
AcDbArc
 50
270.0
 51
0.0
  0
ARC
  5
490
330
1F
100
AcDbEntity
  8
0
  6
Continuous
 62
     3
100
AcDbCircle
 10
-318.7787504410514
 20
147.810843158644
 30
0.0
 40
0.5
100
AcDbArc
 50
180.0
 51
270.0
  0
LWPOLYLINE
  5
491
330
1F
100
AcDbEntity
  8
1
  6
Continuous
 62
     3
100
AcDbPolyline
 90
        2
 70
     1
 43
0.0
 10
-326.0287504378198
 20
190.5608430974367
 42
1.0
 10
-329.0287504378198
 20
190.5608430974367
 42
1.0
  0
ARC
  5
492
330
1F
100
AcDbEntity
  8
1
  6
Continuous
 62
     2
100
AcDbCircle
 10
-293.7787503790528
 20
187.8108430962246
 30
0.0
 40
1.5
100
AcDbArc
 50
90.0
 51
180.0
  0
LWPOLYLINE
  5
493
330
1F
100
AcDbEntity
  8
1
  6
Continuous
 62
     3
100
AcDbPolyline
 90
        2
 70
     1
 43
0.0
 10
-320.3937504390279
 20
172.3108431586207
 42
1.0
 10
-298.1637504390281
 20
172.3108431586207
 42
1.0
  0
LWPOLYLINE
  5
494
330
1F
100
AcDbEntity
  8
1
  6
Continuous
 62
     3
100
AcDbPolyline
 90
        2
 70
     1
 43
0.0
 10
-319.778750439028
 20
172.3108431586207
 42
1.0
 10
-298.778750439028
 20
172.3108431586207
 42
1.0
  0
LWPOLYLINE
  5
495
330
1F
100
AcDbEntity
  8
1
  6
Continuous
 62
     3
100
AcDbPolyline
 90
        2
 70
     1
 43
0.0
 10
-318.2787504690162
 20
172.3108431586207
 42
1.0
 10
-300.278750469016
 20
172.3108430962247
 42
1.0
  0
LWPOLYLINE
  5
496
330
1F
100
AcDbEntity
  8
1
  6
Continuous
 62
     3
100
AcDbPolyline
 90
        2
 70
     1
 43
0.0
 10
-313.7787504690162
 20
172.3108431586207
 42
1.0
 10
-304.778750469016
 20
172.3108430962247
 42
1.0
  0
LWPOLYLINE
  5
497
330
1F
100
AcDbEntity
  8
1
  6
Continuous
 62
     3
100
AcDbPolyline
 90
        2
 70
     1
 43
0.0
 10
-328.2787504690162
 20
172.3108431586207
 42
1.0
 10
-290.278750469016
 20
172.3108430962247
 42
1.0
  0
LWPOLYLINE
  5
498
330
1F
100
AcDbEntity
  8
1
  6
Continuous
 62
     3
100
AcDbPolyline
 90
        2
 70
     1
 43
0.0
 10
-292.5287504402398
 20
154.0608432198046
 42
1.0
 10
-289.5287504402398
 20
154.0608432198046
 42
1.0
  0
LWPOLYLINE
  5
499
330
1F
100
AcDbEntity
  8
1
  6
Continuous
 62
     3
100
AcDbPolyline
 90
        2
 70
     1
 43
0.0
 10
-326.0287504378198
 20
154.0608432198046
 42
1.0
 10
-329.0287504378198
 20
154.0608432198046
 42
1.0
  0
LWPOLYLINE
  5
49A
330
1F
100
AcDbEntity
  8
1
  6
Continuous
 62
     3
100
AcDbPolyline
 90
        2
 70
     1
 43
0.0
 10
-292.5287504402398
 20
190.5608430974367
 42
1.0
 10
-289.5287504402398
 20
190.5608430974367
 42
1.0
  0
ARC
  5
49B
330
1F
100
AcDbEntity
  8
1
  6
Continuous
 62
     3
100
AcDbCircle
 10
-161.7883606860417
 20
154.0608431274227
 30
0.0
 40
4.799999999999931
100
AcDbArc
 50
4.33114873078897
 51
17.58277600842688
  0
ARC
  5
49C
330
1F
100
AcDbEntity
  8
1
  6
Continuous
 62
     3
100
AcDbCircle
 10
-161.7883606860417
 20
154.0608431274227
 30
0.0
 40
4.799999999999875
100
AcDbArc
 50
324.3146652873484
 51
342.4172239915744
  0
ARC
  5
49D
330
1F
100
AcDbEntity
  8
1
  6
Continuous
 62
     3
100
AcDbCircle
 10
-161.7883606860417
 20
154.0608431274227
 30
0.0
 40
4.799999999999915
100
AcDbArc
 50
342.4172239915744
 51
355.6688512692124
  0
ARC
  5
49E
330
1F
100
AcDbEntity
  8
1
  6
Continuous
 62
     3
100
AcDbCircle
 10
-161.7883606860417
 20
154.0608431274227
 30
0.0
 40
4.799999999999949
100
AcDbArc
 50
17.58277600842688
 51
35.68533471265273
  0
ARC
  5
49F
330
1F
100
AcDbEntity
  8
1
  6
Continuous
 62
     3
100
AcDbCircle
 10
-161.7883606860417
 20
190.5608431274227
 30
0.0
 40
4.799999999999923
100
AcDbArc
 50
17.58277600842591
 51
35.68533471265273
  0
ARC
  5
4A0
330
1F
100
AcDbEntity
  8
1
  6
Continuous
 62
     3
100
AcDbCircle
 10
-161.7883606860417
 20
190.5608431274227
 30
0.0
 40
4.799999999999915
100
AcDbArc
 50
342.4172239915744
 51
355.6688512692114
  0
ARC
  5
4A1
330
1F
100
AcDbEntity
  8
1
  6
Continuous
 62
     3
100
AcDbCircle
 10
-161.7883606860417
 20
190.5608431274227
 30
0.0
 40
4.799999999999925
100
AcDbArc
 50
324.3146652873475
 51
342.4172239915744
  0
ARC
  5
4A2
330
1F
100
AcDbEntity
  8
1
  6
Continuous
 62
     3
100
AcDbCircle
 10
-161.7883606860417
 20
190.5608431274227
 30
0.0
 40
4.799999999999931
100
AcDbArc
 50
4.33114873078897
 51
17.58277600842591
  0
ARC
  5
4A3
330
1F
100
AcDbEntity
  8
1
  6
Continuous
 62
     3
100
AcDbCircle
 10
-220.8883606860417
 20
171.3108431274227
 30
0.0
 40
1.499999999999909
100
AcDbArc
 50
228.1896851042183
 51
269.9999999999881
  0
ARC
  5
4A4
330
1F
100
AcDbEntity
  8
1
  6
Continuous
 62
     3
100
AcDbCircle
 10
-220.8883606860417
 20
173.3108431274228
 30
0.0
 40
1.499999999999886
100
AcDbArc
 50
90.00000000000436
 51
131.8103148957781
  0
ARC
  5
4A5
330
1F
100
AcDbEntity
  8
1
  6
Continuous
 62
     2
100
AcDbCircle
 10
-293.7787503790528
 20
187.8108430962246
 30
0.0
 40
1.499999999999967
100
AcDbArc
 50
85.00000000000882
 51
90.0
  0
ARC
  5
4A6
330
1F
100
AcDbEntity
  8
1
  6
Continuous
 62
     2
100
AcDbCircle
 10
-293.7787503790528
 20
187.8108430962246
 30
0.0
 40
1.5
100
AcDbArc
 50
180.0
 51
5.00000000000092
  0
ARC
  5
4A7
330
1F
100
AcDbEntity
  8
1
  6
Continuous
 62
     2
100
AcDbCircle
 10
-293.7787503790528
 20
156.8108432210165
 30
0.0
 40
1.499999999999939
100
AcDbArc
 50
85.00000000000873
 51
90.0
  0
ARC
  5
4A8
330
1F
100
AcDbEntity
  8
1
  6
Continuous
 62
     2
100
AcDbCircle
 10
-293.7787503790528
 20
156.8108432210165
 30
0.0
 40
1.5
100
AcDbArc
 50
90.0
 51
180.0
  0
ARC
  5
4A9
330
1F
100
AcDbEntity
  8
1
  6
Continuous
 62
     2
100
AcDbCircle
 10
-293.7787503790528
 20
156.8108432210165
 30
0.0
 40
1.5
100
AcDbArc
 50
180.0
 51
4.99999999999984
  0
ARC
  5
4AA
330
1F
100
AcDbEntity
  8
1
  6
Continuous
 62
     2
100
AcDbCircle
 10
-324.7787504990068
 20
187.8108430962246
 30
0.0
 40
1.5
100
AcDbArc
 50
90.0
 51
180.0
  0
ARC
  5
4AB
330
1F
100
AcDbEntity
  8
1
  6
Continuous
 62
     2
100
AcDbCircle
 10
-324.7787504990068
 20
187.8108430962246
 30
0.0
 40
1.5
100
AcDbArc
 50
180.0
 51
5.00000000000111
  0
ARC
  5
4AC
330
1F
100
AcDbEntity
  8
1
  6
Continuous
 62
     2
100
AcDbCircle
 10
-324.7787504990068
 20
156.8108432210165
 30
0.0
 40
1.5
100
AcDbArc
 50
90.0
 51
180.0
  0
ARC
  5
4AD
330
1F
100
AcDbEntity
  8
1
  6
Continuous
 62
     2
100
AcDbCircle
 10
-324.7787504990068
 20
156.8108432210165
 30
0.0
 40
1.5
100
AcDbArc
 50
180.0
 51
5.00000000000003
  0
ARC
  5
4AE
330
1F
100
AcDbEntity
  8
1
  6
Continuous
 62
     2
100
AcDbCircle
 10
-291.0287504402398
 20
190.5608430974367
 30
0.0
 40
1.150000000000148
100
AcDbArc
 50
180.0
 51
4.99999999999969
  0
ARC
  5
4AF
330
1F
100
AcDbEntity
  8
1
  6
Continuous
 62
     2
100
AcDbCircle
 10
-291.0287504402398
 20
190.5608430974367
 30
0.0
 40
1.150000000000011
100
AcDbArc
 50
84.99999999999571
 51
180.0
  0
ARC
  5
4B0
330
1F
100
AcDbEntity
  8
1
  6
Continuous
 62
     2
100
AcDbCircle
 10
-291.0287504402398
 20
154.0608432198046
 30
0.0
 40
1.149999999999983
100
AcDbArc
 50
84.9999999999956
 51
180.0
  0
ARC
  5
4B1
330
1F
100
AcDbEntity
  8
1
  6
Continuous
 62
     2
100
AcDbCircle
 10
-291.0287504402398
 20
154.0608432198046
 30
0.0
 40
1.150000000000148
100
AcDbArc
 50
180.0
 51
4.99999999999828
  0
ARC
  5
4B2
330
1F
100
AcDbEntity
  8
1
  6
Continuous
 62
     2
100
AcDbCircle
 10
-327.5287504378198
 20
190.5608430974367
 30
0.0
 40
1.149999999999981
100
AcDbArc
 50
85.00000000001263
 51
180.0
  0
ARC
  5
4B3
330
1F
100
AcDbEntity
  8
1
  6
Continuous
 62
     2
100
AcDbCircle
 10
-327.5287504378198
 20
190.5608430974367
 30
0.0
 40
1.150000000000091
100
AcDbArc
 50
180.0
 51
5.00000000000117
  0
ARC
  5
4B4
330
1F
100
AcDbEntity
  8
1
  6
Continuous
 62
     2
100
AcDbCircle
 10
-327.5287504378198
 20
154.0608432198046
 30
0.0
 40
1.149999999999953
100
AcDbArc
 50
85.0000000000125
 51
180.0
  0
ARC
  5
4B5
330
1F
100
AcDbEntity
  8
1
  6
Continuous
 62
     2
100
AcDbCircle
 10
-327.5287504378198
 20
154.0608432198046
 30
0.0
 40
1.150000000000091
100
AcDbArc
 50
180.0
 51
4.99999999999976
  0
CIRCLE
  5
4B6
330
1F
100
AcDbEntity
  8
1
  6
Continuous
 62
     3
100
AcDbCircle
 10
-309.278750439028
 20
172.3108431586207
 30
0.0
 40
11.5000000009058
  0
CIRCLE
  5
4B7
330
1F
100
AcDbEntity
  8
1
  6
Continuous
 62
     3
100
AcDbCircle
 10
-309.278750439028
 20
172.3108431586207
 30
0.0
 40
11.80000000090098
  0
CIRCLE
  5
4B8
330
1F
100
AcDbEntity
  8
1
  6
Continuous
 62
     3
100
AcDbCircle
 10
-309.2787504690161
 20
172.3108431274227
 30
0.0
 40
18.60000003216493
  0
CIRCLE
  5
4B9
330
1F
100
AcDbEntity
  8
1
  6
Continuous
 62
     3
100
AcDbCircle
 10
-324.7787504990068
 20
156.8108432210165
 30
0.0
 40
1.150000000000148
  0
CIRCLE
  5
4BA
330
1F
100
AcDbEntity
  8
1
  6
Continuous
 62
     3
100
AcDbCircle
 10
-324.7787504990068
 20
187.8108430962246
 30
0.0
 40
1.150000000000148
  0
CIRCLE
  5
4BB
330
1F
100
AcDbEntity
  8
1
  6
Continuous
 62
     3
100
AcDbCircle
 10
-293.7787503790528
 20
187.8108430962246
 30
0.0
 40
1.150000000000091
  0
CIRCLE
  5
4BC
330
1F
100
AcDbEntity
  8
1
  6
Continuous
 62
     3
100
AcDbCircle
 10
-293.7787503790528
 20
156.8108432210165
 30
0.0
 40
1.150000000000091
  0
LWPOLYLINE
  5
4BD
330
1F
100
AcDbEntity
  8
1
  6
Continuous
 62
     3
 60
     1
100
AcDbPolyline
 90
        2
 70
     0
 43
0.0
 10
-199.8883606861189
 20
192.910843126136
 10
-199.8883606861148
 20
191.110843126134
  0
LWPOLYLINE
  5
4BE
330
1F
100
AcDbEntity
  8
1
  6
Continuous
 62
     3
 60
     1
100
AcDbPolyline
 90
        3
 70
     0
 43
0.0
 10
-199.3883606866948
 20
183.3108431264599
 10
-201.3883606863408
 20
183.310843126605
 10
-201.8883606862628
 20
182.8108431266409
  0
LWPOLYLINE
  5
4BF
330
1F
100
AcDbEntity
  8
1
  6
Continuous
 62
     3
 60
     1
100
AcDbPolyline
 90
        2
 70
     0
 43
0.0
 10
-199.6883606863287
 20
180.8108431264319
 10
-199.6883606864258
 20
176.8108431264349
  0
LWPOLYLINE
  5
4C0
330
1F
100
AcDbEntity
  8
1
  6
Continuous
 62
     3
 60
     1
100
AcDbPolyline
 90
        2
 70
     0
 43
0.0
 10
-199.6883606863287
 20
180.8108431264319
 10
-199.6883606864258
 20
176.8108431264349
  0
LWPOLYLINE
  5
4C1
330
1F
100
AcDbEntity
  8
1
  6
Continuous
 62
     3
 60
     1
100
AcDbPolyline
 90
        4
 70
     0
 43
0.0
 10
-199.6883606865619
 20
190.9108431265239
 10
-199.6330655321148
 20
184.0555479718891
 10
-199.5329363857699
 20
183.9554188255439
 10
-199.3883606866887
 20
183.8108431264631
  0
LWPOLYLINE
  5
4C2
330
1F
100
AcDbEntity
  8
1
  6
Continuous
 62
     3
 60
     1
100
AcDbPolyline
 90
        3
 70
     0
 43
0.0
 10
-160.0883606854634
 20
156.1858431272972
 10
-160.088360686023
 20
157.2341894766548
 10
-160.0883606858455
 20
155.8087986816136
  0
LWPOLYLINE
  5
4C3
330
1F
100
AcDbEntity
  8
1
  6
Continuous
 62
     3
 60
     1
100
AcDbPolyline
 90
        3
 70
     0
 43
0.0
 10
-160.0883606860591
 20
156.1858431272975
 10
-160.088360686023
 20
157.2341894766548
 10
-160.0883606858455
 20
155.8087986816136
  0
LWPOLYLINE
  5
4C4
330
1F
100
AcDbEntity
  8
1
  6
Continuous
 62
     3
 60
     1
100
AcDbPolyline
 90
        2
 70
     0
 43
0.0
 10
-168.5883606847569
 20
193.6108431270879
 10
-168.5883606849116
 20
191.0514454478939
  0
LWPOLYLINE
  5
4C5
330
1F
100
AcDbEntity
  8
1
  6
Continuous
 62
     3
 60
     1
100
AcDbPolyline
 90
        2
 70
     0
 43
0.0
 10
-168.5883606847569
 20
193.6108431270879
 10
-168.5883606849116
 20
191.0514454478939
  0
LWPOLYLINE
  5
4C6
330
1F
100
AcDbEntity
  8
1
  6
Continuous
 62
     3
 60
     1
100
AcDbPolyline
 90
        6
 70
     0
 43
0.0
 10
-161.0883606859922
 20
148.3108431273128
 10
-161.0883606859918
 20
147.5588284457451
 10
-161.0883606859918
 20
147.3108431274791
 10
-160.5977013675888
 20
147.1108431272594
 10
-158.3173162845252
 20
147.1108431274038
 10
-157.5883606860116
 20
147.3108431274791
  0
LWPOLYLINE
  5
4C7
330
1F
100
AcDbEntity
  8
1
  6
Continuous
 62
     3
 60
     1
100
AcDbPolyline
 90
        4
 70
     0
 43
0.0
 10
-161.0883606859922
 20
148.3108431273128
 10
-161.0883606859918
 20
147.3108431274791
 10
-160.638154271118
 20
147.3108431272649
 10
-157.5883606860116
 20
147.3108431274791
  0
LWPOLYLINE
  5
4C8
330
1F
100
AcDbEntity
  8
1
  6
Continuous
 62
     3
 60
     1
100
AcDbPolyline
 90
        5
 70
     0
 43
0.0
 10
-161.0883606859922
 20
148.3108431273128
 10
-161.0883606859918
 20
147.3108431274791
 10
-160.4285958893689
 20
147.3108431272681
 10
-159.088360685868
 20
147.3080148546641
 10
-157.5883606860116
 20
147.3108431274791
  0
LWPOLYLINE
  5
4C9
330
1F
100
AcDbEntity
  8
1
  6
Continuous
 62
     3
 60
     1
100
AcDbPolyline
 90
        3
 70
     0
 43
0.0
 10
-161.0883606859918
 20
147.3108431274791
 10
-159.8945298895388
 20
147.110843127308
 10
-157.5883606860116
 20
147.3108431274791
  0
LWPOLYLINE
  5
4CA
330
1F
100
AcDbEntity
  8
1
  6
Continuous
 62
     3
 60
     1
100
AcDbPolyline
 90
        3
 70
     0
 43
0.0
 10
-157.088360685897
 20
191.7072897089964
 10
-157.0883606857773
 20
188.3108431274702
 10
-159.7883606857577
 20
188.3108431274702
  0
ARC
  5
4CB
330
1F
100
AcDbEntity
  8
1
  6
Continuous
 62
     3
100
AcDbCircle
 10
-290.4287504390298
 20
191.1608431586206
 30
0.0
 40
2.0
100
AcDbArc
 50
0.0
 51
90.0
  0
ARC
  5
4CC
330
1F
100
AcDbEntity
  8
1
  6
Continuous
 62
     3
100
AcDbCircle
 10
-290.4287504390298
 20
153.4608431586205
 30
0.0
 40
2.0
100
AcDbArc
 50
270.0
 51
0.0
  0
ARC
  5
4CD
330
1F
100
AcDbEntity
  8
1
  6
Continuous
 62
     3
100
AcDbCircle
 10
-328.1287504390298
 20
153.4608431586205
 30
0.0
 40
2.0
100
AcDbArc
 50
180.0
 51
270.0
  0
ARC
  5
4CE
330
1F
100
AcDbEntity
  8
1
  6
Continuous
 62
     3
100
AcDbCircle
 10
-290.4287504390298
 20
191.1608431586206
 30
0.0
 40
2.0
100
AcDbArc
 50
0.0
 51
90.0
  0
ARC
  5
4CF
330
1F
100
AcDbEntity
  8
1
  6
Continuous
 62
     3
100
AcDbCircle
 10
-328.1287504390298
 20
191.1608431586206
 30
0.0
 40
2.0
100
AcDbArc
 50
90.0
 51
180.0
  0
ARC
  5
4D0
330
1F
100
AcDbEntity
  8
1
  6
Continuous
 62
     3
100
AcDbCircle
 10
-164.938360685992
 20
146.7666862283077
 30
0.0
 40
0.5
100
AcDbArc
 50
0.0
 51
180.0
  0
ARC
  5
4D1
330
1F
100
AcDbEntity
  8
1
  6
Continuous
 62
     3
100
AcDbCircle
 10
-199.0883606859098
 20
192.3108431264151
 30
0.0
 40
1.0
100
AcDbArc
 50
89.99999999626924
 51
143.130102374137
  0
ARC
  5
4D2
330
1F
100
AcDbEntity
  8
1
  6
Continuous
 62
     3
100
AcDbCircle
 10
-199.0883606859098
 20
152.3108431261379
 30
0.0
 40
0.999999999999818
100
AcDbArc
 50
216.8698976258643
 51
270.0000000037307
  0
ARC
  5
4D3
330
1F
100
AcDbEntity
  8
1
  6
Continuous
 62
     3
100
AcDbCircle
 10
-157.3883606860418
 20
193.3108431270879
 30
0.0
 40
0.3000000000000114
100
AcDbArc
 50
0.0
 51
90.0
  0
ARC
  5
4D4
330
1F
100
AcDbEntity
  8
1
  6
Continuous
 62
     3
100
AcDbCircle
 10
-157.5883606860417
 20
147.8108431274791
 30
0.0
 40
0.5
100
AcDbArc
 50
270.000000003449
 51
359.9999999995538
  0
ARC
  5
4D5
330
1F
100
AcDbEntity
  8
1
  6
Continuous
 62
     3
100
AcDbCircle
 10
-303.27875043903
 20
146.311116931973
 30
0.0
 40
1.000000000000026
100
AcDbArc
 50
341.8051276612474
 51
0.0
  0
ARC
  5
4D6
330
1F
100
AcDbEntity
  8
1
  6
Continuous
 62
     3
100
AcDbCircle
 10
-318.27875043903
 20
147.9111169319731
 30
0.0
 40
1.0
100
AcDbArc
 50
180.0
 51
270.0
  0
ARC
  5
4D7
330
1F
100
AcDbEntity
  8
1
  6
Continuous
 62
     3
100
AcDbCircle
 10
-300.27875043903
 20
147.911116931973
 30
0.0
 40
1.0
100
AcDbArc
 50
270.0
 51
0.0
  0
ARC
  5
4D8
330
1F
100
AcDbEntity
  8
1
  6
Continuous
 62
     3
100
AcDbCircle
 10
-315.2787504690161
 20
146.3111169319731
 30
0.0
 40
1.0
100
AcDbArc
 50
180.0
 51
198.1948778409823
  0
ARC
  5
4D9
330
1F
100
AcDbEntity
  8
1
  6
Continuous
 62
     3
100
AcDbCircle
 10
-301.77875043903
 20
146.4111169319731
 30
0.0
 40
0.5
100
AcDbArc
 50
90.0
 51
180.0000000000228
  0
ARC
  5
4DA
330
1F
100
AcDbEntity
  8
1
  6
Continuous
 62
     3
100
AcDbCircle
 10
-316.7787504690161
 20
146.4111169319731
 30
0.0
 40
0.5
100
AcDbArc
 50
0.0
 51
90.0
  0
SOLID
  5
4DB
330
1F
100
AcDbEntity
  8
1
 62
     2
100
AcDbTrace
 10
-201.8466419203335
 20
97.85548500280862
 30
0.0
 11
-202.661272634041
 21
98.07068511907396
 31
0.0
 12
-201.4366536930966
 22
101.0569523579391
 32
0.0
 13
-201.4366536930966
 23
101.0569523579391
 33
0.0
  0
LEADER
  5
4DC
330
1F
100
AcDbEntity
  8
1
  6
Continuous
 62
     2
100
AcDbLeader
  3
Standard
 71
     0
 76
     3
 10
-201.4366536930966
 20
101.0569523579391
 30
0.0
 10
-206.8215144748375
 20
80.67279523956513
 30
0.0
 10
-267.5639017966616
 20
80.67279523956513
 30
0.0
  0
SOLID
  5
4DD
330
1F
100
AcDbEntity
  8
1
 62
     2
100
AcDbTrace
 10
-306.3855320977078
 20
136.0217414566867
 30
0.0
 11
-306.3855320977078
 21
136.8643174412461
 31
0.0
 12
-303.1855320977078
 22
136.4430294489664
 32
0.0
 13
-303.1855320977078
 23
136.4430294489664
 33
0.0
  0
LEADER
  5
4DE
330
1F
100
AcDbEntity
  8
1
  6
Continuous
 62
     2
100
AcDbLeader
  3
Standard
 71
     0
 76
     2
 10
-303.1855320977078
 20
136.4430294489664
 30
0.0
 10
-315.4337964561307
 20
136.4430294489664
 30
0.0
  0
SOLID
  5
4DF
330
1F
100
AcDbEntity
  8
1
 62
     2
100
AcDbTrace
 10
-291.3414787545424
 20
191.1506363222127
 30
0.0
 11
-290.7247429847932
 21
190.6570751054747
 31
0.0
 12
-292.9075956906273
 22
188.5615690840752
 32
0.0
 13
-292.9075956906273
 23
188.5615690840752
 33
0.0
  0
LEADER
  5
4E0
330
1F
100
AcDbEntity
  8
1
  6
Continuous
 62
     2
100
AcDbLeader
  3
Standard
 71
     0
 76
     3
 10
-292.9075956906273
 20
188.5615690840752
 30
0.0
 10
-277.8481920966669
 20
207.3792406362856
 30
0.0
 10
-248.9927059458209
 20
207.3792406362856
 30
0.0
  0
SOLID
  5
4E1
330
1F
100
AcDbEntity
  8
1
 62
     2
100
AcDbTrace
 10
-301.5020308855401
 20
142.8654522896204
 30
0.0
 11
-302.1509200121912
 21
142.3279793218629
 31
0.0
 12
-303.867731701527
 22
145.0611169319731
 32
0.0
 13
-303.867731701527
 23
145.0611169319731
 33
0.0
  0
LEADER
  5
4E2
330
1F
100
AcDbEntity
  8
1
  6
Continuous
 62
     2
100
AcDbLeader
  3
Standard
 71
     0
 76
     3
 10
-303.867731701527
 20
145.0611169319731
 30
0.0
 10
-289.3164909322265
 20
127.4934577548487
 30
0.0
 10
-233.2851790708271
 20
127.4934577548487
 30
0.0
  0
TEXT
  5
4E4
330
1F
100
AcDbEntity
  8
1
 62
     2
100
AcDbText
 10
-325.1738116271766
 20
74.76098474391286
 30
0.0
 40
3.0
  1
CONNECTION
 41
1.07
  7
CONVERTER_11
100
AcDbText
  0
MTEXT
  5
4E5
330
1F
100
AcDbEntity
  8
1
 62
     2
100
AcDbMText
 10
-316.94486631237
 20
80.45151535776479
 30
0.0
 40
4.0
 41
0.0
 71
     7
 72
     1
  1
\U+7d50\U+7dda\U+8868
  7
CONVERTER_11
 73
     1
 44
1.05042016806723
  0
MTEXT
  5
4E7
330
1F
100
AcDbEntity
  8
1
 62
     2
100
AcDbMText
 10
-281.947406635293
 20
91.04102394001002
 30
0.0
 40
2.0
 41
0.0
 71
     5
 72
     1
  1
WHITE
  7
CONVERTER_12
 73
     1
 44
1.05042016806723
  0
MTEXT
  5
4E8
330
1F
100
AcDbEntity
  8
1
 62
     2
100
AcDbMText
 10
-282.4247906124369
 20
95.57617172287904
 30
0.0
 40
4.0
 41
0.0
 71
     5
 72
     1
  1
\U+767d
  7
CONVERTER_11
 73
     1
 44
1.05042016806723
  0
MTEXT
  5
4EA
330
1F
100
AcDbEntity
  8
1
 62
     2
100
AcDbMText
 10
-312.009433055144
 20
102.6261181274731
 30
0.0
 40
3.2
 41
0.0
 71
     5
 72
     1
  1
A
  7
CONVERTER_13
 73
     1
 44
1.05042016806723
  0
MTEXT
  5
4EB
330
1F
100
AcDbEntity
  8
1
 62
     2
100
AcDbMText
 10
-282.009433055144
 20
102.6261181274731
 30
0.0
 40
3.2
 41
0.0
 71
     5
 72
     1
  1
B
  7
CONVERTER_13
 73
     1
 44
1.05042016806723
  0
MTEXT
  5
4EC
330
1F
100
AcDbEntity
  8
1
 62
     2
100
AcDbMText
 10
-292.009433055144
 20
102.6261181274731
 30
0.0
 40
3.2
 41
0.0
 71
     5
 72
     1
  1
B
  7
CONVERTER_13
 73
     1
 44
1.05042016806723
  0
MTEXT
  5
4ED
330
1F
100
AcDbEntity
  8
1
 62
     2
100
AcDbMText
 10
-302.009433055144
 20
102.6261181274731
 30
0.0
 40
3.2
 41
0.0
 71
     5
 72
     1
  1
A
  7
CONVERTER_13
 73
     1
 44
1.05042016806723
  0
MTEXT
  5
4EE
330
1F
100
AcDbEntity
  8
1
 62
     2
100
AcDbMText
 10
-282.009433055144
 20
109.6261181274731
 30
0.0
 40
4.0
 41
0.0
 71
     5
 72
     1
  1
6
  7
CONVERTER_13
 73
     1
 44
1.05042016806723
  0
MTEXT
  5
4EF
330
1F
100
AcDbEntity
  8
1
 62
     2
100
AcDbMText
 10
-292.009433055144
 20
109.6261181274731
 30
0.0
 40
4.0
 41
0.0
 71
     5
 72
     1
  1
4
  7
CONVERTER_13
 73
     1
 44
1.05042016806723
  0
MTEXT
  5
4F0
330
1F
100
AcDbEntity
  8
1
 62
     2
100
AcDbMText
 10
-302.009433055144
 20
109.6261181274731
 30
0.0
 40
4.0
 41
0.0
 71
     5
 72
     1
  1
3
  7
CONVERTER_13
 73
     1
 44
1.05042016806723
  0
MTEXT
  5
4F1
330
1F
100
AcDbEntity
  8
1
 62
     2
100
AcDbMText
 10
-312.009433055144
 20
109.6261181274731
 30
0.0
 40
4.0
 41
0.0
 71
     5
 72
     1
  1
1
  7
CONVERTER_13
 73
     1
 44
1.05042016806723
  0
MTEXT
  5
4F2
330
1F
100
AcDbEntity
  8
1
 62
     2
100
AcDbMText
 10
-339.009433055144
 20
102.6261181274731
 30
0.0
 40
3.0
 41
0.0
 71
     5
 72
     1
  1
\U+52b1\U+78c1\U+76f8
  7
CONVERTER_11
 73
     1
 44
1.05042016806723
  0
MTEXT
  5
4F3
330
1F
100
AcDbEntity
  8
1
 62
     2
100
AcDbMText
 10
-339.009433055144
 20
109.6261181274731
 30
0.0
 40
3.0
 41
0.0
 71
     5
 72
     1
  1
PHR-6
  7
CONVERTER_12
 73
     1
 44
1.05042016806723
  0
MTEXT
  5
4F4
330
1F
100
AcDbEntity
  8
1
 62
     2
100
AcDbMText
 10
-312.009433055144
 20
95.62611812747316
 30
0.0
 40
4.0
 41
0.0
 71
     5
 72
     1
  1
\U+8d64
  7
CONVERTER_13
 73
     1
 44
1.05042016806723
  0
MTEXT
  5
4F5
330
1F
100
AcDbEntity
  8
1
 62
     2
100
AcDbMText
 10
-292.2230615236909
 20
95.86481011604492
 30
0.0
 40
4.0
 41
0.0
 71
     5
 72
     1
  1
\U+9ec4
  7
CONVERTER_13
 73
     1
 44
1.05042016806723
  0
MTEXT
  5
4F6
330
1F
100
AcDbEntity
  8
1
 62
     2
100
AcDbMText
 10
-302.273188563741
 20
95.62611812747305
 30
0.0
 40
4.0
 41
0.0
 71
     5
 72
     1
  1
\U+9752
  7
CONVERTER_13
 73
     1
 44
1.05042016806723
  0
MTEXT
  5
4F8
330
1F
100
AcDbEntity
  8
1
 62
     2
100
AcDbMText
 10
-331.0342960602517
 20
109.5685098079341
 30
0.0
 40
2.5
 41
0.0
 71
     4
 72
     1
  1
(PIN NO.)
  7
CONVERTER_14
 73
     1
 44
1.05042016806723
  0
MTEXT
  5
4FA
330
1F
100
AcDbEntity
  8
1
 62
     2
100
AcDbMText
 10
-331.5527709361039
 20
102.6261181274731
 30
0.0
 40
2.5
 41
0.0
 71
     4
 72
     1
  1
(PHASE)
  7
CONVERTER_15
 73
     1
 44
1.05042016806723
  0
MTEXT
  5
4FB
330
1F
100
AcDbEntity
  8
1
 62
     2
100
AcDbMText
 10
-312.009433055144
 20
90.62611812747316
 30
0.0
 40
2.0
 41
0.0
 71
     5
 72
     1
  1
RED
  7
CONVERTER_13
 73
     1
 44
1.05042016806723
  0
MTEXT
  5
4FD
330
1F
100
AcDbEntity
  8
1
 62
     2
100
AcDbMText
 10
-292.2230615236909
 20
90.86481011604492
 30
0.0
 40
2.0
 41
0.0
 71
     5
 72
     1
  1
YELLOW
  7
CONVERTER_16
 73
     1
 44
1.05042016806723
  0
MTEXT
  5
4FE
330
1F
100
AcDbEntity
  8
1
 62
     2
100
AcDbMText
 10
-302.273188563741
 20
90.62611812747294
 30
0.0
 40
2.0
 41
0.0
 71
     5
 72
     1
  1
BLUE
  7
CONVERTER_13
 73
     1
 44
1.05042016806723
  0
MTEXT
  5
4FF
330
1F
100
AcDbEntity
  8
1
 62
     2
100
AcDbMText
 10
-333.509433055144
 20
90.62611812747316
 30
0.0
 40
2.5
 41
0.0
 71
     5
 72
     1
  1
COLOR OF LEAD
  7
CONVERTER_12
 73
     1
 44
1.05042016806723
  0
MTEXT
  5
501
330
1F
100
AcDbEntity
  8
1
 62
     2
100
AcDbMText
 10
-333.509433055144
 20
95.62611812747316
 30
0.0
 40
3.0
 41
0.0
 71
     5
 72
     1
  1
\U+30ea\U+30fc\U+30c9\U+7dda\U+8272
  7
CONVERTER_17
 73
     1
 44
1.05042016806723
  0
TEXT
  5
502
330
1F
100
AcDbEntity
  8
1
 62
     2
100
AcDbText
 10
-245.8561534233685
 20
90.7792272803709
 30
0.0
 40
1.6
  1
 (JST)
 41
0.9
  7
CONVERTER_13
100
AcDbText
  0
MTEXT
  5
503
330
1F
100
AcDbEntity
  8
1
 62
     2
100
AcDbMText
 10
-263.6923429060058
 20
93.50197028573685
 30
0.0
 40
3.5
 41
0.0
 71
     7
 72
     1
  1
\U+30cf\U+30a6\U+30b8\U+30f3\U+30b0\U+3000\U+ff1a\U+3000PHR-6
  7
CONVERTER_16
 73
     1
 44
0.90036014405762
  0
TEXT
  5
505
330
1F
100
AcDbEntity
  8
1
 62
     2
100
AcDbText
 10
-262.9409115382867
 20
90.6657888496048
 30
0.0
 40
1.6
  1
HOUSING
 41
0.72
  7
CONVERTER_18
100
AcDbText
  0
MTEXT
  5
507
330
1F
100
AcDbEntity
  8
1
 62
     2
100
AcDbMText
 10
-264.1405179389408
 20
84.61430026152364
 30
0.0
 40
2.4
 41
0.0
 71
     7
 72
     1
  1
\U+30b3\U+30f3\U+30bf\U+30af\U+30c8\U+ff1a
  7
CONVERTER_19
 73
     1
 44
1.05042016806723
  0
TEXT
  5
508
330
1F
100
AcDbEntity
  8
1
 62
     2
100
AcDbText
 10
-263.3557978541278
 20
81.47699122490094
 30
0.0
 40
1.6
  1
CONTACT
 41
0.72
  7
CONVERTER_18
100
AcDbText
  0
TEXT
  5
509
330
1F
100
AcDbEntity
  8
1
 62
     2
100
AcDbText
 10
-245.8561534233685
 20
81.47699122490094
 30
0.0
 40
1.6
  1
 (JST)
 41
0.9
  7
CONVERTER_13
100
AcDbText
  0
TEXT
  5
50A
330
1F
100
AcDbEntity
  8
1
 62
     2
100
AcDbText
 10
-242.8222889682027
 20
84.87587362312759
 30
0.0
 40
2.4
  1
SPH-002T-P0.5S
 41
0.9
  7
CONVERTER_13
100
AcDbText
  0
TEXT
  5
50B
330
1F
100
AcDbEntity
  8
1
 62
     2
100
AcDbText
 10
-207.1600455445224
 20
111.7241588912383
 30
0.0
 40
1.5
  1
6
 41
1.07
  7
CONVERTER_11
100
AcDbText
  0
TEXT
  5
50C
330
1F
100
AcDbEntity
  8
1
 62
     2
100
AcDbText
 10
-207.1600455445224
 20
109.7241588912383
 30
0.0
 40
1.5
  1
5
 41
1.07
  7
CONVERTER_11
100
AcDbText
  0
TEXT
  5
50D
330
1F
100
AcDbEntity
  8
1
 62
     2
100
AcDbText
 10
-207.1600455445224
 20
107.7241588912383
 30
0.0
 40
1.5
  1
4
 41
1.07
  7
CONVERTER_11
100
AcDbText
  0
TEXT
  5
50E
330
1F
100
AcDbEntity
  8
1
 62
     2
100
AcDbText
 10
-207.1600455445224
 20
105.7241588912383
 30
0.0
 40
1.5
  1
3
 41
1.07
  7
CONVERTER_11
100
AcDbText
  0
TEXT
  5
50F
330
1F
100
AcDbEntity
  8
1
 62
     2
100
AcDbText
 10
-207.1600455445224
 20
103.7241588912383
 30
0.0
 40
1.5
  1
2
 41
1.07
  7
CONVERTER_11
100
AcDbText
  0
TEXT
  5
510
330
1F
100
AcDbEntity
  8
1
 62
     2
100
AcDbText
 10
-207.1600455445224
 20
101.7241588912383
 30
0.0
 40
1.5
  1
1
 41
1.07
  7
CONVERTER_11
100
AcDbText
  0
MTEXT
  5
511
330
1F
100
AcDbEntity
  8
1
 62
     2
100
AcDbMText
 10
-209.0949274575481
 20
114.0968001367691
 30
0.0
 40
2.0
 41
0.0
 71
     7
 72
     1
  1
\U+30d4\U+30f3\U+756a\U+53f7
  7
CONVERTER_11
 73
     1
 44
1.05042016806723
  0
MTEXT
  5
512
330
1F
100
AcDbEntity
  8
1
 62
     2
100
AcDbMText
 10
-190.7574667743205
 20
93.82679005851985
 30
0.0
 40
4.0
 41
0.0
 71
     7
 72
     1
  1
\U+4ed8\U+5c5e\U+54c1\U+ff1a\U+30b3\U+30cd\U+30af\U+30bf\U+30fc\U+30ea\U+30fc\U+30c9
  7
CONVERTER_11
 73
     1
 44
0.90036014405762
  0
TEXT
  5
514
330
1F
100
AcDbEntity
  8
1
 62
     2
100
AcDbText
 10
-190.7574667743205
 20
87.78232798583467
 30
0.0
 40
3.0
  1
ATTACHMENT:CONNECTOR LEAD
 41
0.54
  7
CONVERTER_20
100
AcDbText
  0
MTEXT
  5
515
330
1F
100
AcDbEntity
  8
1
 62
     2
100
AcDbMText
 10
-273.1670378340198
 20
208.4930554953781
 30
0.0
 40
3.0
 41
0.0
 71
     7
 72
     1
  1
\U+ff14\U+ff0d\U+ff2d\U+ff13\U+00d7\U+ff10\U+ff0e\U+ff15
  7
CONVERTER_16
 73
     1
 44
1.05042016806723
  0
MTEXT
  5
516
330
1F
100
AcDbEntity
  8
1
 62
     2
100
AcDbMText
 10
-311.2632576825147
 20
139.7877872609206
 30
0.0
 40
2.0
 41
0.0
 71
     5
 72
     1
  1
3
  7
CONVERTER_17
 73
     1
 44
1.05042016806723
  0
MTEXT
  5
517
330
1F
100
AcDbEntity
  8
1
 62
     2
100
AcDbMText
 10
-327.0517997961248
 20
139.7522971193296
 30
0.0
 40
3.0
 41
0.0
 71
     5
 72
     1
  1
\U+30d4\U+30f3\U+756a\U+53f7
  7
CONVERTER_11
 73
     1
 44
1.05042016806723
  0
MTEXT
  5
518
330
1F
100
AcDbEntity
  8
1
 62
     2
100
AcDbMText
 10
-327.2169205957328
 20
136.6622180393145
 30
0.0
 40
2.0
 41
0.0
 71
     5
 72
     1
  1
PIN NO.
  7
CONVERTER_18
 73
     1
 44
1.05042016806723
  0
MTEXT
  5
519
330
1F
100
AcDbEntity
  8
1
 62
     2
100
AcDbMText
 10
-308.5951099495438
 20
139.6226664613124
 30
0.0
 40
2.0
 41
0.0
 71
     5
 72
     1
  1
4
  7
CONVERTER_17
 73
     1
 44
1.05042016806723
  0
MTEXT
  5
51A
330
1F
100
AcDbEntity
  8
1
 62
     2
100
AcDbMText
 10
-303.2588144836019
 20
139.6519916487305
 30
0.0
 40
2.0
 41
0.0
 71
     5
 72
     1
  1
6
  7
CONVERTER_17
 73
     1
 44
1.05042016806723
  0
MTEXT
  5
51B
330
1F
100
AcDbEntity
  8
1
 62
     2
100
AcDbMText
 10
-316.5995531484567
 20
139.7522971193296
 30
0.0
 40
2.0
 41
0.0
 71
     5
 72
     1
  1
1
  7
CONVERTER_17
 73
     1
 44
1.05042016806723
  0
MTEXT
  5
51C
330
1F
100
AcDbEntity
  8
1
 62
     2
100
AcDbMText
 10
-306.0223125147405
 20
139.6226664613124
 30
0.0
 40
2.0
 41
0.0
 71
     5
 72
     1
  1
5
  7
CONVERTER_17
 73
     1
 44
1.05042016806723
  0
MTEXT
  5
51D
330
1F
100
AcDbEntity
  8
1
 62
     2
100
AcDbMText
 10
-314.0267557136535
 20
139.7522971193296
 30
0.0
 40
2.0
 41
0.0
 71
     5
 72
     1
  1
2
  7
CONVERTER_17
 73
     1
 44
1.05042016806723
  0
MTEXT
  5
51E
330
1F
100
AcDbEntity
  8
1
 62
     2
100
AcDbMText
 10
-263.7202644611551
 20
204.9145267878909
 30
0.0
 40
2.5
 41
0.0
 71
     5
 72
     1
  1
\U+6df1\U+3055(\U+ff24\U+ff25\U+ff30\U+ff34\U+ff28\U+ff09\U+ff13\U+ff4d\U+ff4d\U+3000\U+ff2d\U+ff29\U+ff2e\U+ff0e
  7
CONVERTER_12
 73
     1
 44
1.05042016806723
  0
MTEXT
  5
51F
330
1F
100
AcDbEntity
  8
1
 62
     2
100
AcDbMText
 10
-289.2070809992463
 20
128.5757672906906
 30
0.0
 40
3.5
 41
0.0
 71
     7
 72
     1
  1
\U+30e2\U+30fc\U+30bf\U+5074\U+30b3\U+30cd\U+30af\U+30bf\U+3000\U+3000S6B-PH-K-S(JST)
  7
CONVERTER_15
 73
     1
 44
0.84033613445378
  0
DIMENSION
  5
52A
330
1F
100
AcDbEntity
  8
1
100
AcDbDimension
  2
*D32
 10
-197.6289911385385
 20
122.1924074480029
 30
0.0
 11
-168.0824197949557
 21
126.5924074480029
 31
0.0
 70
    32
  1
300
 71
     5
 42
-1.0
 53
0.00013888888889
  3
ME10_DIM_10
100
AcDbAlignedDimension
 13
-135.8202446605918
 23
112.456952357939
 33
0.0
 14
-197.6289911385384
 24
114.2069523579393
 34
0.0
100
AcDbRotatedDimension
  0
DIMENSION
  5
537
330
1F
100
AcDbEntity
  8
1
100
AcDbDimension
  2
*D33
 10
-135.8202446605918
 20
116.3561325232869
 30
0.0
 11
-128.395750306887
 21
119.9561325232869
 31
0.0
 70
    32
  1
<>)
 71
     5
 42
-1.0
 53
0.00013888888889
  3
ME10_DIM_11
100
AcDbAlignedDimension
 13
-139.3202446605918
 23
112.8569523579391
 33
0.0
 14
-135.8202446605918
 24
112.456952357939
 34
0.0
100
AcDbRotatedDimension
  0
DIMENSION
  5
542
330
1F
100
AcDbEntity
  8
1
100
AcDbDimension
  2
*D34
 10
-157.0883606860418
 20
215.38008191821
 30
0.0
 11
-179.196778857459
 21
218.98008191821
 31
0.0
 70
    32
  1
L
 71
     5
 42
-1.0
 53
0.00013888888889
  3
ME10_DIM_12
100
AcDbAlignedDimension
 13
-199.8883606860417
 23
192.9108431262389
 33
0.0
 14
-157.0883606860418
 24
193.3108431270879
 34
0.0
100
AcDbRotatedDimension
  0
DIMENSION
  5
54F
330
1F
100
AcDbEntity
  8
1
100
AcDbDimension
  2
*D35
 10
-199.8883606860417
 20
206.158300398089
 30
0.0
 11
-193.105039510757
 21
209.758300398089
 31
0.0
 70
    32
  1
<>
 71
     5
 42
-1.0
 53
0.00013888888889
  3
ME10_DIM_13
100
AcDbAlignedDimension
 13
-201.8883606863099
 23
181.510843126567
 33
0.0
 14
-199.8883606860417
 24
192.9108431262389
 34
0.0
100
AcDbRotatedDimension
  0
DIMENSION
  5
55A
330
1F
100
AcDbEntity
  8
1
100
AcDbDimension
  2
*D36
 10
-199.8883606860418
 20
215.38008191821
 30
0.0
 11
-210.490365327379
 21
218.98008191821
 31
0.0
 70
    32
  1
<>
 71
     5
 42
-1.0
 53
0.00013888888889
  3
ME10_DIM_14
100
AcDbAlignedDimension
 13
-221.8883606860417
 23
174.4288771161727
 33
0.0
 14
-199.8883606860417
 24
192.9108431262389
 34
0.0
100
AcDbRotatedDimension
  0
DIMENSION
  5
565
330
1F
100
AcDbEntity
  8
1
100
AcDbDimension
  2
*D37
 10
-330.1287504390298
 20
215.38008191821
 30
0.0
 11
-308.121705894173
 21
218.98008191821
 31
0.0
 70
    32
  1
(42.5)
 71
     5
 42
-1.0
 53
0.00013888888889
  3
ME10_DIM_15
100
AcDbAlignedDimension
 13
-288.4287504390298
 23
191.1608431586206
 33
0.0
 14
-330.1287504390298
 24
191.1608431586206
 34
0.0
100
AcDbRotatedDimension
  0
DIMENSION
  5
570
330
1F
100
AcDbEntity
  8
1
100
AcDbDimension
  2
*D38
 10
-262.474328025212
 20
193.1608431586206
 30
0.0
 11
-266.074328025212
 21
172.585805335783
 31
0.0
 70
    32
  1
(42.5)
 71
     5
 42
-1.0
 53
90.0
  3
ME10_DIM_16
100
AcDbAlignedDimension
 13
-290.4287504390298
 23
151.4608431586205
 33
0.0
 14
-290.4287504390298
 24
193.1608431586206
 34
0.0
 50
90.0
100
AcDbRotatedDimension
  0
DIMENSION
  5
57B
330
1F
100
AcDbEntity
  8
1
100
AcDbDimension
  2
*D39
 10
-274.563587917448
 20
187.8108430962246
 30
0.0
 11
-278.163587917448
 21
173.00267636655
 31
0.0
 70
    32
  1
<>
 71
     5
 42
-1.0
 53
90.0
  3
ME10_DIM_17
100
AcDbAlignedDimension
 13
-291.2787503790528
 23
156.8108432210165
 33
0.0
 14
-291.2787503790528
 24
187.8108430962246
 34
0.0
 50
90.0
100
AcDbRotatedDimension
  0
DIMENSION
  5
588
330
1F
100
AcDbEntity
  8
1
100
AcDbDimension
  2
*D40
 10
-232.410993530947
 20
169.8108431274227
 30
0.0
 11
-236.810993530947
 21
199.960053802597
 31
0.0
 70
    32
  1
<>
 71
     5
 42
-1.0
 53
90.0
  3
ME10_DIM_18
100
AcDbAlignedDimension
 13
-220.8883606860418
 23
174.8108431274227
 33
0.0
 14
-220.888360686042
 24
169.8108431274227
 34
0.0
 50
90.0
100
AcDbRotatedDimension
  0
DIMENSION
  5
593
330
1F
100
AcDbEntity
  8
1
100
AcDbDimension
  2
*D41
 10
-324.7787504990067
 20
205.310181250975
 30
0.0
 11
-308.955447955707
 21
208.910181250975
 31
0.0
 70
    32
  1
<>
 71
     5
 42
-1.0
 53
0.00013888888889
  3
ME10_DIM_19
100
AcDbAlignedDimension
 13
-293.7787503790528
 23
190.3108430962246
 33
0.0
 14
-324.7787504990068
 24
190.3108430962246
 34
0.0
100
AcDbRotatedDimension
  0
DIMENSION
  5
59E
330
1F
100
AcDbEntity
  8
1
100
AcDbDimension
  2
*D42
 10
-244.429450928583
 20
183.3108431265829
 30
0.0
 11
-248.829450928583
 21
172.360639586299
 31
0.0
 70
    32
  1
<>
 71
     5
 42
-1.0
 53
90.0
  3
ME10_DIM_20
100
AcDbAlignedDimension
 13
-201.3883606864469
 23
161.310843126054
 33
0.0
 14
-201.388360686363
 24
183.3108431265829
 34
0.0
 50
90.0
100
AcDbRotatedDimension
  0
DIMENSION
  5
5AB
330
1F
100
AcDbEntity
  8
1
100
AcDbDimension
  2
*D43
 10
-267.738436504345
 20
151.4608431586205
 30
0.0
 11
-271.338436504345
 21
140.074093232051
 31
0.0
 70
    32
  1
(6)
 71
     5
 42
-1.0
 53
90.0
  3
ME10_DIM_21
100
AcDbAlignedDimension
 13
-302.3287504390299
 23
145.0611169319731
 33
0.0
 14
-290.4287504390298
 24
151.4608431586205
 34
0.0
 50
90.0
100
AcDbRotatedDimension
  0
ENDSEC
  0
SECTION
  2
OBJECTS
  0
DICTIONARY
  5
C
330
0
100
AcDbDictionary
281
     1
  3
ACAD_GROUP
350
D
  3
ACAD_LAYOUT
350
1A
  3
ACAD_MATERIAL
350
3B
  3
ACAD_MLEADERSTYLE
350
5AE
  3
ACAD_MLINESTYLE
350
17
  3
ACAD_PLOTSETTINGS
350
19
  3
ACAD_PLOTSTYLENAME
350
E
  3
ACAD_VISUALSTYLE
350
2A
  3
AcDbVariableDictionary
350
5AC
  0
DICTIONARY
  5
D
102
{ACAD_REACTORS
330
C
102
}
330
C
100
AcDbDictionary
281
     1
  0
DICTIONARY
  5
1A
102
{ACAD_REACTORS
330
C
102
}
330
C
100
AcDbDictionary
281
     1
  3
Layout1
350
1E
  3
Layout2
350
26
  3
Model
350
22
  0
DICTIONARY
  5
3B
102
{ACAD_REACTORS
330
C
102
}
330
C
100
AcDbDictionary
281
     1
  3
ByBlock
350
3D
  3
ByLayer
350
3C
  3
Global
350
3E
  0
DICTIONARY
  5
5AE
102
{ACAD_REACTORS
330
C
102
}
330
C
100
AcDbDictionary
281
     1
  0
DICTIONARY
  5
17
102
{ACAD_REACTORS
330
C
102
}
330
C
100
AcDbDictionary
281
     1
  3
Standard
350
18
  0
DICTIONARY
  5
19
102
{ACAD_REACTORS
330
C
102
}
330
C
100
AcDbDictionary
281
     1
  0
ACDBDICTIONARYWDFLT
  5
E
102
{ACAD_REACTORS
330
C
102
}
330
C
100
AcDbDictionary
281
     1
  3
Normal
350
F
100
AcDbDictionaryWithDefault
340
F
  0
DICTIONARY
  5
2A
102
{ACAD_REACTORS
330
C
102
}
330
C
100
AcDbDictionary
281
     1
  3
2dWireframe
350
2F
  3
3D Hidden
350
31
  3
3dWireframe
350
30
  3
Basic
350
32
  3
Brighten
350
36
  3
ColorChange
350
3A
  3
Conceptual
350
34
  3
Dim
350
35
  3
Facepattern
350
39
  3
Flat
350
2B
  3
FlatWithEdges
350
2C
  3
Gouraud
350
2D
  3
GouraudWithEdges
350
2E
  3
Linepattern
350
38
  3
Realistic
350
33
  3
Thicken
350
37
  0
DICTIONARY
  5
5AC
102
{ACAD_REACTORS
330
C
102
}
330
C
100
AcDbDictionary
281
     1
  3
DIMASSOC
350
5AF
  3
HIDETEXT
350
5B0
  0
LAYOUT
  5
1E
102
{ACAD_REACTORS
330
1A
102
}
330
1A
100
AcDbPlotSettings
  1

  2
none_device
  4

  6

 40
0.0
 41
0.0
 42
0.0
 43
0.0
 44
0.0
 45
0.0
 46
0.0
 47
0.0
 48
0.0
 49
0.0
140
0.0
141
0.0
142
1.0
143
1.0
 70
   688
 72
     0
 73
     0
 74
     5
  7

 75
    16
147
1.0
148
0.0
149
0.0
100
AcDbLayout
  1
Layout1
 70
     1
 71
     1
 10
0.0
 20
0.0
 11
12.0
 21
9.0
 12
0.0
 22
0.0
 32
0.0
 14
1.00000000000000E+20
 24
1.00000000000000E+20
 34
1.00000000000000E+20
 15
-1.00000000000000E+20
 25
-1.00000000000000E+20
 35
-1.00000000000000E+20
146
0.0
 13
0.0
 23
0.0
 33
0.0
 16
1.0
 26
0.0
 36
0.0
 17
0.0
 27
1.0
 37
0.0
 76
     0
330
1B
  0
LAYOUT
  5
26
102
{ACAD_REACTORS
330
1A
102
}
330
1A
100
AcDbPlotSettings
  1

  2
none_device
  4

  6

 40
0.0
 41
0.0
 42
0.0
 43
0.0
 44
0.0
 45
0.0
 46
0.0
 47
0.0
 48
0.0
 49
0.0
140
0.0
141
0.0
142
1.0
143
1.0
 70
   688
 72
     0
 73
     0
 74
     5
  7

 75
    16
147
1.0
148
0.0
149
0.0
100
AcDbLayout
  1
Layout2
 70
     1
 71
     2
 10
0.0
 20
0.0
 11
0.0
 21
0.0
 12
0.0
 22
0.0
 32
0.0
 14
0.0
 24
0.0
 34
0.0
 15
0.0
 25
0.0
 35
0.0
146
0.0
 13
0.0
 23
0.0
 33
0.0
 16
1.0
 26
0.0
 36
0.0
 17
0.0
 27
1.0
 37
0.0
 76
     0
330
23
  0
LAYOUT
  5
22
102
{ACAD_REACTORS
330
1A
102
}
330
1A
100
AcDbPlotSettings
  1

  2
none_device
  4

  6

 40
0.0
 41
0.0
 42
0.0
 43
0.0
 44
0.0
 45
0.0
 46
0.0
 47
0.0
 48
0.0
 49
0.0
140
0.0
141
0.0
142
1.0
143
1.0
 70
  1712
 72
     0
 73
     0
 74
     0
  7

 75
     0
147
1.0
148
0.0
149
0.0
100
AcDbLayout
  1
Model
 70
     1
 71
     0
 10
0.0
 20
0.0
 11
12.0
 21
9.0
 12
0.0
 22
0.0
 32
0.0
 14
-347.009433055144
 24
74.76098474391286
 34
0.0
 15
-123.395750306887
 25
220.58008191821
 35
0.0
146
0.0
 13
0.0
 23
0.0
 33
0.0
 16
1.0
 26
0.0
 36
0.0
 17
0.0
 27
1.0
 37
0.0
 76
     0
330
1F
331
29
  0
MATERIAL
  5
3D
102
{ACAD_REACTORS
330
3B
102
}
102
{ACAD_XDICTIONARY
360
5D3
102
}
330
3B
100
AcDbMaterial
  1
ByBlock
  0
MATERIAL
  5
3C
102
{ACAD_REACTORS
330
3B
102
}
102
{ACAD_XDICTIONARY
360
5D1
102
}
330
3B
100
AcDbMaterial
  1
ByLayer
  0
MATERIAL
  5
3E
102
{ACAD_REACTORS
330
3B
102
}
102
{ACAD_XDICTIONARY
360
5D5
102
}
330
3B
100
AcDbMaterial
  1
Global
  0
MLINESTYLE
  5
18
102
{ACAD_REACTORS
330
17
102
}
330
17
100
AcDbMlineStyle
  2
Standard
 70
     0
  3

 62
   256
 51
90.0
 52
90.0
 71
     2
 49
0.5
 62
   256
  6
BYLAYER
 49
-0.5
 62
   256
  6
BYLAYER
  0
ACDBPLACEHOLDER
  5
F
102
{ACAD_REACTORS
330
E
102
}
330
E
  0
VISUALSTYLE
  5
2F
102
{ACAD_REACTORS
330
2A
102
}
102
{ACAD_XDICTIONARY
360
5B9
102
}
330
2A
100
AcDbVisualStyle
  2
2dWireframe
 70
     4
 71
     0
 72
     2
 73
     0
 90
        0
 40
-0.6
 41
-30.0
 62
     5
 63
     7
 74
     1
 91
        4
 64
     7
 65
   257
 75
     1
175
     1
 42
1.0
 92
        0
 66
   257
 43
1.0
 76
     1
 77
     6
 78
     2
 67
     7
 79
     5
170
     0
171
     0
290
     0
174
     0
 93
        1
 44
0.0
173
     0
291
     0
 45
0.0
1001
ACAD
1000
AcDbSavedByObjectVersion
1070
     0
  0
VISUALSTYLE
  5
31
102
{ACAD_REACTORS
330
2A
102
}
102
{ACAD_XDICTIONARY
360
5BD
102
}
330
2A
100
AcDbVisualStyle
  2
3D Hidden
 70
     6
 71
     1
 72
     2
 73
     2
 90
        0
 40
-0.6
 41
-30.0
 62
     5
 63
     7
 74
     2
 91
        2
 64
     7
 65
   257
 75
     2
175
     1
 42
40.0
 92
        0
 66
   257
 43
1.0
 76
     1
 77
     6
 78
     2
 67
     7
 79
     3
170
     0
171
     0
290
     0
174
     0
 93
        1
 44
0.0
173
     0
291
     0
 45
0.0
1001
ACAD
1000
AcDbSavedByObjectVersion
1070
     0
  0
VISUALSTYLE
  5
30
102
{ACAD_REACTORS
330
2A
102
}
102
{ACAD_XDICTIONARY
360
5BB
102
}
330
2A
100
AcDbVisualStyle
  2
3dWireframe
 70
     5
 71
     0
 72
     2
 73
     0
 90
        0
 40
-0.6
 41
-30.0
 62
     5
 63
     7
 74
     1
 91
        4
 64
     7
 65
   257
 75
     1
175
     1
 42
1.0
 92
        0
 66
   257
 43
1.0
 76
     1
 77
     6
 78
     2
 67
     7
 79
     5
170
     0
171
     0
290
     0
174
     0
 93
        1
 44
0.0
173
     0
291
     0
 45
0.0
1001
ACAD
1000
AcDbSavedByObjectVersion
1070
     0
  0
VISUALSTYLE
  5
32
102
{ACAD_REACTORS
330
2A
102
}
102
{ACAD_XDICTIONARY
360
5BF
102
}
330
2A
100
AcDbVisualStyle
  2
Basic
 70
     7
 71
     1
 72
     0
 73
     1
 90
        0
 40
-0.6
 41
-30.0
 62
     5
 63
     7
 74
     0
 91
        4
 64
     7
 65
   257
 75
     1
175
     1
 42
1.0
 92
        8
 66
     7
 43
1.0
 76
     1
 77
     6
 78
     2
 67
     7
 79
     5
170
     0
171
     0
290
     0
174
     0
 93
        1
 44
0.0
173
     0
291
     1
 45
0.0
1001
ACAD
1000
AcDbSavedByObjectVersion
1070
     0
  0
VISUALSTYLE
  5
36
102
{ACAD_REACTORS
330
2A
102
}
102
{ACAD_XDICTIONARY
360
5C7
102
}
330
2A
100
AcDbVisualStyle
  2
Brighten
 70
    12
 71
     2
 72
     2
 73
     0
 90
        0
 40
-0.6
 41
-30.0
 62
     5
 63
     7
 74
     1
 91
        4
 64
     7
 65
   257
 75
     1
175
     1
 42
1.0
 92
        8
 66
     7
 43
1.0
 76
     1
 77
     6
 78
     2
 67
     7
 79
     5
170
     0
171
     0
290
     0
174
     0
 93
        1
 44
50.0
173
     0
291
     1
 45
0.0
1001
ACAD
1000
AcDbSavedByObjectVersion
1070
     0
  0
VISUALSTYLE
  5
3A
102
{ACAD_REACTORS
330
2A
102
}
102
{ACAD_XDICTIONARY
360
5CF
102
}
330
2A
100
AcDbVisualStyle
  2
ColorChange
 70
    16
 71
     2
 72
     2
 73
     3
 90
        0
 40
-0.6
 41
-30.0
 62
     5
 63
     8
 74
     1
 91
        4
 64
     7
 65
   257
 75
     1
175
     1
 42
1.0
 92
        8
 66
     8
 43
1.0
 76
     1
 77
     6
 78
     2
 67
     7
 79
     5
170
     0
171
     0
290
     0
174
     0
 93
        1
 44
0.0
173
     0
291
     1
 45
0.0
1001
ACAD
1000
AcDbSavedByObjectVersion
1070
     0
  0
VISUALSTYLE
  5
34
102
{ACAD_REACTORS
330
2A
102
}
102
{ACAD_XDICTIONARY
360
5C3
102
}
330
2A
100
AcDbVisualStyle
  2
Conceptual
 70
     9
 71
     3
 72
     2
 73
     0
 90
        0
 40
-0.6
 41
-30.0
 62
     5
 63
     7
 74
     2
 91
        2
 64
     7
 65
   257
 75
     1
175
     1
 42
40.0
 92
        8
 66
     7
 43
1.0
 76
     1
 77
     6
 78
     2
 67
     7
 79
     3
170
     0
171
     0
290
     0
174
     0
 93
        1
 44
0.0
173
     0
291
     0
 45
0.0
1001
ACAD
1000
AcDbSavedByObjectVersion
1070
     0
  0
VISUALSTYLE
  5
35
102
{ACAD_REACTORS
330
2A
102
}
102
{ACAD_XDICTIONARY
360
5C5
102
}
330
2A
100
AcDbVisualStyle
  2
Dim
 70
    11
 71
     2
 72
     2
 73
     0
 90
        0
 40
-0.6
 41
-30.0
 62
     5
 63
     7
 74
     1
 91
        4
 64
     7
 65
   257
 75
     1
175
     1
 42
1.0
 92
        8
 66
     7
 43
1.0
 76
     1
 77
     6
 78
     2
 67
     7
 79
     5
170
     0
171
     0
290
     0
174
     0
 93
        1
 44
-50.0
173
     0
291
     1
 45
0.0
1001
ACAD
1000
AcDbSavedByObjectVersion
1070
     0
  0
VISUALSTYLE
  5
39
102
{ACAD_REACTORS
330
2A
102
}
102
{ACAD_XDICTIONARY
360
5CD
102
}
330
2A
100
AcDbVisualStyle
  2
Facepattern
 70
    15
 71
     2
 72
     2
 73
     0
 90
        0
 40
-0.6
 41
-30.0
 62
     5
 63
     7
 74
     1
 91
        4
 64
     7
 65
   257
 75
     1
175
     1
 42
1.0
 92
        8
 66
     7
 43
1.0
 76
     1
 77
     6
 78
     2
 67
     7
 79
     5
170
     0
171
     0
290
     0
174
     0
 93
        1
 44
0.0
173
     0
291
     1
 45
0.0
1001
ACAD
1000
AcDbSavedByObjectVersion
1070
     0
  0
VISUALSTYLE
  5
2B
102
{ACAD_REACTORS
330
2A
102
}
102
{ACAD_XDICTIONARY
360
5B1
102
}
330
2A
100
AcDbVisualStyle
  2
Flat
 70
     0
 71
     2
 72
     1
 73
     1
 90
        2
 40
-0.6
 41
30.0
 62
     5
 63
     7
 74
     0
 91
        4
 64
     7
 65
   257
 75
     1
175
     1
 42
1.0
 92
        8
 66
     7
 43
1.0
 76
     1
 77
     6
 78
     2
 67
     7
 79
     5
170
     0
171
     0
290
     0
174
     0
 93
       13
 44
0.0
173
     0
291
     1
 45
0.0
1001
ACAD
1000
AcDbSavedByObjectVersion
1070
     0
  0
VISUALSTYLE
  5
2C
102
{ACAD_REACTORS
330
2A
102
}
102
{ACAD_XDICTIONARY
360
5B3
102
}
330
2A
100
AcDbVisualStyle
  2
FlatWithEdges
 70
     1
 71
     2
 72
     1
 73
     1
 90
        2
 40
-0.6
 41
30.0
 62
     5
 63
     7
 74
     1
 91
        4
 64
     7
 65
   257
 75
     1
175
     1
 42
1.0
 92
        0
 66
   257
 43
1.0
 76
     1
 77
     6
 78
     2
 67
     7
 79
     5
170
     0
171
     0
290
     0
174
     0
 93
       13
 44
0.0
173
     0
291
     1
 45
0.0
1001
ACAD
1000
AcDbSavedByObjectVersion
1070
     0
  0
VISUALSTYLE
  5
2D
102
{ACAD_REACTORS
330
2A
102
}
102
{ACAD_XDICTIONARY
360
5B5
102
}
330
2A
100
AcDbVisualStyle
  2
Gouraud
 70
     2
 71
     2
 72
     2
 73
     1
 90
        2
 40
-0.6
 41
30.0
 62
     5
 63
     7
 74
     0
 91
        4
 64
     7
 65
   257
 75
     1
175
     1
 42
1.0
 92
        0
 66
     7
 43
1.0
 76
     1
 77
     6
 78
     2
 67
     7
 79
     5
170
     0
171
     0
290
     0
174
     0
 93
       13
 44
0.0
173
     0
291
     1
 45
0.0
1001
ACAD
1000
AcDbSavedByObjectVersion
1070
     0
  0
VISUALSTYLE
  5
2E
102
{ACAD_REACTORS
330
2A
102
}
102
{ACAD_XDICTIONARY
360
5B7
102
}
330
2A
100
AcDbVisualStyle
  2
GouraudWithEdges
 70
     3
 71
     2
 72
     2
 73
     1
 90
        2
 40
-0.6
 41
30.0
 62
     5
 63
     7
 74
     1
 91
        4
 64
     7
 65
   257
 75
     1
175
     1
 42
1.0
 92
        0
 66
   257
 43
1.0
 76
     1
 77
     6
 78
     2
 67
     7
 79
     5
170
     0
171
     0
290
     0
174
     0
 93
       13
 44
0.0
173
     0
291
     1
 45
0.0
1001
ACAD
1000
AcDbSavedByObjectVersion
1070
     0
  0
VISUALSTYLE
  5
38
102
{ACAD_REACTORS
330
2A
102
}
102
{ACAD_XDICTIONARY
360
5CB
102
}
330
2A
100
AcDbVisualStyle
  2
Linepattern
 70
    14
 71
     2
 72
     2
 73
     0
 90
        0
 40
-0.6
 41
-30.0
 62
     5
 63
     7
 74
     1
 91
        4
 64
     7
 65
   257
 75
     7
175
     7
 42
1.0
 92
        8
 66
     7
 43
1.0
 76
     1
 77
     6
 78
     2
 67
     7
 79
     5
170
     0
171
     0
290
     0
174
     0
 93
        1
 44
0.0
173
     0
291
     1
 45
0.0
1001
ACAD
1000
AcDbSavedByObjectVersion
1070
     0
  0
VISUALSTYLE
  5
33
102
{ACAD_REACTORS
330
2A
102
}
102
{ACAD_XDICTIONARY
360
5C1
102
}
330
2A
100
AcDbVisualStyle
  2
Realistic
 70
     8
 71
     2
 72
     2
 73
     0
 90
        0
 40
-0.6
 41
-30.0
 62
     5
 63
     7
 74
     1
 91
        0
 64
     7
 65
   257
 75
     1
175
     1
 42
1.0
 92
        8
 66
     8
 43
1.0
 76
     1
 77
     6
 78
     2
 67
     7
 79
     5
170
     0
171
     0
290
     0
174
     0
 93
       13
 44
0.0
173
     0
291
     0
 45
0.0
1001
ACAD
1000
AcDbSavedByObjectVersion
1070
     0
  0
VISUALSTYLE
  5
37
102
{ACAD_REACTORS
330
2A
102
}
102
{ACAD_XDICTIONARY
360
5C9
102
}
330
2A
100
AcDbVisualStyle
  2
Thicken
 70
    13
 71
     2
 72
     2
 73
     0
 90
        0
 40
-0.6
 41
-30.0
 62
     5
 63
     7
 74
     1
 91
        4
 64
     7
 65
   257
 75
     1
175
     1
 42
1.0
 92
       12
 66
     7
 43
1.0
 76
     1
 77
     6
 78
     2
 67
     7
 79
     5
170
     0
171
     0
290
     0
174
     0
 93
        1
 44
0.0
173
     0
291
     1
 45
0.0
1001
ACAD
1000
AcDbSavedByObjectVersion
1070
     0
  0
DICTIONARYVAR
  5
5AF
102
{ACAD_REACTORS
330
5AC
102
}
330
5AC
100
DictionaryVariables
280
     0
  1
2
  0
DICTIONARYVAR
  5
5B0
102
{ACAD_REACTORS
330
5AC
102
}
330
5AC
100
DictionaryVariables
280
     0
  1
1
  0
DICTIONARY
  5
5D3
330
3D
100
AcDbDictionary
280
     1
281
     1
  3
ACAD_XREC_ROUNDTRIP
360
5D4
  0
DICTIONARY
  5
5D1
330
3C
100
AcDbDictionary
280
     1
281
     1
  3
ACAD_XREC_ROUNDTRIP
360
5D2
  0
DICTIONARY
  5
5D5
330
3E
100
AcDbDictionary
280
     1
281
     1
  3
ACAD_XREC_ROUNDTRIP
360
5D6
  0
DICTIONARY
  5
5B9
330
2F
100
AcDbDictionary
280
     1
281
     1
  3
ACAD_XREC_ROUNDTRIP
360
5BA
  0
DICTIONARY
  5
5BD
330
31
100
AcDbDictionary
280
     1
281
     1
  3
ACAD_XREC_ROUNDTRIP
360
5BE
  0
DICTIONARY
  5
5BB
330
30
100
AcDbDictionary
280
     1
281
     1
  3
ACAD_XREC_ROUNDTRIP
360
5BC
  0
DICTIONARY
  5
5BF
330
32
100
AcDbDictionary
280
     1
281
     1
  3
ACAD_XREC_ROUNDTRIP
360
5C0
  0
DICTIONARY
  5
5C7
330
36
100
AcDbDictionary
280
     1
281
     1
  3
ACAD_XREC_ROUNDTRIP
360
5C8
  0
DICTIONARY
  5
5CF
330
3A
100
AcDbDictionary
280
     1
281
     1
  3
ACAD_XREC_ROUNDTRIP
360
5D0
  0
DICTIONARY
  5
5C3
330
34
100
AcDbDictionary
280
     1
281
     1
  3
ACAD_XREC_ROUNDTRIP
360
5C4
  0
DICTIONARY
  5
5C5
330
35
100
AcDbDictionary
280
     1
281
     1
  3
ACAD_XREC_ROUNDTRIP
360
5C6
  0
DICTIONARY
  5
5CD
330
39
100
AcDbDictionary
280
     1
281
     1
  3
ACAD_XREC_ROUNDTRIP
360
5CE
  0
DICTIONARY
  5
5B1
330
2B
100
AcDbDictionary
280
     1
281
     1
  3
ACAD_XREC_ROUNDTRIP
360
5B2
  0
DICTIONARY
  5
5B3
330
2C
100
AcDbDictionary
280
     1
281
     1
  3
ACAD_XREC_ROUNDTRIP
360
5B4
  0
DICTIONARY
  5
5B5
330
2D
100
AcDbDictionary
280
     1
281
     1
  3
ACAD_XREC_ROUNDTRIP
360
5B6
  0
DICTIONARY
  5
5B7
330
2E
100
AcDbDictionary
280
     1
281
     1
  3
ACAD_XREC_ROUNDTRIP
360
5B8
  0
DICTIONARY
  5
5CB
330
38
100
AcDbDictionary
280
     1
281
     1
  3
ACAD_XREC_ROUNDTRIP
360
5CC
  0
DICTIONARY
  5
5C1
330
33
100
AcDbDictionary
280
     1
281
     1
  3
ACAD_XREC_ROUNDTRIP
360
5C2
  0
DICTIONARY
  5
5C9
330
37
100
AcDbDictionary
280
     1
281
     1
  3
ACAD_XREC_ROUNDTRIP
360
5CA
  0
XRECORD
  5
5D4
102
{ACAD_REACTORS
330
5D3
102
}
330
5D3
100
AcDbXrecord
280
     1
102
MATERIAL
148
0.0
149
0.0
149
0.0
 93
        0
 94
      127
282
     0
 72
     1
 77
     1
171
     1
175
     1
179
     1
273
     0
  0
XRECORD
  5
5D2
102
{ACAD_REACTORS
330
5D1
102
}
330
5D1
100
AcDbXrecord
280
     1
102
MATERIAL
148
0.0
149
0.0
149
0.0
 93
        0
 94
      127
282
     0
 72
     1
 77
     1
171
     1
175
     1
179
     1
273
     0
  0
XRECORD
  5
5D6
102
{ACAD_REACTORS
330
5D5
102
}
330
5D5
100
AcDbXrecord
280
     1
102
MATERIAL
148
0.0
149
0.0
149
0.0
 93
        0
 94
      127
282
     0
 72
     1
 77
     1
171
     1
175
     1
179
     1
273
     0
  0
XRECORD
  5
5BA
102
{ACAD_REACTORS
330
5B9
102
}
330
5B9
100
AcDbXrecord
280
     1
102
RTVSPropertyOp0
 70
     1
102
RTVSPropertyOp1
 70
     1
102
RTVSPropertyOp2
 70
     1
102
RTVSPropertyOp3
 70
     1
102
RTVSPropertyOp4
 70
     1
102
RTVSPropertyOp5
 70
     1
102
RTVSPropertyOp6
 70
     1
102
RTVSPropertyOp7
 70
     1
102
RTVSPropertyOp8
 70
     1
102
RTVSPropertyOp9
 70
     1
102
RTVSPropertyOp10
 70
     1
102
RTVSPropertyOp11
 70
     1
102
RTVSPropertyOp12
 70
     1
102
RTVSPropertyOp13
 70
     1
102
RTVSPropertyOp14
 70
     1
102
RTVSPropertyOp15
 70
     1
102
RTVSPropertyOp16
 70
     1
102
RTVSPropertyOp17
 70
     1
102
RTVSPropertyOp18
 70
     1
102
RTVSPropertyOp19
 70
     1
102
RTVSPropertyOp20
 70
     1
102
RTVSPropertyOp21
 70
     1
102
RTVSPropertyOp22
 70
     1
102
RTVSPropertyOp23
 70
     1
102
RTVSPropertyOp24
 70
     1
102
RTVSPropertyOp25
 70
     1
102
RTVSPropertyOp26
 70
     1
102
RTVSPropertyOp27
 70
     1
102
RTVSPropertyOp28
 70
     1
102
RTVSPropertyOp29
 70
     1
102
RTVSPropertyOp30
 70
     1
102
RTVSPropertyOp31
 70
     1
102
RTVSPropertyOp32
 70
     1
  0
XRECORD
  5
5BE
102
{ACAD_REACTORS
330
5BD
102
}
330
5BD
100
AcDbXrecord
280
     1
102
RTVSPropertyOp0
 70
     1
102
RTVSPropertyOp1
 70
     1
102
RTVSPropertyOp2
 70
     1
102
RTVSPropertyOp3
 70
     1
102
RTVSPropertyOp4
 70
     1
102
RTVSPropertyOp5
 70
     1
102
RTVSPropertyOp6
 70
     1
102
RTVSPropertyOp7
 70
     1
102
RTVSPropertyOp8
 70
     1
102
RTVSPropertyOp9
 70
     1
102
RTVSPropertyOp10
 70
     1
102
RTVSPropertyOp11
 70
     1
102
RTVSPropertyOp12
 70
     1
102
RTVSPropertyOp13
 70
     1
102
RTVSPropertyOp14
 70
     1
102
RTVSPropertyOp15
 70
     1
102
RTVSPropertyOp16
 70
     1
102
RTVSPropertyOp17
 70
     1
102
RTVSPropertyOp18
 70
     1
102
RTVSPropertyOp19
 70
     1
102
RTVSPropertyOp20
 70
     1
102
RTVSPropertyOp21
 70
     1
102
RTVSPropertyOp22
 70
     1
102
RTVSPropertyOp23
 70
     1
102
RTVSPropertyOp24
 70
     1
102
RTVSPropertyOp25
 70
     1
102
RTVSPropertyOp26
 70
     1
102
RTVSPropertyOp27
 70
     1
102
RTVSPropertyOp28
 70
     1
102
RTVSPropertyOp29
 70
     1
102
RTVSPropertyOp30
 70
     1
102
RTVSPropertyOp31
 70
     1
102
RTVSPropertyOp32
 70
     1
  0
XRECORD
  5
5BC
102
{ACAD_REACTORS
330
5BB
102
}
330
5BB
100
AcDbXrecord
280
     1
102
RTVSPropertyOp0
 70
     1
102
RTVSPropertyOp1
 70
     1
102
RTVSPropertyOp2
 70
     1
102
RTVSPropertyOp3
 70
     1
102
RTVSPropertyOp4
 70
     1
102
RTVSPropertyOp5
 70
     1
102
RTVSPropertyOp6
 70
     1
102
RTVSPropertyOp7
 70
     1
102
RTVSPropertyOp8
 70
     1
102
RTVSPropertyOp9
 70
     1
102
RTVSPropertyOp10
 70
     1
102
RTVSPropertyOp11
 70
     1
102
RTVSPropertyOp12
 70
     1
102
RTVSPropertyOp13
 70
     1
102
RTVSPropertyOp14
 70
     1
102
RTVSPropertyOp15
 70
     1
102
RTVSPropertyOp16
 70
     1
102
RTVSPropertyOp17
 70
     1
102
RTVSPropertyOp18
 70
     1
102
RTVSPropertyOp19
 70
     1
102
RTVSPropertyOp20
 70
     1
102
RTVSPropertyOp21
 70
     1
102
RTVSPropertyOp22
 70
     1
102
RTVSPropertyOp23
 70
     1
102
RTVSPropertyOp24
 70
     1
102
RTVSPropertyOp25
 70
     1
102
RTVSPropertyOp26
 70
     1
102
RTVSPropertyOp27
 70
     1
102
RTVSPropertyOp28
 70
     1
102
RTVSPropertyOp29
 70
     1
102
RTVSPropertyOp30
 70
     1
102
RTVSPropertyOp31
 70
     1
102
RTVSPropertyOp32
 70
     1
  0
XRECORD
  5
5C0
102
{ACAD_REACTORS
330
5BF
102
}
330
5BF
100
AcDbXrecord
280
     1
102
RTVSPropertyOp0
 70
     1
102
RTVSPropertyOp1
 70
     1
102
RTVSPropertyOp2
 70
     1
102
RTVSPropertyOp3
 70
     1
102
RTVSPropertyOp4
 70
     1
102
RTVSPropertyOp5
 70
     1
102
RTVSPropertyOp6
 70
     1
102
RTVSPropertyOp7
 70
     1
102
RTVSPropertyOp8
 70
     1
102
RTVSPropertyOp9
 70
     1
102
RTVSPropertyOp10
 70
     1
102
RTVSPropertyOp11
 70
     1
102
RTVSPropertyOp12
 70
     1
102
RTVSPropertyOp13
 70
     1
102
RTVSPropertyOp14
 70
     1
102
RTVSPropertyOp15
 70
     1
102
RTVSPropertyOp16
 70
     1
102
RTVSPropertyOp17
 70
     1
102
RTVSPropertyOp18
 70
     1
102
RTVSPropertyOp19
 70
     1
102
RTVSPropertyOp20
 70
     1
102
RTVSPropertyOp21
 70
     1
102
RTVSPropertyOp22
 70
     1
102
RTVSPropertyOp23
 70
     1
102
RTVSPropertyOp24
 70
     1
102
RTVSPropertyOp25
 70
     1
102
RTVSPropertyOp26
 70
     1
102
RTVSPropertyOp27
 70
     1
102
RTVSPropertyOp28
 70
     1
102
RTVSPropertyOp29
 70
     1
102
RTVSPropertyOp30
 70
     1
102
RTVSPropertyOp31
 70
     1
102
RTVSPropertyOp32
 70
     1
  0
XRECORD
  5
5C8
102
{ACAD_REACTORS
330
5C7
102
}
330
5C7
100
AcDbXrecord
280
     1
102
RTVSPropertyOp0
 70
     1
102
RTVSPropertyOp1
 70
     1
102
RTVSPropertyOp2
 70
     1
102
RTVSPropertyOp3
 70
     1
102
RTVSPropertyOp4
 70
     1
102
RTVSPropertyOp5
 70
     1
102
RTVSPropertyOp6
 70
     1
102
RTVSPropertyOp7
 70
     1
102
RTVSPropertyOp8
 70
     1
102
RTVSPropertyOp9
 70
     1
102
RTVSPropertyOp10
 70
     1
102
RTVSPropertyOp11
 70
     1
102
RTVSPropertyOp12
 70
     1
102
RTVSPropertyOp13
 70
     1
102
RTVSPropertyOp14
 70
     1
102
RTVSPropertyOp15
 70
     1
102
RTVSPropertyOp16
 70
     1
102
RTVSPropertyOp17
 70
     1
102
RTVSPropertyOp18
 70
     1
102
RTVSPropertyOp19
 70
     1
102
RTVSPropertyOp20
 70
     1
102
RTVSPropertyOp21
 70
     1
102
RTVSPropertyOp22
 70
     1
102
RTVSPropertyOp23
 70
     1
102
RTVSPropertyOp24
 70
     1
102
RTVSPropertyOp25
 70
     1
102
RTVSPropertyOp26
 70
     1
102
RTVSPropertyOp27
 70
     1
102
RTVSPropertyOp28
 70
     1
102
RTVSPropertyOp29
 70
     1
102
RTVSPropertyOp30
 70
     1
102
RTVSPropertyOp31
 70
     1
102
RTVSPropertyOp32
 70
     1
  0
XRECORD
  5
5D0
102
{ACAD_REACTORS
330
5CF
102
}
330
5CF
100
AcDbXrecord
280
     1
102
RTVSPropertyOp0
 70
     1
102
RTVSPropertyOp1
 70
     1
102
RTVSPropertyOp2
 70
     1
102
RTVSPropertyOp3
 70
     1
102
RTVSPropertyOp4
 70
     1
102
RTVSPropertyOp5
 70
     1
102
RTVSPropertyOp6
 70
     1
102
RTVSPropertyOp7
 70
     1
102
RTVSPropertyOp8
 70
     1
102
RTVSPropertyOp9
 70
     1
102
RTVSPropertyOp10
 70
     1
102
RTVSPropertyOp11
 70
     1
102
RTVSPropertyOp12
 70
     1
102
RTVSPropertyOp13
 70
     1
102
RTVSPropertyOp14
 70
     1
102
RTVSPropertyOp15
 70
     1
102
RTVSPropertyOp16
 70
     1
102
RTVSPropertyOp17
 70
     1
102
RTVSPropertyOp18
 70
     1
102
RTVSPropertyOp19
 70
     1
102
RTVSPropertyOp20
 70
     1
102
RTVSPropertyOp21
 70
     1
102
RTVSPropertyOp22
 70
     1
102
RTVSPropertyOp23
 70
     1
102
RTVSPropertyOp24
 70
     1
102
RTVSPropertyOp25
 70
     1
102
RTVSPropertyOp26
 70
     1
102
RTVSPropertyOp27
 70
     1
102
RTVSPropertyOp28
 70
     1
102
RTVSPropertyOp29
 70
     1
102
RTVSPropertyOp30
 70
     1
102
RTVSPropertyOp31
 70
     1
102
RTVSPropertyOp32
 70
     1
  0
XRECORD
  5
5C4
102
{ACAD_REACTORS
330
5C3
102
}
330
5C3
100
AcDbXrecord
280
     1
102
RTVSPropertyOp0
 70
     1
102
RTVSPropertyOp1
 70
     1
102
RTVSPropertyOp2
 70
     1
102
RTVSPropertyOp3
 70
     1
102
RTVSPropertyOp4
 70
     1
102
RTVSPropertyOp5
 70
     1
102
RTVSPropertyOp6
 70
     1
102
RTVSPropertyOp7
 70
     1
102
RTVSPropertyOp8
 70
     1
102
RTVSPropertyOp9
 70
     1
102
RTVSPropertyOp10
 70
     1
102
RTVSPropertyOp11
 70
     1
102
RTVSPropertyOp12
 70
     1
102
RTVSPropertyOp13
 70
     1
102
RTVSPropertyOp14
 70
     1
102
RTVSPropertyOp15
 70
     1
102
RTVSPropertyOp16
 70
     1
102
RTVSPropertyOp17
 70
     1
102
RTVSPropertyOp18
 70
     1
102
RTVSPropertyOp19
 70
     1
102
RTVSPropertyOp20
 70
     1
102
RTVSPropertyOp21
 70
     1
102
RTVSPropertyOp22
 70
     1
102
RTVSPropertyOp23
 70
     1
102
RTVSPropertyOp24
 70
     1
102
RTVSPropertyOp25
 70
     1
102
RTVSPropertyOp26
 70
     1
102
RTVSPropertyOp27
 70
     1
102
RTVSPropertyOp28
 70
     1
102
RTVSPropertyOp29
 70
     1
102
RTVSPropertyOp30
 70
     1
102
RTVSPropertyOp31
 70
     1
102
RTVSPropertyOp32
 70
     1
  0
XRECORD
  5
5C6
102
{ACAD_REACTORS
330
5C5
102
}
330
5C5
100
AcDbXrecord
280
     1
102
RTVSPropertyOp0
 70
     1
102
RTVSPropertyOp1
 70
     1
102
RTVSPropertyOp2
 70
     1
102
RTVSPropertyOp3
 70
     1
102
RTVSPropertyOp4
 70
     1
102
RTVSPropertyOp5
 70
     1
102
RTVSPropertyOp6
 70
     1
102
RTVSPropertyOp7
 70
     1
102
RTVSPropertyOp8
 70
     1
102
RTVSPropertyOp9
 70
     1
102
RTVSPropertyOp10
 70
     1
102
RTVSPropertyOp11
 70
     1
102
RTVSPropertyOp12
 70
     1
102
RTVSPropertyOp13
 70
     1
102
RTVSPropertyOp14
 70
     1
102
RTVSPropertyOp15
 70
     1
102
RTVSPropertyOp16
 70
     1
102
RTVSPropertyOp17
 70
     1
102
RTVSPropertyOp18
 70
     1
102
RTVSPropertyOp19
 70
     1
102
RTVSPropertyOp20
 70
     1
102
RTVSPropertyOp21
 70
     1
102
RTVSPropertyOp22
 70
     1
102
RTVSPropertyOp23
 70
     1
102
RTVSPropertyOp24
 70
     1
102
RTVSPropertyOp25
 70
     1
102
RTVSPropertyOp26
 70
     1
102
RTVSPropertyOp27
 70
     1
102
RTVSPropertyOp28
 70
     1
102
RTVSPropertyOp29
 70
     1
102
RTVSPropertyOp30
 70
     1
102
RTVSPropertyOp31
 70
     1
102
RTVSPropertyOp32
 70
     1
  0
XRECORD
  5
5CE
102
{ACAD_REACTORS
330
5CD
102
}
330
5CD
100
AcDbXrecord
280
     1
102
RTVSPropertyOp0
 70
     1
102
RTVSPropertyOp1
 70
     1
102
RTVSPropertyOp2
 70
     1
102
RTVSPropertyOp3
 70
     1
102
RTVSPropertyOp4
 70
     1
102
RTVSPropertyOp5
 70
     1
102
RTVSPropertyOp6
 70
     1
102
RTVSPropertyOp7
 70
     1
102
RTVSPropertyOp8
 70
     1
102
RTVSPropertyOp9
 70
     1
102
RTVSPropertyOp10
 70
     1
102
RTVSPropertyOp11
 70
     1
102
RTVSPropertyOp12
 70
     1
102
RTVSPropertyOp13
 70
     1
102
RTVSPropertyOp14
 70
     1
102
RTVSPropertyOp15
 70
     1
102
RTVSPropertyOp16
 70
     1
102
RTVSPropertyOp17
 70
     1
102
RTVSPropertyOp18
 70
     1
102
RTVSPropertyOp19
 70
     1
102
RTVSPropertyOp20
 70
     1
102
RTVSPropertyOp21
 70
     1
102
RTVSPropertyOp22
 70
     1
102
RTVSPropertyOp23
 70
     1
102
RTVSPropertyOp24
 70
     1
102
RTVSPropertyOp25
 70
     1
102
RTVSPropertyOp26
 70
     1
102
RTVSPropertyOp27
 70
     1
102
RTVSPropertyOp28
 70
     1
102
RTVSPropertyOp29
 70
     1
102
RTVSPropertyOp30
 70
     1
102
RTVSPropertyOp31
 70
     1
102
RTVSPropertyOp32
 70
     1
  0
XRECORD
  5
5B2
102
{ACAD_REACTORS
330
5B1
102
}
330
5B1
100
AcDbXrecord
280
     1
102
RTVSPropertyOp0
 70
     1
102
RTVSPropertyOp1
 70
     1
102
RTVSPropertyOp2
 70
     1
102
RTVSPropertyOp3
 70
     1
102
RTVSPropertyOp4
 70
     1
102
RTVSPropertyOp5
 70
     1
102
RTVSPropertyOp6
 70
     1
102
RTVSPropertyOp7
 70
     1
102
RTVSPropertyOp8
 70
     1
102
RTVSPropertyOp9
 70
     1
102
RTVSPropertyOp10
 70
     1
102
RTVSPropertyOp11
 70
     1
102
RTVSPropertyOp12
 70
     1
102
RTVSPropertyOp13
 70
     1
102
RTVSPropertyOp14
 70
     1
102
RTVSPropertyOp15
 70
     1
102
RTVSPropertyOp16
 70
     1
102
RTVSPropertyOp17
 70
     1
102
RTVSPropertyOp18
 70
     1
102
RTVSPropertyOp19
 70
     1
102
RTVSPropertyOp20
 70
     1
102
RTVSPropertyOp21
 70
     1
102
RTVSPropertyOp22
 70
     1
102
RTVSPropertyOp23
 70
     1
102
RTVSPropertyOp24
 70
     1
102
RTVSPropertyOp25
 70
     1
102
RTVSPropertyOp26
 70
     1
102
RTVSPropertyOp27
 70
     1
102
RTVSPropertyOp28
 70
     1
102
RTVSPropertyOp29
 70
     1
102
RTVSPropertyOp30
 70
     1
102
RTVSPropertyOp31
 70
     1
102
RTVSPropertyOp32
 70
     1
  0
XRECORD
  5
5B4
102
{ACAD_REACTORS
330
5B3
102
}
330
5B3
100
AcDbXrecord
280
     1
102
RTVSPropertyOp0
 70
     1
102
RTVSPropertyOp1
 70
     1
102
RTVSPropertyOp2
 70
     1
102
RTVSPropertyOp3
 70
     1
102
RTVSPropertyOp4
 70
     1
102
RTVSPropertyOp5
 70
     1
102
RTVSPropertyOp6
 70
     1
102
RTVSPropertyOp7
 70
     1
102
RTVSPropertyOp8
 70
     1
102
RTVSPropertyOp9
 70
     1
102
RTVSPropertyOp10
 70
     1
102
RTVSPropertyOp11
 70
     1
102
RTVSPropertyOp12
 70
     1
102
RTVSPropertyOp13
 70
     1
102
RTVSPropertyOp14
 70
     1
102
RTVSPropertyOp15
 70
     1
102
RTVSPropertyOp16
 70
     1
102
RTVSPropertyOp17
 70
     1
102
RTVSPropertyOp18
 70
     1
102
RTVSPropertyOp19
 70
     1
102
RTVSPropertyOp20
 70
     1
102
RTVSPropertyOp21
 70
     1
102
RTVSPropertyOp22
 70
     1
102
RTVSPropertyOp23
 70
     1
102
RTVSPropertyOp24
 70
     1
102
RTVSPropertyOp25
 70
     1
102
RTVSPropertyOp26
 70
     1
102
RTVSPropertyOp27
 70
     1
102
RTVSPropertyOp28
 70
     1
102
RTVSPropertyOp29
 70
     1
102
RTVSPropertyOp30
 70
     1
102
RTVSPropertyOp31
 70
     1
102
RTVSPropertyOp32
 70
     1
  0
XRECORD
  5
5B6
102
{ACAD_REACTORS
330
5B5
102
}
330
5B5
100
AcDbXrecord
280
     1
102
RTVSPropertyOp0
 70
     1
102
RTVSPropertyOp1
 70
     1
102
RTVSPropertyOp2
 70
     1
102
RTVSPropertyOp3
 70
     1
102
RTVSPropertyOp4
 70
     1
102
RTVSPropertyOp5
 70
     1
102
RTVSPropertyOp6
 70
     1
102
RTVSPropertyOp7
 70
     1
102
RTVSPropertyOp8
 70
     1
102
RTVSPropertyOp9
 70
     1
102
RTVSPropertyOp10
 70
     1
102
RTVSPropertyOp11
 70
     1
102
RTVSPropertyOp12
 70
     1
102
RTVSPropertyOp13
 70
     1
102
RTVSPropertyOp14
 70
     1
102
RTVSPropertyOp15
 70
     1
102
RTVSPropertyOp16
 70
     1
102
RTVSPropertyOp17
 70
     1
102
RTVSPropertyOp18
 70
     1
102
RTVSPropertyOp19
 70
     1
102
RTVSPropertyOp20
 70
     1
102
RTVSPropertyOp21
 70
     1
102
RTVSPropertyOp22
 70
     1
102
RTVSPropertyOp23
 70
     1
102
RTVSPropertyOp24
 70
     1
102
RTVSPropertyOp25
 70
     1
102
RTVSPropertyOp26
 70
     1
102
RTVSPropertyOp27
 70
     1
102
RTVSPropertyOp28
 70
     1
102
RTVSPropertyOp29
 70
     1
102
RTVSPropertyOp30
 70
     1
102
RTVSPropertyOp31
 70
     1
102
RTVSPropertyOp32
 70
     1
  0
XRECORD
  5
5B8
102
{ACAD_REACTORS
330
5B7
102
}
330
5B7
100
AcDbXrecord
280
     1
102
RTVSPropertyOp0
 70
     1
102
RTVSPropertyOp1
 70
     1
102
RTVSPropertyOp2
 70
     1
102
RTVSPropertyOp3
 70
     1
102
RTVSPropertyOp4
 70
     1
102
RTVSPropertyOp5
 70
     1
102
RTVSPropertyOp6
 70
     1
102
RTVSPropertyOp7
 70
     1
102
RTVSPropertyOp8
 70
     1
102
RTVSPropertyOp9
 70
     1
102
RTVSPropertyOp10
 70
     1
102
RTVSPropertyOp11
 70
     1
102
RTVSPropertyOp12
 70
     1
102
RTVSPropertyOp13
 70
     1
102
RTVSPropertyOp14
 70
     1
102
RTVSPropertyOp15
 70
     1
102
RTVSPropertyOp16
 70
     1
102
RTVSPropertyOp17
 70
     1
102
RTVSPropertyOp18
 70
     1
102
RTVSPropertyOp19
 70
     1
102
RTVSPropertyOp20
 70
     1
102
RTVSPropertyOp21
 70
     1
102
RTVSPropertyOp22
 70
     1
102
RTVSPropertyOp23
 70
     1
102
RTVSPropertyOp24
 70
     1
102
RTVSPropertyOp25
 70
     1
102
RTVSPropertyOp26
 70
     1
102
RTVSPropertyOp27
 70
     1
102
RTVSPropertyOp28
 70
     1
102
RTVSPropertyOp29
 70
     1
102
RTVSPropertyOp30
 70
     1
102
RTVSPropertyOp31
 70
     1
102
RTVSPropertyOp32
 70
     1
  0
XRECORD
  5
5CC
102
{ACAD_REACTORS
330
5CB
102
}
330
5CB
100
AcDbXrecord
280
     1
102
RTVSPropertyOp0
 70
     1
102
RTVSPropertyOp1
 70
     1
102
RTVSPropertyOp2
 70
     1
102
RTVSPropertyOp3
 70
     1
102
RTVSPropertyOp4
 70
     1
102
RTVSPropertyOp5
 70
     1
102
RTVSPropertyOp6
 70
     1
102
RTVSPropertyOp7
 70
     1
102
RTVSPropertyOp8
 70
     1
102
RTVSPropertyOp9
 70
     1
102
RTVSPropertyOp10
 70
     1
102
RTVSPropertyOp11
 70
     1
102
RTVSPropertyOp12
 70
     1
102
RTVSPropertyOp13
 70
     1
102
RTVSPropertyOp14
 70
     1
102
RTVSPropertyOp15
 70
     1
102
RTVSPropertyOp16
 70
     1
102
RTVSPropertyOp17
 70
     1
102
RTVSPropertyOp18
 70
     1
102
RTVSPropertyOp19
 70
     1
102
RTVSPropertyOp20
 70
     1
102
RTVSPropertyOp21
 70
     1
102
RTVSPropertyOp22
 70
     1
102
RTVSPropertyOp23
 70
     1
102
RTVSPropertyOp24
 70
     1
102
RTVSPropertyOp25
 70
     1
102
RTVSPropertyOp26
 70
     1
102
RTVSPropertyOp27
 70
     1
102
RTVSPropertyOp28
 70
     1
102
RTVSPropertyOp29
 70
     1
102
RTVSPropertyOp30
 70
     1
102
RTVSPropertyOp31
 70
     1
102
RTVSPropertyOp32
 70
     1
  0
XRECORD
  5
5C2
102
{ACAD_REACTORS
330
5C1
102
}
330
5C1
100
AcDbXrecord
280
     1
102
RTVSPropertyOp0
 70
     1
102
RTVSPropertyOp1
 70
     1
102
RTVSPropertyOp2
 70
     1
102
RTVSPropertyOp3
 70
     1
102
RTVSPropertyOp4
 70
     1
102
RTVSPropertyOp5
 70
     1
102
RTVSPropertyOp6
 70
     1
102
RTVSPropertyOp7
 70
     1
102
RTVSPropertyOp8
 70
     1
102
RTVSPropertyOp9
 70
     1
102
RTVSPropertyOp10
 70
     1
102
RTVSPropertyOp11
 70
     1
102
RTVSPropertyOp12
 70
     1
102
RTVSPropertyOp13
 70
     1
102
RTVSPropertyOp14
 70
     1
102
RTVSPropertyOp15
 70
     1
102
RTVSPropertyOp16
 70
     1
102
RTVSPropertyOp17
 70
     1
102
RTVSPropertyOp18
 70
     1
102
RTVSPropertyOp19
 70
     1
102
RTVSPropertyOp20
 70
     1
102
RTVSPropertyOp21
 70
     1
102
RTVSPropertyOp22
 70
     1
102
RTVSPropertyOp23
 70
     1
102
RTVSPropertyOp24
 70
     1
102
RTVSPropertyOp25
 70
     1
102
RTVSPropertyOp26
 70
     1
102
RTVSPropertyOp27
 70
     1
102
RTVSPropertyOp28
 70
     1
102
RTVSPropertyOp29
 70
     1
102
RTVSPropertyOp30
 70
     1
102
RTVSPropertyOp31
 70
     1
102
RTVSPropertyOp32
 70
     1
  0
XRECORD
  5
5CA
102
{ACAD_REACTORS
330
5C9
102
}
330
5C9
100
AcDbXrecord
280
     1
102
RTVSPropertyOp0
 70
     1
102
RTVSPropertyOp1
 70
     1
102
RTVSPropertyOp2
 70
     1
102
RTVSPropertyOp3
 70
     1
102
RTVSPropertyOp4
 70
     1
102
RTVSPropertyOp5
 70
     1
102
RTVSPropertyOp6
 70
     1
102
RTVSPropertyOp7
 70
     1
102
RTVSPropertyOp8
 70
     1
102
RTVSPropertyOp9
 70
     1
102
RTVSPropertyOp10
 70
     1
102
RTVSPropertyOp11
 70
     1
102
RTVSPropertyOp12
 70
     1
102
RTVSPropertyOp13
 70
     1
102
RTVSPropertyOp14
 70
     1
102
RTVSPropertyOp15
 70
     1
102
RTVSPropertyOp16
 70
     1
102
RTVSPropertyOp17
 70
     1
102
RTVSPropertyOp18
 70
     1
102
RTVSPropertyOp19
 70
     1
102
RTVSPropertyOp20
 70
     1
102
RTVSPropertyOp21
 70
     1
102
RTVSPropertyOp22
 70
     1
102
RTVSPropertyOp23
 70
     1
102
RTVSPropertyOp24
 70
     1
102
RTVSPropertyOp25
 70
     1
102
RTVSPropertyOp26
 70
     1
102
RTVSPropertyOp27
 70
     1
102
RTVSPropertyOp28
 70
     1
102
RTVSPropertyOp29
 70
     1
102
RTVSPropertyOp30
 70
     1
102
RTVSPropertyOp31
 70
     1
102
RTVSPropertyOp32
 70
     1
  0
ENDSEC
  0
EOF
