  0
SECTION
  2
HEADER
  9
$ACADVER
  1
AC1009
  9
$INSBASE
 10
0
 20
0
  9
$EXTMIN
 10
1885.502310222965
 20
-2401.926466084626
  9
$EXTMAX
 10
2126.769285585507
 20
-2214.669091522939
  9
$LIMMIN
 10
1885.502310222965
 20
-2401.926466084626
  9
$LIMMAX
 10
2126.769285585507
 20
-2214.669091522939
  9
$VIEWCTR
 10
10
 20
10
  9
$VIEWSIZE
 40
10
  9
$SNAPMODE
 70
0
  9
$SNAPUNIT
 10
1
 20
1
  9
$SNAPBASE
 10
0
 20
0
  9
$SNAPANG
 50
0
  9
$SNAPSTYLE
 70
0
  9
$SNAPISOPAIR
 70
0
  9
$GRIDMODE
 70
0
  9
$GRIDUNIT
 10
0
 20
0
  9
$ORTHOMODE
 70
0
  9
$REGENMODE
 70
1
  9
$FILLMODE
 70
1
  9
$QTEXTMODE
 70
0
  9
$DRAGMODE
 70
2
  9
$LTSCALE
 40
1
  9
$OSMODE
 70
0
  9
$ATTMODE
 70
1
  9
$TEXTSIZE
 40
3.5
  9
$TRACEWID
 40
0.5
  9
$TEXTSTYLE
  7
STANDARD
  9
$CLAYER
  8
0
  9
$CELTYPE
  6
BYLAYER
  9
$CECOLOR
 62
256
  9
$DIMSCALE
 40
1
  9
$DIMASZ
 40
0.18
  9
$DIMEXO
 40
0.0625
  9
$DIMDLI
 40
0.38
  9
$DIMRND
 40
0
  9
$DIMDLE
 40
0
  9
$DIMEXE
 40
0.18
  9
$DIMTP
 40
0
  9
$DIMTM
 40
0
  9
$DIMTXT
 40
0.18
  9
$DIMCEN
 40
0.09
  9
$DIMTSZ
 40
0
  9
$DIMTOL
 70
0
  9
$DIMLIM
 70
0
  9
$DIMTIH
 70
1
  9
$DIMTOH
 70
1
  9
$DIMSE1
 70
0
  9
$DIMSE2
 70
0
  9
$DIMTAD
 70
0
  9
$DIMZIN
 70
0
  9
$DIMBLK
  1

  9
$DIMASO
 70
1
  9
$DIMSHO
 70
1
  9
$DIMPOST
  1

  9
$DIMAPOST
  1

  9
$DIMALT
 70
0
  9
$DIMALTD
 70
2
  9
$DIMALTF
 40
25.4
  9
$DIMLFAC
 40
1
  9
$DIMTOFL
 70
0
  9
$DIMTVP
 40
0
  9
$DIMTIX
 70
0
  9
$DIMSOXD
 70
0
  9
$DIMSAH
 70
0
  9
$DIMBLK1
  1

  9
$DIMBLK2
  1

  9
$DIMSTYLE
  2
*UNNAMED
  9
$DIMCLRD
 70
0
  9
$DIMCLRE
 70
0
  9
$DIMCLRT
 70
0
  9
$DIMTFAC
 40
1
  9
$DIMGAP
 40
0.09
  9
$LUNITS
 70
2
  9
$LUPREC
 70
4
  9
$AXISMODE
 70
0
  9
$AXISUNIT
 10
0
 20
0
  9
$SKETCHINC
 40
0.1
  9
$FILLETRAD
 40
2
  9
$AUNITS
 70
0
  9
$AUPREC
 70
0
  9
$MENU
  1
ACAD
  9
$ELEVATION
 40
0
  9
$THICKNESS
 40
0
  9
$VIEWDIR
 10
0
 20
0
 30
1
  9
$LIMCHECK
 70
0
  9
$BLIPMODE
 70
1
  9
$CHAMFERA
 40
0
  9
$CHAMFERB
 40
0
  9
$FASTZOOM
 70
1
  9
$SKPOLY
 70
0
  9
$ANGBASE
 50
0
  9
$ANGDIR
 70
0
  9
$PDMODE
 70
0
  9
$PDSIZE
 40
0
  9
$PLINEWID
 40
0
  9
$COORDS
 70
2
  0
ENDSEC
  0
SECTION
  2
TABLES
  0
TABLE
  2
DIMSTYLE
 70
8
  0
DIMSTYLE
  2
DMST_1
 70
0
  3

  4

  5

  6

  7

 40
1
 41
3.2
 42
1
 43
7
 44
1.5
 45
0
 46
0
 47
0
 48
0
140
3.2
141
0
142
0
143
25.4
144
1
145
0
146
1
147
0.09
 71
0
 72
0
 73
0
 74
0
 75
0
 76
0
 77
1
 78
9
170
0
171
2
172
0
173
0
174
0
175
0
176
2
177
2
178
2
  0
DIMSTYLE
  2
DMST_2
 70
0
  3

  4

  5

  6

  7

 40
1
 41
3.2
 42
1
 43
7
 44
1.5
 45
0
 46
0
 47
0.2
 48
0.2
140
3.2
141
0
142
0
143
25.4
144
1
145
0
146
0.6
147
0.09
 71
1
 72
0
 73
0
 74
0
 75
0
 76
0
 77
1
 78
9
170
0
171
2
172
0
173
0
174
0
175
0
176
2
177
2
178
2
  0
DIMSTYLE
  2
DMST_3
 70
0
  3
)
  4

  5

  6

  7

 40
1
 41
3.2
 42
1
 43
7
 44
1.5
 45
0
 46
0
 47
0
 48
0
140
3.2
141
0
142
0
143
25.4
144
1
145
0
146
1
147
0.09
 71
0
 72
0
 73
0
 74
0
 75
0
 76
0
 77
1
 78
9
170
0
171
2
172
0
173
0
174
0
175
0
176
2
177
2
178
2
  0
DIMSTYLE
  2
DMST_4
 70
0
  3

  4

  5

  6

  7

 40
1
 41
3.2
 42
1
 43
7
 44
1.5
 45
0
 46
0
 47
0.03
 48
0.03
140
3.2
141
0
142
0
143
25.4
144
1
145
0
146
0.6
147
0.09
 71
1
 72
0
 73
0
 74
0
 75
0
 76
0
 77
1
 78
9
170
0
171
2
172
0
173
0
174
0
175
0
176
2
177
2
178
2
  0
DIMSTYLE
  2
DMST_5
 70
0
  3

  4

  5

  6

  7

 40
1
 41
3.2
 42
1
 43
7
 44
1.5
 45
0
 46
0
 47
0
 48
0.02
140
3.2
141
0
142
0
143
25.4
144
1
145
0
146
0.6
147
0.09
 71
1
 72
0
 73
0
 74
0
 75
0
 76
0
 77
1
 78
9
170
0
171
2
172
0
173
0
174
0
175
0
176
2
177
2
178
2
  0
DIMSTYLE
  2
DMST_6
 70
0
  3

  4

  5

  6

  7

 40
1
 41
3.2
 42
1
 43
7
 44
1.5
 45
0
 46
0
 47
0.5
 48
0.5
140
3.2
141
0
142
0
143
25.4
144
1
145
0
146
0.6
147
0.09
 71
1
 72
0
 73
0
 74
0
 75
0
 76
0
 77
1
 78
9
170
0
171
2
172
0
173
0
174
0
175
0
176
2
177
2
178
2
  0
DIMSTYLE
  2
DMST_7
 70
0
  3

  4

  5

  6

  7

 40
1
 41
3.200000000000001
 42
1
 43
7
 44
1.5
 45
0
 46
0
 47
40
 48
0
140
3.200000000000001
141
0
142
0
143
25.4
144
1
145
0
146
0.6
147
0.09
 71
1
 72
0
 73
0
 74
0
 75
0
 76
0
 77
1
 78
9
170
0
171
2
172
0
173
0
174
0
175
0
176
2
177
2
178
2
  0
DIMSTYLE
  2
DMST_8
 70
0
  3
HOLE
  4

  5

  6

  7

 40
1
 41
3.2
 42
1
 43
7
 44
1.5
 45
0
 46
0
 47
0
 48
0
140
3.2
141
0
142
0
143
25.4
144
1
145
0
146
1
147
0.09
 71
0
 72
0
 73
1
 74
1
 75
0
 76
0
 77
1
 78
9
170
0
171
2
172
0
173
0
174
0
175
0
176
2
177
2
178
2
  0
ENDTAB
  0
TABLE
  2
LTYPE
 70
9
  0
LTYPE
  2
CONTINUOUS
 70
64
  3
Solid line
 72
65
 73
0
 40
0
  0
LTYPE
  2
BORDER
 70
64
  3
__ __ . __ __ .
 72
65
 73
6
 40
11.11097912853812
 49
3.174565465296606
 49
-1.587282732648303
 49
3.174565465296606
 49
-1.587282732648303
 49
0
 49
-1.587282732648303
  0
LTYPE
  2
CENTER
 70
64
  3
____ _ ____ _
 72
65
 73
4
 40
12.69826186118643
 49
7.936413663241516
 49
-1.587282732648303
 49
1.587282732648303
 49
-1.587282732648303
  0
LTYPE
  2
DASHDOT
 70
64
  3
__ . __ . __ .
 72
65
 73
4
 40
6.349130930593213
 49
3.174565465296606
 49
-1.587282732648303
 49
0
 49
-1.587282732648303
  0
LTYPE
  2
DASHED
 70
64
  3
__ __ __ __ __
 72
65
 73
2
 40
4.76184819794491
 49
3.174565465296606
 49
-1.587282732648303
  0
LTYPE
  2
DIVIDE
 70
64
  3
__ . . __ . . 
 72
65
 73
6
 40
7.936413663241516
 49
3.174565465296606
 49
-1.587282732648303
 49
0
 49
-1.587282732648303
 49
0
 49
-1.587282732648303
  0
LTYPE
  2
DOT
 70
64
  3
..............
 72
65
 73
4
 40
3.174565465296606
 49
0
 49
-1.587282732648303
 49
0
 49
-1.587282732648303
  0
LTYPE
  2
HIDDEN
 70
64
  3
_ _ _ _ _ _ _
 72
65
 73
2
 40
2.380924098972455
 49
1.587282732648303
 49
-0.7936413663241516
  0
LTYPE
  2
PHANTOM
 70
64
  3
_____ _ _ _____ _ _ 
 72
65
 73
6
 40
15.87282732648303
 49
7.936413663241516
 49
-1.587282732648303
 49
1.587282732648303
 49
-1.587282732648303
 49
1.587282732648303
 49
-1.587282732648303
  0
ENDTAB
  0
TABLE
  2
LAYER
 70
3
  0
LAYER
  2
1
 70
0
 62
7
  6
CONTINUOUS
  0
LAYER
  2
0
 70
0
 62
7
  6
CONTINUOUS
  0
ENDTAB
  0
TABLE
  2
STYLE
 70
4
  0
STYLE
  2
STANDARD
 70
0
 40
0
 41
1
 50
0
 71
0
 42
3.5
  3
txt
  4

  0
STYLE
  2
SIMPLEX
 70
0
 40
0
 41
1
 50
0
 71
0
 42
3.5
  3
simplex
  4

  0
STYLE
  2
COMPLEX
 70
0
 40
0
 41
1
 50
0
 71
0
 42
3.5
  3
complex
  4

  0
STYLE
  2
ITALIC
 70
0
 40
0
 41
1
 50
0
 71
0
 42
3.5
  3
italic
  4

  0
ENDTAB
  0
TABLE
  2
VIEW
 70
0
  0
ENDTAB
  0
ENDSEC
  0
SECTION
  2
BLOCKS
  0
BLOCK
  8
1
  2
*D0
 70
1
 10
0
 20
0
 30
0
  0
LINE
  8
1
 62
2
 10
2058.103406852685
 20
-2219.89953290356
 30
0
 11
2123.103406852685
 21
-2219.89953290356
 31
0
  0
LINE
  8
1
 62
2
 10
2123.103406852685
 20
-2239.259936242196
 30
0
 11
2123.103406852685
 21
-2218.39953290356
 31
0
  0
LINE
  8
1
 62
2
 10
2058.103406852685
 20
-2239.259936242196
 30
0
 11
2058.103406852685
 21
-2218.39953290356
 31
0
  0
SOLID
  8
1
 62
2
 10
2123.103406852685
 20
-2219.89953290356
 30
0
 11
2119.903406852685
 21
-2220.31553290356
 31
0
 12
2119.903406852685
 22
-2219.48353290356
 32
0
 13
2119.903406852685
 23
-2219.48353290356
 33
0
  0
SOLID
  8
1
 62
2
 10
2058.103406852685
 20
-2219.89953290356
 30
0
 11
2061.303406852685
 21
-2219.48353290356
 31
0
 12
2061.303406852685
 22
-2220.31553290356
 32
0
 13
2061.303406852685
 23
-2220.31553290356
 33
0
  0
TEXT
  8
1
 62
2
 10
2088.553430074629
 20
-2217.89953290356
 30
0
 40
3.2
  1
65
 41
0.9
  0
ENDBLK
  8
0
  0
BLOCK
  8
1
  2
*D1
 70
1
 10
0
 20
0
 30
0
  0
LINE
  8
1
 62
2
 10
2001.08572477855
 20
-2299.869091522939
 30
0
 11
2001.08572477855
 21
-2239.869091522939
 31
0
  0
LINE
  8
1
 62
2
 10
2067.103406852684
 20
-2239.869091522939
 30
0
 11
1999.58572477855
 21
-2239.869091522939
 31
0
  0
LINE
  8
1
 62
2
 10
2067.103406852684
 20
-2299.869091522939
 30
0
 11
1999.58572477855
 21
-2299.869091522939
 31
0
  0
SOLID
  8
1
 62
2
 10
2001.08572477855
 20
-2299.869091522939
 30
0
 11
2000.66972477855
 21
-2296.669091522939
 31
0
 12
2001.50172477855
 22
-2296.669091522939
 32
0
 13
2001.50172477855
 23
-2296.669091522939
 33
0
  0
SOLID
  8
1
 62
2
 10
2001.08572477855
 20
-2239.869091522939
 30
0
 11
2001.50172477855
 21
-2243.069091522939
 31
0
 12
2000.66972477855
 22
-2243.069091522939
 32
0
 13
2000.66972477855
 23
-2243.069091522939
 33
0
  0
TEXT
  8
1
 62
2
 10
1998.232391445216
 20
-2271.309775506566
 30
0
 40
3.2
  1
60
 50
90
 41
0.9
  0
TEXT
  8
1
 62
2
 10
1998.232391445216
 20
-2275.356834330095
 30
0
 40
3.2
  1
φ
 50
90
 41
0.9
  0
ENDBLK
  8
0
  0
BLOCK
  8
1
  2
*D2
 70
1
 10
0
 20
0
 30
0
  0
LINE
  8
1
 62
2
 10
2058.103406852684
 20
-2308.19062643386
 30
0
 11
2046.158749748738
 21
-2308.19062643386
 31
0
  0
LINE
  8
1
 62
2
 10
2058.103406852684
 20
-2308.19062643386
 30
0
 11
2063.103406852684
 21
-2308.19062643386
 31
0
  0
LINE
  8
1
 62
2
 10
2069.503406852684
 20
-2308.19062643386
 30
0
 11
2063.103406852684
 21
-2308.19062643386
 31
0
  0
LINE
  8
1
 62
2
 10
2063.103406852684
 20
-2300.792347336893
 30
0
 11
2063.103406852684
 21
-2309.69062643386
 31
0
  0
LINE
  8
1
 62
2
 10
2058.103406852684
 20
-2300.478246803681
 30
0
 11
2058.103406852684
 21
-2309.69062643386
 31
0
  0
SOLID
  8
1
 62
2
 10
2058.103406852684
 20
-2308.19062643386
 30
0
 11
2054.903406852684
 21
-2308.60662643386
 31
0
 12
2054.903406852684
 22
-2307.77462643386
 32
0
 13
2054.903406852684
 23
-2307.77462643386
 33
0
  0
SOLID
  8
1
 62
2
 10
2063.103406852684
 20
-2308.19062643386
 30
0
 11
2066.303406852684
 21
-2307.77462643386
 31
0
 12
2066.303406852684
 22
-2308.60662643386
 32
0
 13
2066.303406852684
 23
-2308.60662643386
 33
0
  0
TEXT
  8
1
 62
2
 10
2046.158749748738
 20
-2306.19062643386
 30
0
 40
3.2
  1
5
 41
0.9
  0
TEXT
  8
1
 62
2
 10
2049.678749748738
 20
-2305.55062643386
 30
0
 40
1.92
  1
%%p0.2
 41
0.9
  0
ENDBLK
  8
0
  0
BLOCK
  8
1
  2
*D3
 70
1
 10
0
 20
0
 30
0
  0
LINE
  8
1
 62
2
 10
1890.702310222965
 20
-2299.869091522939
 30
0
 11
1890.702310222965
 21
-2293.469091522939
 31
0
  0
LINE
  8
1
 62
2
 10
1890.702310222965
 20
-2306.269091522941
 30
0
 11
1890.702310222965
 21
-2312.669091522941
 31
0
  0
LINE
  8
1
 62
2
 10
1890.702310222965
 20
-2306.269091522941
 30
0
 11
1890.702310222965
 21
-2299.869091522939
 31
0
  0
LINE
  8
1
 62
2
 10
1901.827238704238
 20
-2299.869091522939
 30
0
 11
1889.202310222965
 21
-2299.869091522939
 31
0
  0
LINE
  8
1
 62
2
 10
1913.327238704239
 20
-2306.269091522941
 30
0
 11
1889.202310222965
 21
-2306.269091522941
 31
0
  0
SOLID
  8
1
 62
2
 10
1890.702310222965
 20
-2299.869091522939
 30
0
 11
1890.286310222965
 21
-2296.669091522939
 31
0
 12
1891.118310222965
 22
-2296.669091522939
 32
0
 13
1891.118310222965
 23
-2296.669091522939
 33
0
  0
SOLID
  8
1
 62
2
 10
1890.702310222965
 20
-2306.269091522941
 30
0
 11
1891.118310222965
 21
-2309.469091522941
 31
0
 12
1890.286310222965
 22
-2309.469091522941
 32
0
 13
1890.286310222965
 23
-2309.469091522941
 33
0
  0
TEXT
  8
1
 62
2
 10
1888.702310222965
 20
-2304.19246808847
 30
0
 40
3.2
  1
6.4
 50
90
 41
0.9
  0
TEXT
  8
1
 62
2
 10
1888.702310222965
 20
-2310.037173970824
 30
0
 40
3.2
  1
※(
 50
90
 41
0.9
  0
TEXT
  8
1
 62
2
 10
1888.702310222965
 20
-2296.592468088471
 30
0
 40
3.2
  1
)
 50
90
 41
0.9
  0
ENDBLK
  8
0
  0
BLOCK
  8
1
  2
*D4
 70
1
 10
0
 20
0
 30
0
  0
LINE
  8
1
 62
2
 10
2014.103406852684
 20
-2288.919091522939
 30
0
 11
2014.103406852684
 21
-2250.819091522939
 31
0
  0
LINE
  8
1
 62
2
 10
2055.676740186017
 20
-2288.919091522939
 30
0
 11
2012.603406852684
 21
-2288.919091522939
 31
0
  0
LINE
  8
1
 62
2
 10
2055.676740186017
 20
-2250.819091522939
 30
0
 11
2012.603406852684
 21
-2250.819091522939
 31
0
  0
SOLID
  8
1
 62
2
 10
2014.103406852684
 20
-2250.819091522939
 30
0
 11
2014.519406852684
 21
-2254.019091522939
 31
0
 12
2013.687406852684
 22
-2254.019091522939
 32
0
 13
2013.687406852684
 23
-2254.019091522939
 33
0
  0
SOLID
  8
1
 62
2
 10
2014.103406852684
 20
-2288.919091522939
 30
0
 11
2013.687406852684
 21
-2285.719091522939
 31
0
 12
2014.519406852684
 22
-2285.719091522939
 32
0
 13
2014.519406852684
 23
-2285.719091522939
 33
0
  0
TEXT
  8
1
 62
2
 10
2011.250073519351
 20
-2275.821654200525
 30
0
 40
3.2
  1
38.1
 50
90
 41
0.9
  0
TEXT
  8
1
 62
2
 10
2010.61007351935
 20
-2266.301654200525
 30
0
 40
1.92
  1
%%p0.03
 50
90
 41
0.9
  0
TEXT
  8
1
 62
2
 10
2011.250073519351
 20
-2279.868713024055
 30
0
 40
3.2
  1
φ
 50
90
 41
0.9
  0
ENDBLK
  8
0
  0
BLOCK
  8
1
  2
*D5
 70
1
 10
0
 20
0
 30
0
  0
LINE
  8
1
 62
2
 10
2027.503406852684
 20
-2266.694091522939
 30
0
 11
2027.503406852684
 21
-2260.294091522939
 31
0
  0
LINE
  8
1
 62
2
 10
2027.503406852684
 20
-2273.044091522939
 30
0
 11
2027.503406852684
 21
-2279.444091522939
 31
0
  0
LINE
  8
1
 62
2
 10
2027.503406852684
 20
-2273.044091522939
 30
0
 11
2027.503406852684
 21
-2266.694091522939
 31
0
  0
LINE
  8
1
 62
2
 10
2037.003406852684
 20
-2266.694091522939
 30
0
 11
2026.003406852684
 21
-2266.694091522939
 31
0
  0
LINE
  8
1
 62
2
 10
2037.003406852684
 20
-2273.044091522939
 30
0
 11
2026.003406852684
 21
-2273.044091522939
 31
0
  0
SOLID
  8
1
 62
2
 10
2027.503406852684
 20
-2266.694091522939
 30
0
 11
2027.087406852684
 21
-2263.49409152294
 31
0
 12
2027.919406852684
 22
-2263.49409152294
 32
0
 13
2027.919406852684
 23
-2263.49409152294
 33
0
  0
SOLID
  8
1
 62
2
 10
2027.503406852684
 20
-2273.044091522939
 30
0
 11
2027.919406852684
 21
-2276.244091522939
 31
0
 12
2027.087406852684
 22
-2276.244091522939
 32
0
 13
2027.087406852684
 23
-2276.244091522939
 33
0
  0
TEXT
  8
1
 62
2
 10
2024.65007351935
 20
-2276.422385207096
 30
0
 40
3.2
  1
6.35
 50
90
 41
0.9
  0
TEXT
  8
1
 62
2
 10
2022.57007351935
 20
-2265.942385207096
 30
0
 40
1.92
  1
 0
 50
90
 41
0.9
  0
TEXT
  8
1
 62
2
 10
2025.45007351935
 20
-2265.942385207096
 30
0
 40
1.92
  1
-0.02
 50
90
 41
0.9
  0
TEXT
  8
1
 62
2
 10
2024.65007351935
 20
-2280.469444030626
 30
0
 40
3.2
  1
φ
 50
90
 41
0.9
  0
ENDBLK
  8
0
  0
BLOCK
  8
1
  2
*D6
 70
1
 10
0
 20
0
 30
0
  0
LINE
  8
1
 62
2
 10
2058.103406852684
 20
-2229.869091522939
 30
0
 11
2064.503406852684
 21
-2229.869091522939
 31
0
  0
LINE
  8
1
 62
2
 10
2056.503406852684
 20
-2229.869091522939
 30
0
 11
2050.103406852684
 21
-2229.869091522939
 31
0
  0
LINE
  8
1
 62
2
 10
2056.503406852684
 20
-2229.869091522939
 30
0
 11
2058.103406852684
 21
-2229.869091522939
 31
0
  0
LINE
  8
1
 62
2
 10
2058.103406852684
 20
-2239.259936242196
 30
0
 11
2058.103406852684
 21
-2228.369091522939
 31
0
  0
LINE
  8
1
 62
2
 10
2056.503406852684
 20
-2249.919091522939
 30
0
 11
2056.503406852684
 21
-2228.369091522939
 31
0
  0
SOLID
  8
1
 62
2
 10
2058.103406852684
 20
-2229.869091522939
 30
0
 11
2061.303406852684
 21
-2229.453091522939
 31
0
 12
2061.303406852684
 22
-2230.285091522939
 32
0
 13
2061.303406852684
 23
-2230.285091522939
 33
0
  0
SOLID
  8
1
 62
2
 10
2056.503406852684
 20
-2229.869091522939
 30
0
 11
2053.303406852684
 21
-2230.285091522939
 31
0
 12
2053.303406852684
 22
-2229.453091522939
 32
0
 13
2053.303406852684
 23
-2229.453091522939
 33
0
  0
TEXT
  8
1
 62
2
 10
2045.272903293915
 20
-2227.869091522939
 30
0
 40
3.2
  1
1.6
 41
0.9
  0
TEXT
  8
1
 62
2
 10
2051.912903293915
 20
-2227.229091522939
 30
0
 40
1.92
  1
%%p0.2
 41
0.9
  0
ENDBLK
  8
0
  0
BLOCK
  8
1
  2
*D7
 70
1
 10
0
 20
0
 30
0
  0
LINE
  8
1
 62
2
 10
2037.503406852684
 20
-2219.869091522939
 30
0
 11
2058.103406852684
 21
-2219.869091522939
 31
0
  0
LINE
  8
1
 62
2
 10
2058.103406852684
 20
-2239.259936242196
 30
0
 11
2058.103406852684
 21
-2218.369091522939
 31
0
  0
LINE
  8
1
 62
2
 10
2037.503406852684
 20
-2266.194091522939
 30
0
 11
2037.503406852684
 21
-2218.369091522939
 31
0
  0
SOLID
  8
1
 62
2
 10
2058.103406852684
 20
-2219.869091522939
 30
0
 11
2054.903406852684
 21
-2220.285091522939
 31
0
 12
2054.903406852684
 22
-2219.453091522939
 32
0
 13
2054.903406852684
 23
-2219.453091522939
 33
0
  0
SOLID
  8
1
 62
2
 10
2037.503406852684
 20
-2219.869091522939
 30
0
 11
2040.703406852684
 21
-2219.453091522939
 31
0
 12
2040.703406852684
 22
-2220.285091522939
 32
0
 13
2040.703406852684
 23
-2220.285091522939
 33
0
  0
TEXT
  8
1
 62
2
 10
2040.839284309633
 20
-2217.869091522939
 30
0
 40
3.2
  1
20.6
 41
0.9
  0
TEXT
  8
1
 62
2
 10
2051.319284309633
 20
-2217.229091522939
 30
0
 40
1.92
  1
%%p0.5
 41
0.9
  0
ENDBLK
  8
0
  0
BLOCK
  8
1
  2
*D8
 70
1
 10
0
 20
0
 30
0
  0
LINE
  8
1
 62
2
 10
1976.327238704239
 20
-2299.869091522939
 30
0
 11
1976.327238704239
 21
-2239.869091522939
 31
0
  0
LINE
  8
1
 62
2
 10
1950.82723870424
 20
-2299.869091522939
 30
0
 11
1977.827238704239
 21
-2299.869091522939
 31
0
  0
LINE
  8
1
 62
2
 10
1950.82723870424
 20
-2239.869091522939
 30
0
 11
1977.827238704239
 21
-2239.869091522939
 31
0
  0
SOLID
  8
1
 62
2
 10
1976.327238704239
 20
-2239.869091522939
 30
0
 11
1976.743238704239
 21
-2243.069091522939
 31
0
 12
1975.911238704239
 22
-2243.069091522939
 32
0
 13
1975.911238704239
 23
-2243.069091522939
 33
0
  0
SOLID
  8
1
 62
2
 10
1976.327238704239
 20
-2299.869091522939
 30
0
 11
1975.911238704239
 21
-2296.669091522939
 31
0
 12
1976.743238704239
 22
-2296.669091522939
 32
0
 13
1976.743238704239
 23
-2296.669091522939
 33
0
  0
TEXT
  8
1
 62
2
 10
1974.327238704239
 20
-2272.385154812156
 30
0
 40
3.2
  1
60
 50
90
 41
0.9
  0
TEXT
  8
1
 62
2
 10
1974.327238704239
 20
-2274.465154812156
 30
0
 40
3.2
  1
(
 50
90
 41
0.9
  0
TEXT
  8
1
 62
2
 10
1974.327238704239
 20
-2265.985154812156
 30
0
 40
3.2
  1
)
 50
90
 41
0.9
  0
ENDBLK
  8
0
  0
BLOCK
  8
1
  2
*D9
 70
1
 10
0
 20
0
 30
0
  0
LINE
  8
1
 62
2
 10
1966.327238704239
 20
-2293.43909152294
 30
0
 11
1966.327238704239
 21
-2246.299091522938
 31
0
  0
LINE
  8
1
 62
2
 10
1954.670352476691
 20
-2293.43909152294
 30
0
 11
1967.827238704239
 21
-2293.43909152294
 31
0
  0
LINE
  8
1
 62
2
 10
1954.670352476691
 20
-2246.299091522938
 30
0
 11
1967.827238704239
 21
-2246.299091522938
 31
0
  0
SOLID
  8
1
 62
2
 10
1966.327238704239
 20
-2246.299091522938
 30
0
 11
1966.743238704239
 21
-2249.499091522937
 31
0
 12
1965.911238704239
 22
-2249.499091522937
 32
0
 13
1965.911238704239
 23
-2249.499091522937
 33
0
  0
SOLID
  8
1
 62
2
 10
1966.327238704239
 20
-2293.43909152294
 30
0
 11
1965.911238704239
 21
-2290.23909152294
 31
0
 12
1966.743238704239
 22
-2290.23909152294
 32
0
 13
1966.743238704239
 23
-2290.23909152294
 33
0
  0
TEXT
  8
1
 62
2
 10
1964.327238704239
 20
-2278.731856893469
 30
0
 40
3.2
  1
47.14
 50
90
 41
0.9
  0
TEXT
  8
1
 62
2
 10
1963.687238704239
 20
-2266.331856893469
 30
0
 40
1.92
  1
%%p0.2
 50
90
 41
0.9
  0
ENDBLK
  8
0
  0
BLOCK
  8
1
  2
*D10
 70
1
 10
0
 20
0
 30
0
  0
LINE
  8
1
 62
2
 10
1902.757238704238
 20
-2229.869091522939
 30
0
 11
1949.897238704239
 21
-2229.869091522939
 31
0
  0
LINE
  8
1
 62
2
 10
1902.757238704238
 20
-2241.525977750487
 30
0
 11
1902.757238704238
 21
-2228.369091522939
 31
0
  0
LINE
  8
1
 62
2
 10
1949.897238704239
 20
-2241.525977750488
 30
0
 11
1949.897238704239
 21
-2228.369091522939
 31
0
  0
SOLID
  8
1
 62
2
 10
1902.757238704238
 20
-2229.869091522939
 30
0
 11
1905.957238704238
 21
-2229.453091522939
 31
0
 12
1905.957238704238
 22
-2230.285091522939
 32
0
 13
1905.957238704238
 23
-2230.285091522939
 33
0
  0
SOLID
  8
1
 62
2
 10
1949.897238704239
 20
-2229.869091522939
 30
0
 11
1946.697238704239
 21
-2230.285091522939
 31
0
 12
1946.697238704239
 22
-2229.453091522939
 32
0
 13
1946.697238704239
 23
-2229.453091522939
 33
0
  0
TEXT
  8
1
 62
2
 10
1917.868483407856
 20
-2227.869091522939
 30
0
 40
3.2
  1
47.14
 41
0.9
  0
TEXT
  8
1
 62
2
 10
1930.268483407856
 20
-2227.229091522939
 30
0
 40
1.92
  1
%%p0.2
 41
0.9
  0
ENDBLK
  8
0
  0
BLOCK
  8
1
  2
*D11
 70
1
 10
0
 20
0
 30
0
  0
LINE
  8
1
 62
2
 10
1896.327238704238
 20
-2219.869091522939
 30
0
 11
1956.32723870424
 21
-2219.869091522939
 31
0
  0
LINE
  8
1
 62
2
 10
1896.327238704238
 20
-2245.36909152294
 30
0
 11
1896.327238704238
 21
-2218.369091522939
 31
0
  0
LINE
  8
1
 62
2
 10
1956.32723870424
 20
-2245.36909152294
 30
0
 11
1956.32723870424
 21
-2218.369091522939
 31
0
  0
SOLID
  8
1
 62
2
 10
1896.327238704238
 20
-2219.869091522939
 30
0
 11
1899.527238704238
 21
-2219.453091522939
 31
0
 12
1899.527238704238
 22
-2220.285091522939
 32
0
 13
1899.527238704238
 23
-2220.285091522939
 33
0
  0
SOLID
  8
1
 62
2
 10
1956.32723870424
 20
-2219.869091522939
 30
0
 11
1953.12723870424
 21
-2220.285091522939
 31
0
 12
1953.12723870424
 22
-2219.453091522939
 32
0
 13
1953.12723870424
 23
-2219.453091522939
 33
0
  0
TEXT
  8
1
 62
2
 10
1923.818147721728
 20
-2217.869091522939
 30
0
 40
3.2
  1
60
 41
0.9
  0
TEXT
  8
1
 62
2
 10
1921.738147721728
 20
-2217.869091522939
 30
0
 40
3.2
  1
(
 41
0.9
  0
TEXT
  8
1
 62
2
 10
1930.218147721728
 20
-2217.869091522939
 30
0
 40
3.2
  1
)
 41
0.9
  0
ENDBLK
  8
0
  0
BLOCK
  8
1
  2
*D12
 70
1
 10
0
 20
0
 30
0
  0
LINE
  8
1
 62
2
 10
1975.998240437976
 20
-2377.117071793533
 30
0
 11
1985.998240437976
 21
-2377.117071793533
 31
0
  0
LINE
  8
1
 62
2
 10
1985.998240437976
 20
-2384.026466084626
 30
0
 11
1985.998240437976
 21
-2375.617071793533
 31
0
  0
LINE
  8
1
 62
2
 10
1975.998240437976
 20
-2384.026466084626
 30
0
 11
1975.998240437976
 21
-2375.617071793533
 31
0
  0
SOLID
  8
1
 62
2
 10
1975.998240437976
 20
-2377.117071793533
 30
0
 11
1979.198240437976
 21
-2376.701071793533
 31
0
 12
1979.198240437976
 22
-2377.533071793533
 32
0
 13
1979.198240437976
 23
-2377.533071793533
 33
0
  0
SOLID
  8
1
 62
2
 10
1985.998240437976
 20
-2377.117071793533
 30
0
 11
1982.798240437976
 21
-2377.533071793533
 31
0
 12
1982.798240437976
 22
-2376.701071793533
 32
0
 13
1982.798240437976
 23
-2376.701071793533
 33
0
  0
TEXT
  8
1
 62
2
 10
1978.842677687332
 20
-2375.117071793533
 30
0
 40
3.200000000000001
  1
10
 41
0.9
  0
TEXT
  8
1
 62
2
 10
1976.762677687332
 20
-2375.117071793533
 30
0
 40
3.200000000000001
  1
(
 41
0.9
  0
TEXT
  8
1
 62
2
 10
1984.282677687332
 20
-2375.117071793533
 30
0
 40
3.200000000000001
  1
)
 41
0.9
  0
ENDBLK
  8
0
  0
BLOCK
  8
1
  2
*D13
 70
1
 10
0
 20
0
 30
0
  0
LINE
  8
1
 62
2
 10
1917.939311230291
 20
-2369.214984301629
 30
0
 11
1985.998240437976
 21
-2369.214984301629
 31
0
  0
LINE
  8
1
 62
2
 10
1985.998240437976
 20
-2384.026466084626
 30
0
 11
1985.998240437976
 21
-2367.714984301629
 31
0
  0
LINE
  8
1
 62
2
 10
1917.939311230291
 20
-2376.426466084626
 30
0
 11
1917.939311230291
 21
-2367.714984301629
 31
0
  0
SOLID
  8
1
 62
2
 10
1917.939311230291
 20
-2369.214984301629
 30
0
 11
1921.139311230291
 21
-2368.798984301629
 31
0
 12
1921.139311230291
 22
-2369.630984301629
 32
0
 13
1921.139311230291
 23
-2369.630984301629
 33
0
  0
SOLID
  8
1
 62
2
 10
1985.998240437976
 20
-2369.214984301629
 30
0
 11
1982.798240437976
 21
-2369.630984301629
 31
0
 12
1982.798240437976
 22
-2368.798984301629
 32
0
 13
1982.798240437976
 23
-2368.798984301629
 33
0
  0
TEXT
  8
1
 62
2
 10
1944.281849592692
 20
-2366.414984301629
 30
0
 40
3.200000000000001
  1
300
 41
0.9
  0
TEXT
  8
1
 62
2
 10
1953.561849592692
 20
-2364.334984301629
 30
0
 40
1.920000000000001
  1
+40
 41
0.9
  0
TEXT
  8
1
 62
2
 10
1953.561849592692
 20
-2367.214984301629
 30
0
 40
1.920000000000001
  1
 0
 41
0.9
  0
ENDBLK
  8
0
  0
BLOCK
  8
1
  2
*D14
 70
1
 10
0
 20
0
 30
0
  0
LINE
  8
1
 62
2
 10
1951.303348145734
 20
-2244.232002691142
 30
0
 11
1961.88497870328
 21
-2228.6761933763
 31
0
  0
LINE
  8
1
 62
2
 10
1961.88497870328
 20
-2228.6761933763
 30
0
 11
1995.48497870328
 21
-2228.6761933763
 31
0
  0
SOLID
  8
1
 62
2
 10
1951.303348145734
 20
-2244.232002691142
 30
0
 11
1952.759204649238
 21
-2241.352152375378
 31
0
 12
1953.44713181246
 22
-2241.820105597507
 32
0
 13
1953.44713181246
 23
-2241.820105597507
 33
0
  0
TEXT
  8
1
 62
2
 10
1976.36497870328
 20
-2226.6761933763
 30
0
 40
3.2
  1
4.5
 41
0.9
  0
TEXT
  8
1
 62
2
 10
1967.08497870328
 20
-2226.6761933763
 30
0
 40
3.2
  1
4-%%c
 41
0.9
  0
TEXT
  8
1
 62
2
 10
1983.96497870328
 20
-2226.6761933763
 30
0
 40
3.2
  1
HOLE
 41
0.9
  0
ENDBLK
  8
0
  0
ENDSEC
  0
SECTION
  2
ENTITIES
  0
LINE
  8
1
 62
3
 10
1940.227238704239
 20
-2299.869091522941
 30
0
 11
1940.227238704239
 21
-2304.569091522941
 31
0
  0
LINE
  8
1
 62
3
 10
1939.627238704239
 20
-2299.869091522941
 30
0
 11
1939.627238704239
 21
-2301.36909152294
 31
0
  0
LINE
  8
1
 62
3
 10
1910.427238704239
 20
-2299.869091522941
 30
0
 11
1910.427238704239
 21
-2303.569091522941
 31
0
  0
LINE
  8
1
 62
2
  6
DASHED
 10
1937.12723870424
 20
-2316.269091522941
 30
0
 11
1937.12723870424
 21
-2306.269091522941
 31
0
  0
LINE
  8
1
 62
2
  6
DASHED
 10
1935.52723870424
 20
-2316.269091522941
 30
0
 11
1935.52723870424
 21
-2306.269091522941
 31
0
  0
LINE
  8
1
 62
2
  6
DASHED
 10
1933.12723870424
 20
-2316.269091522941
 30
0
 11
1933.12723870424
 21
-2306.269091522941
 31
0
  0
LINE
  8
1
 62
2
  6
DASHED
 10
1931.52723870424
 20
-2316.269091522941
 30
0
 11
1931.52723870424
 21
-2306.269091522941
 31
0
  0
LINE
  8
1
 62
2
  6
DASHED
 10
1929.12723870424
 20
-2316.269091522941
 30
0
 11
1929.12723870424
 21
-2306.269091522941
 31
0
  0
LINE
  8
1
 62
2
  6
DASHED
 10
1927.52723870424
 20
-2316.269091522941
 30
0
 11
1927.52723870424
 21
-2306.269091522941
 31
0
  0
LINE
  8
1
 62
2
  6
DASHED
 10
1915.52723870424
 20
-2306.269091522941
 30
0
 11
1915.52723870424
 21
-2316.269091522941
 31
0
  0
LINE
  8
1
 62
2
  6
DASHED
 10
1917.12723870424
 20
-2306.269091522941
 30
0
 11
1917.12723870424
 21
-2316.269091522941
 31
0
  0
LINE
  8
1
 62
2
  6
DASHED
 10
1919.52723870424
 20
-2306.269091522941
 30
0
 11
1919.52723870424
 21
-2316.269091522941
 31
0
  0
LINE
  8
1
 62
2
  6
DASHED
 10
1921.12723870424
 20
-2306.269091522941
 30
0
 11
1921.12723870424
 21
-2316.269091522941
 31
0
  0
LINE
  8
1
 62
2
  6
DASHED
 10
1923.52723870424
 20
-2306.269091522941
 30
0
 11
1923.52723870424
 21
-2316.269091522941
 31
0
  0
LINE
  8
1
 62
2
  6
DASHED
 10
1925.12723870424
 20
-2306.269091522941
 30
0
 11
1925.12723870424
 21
-2316.269091522941
 31
0
  0
LINE
  8
1
 62
2
  6
DASHED
 10
1938.327238704239
 20
-2305.769091522941
 30
0
 11
1938.327238704239
 21
-2306.269091522941
 31
0
  0
LINE
  8
1
 62
2
  6
DASHED
 10
1937.77723870424
 20
-2305.469091522941
 30
0
 11
1938.02723870424
 21
-2305.469091522941
 31
0
  0
LINE
  8
1
 62
2
  6
DASHED
 10
1914.327238704239
 20
-2306.269091522941
 30
0
 11
1914.327238704239
 21
-2305.769091522941
 31
0
  0
LINE
  8
1
 62
2
  6
DASHED
 10
1914.62723870424
 20
-2305.469091522941
 30
0
 11
1914.877238704239
 21
-2305.469091522941
 31
0
  0
LINE
  8
1
 62
2
  6
DASHED
 10
1914.877238704239
 20
-2305.469091522941
 30
0
 11
1914.877238704239
 21
-2304.569091522941
 31
0
  0
LINE
  8
1
 62
2
  6
DASHED
 10
1937.77723870424
 20
-2304.569091522941
 30
0
 11
1937.77723870424
 21
-2305.469091522941
 31
0
  0
LINE
  8
1
 62
2
 10
2108.103406852684
 20
-2284.869091522939
 30
0
 11
2108.103406852684
 21
-2299.869091522939
 31
0
  0
LINE
  8
1
 62
2
 10
2109.103406852684
 20
-2299.869091522939
 30
0
 11
2109.103406852684
 21
-2287.869091522939
 31
0
  0
LINE
  8
1
 62
2
 10
2110.103406852684
 20
-2299.869091522939
 30
0
 11
2110.103406852684
 21
-2290.869091522939
 31
0
  0
LINE
  8
1
 62
2
 10
2111.103406852684
 20
-2299.869091522939
 30
0
 11
2111.103406852684
 21
-2293.869091522939
 31
0
  0
LINE
  8
1
 62
2
 10
2112.103406852684
 20
-2299.869091522939
 30
0
 11
2112.103406852684
 21
-2296.869091522939
 31
0
  0
LINE
  8
1
 62
2
 10
2073.103406852684
 20
-2239.869091522939
 30
0
 11
2073.103406852684
 21
-2254.869091522939
 31
0
  0
LINE
  8
1
 62
2
 10
2072.103406852684
 20
-2239.869091522939
 30
0
 11
2072.103406852684
 21
-2251.869091522939
 31
0
  0
LINE
  8
1
 62
2
 10
2071.103406852684
 20
-2239.869091522939
 30
0
 11
2071.103406852684
 21
-2248.869091522939
 31
0
  0
LINE
  8
1
 62
2
 10
2070.103406852684
 20
-2239.869091522939
 30
0
 11
2070.103406852684
 21
-2245.869091522939
 31
0
  0
LINE
  8
1
 62
2
 10
2069.103406852684
 20
-2239.869091522939
 30
0
 11
2069.103406852684
 21
-2242.869091522939
 31
0
  0
LINE
  8
1
 62
3
 10
2114.303406852685
 20
-2305.56909152294
 30
0
 11
2114.303406852685
 21
-2306.26909152294
 31
0
  0
LINE
  8
1
 62
3
 10
2114.303406852685
 20
-2306.26909152294
 30
0
 11
2113.103406852684
 21
-2306.26909152294
 31
0
  0
LINE
  8
1
 62
3
 10
2113.103406852684
 20
-2306.26909152294
 30
0
 11
2113.103406852684
 21
-2305.56909152294
 31
0
  0
LINE
  8
1
 62
3
 10
2123.103406852684
 20
-2247.225102951622
 30
0
 11
2063.103406852684
 21
-2247.225102951622
 31
0
  0
LINE
  8
1
 62
3
 10
2123.103406852684
 20
-2250.190428418396
 30
0
 11
2063.103406852684
 21
-2250.190428418396
 31
0
  0
LINE
  8
1
 62
3
 10
2123.103406852684
 20
-2289.547754627481
 30
0
 11
2063.103406852684
 21
-2289.547754627481
 31
0
  0
LINE
  8
1
 62
3
 10
2123.103406852684
 20
-2292.513080094255
 30
0
 11
2063.103406852684
 21
-2292.513080094255
 31
0
  0
LINE
  8
1
 62
3
 10
2123.103406852684
 20
-2295.309020768123
 30
0
 11
2113.103406852684
 21
-2295.309020768123
 31
0
  0
LINE
  8
1
 62
3
 10
2123.103406852684
 20
-2267.772289776958
 30
0
 11
2063.103406852684
 21
-2267.772289776958
 31
0
  0
LINE
  8
1
 62
3
 10
2123.103406852684
 20
-2271.96589326892
 30
0
 11
2063.103406852684
 21
-2271.96589326892
 31
0
  0
LINE
  8
1
 62
3
 10
2063.103406852684
 20
-2239.945835708985
 30
0
 11
2063.103406852684
 21
-2299.792347336893
 31
0
  0
LINE
  8
1
 62
3
 10
2059.803406852684
 20
-2239.869091522939
 30
0
 11
2068.103406852684
 21
-2240.062114778752
 31
0
  0
LINE
  8
1
 62
3
 10
2059.803406852684
 20
-2239.869091522939
 30
0
 11
2058.703903133663
 21
-2239.979041894841
 31
0
  0
LINE
  8
1
 62
3
 10
2058.103406852684
 20
-2240.259936242196
 30
0
 11
2058.103406852684
 21
-2269.869091522939
 31
0
  0
LINE
  8
1
 62
3
 10
2068.103406852684
 20
-2299.676068267126
 30
0
 11
2059.803406852684
 21
-2299.869091522939
 31
0
  0
LINE
  8
1
 62
3
 10
2056.503406852684
 20
-2250.919091522939
 30
0
 11
2056.503406852684
 21
-2269.869091522939
 31
0
  0
LINE
  8
1
 62
3
 10
2058.103406852684
 20
-2250.819091522939
 30
0
 11
2056.676740186017
 21
-2250.819091522939
 31
0
  0
LINE
  8
1
 62
3
 10
2056.676740186017
 20
-2250.819091522939
 30
0
 11
2056.503406852684
 21
-2250.919091522939
 31
0
  0
LINE
  8
1
 62
1
 10
2126.769285585507
 20
-2269.869091522939
 30
0
 11
2034.279340795236
 21
-2269.869091522939
 31
0
  0
LINE
  8
1
 62
3
 10
2123.103406852684
 20
-2305.06909152294
 30
0
 11
2122.603406852684
 21
-2305.56909152294
 31
0
  0
LINE
  8
1
 62
3
 10
2122.603406852684
 20
-2305.56909152294
 30
0
 11
2119.103406852684
 21
-2305.56909152294
 31
0
  0
LINE
  8
1
 62
3
 10
2119.103406852684
 20
-2305.56909152294
 30
0
 11
2113.103406852684
 21
-2305.56909152294
 31
0
  0
LINE
  8
1
 62
3
 10
2123.103406852684
 20
-2305.06909152294
 30
0
 11
2123.103406852684
 21
-2240.259936242196
 31
0
  0
LINE
  8
1
 62
3
 10
2113.103406852684
 20
-2240.062114778752
 30
0
 11
2121.403406852683
 21
-2239.869091522938
 31
0
  0
LINE
  8
1
 62
3
 10
2122.502910571704
 20
-2239.97904189484
 30
0
 11
2121.403406852683
 21
-2239.869091522938
 31
0
  0
LINE
  8
1
 62
3
 10
2113.103406852684
 20
-2252.369091522939
 30
0
 11
2113.103406852684
 21
-2241.664362824844
 31
0
  0
LINE
  8
1
 62
3
 10
2113.103406852684
 20
-2305.56909152294
 30
0
 11
2113.103406852684
 21
-2298.073820221034
 31
0
  0
LINE
  8
1
 62
3
 10
2113.103406852684
 20
-2298.073820221034
 30
0
 11
2113.103406852684
 21
-2287.369091522939
 31
0
  0
LINE
  8
1
 62
3
 10
2068.103406852684
 20
-2239.869091522939
 30
0
 11
2068.103406852684
 21
-2299.869091522939
 31
0
  0
LINE
  8
1
 62
3
 10
2056.503406852684
 20
-2269.869091522939
 30
0
 11
2056.503406852684
 21
-2287.369091522939
 31
0
  0
LINE
  8
1
 62
3
 10
2058.703903133663
 20
-2299.759141151037
 30
0
 11
2059.803406852684
 21
-2299.869091522939
 31
0
  0
LINE
  8
1
 62
3
 10
2056.503406852684
 20
-2287.369091522939
 30
0
 11
2056.503406852684
 21
-2288.819091522939
 31
0
  0
LINE
  8
1
 62
3
 10
2058.103406852684
 20
-2269.869091522939
 30
0
 11
2058.103406852684
 21
-2299.478246803681
 31
0
  0
LINE
  8
1
 62
3
 10
2056.676740186017
 20
-2288.919091522939
 30
0
 11
2058.103406852684
 21
-2288.919091522939
 31
0
  0
LINE
  8
1
 62
3
 10
2056.503406852684
 20
-2288.819091522939
 30
0
 11
2056.676740186017
 21
-2288.919091522939
 31
0
  0
LINE
  8
1
 62
3
 10
2038.003406852684
 20
-2266.694091522939
 30
0
 11
2056.503406852684
 21
-2266.694091522939
 31
0
  0
LINE
  8
1
 62
3
 10
2056.503406852684
 20
-2273.044091522939
 30
0
 11
2038.003406852684
 21
-2273.044091522939
 31
0
  0
LINE
  8
1
 62
3
 10
2037.503406852684
 20
-2267.194091522939
 30
0
 11
2037.503406852684
 21
-2272.544091522939
 31
0
  0
LINE
  8
1
 62
3
 10
2038.003406852684
 20
-2266.694091522939
 30
0
 11
2037.503406852684
 21
-2267.194091522939
 31
0
  0
LINE
  8
1
 62
3
 10
2038.003406852684
 20
-2266.694091522939
 30
0
 11
2038.003406852684
 21
-2273.044091522939
 31
0
  0
LINE
  8
1
 62
3
 10
2038.003406852684
 20
-2273.044091522939
 30
0
 11
2037.503406852684
 21
-2272.544091522939
 31
0
  0
LINE
  8
1
 62
3
 10
2068.103406852684
 20
-2239.869091522939
 30
0
 11
2113.103406852684
 21
-2239.869091522939
 31
0
  0
LINE
  8
1
 62
3
 10
2113.103406852684
 20
-2239.869091522939
 30
0
 11
2113.103406852684
 21
-2299.869091522939
 31
0
  0
LINE
  8
1
 62
3
 10
2113.103406852684
 20
-2299.869091522939
 30
0
 11
2068.103406852684
 21
-2299.869091522939
 31
0
  0
LINE
  8
1
 62
3
 10
1913.82723870424
 20
-2304.569091522941
 30
0
 11
1915.52723870424
 21
-2304.569091522941
 31
0
  0
LINE
  8
1
 62
3
 10
1938.827238704238
 20
-2304.569091522941
 30
0
 11
1937.127238704239
 21
-2304.569091522941
 31
0
  0
LINE
  8
1
 62
3
 10
1937.127238704239
 20
-2305.269091522941
 30
0
 11
1915.52723870424
 21
-2305.269091522941
 31
0
  0
LINE
  8
1
 62
3
 10
1937.12723870424
 20
-2302.269091522941
 30
0
 11
1937.127238704239
 21
-2305.269091522941
 31
0
  0
LINE
  8
1
 62
3
 10
1938.827238704238
 20
-2302.269091522941
 30
0
 11
1937.12723870424
 21
-2302.269091522941
 31
0
  0
LINE
  8
1
 62
3
 10
1938.827238704238
 20
-2302.96909152294
 30
0
 11
1938.827238704238
 21
-2304.569091522941
 31
0
  0
LINE
  8
1
 62
3
 10
1938.827238704238
 20
-2304.569091522941
 30
0
 11
1938.827238704238
 21
-2302.269091522941
 31
0
  0
LINE
  8
1
 62
3
 10
1940.227238704239
 20
-2304.569091522941
 30
0
 11
1938.827238704238
 21
-2304.569091522941
 31
0
  0
LINE
  8
1
 62
2
  6
DASHED
 10
1938.327238704239
 20
-2306.269091522941
 30
0
 11
1914.327238704239
 21
-2306.269091522941
 31
0
  0
LINE
  8
1
 62
3
 10
1915.52723870424
 20
-2305.269091522941
 30
0
 11
1915.52723870424
 21
-2302.269091522941
 31
0
  0
LINE
  8
1
 62
3
 10
1915.52723870424
 20
-2302.269091522941
 30
0
 11
1913.82723870424
 21
-2302.269091522941
 31
0
  0
LINE
  8
1
 62
3
 10
1913.82723870424
 20
-2304.569091522941
 30
0
 11
1913.82723870424
 21
-2302.96909152294
 31
0
  0
LINE
  8
1
 62
3
 10
1913.82723870424
 20
-2302.269091522941
 30
0
 11
1913.82723870424
 21
-2304.569091522941
 31
0
  0
LINE
  8
1
 62
3
 10
1913.82723870424
 20
-2304.569091522941
 30
0
 11
1912.427238704239
 21
-2304.569091522941
 31
0
  0
LINE
  8
1
 62
3
 10
1912.42723870424
 20
-2301.36909152294
 30
0
 11
1913.02723870424
 21
-2301.36909152294
 31
0
  0
LINE
  8
1
 62
3
 10
1913.02723870424
 20
-2301.36909152294
 30
0
 11
1913.02723870424
 21
-2299.869091522941
 31
0
  0
LINE
  8
1
 62
3
 10
1939.627238704239
 20
-2301.36909152294
 30
0
 11
1940.227238704239
 21
-2301.36909152294
 31
0
  0
LINE
  8
1
 62
3
 10
1911.427238704239
 20
-2304.569091522941
 30
0
 11
1912.427238704239
 21
-2304.569091522941
 31
0
  0
LINE
  8
1
 62
3
 10
1940.227238704239
 20
-2304.569091522941
 30
0
 11
1941.227238704239
 21
-2304.569091522941
 31
0
  0
LINE
  8
1
 62
3
 10
1912.427238704239
 20
-2304.569091522941
 30
0
 11
1912.427238704239
 21
-2299.869091522941
 31
0
  0
LINE
  8
1
 62
3
 10
1942.227238704239
 20
-2303.569091522941
 30
0
 11
1942.227238704239
 21
-2299.869091522941
 31
0
  0
LINE
  8
1
 62
3
 10
1945.184262224003
 20
-2250.488808985097
 30
0
 11
1945.795301595156
 21
-2249.877769613944
 31
0
  0
LINE
  8
1
 62
3
 10
1944.946874587364
 20
-2250.488808985097
 30
0
 11
1944.335835216211
 21
-2249.877769613944
 31
0
  0
LINE
  8
1
 62
3
 10
1945.70752124208
 20
-2251.249455639815
 30
0
 11
1946.318560613234
 21
-2251.860495010967
 31
0
  0
LINE
  8
1
 62
3
 10
1945.70752124208
 20
-2251.012068003175
 30
0
 11
1946.318560613234
 21
-2250.401028632022
 31
0
  0
LINE
  8
1
 62
3
 10
1944.940739637544
 20
-2251.778849607713
 30
0
 11
1944.946874587364
 21
-2251.772714657893
 31
0
  0
LINE
  8
1
 62
3
 10
1944.335835216211
 20
-2252.383754029045
 30
0
 11
1944.940739637544
 21
-2251.778849607713
 31
0
  0
LINE
  8
1
 62
3
 10
1945.184262224003
 20
-2251.772714657892
 30
0
 11
1945.795301595156
 21
-2252.383754029045
 31
0
  0
LINE
  8
1
 62
3
 10
1944.423615569286
 20
-2251.012068003175
 30
0
 11
1943.812576198133
 21
-2250.401028632022
 31
0
  0
LINE
  8
1
 62
3
 10
1944.423615569286
 20
-2251.249455639815
 30
0
 11
1943.812576198133
 21
-2251.860495010967
 31
0
  0
LINE
  8
1
 62
3
 10
1906.859175813322
 20
-2249.877769613944
 30
0
 11
1907.470215184474
 21
-2250.488808985097
 31
0
  0
LINE
  8
1
 62
3
 10
1908.318642192268
 20
-2249.877769613944
 30
0
 11
1907.707602821114
 21
-2250.488808985097
 31
0
  0
LINE
  8
1
 62
3
 10
1906.335916795244
 20
-2251.860495010967
 30
0
 11
1906.946956166397
 21
-2251.249455639815
 31
0
  0
LINE
  8
1
 62
3
 10
1906.335916795244
 20
-2250.401028632022
 30
0
 11
1906.946956166397
 21
-2251.012068003175
 31
0
  0
LINE
  8
1
 62
3
 10
1907.707602821114
 20
-2251.772714657893
 30
0
 11
1907.713737770935
 21
-2251.778849607713
 31
0
  0
LINE
  8
1
 62
3
 10
1907.713737770935
 20
-2251.778849607713
 30
0
 11
1908.318642192268
 21
-2252.383754029045
 31
0
  0
LINE
  8
1
 62
3
 10
1906.859175813322
 20
-2252.383754029045
 30
0
 11
1907.470215184474
 21
-2251.772714657892
 31
0
  0
LINE
  8
1
 62
3
 10
1908.841901210345
 20
-2250.401028632022
 30
0
 11
1908.230861839193
 21
-2251.012068003175
 31
0
  0
LINE
  8
1
 62
3
 10
1908.841901210345
 20
-2251.860495010967
 30
0
 11
1908.230861839193
 21
-2251.249455639815
 31
0
  0
LINE
  8
1
 62
3
 10
1945.795301595156
 20
-2289.860413431933
 30
0
 11
1945.184262224003
 21
-2289.249374060781
 31
0
  0
LINE
  8
1
 62
3
 10
1944.335835216211
 20
-2289.860413431933
 30
0
 11
1944.946874587364
 21
-2289.249374060781
 31
0
  0
LINE
  8
1
 62
3
 10
1946.318560613234
 20
-2287.87768803491
 30
0
 11
1945.70752124208
 21
-2288.488727406063
 31
0
  0
LINE
  8
1
 62
3
 10
1946.318560613234
 20
-2289.337154413855
 30
0
 11
1945.70752124208
 21
-2288.726115042703
 31
0
  0
LINE
  8
1
 62
3
 10
1944.946874587364
 20
-2287.965468387984
 30
0
 11
1944.940739637544
 21
-2287.959333438165
 31
0
  0
LINE
  8
1
 62
3
 10
1944.940739637544
 20
-2287.959333438165
 30
0
 11
1944.335835216211
 21
-2287.354429016832
 31
0
  0
LINE
  8
1
 62
3
 10
1945.795301595156
 20
-2287.354429016832
 30
0
 11
1945.184262224003
 21
-2287.965468387984
 31
0
  0
LINE
  8
1
 62
3
 10
1943.812576198133
 20
-2289.337154413855
 30
0
 11
1944.423615569286
 21
-2288.726115042703
 31
0
  0
LINE
  8
1
 62
3
 10
1943.812576198133
 20
-2287.87768803491
 30
0
 11
1944.423615569286
 21
-2288.488727406063
 31
0
  0
LINE
  8
1
 62
3
 10
1907.470215184474
 20
-2289.249374060781
 30
0
 11
1906.859175813322
 21
-2289.860413431933
 31
0
  0
LINE
  8
1
 62
3
 10
1907.707602821114
 20
-2289.249374060781
 30
0
 11
1908.318642192268
 21
-2289.860413431933
 31
0
  0
LINE
  8
1
 62
3
 10
1906.946956166397
 20
-2288.488727406063
 30
0
 11
1906.335916795244
 21
-2287.87768803491
 31
0
  0
LINE
  8
1
 62
3
 10
1906.946956166397
 20
-2288.726115042703
 30
0
 11
1906.335916795244
 21
-2289.337154413855
 31
0
  0
LINE
  8
1
 62
3
 10
1907.713737770935
 20
-2287.959333438165
 30
0
 11
1907.707602821114
 21
-2287.965468387984
 31
0
  0
LINE
  8
1
 62
3
 10
1908.318642192268
 20
-2287.354429016832
 30
0
 11
1907.713737770935
 21
-2287.959333438165
 31
0
  0
LINE
  8
1
 62
3
 10
1907.470215184474
 20
-2287.965468387984
 30
0
 11
1906.859175813322
 21
-2287.354429016832
 31
0
  0
LINE
  8
1
 62
3
 10
1908.230861839193
 20
-2288.726115042703
 30
0
 11
1908.841901210345
 21
-2289.337154413855
 31
0
  0
LINE
  8
1
 62
3
 10
1908.230861839193
 20
-2288.488727406063
 30
0
 11
1908.841901210345
 21
-2287.87768803491
 31
0
  0
LINE
  8
1
 62
1
 10
1949.565568405683
 20
-2251.130761821495
 30
0
 11
1940.565568405683
 21
-2251.130761821495
 31
0
  0
LINE
  8
1
 62
1
 10
1945.065568405683
 20
-2255.630761821496
 30
0
 11
1945.065568405683
 21
-2247.430761821495
 31
0
  0
LINE
  8
1
 62
1
 10
1907.588909002794
 20
-2246.630761821495
 30
0
 11
1907.588909002794
 21
-2255.630761821495
 31
0
  0
LINE
  8
1
 62
1
 10
1912.088909002794
 20
-2251.130761821496
 30
0
 11
1903.888909002795
 21
-2251.130761821496
 31
0
  0
LINE
  8
1
 62
1
 10
1903.088909002794
 20
-2288.607421224383
 30
0
 11
1912.088909002794
 21
-2288.607421224382
 31
0
  0
LINE
  8
1
 62
1
 10
1907.588909002794
 20
-2284.107421224383
 30
0
 11
1907.588909002794
 21
-2292.307421224383
 31
0
  0
LINE
  8
1
 62
1
 10
1945.065568405683
 20
-2293.107421224384
 30
0
 11
1945.065568405683
 21
-2284.107421224384
 31
0
  0
LINE
  8
1
 62
1
 10
1940.565568405683
 20
-2288.607421224382
 30
0
 11
1948.765568405683
 21
-2288.607421224383
 31
0
  0
LINE
  8
1
 62
1
 10
1898.984124931786
 20
-2246.299091522938
 30
0
 11
1906.53035247669
 21
-2246.299091522938
 31
0
  0
LINE
  8
1
 62
1
 10
1902.757238704238
 20
-2297.212205295391
 30
0
 11
1902.757238704239
 21
-2289.665977750487
 31
0
  0
LINE
  8
1
 62
1
 10
1953.670352476691
 20
-2293.43909152294
 30
0
 11
1946.124124931788
 21
-2293.43909152294
 31
0
  0
LINE
  8
1
 62
1
 10
1902.757238704238
 20
-2242.525977750487
 30
0
 11
1902.757238704238
 21
-2250.07220529539
 31
0
  0
LINE
  8
1
 62
1
 10
1898.984124931786
 20
-2293.439091522939
 30
0
 11
1906.53035247669
 21
-2293.439091522939
 31
0
  0
LINE
  8
1
 62
1
 10
1949.897238704239
 20
-2297.212205295392
 30
0
 11
1949.897238704239
 21
-2289.665977750487
 31
0
  0
LINE
  8
1
 62
1
 10
1949.897238704239
 20
-2242.525977750488
 30
0
 11
1949.897238704239
 21
-2250.072205295391
 31
0
  0
LINE
  8
1
 62
1
 10
1953.670352476691
 20
-2246.299091522938
 30
0
 11
1946.124124931788
 21
-2246.299091522938
 31
0
  0
LINE
  8
1
 62
1
 10
1926.327238704238
 20
-2237.869091522939
 30
0
 11
1926.327238704238
 21
-2271.869091522939
 31
0
  0
LINE
  8
1
 62
1
 10
1926.327238704238
 20
-2269.869091522938
 30
0
 11
1894.327238704238
 21
-2269.869091522939
 31
0
  0
LINE
  8
1
 62
3
 10
1902.827238704238
 20
-2239.869091522939
 30
0
 11
1949.82723870424
 21
-2239.869091522939
 31
0
  0
LINE
  8
1
 62
3
 10
1949.82723870424
 20
-2299.869091522939
 30
0
 11
1902.827238704238
 21
-2299.869091522939
 31
0
  0
LINE
  8
1
 62
1
 10
1958.32723870424
 20
-2269.869091522939
 30
0
 11
1926.327238704238
 21
-2269.869091522938
 31
0
  0
LINE
  8
1
 62
1
 10
1926.327238704238
 20
-2271.869091522939
 30
0
 11
1926.32723870424
 21
-2308.315598846689
 31
0
  0
LINE
  8
1
 62
3
 10
1896.327238704238
 20
-2246.369091522939
 30
0
 11
1896.327238704238
 21
-2293.369091522939
 31
0
  0
LINE
  8
1
 62
3
 10
1956.32723870424
 20
-2293.369091522939
 30
0
 11
1956.32723870424
 21
-2246.369091522939
 31
0
  0
LINE
  8
1
 62
2
 10
1975.998240437977
 20
-2393.826466084625
 30
0
 11
1985.998240437977
 21
-2393.826466084625
 31
0
  0
LINE
  8
1
 62
2
 10
1985.998240437977
 20
-2393.426466084625
 30
0
 11
1975.998240437977
 21
-2393.426466084626
 31
0
  0
LINE
  8
1
 62
2
 10
1975.998240437977
 20
-2393.026466084626
 30
0
 11
1985.998240437977
 21
-2393.026466084626
 31
0
  0
LINE
  8
1
 62
2
 10
1975.998240437977
 20
-2392.226466084625
 30
0
 11
1985.998240437977
 21
-2392.226466084625
 31
0
  0
LINE
  8
1
 62
2
 10
1985.998240437977
 20
-2391.826466084625
 30
0
 11
1975.998240437977
 21
-2391.826466084625
 31
0
  0
LINE
  8
1
 62
2
 10
1975.998240437977
 20
-2391.426466084626
 30
0
 11
1985.998240437977
 21
-2391.426466084626
 31
0
  0
LINE
  8
1
 62
2
 10
1975.998240437977
 20
-2390.626466084626
 30
0
 11
1985.998240437977
 21
-2390.626466084626
 31
0
  0
LINE
  8
1
 62
2
 10
1985.998240437977
 20
-2390.226466084625
 30
0
 11
1975.998240437977
 21
-2390.226466084625
 31
0
  0
LINE
  8
1
 62
2
 10
1975.998240437977
 20
-2389.826466084625
 30
0
 11
1985.998240437977
 21
-2389.826466084625
 31
0
  0
LINE
  8
1
 62
2
 10
1975.998240437977
 20
-2389.026466084626
 30
0
 11
1985.998240437977
 21
-2389.026466084626
 31
0
  0
LINE
  8
1
 62
2
 10
1985.998240437977
 20
-2388.626466084626
 30
0
 11
1975.998240437977
 21
-2388.626466084626
 31
0
  0
LINE
  8
1
 62
2
 10
1975.998240437977
 20
-2388.226466084626
 30
0
 11
1985.998240437977
 21
-2388.226466084625
 31
0
  0
LINE
  8
1
 62
2
 10
1975.998240437977
 20
-2387.426466084626
 30
0
 11
1985.998240437977
 21
-2387.426466084626
 31
0
  0
LINE
  8
1
 62
2
 10
1985.998240437977
 20
-2387.026466084626
 30
0
 11
1975.998240437977
 21
-2387.026466084626
 31
0
  0
LINE
  8
1
 62
2
 10
1975.998240437977
 20
-2386.626466084626
 30
0
 11
1985.998240437977
 21
-2386.626466084626
 31
0
  0
LINE
  8
1
 62
2
 10
1975.998240437977
 20
-2385.826466084625
 30
0
 11
1985.998240437977
 21
-2385.826466084625
 31
0
  0
LINE
  8
1
 62
2
 10
1985.998240437977
 20
-2385.426466084626
 30
0
 11
1975.998240437977
 21
-2385.426466084626
 31
0
  0
LINE
  8
1
 62
2
 10
1975.998240437977
 20
-2385.026466084626
 30
0
 11
1985.998240437977
 21
-2385.026466084626
 31
0
  0
LINE
  8
1
 62
3
 10
1975.998240437977
 20
-2384.626466084626
 30
0
 11
1975.998240437977
 21
-2394.226466084626
 31
0
  0
LINE
  8
1
 62
3
 10
1912.139311230291
 20
-2377.976466084625
 30
0
 11
1917.139311230291
 21
-2377.976466084625
 31
0
  0
LINE
  8
1
 62
3
 10
1912.139311230291
 20
-2400.876466084626
 30
0
 11
1912.139311230291
 21
-2377.976466084625
 31
0
  0
LINE
  8
1
 62
3
 10
1917.139311230291
 20
-2400.876466084626
 30
0
 11
1912.139311230291
 21
-2400.876466084626
 31
0
  0
LINE
  8
1
 62
3
 10
1917.939311230291
 20
-2401.426466084626
 30
0
 11
1917.939311230291
 21
-2377.426466084626
 31
0
  0
LINE
  8
1
 62
3
 10
1917.139311230291
 20
-2401.126466084626
 30
0
 11
1917.139311230291
 21
-2400.876466084626
 31
0
  0
LINE
  8
1
 62
3
 10
1917.939311230291
 20
-2401.426466084626
 30
0
 11
1917.439311230291
 21
-2401.426466084626
 31
0
  0
LINE
  8
1
 62
3
 10
1917.139311230291
 20
-2377.976466084625
 30
0
 11
1917.139311230291
 21
-2377.726466084625
 31
0
  0
LINE
  8
1
 62
3
 10
1917.439311230291
 20
-2377.426466084626
 30
0
 11
1917.939311230291
 21
-2377.426466084626
 31
0
  0
LINE
  8
1
 62
3
 10
1913.439311230291
 20
-2397.926466084626
 30
0
 11
1914.839311230291
 21
-2397.926466084626
 31
0
  0
LINE
  8
1
 62
3
 10
1913.439311230291
 20
-2398.926466084626
 30
0
 11
1913.439311230291
 21
-2397.926466084626
 31
0
  0
LINE
  8
1
 62
3
 10
1914.839311230291
 20
-2398.926466084626
 30
0
 11
1913.439311230291
 21
-2398.926466084626
 31
0
  0
LINE
  8
1
 62
3
 10
1914.839311230291
 20
-2397.926466084626
 30
0
 11
1914.839311230291
 21
-2398.926466084626
 31
0
  0
LINE
  8
1
 62
3
 10
1914.539311230291
 20
-2398.926466084626
 30
0
 11
1914.539311230291
 21
-2397.926466084626
 31
0
  0
LINE
  8
1
 62
3
 10
1914.839311230291
 20
-2380.926466084626
 30
0
 11
1913.439311230291
 21
-2380.926466084626
 31
0
  0
LINE
  8
1
 62
3
 10
1913.439311230291
 20
-2380.926466084626
 30
0
 11
1913.439311230291
 21
-2379.926466084626
 31
0
  0
LINE
  8
1
 62
3
 10
1913.439311230291
 20
-2379.926466084626
 30
0
 11
1914.839311230291
 21
-2379.926466084626
 31
0
  0
LINE
  8
1
 62
3
 10
1914.839311230291
 20
-2379.926466084626
 30
0
 11
1914.839311230291
 21
-2380.926466084626
 31
0
  0
LINE
  8
1
 62
3
 10
1914.539311230291
 20
-2380.926466084626
 30
0
 11
1914.539311230291
 21
-2379.926466084626
 31
0
  0
LINE
  8
1
 62
3
 10
1914.439311230291
 20
-2398.926466084626
 30
0
 11
1914.439311230291
 21
-2397.926466084626
 31
0
  0
LINE
  8
1
 62
3
 10
1914.439311230291
 20
-2380.926466084626
 30
0
 11
1914.439311230291
 21
-2379.926466084626
 31
0
  0
LINE
  8
1
 62
3
 10
1935.628145448267
 20
-2384.626466084626
 30
0
 11
1950.644052674293
 21
-2384.626466084626
 31
0
  0
LINE
  8
1
 62
3
 10
1935.628145448267
 20
-2386.226466084625
 30
0
 11
1950.644052674293
 21
-2386.226466084626
 31
0
  0
LINE
  8
1
 62
3
 10
1935.628145448267
 20
-2387.826466084625
 30
0
 11
1950.644052674293
 21
-2387.826466084625
 31
0
  0
LINE
  8
1
 62
3
 10
1935.628145448267
 20
-2389.426466084626
 30
0
 11
1950.644052674293
 21
-2389.426466084626
 31
0
  0
LINE
  8
1
 62
3
 10
1935.628145448267
 20
-2391.026466084626
 30
0
 11
1950.644052674293
 21
-2391.026466084626
 31
0
  0
LINE
  8
1
 62
3
 10
1935.628145448267
 20
-2392.626466084626
 30
0
 11
1950.644052674293
 21
-2392.626466084626
 31
0
  0
LINE
  8
1
 62
3
 10
1935.628145448267
 20
-2394.226466084626
 30
0
 11
1950.644052674293
 21
-2394.226466084626
 31
0
  0
LINE
  8
1
 62
3
 10
1922.939311230291
 20
-2390.626466084626
 30
0
 11
1935.628145448267
 21
-2389.426466084626
 31
0
  0
LINE
  8
1
 62
3
 10
1922.939311230291
 20
-2392.226466084625
 30
0
 11
1935.628145448267
 21
-2391.026466084626
 31
0
  0
LINE
  8
1
 62
3
 10
1922.939311230291
 20
-2394.626466084626
 30
0
 11
1935.628145448267
 21
-2391.026466084626
 31
0
  0
LINE
  8
1
 62
3
 10
1922.939311230291
 20
-2396.226466084625
 30
0
 11
1935.628145448267
 21
-2392.626466084626
 31
0
  0
LINE
  8
1
 62
3
 10
1922.939311230291
 20
-2398.626466084626
 30
0
 11
1935.628145448267
 21
-2392.626466084626
 31
0
  0
LINE
  8
1
 62
3
 10
1922.939311230291
 20
-2400.226466084625
 30
0
 11
1935.628145448267
 21
-2394.226466084626
 31
0
  0
LINE
  8
1
 62
3
 10
1917.939311230291
 20
-2390.626466084626
 30
0
 11
1922.939311230291
 21
-2390.626466084626
 31
0
  0
LINE
  8
1
 62
3
 10
1917.939311230291
 20
-2392.226466084625
 30
0
 11
1922.939311230291
 21
-2392.226466084625
 31
0
  0
LINE
  8
1
 62
3
 10
1917.939311230291
 20
-2394.626466084626
 30
0
 11
1922.939311230291
 21
-2394.626466084626
 31
0
  0
LINE
  8
1
 62
3
 10
1917.939311230291
 20
-2396.226466084625
 30
0
 11
1922.939311230291
 21
-2396.226466084625
 31
0
  0
LINE
  8
1
 62
3
 10
1917.939311230291
 20
-2398.626466084626
 30
0
 11
1922.939311230291
 21
-2398.626466084626
 31
0
  0
LINE
  8
1
 62
3
 10
1917.939311230291
 20
-2400.226466084625
 30
0
 11
1922.939311230291
 21
-2400.226466084625
 31
0
  0
LINE
  8
1
 62
2
 10
1952.149280499871
 20
-2401.926466084626
 30
0
 11
1952.149280499871
 21
-2376.926466084626
 31
0
  0
LINE
  8
1
 62
2
 10
1950.644052674293
 20
-2401.926466084626
 30
0
 11
1950.644052674293
 21
-2376.926466084626
 31
0
  0
LINE
  8
1
 62
3
 10
1952.149280499871
 20
-2384.626466084626
 30
0
 11
1975.998240437977
 21
-2384.626466084626
 31
0
  0
LINE
  8
1
 62
3
 10
1952.149280499871
 20
-2386.226466084625
 30
0
 11
1975.998240437977
 21
-2386.226466084625
 31
0
  0
LINE
  8
1
 62
3
 10
1952.149280499871
 20
-2387.826466084625
 30
0
 11
1975.998240437977
 21
-2387.826466084625
 31
0
  0
LINE
  8
1
 62
3
 10
1952.149280499871
 20
-2389.426466084626
 30
0
 11
1975.998240437977
 21
-2389.426466084626
 31
0
  0
LINE
  8
1
 62
3
 10
1952.149280499871
 20
-2391.026466084626
 30
0
 11
1975.998240437977
 21
-2391.026466084626
 31
0
  0
LINE
  8
1
 62
3
 10
1952.149280499871
 20
-2392.626466084626
 30
0
 11
1975.998240437977
 21
-2392.626466084626
 31
0
  0
LINE
  8
1
 62
3
 10
1952.149280499871
 20
-2394.226466084626
 30
0
 11
1975.998240437977
 21
-2394.226466084626
 31
0
  0
LINE
  8
1
 62
3
 10
1922.939311230291
 20
-2388.226466084625
 30
0
 11
1917.939311230291
 21
-2388.226466084625
 31
0
  0
LINE
  8
1
 62
3
 10
1935.628145448267
 20
-2389.426466084626
 30
0
 11
1922.939311230291
 21
-2388.226466084625
 31
0
  0
LINE
  8
1
 62
3
 10
1935.628145448267
 20
-2387.826466084625
 30
0
 11
1922.939311230291
 21
-2386.626466084626
 31
0
  0
LINE
  8
1
 62
3
 10
1922.939311230291
 20
-2386.626466084626
 30
0
 11
1917.939311230291
 21
-2386.626466084626
 31
0
  0
LINE
  8
1
 62
3
 10
1922.939311230291
 20
-2384.226466084625
 30
0
 11
1917.939311230291
 21
-2384.226466084625
 31
0
  0
LINE
  8
1
 62
3
 10
1935.628145448267
 20
-2387.826466084625
 30
0
 11
1922.939311230291
 21
-2384.226466084625
 31
0
  0
LINE
  8
1
 62
3
 10
1935.628145448267
 20
-2386.226466084625
 30
0
 11
1922.939311230291
 21
-2382.626466084626
 31
0
  0
LINE
  8
1
 62
3
 10
1922.939311230291
 20
-2382.626466084626
 30
0
 11
1917.939311230291
 21
-2382.626466084626
 31
0
  0
LINE
  8
1
 62
3
 10
1922.939311230291
 20
-2380.226466084625
 30
0
 11
1917.939311230291
 21
-2380.226466084625
 31
0
  0
LINE
  8
1
 62
3
 10
1935.628145448267
 20
-2386.226466084625
 30
0
 11
1922.939311230291
 21
-2380.226466084625
 31
0
  0
LINE
  8
1
 62
3
 10
1935.628145448267
 20
-2384.626466084626
 30
0
 11
1922.939311230291
 21
-2378.626466084626
 31
0
  0
LINE
  8
1
 62
3
 10
1922.939311230291
 20
-2378.626466084626
 30
0
 11
1917.939311230291
 21
-2378.626466084626
 31
0
  0
LINE
  8
1
 62
2
 10
2124.36424653739
 20
-2395.10822185251
 30
0
 11
2033.72424496147
 21
-2395.10822185251
 31
0
  0
LINE
  8
1
 62
2
 10
2124.36424653739
 20
-2383.10822185251
 30
0
 11
2033.72424496147
 21
-2383.10822185251
 31
0
  0
LINE
  8
1
 62
2
 10
2033.72424496147
 20
-2389.10822185251
 30
0
 11
2124.36424653739
 21
-2389.10822185251
 31
0
  0
LINE
  8
1
 62
3
 10
2033.72424496147
 20
-2377.10822185251
 30
0
 11
2124.36424653739
 21
-2377.10822185251
 31
0
  0
LINE
  8
1
 62
2
 10
2076.820919636461
 20
-2371.10822185251
 30
0
 11
2076.820919636461
 21
-2401.10822185251
 31
0
  0
LINE
  8
1
 62
3
 10
2033.72424496147
 20
-2371.10822185251
 30
0
 11
2124.36424653739
 21
-2371.10822185251
 31
0
  0
LINE
  8
1
 62
2
 10
2124.36424653739
 20
-2401.10822185251
 30
0
 11
2033.72424496147
 21
-2401.10822185251
 31
0
  0
ARC
  8
1
 62
3
 10
1945.065568405683
 20
-2251.130761821495
 30
0
 40
1.450000000000126
 50
120.2161982852249
 51
149.7838017147259
  0
ARC
  8
1
 62
3
 10
1945.065568405683
 20
-2251.130761821495
 30
0
 40
0.634999999999834
 50
82.54155094373222
 51
97.45844905628812
  0
ARC
  8
1
 62
3
 10
1945.065568405683
 20
-2251.130761821495
 30
0
 40
1.450000000000584
 50
30.21619828525596
 51
59.78380171474404
  0
ARC
  8
1
 62
3
 10
1945.065568405683
 20
-2251.130761821495
 30
0
 40
0.6350000000007063
 50
352.5415509437632
 51
7.458449056358832
  0
ARC
  8
1
 62
3
 10
1945.065568405683
 20
-2251.130761821495
 30
0
 40
1.449999999999798
 50
300.2161982852741
 51
329.7838017147751
  0
ARC
  8
1
 62
3
 10
1945.065568405683
 20
-2251.130761821495
 30
0
 40
0.6349999999998636
 50
262.5415509437119
 51
277.4584490562678
  0
ARC
  8
1
 62
3
 10
1945.065568405683
 20
-2251.130761821495
 30
0
 40
1.44999999999934
 50
210.216198285243
 51
239.783801714757
  0
ARC
  8
1
 62
3
 10
1945.065568405683
 20
-2251.130761821495
 30
0
 40
0.6350000000011089
 50
172.5415509436438
 51
187.4584490562341
  0
ARC
  8
1
 62
3
 10
1907.588909002794
 20
-2251.130761821495
 30
0
 40
1.450000000000584
 50
30.21619828525596
 51
59.78380171470521
  0
ARC
  8
1
 62
3
 10
1907.588909002794
 20
-2251.130761821495
 30
0
 40
0.6350000000000997
 50
82.54155094354915
 51
97.4584490561864
  0
ARC
  8
1
 62
3
 10
1907.588909002794
 20
-2251.130761821495
 30
0
 40
1.450000000000126
 50
120.2161982852249
 51
149.7838017147259
  0
ARC
  8
1
 62
3
 10
1907.588909002794
 20
-2251.130761821495
 30
0
 40
0.6349999999990799
 50
172.5415509436199
 51
187.4584490562581
  0
ARC
  8
1
 62
3
 10
1907.588909002794
 20
-2251.130761821495
 30
0
 40
1.44999999999934
 50
210.216198285243
 51
239.783801714757
  0
ARC
  8
1
 62
3
 10
1907.588909002794
 20
-2251.130761821495
 30
0
 40
0.6349999999997159
 50
262.5415509438136
 51
277.4584490564508
  0
ARC
  8
1
 62
3
 10
1907.588909002794
 20
-2251.130761821495
 30
0
 40
1.45000000000037
 50
300.2161982853129
 51
329.7838017147751
  0
ARC
  8
1
 62
3
 10
1907.588909002794
 20
-2251.130761821495
 30
0
 40
0.6350000000009318
 50
352.5415509437659
 51
7.45844905635617
  0
ARC
  8
1
 62
3
 10
1945.065568405683
 20
-2288.607421224384
 30
0
 40
1.449999999998882
 50
210.2161982852119
 51
239.7838017147389
  0
ARC
  8
1
 62
3
 10
1945.065568405683
 20
-2288.607421224384
 30
0
 40
0.63499999999806
 50
262.5415509436906
 51
277.4584490562891
  0
ARC
  8
1
 62
3
 10
1945.065568405683
 20
-2288.607421224384
 30
0
 40
1.449999999999012
 50
300.2161982852921
 51
329.7838017148062
  0
ARC
  8
1
 62
3
 10
1945.065568405683
 20
-2288.607421224384
 30
0
 40
0.6350000000006473
 50
352.5415509438039
 51
7.4584490564402
  0
ARC
  8
1
 62
3
 10
1945.065568405683
 20
-2288.607421224384
 30
0
 40
1.450000000001042
 50
30.21619828528702
 51
59.78380171476212
  0
ARC
  8
1
 62
3
 10
1945.065568405683
 20
-2288.607421224384
 30
0
 40
0.6350000000007359
 50
82.54155094374288
 51
97.45844905627746
  0
ARC
  8
1
 62
3
 10
1945.065568405683
 20
-2288.607421224384
 30
0
 40
1.450000000000912
 50
120.2161982852068
 51
149.7838017146949
  0
ARC
  8
1
 62
3
 10
1945.065568405683
 20
-2288.607421224384
 30
0
 40
0.635000000001227
 50
172.5415509435624
 51
187.4584490561934
  0
ARC
  8
1
 62
3
 10
1907.588909002794
 20
-2288.607421224383
 30
0
 40
1.45000000000037
 50
300.2161982853129
 51
329.7838017147751
  0
ARC
  8
1
 62
3
 10
1907.588909002794
 20
-2288.607421224383
 30
0
 40
0.6349999999988142
 50
262.541550943803
 51
277.4584490564615
  0
ARC
  8
1
 62
3
 10
1907.588909002794
 20
-2288.607421224383
 30
0
 40
1.44999999999934
 50
210.216198285243
 51
239.783801714757
  0
ARC
  8
1
 62
3
 10
1907.588909002794
 20
-2288.607421224383
 30
0
 40
0.6349999999990799
 50
172.5415509436199
 51
187.4584490562988
  0
ARC
  8
1
 62
3
 10
1907.588909002794
 20
-2288.607421224383
 30
0
 40
1.450000000000126
 50
120.2161982852249
 51
149.7838017147259
  0
ARC
  8
1
 62
3
 10
1907.588909002794
 20
-2288.607421224383
 30
0
 40
0.6350000000000997
 50
82.54155094354915
 51
97.4584490561864
  0
ARC
  8
1
 62
3
 10
1907.588909002794
 20
-2288.607421224383
 30
0
 40
1.450000000000584
 50
30.21619828525596
 51
59.78380171470521
  0
ARC
  8
1
 62
3
 10
1907.588909002794
 20
-2288.607421224383
 30
0
 40
0.6350000000009909
 50
352.5415509437252
 51
7.45844905635617
  0
CIRCLE
  8
1
 62
3
 10
1926.327238704238
 20
-2269.869091522938
 30
0
 40
3.9950000000008
  0
CIRCLE
  8
1
 62
3
 10
1926.327238704238
 20
-2269.869091522938
 30
0
 40
19.05000000000109
  0
CIRCLE
  8
1
 62
3
 10
1945.065568405683
 20
-2251.130761821495
 30
0
 40
2.799999999999045
  0
CIRCLE
  8
1
 62
3
 10
1907.588909002794
 20
-2251.130761821495
 30
0
 40
2.800000000000864
  0
CIRCLE
  8
1
 62
3
 10
1945.065568405683
 20
-2288.607421224384
 30
0
 40
2.799999999999045
  0
CIRCLE
  8
1
 62
3
 10
1907.588909002794
 20
-2288.607421224383
 30
0
 40
2.800000000000864
  0
CIRCLE
  8
1
 62
3
 10
1945.065568405683
 20
-2251.130761821495
 30
0
 40
3
  0
CIRCLE
  8
1
 62
3
 10
1907.588909002794
 20
-2251.130761821495
 30
0
 40
3
  0
CIRCLE
  8
1
 62
3
 10
1907.588909002794
 20
-2288.607421224383
 30
0
 40
3
  0
CIRCLE
  8
1
 62
3
 10
1926.327238704238
 20
-2269.869091522938
 30
0
 40
4.75
  0
CIRCLE
  8
1
 62
3
 10
1926.327238704238
 20
-2269.869091522938
 30
0
 40
14.5
  0
CIRCLE
  8
1
 62
3
 10
1926.327238704238
 20
-2269.869091522938
 30
0
 40
17
  0
CIRCLE
  8
1
 62
3
 10
1926.327238704238
 20
-2269.869091522938
 30
0
 40
17.5
  0
CIRCLE
  8
1
 62
3
 10
1902.757238704238
 20
-2246.299091522938
 30
0
 40
2.5
  0
CIRCLE
  8
1
 62
3
 10
1902.757238704238
 20
-2293.439091522939
 30
0
 40
2.5
  0
CIRCLE
  8
1
 62
3
 10
1949.897238704239
 20
-2246.299091522938
 30
0
 40
2.5
  0
CIRCLE
  8
1
 62
3
 10
1945.065568405683
 20
-2288.607421224384
 30
0
 40
3
  0
CIRCLE
  8
1
 62
3
 10
1949.897238704239
 20
-2293.439091522939
 30
0
 40
2.5
  0
ARC
  8
1
 62
2
  6
DASHED
 10
1938.02723870424
 20
-2305.769091522941
 30
0
 40
0.299999999999045
 50
0
 51
90
  0
ARC
  8
1
 62
2
  6
DASHED
 10
1914.62723870424
 20
-2305.769091522941
 30
0
 40
0.2999999999997272
 50
90
 51
180
  0
ARC
  8
1
 62
3
 10
2058.803406852684
 20
-2240.97407908505
 30
0
 40
0.9999999999991431
 50
95.71059313750223
 51
134.427004000809
  0
ARC
  8
1
 62
3
 10
2122.403406852683
 20
-2240.97407908505
 30
0
 40
1.000000000000636
 50
45.57299599913515
 51
84.28940686250296
  0
ARC
  8
1
 62
3
 10
2058.803406852684
 20
-2298.764103960827
 30
0
 40
0.999999999999681
 50
225.572995999191
 51
264.289406862503
  0
ARC
  8
1
 62
3
 10
1911.427238704239
 20
-2303.569091522941
 30
0
 40
1
 50
180
 51
270
  0
ARC
  8
1
 62
3
 10
1941.227238704239
 20
-2303.569091522941
 30
0
 40
1
 50
270
 51
0
  0
ARC
  8
1
 62
3
 10
1945.153620930152
 20
-2250.458167691246
 30
0
 40
0.04333333333311099
 50
262.5415509422649
 51
315.0000000002125
  0
ARC
  8
1
 62
3
 10
1944.977515881214
 20
-2250.458167691246
 30
0
 40
0.04333333333190651
 50
225.0000000006377
 51
277.4584490574371
  0
ARC
  8
1
 62
3
 10
1945.738162535933
 20
-2251.218814345963
 30
0
 40
0.04333333333321838
 50
172.5415509434962
 51
224.9999999991497
  0
ARC
  8
1
 62
3
 10
1945.738162535933
 20
-2251.042709297026
 30
0
 40
0.04333333333399662
 50
135.0000000021258
 51
187.4584490565038
  0
ARC
  8
1
 62
3
 10
1944.977515881214
 20
-2251.803355951744
 30
0
 40
0.04333333333308147
 50
82.54155094256295
 51
134.9999999993623
  0
ARC
  8
1
 62
3
 10
1945.153620930152
 20
-2251.803355951744
 30
0
 40
0.04333333333351429
 50
45.00000000106292
 51
97.45844905773515
  0
ARC
  8
1
 62
3
 10
1944.392974275434
 20
-2251.042709297027
 30
0
 40
0.04333333333191404
 50
352.5415509450897
 51
45
  0
ARC
  8
1
 62
3
 10
1944.392974275434
 20
-2251.218814345963
 30
0
 40
0.04333333333431818
 50
315
 51
7.458449056698886
  0
ARC
  8
1
 62
3
 10
1907.500856478327
 20
-2250.458167691246
 30
0
 40
0.04333333333399662
 50
224.9999999978742
 51
277.4584490562447
  0
ARC
  8
1
 62
3
 10
1907.676961527264
 20
-2250.458167691246
 30
0
 40
0.04333333333296341
 50
262.5415509437553
 51
314.9999999993623
  0
ARC
  8
1
 62
3
 10
1906.916314872546
 20
-2251.218814345963
 30
0
 40
0.04333333333351429
 50
314.9999999989371
 51
7.458449056542787
  0
ARC
  8
1
 62
3
 10
1906.916314872546
 20
-2251.042709297027
 30
0
 40
0.04333333333281584
 50
352.5415509452458
 51
45.00000000106292
  0
ARC
  8
1
 62
3
 10
1907.676961527264
 20
-2251.803355951744
 30
0
 40
0.04333333333190651
 50
45.00000000063775
 51
97.45844905624469
  0
ARC
  8
1
 62
3
 10
1907.500856478327
 20
-2251.803355951744
 30
0
 40
0.04333333333296341
 50
82.54155094375531
 51
135.0000000008503
  0
ARC
  8
1
 62
3
 10
1908.261503133045
 20
-2251.042709297026
 30
0
 40
0.04333333333319274
 50
135.0000000010629
 51
187.4584490563867
  0
ARC
  8
1
 62
3
 10
1908.261503133045
 20
-2251.218814345963
 30
0
 40
0.04333333333389473
 50
172.5415509436133
 51
225.0000000002126
  0
ARC
  8
1
 62
3
 10
1945.153620930152
 20
-2289.280015354632
 30
0
 40
0.04333333333254963
 50
44.99999999978742
 51
97.45844905757906
  0
ARC
  8
1
 62
3
 10
1944.977515881214
 20
-2289.280015354632
 30
0
 40
0.04333333333398327
 50
82.54155094271904
 51
134.9999999993623
  0
ARC
  8
1
 62
3
 10
1945.738162535933
 20
-2288.519368699914
 30
0
 40
0.04333333333431818
 50
135.0000000017006
 51
187.4584490559076
  0
ARC
  8
1
 62
3
 10
1945.738162535933
 20
-2288.69547374885
 30
0
 40
0.04333333333304129
 50
172.5415509452848
 51
225
  0
ARC
  8
1
 62
3
 10
1944.977515881214
 20
-2287.934827094133
 30
0
 40
0.04333333333190651
 50
225.0000000006377
 51
277.458449057281
  0
ARC
  8
1
 62
3
 10
1945.153620930152
 20
-2287.934827094133
 30
0
 40
0.04333333333401279
 50
262.5415509424209
 51
315.0000000002125
  0
ARC
  8
1
 62
3
 10
1944.392974275434
 20
-2288.69547374885
 30
0
 40
0.04333333333496128
 50
314.9999999991497
 51
7.458449054910331
  0
ARC
  8
1
 62
3
 10
1944.392974275434
 20
-2288.519368699914
 30
0
 40
0.04333333333203211
 50
352.5415509438973
 51
44.99999999914967
  0
ARC
  8
1
 62
3
 10
1907.500856478327
 20
-2289.280015354632
 30
0
 40
0.04333333333386521
 50
82.5415509439114
 51
135.0000000021258
  0
ARC
  8
1
 62
3
 10
1907.676961527264
 20
-2289.280015354632
 30
0
 40
0.04333333333190651
 50
45.00000000063775
 51
97.4584490560886
  0
ARC
  8
1
 62
3
 10
1906.916314872546
 20
-2288.519368699914
 30
0
 40
0.0433333333329339
 50
352.5415509440534
 51
45.00000000021259
  0
ARC
  8
1
 62
3
 10
1906.916314872546
 20
-2288.69547374885
 30
0
 40
0.04333333333415741
 50
314.9999999980868
 51
7.458449054754234
  0
ARC
  8
1
 62
3
 10
1907.676961527264
 20
-2287.934827094133
 30
0
 40
0.04333333333386521
 50
262.5415509439114
 51
314.9999999993623
  0
ARC
  8
1
 62
3
 10
1907.500856478327
 20
-2287.934827094133
 30
0
 40
0.04333333333399662
 50
224.9999999978742
 51
277.4584490560886
  0
ARC
  8
1
 62
3
 10
1908.261503133045
 20
-2288.69547374885
 30
0
 40
0.04333333333371764
 50
172.5415509454019
 51
225.0000000010629
  0
ARC
  8
1
 62
3
 10
1908.261503133045
 20
-2288.519368699914
 30
0
 40
0.04333333333351429
 50
135.0000000006378
 51
187.4584490557905
  0
ARC
  8
1
 62
3
 10
1902.827238704238
 20
-2246.369091522939
 30
0
 40
6.5
 50
90
 51
180
  0
ARC
  8
1
 62
3
 10
1949.82723870424
 20
-2246.369091522939
 30
0
 40
6.5
 50
0
 51
90
  0
ARC
  8
1
 62
3
 10
1949.82723870424
 20
-2293.369091522939
 30
0
 40
6.5
 50
270
 51
0
  0
ARC
  8
1
 62
3
 10
1902.827238704238
 20
-2293.369091522939
 30
0
 40
6.5
 50
180
 51
270
  0
ARC
  8
1
 62
3
 10
1917.439311230291
 20
-2401.126466084626
 30
0
 40
0.2999999999999545
 50
180
 51
270
  0
ARC
  8
1
 62
3
 10
1917.439311230291
 20
-2377.726466084625
 30
0
 40
0.2999999999988177
 50
90
 51
180
  0
LINE
  8
1
 62
2
 10
1918.529995371695
 20
-2325.56076173797
 30
0
 11
1941.808746576518
 21
-2325.56076173797
 31
0
  0
SOLID
  8
1
 62
2
 10
1938.608746576518
 20
-2325.98204973025
 30
0
 11
1938.608746576518
 21
-2325.13947374569
 31
0
 12
1941.808746576518
 22
-2325.56076173797
 32
0
 13
1941.808746576518
 23
-2325.56076173797
 33
0
  0
LINE
  8
1
 62
2
 10
1894.498863575706
 20
-2317.524818189072
 30
0
 11
1906.791020204951
 21
-2317.524818189072
 31
0
  0
LINE
  8
1
 62
2
 10
1906.791020204951
 20
-2317.524818189072
 30
0
 11
1914.327238704239
 21
-2306.269091522941
 31
0
  0
SOLID
  8
1
 62
2
 10
1912.896969498753
 20
-2309.162500165404
 30
0
 11
1912.196835478181
 21
-2308.6937287467
 31
0
 12
1914.327238704239
 22
-2306.269091522941
 32
0
 13
1914.327238704239
 23
-2306.269091522941
 33
0
  0
TEXT
  8
1
 62
2
 10
2043.03160161555
 20
-2340.04170938359
 30
0
 40
4
  1
KA60LM2
 41
0.9
 72
1
 73
2
 11
2055.63160161555
 21
-2338.04170938359
 31
0
  0
TEXT
  8
1
 62
2
 10
1897.581376595948
 20
-2327.427470356883
 30
0
 40
4
  1
PIN No.
 41
0.63
  0
TEXT
  8
1
 62
2
 10
1934.43723870424
 20
-2321.302779551277
 30
0
 40
3
  1
11
 41
0.6300000000000001
 72
1
 73
2
 11
1936.32723870424
 21
-2319.802779551277
 31
0
  0
TEXT
  8
1
 62
2
 10
1931.38223870424
 20
-2321.302779551277
 30
0
 40
3
  1
9
 41
0.6300000000000001
 72
1
 73
2
 11
1932.32723870424
 21
-2319.802779551277
 31
0
  0
TEXT
  8
1
 62
2
 10
1927.38223870424
 20
-2321.302779551277
 30
0
 40
3
  1
7
 41
0.6300000000000001
 72
1
 73
2
 11
1928.32723870424
 21
-2319.802779551277
 31
0
  0
TEXT
  8
1
 62
2
 10
1923.38223870424
 20
-2321.302779551277
 30
0
 40
3
  1
5
 41
0.6300000000000001
 72
1
 73
2
 11
1924.32723870424
 21
-2319.802779551277
 31
0
  0
TEXT
  8
1
 62
2
 10
1919.38223870424
 20
-2321.302779551277
 30
0
 40
3
  1
3
 41
0.6300000000000001
 72
1
 73
2
 11
1920.32723870424
 21
-2319.802779551277
 31
0
  0
TEXT
  8
1
 62
2
 10
1915.38223870424
 20
-2321.302779551277
 30
0
 40
3
  1
1
 41
0.6300000000000001
 72
1
 73
2
 11
1916.32723870424
 21
-2319.802779551277
 31
0
  0
TEXT
  8
1
 62
2
 10
1894.498863575706
 20
-2316.524818189072
 30
0
 40
4
  1
極番表示
 41
0.54
  0
TEXT
  8
1
 62
2
 10
1898.49939959182
 20
-2374.902473037455
 30
0
 40
3.5
  1
PIN NO.
 41
0.6300000000000001
  0
TEXT
  8
1
 62
2
 10
1907.031212632909
 20
-2380.676466084626
 30
0
 40
2.5
  1
11
 41
0.7200000000000001
  0
TEXT
  8
1
 62
2
 10
1907.031212632909
 20
-2384.676466084626
 30
0
 40
2.5
  1
 9
 41
0.7200000000000001
  0
TEXT
  8
1
 62
2
 10
1907.031212632909
 20
-2388.676466084626
 30
0
 40
2.5
  1
 7
 41
0.7200000000000001
  0
TEXT
  8
1
 62
2
 10
1907.031212632909
 20
-2392.676466084626
 30
0
 40
2.5
  1
 5
 41
0.7200000000000001
  0
TEXT
  8
1
 62
2
 10
1907.031212632909
 20
-2396.676466084626
 30
0
 40
2.5
  1
 3
 41
0.7200000000000001
  0
TEXT
  8
1
 62
2
 10
1907.031212632909
 20
-2400.676466084626
 30
0
 40
2.5
  1
 1
 41
0.7200000000000001
  0
TEXT
  8
1
 62
2
 10
2082.336499118209
 20
-2394.134872118381
 30
0
 40
4
  1
59333-8000
 41
0.9
 72
1
 73
2
 11
2100.336499118209
 21
-2392.134872118381
 31
0
  0
TEXT
  8
1
 62
2
 10
2082.336499118209
 20
-2388.134872118381
 30
0
 40
4
  1
51004-1100
 41
0.9
 72
1
 73
2
 11
2100.336499118209
 21
-2386.134872118381
 31
0
  0
TEXT
  8
1
 62
2
 10
2074.146027211789
 20
-2382.134872118381
 30
0
 40
4
  1
日本モレックス
 41
0.9
 72
1
 73
2
 11
2099.346027211789
 21
-2380.134872118381
 31
0
  0
TEXT
  8
1
 62
2
 10
2030.43160161555
 20
-2394.134872118381
 30
0
 40
4
  1
コンタクト型式
 41
0.9
 72
1
 73
2
 11
2055.63160161555
 21
-2392.134872118381
 31
0
  0
TEXT
  8
1
 62
2
 10
2030.43160161555
 20
-2388.134872118381
 30
0
 40
4
  1
ハウジング型式
 41
0.9
 72
1
 73
2
 11
2055.63160161555
 21
-2386.134872118381
 31
0
  0
TEXT
  8
1
 62
2
 10
2041.23160161555
 20
-2382.134872118381
 30
0
 40
4
  1
メーカ名
 41
0.9
 72
1
 73
2
 11
2055.63160161555
 21
-2380.134872118381
 31
0
  0
TEXT
  8
1
 62
2
 10
2084.086958189148
 20
-2376.134872118381
 30
0
 40
4
  1
KA60ｼﾘｰｽB
 41
0.9
 72
1
 73
2
 11
2100.286958189148
 21
-2374.134872118381
 31
0
  0
TEXT
  8
1
 62
2
 10
2041.23160161555
 20
-2400.134872118381
 30
0
 40
4
  1
リード線
 41
0.9
 72
1
 73
2
 11
2055.63160161555
 21
-2398.134872118381
 31
0
  0
TEXT
  8
1
 62
2
 10
2080.176499118209
 20
-2400.134872118381
 30
0
 40
4
  1
AWG＃22,UL3266
 41
0.7200000000000001
 72
1
 73
2
 11
2100.336499118209
 21
-2398.134872118381
 31
0
  0
DIMENSION
  8
1
  6
CONTINUOUS
 62
2
  2
*D0
  3
DMST_1
 10
2123.103406852685
 20
-2219.89953290356
 30
0
 11
2090.953430074629
 21
-2216.29953290356
 31
0
 12
0
 22
0
 32
0
 70
1
 13
2058.103406852684
 23
-2240.259936242196
 33
0
 14
2123.103406852684
 24
-2240.259936242196
 34
0
 53
0
  0
DIMENSION
  8
1
  6
CONTINUOUS
 62
2
  2
*D1
  3
DMST_1
 10
2001.08572477855
 20
-2299.869091522939
 30
0
 11
1997.059058111883
 21
-2270.93330491833
 31
0
 12
0
 22
0
 32
0
 70
0
  1
φ<>
 13
2068.103406852684
 23
-2239.869091522939
 33
0
 14
2068.103406852684
 24
-2299.869091522939
 34
0
 50
90
 53
0
  0
DIMENSION
  8
1
  6
CONTINUOUS
 62
2
  2
*D2
  3
DMST_2
 10
2058.103406852684
 20
-2308.19062643386
 30
0
 11
2050.390749748738
 21
-2304.59062643386
 31
0
 12
0
 22
0
 32
0
 70
0
 13
2063.103406852684
 23
-2299.792347336893
 33
0
 14
2058.103406852684
 24
-2299.478246803681
 34
0
 53
0
  0
DIMENSION
  8
1
  6
CONTINUOUS
 62
2
  2
*D3
  3
DMST_3
 10
1890.702310222965
 20
-2306.269091522941
 30
0
 11
1887.102310222965
 21
-2303.074821029647
 31
0
 12
0
 22
0
 32
0
 70
0
  1
※(<>
 13
1902.827238704238
 23
-2299.869091522939
 33
0
 14
1914.327238704239
 24
-2306.269091522941
 34
0
 50
90
 53
0
  0
DIMENSION
  8
1
  6
CONTINUOUS
 62
2
  2
*D4
  3
DMST_4
 10
2014.103406852684
 20
-2250.819091522939
 30
0
 11
2010.076740186017
 21
-2269.74918361229
 31
0
 12
0
 22
0
 32
0
 70
0
  1
φ<>
 13
2056.676740186017
 23
-2288.919091522939
 33
0
 14
2056.676740186017
 24
-2250.819091522939
 34
0
 50
90
 53
0
  0
DIMENSION
  8
1
  6
CONTINUOUS
 62
2
  2
*D5
  3
DMST_5
 10
2027.503406852684
 20
-2266.694091522939
 30
0
 11
2023.076740186017
 21
-2269.773914618861
 31
0
 12
0
 22
0
 32
0
 70
0
  1
φ<>
 13
2038.003406852684
 23
-2273.044091522939
 33
0
 14
2038.003406852684
 24
-2266.694091522939
 34
0
 50
90
 53
0
  0
DIMENSION
  8
1
  6
CONTINUOUS
 62
2
  2
*D6
  3
DMST_2
 10
2056.503406852684
 20
-2229.869091522939
 30
0
 11
2051.064903293915
 21
-2226.269091522939
 31
0
 12
0
 22
0
 32
0
 70
0
 13
2058.103406852684
 23
-2240.259936242196
 33
0
 14
2056.503406852684
 24
-2250.919091522939
 34
0
 53
0
  0
DIMENSION
  8
1
  6
CONTINUOUS
 62
2
  2
*D7
  3
DMST_6
 10
2058.103406852684
 20
-2219.869091522939
 30
0
 11
2048.551284309633
 21
-2216.269091522939
 31
0
 12
0
 22
0
 32
0
 70
0
 13
2037.503406852684
 23
-2267.194091522939
 33
0
 14
2058.103406852684
 24
-2240.259936242196
 34
0
 53
0
  0
DIMENSION
  8
1
  6
CONTINUOUS
 62
2
  2
*D8
  3
DMST_3
 10
1976.327238704239
 20
-2299.869091522939
 30
0
 11
1972.727238704239
 21
-2269.985154812156
 31
0
 12
0
 22
0
 32
0
 70
0
  1
(<>
 13
1949.82723870424
 23
-2239.869091522939
 33
0
 14
1949.82723870424
 24
-2299.869091522939
 34
0
 50
90
 53
0
  0
DIMENSION
  8
1
  6
CONTINUOUS
 62
2
  2
*D9
  3
DMST_2
 10
1966.327238704239
 20
-2293.43909152294
 30
0
 11
1962.727238704239
 21
-2270.059856893469
 31
0
 12
0
 22
0
 32
0
 70
0
 13
1953.670352476691
 23
-2246.299091522938
 33
0
 14
1953.670352476691
 24
-2293.43909152294
 34
0
 50
90
 53
0
  0
DIMENSION
  8
1
  6
CONTINUOUS
 62
2
  2
*D10
  3
DMST_2
 10
1949.897238704239
 20
-2229.869091522939
 30
0
 11
1926.540483407856
 21
-2226.269091522939
 31
0
 12
0
 22
0
 32
0
 70
0
 13
1902.757238704238
 23
-2242.525977750487
 33
0
 14
1949.897238704239
 24
-2242.525977750488
 34
0
 53
0
  0
DIMENSION
  8
1
  6
CONTINUOUS
 62
2
  2
*D11
  3
DMST_3
 10
1896.327238704238
 20
-2219.869091522939
 30
0
 11
1926.218147721728
 21
-2216.269091522939
 31
0
 12
0
 22
0
 32
0
 70
0
  1
(<>
 13
1956.32723870424
 23
-2246.369091522939
 33
0
 14
1896.327238704238
 24
-2246.369091522939
 34
0
 53
0
  0
DIMENSION
  8
1
  6
CONTINUOUS
 62
2
  2
*D12
  3
DMST_3
 10
1975.998240437976
 20
-2377.117071793533
 30
0
 11
1980.762677687332
 21
-2373.517071793533
 31
0
 12
0
 22
0
 32
0
 70
0
  1
(<>
 13
1985.998240437977
 23
-2385.026466084626
 33
0
 14
1975.998240437977
 24
-2385.026466084626
 34
0
 53
0
  0
DIMENSION
  8
1
  6
CONTINUOUS
 62
2
  2
*D13
  3
DMST_7
 10
1917.939311230291
 20
-2369.214984301629
 30
0
 11
1951.129849592692
 21
-2364.814984301629
 31
0
 12
0
 22
0
 32
0
 70
0
  1
300
 13
1985.998240437977
 23
-2385.026466084626
 33
0
 14
1917.939311230291
 24
-2377.426466084626
 34
0
 53
0
  0
DIMENSION
  8
1
  6
CONTINUOUS
 62
2
  2
*D14
  3
DMST_8
 10
1948.491129262744
 20
-2248.366180354734
 30
0
 11
1981.28497870328
 21
-2225.0761933763
 31
0
 12
0
 22
0
 32
0
 70
3
  1
4.5
 15
1951.303348145734
 25
-2244.232002691142
 35
0
 40
0
 53
0
  0
ENDSEC
  0
EOF
