  0
SECTION
  2
HEADER
  9
$ACADVER
  1
AC1009
  9
$INSBASE
 10
0
 20
0
  9
$EXTMIN
 10
1894.498863575707
 20
-2189.986313100456
  9
$EXTMAX
 10
2124.36424653739
 20
-2015.933016935277
  9
$LIMMIN
 10
1894.498863575707
 20
-2189.986313100456
  9
$LIMMAX
 10
2124.36424653739
 20
-2015.933016935277
  9
$VIEWCTR
 10
10
 20
10
  9
$VIEWSIZE
 40
10
  9
$SNAPMODE
 70
0
  9
$SNAPUNIT
 10
1
 20
1
  9
$SNAPBASE
 10
0
 20
0
  9
$SNAPANG
 50
0
  9
$SNAPSTYLE
 70
0
  9
$SNAPISOPAIR
 70
0
  9
$GRIDMODE
 70
0
  9
$GRIDUNIT
 10
0
 20
0
  9
$ORTHOMODE
 70
0
  9
$REGENMODE
 70
1
  9
$FILLMODE
 70
1
  9
$QTEXTMODE
 70
0
  9
$DRAGMODE
 70
2
  9
$LTSCALE
 40
1
  9
$OSMODE
 70
0
  9
$ATTMODE
 70
1
  9
$TEXTSIZE
 40
3.5
  9
$TRACEWID
 40
0.5
  9
$TEXTSTYLE
  7
STANDARD
  9
$CLAYER
  8
0
  9
$CELTYPE
  6
BYLAYER
  9
$CECOLOR
 62
256
  9
$DIMSCALE
 40
1
  9
$DIMASZ
 40
0.18
  9
$DIMEXO
 40
0.0625
  9
$DIMDLI
 40
0.38
  9
$DIMRND
 40
0
  9
$DIMDLE
 40
0
  9
$DIMEXE
 40
0.18
  9
$DIMTP
 40
0
  9
$DIMTM
 40
0
  9
$DIMTXT
 40
0.18
  9
$DIMCEN
 40
0.09
  9
$DIMTSZ
 40
0
  9
$DIMTOL
 70
0
  9
$DIMLIM
 70
0
  9
$DIMTIH
 70
1
  9
$DIMTOH
 70
1
  9
$DIMSE1
 70
0
  9
$DIMSE2
 70
0
  9
$DIMTAD
 70
0
  9
$DIMZIN
 70
0
  9
$DIMBLK
  1

  9
$DIMASO
 70
1
  9
$DIMSHO
 70
1
  9
$DIMPOST
  1

  9
$DIMAPOST
  1

  9
$DIMALT
 70
0
  9
$DIMALTD
 70
2
  9
$DIMALTF
 40
25.4
  9
$DIMLFAC
 40
1
  9
$DIMTOFL
 70
0
  9
$DIMTVP
 40
0
  9
$DIMTIX
 70
0
  9
$DIMSOXD
 70
0
  9
$DIMSAH
 70
0
  9
$DIMBLK1
  1

  9
$DIMBLK2
  1

  9
$DIMSTYLE
  2
*UNNAMED
  9
$DIMCLRD
 70
0
  9
$DIMCLRE
 70
0
  9
$DIMCLRT
 70
0
  9
$DIMTFAC
 40
1
  9
$DIMGAP
 40
0.09
  9
$LUNITS
 70
2
  9
$LUPREC
 70
4
  9
$AXISMODE
 70
0
  9
$AXISUNIT
 10
0
 20
0
  9
$SKETCHINC
 40
0.1
  9
$FILLETRAD
 40
2
  9
$AUNITS
 70
0
  9
$AUPREC
 70
0
  9
$MENU
  1
ACAD
  9
$ELEVATION
 40
0
  9
$THICKNESS
 40
0
  9
$VIEWDIR
 10
0
 20
0
 30
1
  9
$LIMCHECK
 70
0
  9
$BLIPMODE
 70
1
  9
$CHAMFERA
 40
0
  9
$CHAMFERB
 40
0
  9
$FASTZOOM
 70
1
  9
$SKPOLY
 70
0
  9
$ANGBASE
 50
0
  9
$ANGDIR
 70
0
  9
$PDMODE
 70
0
  9
$PDSIZE
 40
0
  9
$PLINEWID
 40
0
  9
$COORDS
 70
2
  0
ENDSEC
  0
SECTION
  2
TABLES
  0
TABLE
  2
DIMSTYLE
 70
7
  0
DIMSTYLE
  2
DMST_1
 70
0
  3

  4

  5

  6

  7

 40
1
 41
3.2
 42
1
 43
7
 44
1.5
 45
0
 46
0
 47
0
 48
0
140
3.2
141
0
142
0
143
25.4
144
1
145
0
146
1
147
0.09
 71
0
 72
0
 73
0
 74
0
 75
0
 76
0
 77
1
 78
9
170
0
171
2
172
0
173
0
174
0
175
0
176
2
177
2
178
2
  0
DIMSTYLE
  2
DMST_2
 70
0
  3

  4

  5

  6

  7

 40
1
 41
3.200000000000001
 42
1
 43
7
 44
1.5
 45
0
 46
0
 47
40
 48
0
140
3.200000000000001
141
0
142
0
143
25.4
144
1
145
0
146
0.6
147
0.09
 71
1
 72
0
 73
0
 74
0
 75
0
 76
0
 77
1
 78
9
170
0
171
2
172
0
173
0
174
0
175
0
176
2
177
2
178
2
  0
DIMSTYLE
  2
DMST_3
 70
0
  3
)
  4

  5

  6

  7

 40
1
 41
3.200000000000001
 42
1
 43
7
 44
1.5
 45
0
 46
0
 47
0
 48
0
140
3.200000000000001
141
0
142
0
143
25.4
144
1
145
0
146
1
147
0.09
 71
0
 72
0
 73
0
 74
0
 75
0
 76
0
 77
1
 78
9
170
0
171
2
172
0
173
0
174
0
175
0
176
2
177
2
178
2
  0
DIMSTYLE
  2
DMST_4
 70
0
  3

  4

  5

  6

  7

 40
1
 41
3.2
 42
1
 43
7
 44
1.5
 45
0
 46
0
 47
0.2
 48
0.2
140
3.2
141
0
142
0
143
25.4
144
1
145
0
146
0.6
147
0.09
 71
1
 72
0
 73
0
 74
0
 75
0
 76
0
 77
1
 78
9
170
0
171
2
172
0
173
0
174
0
175
0
176
2
177
2
178
2
  0
DIMSTYLE
  2
DMST_5
 70
0
  3

  4

  5

  6

  7

 40
1
 41
3.2
 42
1
 43
7
 44
1.5
 45
0
 46
0
 47
0
 48
0.02
140
3.2
141
0
142
0
143
25.4
144
1
145
0
146
0.6
147
0.09
 71
1
 72
0
 73
0
 74
0
 75
0
 76
0
 77
1
 78
9
170
0
171
2
172
0
173
0
174
0
175
0
176
2
177
2
178
2
  0
DIMSTYLE
  2
DMST_6
 70
0
  3

  4

  5

  6

  7

 40
1
 41
3.2
 42
1
 43
7
 44
1.5
 45
0
 46
0
 47
0
 48
0.05
140
3.2
141
0
142
0
143
25.4
144
1
145
0
146
0.6
147
0.09
 71
1
 72
0
 73
0
 74
0
 75
0
 76
0
 77
1
 78
9
170
0
171
2
172
0
173
0
174
0
175
0
176
2
177
2
178
2
  0
DIMSTYLE
  2
DMST_7
 70
0
  3

  4

  5

  6

  7

 40
1
 41
3.2
 42
1
 43
7
 44
1.5
 45
0
 46
0
 47
0.5
 48
0.5
140
3.2
141
0
142
0
143
25.4
144
1
145
0
146
0.6
147
0.09
 71
1
 72
0
 73
0
 74
0
 75
0
 76
0
 77
1
 78
9
170
0
171
2
172
0
173
0
174
0
175
0
176
2
177
2
178
2
  0
ENDTAB
  0
TABLE
  2
LTYPE
 70
9
  0
LTYPE
  2
CONTINUOUS
 70
64
  3
Solid line
 72
65
 73
0
 40
0
  0
LTYPE
  2
BORDER
 70
64
  3
__ __ . __ __ .
 72
65
 73
6
 40
10.58590579428804
 49
3.024544512653725
 49
-1.512272256326862
 49
3.024544512653725
 49
-1.512272256326862
 49
0
 49
-1.512272256326862
  0
LTYPE
  2
CENTER
 70
64
  3
____ _ ____ _
 72
65
 73
4
 40
12.0981780506149
 49
7.561361281634311
 49
-1.512272256326862
 49
1.512272256326862
 49
-1.512272256326862
  0
LTYPE
  2
DASHDOT
 70
64
  3
__ . __ . __ .
 72
65
 73
4
 40
6.049089025307449
 49
3.024544512653725
 49
-1.512272256326862
 49
0
 49
-1.512272256326862
  0
LTYPE
  2
DASHED
 70
64
  3
__ __ __ __ __
 72
65
 73
2
 40
4.536816768980587
 49
3.024544512653725
 49
-1.512272256326862
  0
LTYPE
  2
DIVIDE
 70
64
  3
__ . . __ . . 
 72
65
 73
6
 40
7.561361281634311
 49
3.024544512653725
 49
-1.512272256326862
 49
0
 49
-1.512272256326862
 49
0
 49
-1.512272256326862
  0
LTYPE
  2
DOT
 70
64
  3
..............
 72
65
 73
4
 40
3.024544512653725
 49
0
 49
-1.512272256326862
 49
0
 49
-1.512272256326862
  0
LTYPE
  2
HIDDEN
 70
64
  3
_ _ _ _ _ _ _
 72
65
 73
2
 40
2.268408384490293
 49
1.512272256326862
 49
-0.7561361281634311
  0
LTYPE
  2
PHANTOM
 70
64
  3
_____ _ _ _____ _ _ 
 72
65
 73
6
 40
15.12272256326862
 49
7.561361281634311
 49
-1.512272256326862
 49
1.512272256326862
 49
-1.512272256326862
 49
1.512272256326862
 49
-1.512272256326862
  0
ENDTAB
  0
TABLE
  2
LAYER
 70
3
  0
LAYER
  2
1
 70
0
 62
7
  6
CONTINUOUS
  0
LAYER
  2
0
 70
0
 62
7
  6
CONTINUOUS
  0
ENDTAB
  0
TABLE
  2
STYLE
 70
4
  0
STYLE
  2
STANDARD
 70
0
 40
0
 41
1
 50
0
 71
0
 42
3.5
  3
txt
  4

  0
STYLE
  2
SIMPLEX
 70
0
 40
0
 41
1
 50
0
 71
0
 42
3.5
  3
simplex
  4

  0
STYLE
  2
COMPLEX
 70
0
 40
0
 41
1
 50
0
 71
0
 42
3.5
  3
complex
  4

  0
STYLE
  2
ITALIC
 70
0
 40
0
 41
1
 50
0
 71
0
 42
3.5
  3
italic
  4

  0
ENDTAB
  0
TABLE
  2
VIEW
 70
0
  0
ENDTAB
  0
ENDSEC
  0
SECTION
  2
BLOCKS
  0
BLOCK
  8
1
  2
*D0
 70
1
 10
0
 20
0
 30
0
  0
LINE
  8
1
 62
2
 10
2048.83041928716
 20
-2024.4001500229
 30
0
 11
2098.83041928716
 21
-2024.4001500229
 31
0
  0
LINE
  8
1
 62
2
 10
2098.83041928716
 20
-2041.055249994028
 30
0
 11
2098.83041928716
 21
-2022.9001500229
 31
0
  0
LINE
  8
1
 62
2
 10
2048.83041928716
 20
-2041.055249994028
 30
0
 11
2048.83041928716
 21
-2022.9001500229
 31
0
  0
SOLID
  8
1
 62
2
 10
2048.83041928716
 20
-2024.4001500229
 30
0
 11
2052.03041928716
 21
-2023.9841500229
 31
0
 12
2052.03041928716
 22
-2024.8161500229
 32
0
 13
2052.03041928716
 23
-2024.8161500229
 33
0
  0
SOLID
  8
1
 62
2
 10
2098.83041928716
 20
-2024.4001500229
 30
0
 11
2095.63041928716
 21
-2024.8161500229
 31
0
 12
2095.63041928716
 22
-2023.9841500229
 32
0
 13
2095.63041928716
 23
-2023.9841500229
 33
0
  0
TEXT
  8
1
 62
2
 10
2071.28837010376
 20
-2022.4001500229
 30
0
 40
3.2
  1
50
 41
0.9
  0
ENDBLK
  8
0
  0
BLOCK
  8
1
  2
*D1
 70
1
 10
0
 20
0
 30
0
  0
LINE
  8
1
 62
2
 10
1901.327238704238
 20
-2021.98635026861
 30
0
 11
1951.327238704238
 21
-2021.98635026861
 31
0
  0
LINE
  8
1
 62
2
 10
1951.327238704238
 20
-2065.911286586339
 30
0
 11
1951.327238704238
 21
-2020.48635026861
 31
0
  0
LINE
  8
1
 62
2
 10
1901.327238704238
 20
-2065.911286586339
 30
0
 11
1901.327238704238
 21
-2020.48635026861
 31
0
  0
SOLID
  8
1
 62
2
 10
1901.327238704238
 20
-2021.98635026861
 30
0
 11
1904.527238704238
 21
-2021.57035026861
 31
0
 12
1904.527238704238
 22
-2022.40235026861
 32
0
 13
1904.527238704238
 23
-2022.40235026861
 33
0
  0
SOLID
  8
1
 62
2
 10
1951.327238704238
 20
-2021.98635026861
 30
0
 11
1948.127238704238
 21
-2022.40235026861
 31
0
 12
1948.127238704238
 22
-2021.57035026861
 32
0
 13
1948.127238704238
 23
-2021.57035026861
 33
0
  0
TEXT
  8
1
 62
2
 10
1926.631925720625
 20
-2019.133016935276
 30
0
 40
3.2
  1
50
 41
0.9
  0
TEXT
  8
1
 62
2
 10
1922.584866897095
 20
-2019.133016935276
 30
0
 40
3.2
  1
âË
 41
0.9
  0
ENDBLK
  8
0
  0
BLOCK
  8
1
  2
*D2
 70
1
 10
0
 20
0
 30
0
  0
LINE
  8
1
 62
2
 10
1917.939311230291
 20
-2157.274831317459
 30
0
 11
1985.998240437976
 21
-2157.274831317459
 31
0
  0
LINE
  8
1
 62
2
 10
1917.939311230291
 20
-2164.486313100456
 30
0
 11
1917.939311230291
 21
-2155.774831317459
 31
0
  0
LINE
  8
1
 62
2
 10
1985.998240437976
 20
-2172.086313100456
 30
0
 11
1985.998240437976
 21
-2155.774831317459
 31
0
  0
SOLID
  8
1
 62
2
 10
1917.939311230291
 20
-2157.274831317459
 30
0
 11
1921.139311230291
 21
-2156.858831317459
 31
0
 12
1921.139311230291
 22
-2157.69083131746
 32
0
 13
1921.139311230291
 23
-2157.69083131746
 33
0
  0
SOLID
  8
1
 62
2
 10
1985.998240437976
 20
-2157.274831317459
 30
0
 11
1982.798240437976
 21
-2157.69083131746
 31
0
 12
1982.798240437976
 22
-2156.858831317459
 32
0
 13
1982.798240437976
 23
-2156.858831317459
 33
0
  0
TEXT
  8
1
 62
2
 10
1944.281849592692
 20
-2154.474831317459
 30
0
 40
3.200000000000001
  1
300
 41
0.9
  0
TEXT
  8
1
 62
2
 10
1953.561849592692
 20
-2152.394831317459
 30
0
 40
1.920000000000001
  1
+40
 41
0.9
  0
TEXT
  8
1
 62
2
 10
1953.561849592692
 20
-2155.274831317459
 30
0
 40
1.920000000000001
  1
 0
 41
0.9
  0
ENDBLK
  8
0
  0
BLOCK
  8
1
  2
*D3
 70
1
 10
0
 20
0
 30
0
  0
LINE
  8
1
 62
2
 10
1975.998240437976
 20
-2165.176918809363
 30
0
 11
1985.998240437976
 21
-2165.176918809363
 31
0
  0
LINE
  8
1
 62
2
 10
1975.998240437976
 20
-2172.086313100456
 30
0
 11
1975.998240437976
 21
-2163.676918809363
 31
0
  0
LINE
  8
1
 62
2
 10
1985.998240437976
 20
-2172.086313100456
 30
0
 11
1985.998240437976
 21
-2163.676918809363
 31
0
  0
SOLID
  8
1
 62
2
 10
1975.998240437976
 20
-2165.176918809363
 30
0
 11
1979.198240437976
 21
-2164.760918809363
 31
0
 12
1979.198240437976
 22
-2165.592918809363
 32
0
 13
1979.198240437976
 23
-2165.592918809363
 33
0
  0
SOLID
  8
1
 62
2
 10
1985.998240437976
 20
-2165.176918809363
 30
0
 11
1982.798240437976
 21
-2165.592918809363
 31
0
 12
1982.798240437976
 22
-2164.760918809363
 32
0
 13
1982.798240437976
 23
-2164.760918809363
 33
0
  0
TEXT
  8
1
 62
2
 10
1978.842677687332
 20
-2163.176918809363
 30
0
 40
3.200000000000001
  1
10
 41
0.9
  0
TEXT
  8
1
 62
2
 10
1976.762677687332
 20
-2163.176918809363
 30
0
 40
3.200000000000001
  1
(
 41
0.9
  0
TEXT
  8
1
 62
2
 10
1984.282677687332
 20
-2163.176918809363
 30
0
 40
3.200000000000001
  1
)
 41
0.9
  0
ENDBLK
  8
0
  0
BLOCK
  8
1
  2
*D4
 70
1
 10
0
 20
0
 30
0
  0
LINE
  8
1
 62
2
 10
1960.927238704238
 20
-2082.41128658634
 30
0
 11
1960.927238704238
 21
-2051.41128658634
 31
0
  0
LINE
  8
1
 62
2
 10
1945.827238704238
 20
-2051.41128658634
 30
0
 11
1962.427238704238
 21
-2051.41128658634
 31
0
  0
LINE
  8
1
 62
2
 10
1945.827238704238
 20
-2082.41128658634
 30
0
 11
1962.427238704238
 21
-2082.41128658634
 31
0
  0
SOLID
  8
1
 62
2
 10
1960.927238704238
 20
-2051.41128658634
 30
0
 11
1961.343238704238
 21
-2054.61128658634
 31
0
 12
1960.511238704238
 22
-2054.61128658634
 32
0
 13
1960.511238704238
 23
-2054.61128658634
 33
0
  0
SOLID
  8
1
 62
2
 10
1960.927238704238
 20
-2082.41128658634
 30
0
 11
1960.511238704238
 21
-2079.21128658634
 31
0
 12
1961.343238704238
 22
-2079.21128658634
 32
0
 13
1961.343238704238
 23
-2079.21128658634
 33
0
  0
TEXT
  8
1
 62
2
 10
1958.927238704238
 20
-2072.10328658634
 30
0
 40
3.2
  1
31
 50
90
 41
0.9
  0
TEXT
  8
1
 62
2
 10
1958.287238704238
 20
-2066.66328658634
 30
0
 40
1.92
  1
%%p0.2
 50
90
 41
0.9
  0
ENDBLK
  8
0
  0
BLOCK
  8
1
  2
*D5
 70
1
 10
0
 20
0
 30
0
  0
LINE
  8
1
 62
2
 10
1910.827238704238
 20
-2034.46891234612
 30
0
 11
1941.827238704238
 21
-2034.46891234612
 31
0
  0
LINE
  8
1
 62
2
 10
1910.827238704238
 20
-2047.41128658634
 30
0
 11
1910.827238704238
 21
-2032.96891234612
 31
0
  0
LINE
  8
1
 62
2
 10
1941.827238704238
 20
-2047.41128658634
 30
0
 11
1941.827238704238
 21
-2032.96891234612
 31
0
  0
SOLID
  8
1
 62
2
 10
1910.827238704238
 20
-2034.46891234612
 30
0
 11
1914.027238704238
 21
-2034.05291234612
 31
0
 12
1914.027238704238
 22
-2034.88491234612
 32
0
 13
1914.027238704238
 23
-2034.88491234612
 33
0
  0
SOLID
  8
1
 62
2
 10
1941.827238704238
 20
-2034.46891234612
 30
0
 11
1938.627238704238
 21
-2034.88491234612
 31
0
 12
1938.627238704238
 22
-2034.05291234612
 32
0
 13
1938.627238704238
 23
-2034.05291234612
 33
0
  0
TEXT
  8
1
 62
2
 10
1919.73021046994
 20
-2032.46891234612
 30
0
 40
3.2
  1
31
 41
0.9
  0
TEXT
  8
1
 62
2
 10
1925.17021046994
 20
-2031.82891234612
 30
0
 40
1.92
  1
%%p0.2
 41
0.9
  0
ENDBLK
  8
0
  0
BLOCK
  8
1
  2
*D6
 70
1
 10
0
 20
0
 30
0
  0
LINE
  8
1
 62
2
 10
2014.223752620493
 20
-2069.41128658634
 30
0
 11
2014.223752620493
 21
-2064.41128658634
 31
0
  0
LINE
  8
1
 62
2
 10
2014.223752620493
 20
-2069.41128658634
 30
0
 11
2014.223752620493
 21
-2075.81128658634
 31
0
  0
LINE
  8
1
 62
2
 10
2014.223752620493
 20
-2064.41128658634
 30
0
 11
2014.223752620493
 21
-2058.01128658634
 31
0
  0
LINE
  8
1
 62
2
 10
2024.33041928716
 20
-2069.41128658634
 30
0
 11
2012.723752620493
 21
-2069.41128658634
 31
0
  0
LINE
  8
1
 62
2
 10
2024.33041928716
 20
-2064.41128658634
 30
0
 11
2012.723752620493
 21
-2064.41128658634
 31
0
  0
SOLID
  8
1
 62
2
 10
2014.223752620493
 20
-2064.41128658634
 30
0
 11
2013.807752620493
 21
-2061.21128658634
 31
0
 12
2014.639752620493
 22
-2061.21128658634
 32
0
 13
2014.639752620493
 23
-2061.21128658634
 33
0
  0
SOLID
  8
1
 62
2
 10
2014.223752620493
 20
-2069.41128658634
 30
0
 11
2014.639752620493
 21
-2072.61128658634
 31
0
 12
2013.807752620493
 22
-2072.61128658634
 32
0
 13
2013.807752620493
 23
-2072.61128658634
 33
0
  0
TEXT
  8
1
 62
2
 10
2011.370419287159
 20
-2067.996423841242
 30
0
 40
3.2
  1
5
 50
90
 41
0.9
  0
TEXT
  8
1
 62
2
 10
2009.290419287159
 20
-2064.476423841242
 30
0
 40
1.92
  1
 0
 50
90
 41
0.9
  0
TEXT
  8
1
 62
2
 10
2012.170419287159
 20
-2064.476423841242
 30
0
 40
1.92
  1
-0.02
 50
90
 41
0.9
  0
TEXT
  8
1
 62
2
 10
2011.370419287159
 20
-2072.043482664772
 30
0
 40
3.2
  1
âË
 50
90
 41
0.9
  0
ENDBLK
  8
0
  0
BLOCK
  8
1
  2
*D7
 70
1
 10
0
 20
0
 30
0
  0
LINE
  8
1
 62
2
 10
2004.323752620493
 20
-2077.91128658634
 30
0
 11
2004.323752620493
 21
-2055.91128658634
 31
0
  0
LINE
  8
1
 62
2
 10
2046.33041928716
 20
-2077.91128658634
 30
0
 11
2002.823752620493
 21
-2077.91128658634
 31
0
  0
LINE
  8
1
 62
2
 10
2046.33041928716
 20
-2055.91128658634
 30
0
 11
2002.823752620493
 21
-2055.91128658634
 31
0
  0
SOLID
  8
1
 62
2
 10
2004.323752620493
 20
-2055.91128658634
 30
0
 11
2004.739752620493
 21
-2059.11128658634
 31
0
 12
2003.907752620493
 22
-2059.11128658634
 32
0
 13
2003.907752620493
 23
-2059.11128658634
 33
0
  0
SOLID
  8
1
 62
2
 10
2004.323752620493
 20
-2077.91128658634
 30
0
 11
2003.907752620493
 21
-2074.71128658634
 31
0
 12
2004.739752620493
 22
-2074.71128658634
 32
0
 13
2004.739752620493
 23
-2074.71128658634
 33
0
  0
TEXT
  8
1
 62
2
 10
2001.470419287159
 20
-2069.019757174575
 30
0
 40
3.2
  1
22
 50
90
 41
0.9
  0
TEXT
  8
1
 62
2
 10
1999.390419287159
 20
-2062.619757174575
 30
0
 40
1.92
  1
 0
 50
90
 41
0.9
  0
TEXT
  8
1
 62
2
 10
2002.270419287159
 20
-2062.619757174575
 30
0
 40
1.92
  1
-0.05
 50
90
 41
0.9
  0
TEXT
  8
1
 62
2
 10
2001.470419287159
 20
-2073.066815998105
 30
0
 40
3.2
  1
âË
 50
90
 41
0.9
  0
ENDBLK
  8
0
  0
BLOCK
  8
1
  2
*D8
 70
1
 10
0
 20
0
 30
0
  0
LINE
  8
1
 62
2
 10
2055.23041928716
 20
-2033.53888030693
 30
0
 11
2048.83041928716
 21
-2033.53888030693
 31
0
  0
LINE
  8
1
 62
2
 10
2046.83041928716
 20
-2033.53888030693
 30
0
 11
2048.83041928716
 21
-2033.53888030693
 31
0
  0
LINE
  8
1
 62
2
 10
2046.83041928716
 20
-2033.53888030693
 30
0
 11
2034.41570952354
 21
-2033.53888030693
 31
0
  0
LINE
  8
1
 62
2
 10
2046.83041928716
 20
-2056.61128658634
 30
0
 11
2046.83041928716
 21
-2032.03888030693
 31
0
  0
LINE
  8
1
 62
2
 10
2048.83041928716
 20
-2041.055249994028
 30
0
 11
2048.83041928716
 21
-2032.03888030693
 31
0
  0
SOLID
  8
1
 62
2
 10
2048.83041928716
 20
-2033.53888030693
 30
0
 11
2052.03041928716
 21
-2033.12288030693
 31
0
 12
2052.03041928716
 22
-2033.95488030693
 32
0
 13
2052.03041928716
 23
-2033.95488030693
 33
0
  0
SOLID
  8
1
 62
2
 10
2046.83041928716
 20
-2033.53888030693
 30
0
 11
2043.63041928716
 21
-2033.95488030693
 31
0
 12
2043.63041928716
 22
-2033.12288030693
 32
0
 13
2043.63041928716
 23
-2033.12288030693
 33
0
  0
TEXT
  8
1
 62
2
 10
2034.41570952354
 20
-2031.53888030693
 30
0
 40
3.2
  1
2
 41
0.9
  0
TEXT
  8
1
 62
2
 10
2037.93570952354
 20
-2030.89888030693
 30
0
 40
1.92
  1
%%p0.2
 41
0.9
  0
ENDBLK
  8
0
  0
BLOCK
  8
1
  2
*D9
 70
1
 10
0
 20
0
 30
0
  0
LINE
  8
1
 62
2
 10
2024.83041928716
 20
-2024.36108405065
 30
0
 11
2048.83041928716
 21
-2024.36108405065
 31
0
  0
LINE
  8
1
 62
2
 10
2024.83041928716
 20
-2063.91128658634
 30
0
 11
2024.83041928716
 21
-2022.86108405065
 31
0
  0
LINE
  8
1
 62
2
 10
2048.83041928716
 20
-2041.055249994028
 30
0
 11
2048.83041928716
 21
-2022.86108405065
 31
0
  0
SOLID
  8
1
 62
2
 10
2048.83041928716
 20
-2024.36108405065
 30
0
 11
2045.63041928716
 21
-2024.77708405065
 31
0
 12
2045.63041928716
 22
-2023.94508405065
 32
0
 13
2045.63041928716
 23
-2023.94508405065
 33
0
  0
SOLID
  8
1
 62
2
 10
2024.83041928716
 20
-2024.36108405065
 30
0
 11
2028.03041928716
 21
-2023.94508405065
 31
0
 12
2028.03041928716
 22
-2024.77708405065
 32
0
 13
2028.03041928716
 23
-2024.77708405065
 33
0
  0
TEXT
  8
1
 62
2
 10
2029.98294987476
 20
-2022.36108405065
 30
0
 40
3.2
  1
24
 41
0.9
  0
TEXT
  8
1
 62
2
 10
2036.38294987476
 20
-2021.72108405065
 30
0
 40
1.92
  1
%%p0.5
 41
0.9
  0
ENDBLK
  8
0
  0
BLOCK
  8
1
  2
*D10
 70
1
 10
0
 20
0
 30
0
  0
LINE
  8
1
 62
2
 10
1902.348907887531
 20
-2098.01126865869
 30
0
 11
1902.348907887531
 21
-2091.91128658634
 31
0
  0
LINE
  8
1
 62
2
 10
1902.348907887531
 20
-2098.01126865869
 30
0
 11
1902.348907887531
 21
-2104.411268658691
 31
0
  0
LINE
  8
1
 62
2
 10
1902.348907887531
 20
-2091.91128658634
 30
0
 11
1902.348907887531
 21
-2085.51128658634
 31
0
  0
LINE
  8
1
 62
2
 10
1913.32723870424
 20
-2098.01126865869
 30
0
 11
1900.848907887531
 21
-2098.01126865869
 31
0
  0
LINE
  8
1
 62
2
 10
1925.327238704238
 20
-2091.91128658634
 30
0
 11
1900.848907887531
 21
-2091.91128658634
 31
0
  0
SOLID
  8
1
 62
2
 10
1902.348907887531
 20
-2091.91128658634
 30
0
 11
1901.932907887531
 21
-2088.711286586341
 31
0
 12
1902.764907887531
 22
-2088.711286586341
 32
0
 13
1902.764907887531
 23
-2088.711286586341
 33
0
  0
SOLID
  8
1
 62
2
 10
1902.348907887531
 20
-2098.01126865869
 30
0
 11
1902.764907887531
 21
-2101.21126865869
 31
0
 12
1901.932907887531
 22
-2101.21126865869
 32
0
 13
1901.932907887531
 23
-2101.21126865869
 33
0
  0
TEXT
  8
1
 62
2
 10
1900.348907887531
 20
-2095.544915663323
 30
0
 40
3.2
  1
6.1
 50
90
 41
0.9
  0
TEXT
  8
1
 62
2
 10
1900.348907887531
 20
-2101.389621545676
 30
0
 40
3.2
  1
üª(
 50
90
 41
0.9
  0
TEXT
  8
1
 62
2
 10
1900.348907887531
 20
-2088.904915663323
 30
0
 40
3.2
  1
)
 50
90
 41
0.9
  0
ENDBLK
  8
0
  0
ENDSEC
  0
SECTION
  2
ENTITIES
  0
LINE
  8
1
 62
2
 10
2124.36424653739
 20
-2189.16806886834
 30
0
 11
2033.72424496147
 21
-2189.16806886834
 31
0
  0
LINE
  8
1
 62
3
 10
2033.72424496147
 20
-2159.16806886834
 30
0
 11
2124.36424653739
 21
-2159.16806886834
 31
0
  0
LINE
  8
1
 62
2
 10
2076.820919636461
 20
-2159.16806886834
 30
0
 11
2076.820919636461
 21
-2189.16806886834
 31
0
  0
LINE
  8
1
 62
3
 10
2033.72424496147
 20
-2165.16806886834
 30
0
 11
2124.36424653739
 21
-2165.16806886834
 31
0
  0
LINE
  8
1
 62
2
 10
2033.72424496147
 20
-2177.16806886834
 30
0
 11
2124.36424653739
 21
-2177.16806886834
 31
0
  0
LINE
  8
1
 62
2
 10
2124.36424653739
 20
-2171.16806886834
 30
0
 11
2033.72424496147
 21
-2171.16806886834
 31
0
  0
LINE
  8
1
 62
2
 10
2124.36424653739
 20
-2183.16806886834
 30
0
 11
2033.72424496147
 21
-2183.16806886834
 31
0
  0
LINE
  8
1
 62
3
 10
1922.939311230291
 20
-2166.686313100456
 30
0
 11
1917.939311230291
 21
-2166.686313100456
 31
0
  0
LINE
  8
1
 62
3
 10
1935.628145448267
 20
-2172.686313100456
 30
0
 11
1922.939311230291
 21
-2166.686313100456
 31
0
  0
LINE
  8
1
 62
3
 10
1935.628145448267
 20
-2174.286313100456
 30
0
 11
1922.939311230291
 21
-2168.286313100456
 31
0
  0
LINE
  8
1
 62
3
 10
1922.939311230291
 20
-2168.286313100456
 30
0
 11
1917.939311230291
 21
-2168.286313100456
 31
0
  0
LINE
  8
1
 62
3
 10
1922.939311230291
 20
-2170.686313100456
 30
0
 11
1917.939311230291
 21
-2170.686313100456
 31
0
  0
LINE
  8
1
 62
3
 10
1935.628145448267
 20
-2174.286313100456
 30
0
 11
1922.939311230291
 21
-2170.686313100456
 31
0
  0
LINE
  8
1
 62
3
 10
1935.628145448267
 20
-2175.886313100456
 30
0
 11
1922.939311230291
 21
-2172.286313100456
 31
0
  0
LINE
  8
1
 62
3
 10
1922.939311230291
 20
-2172.286313100456
 30
0
 11
1917.939311230291
 21
-2172.286313100456
 31
0
  0
LINE
  8
1
 62
3
 10
1922.939311230291
 20
-2174.686313100456
 30
0
 11
1917.939311230291
 21
-2174.686313100456
 31
0
  0
LINE
  8
1
 62
3
 10
1935.628145448267
 20
-2175.886313100456
 30
0
 11
1922.939311230291
 21
-2174.686313100456
 31
0
  0
LINE
  8
1
 62
3
 10
1935.628145448267
 20
-2177.486313100456
 30
0
 11
1922.939311230291
 21
-2176.286313100456
 31
0
  0
LINE
  8
1
 62
3
 10
1922.939311230291
 20
-2176.286313100456
 30
0
 11
1917.939311230291
 21
-2176.286313100456
 31
0
  0
LINE
  8
1
 62
3
 10
1952.149280499871
 20
-2182.286313100456
 30
0
 11
1975.998240437977
 21
-2182.286313100456
 31
0
  0
LINE
  8
1
 62
3
 10
1952.149280499871
 20
-2180.686313100456
 30
0
 11
1975.998240437977
 21
-2180.686313100456
 31
0
  0
LINE
  8
1
 62
3
 10
1952.149280499871
 20
-2179.086313100456
 30
0
 11
1975.998240437977
 21
-2179.086313100456
 31
0
  0
LINE
  8
1
 62
3
 10
1952.149280499871
 20
-2177.486313100456
 30
0
 11
1975.998240437977
 21
-2177.486313100456
 31
0
  0
LINE
  8
1
 62
3
 10
1952.149280499871
 20
-2175.886313100456
 30
0
 11
1975.998240437977
 21
-2175.886313100456
 31
0
  0
LINE
  8
1
 62
3
 10
1952.149280499871
 20
-2174.286313100456
 30
0
 11
1975.998240437977
 21
-2174.286313100456
 31
0
  0
LINE
  8
1
 62
3
 10
1952.149280499871
 20
-2172.686313100456
 30
0
 11
1975.998240437977
 21
-2172.686313100456
 31
0
  0
LINE
  8
1
 62
2
 10
1950.644052674293
 20
-2189.986313100456
 30
0
 11
1950.644052674293
 21
-2164.986313100456
 31
0
  0
LINE
  8
1
 62
2
 10
1952.149280499871
 20
-2189.986313100456
 30
0
 11
1952.149280499871
 21
-2164.986313100456
 31
0
  0
LINE
  8
1
 62
3
 10
1917.939311230291
 20
-2188.286313100456
 30
0
 11
1922.939311230291
 21
-2188.286313100456
 31
0
  0
LINE
  8
1
 62
3
 10
1917.939311230291
 20
-2186.686313100456
 30
0
 11
1922.939311230291
 21
-2186.686313100456
 31
0
  0
LINE
  8
1
 62
3
 10
1917.939311230291
 20
-2184.286313100456
 30
0
 11
1922.939311230291
 21
-2184.286313100456
 31
0
  0
LINE
  8
1
 62
3
 10
1917.939311230291
 20
-2182.686313100456
 30
0
 11
1922.939311230291
 21
-2182.686313100456
 31
0
  0
LINE
  8
1
 62
3
 10
1917.939311230291
 20
-2180.286313100456
 30
0
 11
1922.939311230291
 21
-2180.286313100456
 31
0
  0
LINE
  8
1
 62
3
 10
1917.939311230291
 20
-2178.686313100456
 30
0
 11
1922.939311230291
 21
-2178.686313100456
 31
0
  0
LINE
  8
1
 62
3
 10
1922.939311230291
 20
-2188.286313100456
 30
0
 11
1935.628145448267
 21
-2182.286313100456
 31
0
  0
LINE
  8
1
 62
3
 10
1922.939311230291
 20
-2186.686313100456
 30
0
 11
1935.628145448267
 21
-2180.686313100456
 31
0
  0
LINE
  8
1
 62
3
 10
1922.939311230291
 20
-2184.286313100456
 30
0
 11
1935.628145448267
 21
-2180.686313100456
 31
0
  0
LINE
  8
1
 62
3
 10
1922.939311230291
 20
-2182.686313100456
 30
0
 11
1935.628145448267
 21
-2179.086313100456
 31
0
  0
LINE
  8
1
 62
3
 10
1922.939311230291
 20
-2180.286313100456
 30
0
 11
1935.628145448267
 21
-2179.086313100456
 31
0
  0
LINE
  8
1
 62
3
 10
1922.939311230291
 20
-2178.686313100456
 30
0
 11
1935.628145448267
 21
-2177.486313100456
 31
0
  0
LINE
  8
1
 62
3
 10
1935.628145448267
 20
-2182.286313100456
 30
0
 11
1950.644052674293
 21
-2182.286313100456
 31
0
  0
LINE
  8
1
 62
3
 10
1935.628145448267
 20
-2180.686313100456
 30
0
 11
1950.644052674293
 21
-2180.686313100456
 31
0
  0
LINE
  8
1
 62
3
 10
1935.628145448267
 20
-2179.086313100456
 30
0
 11
1950.644052674293
 21
-2179.086313100456
 31
0
  0
LINE
  8
1
 62
3
 10
1935.628145448267
 20
-2177.486313100456
 30
0
 11
1950.644052674293
 21
-2177.486313100456
 31
0
  0
LINE
  8
1
 62
3
 10
1935.628145448267
 20
-2175.886313100456
 30
0
 11
1950.644052674293
 21
-2175.886313100456
 31
0
  0
LINE
  8
1
 62
3
 10
1935.628145448267
 20
-2174.286313100456
 30
0
 11
1950.644052674293
 21
-2174.286313100456
 31
0
  0
LINE
  8
1
 62
3
 10
1935.628145448267
 20
-2172.686313100456
 30
0
 11
1950.644052674293
 21
-2172.686313100456
 31
0
  0
LINE
  8
1
 62
3
 10
1914.439311230291
 20
-2168.986313100456
 30
0
 11
1914.439311230291
 21
-2167.986313100456
 31
0
  0
LINE
  8
1
 62
3
 10
1914.439311230291
 20
-2186.986313100456
 30
0
 11
1914.439311230291
 21
-2185.986313100456
 31
0
  0
LINE
  8
1
 62
3
 10
1914.539311230291
 20
-2168.986313100456
 30
0
 11
1914.539311230291
 21
-2167.986313100456
 31
0
  0
LINE
  8
1
 62
3
 10
1914.839311230291
 20
-2167.986313100456
 30
0
 11
1914.839311230291
 21
-2168.986313100456
 31
0
  0
LINE
  8
1
 62
3
 10
1913.439311230291
 20
-2167.986313100456
 30
0
 11
1914.839311230291
 21
-2167.986313100456
 31
0
  0
LINE
  8
1
 62
3
 10
1913.439311230291
 20
-2168.986313100456
 30
0
 11
1913.439311230291
 21
-2167.986313100456
 31
0
  0
LINE
  8
1
 62
3
 10
1914.839311230291
 20
-2168.986313100456
 30
0
 11
1913.439311230291
 21
-2168.986313100456
 31
0
  0
LINE
  8
1
 62
3
 10
1914.539311230291
 20
-2186.986313100456
 30
0
 11
1914.539311230291
 21
-2185.986313100456
 31
0
  0
LINE
  8
1
 62
3
 10
1914.839311230291
 20
-2185.986313100456
 30
0
 11
1914.839311230291
 21
-2186.986313100456
 31
0
  0
LINE
  8
1
 62
3
 10
1914.839311230291
 20
-2186.986313100456
 30
0
 11
1913.439311230291
 21
-2186.986313100456
 31
0
  0
LINE
  8
1
 62
3
 10
1913.439311230291
 20
-2186.986313100456
 30
0
 11
1913.439311230291
 21
-2185.986313100456
 31
0
  0
LINE
  8
1
 62
3
 10
1913.439311230291
 20
-2185.986313100456
 30
0
 11
1914.839311230291
 21
-2185.986313100456
 31
0
  0
LINE
  8
1
 62
3
 10
1917.439311230291
 20
-2165.486313100456
 30
0
 11
1917.939311230291
 21
-2165.486313100456
 31
0
  0
LINE
  8
1
 62
3
 10
1917.139311230291
 20
-2166.036313100456
 30
0
 11
1917.139311230291
 21
-2165.786313100456
 31
0
  0
LINE
  8
1
 62
3
 10
1917.939311230291
 20
-2189.486313100456
 30
0
 11
1917.439311230291
 21
-2189.486313100456
 31
0
  0
LINE
  8
1
 62
3
 10
1917.139311230291
 20
-2189.186313100456
 30
0
 11
1917.139311230291
 21
-2188.936313100456
 31
0
  0
LINE
  8
1
 62
3
 10
1917.939311230291
 20
-2189.486313100456
 30
0
 11
1917.939311230291
 21
-2165.486313100456
 31
0
  0
LINE
  8
1
 62
3
 10
1917.139311230291
 20
-2188.936313100456
 30
0
 11
1912.139311230291
 21
-2188.936313100456
 31
0
  0
LINE
  8
1
 62
3
 10
1912.139311230291
 20
-2188.936313100456
 30
0
 11
1912.139311230291
 21
-2166.036313100456
 31
0
  0
LINE
  8
1
 62
3
 10
1912.139311230291
 20
-2166.036313100456
 30
0
 11
1917.139311230291
 21
-2166.036313100456
 31
0
  0
LINE
  8
1
 62
3
 10
1975.998240437977
 20
-2172.686313100456
 30
0
 11
1975.998240437977
 21
-2182.286313100456
 31
0
  0
LINE
  8
1
 62
2
 10
1975.998240437977
 20
-2173.086313100456
 30
0
 11
1985.998240437977
 21
-2173.086313100456
 31
0
  0
LINE
  8
1
 62
2
 10
1985.998240437977
 20
-2173.486313100456
 30
0
 11
1975.998240437977
 21
-2173.486313100456
 31
0
  0
LINE
  8
1
 62
2
 10
1975.998240437977
 20
-2173.886313100456
 30
0
 11
1985.998240437977
 21
-2173.886313100456
 31
0
  0
LINE
  8
1
 62
2
 10
1975.998240437977
 20
-2174.686313100456
 30
0
 11
1985.998240437977
 21
-2174.686313100456
 31
0
  0
LINE
  8
1
 62
2
 10
1985.998240437977
 20
-2175.086313100456
 30
0
 11
1975.998240437977
 21
-2175.086313100456
 31
0
  0
LINE
  8
1
 62
2
 10
1975.998240437977
 20
-2175.486313100456
 30
0
 11
1985.998240437977
 21
-2175.486313100456
 31
0
  0
LINE
  8
1
 62
2
 10
1975.998240437977
 20
-2176.286313100456
 30
0
 11
1985.998240437977
 21
-2176.286313100456
 31
0
  0
LINE
  8
1
 62
2
 10
1985.998240437977
 20
-2176.686313100456
 30
0
 11
1975.998240437977
 21
-2176.686313100456
 31
0
  0
LINE
  8
1
 62
2
 10
1975.998240437977
 20
-2177.086313100456
 30
0
 11
1985.998240437977
 21
-2177.086313100456
 31
0
  0
LINE
  8
1
 62
2
 10
1975.998240437977
 20
-2177.886313100456
 30
0
 11
1985.998240437977
 21
-2177.886313100456
 31
0
  0
LINE
  8
1
 62
2
 10
1985.998240437977
 20
-2178.286313100456
 30
0
 11
1975.998240437977
 21
-2178.286313100456
 31
0
  0
LINE
  8
1
 62
2
 10
1975.998240437977
 20
-2178.686313100456
 30
0
 11
1985.998240437977
 21
-2178.686313100456
 31
0
  0
LINE
  8
1
 62
2
 10
1975.998240437977
 20
-2179.486313100455
 30
0
 11
1985.998240437977
 21
-2179.486313100455
 31
0
  0
LINE
  8
1
 62
2
 10
1985.998240437977
 20
-2179.886313100456
 30
0
 11
1975.998240437977
 21
-2179.886313100456
 31
0
  0
LINE
  8
1
 62
2
 10
1975.998240437977
 20
-2180.286313100456
 30
0
 11
1985.998240437977
 21
-2180.286313100456
 31
0
  0
LINE
  8
1
 62
2
 10
1975.998240437977
 20
-2181.086313100455
 30
0
 11
1985.998240437977
 21
-2181.086313100455
 31
0
  0
LINE
  8
1
 62
2
 10
1985.998240437977
 20
-2181.486313100455
 30
0
 11
1975.998240437977
 21
-2181.486313100455
 31
0
  0
LINE
  8
1
 62
2
 10
1975.998240437977
 20
-2181.886313100456
 30
0
 11
1985.998240437977
 21
-2181.886313100456
 31
0
  0
LINE
  8
1
 62
3
 10
2095.33041928716
 20
-2093.83646865869
 30
0
 11
2088.83041928716
 21
-2093.83646865869
 31
0
  0
LINE
  8
1
 62
3
 10
2095.83041928716
 20
-2091.33646865869
 30
0
 11
2095.83041928716
 21
-2093.33646865869
 31
0
  0
LINE
  8
1
 62
3
 10
2088.83041928716
 20
-2090.83646865869
 30
0
 11
2095.33041928716
 21
-2090.83646865869
 31
0
  0
LINE
  8
1
 62
3
 10
1910.92723870424
 20
-2094.03646865869
 30
0
 11
1910.92723870424
 21
-2095.33646865869
 31
0
  0
LINE
  8
1
 62
3
 10
1941.72723870424
 20
-2094.03646865869
 30
0
 11
1941.72723870424
 21
-2095.33646865869
 31
0
  0
LINE
  8
1
 62
3
 10
1941.92723870424
 20
-2090.83646865869
 30
0
 11
1943.027238704239
 21
-2090.83646865869
 31
0
  0
LINE
  8
1
 62
3
 10
1943.22723870424
 20
-2091.03646865869
 30
0
 11
1943.22723870424
 21
-2093.63646865869
 31
0
  0
LINE
  8
1
 62
3
 10
1943.027238704239
 20
-2093.83646865869
 30
0
 11
1941.92723870424
 21
-2093.83646865869
 31
0
  0
LINE
  8
1
 62
3
 10
1909.62723870424
 20
-2090.83646865869
 30
0
 11
1910.72723870424
 21
-2090.83646865869
 31
0
  0
LINE
  8
1
 62
3
 10
1909.42723870424
 20
-2093.63646865869
 30
0
 11
1909.42723870424
 21
-2091.03646865869
 31
0
  0
LINE
  8
1
 62
3
 10
1910.72723870424
 20
-2093.83646865869
 30
0
 11
1909.62723870424
 21
-2093.83646865869
 31
0
  0
LINE
  8
1
 62
3
 10
2042.53041928716
 20
-2069.41128658634
 30
0
 11
2025.33041928716
 21
-2069.41128658634
 31
0
  0
LINE
  8
1
 62
3
 10
2042.53041928716
 20
-2064.41128658634
 30
0
 11
2044.53041928716
 21
-2064.41128658634
 31
0
  0
LINE
  8
1
 62
3
 10
2040.53041928716
 20
-2064.41128658634
 30
0
 11
2025.33041928716
 21
-2064.41128658634
 31
0
  0
LINE
  8
1
 62
3
 10
2040.53041928716
 20
-2064.41128658634
 30
0
 11
2042.53041928716
 21
-2064.41128658634
 31
0
  0
LINE
  8
1
 62
3
 10
2096.444127011296
 20
-2081.657137788423
 30
0
 11
2096.444127011296
 21
-2086.604940386488
 31
0
  0
LINE
  8
1
 62
3
 10
2098.83041928716
 20
-2081.657137788423
 30
0
 11
2096.444127011296
 21
-2081.657137788423
 31
0
  0
LINE
  8
1
 62
3
 10
2096.444127011296
 20
-2052.945833485318
 30
0
 11
2098.83041928716
 21
-2052.945833485318
 31
0
  0
LINE
  8
1
 62
3
 10
2096.444127011296
 20
-2046.764336021649
 30
0
 11
2096.444127011296
 21
-2052.945833485318
 31
0
  0
LINE
  8
1
 62
3
 10
2098.83041928716
 20
-2046.764336021649
 30
0
 11
2096.444127011296
 21
-2046.764336021649
 31
0
  0
LINE
  8
1
 62
2
 10
2083.83041928716
 20
-2076.91128658634
 30
0
 11
2083.83041928716
 21
-2091.91128658634
 31
0
  0
LINE
  8
1
 62
2
 10
2084.83041928716
 20
-2091.91128658634
 30
0
 11
2084.83041928716
 21
-2079.91128658634
 31
0
  0
LINE
  8
1
 62
2
 10
2085.83041928716
 20
-2091.91128658634
 30
0
 11
2085.83041928716
 21
-2082.91128658634
 31
0
  0
LINE
  8
1
 62
2
 10
2086.83041928716
 20
-2091.91128658634
 30
0
 11
2086.83041928716
 21
-2085.91128658634
 31
0
  0
LINE
  8
1
 62
2
 10
2087.83041928716
 20
-2091.91128658634
 30
0
 11
2087.83041928716
 21
-2088.91128658634
 31
0
  0
LINE
  8
1
 62
2
 10
2062.83041928716
 20
-2041.91128658634
 30
0
 11
2062.83041928716
 21
-2056.91128658634
 31
0
  0
LINE
  8
1
 62
2
 10
2061.83041928716
 20
-2041.91128658634
 30
0
 11
2061.83041928716
 21
-2053.91128658634
 31
0
  0
LINE
  8
1
 62
2
 10
2060.83041928716
 20
-2041.91128658634
 30
0
 11
2060.83041928716
 21
-2050.91128658634
 31
0
  0
LINE
  8
1
 62
2
 10
2059.83041928716
 20
-2041.91128658634
 30
0
 11
2059.83041928716
 21
-2047.91128658634
 31
0
  0
LINE
  8
1
 62
2
 10
2058.83041928716
 20
-2041.91128658634
 30
0
 11
2058.83041928716
 21
-2044.91128658634
 31
0
  0
LINE
  8
1
 62
3
 10
1913.82723870424
 20
-2096.31126865869
 30
0
 11
1915.52723870424
 21
-2096.31126865869
 31
0
  0
LINE
  8
1
 62
3
 10
1938.827238704238
 20
-2096.31126865869
 30
0
 11
1937.12723870424
 21
-2096.31126865869
 31
0
  0
LINE
  8
1
 62
3
 10
1912.42723870424
 20
-2096.33646865869
 30
0
 11
1911.92723870424
 21
-2096.33646865869
 31
0
  0
LINE
  8
1
 62
3
 10
1940.22723870424
 20
-2096.33646865869
 30
0
 11
1940.72723870424
 21
-2096.33646865869
 31
0
  0
LINE
  8
1
 62
3
 10
2098.83041928716
 20
-2086.604940386488
 30
0
 11
2088.83041928716
 21
-2086.604940386488
 31
0
  0
LINE
  8
1
 62
1
 10
2102.013883110725
 20
-2066.91128658634
 30
0
 11
2020.08530760274
 21
-2066.91128658634
 31
0
  0
LINE
  8
1
 62
3
 10
2048.83041928716
 20
-2042.055249994028
 30
0
 11
2048.83041928716
 21
-2091.767323178652
 31
0
  0
LINE
  8
1
 62
3
 10
2098.83041928716
 20
-2048.24098658634
 30
0
 11
2098.83041928716
 21
-2042.055249994028
 31
0
  0
LINE
  8
1
 62
3
 10
2096.630419287158
 20
-2041.676033181748
 30
0
 11
2097.130419287158
 21
-2041.664405274772
 31
0
  0
LINE
  8
1
 62
3
 10
2088.83041928716
 20
-2042.990976369557
 30
0
 11
2088.83041928716
 21
-2041.91128658634
 31
0
  0
LINE
  8
1
 62
3
 10
2098.83041928716
 20
-2049.41128658634
 30
0
 11
2098.83041928716
 21
-2048.24098658634
 31
0
  0
LINE
  8
1
 62
3
 10
2098.83041928716
 20
-2052.41128658634
 30
0
 11
2098.83041928716
 21
-2049.41128658634
 31
0
  0
LINE
  8
1
 62
3
 10
2098.83041928716
 20
-2095.83646865869
 30
0
 11
2098.33041928716
 21
-2096.33646865869
 31
0
  0
LINE
  8
1
 62
3
 10
2098.33041928716
 20
-2096.33646865869
 30
0
 11
2094.83041928716
 21
-2096.33646865869
 31
0
  0
LINE
  8
1
 62
3
 10
2094.83041928716
 20
-2096.33646865869
 30
0
 11
2088.83041928716
 21
-2096.33646865869
 31
0
  0
LINE
  8
1
 62
3
 10
2098.83041928716
 20
-2095.83646865869
 30
0
 11
2098.83041928716
 21
-2052.41128658634
 31
0
  0
LINE
  8
1
 62
3
 10
2088.83041928716
 20
-2043.445605904224
 30
0
 11
2088.83041928716
 21
-2042.990976369557
 31
0
  0
LINE
  8
1
 62
3
 10
2089.018794523283
 20
-2041.869679309238
 30
0
 11
2094.123444428833
 21
-2041.73433492264
 31
0
  0
LINE
  8
1
 62
3
 10
2094.123444428833
 20
-2041.73433492264
 30
0
 11
2096.630419287158
 21
-2041.676033181748
 31
0
  0
LINE
  8
1
 62
3
 10
2098.229923006179
 20
-2041.774355646672
 30
0
 11
2097.130419287158
 21
-2041.664405274772
 31
0
  0
LINE
  8
1
 62
3
 10
2088.83041928716
 20
-2052.91128658634
 30
0
 11
2088.83041928716
 21
-2043.445605904224
 31
0
  0
LINE
  8
1
 62
3
 10
2088.83041928716
 20
-2096.33646865869
 30
0
 11
2088.83041928716
 21
-2089.841197356784
 31
0
  0
LINE
  8
1
 62
3
 10
2088.83041928716
 20
-2089.841197356784
 30
0
 11
2088.83041928716
 21
-2041.91128658634
 31
0
  0
LINE
  8
1
 62
3
 10
2048.83041928716
 20
-2055.91128658634
 30
0
 11
2047.33041928716
 21
-2055.91128658634
 31
0
  0
LINE
  8
1
 62
3
 10
2057.83041928716
 20
-2090.93158658634
 30
0
 11
2057.83041928716
 21
-2091.91128658634
 31
0
  0
LINE
  8
1
 62
3
 10
2057.642044051032
 20
-2091.952893863444
 30
0
 11
2050.53041928716
 21
-2092.15816789791
 31
0
  0
LINE
  8
1
 62
3
 10
2049.430915568138
 20
-2092.048217526008
 30
0
 11
2050.53041928716
 21
-2092.15816789791
 31
0
  0
LINE
  8
1
 62
3
 10
2057.83041928716
 20
-2080.91128658634
 30
0
 11
2057.83041928716
 21
-2090.41128658634
 31
0
  0
LINE
  8
1
 62
3
 10
2050.53041928716
 20
-2041.664405274772
 30
0
 11
2051.03041928716
 21
-2041.676033181748
 31
0
  0
LINE
  8
1
 62
3
 10
2057.830419287158
 20
-2043.740976369557
 30
0
 11
2057.83041928716
 21
-2041.91128658634
 31
0
  0
LINE
  8
1
 62
3
 10
2053.537394145484
 20
-2041.73433492264
 30
0
 11
2057.642044051032
 21
-2041.869679309238
 31
0
  0
LINE
  8
1
 62
3
 10
2051.03041928716
 20
-2041.676033181748
 30
0
 11
2053.537394145484
 21
-2041.73433492264
 31
0
  0
LINE
  8
1
 62
3
 10
2049.630419287158
 20
-2041.754405274772
 30
0
 11
2049.430915568138
 21
-2041.774355646672
 31
0
  0
LINE
  8
1
 62
3
 10
2046.83041928716
 20
-2077.41128658634
 30
0
 11
2047.33041928716
 21
-2077.91128658634
 31
0
  0
LINE
  8
1
 62
3
 10
2047.33041928716
 20
-2055.91128658634
 30
0
 11
2046.83041928716
 21
-2056.41128658634
 31
0
  0
LINE
  8
1
 62
3
 10
2048.83041928716
 20
-2077.91128658634
 30
0
 11
2047.33041928716
 21
-2077.91128658634
 31
0
  0
LINE
  8
1
 62
3
 10
2046.83041928716
 20
-2075.91128658634
 30
0
 11
2046.83041928716
 21
-2077.41128658634
 31
0
  0
LINE
  8
1
 62
3
 10
2046.83041928716
 20
-2057.61128658634
 30
0
 11
2046.83041928716
 21
-2075.91128658634
 31
0
  0
LINE
  8
1
 62
3
 10
2046.83041928716
 20
-2056.41128658634
 30
0
 11
2046.83041928716
 21
-2057.61128658634
 31
0
  0
LINE
  8
1
 62
3
 10
2050.53041928716
 20
-2041.664405274772
 30
0
 11
2049.630419287158
 21
-2041.754405274772
 31
0
  0
LINE
  8
1
 62
3
 10
2057.830419287158
 20
-2043.740976369557
 30
0
 11
2057.830419287158
 21
-2046.240976369557
 31
0
  0
LINE
  8
1
 62
3
 10
2024.83041928716
 20
-2064.91128658634
 30
0
 11
2024.83041928716
 21
-2068.91128658634
 31
0
  0
LINE
  8
1
 62
3
 10
2025.33041928716
 20
-2064.41128658634
 30
0
 11
2024.83041928716
 21
-2064.91128658634
 31
0
  0
LINE
  8
1
 62
3
 10
2025.33041928716
 20
-2064.41128658634
 30
0
 11
2025.33041928716
 21
-2069.41128658634
 31
0
  0
LINE
  8
1
 62
3
 10
2025.33041928716
 20
-2069.41128658634
 30
0
 11
2024.83041928716
 21
-2068.91128658634
 31
0
  0
LINE
  8
1
 62
3
 10
2046.83041928716
 20
-2069.41128658634
 30
0
 11
2042.53041928716
 21
-2069.41128658634
 31
0
  0
LINE
  8
1
 62
3
 10
2046.83041928716
 20
-2064.41128658634
 30
0
 11
2044.53041928716
 21
-2064.41128658634
 31
0
  0
LINE
  8
1
 62
3
 10
2088.83041928716
 20
-2091.91128658634
 30
0
 11
2057.83041928716
 21
-2091.91128658634
 31
0
  0
LINE
  8
1
 62
3
 10
2088.83041928716
 20
-2052.91128658634
 30
0
 11
2088.83041928716
 21
-2091.91128658634
 31
0
  0
LINE
  8
1
 62
3
 10
2057.83041928716
 20
-2091.91128658634
 30
0
 11
2057.83041928716
 21
-2080.91128658634
 31
0
  0
LINE
  8
1
 62
3
 10
2057.83041928716
 20
-2041.91128658634
 30
0
 11
2088.83041928716
 21
-2041.91128658634
 31
0
  0
LINE
  8
1
 62
3
 10
2057.83041928716
 20
-2052.91128658634
 30
0
 11
2057.83041928716
 21
-2041.91128658634
 31
0
  0
LINE
  8
1
 62
3
 10
2057.83041928716
 20
-2052.91128658634
 30
0
 11
2057.83041928716
 21
-2080.911286586346
 31
0
  0
LINE
  8
1
 62
3
 10
1940.22723870424
 20
-2087.690843848226
 30
0
 11
1940.22723870424
 21
-2096.31126865869
 31
0
  0
LINE
  8
1
 62
3
 10
1938.827238704238
 20
-2089.511268658688
 30
0
 11
1938.827238704238
 21
-2088.561921680952
 31
0
  0
LINE
  8
1
 62
3
 10
1939.62723870424
 20
-2093.11126865869
 30
0
 11
1940.22723870424
 21
-2093.11126865869
 31
0
  0
LINE
  8
1
 62
3
 10
1939.62723870424
 20
-2090.71126865869
 30
0
 11
1940.22723870424
 21
-2090.71126865869
 31
0
  0
LINE
  8
1
 62
3
 10
1938.827238704238
 20
-2089.511268658688
 30
0
 11
1937.015587984158
 21
-2089.511268658688
 31
0
  0
LINE
  8
1
 62
3
 10
1937.12723870424
 20
-2097.01126865869
 30
0
 11
1915.52723870424
 21
-2097.01126865869
 31
0
  0
LINE
  8
1
 62
3
 10
1937.12723870424
 20
-2094.01126865869
 30
0
 11
1937.12723870424
 21
-2097.01126865869
 31
0
  0
LINE
  8
1
 62
3
 10
1938.827238704238
 20
-2094.01126865869
 30
0
 11
1937.12723870424
 21
-2094.01126865869
 31
0
  0
LINE
  8
1
 62
3
 10
1938.827238704238
 20
-2094.71126865869
 30
0
 11
1938.827238704238
 21
-2096.31126865869
 31
0
  0
LINE
  8
1
 62
3
 10
1938.827238704238
 20
-2096.31126865869
 30
0
 11
1938.827238704238
 21
-2094.01126865869
 31
0
  0
LINE
  8
1
 62
3
 10
1939.62723870424
 20
-2090.71126865869
 30
0
 11
1939.62723870424
 21
-2093.11126865869
 31
0
  0
LINE
  8
1
 62
3
 10
1940.22723870424
 20
-2096.31126865869
 30
0
 11
1938.827238704238
 21
-2096.31126865869
 31
0
  0
LINE
  8
1
 62
3
 10
1912.42723870424
 20
-2096.31126865869
 30
0
 11
1912.42723870424
 21
-2087.690843848226
 31
0
  0
LINE
  8
1
 62
3
 10
1913.82723870424
 20
-2088.561921680952
 30
0
 11
1913.82723870424
 21
-2089.511268658688
 31
0
  0
LINE
  8
1
 62
3
 10
1912.42723870424
 20
-2093.11126865869
 30
0
 11
1913.02723870424
 21
-2093.11126865869
 31
0
  0
LINE
  8
1
 62
3
 10
1912.42723870424
 20
-2090.71126865869
 30
0
 11
1913.02723870424
 21
-2090.71126865869
 31
0
  0
LINE
  8
1
 62
3
 10
1915.63888942432
 20
-2089.511268658688
 30
0
 11
1913.82723870424
 21
-2089.511268658688
 31
0
  0
LINE
  8
1
 62
2
  6
DASHED
 10
1938.32723870424
 20
-2098.01126865869
 30
0
 11
1914.32723870424
 21
-2098.01126865869
 31
0
  0
LINE
  8
1
 62
3
 10
1915.52723870424
 20
-2097.01126865869
 30
0
 11
1915.52723870424
 21
-2094.01126865869
 31
0
  0
LINE
  8
1
 62
3
 10
1915.52723870424
 20
-2094.01126865869
 30
0
 11
1913.82723870424
 21
-2094.01126865869
 31
0
  0
LINE
  8
1
 62
3
 10
1913.82723870424
 20
-2096.31126865869
 30
0
 11
1913.82723870424
 21
-2094.71126865869
 31
0
  0
LINE
  8
1
 62
3
 10
1913.82723870424
 20
-2094.01126865869
 30
0
 11
1913.82723870424
 21
-2096.31126865869
 31
0
  0
LINE
  8
1
 62
3
 10
1913.02723870424
 20
-2093.11126865869
 30
0
 11
1913.02723870424
 21
-2090.71126865869
 31
0
  0
LINE
  8
1
 62
3
 10
1913.82723870424
 20
-2096.31126865869
 30
0
 11
1912.42723870424
 21
-2096.31126865869
 31
0
  0
LINE
  8
1
 62
3
 10
1912.42723870424
 20
-2096.33646865869
 30
0
 11
1912.42723870424
 21
-2087.690843848226
 31
0
  0
LINE
  8
1
 62
3
 10
1940.22723870424
 20
-2087.690843848226
 30
0
 11
1940.22723870424
 21
-2096.33646865869
 31
0
  0
LINE
  8
1
 62
3
 10
1910.92723870424
 20
-2086.604940386488
 30
0
 11
1910.92723870424
 21
-2090.63646865869
 31
0
  0
LINE
  8
1
 62
3
 10
1941.72723870424
 20
-2086.604940386488
 30
0
 11
1941.72723870424
 21
-2090.63646865869
 31
0
  0
LINE
  8
1
 62
1
 10
1941.827238704238
 20
-2048.41128658634
 30
0
 11
1941.827238704238
 21
-2054.41128658634
 31
0
  0
LINE
  8
1
 62
1
 10
1944.827238704238
 20
-2051.41128658634
 30
0
 11
1938.82723870424
 21
-2051.41128658634
 31
0
  0
LINE
  8
1
 62
1
 10
1938.82723870424
 20
-2082.41128658634
 30
0
 11
1944.827238704238
 21
-2082.41128658634
 31
0
  0
LINE
  8
1
 62
1
 10
1941.827238704238
 20
-2079.41128658634
 30
0
 11
1941.827238704238
 21
-2085.41128658634
 31
0
  0
LINE
  8
1
 62
1
 10
1913.827238704238
 20
-2051.41128658634
 30
0
 11
1907.827238704238
 21
-2051.41128658634
 31
0
  0
LINE
  8
1
 62
1
 10
1910.827238704238
 20
-2054.41128658634
 30
0
 11
1910.827238704238
 21
-2048.41128658634
 31
0
  0
LINE
  8
1
 62
1
 10
1907.827238704238
 20
-2082.41128658634
 30
0
 11
1913.827238704238
 21
-2082.41128658634
 31
0
  0
LINE
  8
1
 62
1
 10
1910.827238704238
 20
-2085.41128658634
 30
0
 11
1910.827238704238
 21
-2079.41128658634
 31
0
  0
LINE
  8
1
 62
1
 10
1953.109482301682
 20
-2066.91128658634
 30
0
 11
1899.7426949787
 21
-2066.91128658634
 31
0
  0
LINE
  8
1
 62
1
 10
1926.327238704238
 20
-2040.194860297266
 30
0
 11
1926.327238704238
 21
-2098.64466674103
 31
0
  0
LINE
  8
1
 62
3
 10
2088.83041928716
 20
-2096.33646865869
 30
0
 11
2088.83041928716
 21
-2097.01126865869
 31
0
  0
LINE
  8
1
 62
3
 10
2088.83041928716
 20
-2097.01126865869
 30
0
 11
2090.03041928716
 21
-2097.01126865869
 31
0
  0
LINE
  8
1
 62
3
 10
2090.03041928716
 20
-2097.01126865869
 30
0
 11
2090.03041928716
 21
-2096.33646865869
 31
0
  0
LINE
  8
1
 62
2
  6
DASHED
 10
1937.777238704241
 20
-2096.31126865869
 30
0
 11
1937.777238704241
 21
-2097.211268658691
 31
0
  0
LINE
  8
1
 62
2
  6
DASHED
 10
1914.87723870424
 20
-2097.211268658691
 30
0
 11
1914.87723870424
 21
-2096.31126865869
 31
0
  0
LINE
  8
1
 62
2
  6
DASHED
 10
1914.627238704241
 20
-2097.211268658691
 30
0
 11
1914.87723870424
 21
-2097.211268658691
 31
0
  0
LINE
  8
1
 62
2
  6
DASHED
 10
1914.32723870424
 20
-2098.01126865869
 30
0
 11
1914.32723870424
 21
-2097.51126865869
 31
0
  0
LINE
  8
1
 62
2
  6
DASHED
 10
1937.777238704241
 20
-2097.211268658691
 30
0
 11
1938.027238704241
 21
-2097.211268658691
 31
0
  0
LINE
  8
1
 62
2
  6
DASHED
 10
1938.32723870424
 20
-2097.51126865869
 30
0
 11
1938.32723870424
 21
-2098.01126865869
 31
0
  0
LINE
  8
1
 62
2
  6
DASHED
 10
1925.127238704241
 20
-2098.01126865869
 30
0
 11
1925.127238704241
 21
-2108.01126865869
 31
0
  0
LINE
  8
1
 62
2
  6
DASHED
 10
1923.527238704241
 20
-2098.01126865869
 30
0
 11
1923.527238704241
 21
-2108.01126865869
 31
0
  0
LINE
  8
1
 62
2
  6
DASHED
 10
1921.127238704241
 20
-2098.01126865869
 30
0
 11
1921.127238704241
 21
-2108.01126865869
 31
0
  0
LINE
  8
1
 62
2
  6
DASHED
 10
1919.527238704241
 20
-2098.01126865869
 30
0
 11
1919.527238704241
 21
-2108.01126865869
 31
0
  0
LINE
  8
1
 62
2
  6
DASHED
 10
1917.127238704241
 20
-2098.01126865869
 30
0
 11
1917.127238704241
 21
-2108.01126865869
 31
0
  0
LINE
  8
1
 62
2
  6
DASHED
 10
1915.527238704241
 20
-2098.01126865869
 30
0
 11
1915.527238704241
 21
-2108.01126865869
 31
0
  0
LINE
  8
1
 62
2
  6
DASHED
 10
1927.527238704241
 20
-2108.01126865869
 30
0
 11
1927.527238704241
 21
-2098.01126865869
 31
0
  0
LINE
  8
1
 62
2
  6
DASHED
 10
1929.127238704241
 20
-2108.01126865869
 30
0
 11
1929.127238704241
 21
-2098.01126865869
 31
0
  0
LINE
  8
1
 62
2
  6
DASHED
 10
1931.527238704241
 20
-2108.01126865869
 30
0
 11
1931.527238704241
 21
-2098.01126865869
 31
0
  0
LINE
  8
1
 62
2
  6
DASHED
 10
1933.127238704241
 20
-2108.01126865869
 30
0
 11
1933.127238704241
 21
-2098.01126865869
 31
0
  0
LINE
  8
1
 62
2
  6
DASHED
 10
1935.527238704241
 20
-2108.01126865869
 30
0
 11
1935.527238704241
 21
-2098.01126865869
 31
0
  0
LINE
  8
1
 62
2
  6
DASHED
 10
1937.127238704241
 20
-2108.01126865869
 30
0
 11
1937.127238704241
 21
-2098.01126865869
 31
0
  0
LINE
  8
1
 62
3
 10
2096.444127011296
 20
-2081.657137788423
 30
0
 11
2096.444127011296
 21
-2084.12128658634
 31
0
  0
LINE
  8
1
 62
3
 10
2098.83041928716
 20
-2082.04878658634
 30
0
 11
2098.65541928716
 21
-2082.04878658634
 31
0
  0
LINE
  8
1
 62
3
 10
2098.65541928716
 20
-2082.04878658634
 30
0
 11
2098.65541928716
 21
-2082.77378658634
 31
0
  0
LINE
  8
1
 62
3
 10
2098.65541928716
 20
-2082.77378658634
 30
0
 11
2098.83041928716
 21
-2082.77378658634
 31
0
  0
LINE
  8
1
 62
3
 10
2096.444127011296
 20
-2084.12128658634
 30
0
 11
2096.444127011296
 21
-2085.21128658634
 31
0
  0
LINE
  8
1
 62
3
 10
2096.444127011296
 20
-2085.21128658634
 30
0
 11
2097.942844749219
 21
-2085.21128658634
 31
0
  0
LINE
  8
1
 62
3
 10
2096.444127011296
 20
-2049.70128658634
 30
0
 11
2096.444127011296
 21
-2052.945833485318
 31
0
  0
LINE
  8
1
 62
3
 10
2096.444127011296
 20
-2048.61128658634
 30
0
 11
2096.444127011296
 21
-2049.70128658634
 31
0
  0
LINE
  8
1
 62
3
 10
2098.83041928716
 20
-2051.04878658634
 30
0
 11
2098.65541928716
 21
-2051.04878658634
 31
0
  0
LINE
  8
1
 62
3
 10
2098.65541928716
 20
-2051.04878658634
 30
0
 11
2098.65541928716
 21
-2051.77378658634
 31
0
  0
LINE
  8
1
 62
3
 10
2098.65541928716
 20
-2051.77378658634
 30
0
 11
2098.83041928716
 21
-2051.77378658634
 31
0
  0
LINE
  8
1
 62
3
 10
2097.942844749219
 20
-2048.61128658634
 30
0
 11
2096.444127011296
 21
-2048.61128658634
 31
0
  0
ARC
  8
1
 62
3
 10
1926.327238704238
 20
-2066.91128658634
 30
0
 40
25
 50
0
 51
180
  0
ARC
  8
1
 62
3
 10
1926.327238704238
 20
-2066.91128658634
 30
0
 40
25
 50
270
 51
0
  0
ARC
  8
1
 62
3
 10
1926.327238704238
 20
-2066.91128658634
 30
0
 40
24.99999999999892
 50
225.0000000000033
 51
270
  0
ARC
  8
1
 62
3
 10
1926.327238704238
 20
-2066.91128658634
 30
0
 40
25
 50
180
 51
225.0000000000033
  0
ARC
  8
1
 62
3
 10
1926.327238704238
 20
-2066.91128658634
 30
0
 40
4.700000000000161
 50
263.2797770398408
 51
270
  0
ARC
  8
1
 62
3
 10
1926.327238704238
 20
-2066.91128658634
 30
0
 40
4.700000000000273
 50
270
 51
276.7202229602087
  0
ARC
  8
1
 62
3
 10
1926.327238704238
 20
-2066.91128658634
 30
0
 40
4.700000000002234
 50
353.2797770398159
 51
0
  0
ARC
  8
1
 62
3
 10
1926.327238704238
 20
-2066.91128658634
 30
0
 40
4.700000000002092
 50
0
 51
6.720222960178572
  0
ARC
  8
1
 62
3
 10
2094.044127011296
 20
-2082.41128658634
 30
0
 40
4.79999999999957
 50
4.331148730785894
 51
9.039441273198914
  0
ARC
  8
1
 62
3
 10
2094.044127011296
 20
-2082.41128658634
 30
0
 40
4.800000000000217
 50
342.417223991572
 51
355.6688512692087
  0
ARC
  8
1
 62
3
 10
2094.044127011296
 20
-2082.41128658634
 30
0
 40
4.799999999999717
 50
324.3146652873429
 51
342.417223991572
  0
ARC
  8
1
 62
3
 10
2094.044127011296
 20
-2051.41128658634
 30
0
 40
4.800000000000081
 50
17.58277600842283
 51
35.68533471265274
  0
ARC
  8
1
 62
3
 10
2094.044127011296
 20
-2051.41128658634
 30
0
 40
4.800000000000217
 50
342.417223991572
 51
355.6688512692087
  0
ARC
  8
1
 62
3
 10
2094.044127011296
 20
-2051.41128658634
 30
0
 40
4.800000000000071
 50
341.3553819116023
 51
342.417223991572
  0
ARC
  8
1
 62
3
 10
2094.044127011296
 20
-2051.41128658634
 30
0
 40
4.79999999999957
 50
4.331148730785894
 51
17.58277600842283
  0
CIRCLE
  8
1
 62
3
 10
1926.327238704238
 20
-2066.91128658634
 30
0
 40
3
  0
CIRCLE
  8
1
 62
3
 10
1926.327238704238
 20
-2066.91128658634
 30
0
 40
15.00000000000125
  0
CIRCLE
  8
1
 62
3
 10
1926.327238704238
 20
-2066.91128658634
 30
0
 40
11
  0
CIRCLE
  8
1
 62
3
 10
1926.327238704238
 20
-2066.91128658634
 30
0
 40
4.5
  0
CIRCLE
  8
1
 62
3
 10
1926.327238704238
 20
-2066.91128658634
 30
0
 40
4.699999999999088
  0
CIRCLE
  8
1
 62
3
 10
1910.827238704238
 20
-2082.41128658634
 30
0
 40
1.249999999999889
  0
CIRCLE
  8
1
 62
2
 10
1910.827238704238
 20
-2082.41128658634
 30
0
 40
1.499999999998806
  0
CIRCLE
  8
1
 62
3
 10
1910.827238704238
 20
-2051.41128658634
 30
0
 40
1.249999999998282
  0
CIRCLE
  8
1
 62
2
 10
1910.827238704238
 20
-2051.41128658634
 30
0
 40
1.499999999998806
  0
CIRCLE
  8
1
 62
3
 10
1941.82723870424
 20
-2051.41128658634
 30
0
 40
1.249999999999729
  0
CIRCLE
  8
1
 62
2
 10
1941.82723870424
 20
-2051.41128658634
 30
0
 40
1.499999999998806
  0
CIRCLE
  8
1
 62
3
 10
1941.82723870424
 20
-2082.41128658634
 30
0
 40
1.250000000001337
  0
CIRCLE
  8
1
 62
2
 10
1941.82723870424
 20
-2082.41128658634
 30
0
 40
1.499999999998806
  0
ARC
  8
1
 62
3
 10
1917.439311230291
 20
-2165.786313100456
 30
0
 40
0.3000000000001819
 50
90
 51
180
  0
ARC
  8
1
 62
3
 10
1917.439311230291
 20
-2189.186313100456
 30
0
 40
0.2999999999999545
 50
180
 51
270
  0
ARC
  8
1
 62
3
 10
2095.33041928716
 20
-2093.33646865869
 30
0
 40
0.5
 50
270
 51
0
  0
ARC
  8
1
 62
3
 10
2095.33041928716
 20
-2091.33646865869
 30
0
 40
0.5
 50
0
 51
90
  0
ARC
  8
1
 62
3
 10
1941.92723870424
 20
-2094.03646865869
 30
0
 40
0.1999999999998181
 50
90
 51
180
  0
ARC
  8
1
 62
3
 10
1943.027238704239
 20
-2093.63646865869
 30
0
 40
0.2000000000002729
 50
270
 51
0
  0
ARC
  8
1
 62
3
 10
1943.027238704239
 20
-2091.03646865869
 30
0
 40
0.2000000000011823
 50
0
 51
90
  0
ARC
  8
1
 62
3
 10
1941.92723870424
 20
-2090.63646865869
 30
0
 40
0.1999999999998181
 50
180
 51
270
  0
ARC
  8
1
 62
3
 10
1910.72723870424
 20
-2094.03646865869
 30
0
 40
0.1999999999998181
 50
0
 51
90
  0
ARC
  8
1
 62
3
 10
1909.62723870424
 20
-2093.63646865869
 30
0
 40
0.2000000000000455
 50
180
 51
270
  0
ARC
  8
1
 62
3
 10
1909.62723870424
 20
-2091.03646865869
 30
0
 40
0.1999999999998181
 50
90
 51
180
  0
ARC
  8
1
 62
3
 10
1910.72723870424
 20
-2090.63646865869
 30
0
 40
0.2000000000002729
 50
270
 51
0
  0
ARC
  8
1
 62
3
 10
2089.03041928716
 20
-2042.369544155836
 30
0
 40
0.4999999999994422
 50
91.33221985418038
 51
113.5781784781728
  0
ARC
  8
1
 62
3
 10
2098.130419287158
 20
-2042.769392836884
 30
0
 40
1.000000000002734
 50
45.57299599918002
 51
84.28940686251463
  0
ARC
  8
1
 62
3
 10
2057.630419287158
 20
-2091.453029016844
 30
0
 40
0.500000000001414
 50
271.3322198538103
 51
293.5781784784116
  0
ARC
  8
1
 62
3
 10
2049.53041928716
 20
-2091.053180335798
 30
0
 40
0.999999999999681
 50
225.572995999191
 51
264.2894068624511
  0
ARC
  8
1
 62
3
 10
2057.630419287158
 20
-2042.369544155836
 30
0
 40
0.5000000000010343
 50
66.42182152158837
 51
88.66778014618429
  0
ARC
  8
1
 62
3
 10
2049.53041928716
 20
-2042.769392836884
 30
0
 40
1.000000000002175
 50
95.71059313753722
 51
134.427004000727
  0
ARC
  8
1
 62
3
 10
1911.92723870424
 20
-2095.33646865869
 30
0
 40
1
 50
180
 51
270
  0
ARC
  8
1
 62
3
 10
1940.72723870424
 20
-2095.33646865869
 30
0
 40
1
 50
270
 51
0
  0
ARC
  8
1
 62
2
  6
DASHED
 10
1914.627238704241
 20
-2097.51126865869
 30
0
 40
0.2999999999988177
 50
90
 51
180
  0
ARC
  8
1
 62
2
  6
DASHED
 10
1938.027238704241
 20
-2097.51126865869
 30
0
 40
0.299999999999045
 50
0
 51
90
  0
LINE
  8
1
 62
2
 10
1975.87104386536
 20
-2040.316839814436
 30
0
 11
1954.20132349435
 21
-2040.316839814436
 31
0
  0
LINE
  8
1
 62
2
 10
1954.20132349435
 20
-2040.316839814436
 30
0
 11
1942.788970383422
 21
-2050.260168791648
 31
0
  0
SOLID
  8
1
 62
2
 10
1944.791414926629
 20
-2047.991643439691
 30
0
 11
1945.310320848801
 21
-2048.587212351145
 31
0
 12
1942.788970383422
 22
-2050.260168791648
 32
0
 13
1942.788970383422
 23
-2050.260168791648
 33
0
  0
LINE
  8
1
 62
2
 10
1894.498863575707
 20
-2109.266995324822
 30
0
 11
1906.791020204952
 21
-2109.266995324822
 31
0
  0
LINE
  8
1
 62
2
 10
1906.791020204952
 20
-2109.266995324822
 30
0
 11
1914.32723870424
 21
-2098.01126865869
 31
0
  0
SOLID
  8
1
 62
2
 10
1912.896969498755
 20
-2100.904677301153
 30
0
 11
1912.196835478182
 21
-2100.435905882449
 31
0
 12
1914.32723870424
 22
-2098.01126865869
 32
0
 13
1914.32723870424
 23
-2098.01126865869
 33
0
  0
LINE
  8
1
 62
2
 10
1918.529995371696
 20
-2117.30293887372
 30
0
 11
1941.808746576519
 21
-2117.30293887372
 31
0
  0
SOLID
  8
1
 62
2
 10
1938.608746576519
 20
-2117.724226866
 30
0
 11
1938.608746576519
 21
-2116.88165088144
 31
0
 12
1941.808746576519
 22
-2117.30293887372
 32
0
 13
1941.808746576519
 23
-2117.30293887372
 33
0
  0
TEXT
  8
1
 62
2
 10
2080.176499118209
 20
-2188.194719134211
 30
0
 40
4
  1
AWGüö22,UL3266
 41
0.7200000000000001
 72
1
 73
2
 11
2100.336499118209
 21
-2186.194719134211
 31
0
  0
TEXT
  8
1
 62
2
 10
2041.23160161555
 20
-2188.194719134211
 30
0
 40
4
  1
âèü[âhÉ³
 41
0.9
 72
1
 73
2
 11
2055.63160161555
 21
-2186.194719134211
 31
0
  0
TEXT
  8
1
 62
2
 10
2084.086958189148
 20
-2164.194719134211
 30
0
 40
4
  1
KA60╝Ï░¢B
 41
0.9
 72
1
 73
2
 11
2100.286958189148
 21
-2162.194719134211
 31
0
  0
TEXT
  8
1
 62
2
 10
2041.23160161555
 20
-2170.194719134211
 30
0
 40
4
  1
âüü[âJû╝
 41
0.9
 72
1
 73
2
 11
2055.63160161555
 21
-2168.194719134211
 31
0
  0
TEXT
  8
1
 62
2
 10
2030.43160161555
 20
-2176.194719134211
 30
0
 40
4
  1
ânâEâWâôâOî^Ä«
 41
0.9
 72
1
 73
2
 11
2055.63160161555
 21
-2174.194719134211
 31
0
  0
TEXT
  8
1
 62
2
 10
2030.43160161555
 20
-2182.194719134211
 30
0
 40
4
  1
âRâôâ^âNâgî^Ä«
 41
0.9
 72
1
 73
2
 11
2055.63160161555
 21
-2180.194719134211
 31
0
  0
TEXT
  8
1
 62
2
 10
2074.146027211789
 20
-2170.194719134211
 30
0
 40
4
  1
ô·û{âéâîâbâNâX
 41
0.9
 72
1
 73
2
 11
2099.346027211789
 21
-2168.194719134211
 31
0
  0
TEXT
  8
1
 62
2
 10
2082.336499118209
 20
-2176.194719134211
 30
0
 40
4
  1
51004-1100
 41
0.9
 72
1
 73
2
 11
2100.336499118209
 21
-2174.194719134211
 31
0
  0
TEXT
  8
1
 62
2
 10
2082.336499118209
 20
-2182.194719134211
 30
0
 40
4
  1
59333-8000
 41
0.9
 72
1
 73
2
 11
2100.336499118209
 21
-2180.194719134211
 31
0
  0
TEXT
  8
1
 62
2
 10
1907.031212632909
 20
-2168.736313100456
 30
0
 40
2.5
  1
11
 41
0.7200000000000001
  0
TEXT
  8
1
 62
2
 10
1907.031212632909
 20
-2172.736313100456
 30
0
 40
2.5
  1
 9
 41
0.7200000000000001
  0
TEXT
  8
1
 62
2
 10
1907.031212632909
 20
-2176.736313100456
 30
0
 40
2.5
  1
 7
 41
0.7200000000000001
  0
TEXT
  8
1
 62
2
 10
1907.031212632909
 20
-2180.736313100456
 30
0
 40
2.5
  1
 5
 41
0.7200000000000001
  0
TEXT
  8
1
 62
2
 10
1907.031212632909
 20
-2184.736313100456
 30
0
 40
2.5
  1
 3
 41
0.7200000000000001
  0
TEXT
  8
1
 62
2
 10
1907.031212632909
 20
-2188.736313100456
 30
0
 40
2.5
  1
 1
 41
0.7200000000000001
  0
TEXT
  8
1
 62
2
 10
1898.49939959182
 20
-2162.962320053285
 30
0
 40
3.5
  1
PIN NO.
 41
0.6300000000000001
  0
TEXT
  8
1
 62
2
 10
1947.46259918478
 20
-2044.206298766346
 30
0
 40
3
  1
É[é%%déRüDéQéléhém
 41
0.72
 72
1
 11
1964.74259918478
 21
-2044.206298766346
 31
0
  0
TEXT
  8
1
 62
2
 10
1955.02259918478
 20
-2039.412192921576
 30
0
 40
3
  1
4-M3ü~0.5
 41
0.72
 72
1
 11
1964.74259918478
 21
-2039.412192921576
 31
0
  0
TEXT
  8
1
 62
2
 10
2043.03160161555
 20
-2133.564056529817
 30
0
 40
4
  1
KA50KM2
 41
0.9
 72
1
 73
2
 11
2055.63160161555
 21
-2131.564056529817
 31
0
  0
TEXT
  8
1
 62
2
 10
1894.498863575707
 20
-2108.266995324822
 30
0
 40
4
  1
ï╔öÈò\Äª
 41
0.54
  0
TEXT
  8
1
 62
2
 10
1915.382238704241
 20
-2113.044956687027
 30
0
 40
3
  1
1
 41
0.6300000000000001
 72
1
 73
2
 11
1916.327238704241
 21
-2111.544956687027
 31
0
  0
TEXT
  8
1
 62
2
 10
1919.382238704241
 20
-2113.044956687027
 30
0
 40
3
  1
3
 41
0.6300000000000001
 72
1
 73
2
 11
1920.327238704241
 21
-2111.544956687027
 31
0
  0
TEXT
  8
1
 62
2
 10
1923.382238704241
 20
-2113.044956687027
 30
0
 40
3
  1
5
 41
0.6300000000000001
 72
1
 73
2
 11
1924.327238704241
 21
-2111.544956687027
 31
0
  0
TEXT
  8
1
 62
2
 10
1927.382238704241
 20
-2113.044956687027
 30
0
 40
3
  1
7
 41
0.6300000000000001
 72
1
 73
2
 11
1928.327238704241
 21
-2111.544956687027
 31
0
  0
TEXT
  8
1
 62
2
 10
1931.382238704241
 20
-2113.044956687027
 30
0
 40
3
  1
9
 41
0.6300000000000001
 72
1
 73
2
 11
1932.327238704241
 21
-2111.544956687027
 31
0
  0
TEXT
  8
1
 62
2
 10
1934.437238704241
 20
-2113.044956687027
 30
0
 40
3
  1
11
 41
0.6300000000000001
 72
1
 73
2
 11
1936.327238704241
 21
-2111.544956687027
 31
0
  0
TEXT
  8
1
 62
2
 10
1897.581376595949
 20
-2119.169647492632
 30
0
 40
4
  1
PIN No.
 41
0.63
  0
DIMENSION
  8
1
  6
CONTINUOUS
 62
2
  2
*D0
  3
DMST_1
 10
2048.83041928716
 20
-2024.4001500229
 30
0
 11
2073.68837010376
 21
-2020.8001500229
 31
0
 12
0
 22
0
 32
0
 70
1
 13
2098.83041928716
 23
-2042.055249994028
 33
0
 14
2048.83041928716
 24
-2042.055249994028
 34
0
 53
0
  0
DIMENSION
  8
1
  6
CONTINUOUS
 62
2
  2
*D1
  3
DMST_1
 10
1951.327238704238
 20
-2021.98635026861
 30
0
 11
1927.00839630886
 21
-2017.959683601943
 31
0
 12
0
 22
0
 32
0
 70
1
  1
âË<>
 13
1901.327238704238
 23
-2066.91128658634
 33
0
 14
1951.327238704238
 24
-2066.91128658634
 34
0
 53
0
  0
DIMENSION
  8
1
  6
CONTINUOUS
 62
2
  2
*D2
  3
DMST_2
 10
1917.939311230291
 20
-2157.274831317459
 30
0
 11
1951.129849592692
 21
-2152.874831317459
 31
0
 12
0
 22
0
 32
0
 70
0
  1
300
 13
1985.998240437977
 23
-2173.086313100456
 33
0
 14
1917.939311230291
 24
-2165.486313100456
 34
0
 53
0
  0
DIMENSION
  8
1
  6
CONTINUOUS
 62
2
  2
*D3
  3
DMST_3
 10
1975.998240437976
 20
-2165.176918809363
 30
0
 11
1980.762677687332
 21
-2161.576918809363
 31
0
 12
0
 22
0
 32
0
 70
0
  1
(<>
 13
1985.998240437977
 23
-2173.086313100456
 33
0
 14
1975.998240437977
 24
-2173.086313100456
 34
0
 53
0
  0
DIMENSION
  8
1
  6
CONTINUOUS
 62
2
  2
*D4
  3
DMST_4
 10
1960.927238704238
 20
-2051.41128658634
 30
0
 11
1957.327238704238
 21
-2066.91128658634
 31
0
 12
0
 22
0
 32
0
 70
0
 13
1944.827238704238
 23
-2082.41128658634
 33
0
 14
1944.827238704238
 24
-2051.41128658634
 34
0
 50
90
 53
0
  0
DIMENSION
  8
1
  6
CONTINUOUS
 62
2
  2
*D5
  3
DMST_4
 10
1910.827238704238
 20
-2034.46891234612
 30
0
 11
1924.92221046994
 21
-2030.86891234612
 31
0
 12
0
 22
0
 32
0
 70
0
 13
1941.827238704238
 23
-2048.41128658634
 33
0
 14
1910.827238704238
 24
-2048.41128658634
 34
0
 53
0
  0
DIMENSION
  8
1
  6
CONTINUOUS
 62
2
  2
*D6
  3
DMST_5
 10
2014.223752620493
 20
-2064.41128658634
 30
0
 11
2009.797085953826
 21
-2064.827953253007
 31
0
 12
0
 22
0
 32
0
 70
0
  1
âË<>
 13
2025.33041928716
 23
-2069.41128658634
 33
0
 14
2025.33041928716
 24
-2064.41128658634
 34
0
 50
90
 53
0
  0
DIMENSION
  8
1
  6
CONTINUOUS
 62
2
  2
*D7
  3
DMST_6
 10
2004.323752620493
 20
-2055.91128658634
 30
0
 11
1999.897085953826
 21
-2064.41128658634
 31
0
 12
0
 22
0
 32
0
 70
0
  1
âË<>
 13
2047.33041928716
 23
-2077.91128658634
 33
0
 14
2047.33041928716
 24
-2055.91128658634
 34
0
 50
90
 53
0
  0
DIMENSION
  8
1
  6
CONTINUOUS
 62
2
  2
*D8
  3
DMST_4
 10
2046.83041928716
 20
-2033.53888030693
 30
0
 11
2038.64770952354
 21
-2029.93888030693
 31
0
 12
0
 22
0
 32
0
 70
0
 13
2048.83041928716
 23
-2042.055249994028
 33
0
 14
2046.83041928716
 24
-2057.61128658634
 34
0
 53
0
  0
DIMENSION
  8
1
  6
CONTINUOUS
 62
2
  2
*D9
  3
DMST_7
 10
2024.83041928716
 20
-2024.36108405065
 30
0
 11
2035.65494987476
 21
-2020.76108405065
 31
0
 12
0
 22
0
 32
0
 70
0
 13
2048.83041928716
 23
-2042.055249994028
 33
0
 14
2024.83041928716
 24
-2064.91128658634
 34
0
 53
0
  0
DIMENSION
  8
1
  6
CONTINUOUS
 62
2
  2
*D10
  3
DMST_3
 10
1902.348907887531
 20
-2091.91128658634
 30
0
 11
1898.748907887531
 21
-2094.907268604499
 31
0
 12
0
 22
0
 32
0
 70
0
  1
üª(<>
 13
1914.32723870424
 23
-2098.01126865869
 33
0
 14
1926.327238704238
 24
-2091.91128658634
 34
0
 50
90
 53
0
  0
ENDSEC
  0
EOF
