  0
SECTION
  2
HEADER
  9
$ACADVER
  1
AC1014
  9
$ACADMAINTVER
 70
             0
  9
$DWGCODEPAGE
  3
ANSI_1252
  9
$INSBASE
 10
0.0
 20
0.0
 30
0.0
  9
$EXTMIN
 10
10272.742242694259
 20
-775.79827063060384
 30
0.0
  9
$EXTMAX
 10
10577.218357594429
 20
-564.76745944745335
 30
0.0
  9
$LIMMIN
 10
0.0
 20
0.0
  9
$LIMMAX
 10
0.0
 20
0.0
  9
$ORTHOMODE
 70
             0
  9
$REGENMODE
 70
             1
  9
$FILLMODE
 70
             1
  9
$QTEXTMODE
 70
             0
  9
$MIRRTEXT
 70
             1
  9
$DRAGMODE
 70
             2
  9
$LTSCALE
 40
1.0
  9
$OSMODE
 70
             0
  9
$ATTMODE
 70
             1
  9
$TEXTSIZE
 40
0.2
  9
$TRACEWID
 40
0.05
  9
$TEXTSTYLE
  7
STANDARD
  9
$CLAYER
  8
0
  9
$CELTYPE
  6
CONTINUOUS
  9
$CECOLOR
 62
           256
  9
$CELTSCALE
 40
1.0
  9
$DELOBJ
 70
             1
  9
$DISPSILH
 70
             0
  9
$DIMSCALE
 40
1.0
  9
$DIMASZ
 40
0.18
  9
$DIMEXO
 40
0.0625
  9
$DIMDLI
 40
0.38
  9
$DIMRND
 40
0.0
  9
$DIMDLE
 40
0.0
  9
$DIMEXE
 40
0.18
  9
$DIMTP
 40
0.0
  9
$DIMTM
 40
0.0
  9
$DIMTXT
 40
0.18
  9
$DIMCEN
 40
0.09
  9
$DIMTSZ
 40
0.0
  9
$DIMTOL
 70
             0
  9
$DIMLIM
 70
             0
  9
$DIMTIH
 70
             1
  9
$DIMTOH
 70
             1
  9
$DIMSE1
 70
             0
  9
$DIMSE2
 70
             0
  9
$DIMTAD
 70
             0
  9
$DIMZIN
 70
             0
  9
$DIMBLK
  1

  9
$DIMASO
 70
             1
  9
$DIMSHO
 70
             1
  9
$DIMPOST
  1

  9
$DIMAPOST
  1

  9
$DIMALT
 70
             0
  9
$DIMALTD
 70
             2
  9
$DIMALTF
 40
25.4
  9
$DIMLFAC
 40
1.0
  9
$DIMTOFL
 70
             0
  9
$DIMTVP
 40
0.0
  9
$DIMTIX
 70
             0
  9
$DIMSOXD
 70
             0
  9
$DIMSAH
 70
             0
  9
$DIMBLK1
  1

  9
$DIMBLK2
  1

  9
$DIMSTYLE
  2
STANDARD
  9
$DIMCLRD
 70
             0
  9
$DIMCLRE
 70
             0
  9
$DIMCLRT
 70
             0
  9
$DIMTFAC
 40
1.0
  9
$DIMGAP
 40
0.09
  9
$DIMJUST
 70
             0
  9
$DIMSD1
 70
             0
  9
$DIMSD2
 70
             0
  9
$DIMTOLJ
 70
             1
  9
$DIMTZIN
 70
             0
  9
$DIMALTZ
 70
             0
  9
$DIMALTTZ
 70
             0
  9
$DIMFIT
 70
             3
  9
$DIMUPT
 70
             0
  9
$DIMUNIT
 70
             2
  9
$DIMDEC
 70
             4
  9
$DIMTDEC
 70
             4
  9
$DIMALTU
 70
             2
  9
$DIMALTTD
 70
             2
  9
$DIMTXSTY
  7
STANDARD
  9
$DIMAUNIT
 70
             0
  9
$LUNITS
 70
             2
  9
$LUPREC
 70
             4
  9
$SKETCHINC
 40
0.1
  9
$FILLETRAD
 40
0.0
  9
$AUNITS
 70
             0
  9
$AUPREC
 70
             0
  9
$MENU
  1
acad
  9
$ELEVATION
 40
0.0
  9
$PELEVATION
 40
0.0
  9
$THICKNESS
 40
0.0
  9
$LIMCHECK
 70
             0
  9
$BLIPMODE
 70
             1
  9
$CHAMFERA
 40
0.0
  9
$CHAMFERB
 40
0.0
  9
$CHAMFERC
 40
0.0
  9
$CHAMFERD
 40
0.0
  9
$SKPOLY
 70
             0
  9
$TDCREATE
 40
0.000000000
  9
$TDUPDATE
 40
0.000000000
  9
$TDINDWG
 40
0.0000000000
  9
$TDUSRTIMER
 40
0.0000000000
  9
$USRTIMER
 70
             1
  9
$ANGBASE
 50
0.0
  9
$ANGDIR
 70
             0
  9
$PDMODE
 70
             0
  9
$PDSIZE
 40
0.0
  9
$PLINEWID
 40
0.0
  9
$COORDS
 70
             0
  9
$SPLFRAME
 70
             0
  9
$SPLINETYPE
 70
             6
  9
$SPLINESEGS
 70
             8
  9
$ATTDIA
 70
             0
  9
$ATTREQ
 70
             1
  9
$HANDLING
 70
             1
  9
$HANDSEED
  5
256
  9
$SURFTAB1
 70
             6
  9
$SURFTAB2
 70
             6
  9
$SURFTYPE
 70
             6
  9
$SURFU
 70
             6
  9
$SURFV
 70
             6
  9
$UCSNAME
  2

  9
$UCSORG
 10
0.0
 20
0.0
 30
0.0
  9
$UCSXDIR
 10
1.0
 20
0.0
 30
0.0
  9
$UCSYDIR
 10
0.0
 20
1.0
 30
0.0
  9
$PUCSNAME
  2

  9
$PUCSORG
 10
0.0
 20
0.0
 30
0.0
  9
$PUCSXDIR
 10
1.0
 20
0.0
 30
0.0
  9
$PUCSYDIR
 10
0.0
 20
1.0
 30
0.0
  9
$USERI1
 70
             0
  9
$USERI2
 70
             0
  9
$USERI3
 70
             0
  9
$USERI4
 70
             0
  9
$USERI5
 70
             0
  9
$USERR1
 40
12.01
  9
$USERR2
 40
0.0
  9
$USERR3
 40
0.0
  9
$USERR4
 40
0.0
  9
$USERR5
 40
0.0
  9
$WORLDVIEW
 70
             1
  9
$SHADEDGE
 70
             3
  9
$SHADEDIF
 70
            70
  9
$TILEMODE
 70
             1
  9
$MAXACTVP
 70
            16
  9
$PINSBASE
 10
0.0
 20
0.0
 30
0.0
  9
$PLIMCHECK
 70
             0
  9
$PEXTMIN
 10
1.00000000000000E+20
 20
1.00000000000000E+20
 30
1.00000000000000E+20
  9
$PEXTMAX
 10
-1.00000000000000E+20
 20
-1.00000000000000E+20
 30
-1.00000000000000E+20
  9
$PLIMMIN
 10
0.0
 20
0.0
  9
$PLIMMAX
 10
12.0
 20
9.0
  9
$UNITMODE
 70
             0
  9
$VISRETAIN
 70
             0
  9
$PLINEGEN
 70
             1
  9
$PSLTSCALE
 70
             0
  9
$TREEDEPTH
 70
          3020
  9
$PICKSTYLE
 70
             1
  9
$CMLSTYLE
  2
STANDARD
  9
$CMLJUST
 70
             0
  9
$CMLSCALE
 40
1.0
  9
$PROXYGRAPHICS
 70
             0
  9
$MEASUREMENT
 70
             1
  0
ENDSEC
  0
SECTION
  2
CLASSES
  0
CLASS
  1
LWPOLYLINE
  2
AcDbPolyline
  3
"AutoCAD"
 90
        0
280
             0
281
             1
  0
CLASS
  1
IMAGE
  2
AcDbRasterImage
  3
ISM
 90
      127
280
             0
281
             1
  0
CLASS
  1
OLE2FRAME
  2
AcDbOle2Frame
  3
""
 90
        0
280
             0
281
             1
  0
CLASS
  1
HATCH
  2
AcDbHatch
  3
"ACAD_SEDONA"
 90
        0
280
             0
281
             1
  0
CLASS
  1
DICTIONARYVAR
  2
AcDbDictionaryVar
  3
"AutoCAD"
 90
        0
280
             0
281
             0
  0
CLASS
  1
RASTERVARIABLES
  2
AcDbRasterVariables
  3
ISM
 90
        0
280
             0
281
             0
  0
CLASS
  1
IMAGEDEF
  2
AcDbRasterImageDef
  3
ISM
 90
        0
280
             0
281
             0
  0
CLASS
  1
IMAGEDEF_REACTOR
  2
AcDbRasterImageDefReactor
  3
ISM
 90
        1
280
             0
281
             0
  0
CLASS
  1
IDBUFFER
  2
AcDbIdBuffer
  3
"Acad"
 90
        0
280
             0
281
             0
  0
CLASS
  1
SPATIAL_FILTER
  2
AcDbSpatialFilter
  3
"Acad"
 90
        0
280
             0
281
             0
  0
CLASS
  1
XRECORD
  2
AcDbXrecord
  3
"<Built In>"
 90
        0
280
             0
281
             0
  0
CLASS
  1
SORTENTSTABLE
  2
AcDbSortentsTable
  3
"AutoCAD"
 90
        0
280
             0
281
             0
  0
CLASS
  1
LAYER_INDEX
  2
AcDbLayerIndex
  3
"Acad"
 90
        0
280
             0
281
             0
  0
CLASS
  1
SPATIAL_INDEX
  2
AcDbSpatialIndex
  3
"Acad"
 90
        0
280
             0
281
             0
  0
CLASS
  1
OBJECT_PTR
  2
CAseDLPNTableRecord
  3
"ASE-LPNTableRecord"
 90
        1
280
             0
281
             0
  0
CLASS
  1
LAYOUT
  2
AcDbLayout
  3
"AutoCAD 2000"
 90
        0
280
             0
281
             0
  0
CLASS
  1
PLOTSETTINGS
  2
AcDbPlotSettings
  3
"AutoCAD 2000"
 90
        0
280
             0
281
             0
  0
CLASS
  1
ACDBDICTIONARYWDFLT
  2
AcDbDictionaryWithDefault
  3
"AutoCAD 2000"
 90
        0
280
             0
281
             0
  0
CLASS
  1
ACDBPLACEHOLDER
  2
AcDbPlaceHolder
  3
"AutoCAD 2000"
 90
        0
280
             0
281
             0
  0
ENDSEC
  0
SECTION
  2
TABLES
  0
TABLE
  2
VPORT
  5
7
100
AcDbSymbolTable
 70
             1
  0
VPORT
  5
15
100
AcDbSymbolTableRecord
100
AcDbViewportTableRecord
  2
*ACTIVE
 70
             0
 10
0.0
 20
0.0
 11
1.0
 21
1.0
 12
10424.980300144343
 22
-670.28286503902859
 13
0.0
 23
0.0
 14
1.0
 24
1.0
 15
0.0
 25
0.0
 16
0.0
 26
0.0
 36
1.0
 17
0.0
 27
0.0
 37
0.0
 40
232.13389230146555
 41
1.60267857142857
 42
50.0
 43
0.0
 44
0.0
 50
0.0
 51
0.0
 71
             0
 72
           100
 73
             1
 74
             1
 75
             0
 76
             0
 77
             0
 78
             0
  0
ENDTAB
  0
TABLE
  2
LTYPE
  5
4
100
AcDbSymbolTable
 70
            10
  0
LTYPE
  5
11
100
AcDbSymbolTableRecord
100
AcDbLinetypeTableRecord
  2
BYBLOCK
 70
            64
  3

 72
            65
 73
             0
 40
0.0
  0
LTYPE
  5
12
100
AcDbSymbolTableRecord
100
AcDbLinetypeTableRecord
  2
BYLAYER
 70
            64
  3

 72
            65
 73
             0
 40
0.0
  0
LTYPE
  5
13
100
AcDbSymbolTableRecord
100
AcDbLinetypeTableRecord
  2
CONTINUOUS
 70
            64
  3
Solid line
 72
            65
 73
             0
 40
0.0
  0
LTYPE
  5
1D
100
AcDbSymbolTableRecord
100
AcDbLinetypeTableRecord
  2
DASHED
 70
            64
  3
Dashed
 72
            65
 73
             2
 40
15.0
 49
7.0
 74
             0
 49
-8.0
 74
             0
  0
LTYPE
  5
1E
100
AcDbSymbolTableRecord
100
AcDbLinetypeTableRecord
  2
DOTTED
 70
            64
  3
Dotted
 72
            65
 73
             2
 40
1.0
 49
0.0
 74
             0
 49
-1.0
 74
             0
  0
LTYPE
  5
1F
100
AcDbSymbolTableRecord
100
AcDbLinetypeTableRecord
  2
DOT_CENTER
 70
            64
  3
Dot_Center
 72
            65
 73
             4
 40
14.0
 49
12.0
 74
             0
 49
-1.0
 74
             0
 49
0.0
 74
             0
 49
-1.0
 74
             0
  0
LTYPE
  5
20
100
AcDbSymbolTableRecord
100
AcDbLinetypeTableRecord
  2
LONG_DASHED
 70
            64
  3
Long_Dashed
 72
            65
 73
             2
 40
15.0
 49
10.0
 74
             0
 49
-5.0
 74
             0
  0
LTYPE
  5
21
100
AcDbSymbolTableRecord
100
AcDbLinetypeTableRecord
  2
DASH_CENTER
 70
            64
  3
Dash_Center
 72
            65
 73
             4
 40
14.0
 49
11.0
 74
             0
 49
-1.0
 74
             0
 49
1.0
 74
             0
 49
-1.0
 74
             0
  0
LTYPE
  5
22
100
AcDbSymbolTableRecord
100
AcDbLinetypeTableRecord
  2
PHANTOM
 70
            64
  3
Phantom
 72
            65
 73
             6
 40
13.0
 49
10.0
 74
             0
 49
-1.0
 74
             0
 49
0.0
 74
             0
 49
-1.0
 74
             0
 49
0.0
 74
             0
 49
-1.0
 74
             0
  0
LTYPE
  5
23
100
AcDbSymbolTableRecord
100
AcDbLinetypeTableRecord
  2
CENTER_DASH_DASH
 70
            64
  3
Center_Dash_Dash
 72
            65
 73
             6
 40
14.0
 49
9.0
 74
             0
 49
-1.0
 74
             0
 49
1.0
 74
             0
 49
-1.0
 74
             0
 49
1.0
 74
             0
 49
-1.0
 74
             0
  0
ENDTAB
  0
TABLE
  2
LAYER
  5
2
100
AcDbSymbolTable
 70
             2
  0
LAYER
  5
14
100
AcDbSymbolTableRecord
100
AcDbLayerTableRecord
  2
0
 70
             0
 62
             7
  6
CONTINUOUS
  0
LAYER
  5
24
100
AcDbSymbolTableRecord
100
AcDbLayerTableRecord
  2
1
 70
             0
 62
             7
  6
CONTINUOUS
  0
ENDTAB
  0
TABLE
  2
STYLE
  5
3
100
AcDbSymbolTable
 70
             2
  0
STYLE
  5
17
100
AcDbSymbolTableRecord
100
AcDbTextStyleTableRecord
  2
STANDARD
 70
             0
 40
0.0
 41
1.0
 50
0.0
 71
             0
 42
0.0
  3
txt
  4

  0
STYLE
  5
1F6
100
AcDbSymbolTableRecord
100
AcDbTextStyleTableRecord
  2
CONVERTER_1
 70
             0
 40
0.0
 41
0.9
 50
0.0
 71
             0
 42
0.0
  3
txt.shx
  4

  0
ENDTAB
  0
TABLE
  2
VIEW
  5
5
100
AcDbSymbolTable
 70
             0
  0
ENDTAB
  0
TABLE
  2
UCS
  5
6
100
AcDbSymbolTable
 70
             0
  0
ENDTAB
  0
TABLE
  2
APPID
  5
8
100
AcDbSymbolTable
 70
             1
  0
APPID
  5
16
100
AcDbSymbolTableRecord
100
AcDbRegAppTableRecord
  2
ACAD
 70
             0
  0
ENDTAB
  0
TABLE
  2
DIMSTYLE
  5
9
100
AcDbSymbolTable
 70
             8
  0
DIMSTYLE
105
18
100
AcDbSymbolTableRecord
100
AcDbDimStyleTableRecord
  2
STANDARD
 70
             0
  3

  4

  5

  6

  7

 40
1.0
 41
0.18
 42
0.0625
 43
0.38
 44
0.18
 45
0.0
 46
0.0
 47
0.0
 48
0.0
 71
             0
 72
             0
 73
             1
 74
             1
 75
             0
 76
             0
 77
             0
 78
             0
140
0.18
141
0.09
142
0.0
143
25.4
144
1.0
145
0.0
146
1.0
147
0.09
170
             0
171
             2
172
             0
173
             0
174
             0
175
             0
176
             0
177
             0
178
             0
270
             2
271
             4
272
             4
273
             2
274
             2
275
             0
280
             0
281
             0
282
             0
283
             1
284
             0
285
             0
286
             0
287
             3
288
             0
340
17
  0
DIMSTYLE
105
1F9
100
AcDbSymbolTableRecord
100
AcDbDimStyleTableRecord
  2
ME10_DIM_0
 70
             0
  3

  4

  5

  6

  7

 40
1.0
 41
3.2
 42
1.0
 43
0.38
 44
1.5
 45
0.0
 46
0.0
 47
0.0
 48
0.0
 71
             0
 72
             0
 73
             0
 74
             0
 75
             0
 76
             0
 77
             1
 78
             8
140
3.2
141
0.09
142
0.0
143
25.4
144
1.0
145
0.0
146
1.0
147
0.625
170
             0
171
             2
172
             1
173
             1
174
             0
175
             0
176
             2
177
             2
178
             2
270
             2
271
             4
272
             4
273
             2
274
             2
275
             0
280
             0
281
             0
282
             0
283
             1
284
             0
285
             0
286
             0
287
             3
288
             0
340
1F6
  0
DIMSTYLE
105
204
100
AcDbSymbolTableRecord
100
AcDbDimStyleTableRecord
  2
ME10_DIM_1
 70
             0
  3

  4

  5

  6

  7

 40
1.0
 41
3.5
 42
0.5
 43
0.38
 44
1.5
 45
0.0
 46
0.0
 47
30.0
 48
30.0
 71
             1
 72
             0
 73
             1
 74
             1
 75
             0
 76
             0
 77
             1
 78
             8
140
3.0
141
0.09
142
0.0
143
25.4
144
1.0
145
0.0
146
0.6
147
0.625
170
             0
171
             2
172
             1
173
             1
174
             0
175
             0
176
             2
177
             2
178
             2
270
             2
271
             4
272
             0
273
             2
274
             2
275
             0
280
             0
281
             0
282
             0
283
             1
284
             0
285
             0
286
             0
287
             3
288
             0
340
1F6
  0
DIMSTYLE
105
20F
100
AcDbSymbolTableRecord
100
AcDbDimStyleTableRecord
  2
ME10_DIM_2
 70
             0
  3
ƒÆ<>
  4

  5

  6

  7

 40
1.0
 41
4.8
 42
0.5
 43
0.38
 44
1.5
 45
0.0
 46
0.0
 47
0.0
 48
0.0
 71
             0
 72
             0
 73
             0
 74
             0
 75
             0
 76
             0
 77
             1
 78
             8
140
3.2
141
0.09
142
0.0
143
25.4
144
1.0
145
0.0
146
1.0
147
0.625
170
             0
171
             2
172
             1
173
             1
174
             0
175
             0
176
             2
177
             2
178
             2
270
             2
271
             4
272
             4
273
             2
274
             2
275
             0
280
             0
281
             0
282
             0
283
             1
284
             0
285
             0
286
             0
287
             3
288
             0
340
1F6
  0
DIMSTYLE
105
21C
100
AcDbSymbolTableRecord
100
AcDbDimStyleTableRecord
  2
ME10_DIM_3
 70
             0
  3

  4

  5

  6

  7

 40
1.0
 41
3.5
 42
0.5
 43
0.38
 44
1.5
 45
0.0
 46
0.0
 47
0.0
 48
0.0
 71
             0
 72
             0
 73
             1
 74
             1
 75
             0
 76
             0
 77
             1
 78
             8
140
3.2
141
0.09
142
0.0
143
25.4
144
1.0
145
0.0
146
1.0
147
0.625
170
             0
171
             2
172
             1
173
             1
174
             0
175
             0
176
             2
177
             2
178
             2
270
             2
271
             4
272
             4
273
             2
274
             2
275
             0
280
             0
281
             0
282
             0
283
             1
284
             0
285
             0
286
             0
287
             3
288
             0
340
1F6
  0
DIMSTYLE
105
229
100
AcDbSymbolTableRecord
100
AcDbDimStyleTableRecord
  2
ME10_DIM_4
 70
             0
  3

  4

  5

  6

  7

 40
1.0
 41
3.5
 42
0.5
 43
0.38
 44
1.5
 45
0.0
 46
0.0
 47
0.0
 48
0.0
 71
             0
 72
             0
 73
             1
 74
             1
 75
             0
 76
             0
 77
             1
 78
             8
140
3.2
141
0.09
142
0.0
143
25.4
144
1.0
145
0.0
146
1.0
147
0.625
170
             0
171
             2
172
             1
173
             1
174
             0
175
             0
176
             2
177
             2
178
             2
270
             2
271
             4
272
             4
273
             2
274
             2
275
             0
280
             0
281
             0
282
             0
283
             1
284
             0
285
             0
286
             0
287
             3
288
             0
340
1F6
  0
DIMSTYLE
105
234
100
AcDbSymbolTableRecord
100
AcDbDimStyleTableRecord
  2
ME10_DIM_5
 70
             0
  3

  4

  5

  6

  7

 40
1.0
 41
3.5
 42
0.5
 43
0.38
 44
1.5
 45
0.0
 46
0.0
 47
0.0
 48
0.0
 71
             0
 72
             0
 73
             1
 74
             1
 75
             0
 76
             0
 77
             1
 78
             8
140
3.2
141
0.09
142
0.0
143
25.4
144
1.0
145
0.0
146
1.0
147
0.625
170
             0
171
             2
172
             1
173
             1
174
             0
175
             0
176
             2
177
             2
178
             2
270
             2
271
             4
272
             4
273
             2
274
             2
275
             0
280
             0
281
             0
282
             0
283
             1
284
             0
285
             0
286
             0
287
             3
288
             0
340
1F6
  0
DIMSTYLE
105
253
100
AcDbSymbolTableRecord
100
AcDbDimStyleTableRecord
  2
ME10_DIM_6
 70
             0
  3

  4

  5

  6

  7

 40
1.0
 41
3.5
 42
0.5
 43
0.38
 44
1.5
 45
0.0
 46
0.0
 47
2.0
 48
2.0
 71
             1
 72
             0
 73
             1
 74
             1
 75
             0
 76
             0
 77
             1
 78
             8
140
3.2
141
0.09
142
0.0
143
25.4
144
1.0
145
0.0
146
0.6
147
0.625
170
             0
171
             2
172
             1
173
             1
174
             0
175
             0
176
             2
177
             2
178
             2
270
             2
271
             2
272
             0
273
             2
274
             2
275
             0
280
             0
281
             0
282
             0
283
             1
284
             0
285
             0
286
             0
287
             3
288
             0
340
1F6
  0
ENDTAB
  0
TABLE
  2
BLOCK_RECORD
  5
1
100
AcDbSymbolTable
 70
             9
  0
BLOCK_RECORD
  5
A
100
AcDbSymbolTableRecord
100
AcDbBlockTableRecord
  2
*MODEL_SPACE
  0
BLOCK_RECORD
  5
B
100
AcDbSymbolTableRecord
100
AcDbBlockTableRecord
  2
*PAPER_SPACE
  0
BLOCK_RECORD
  5
1EF
100
AcDbSymbolTableRecord
100
AcDbBlockTableRecord
  2
*D0
  0
BLOCK_RECORD
  5
1FB
100
AcDbSymbolTableRecord
100
AcDbBlockTableRecord
  2
*D1
  0
BLOCK_RECORD
  5
206
100
AcDbSymbolTableRecord
100
AcDbBlockTableRecord
  2
*D2
  0
BLOCK_RECORD
  5
211
100
AcDbSymbolTableRecord
100
AcDbBlockTableRecord
  2
*D3
  0
BLOCK_RECORD
  5
21E
100
AcDbSymbolTableRecord
100
AcDbBlockTableRecord
  2
*D4
  0
BLOCK_RECORD
  5
22B
100
AcDbSymbolTableRecord
100
AcDbBlockTableRecord
  2
*D5
  0
BLOCK_RECORD
  5
236
100
AcDbSymbolTableRecord
100
AcDbBlockTableRecord
  2
*D6
  0
BLOCK_RECORD
  5
23F
100
AcDbSymbolTableRecord
100
AcDbBlockTableRecord
  2
*D7
  0
BLOCK_RECORD
  5
248
100
AcDbSymbolTableRecord
100
AcDbBlockTableRecord
  2
*D8
  0
ENDTAB
  0
ENDSEC
  0
SECTION
  2
BLOCKS
  0
BLOCK
  5
D
100
AcDbEntity
  8
0
100
AcDbBlockBegin
  2
*MODEL_SPACE
 70
             0
 10
0.0
 20
0.0
 30
0.0
  3
*MODEL_SPACE
  1

  0
ENDBLK
  5
E
100
AcDbEntity
  8
0
100
AcDbBlockEnd
  0
BLOCK
  5
F
100
AcDbEntity
 67
             1
  8
0
100
AcDbBlockBegin
  2
*PAPER_SPACE
 70
             0
 10
0.0
 20
0.0
 30
0.0
  3
*PAPER_SPACE
  1

  0
ENDBLK
  5
10
100
AcDbEntity
 67
             1
  8
0
100
AcDbBlockEnd
  0
BLOCK
  5
1F0
100
AcDbEntity
  8
0
100
AcDbBlockBegin
  2
*D0
 70
             1
 10
0.0
 20
0.0
 30
0.0
  3
*D0
  1

  0
LINE
  5
1F1
100
AcDbEntity
  8
0
  6
CONTINUOUS
 62
             2
100
AcDbLine
 10
10432.105677397101
 20
-573.16939076019105
 11
10282.105677397101
 21
-573.16939076019105
  0
LINE
  5
1F2
100
AcDbEntity
  8
0
  6
CONTINUOUS
 62
             2
100
AcDbLine
 10
10282.105677397101
 20
-633.88860790439799
 11
10282.105677397101
 21
-571.66939076019105
  0
LINE
  5
1F3
100
AcDbEntity
  8
0
  6
CONTINUOUS
 62
             2
100
AcDbLine
 10
10432.105677397101
 20
-633.62919837492132
 11
10432.105677397101
 21
-571.66939076019105
  0
SOLID
  5
1F4
100
AcDbEntity
  8
0
 62
             2
100
AcDbTrace
 10
10428.905677397101
 20
-573.59067875247069
 11
10428.905677397101
 21
-572.7481027679114
 12
10432.105677397101
 22
-573.16939076019105
 13
10432.105677397101
 23
-573.16939076019105
  0
SOLID
  5
1F5
100
AcDbEntity
  8
0
 62
             2
100
AcDbTrace
 10
10285.305677397102
 20
-572.7481027679114
 11
10285.305677397102
 21
-573.59067875247069
 12
10282.105677397101
 22
-573.16939076019105
 13
10282.105677397101
 23
-573.16939076019105
  0
MTEXT
  5
1F7
100
AcDbEntity
  8
0
 62
             2
100
AcDbMText
 10
10350.192282730699
 20
-571.16939076019105
 30
0.0
 40
3.2
 41
0.0
 71
             7
 72
             1
  1
150
  7
CONVERTER_1
 11
0.99999999999706
 21
0.00000242406841
 31
0.0
  0
ENDBLK
  5
1F8
100
AcDbEntity
  8
0
100
AcDbBlockEnd
  0
BLOCK
  5
1FC
100
AcDbEntity
  8
0
100
AcDbBlockBegin
  2
*D1
 70
             1
 10
0.0
 20
0.0
 30
0.0
  3
*D1
  1

  0
LINE
  5
1FD
100
AcDbEntity
  8
0
  6
CONTINUOUS
 62
             2
100
AcDbLine
 10
10477.521295949378
 20
-573.32299386385205
 11
10432.105677397101
 21
-573.32299386385205
  0
LINE
  5
1FE
100
AcDbEntity
  8
0
  6
CONTINUOUS
 62
             2
100
AcDbLine
 10
10432.105677397101
 20
-634.12919837492132
 11
10432.105677397101
 21
-571.82299386385205
  0
LINE
  5
1FF
100
AcDbEntity
  8
0
  6
CONTINUOUS
 62
             2
100
AcDbLine
 10
10477.521295949378
 20
-629.35016252119726
 11
10477.521295949378
 21
-571.82299386385205
  0
SOLID
  5
200
100
AcDbEntity
  8
0
 62
             2
100
AcDbTrace
 10
10474.021295949378
 20
-573.78377760540798
 11
10474.021295949378
 21
-572.86221012229612
 12
10477.521295949378
 22
-573.32299386385205
 13
10477.521295949378
 23
-573.32299386385205
  0
SOLID
  5
201
100
AcDbEntity
  8
0
 62
             2
100
AcDbTrace
 10
10435.605677397101
 20
-572.86221012229612
 11
10435.605677397101
 21
-573.78377760540798
 12
10432.105677397101
 22
-573.32299386385205
 13
10432.105677397101
 23
-573.32299386385205
  0
MTEXT
  5
202
100
AcDbEntity
  8
0
 62
             2
100
AcDbMText
 10
10451.9603645427
 20
-571.32299386385205
 30
0.0
 40
3.0
 41
0.0
 71
             7
 72
             1
  1
\C2;300\C2;\H1.800000;{\Fgdt;`}30
  7
CONVERTER_1
 11
0.99999999999706
 21
0.00000242406841
 31
0.0
  0
ENDBLK
  5
203
100
AcDbEntity
  8
0
100
AcDbBlockEnd
  0
BLOCK
  5
207
100
AcDbEntity
  8
0
100
AcDbBlockBegin
  2
*D2
 70
             1
 10
0.0
 20
0.0
 30
0.0
  3
*D2
  1

  0
LINE
  5
208
100
AcDbEntity
  8
0
  6
CONTINUOUS
 62
             2
100
AcDbLine
 10
10575.718357594427
 20
-590.19916950793981
 11
10575.718357594427
 21
-762.19916950793981
  0
LINE
  5
209
100
AcDbEntity
  8
0
  6
CONTINUOUS
 62
             2
100
AcDbLine
 10
10562.337577463981
 20
-762.19916950793981
 11
10577.218357594427
 21
-762.19916950793981
  0
LINE
  5
20A
100
AcDbEntity
  8
0
  6
CONTINUOUS
 62
             2
100
AcDbLine
 10
10562.335432368161
 20
-590.19916950793981
 11
10577.218357594427
 21
-590.19916950793981
  0
SOLID
  5
20B
100
AcDbEntity
  8
0
 62
             2
100
AcDbTrace
 10
10576.350289582846
 20
-594.99916950793977
 11
10575.086425606009
 21
-594.99916950793977
 12
10575.718357594427
 22
-590.19916950793981
 13
10575.718357594427
 23
-590.19916950793981
  0
SOLID
  5
20C
100
AcDbEntity
  8
0
 62
             2
100
AcDbTrace
 10
10575.086425606009
 20
-757.39916950793986
 11
10576.350289582846
 21
-757.39916950793986
 12
10575.718357594427
 22
-762.19916950793981
 13
10575.718357594427
 23
-762.19916950793981
  0
MTEXT
  5
20D
100
AcDbEntity
  8
0
 62
             2
100
AcDbMText
 10
10572.865024261095
 20
-698.18948904115643
 30
0.0
 40
3.2
 41
0.0
 71
             7
 72
             1
  1
\C2;ƒÆ\C2;172
  7
CONVERTER_1
 11
0.0
 21
1.0
 31
0.0
  0
ENDBLK
  5
20E
100
AcDbEntity
  8
0
100
AcDbBlockEnd
  0
BLOCK
  5
212
100
AcDbEntity
  8
0
100
AcDbBlockBegin
  2
*D3
 70
             1
 10
0.0
 20
0.0
 30
0.0
  3
*D3
  1

  0
LINE
  5
213
100
AcDbEntity
  8
0
  6
CONTINUOUS
 62
             2
100
AcDbLine
 10
10562.335432368161
 20
-579.18041677807241
 11
10576.470989528631
 21
-579.18041677807241
  0
LINE
  5
214
100
AcDbEntity
  8
0
  6
CONTINUOUS
 62
             2
100
AcDbLine
 10
10554.835432368161
 20
-579.18041677807241
 11
10562.335432368161
 21
-579.18041677807241
  0
LINE
  5
215
100
AcDbEntity
  8
0
  6
CONTINUOUS
 62
             2
100
AcDbLine
 10
10547.835432368161
 20
-579.18041677807241
 11
10554.835432368161
 21
-579.18041677807241
  0
LINE
  5
216
100
AcDbEntity
  8
0
  6
CONTINUOUS
 62
             2
100
AcDbLine
 10
10562.335432368161
 20
-590.19916950793981
 11
10562.335432368161
 21
-577.68041677807241
  0
LINE
  5
217
100
AcDbEntity
  8
0
  6
CONTINUOUS
 62
             2
100
AcDbLine
 10
10554.835432368161
 20
-590.19916950793981
 11
10554.835432368161
 21
-577.68041677807241
  0
SOLID
  5
218
100
AcDbEntity
  8
0
 62
             2
100
AcDbTrace
 10
10551.335432368161
 20
-579.64120051962834
 11
10551.335432368161
 21
-578.71963303651648
 12
10554.835432368161
 22
-579.18041677807241
 13
10554.835432368161
 23
-579.18041677807241
  0
SOLID
  5
219
100
AcDbEntity
  8
0
 62
             2
100
AcDbTrace
 10
10565.835432368161
 20
-578.71963303651648
 11
10565.835432368161
 21
-579.64120051962834
 12
10562.335432368161
 22
-579.18041677807241
 13
10562.335432368161
 23
-579.18041677807241
  0
MTEXT
  5
21A
100
AcDbEntity
  8
0
 62
             2
100
AcDbMText
 10
10570.470989528631
 20
-577.18041677807241
 30
0.0
 40
3.2
 41
0.0
 71
             7
 72
             1
  1
7.5
  7
CONVERTER_1
 11
0.99999999999706
 21
0.00000242406841
 31
0.0
  0
ENDBLK
  5
21B
100
AcDbEntity
  8
0
100
AcDbBlockEnd
  0
BLOCK
  5
21F
100
AcDbEntity
  8
0
100
AcDbBlockBegin
  2
*D4
 70
             1
 10
0.0
 20
0.0
 30
0.0
  3
*D4
  1

  0
LINE
  5
220
100
AcDbEntity
  8
0
  6
CONTINUOUS
 62
             2
100
AcDbLine
 10
10518.835432368161
 20
-579.18041677807241
 11
10525.835432368161
 21
-579.18041677807241
  0
LINE
  5
221
100
AcDbEntity
  8
0
  6
CONTINUOUS
 62
             2
100
AcDbLine
 10
10511.335432368161
 20
-579.18041677807241
 11
10518.835432368161
 21
-579.18041677807241
  0
LINE
  5
222
100
AcDbEntity
  8
0
  6
CONTINUOUS
 62
             2
100
AcDbLine
 10
10501.01357266653
 20
-579.18041677807241
 11
10511.335432368161
 21
-579.18041677807241
  0
LINE
  5
223
100
AcDbEntity
  8
0
  6
CONTINUOUS
 62
             2
100
AcDbLine
 10
10518.835432368161
 20
-590.19916950793981
 11
10518.835432368161
 21
-577.68041677807241
  0
LINE
  5
224
100
AcDbEntity
  8
0
  6
CONTINUOUS
 62
             2
100
AcDbLine
 10
10511.335432368161
 20
-590.19916950793981
 11
10511.335432368161
 21
-577.68041677807241
  0
SOLID
  5
225
100
AcDbEntity
  8
0
 62
             2
100
AcDbTrace
 10
10507.835432368161
 20
-579.64120051962834
 11
10507.835432368161
 21
-578.71963303651648
 12
10511.335432368161
 22
-579.18041677807241
 13
10511.335432368161
 23
-579.18041677807241
  0
SOLID
  5
226
100
AcDbEntity
  8
0
 62
             2
100
AcDbTrace
 10
10522.335432368161
 20
-578.71963303651648
 11
10522.335432368161
 21
-579.64120051962834
 12
10518.835432368161
 22
-579.18041677807241
 13
10518.835432368161
 23
-579.18041677807241
  0
MTEXT
  5
227
100
AcDbEntity
  8
0
 62
             2
100
AcDbMText
 10
10501.01357266653
 20
-577.18041677807241
 30
0.0
 40
3.2
 41
0.0
 71
             7
 72
             1
  1
7.5
  7
CONVERTER_1
 11
0.99999999999706
 21
0.00000242406841
 31
0.0
  0
ENDBLK
  5
228
100
AcDbEntity
  8
0
100
AcDbBlockEnd
  0
BLOCK
  5
22C
100
AcDbEntity
  8
0
100
AcDbBlockBegin
  2
*D5
 70
             1
 10
0.0
 20
0.0
 30
0.0
  3
*D5
  1

  0
LINE
  5
22D
100
AcDbEntity
  8
0
  6
CONTINUOUS
 62
             2
100
AcDbLine
 10
10511.335432368161
 20
-569.96745944745339
 11
10562.335432368161
 21
-569.96745944745339
  0
LINE
  5
22E
100
AcDbEntity
  8
0
  6
CONTINUOUS
 62
             2
100
AcDbLine
 10
10562.335432368161
 20
-590.19916950793981
 11
10562.335432368161
 21
-568.46745944745339
  0
LINE
  5
22F
100
AcDbEntity
  8
0
  6
CONTINUOUS
 62
             2
100
AcDbLine
 10
10511.335432368161
 20
-590.19916950793981
 11
10511.335432368161
 21
-568.46745944745339
  0
SOLID
  5
230
100
AcDbEntity
  8
0
 62
             2
100
AcDbTrace
 10
10514.835432368161
 20
-569.50667570589746
 11
10514.835432368161
 21
-570.42824318900932
 12
10511.335432368161
 22
-569.96745944745339
 13
10511.335432368161
 23
-569.96745944745339
  0
SOLID
  5
231
100
AcDbEntity
  8
0
 62
             2
100
AcDbTrace
 10
10558.835432368161
 20
-570.42824318900932
 11
10558.835432368161
 21
-569.50667570589746
 12
10562.335432368161
 22
-569.96745944745339
 13
10562.335432368161
 23
-569.96745944745339
  0
MTEXT
  5
232
100
AcDbEntity
  8
0
 62
             2
100
AcDbMText
 10
10534.135707404101
 20
-567.96745944745339
 30
0.0
 40
3.2
 41
0.0
 71
             7
 72
             1
  1
51
  7
CONVERTER_1
 11
0.99999999999706
 21
0.00000242406841
 31
0.0
  0
ENDBLK
  5
233
100
AcDbEntity
  8
0
100
AcDbBlockEnd
  0
BLOCK
  5
237
100
AcDbEntity
  8
0
100
AcDbBlockBegin
  2
*D6
 70
             1
 10
0.0
 20
0.0
 30
0.0
  3
*D6
  1

  0
LINE
  5
238
100
AcDbEntity
  8
0
  6
CONTINUOUS
 62
             2
100
AcDbLine
 10
10370.276273792
 20
-584.73513352859197
 11
10395.736273791999
 21
-584.73513352859197
  0
LINE
  5
239
100
AcDbEntity
  8
0
  6
CONTINUOUS
 62
             2
100
AcDbLine
 10
10351.233439033338
 20
-599.86466161569638
 11
10370.276273792
 21
-584.73513352859197
  0
SOLID
  5
23A
100
AcDbEntity
  8
0
 62
             2
100
AcDbTrace
 10
10361.321089088091
 20
-591.26151463163956
 11
10361.894364530544
 21
-591.98306982218946
 12
10358.867348906229
 22
-593.79952187678248
 13
10358.867348906229
 23
-593.79952187678248
  0
SOLID
  5
23B
100
AcDbEntity
  8
0
 62
             2
100
AcDbTrace
 10
10352.890265706112
 20
-599.13682438603905
 11
10352.316990263658
 21
-598.41526919548915
 12
10355.344005887973
 22
-596.59881714089613
 13
10355.344005887973
 23
-596.59881714089613
  0
MTEXT
  5
23C
100
AcDbEntity
  8
0
 62
             2
100
AcDbMText
 10
10376.59627379202
 20
-582.73515141821679
 30
0.0
 40
3.0
 41
0.0
 71
             7
 72
             1
  1
\C2;8-{\Fgdt;n}\C2;\C2;4.5\C2;\H1.800000;{\Fgdt;`}0.3
  7
CONVERTER_1
 11
0.99999999999706
 21
0.00000242406841
 31
0.0
  0
ENDBLK
  5
23D
100
AcDbEntity
  8
0
100
AcDbBlockEnd
  0
BLOCK
  5
240
100
AcDbEntity
  8
0
100
AcDbBlockBegin
  2
*D7
 70
             1
 10
0.0
 20
0.0
 30
0.0
  3
*D7
  1

  0
LINE
  5
241
100
AcDbEntity
  8
0
  6
CONTINUOUS
 62
             2
100
AcDbLine
 10
10449.0769110976
 20
-712.29749467001898
 11
10470.1119110976
 21
-712.29749467001898
  0
LINE
  5
242
100
AcDbEntity
  8
0
  6
CONTINUOUS
 62
             2
100
AcDbLine
 10
10281.705538306913
 20
-646.60492978068828
 11
10449.0769110976
 21
-712.29749467001898
  0
SOLID
  5
243
100
AcDbEntity
  8
0
 62
             2
100
AcDbTrace
 10
10428.589950084062
 20
-704.82216858838672
 11
10428.974755572885
 21
-703.84176200766854
 12
10432.50581648729
 22
-705.79340923519135
 13
10432.50581648729
 23
-705.79340923519135
  0
SOLID
  5
244
100
AcDbEntity
  8
0
 62
             2
100
AcDbTrace
 10
10285.62140471014
 20
-647.57617042749291
 11
10285.236599221318
 21
-648.55657700821109
 12
10281.705538306913
 22
-646.60492978068828
 13
10281.705538306913
 23
-646.60492978068828
  0
MTEXT
  5
245
100
AcDbEntity
  8
0
 62
             2
100
AcDbMText
 10
10452.756911097615
 20
-710.29750659643548
 30
0.0
 40
3.0
 41
0.0
 71
             7
 72
             1
  1
\C2;{\Fgdt;n}\C2;\C2;162\C2;\H1.800000;{\Fgdt;`}0.3
  7
CONVERTER_1
 11
0.99999999999706
 21
0.00000242406841
 31
0.0
  0
ENDBLK
  5
246
100
AcDbEntity
  8
0
100
AcDbBlockEnd
  0
BLOCK
  5
249
100
AcDbEntity
  8
0
100
AcDbBlockBegin
  2
*D8
 70
             1
 10
0.0
 20
0.0
 30
0.0
  3
*D8
  1

  0
LINE
  5
24A
100
AcDbEntity
  8
0
  6
CONTINUOUS
 62
             2
100
AcDbLine
 10
10432.373533562471
 20
-727.92933384516948
 11
10439.187904995499
 21
-732.61272157592816
  0
LINE
  5
24B
100
AcDbEntity
  8
0
  6
CONTINUOUS
 62
             2
100
AcDbLine
 10
10281.693698335608
 20
-728.0283867673653
 11
10275.0234497987
 21
-732.61272157592214
  0
LINE
  5
24C
100
AcDbEntity
  8
0
  6
CONTINUOUS
 62
             2
100
AcDbLine
 10
10439.187904995499
 20
-732.61272157592816
 11
10440.424094278431
 21
-733.46233093131548
  0
LINE
  5
24D
100
AcDbEntity
  8
0
  6
CONTINUOUS
 62
             2
100
AcDbLine
 10
10275.0234497987
 20
-732.61272157592214
 11
10273.787260515766
 21
-733.46233093130934
  0
ARC
  5
24E
100
AcDbEntity
  8
0
  6
CONTINUOUS
 62
             2
100
AcDbCircle
 10
10357.105677397101
 20
-676.19916950793981
 40
99.59910112266404
100
AcDbArc
 50
-145.50000000000119
 51
-34.50000000000286
  0
SOLID
  5
24F
100
AcDbEntity
  8
0
 62
             2
100
AcDbTrace
 10
10277.431343775377
 20
-735.19426534924196
 11
10276.681144083437
 21
-735.72951019801906
 12
10275.0234497987
 22
-732.61272157592214
 13
10275.0234497987
 23
-732.61272157592214
  0
SOLID
  5
250
100
AcDbEntity
  8
0
 62
             2
100
AcDbTrace
 10
10437.530210710762
 20
-735.72951019802497
 11
10436.780011018822
 21
-735.19426534924776
 12
10439.187904995499
 22
-732.61272157592816
 13
10439.187904995499
 23
-732.61272157592816
  0
MTEXT
  5
251
100
AcDbEntity
  8
0
 62
             2
100
AcDbMText
 10
10350.862726182
 20
-773.79827058524097
 30
0.0
 40
3.2
 41
0.0
 71
             7
 72
             1
  1
\C2;111{\Fgdt;~}\C2;\H1.920000;{\Fgdt;`}2{\Fgdt;~}
  7
CONVERTER_1
 11
0.99999999999706
 21
0.00000242406841
 31
0.0
  0
ENDBLK
  5
252
100
AcDbEntity
  8
0
100
AcDbBlockEnd
  0
ENDSEC
  0
SECTION
  2
ENTITIES
  0
DIMENSION
  5
254
100
AcDbEntity
  8
1
100
AcDbDimension
  2
*D8
 10
10357.105677397098
 20
-775.79827063060384
 11
10357.102726182
 21
-772.19827058524095
 31
0.0
 70
             5
  1
<>
  3
ME10_DIM_6
100
AcDb3PointAngularDimension
 13
10282.105761429921
 23
-727.74518364890287
 14
10431.961470468161
 24
-727.64613072670704
 15
10357.105677397101
 25
-676.19916950793981
  0
DIMENSION
  5
235
100
AcDbEntity
  8
1
100
AcDbDimension
  2
*D5
 10
10511.335432368161
 20
-569.96745944745339
 11
10536.055707404101
 21
-566.36745944745337
 31
0.0
 53
0.00013888888889
  1
51
  3
ME10_DIM_5
100
AcDbAlignedDimension
 13
10562.33543236816
 23
-590.69916950793981
 14
10511.33543236816
 24
-590.69916950793981
100
AcDbRotatedDimension
  0
DIMENSION
  5
22A
100
AcDbEntity
  8
1
100
AcDbDimension
  2
*D4
 10
10511.335432368161
 20
-579.18041677807241
 11
10504.01357266653
 21
-575.58041677807239
 31
0.0
 53
0.00013888888889
  1
7.5
  3
ME10_DIM_4
100
AcDbAlignedDimension
 13
10518.83543236816
 23
-590.69916950793981
 14
10511.33543236816
 24
-590.69916950793981
100
AcDbRotatedDimension
  0
DIMENSION
  5
21D
100
AcDbEntity
  8
1
100
AcDbDimension
  2
*D3
 10
10554.835432368161
 20
-579.18041677807241
 11
10573.470989528631
 21
-575.58041677807239
 31
0.0
 53
0.00013888888889
  1
7.5
  3
ME10_DIM_3
100
AcDbAlignedDimension
 13
10562.33543236816
 23
-590.69916950793981
 14
10554.83543236816
 24
-590.69916950793981
100
AcDbRotatedDimension
  0
DIMENSION
  5
210
100
AcDbEntity
  8
1
100
AcDbDimension
  2
*D2
 10
10575.718357594427
 20
-590.19916950793981
 11
10571.691690927761
 21
-691.60501845292106
 31
0.0
 53
90.0
  1
ƒÆ172
  3
ME10_DIM_2
100
AcDbAlignedDimension
 13
10561.837577463981
 23
-762.19916950793981
 14
10561.83543236816
 24
-590.19916950793981
 50
90.0
100
AcDbRotatedDimension
  0
DIMENSION
  5
205
100
AcDbEntity
  8
1
100
AcDbDimension
  2
*D1
 10
10477.521295949378
 20
-573.32299386385205
 11
10458.2903645427
 21
-569.82299386385205
 31
0.0
 53
0.00013888888889
  1
300
  3
ME10_DIM_1
100
AcDbAlignedDimension
 13
10432.105677397099
 23
-634.62919837492132
 14
10477.52129594938
 24
-629.85016252119726
100
AcDbRotatedDimension
  0
DIMENSION
  5
1FA
100
AcDbEntity
  8
1
100
AcDbDimension
  2
*D0
 10
10432.105677397101
 20
-573.16939076019105
 11
10353.5522827307
 21
-569.56939076019103
 31
0.0
 53
0.00013888888889
  1
<>
  3
ME10_DIM_0
100
AcDbAlignedDimension
 13
10282.105677397099
 23
-634.88860790439799
 14
10432.105677397099
 24
-634.62919837492132
100
AcDbRotatedDimension
  0
ARC
  5
1EE
100
AcDbEntity
  8
1
  6
CONTINUOUS
 62
             3
100
AcDbCircle
 10
10520.68528909256
 20
-634.11635474241825
 40
1.80000000000018
100
AcDbArc
 50
-90.0
 51
-29.99999999986807
  0
ARC
  5
1ED
100
AcDbEntity
  8
1
  6
CONTINUOUS
 62
             3
100
AcDbCircle
 10
10511.83543236816
 20
-590.69916950793981
 40
0.5
100
AcDbArc
 50
90.0
 51
180.0
  0
ARC
  5
1EC
100
AcDbEntity
  8
1
  6
CONTINUOUS
 62
             3
100
AcDbCircle
 10
10518.33543236816
 20
-590.69916950793981
 40
0.5
100
AcDbArc
 50
0.0
 51
90.0
  0
ARC
  5
1EB
100
AcDbEntity
  8
1
  6
CONTINUOUS
 62
             3
100
AcDbCircle
 10
10555.33543236816
 20
-590.69916950793981
 40
0.5
100
AcDbArc
 50
90.0
 51
180.0
  0
ARC
  5
1EA
100
AcDbEntity
  8
1
  6
CONTINUOUS
 62
             3
100
AcDbCircle
 10
10561.83543236816
 20
-590.69916950793981
 40
0.5
100
AcDbArc
 50
0.0
 51
90.0
  0
ARC
  5
1E9
100
AcDbEntity
  8
1
  6
CONTINUOUS
 62
             3
100
AcDbCircle
 10
10511.837577463981
 20
-761.69916950793981
 40
0.5
100
AcDbArc
 50
180.0
 51
-90.0
  0
ARC
  5
1E8
100
AcDbEntity
  8
1
  6
CONTINUOUS
 62
             3
100
AcDbCircle
 10
10518.337577463981
 20
-761.69916950793981
 40
0.5
100
AcDbArc
 50
-90.0
 51
0.0
  0
ARC
  5
1E7
100
AcDbEntity
  8
1
  6
CONTINUOUS
 62
             3
100
AcDbCircle
 10
10555.337577463981
 20
-761.69916950793981
 40
0.5
100
AcDbArc
 50
180.0
 51
-90.0
  0
ARC
  5
1E6
100
AcDbEntity
  8
1
  6
CONTINUOUS
 62
             3
100
AcDbCircle
 10
10561.837577463981
 20
-761.69916950793981
 40
0.5
100
AcDbArc
 50
-90.0
 51
0.0
  0
ARC
  5
1E5
100
AcDbEntity
  8
1
  6
CONTINUOUS
 62
             3
100
AcDbCircle
 10
10511.83776823116
 20
-631.01525851925567
 40
0.5
100
AcDbArc
 50
180.0
 51
-90.0
  0
ARC
  5
1E4
100
AcDbEntity
  8
1
  6
CONTINUOUS
 62
             3
100
AcDbCircle
 10
10511.83776823116
 20
-633.84114972075463
 40
0.5
100
AcDbArc
 50
90.0
 51
180.0
  0
ARC
  5
1E3
100
AcDbEntity
  8
1
  6
CONTINUOUS
 62
             3
100
AcDbCircle
 10
10518.33776823116
 20
-631.01525851925567
 40
0.5
100
AcDbArc
 50
-90.0
 51
0.0
  0
ARC
  5
1E2
100
AcDbEntity
  8
1
  6
CONTINUOUS
 62
             3
100
AcDbCircle
 10
10518.33776823116
 20
-633.84114972075463
 40
0.5
100
AcDbArc
 50
0.0
 51
90.0
  0
ARC
  5
1E1
100
AcDbEntity
  8
1
  6
CONTINUOUS
 62
             3
100
AcDbCircle
 10
10532.10476823116
 20
-637.44881438794141
 40
0.49999999999997
100
AcDbArc
 50
-95.54179016318216
 51
0.0
  0
ARC
  5
1E0
100
AcDbEntity
  8
1
  6
CONTINUOUS
 62
             3
100
AcDbCircle
 10
10555.33776823116
 20
-635.37938070255564
 40
0.5
100
AcDbArc
 50
90.0
 51
180.0
  0
ARC
  5
1DF
100
AcDbEntity
  8
1
  6
CONTINUOUS
 62
             3
100
AcDbCircle
 10
10561.83776823116
 20
-635.37938070255564
 40
0.5
100
AcDbArc
 50
0.0
 51
90.0
  0
ARC
  5
1DE
100
AcDbEntity
  8
1
  6
CONTINUOUS
 62
             3
100
AcDbCircle
 10
10555.33776823116
 20
-717.01895831325442
 40
0.5
100
AcDbArc
 50
180.0
 51
-90.0
  0
ARC
  5
1DD
100
AcDbEntity
  8
1
  6
CONTINUOUS
 62
             3
100
AcDbCircle
 10
10561.83776823116
 20
-717.01895831325442
 40
0.5
100
AcDbArc
 50
-90.0
 51
0.0
  0
ARC
  5
1DC
100
AcDbEntity
  8
1
  6
CONTINUOUS
 62
             3
100
AcDbCircle
 10
10511.83776823116
 20
-717.01895831325442
 40
0.5
100
AcDbArc
 50
180.0
 51
-90.0
  0
ARC
  5
1DB
100
AcDbEntity
  8
1
  6
CONTINUOUS
 62
             3
100
AcDbCircle
 10
10518.33776823116
 20
-717.01895831325442
 40
0.5
100
AcDbArc
 50
-90.0
 51
0.0
  0
ARC
  5
1DA
100
AcDbEntity
  8
1
  6
CONTINUOUS
 62
             3
100
AcDbCircle
 10
10397.071659265361
 20
-634.77194834232455
 40
0.49999999999654
100
AcDbArc
 50
107.79554951497174
 51
-145.00900586267076
  0
ARC
  5
1D9
100
AcDbEntity
  8
1
  6
CONTINUOUS
 62
             3
100
AcDbCircle
 10
10388.357891424421
 20
-640.63949757103751
 40
1.99999999999306
100
AcDbArc
 50
35.02823419763446
 51
128.91010041855924
  0
ARC
  5
1D8
100
AcDbEntity
  8
1
  6
CONTINUOUS
 62
             3
100
AcDbCircle
 10
10431.105677397099
 20
-717.50973111148164
 40
0.99999999999779
100
AcDbArc
 50
-29.17247535791013
 51
0.0
  0
ARC
  5
1D7
100
AcDbEntity
  8
1
  6
CONTINUOUS
 62
             3
100
AcDbCircle
 10
10283.105677397099
 20
-717.50973111148164
 40
1.0
100
AcDbArc
 50
180.0
 51
-150.82752464203907
  0
ARC
  5
1D6
100
AcDbEntity
  8
1
  6
CONTINUOUS
 62
             3
100
AcDbCircle
 10
10283.105677397099
 20
-634.88860790439799
 40
0.9999999999962
100
AcDbArc
 50
150.82752464203907
 51
180.0
  0
ARC
  5
1D5
100
AcDbEntity
  8
1
  6
CONTINUOUS
 62
             3
100
AcDbCircle
 10
10426.64242235126
 20
-630.88205241980882
 40
0.4999999999987
100
AcDbArc
 50
-146.9077008385662
 51
-75.88220558508506
  0
ARC
  5
1D4
100
AcDbEntity
  8
1
  6
CONTINUOUS
 62
             3
100
AcDbCircle
 10
10428.946252833221
 20
-630.302609495149
 40
0.49999999999761
100
AcDbArc
 50
-75.88220558730866
 51
32.5731592107559
  0
ARC
  5
1D3
100
AcDbEntity
  8
1
  6
CONTINUOUS
 62
             3
100
AcDbCircle
 10
10428.8160318923
 20
-634.40652591874255
 40
0.50000000000205
100
AcDbArc
 50
104.11779441492764
 51
-169.99999999982717
  0
ARC
  5
1D2
100
AcDbEntity
  8
1
  6
CONTINUOUS
 62
             3
100
AcDbCircle
 10
10431.08483221928
 20
-633.83589352749709
 40
0.49999999999988
100
AcDbArc
 50
29.79709238667457
 51
104.11779441267863
  0
ARC
  5
1D1
100
AcDbEntity
  8
1
  6
CONTINUOUS
 62
             3
100
AcDbCircle
 10
10334.60927364356
 20
-643.84093918226449
 40
1.00000000000381
100
AcDbArc
 50
13.99999999997527
 51
124.80817506041299
  0
ARC
  5
1D0
100
AcDbEntity
  8
1
  6
CONTINUOUS
 62
             3
100
AcDbCircle
 10
10326.87127443146
 20
-650.92024292940391
 40
0.99999999999589
100
AcDbArc
 50
140.1010687133261
 51
-126.99000000023034
  0
ARC
  5
1CF
100
AcDbEntity
  8
1
  6
CONTINUOUS
 62
             3
100
AcDbCircle
 10
10324.46457192828
 20
-654.11520506708052
 40
1.00000000000282
100
AcDbArc
 50
53.00999999978536
 51
145.91893128619944
  0
ARC
  5
1CE
100
AcDbEntity
  8
1
  6
CONTINUOUS
 62
             3
100
AcDbCircle
 10
10318.64020175288
 20
-667.62301447695313
 40
0.99999999999847
100
AcDbArc
 50
167.43106871356935
 51
-99.65999999986347
  0
ARC
  5
1CD
100
AcDbEntity
  8
1
  6
CONTINUOUS
 62
             3
100
AcDbCircle
 10
10317.968997002001
 20
-671.5662979035385
 40
0.99999999999969
100
AcDbArc
 50
80.34000000013653
 51
173.24893128649339
  0
ARC
  5
1CC
100
AcDbEntity
  8
1
  6
CONTINUOUS
 62
             3
100
AcDbCircle
 10
10318.996395534021
 20
-686.24037897357243
 40
0.99999999999525
100
AcDbArc
 50
-165.23893128633691
 51
-72.32999999930436
  0
ARC
  5
1CB
100
AcDbEntity
  8
1
  6
CONTINUOUS
 62
             3
100
AcDbCircle
 10
10320.21053236158
 20
-690.05166114155668
 40
1.00000000000395
100
AcDbArc
 50
107.67000000069565
 51
-159.4210687138532
  0
ARC
  5
1CA
100
AcDbEntity
  8
1
  6
CONTINUOUS
 62
             3
100
AcDbCircle
 10
10327.860336911341
 20
-702.61608286895785
 40
1.00000000000133
100
AcDbArc
 50
-137.90893128645618
 51
-45.00000000029478
  0
ARC
  5
1C9
100
AcDbEntity
  8
1
  6
CONTINUOUS
 62
             3
100
AcDbCircle
 10
10330.68876403608
 20
-705.44450999370451
 40
0.99999999999502
100
AcDbArc
 50
134.99999999970524
 51
-132.09106871371222
  0
ARC
  5
1C8
100
AcDbEntity
  8
1
  6
CONTINUOUS
 62
             3
100
AcDbCircle
 10
10343.25318576348
 20
-713.09431454346463
 40
0.9999999999969
100
AcDbArc
 50
-110.57893128584222
 51
-17.66999999996998
  0
ARC
  5
1C7
100
AcDbEntity
  8
1
  6
CONTINUOUS
 62
             3
100
AcDbCircle
 10
10347.064467931459
 20
-714.30845137101255
 40
0.99999999998406
100
AcDbArc
 50
162.32999999970687
 51
-104.76106871336333
  0
ARC
  5
1C6
100
AcDbEntity
  8
1
  6
CONTINUOUS
 62
             3
100
AcDbCircle
 10
10361.7385490015
 20
-715.33584990304939
 40
1.00000000000023
100
AcDbArc
 50
-83.24893128622651
 51
9.65999999988643
  0
ARC
  5
1C5
100
AcDbEntity
  8
1
  6
CONTINUOUS
 62
             3
100
AcDbCircle
 10
10365.681832428079
 20
-714.66464515216217
 40
0.9999999999938
100
AcDbArc
 50
-170.33999999994688
 51
-77.43106871313427
  0
ARC
  5
1C4
100
AcDbEntity
  8
1
  6
CONTINUOUS
 62
             3
100
AcDbCircle
 10
10379.18964183796
 20
-708.84027497675993
 40
1.00000000000347
100
AcDbArc
 50
-55.9189312861379
 51
36.98999999998573
  0
ARC
  5
1C3
100
AcDbEntity
  8
1
  6
CONTINUOUS
 62
             3
100
AcDbCircle
 10
10382.384603975641
 20
-706.4335724735804
 40
1.00000000000154
100
AcDbArc
 50
-143.01000000005615
 51
-50.10106871342342
  0
ARC
  5
1C2
100
AcDbEntity
  8
1
  6
CONTINUOUS
 62
             3
100
AcDbCircle
 10
10389.46390772278
 20
-698.69557326148038
 40
0.99999999999389
100
AcDbArc
 50
-34.80817506015241
 51
75.99999999996801
  0
ARC
  5
1C1
100
AcDbEntity
  8
1
  6
CONTINUOUS
 62
             3
100
AcDbCircle
 10
10338.844427403739
 20
-660.82721313417983
 40
1.00000000000547
100
AcDbArc
 50
13.99999999992478
 51
84.27206932394351
  0
ARC
  5
1C0
100
AcDbEntity
  8
1
  6
CONTINUOUS
 62
             3
100
AcDbCircle
 10
10339.86481719418
 20
-664.91977305042315
 40
1.00000000000009
100
AcDbArc
 50
-88.75067574643609
 51
14.00000000020205
  0
ARC
  5
1BF
100
AcDbEntity
  8
1
  6
CONTINUOUS
 62
             3
100
AcDbCircle
 10
10340.868556872119
 20
-668.94555301300011
 40
1.00000000000359
100
AcDbArc
 50
13.99999999992471
 51
85.40952172227728
  0
ARC
  5
1BE
100
AcDbEntity
  8
1
  6
CONTINUOUS
 62
             3
100
AcDbCircle
 10
10341.76818798872
 20
-672.55377634263118
 40
1.0000000000001
100
AcDbArc
 50
-85.3166131067505
 51
13.99999999994999
  0
ARC
  5
1BD
100
AcDbEntity
  8
1
  6
CONTINUOUS
 62
             3
100
AcDbCircle
 10
10342.754755414
 20
-676.51068216160161
 40
1.0000000000037
100
AcDbArc
 50
13.99999999994999
 51
90.4766836119228
  0
ARC
  5
1BC
100
AcDbEntity
  8
1
  6
CONTINUOUS
 62
             3
100
AcDbCircle
 10
10344.816430978581
 20
-682.90546673256108
 40
1.0000000000098
100
AcDbArc
 50
28.62149651972066
 51
115.54971164900914
  0
ARC
  5
1BB
100
AcDbEntity
  8
1
  6
CONTINUOUS
 62
             3
100
AcDbCircle
 10
10346.2995882412
 20
-685.10020524288007
 40
0.99999999999985
100
AcDbArc
 50
-38.71195983156986
 51
39.47847328845136
  0
ARC
  5
1BA
100
AcDbEntity
  8
1
  6
CONTINUOUS
 62
             3
100
AcDbCircle
 10
10349.26715410336
 20
-687.79906401494395
 40
1.00000000001068
100
AcDbArc
 50
55.95149651907951
 51
142.87971164873412
  0
ARC
  5
1B9
100
AcDbEntity
  8
1
  6
CONTINUOUS
 62
             3
100
AcDbCircle
 10
10351.5923937147
 20
-689.06787974002668
 40
1.00000000001243
100
AcDbArc
 50
-11.38195983141529
 51
66.80847328821986
  0
ARC
  5
1B8
100
AcDbEntity
  8
1
  6
CONTINUOUS
 62
             3
100
AcDbCircle
 10
10355.44923977904
 20
-690.21476403569227
 40
1.00000000000028
100
AcDbArc
 50
75.99999999997431
 51
170.93077852285049
  0
ARC
  5
1B7
100
AcDbEntity
  8
1
  6
CONTINUOUS
 62
             3
100
AcDbCircle
 10
10358.36545921272
 20
-690.94185920294399
 40
0.99999999999744
100
AcDbArc
 50
19.55450920357764
 51
75.99999999996801
  0
ARC
  5
1B6
100
AcDbEntity
  8
1
  6
CONTINUOUS
 62
             3
100
AcDbCircle
 10
10363.6190215836
 20
-692.25171941669009
 40
1.00000000000028
100
AcDbArc
 50
75.99999999997431
 51
-141.02356993464389
  0
ARC
  5
1B5
100
AcDbEntity
  8
1
  6
CONTINUOUS
 62
             3
100
AcDbCircle
 10
10343.41241856888
 20
-679.14842500391319
 40
1.00000000000378
100
AcDbArc
 50
-66.00925073109437
 51
13.99999999994999
  0
ARC
  5
1B4
100
AcDbEntity
  8
1
  6
CONTINUOUS
 62
             3
100
AcDbCircle
 10
10337.80207361678
 20
-656.64656043945683
 40
0.99999999999901
100
AcDbArc
 50
-100.11806205214182
 51
13.99999999994999
  0
SPLINE
  5
1B3
100
AcDbEntity
  8
1
  6
CONTINUOUS
 62
             3
100
AcDbSpline
210
0.0
220
0.0
230
1.0
 70
             0
 71
             2
 72
            14
 73
            11
 74
            19
 42
0.00000000001
 43
0.00000000001
 44
0.00000000001
 40
0.023642745717983
 40
0.023642745717983
 40
0.023642745717983
 40
0.0713938896395662
 40
0.120462332305705
 40
0.1714858747526653
 40
0.2248134575683172
 40
0.2804915304363611
 40
0.3382935572608749
 40
0.3977722221538459
 40
0.4583207079716915
 40
0.4887785676842662
 40
0.4887785676842662
 40
0.4887785676842662
 10
10562.335072297719
 20
-728.08852225008718
 30
0.0
 10
10562.32962733346
 20
-728.13626743469399
 30
0.0
 10
10562.297523171819
 20
-728.22821139849634
 30
0.0
 10
10562.24529993012
 20
-728.31419637929162
 30
0.0
 10
10562.174705031381
 20
-728.39164766433782
 30
0.0
 10
10562.08797216998
 20
-728.45831368383165
 30
0.0
 10
10561.98775479092
 20
-728.51227605481313
 30
0.0
 10
10561.87707098262
 20
-728.55197958083158
 30
0.0
 10
10561.75923464902
 20
-728.57627385930914
 30
0.0
 10
10561.668226645699
 20
-728.58240093335485
 30
0.0
 10
10561.637768231159
 20
-728.58240093335485
 30
0.0
 11
10562.335072297719
 21
-728.08852225008718
 31
0.0
 11
10562.327030154289
 21
-728.13566776371033
 31
0.0
 11
10562.313793652516
 21
-728.18161393536582
 31
0.0
 11
10562.295190396553
 21
-728.22710021190846
 31
0.0
 11
10562.271921590051
 21
-728.27036411527513
 31
0.0
 11
10562.243325821935
 21
-728.31270596138461
 31
0.0
 11
10562.210781837446
 21
-728.35206697168042
 31
0.0
 11
10562.173116402917
 21
-728.38990605360391
 31
0.0
 11
10562.132273711462
 21
-728.42426191405957
 31
0.0
 11
10562.086754848195
 21
-728.45641978920355
 31
0.0
 11
10562.038801341358
 21
-728.48478987509145
 31
0.0
 11
10561.986878743666
 21
-728.51029650071757
 31
0.0
 11
10561.933204051469
 21
-728.53184401815247
 31
0.0
 11
10561.87650599486
 21
-728.54995540762945
 31
0.0
 11
10561.818677962732
 21
-728.56401845070241
 31
0.0
 11
10561.758958080254
 21
-728.57422912580751
 31
0.0
 11
10561.698685060239
 21
-728.58035033390877
 31
0.0
 11
10561.668226645699
 21
-728.58188828349341
 31
0.0
 11
10561.637768231159
 21
-728.58240093335485
 31
0.0
  0
SPLINE
  5
1B2
100
AcDbEntity
  8
1
  6
CONTINUOUS
 62
             3
100
AcDbSpline
210
0.0
220
0.0
230
1.0
 70
             0
 71
             2
 72
            14
 73
            11
 74
            19
 42
0.00000000001
 43
0.00000000001
 44
0.00000000001
 40
0.023642745717983
 40
0.023642745717983
 40
0.023642745717983
 40
0.0713938896395662
 40
0.120462332305705
 40
0.1714858747526653
 40
0.2248134575683172
 40
0.2804915304363611
 40
0.3382935572608749
 40
0.3977722221538459
 40
0.4583207079716915
 40
0.4887785676842662
 40
0.4887785676842662
 40
0.4887785676842662
 10
10562.33776823116
 20
-720.25920409475179
 30
0.0
 10
10562.32962733346
 20
-720.30706864279477
 30
0.0
 10
10562.297523171819
 20
-720.39901260659713
 30
0.0
 10
10562.24529993012
 20
-720.4849975873924
 30
0.0
 10
10562.174705031381
 20
-720.56244887243861
 30
0.0
 10
10562.08797216998
 20
-720.62911489193289
 30
0.0
 10
10561.98775479092
 20
-720.68307726291482
 30
0.0
 10
10561.87707098262
 20
-720.72278078893282
 30
0.0
 10
10561.75923464902
 20
-720.74707506740992
 30
0.0
 10
10561.668226645699
 20
-720.75320214145518
 30
0.0
 10
10561.637768231159
 20
-720.75320214145518
 30
0.0
 11
10562.33776823116
 21
-720.25920409475179
 31
0.0
 11
10562.32770413765
 21
-720.30643913095196
 31
0.0
 11
10562.313793652516
 21
-720.3524151434666
 31
0.0
 11
10562.295190396553
 21
-720.39790142000925
 31
0.0
 11
10562.271921590051
 21
-720.44116532337591
 31
0.0
 11
10562.243325821935
 21
-720.48350716948551
 31
0.0
 11
10562.210781837446
 21
-720.5228681797812
 31
0.0
 11
10562.173116402917
 21
-720.56070726170481
 31
0.0
 11
10562.132273711462
 21
-720.59506312216058
 31
0.0
 11
10562.086754848195
 21
-720.62722099730479
 31
0.0
 11
10562.038801341358
 21
-720.65559108319292
 31
0.0
 11
10561.986878743666
 21
-720.68109770881904
 31
0.0
 11
10561.933204051469
 21
-720.70264522625394
 31
0.0
 11
10561.87650599486
 21
-720.72075661573081
 31
0.0
 11
10561.818677962732
 21
-720.73481965880342
 31
0.0
 11
10561.758958080254
 21
-720.74503033390818
 31
0.0
 11
10561.698685060239
 21
-720.75115154200932
 31
0.0
 11
10561.668226645699
 21
-720.75268949159374
 31
0.0
 11
10561.637768231159
 21
-720.75320214145518
 31
0.0
  0
SPLINE
  5
1B1
100
AcDbEntity
  8
1
  6
CONTINUOUS
 62
             3
100
AcDbSpline
210
0.0
220
0.0
230
1.0
 70
             0
 71
             2
 72
            14
 73
            11
 74
            19
 42
0.00000000001
 43
0.00000000001
 44
0.00000000001
 40
0.023642745717983
 40
0.023642745717983
 40
0.023642745717983
 40
0.0713938896395662
 40
0.120462332305705
 40
0.1714858747526653
 40
0.2248134575683172
 40
0.2804915304363611
 40
0.3382935572608749
 40
0.3977722221538459
 40
0.4583207079716915
 40
0.4887785676842662
 40
0.4887785676842662
 40
0.4887785676842662
 10
10511.340464164599
 20
-728.08852225008718
 30
0.0
 10
10511.345909128861
 20
-728.13626743469399
 30
0.0
 10
10511.378013290499
 20
-728.22821139849634
 30
0.0
 10
10511.4302365322
 20
-728.31419637929162
 30
0.0
 10
10511.50083143094
 20
-728.39164766433782
 30
0.0
 10
10511.58756429234
 20
-728.45831368383165
 30
0.0
 10
10511.6877816714
 20
-728.51227605481313
 30
0.0
 10
10511.7984654797
 20
-728.55197958083158
 30
0.0
 10
10511.9163018133
 20
-728.57627385930914
 30
0.0
 10
10512.007309816619
 20
-728.58240093335485
 30
0.0
 10
10512.037768231159
 20
-728.58240093335485
 30
0.0
 11
10511.340464164599
 21
-728.08852225008718
 31
0.0
 11
10511.34850630803
 21
-728.13566776371033
 31
0.0
 11
10511.361742809802
 21
-728.18161393536582
 31
0.0
 11
10511.380346065767
 21
-728.22710021190846
 31
0.0
 11
10511.403614872268
 21
-728.27036411527513
 31
0.0
 11
10511.432210640385
 21
-728.31270596138461
 31
0.0
 11
10511.464754624874
 21
-728.35206697168042
 31
0.0
 11
10511.502420059402
 21
-728.38990605360391
 31
0.0
 11
10511.543262750858
 21
-728.42426191405957
 31
0.0
 11
10511.588781614126
 21
-728.45641978920355
 31
0.0
 11
10511.636735120963
 21
-728.48478987509145
 31
0.0
 11
10511.688657718654
 21
-728.51029650071757
 31
0.0
 11
10511.742332410849
 21
-728.53184401815247
 31
0.0
 11
10511.799030467459
 21
-728.54995540762945
 31
0.0
 11
10511.856858499586
 21
-728.56401845070241
 31
0.0
 11
10511.916578382066
 21
-728.57422912580751
 31
0.0
 11
10511.976851402082
 21
-728.58035033390877
 31
0.0
 11
10512.007309816621
 21
-728.58188828349341
 31
0.0
 11
10512.037768231159
 21
-728.58240093335485
 31
0.0
  0
SPLINE
  5
1B0
100
AcDbEntity
  8
1
  6
CONTINUOUS
 62
             3
100
AcDbSpline
210
0.0
220
0.0
230
1.0
 70
             0
 71
             2
 72
            14
 73
            11
 74
            19
 42
0.00000000001
 43
0.00000000001
 44
0.00000000001
 40
0.023642745717983
 40
0.023642745717983
 40
0.023642745717983
 40
0.0713938896395662
 40
0.120462332305705
 40
0.1714858747526653
 40
0.2248134575683172
 40
0.2804915304363611
 40
0.3382935572608749
 40
0.3977722221538459
 40
0.4583207079716915
 40
0.4887785676842662
 40
0.4887785676842662
 40
0.4887785676842662
 10
10511.340464164599
 20
-720.25932345818842
 30
0.0
 10
10511.345909128861
 20
-720.30706864279477
 30
0.0
 10
10511.378013290499
 20
-720.39901260659713
 30
0.0
 10
10511.4302365322
 20
-720.4849975873924
 30
0.0
 10
10511.50083143094
 20
-720.56244887243861
 30
0.0
 10
10511.58756429234
 20
-720.62911489193289
 30
0.0
 10
10511.6877816714
 20
-720.68307726291482
 30
0.0
 10
10511.7984654797
 20
-720.72278078893282
 30
0.0
 10
10511.9163018133
 20
-720.74707506740992
 30
0.0
 10
10512.007309816619
 20
-720.75320214145518
 30
0.0
 10
10512.037768231159
 20
-720.75320214145518
 30
0.0
 11
10511.340464164599
 21
-720.25932345818842
 31
0.0
 11
10511.34850630803
 21
-720.30646897181123
 31
0.0
 11
10511.361742809802
 21
-720.3524151434666
 31
0.0
 11
10511.380346065767
 21
-720.39790142000925
 31
0.0
 11
10511.403614872268
 21
-720.44116532337591
 31
0.0
 11
10511.432210640385
 21
-720.48350716948551
 31
0.0
 11
10511.464754624874
 21
-720.5228681797812
 31
0.0
 11
10511.502420059402
 21
-720.56070726170481
 31
0.0
 11
10511.543262750858
 21
-720.59506312216058
 31
0.0
 11
10511.588781614126
 21
-720.62722099730479
 31
0.0
 11
10511.636735120963
 21
-720.65559108319292
 31
0.0
 11
10511.688657718654
 21
-720.68109770881904
 31
0.0
 11
10511.742332410849
 21
-720.70264522625394
 31
0.0
 11
10511.799030467459
 21
-720.72075661573081
 31
0.0
 11
10511.856858499586
 21
-720.73481965880342
 31
0.0
 11
10511.916578382066
 21
-720.74503033390818
 31
0.0
 11
10511.976851402082
 21
-720.75115154200932
 31
0.0
 11
10512.007309816621
 21
-720.75268949159374
 31
0.0
 11
10512.037768231159
 21
-720.75320214145518
 31
0.0
  0
SPLINE
  5
1AF
100
AcDbEntity
  8
1
  6
CONTINUOUS
 62
             2
100
AcDbSpline
210
0.0
220
0.0
230
1.0
 70
             0
 71
             3
 72
             8
 73
             4
 74
             3
 42
0.00000000001
 43
0.00000000001
 44
0.00000000001
 40
0.0
 40
0.0
 40
0.0
 40
0.0
 40
3.9713027413681772
 40
3.9713027413681772
 40
3.9713027413681772
 40
3.9713027413681772
 10
10526.685185320939
 20
-615.32422963474369
 30
0.0
 10
10533.93744367716
 20
-611.39405003951629
 30
0.0
 10
10524.542052480159
 20
-620.47563838155043
 30
0.0
 10
10532.712859110979
 20
-616.88399237893168
 30
0.0
 11
10526.685185320939
 21
-615.32422963474369
 31
0.0
 11
10529.354566612985
 21
-615.97716090960944
 31
0.0
 11
10532.712859110979
 21
-616.88399237893168
 31
0.0
  0
SPLINE
  5
1AE
100
AcDbEntity
  8
1
  6
CONTINUOUS
 62
             3
100
AcDbSpline
210
0.0
220
0.0
230
1.0
 70
             0
 71
             3
 72
            14
 73
            10
 74
            15
 42
0.00000000001
 43
0.00000000001
 44
0.00000000001
 40
0.0
 40
0.0
 40
0.0
 40
0.0
 40
0.7693652229370889
 40
1.22946560080003
 40
1.446172574731599
 40
2.2951353379079431
 40
2.6996881600936109
 40
3.0258004438997812
 40
3.3708953178172432
 40
3.3708953178172432
 40
3.3708953178172432
 40
3.3708953178172432
 10
10529.69733307724
 20
-716.63352568265532
 30
0.0
 10
10530.19100978246
 20
-716.77499662737932
 30
0.0
 10
10530.97503952214
 20
-717.00205872070842
 30
0.0
 10
10531.80971020658
 20
-717.56374669023921
 30
0.0
 10
10532.2896561823
 20
-718.47705383937341
 30
0.0
 10
10532.137540736059
 20
-719.61306114679542
 30
0.0
 10
10531.396268705401
 20
-720.38566433143183
 30
0.0
 10
10530.776161813061
 20
-720.75179843500814
 30
0.0
 10
10530.375282680519
 20
-720.95202538636272
 30
0.0
 10
10530.16508536324
 20
-721.04453049887366
 30
0.0
 11
10529.69733307724
 21
-716.63352568265532
 31
0.0
 11
10530.432296711828
 21
-716.85837806827112
 31
0.0
 11
10531.14311020439
 21
-717.1572517568884
 31
0.0
 11
10531.540290554651
 21
-717.40283034242157
 31
0.0
 11
10531.868050954208
 21
-717.72402361583022
 31
0.0
 11
10531.983942638877
 21
-717.9067982051705
 31
0.0
 11
10532.072352438245
 21
-718.10626510209408
 31
0.0
 11
10532.16168510838
 21
-718.96682218015917
 31
0.0
 11
10531.881231695106
 21
-719.79339993801636
 31
0.0
 11
10531.63525505223
 21
-720.11843400170756
 31
0.0
 11
10531.335454591786
 21
-720.39070998920022
 31
0.0
 11
10531.066716384932
 21
-720.57531053985304
 31
0.0
 11
10530.78380605657
 21
-720.73867662580028
 31
0.0
 11
10530.477364032195
 21
-720.89831562593019
 31
0.0
 11
10530.16508536324
 21
-721.04453049887366
 31
0.0
  0
SPLINE
  5
1AD
100
AcDbEntity
  8
1
  6
CONTINUOUS
 62
             3
100
AcDbSpline
210
0.0
220
0.0
230
1.0
 70
             0
 71
             3
 72
             8
 73
             4
 74
             3
 42
0.00000000001
 43
0.00000000001
 44
0.00000000001
 40
0.0
 40
0.0
 40
0.0
 40
0.0
 40
6.632666190133218
 40
6.632666190133218
 40
6.632666190133218
 40
6.632666190133218
 10
10554.83776823116
 20
-751.6027316533648
 30
0.0
 10
10550.47604531168
 20
-750.88216408778612
 30
0.0
 10
10546.0789392852
 20
-750.33214875772023
 30
0.0
 10
10541.653834896881
 20
-750.23074236720481
 30
0.0
 11
10554.83776823116
 21
-751.6027316533648
 31
0.0
 11
10548.269569614835
 21
-750.68455156963603
 31
0.0
 11
10541.653834896881
 21
-750.23074236720481
 31
0.0
  0
SPLINE
  5
1AC
100
AcDbEntity
  8
1
  6
CONTINUOUS
 62
             3
100
AcDbSpline
210
0.0
220
0.0
230
1.0
 70
             0
 71
             3
 72
             8
 73
             4
 74
             3
 42
0.00000000001
 43
0.00000000001
 44
0.00000000001
 40
0.0
 40
0.0
 40
0.0
 40
0.0
 40
6.632666190133218
 40
6.632666190133218
 40
6.632666190133218
 40
6.632666190133218
 10
10554.83776823116
 20
-725.82878910582281
 30
0.0
 10
10550.47604531168
 20
-725.10822154024459
 30
0.0
 10
10546.0789392852
 20
-724.55820621017824
 30
0.0
 10
10541.653834896881
 20
-724.45679981966282
 30
0.0
 11
10554.83776823116
 21
-725.82878910582281
 31
0.0
 11
10548.269569614835
 21
-724.91060902209415
 31
0.0
 11
10541.653834896881
 21
-724.45679981966282
 31
0.0
  0
SPLINE
  5
1AB
100
AcDbEntity
  8
1
  6
CONTINUOUS
 62
             3
100
AcDbSpline
210
0.0
220
0.0
230
1.0
 70
             0
 71
             3
 72
             8
 73
             4
 74
             3
 42
0.00000000001
 43
0.00000000001
 44
0.00000000001
 40
0.0
 40
0.0
 40
0.0
 40
0.0
 40
6.632666190133218
 40
6.632666190133218
 40
6.632666190133218
 40
6.632666190133218
 10
10554.83776823116
 20
-626.56954991005637
 30
0.0
 10
10550.47604531168
 20
-627.29011747563459
 30
0.0
 10
10546.0789392852
 20
-627.84013280570048
 30
0.0
 10
10541.653834896881
 20
-627.9415391962159
 30
0.0
 11
10554.83776823116
 21
-626.56954991005637
 31
0.0
 11
10548.269569614835
 21
-627.48772999378468
 31
0.0
 11
10541.653834896881
 21
-627.9415391962159
 31
0.0
  0
SPLINE
  5
1AA
100
AcDbEntity
  8
1
  6
CONTINUOUS
 62
             3
100
AcDbSpline
210
0.0
220
0.0
230
1.0
 70
             0
 71
             3
 72
             8
 73
             4
 74
             3
 42
0.00000000001
 43
0.00000000001
 44
0.00000000001
 40
0.0
 40
0.0
 40
0.0
 40
0.0
 40
6.632666190133218
 40
6.632666190133218
 40
6.632666190133218
 40
6.632666190133218
 10
10554.83776823116
 20
-600.79560736251483
 30
0.0
 10
10550.47604531168
 20
-601.51617492809305
 30
0.0
 10
10546.0789392852
 20
-602.06619025815894
 30
0.0
 10
10541.653834896881
 20
-602.16759664867436
 30
0.0
 11
10554.83776823116
 21
-600.79560736251483
 31
0.0
 11
10548.269569614835
 21
-601.71378744624315
 31
0.0
 11
10541.653834896881
 21
-602.16759664867436
 31
0.0
  0
SPLINE
  5
1A9
100
AcDbEntity
  8
1
  6
CONTINUOUS
 62
             3
100
AcDbSpline
210
0.0
220
0.0
230
1.0
 70
             0
 71
             3
 72
             8
 73
             4
 74
             3
 42
0.00000000001
 43
0.00000000001
 44
0.00000000001
 40
2.9757766930040841
 40
2.9757766930040841
 40
2.9757766930040841
 40
2.9757766930040841
 40
3.6736118400094742
 40
3.6736118400094742
 40
3.6736118400094742
 40
3.6736118400094742
 10
10364.33728547904
 20
-598.29132043217692
 30
0.0
 10
10364.775898280441
 20
-598.45716584664001
 30
0.0
 10
10365.218276527639
 20
-598.60401556106103
 30
0.0
 10
10365.6492773706
 20
-598.74399693588452
 30
0.0
 11
10364.33728547904
 21
-598.29132043217692
 31
0.0
 11
10364.996135909232
 21
-598.52735769889546
 31
0.0
 11
10365.6492773706
 21
-598.74399693588452
 31
0.0
  0
SPLINE
  5
1A8
100
AcDbEntity
  8
1
  6
CONTINUOUS
 62
             2
100
AcDbSpline
210
0.0
220
0.0
230
1.0
 70
             0
 71
             3
 72
             8
 73
             4
 74
             3
 42
0.00000000001
 43
0.00000000001
 44
0.00000000001
 40
0.0
 40
0.0
 40
0.0
 40
0.0
 40
3.4637435983748781
 40
3.4637435983748781
 40
3.4637435983748781
 40
3.4637435983748781
 10
10459.204768654099
 20
-629.85016252119726
 30
0.0
 10
10454.518796718119
 20
-632.37589193112103
 30
0.0
 10
10461.385286389221
 20
-633.57006538219343
 30
0.0
 10
10457.62166249702
 20
-636.25016252119735
 30
0.0
 11
10459.204768654099
 21
-629.85016252119726
 31
0.0
 11
10458.067335059142
 21
-632.99227462279225
 31
0.0
 11
10457.62166249702
 21
-636.25016252119735
 31
0.0
  0
SPLINE
  5
1A7
100
AcDbEntity
  8
1
  6
CONTINUOUS
 62
             2
100
AcDbSpline
210
0.0
220
0.0
230
1.0
 70
             0
 71
             3
 72
             8
 73
             4
 74
             3
 42
0.00000000001
 43
0.00000000001
 44
0.00000000001
 40
0.0
 40
0.0
 40
0.0
 40
0.0
 40
3.4637435983748781
 40
3.4637435983748781
 40
3.4637435983748781
 40
3.4637435983748781
 10
10457.604768654101
 20
-629.85016252119726
 30
0.0
 10
10452.918796718121
 20
-632.37589193112103
 30
0.0
 10
10459.78528638922
 20
-633.57006538219343
 30
0.0
 10
10456.02166249702
 20
-636.25016252119735
 30
0.0
 11
10457.604768654101
 21
-629.85016252119726
 31
0.0
 11
10456.467335059144
 21
-632.99227462279225
 31
0.0
 11
10456.02166249702
 21
-636.25016252119735
 31
0.0
  0
SPLINE
  5
1A6
100
AcDbEntity
  8
1
  6
CONTINUOUS
 62
             3
100
AcDbSpline
210
0.0
220
0.0
230
1.0
 70
             0
 71
             3
 72
             9
 73
             5
 74
             5
 42
0.00000000001
 43
0.00000000001
 44
0.00000000001
 40
2.5615236197822369
 40
2.5615236197822369
 40
2.5615236197822369
 40
2.5615236197822369
 40
8.8444469975108966
 40
18.450484713909908
 40
18.450484713909908
 40
18.450484713909908
 40
18.450484713909908
 10
10430.105677396959
 20
-674.2223941077807
 30
0.0
 10
10426.08420548134
 20
-673.05294739381156
 30
0.0
 10
10415.93193560996
 20
-670.07112278921409
 30
0.0
 10
10405.74033954468
 20
-667.05121165906462
 30
0.0
 10
10399.00414208222
 20
-669.07395674124132
 30
0.0
 11
10430.105677396959
 21
-674.2223941077807
 31
0.0
 11
10424.077070152453
 21
-672.46145019507617
 31
0.0
 11
10418.049094178157
 21
-670.68880449033452
 31
0.0
 11
10408.747495821301
 21
-668.44341273255816
 31
0.0
 11
10399.00414208222
 21
-669.07395674124132
 31
0.0
  0
SPLINE
  5
1A5
100
AcDbEntity
  8
1
  6
CONTINUOUS
 62
             3
100
AcDbSpline
210
0.0
220
0.0
230
1.0
 70
             0
 71
             3
 72
            13
 73
             9
 74
            13
 42
0.00000000001
 43
0.00000000001
 44
0.00000000001
 40
4.508698722182146
 40
4.508698722182146
 40
4.508698722182146
 40
4.508698722182146
 40
6.7907849268563361
 40
8.7123853831413349
 40
10.84496157914824
 40
13.074900040921779
 40
17.408481403808452
 40
21.976279994883161
 40
21.976279994883161
 40
21.976279994883161
 40
21.976279994883161
 10
10430.10567739788
 20
-668.36577227428074
 30
0.0
 10
10428.6166117389
 20
-668.05493429336479
 30
0.0
 10
10425.86898016236
 20
-667.50724876089339
 30
0.0
 10
10421.747837785861
 20
-666.55384011973979
 30
0.0
 10
10417.804866247399
 20
-665.12095780331333
 30
0.0
 10
10412.40534395018
 20
-663.00797158137334
 30
0.0
 10
10405.4096183781
 20
-660.58008657172809
 30
0.0
 10
10399.64939877962
 20
-658.91615659301647
 30
0.0
 10
10396.50929772342
 20
-660.27419838984247
 30
0.0
 11
10430.10567739788
 21
-668.36577227428074
 31
0.0
 11
10427.87097654094
 21
-667.9048348895401
 31
0.0
 11
10425.637345206007
 21
-667.43527926597278
 31
0.0
 11
10423.762754729594
 21
-667.00825135093851
 31
0.0
 11
10421.905965335152
 21
-666.51495458752595
 31
0.0
 11
10419.877156151133
 21
-665.85972807255962
 31
0.0
 11
10417.872771212798
 21
-665.12755770899946
 31
0.0
 11
10415.788637449279
 21
-664.33208881722419
 31
0.0
 11
10413.705797173547
 21
-663.53795727824786
 31
0.0
 11
10409.634501266977
 21
-662.06610591797551
 31
0.0
 11
10405.517484800042
 21
-660.69696270082272
 31
0.0
 11
10401.098856618008
 21
-659.62870859501618
 31
0.0
 11
10396.50929772342
 21
-660.27419838984247
 31
0.0
  0
SPLINE
  5
1A4
100
AcDbEntity
  8
1
  6
CONTINUOUS
 62
             3
100
AcDbSpline
210
0.0
220
0.0
230
1.0
 70
             0
 71
             3
 72
             8
 73
             4
 74
             3
 42
0.00000000001
 43
0.00000000001
 44
0.00000000001
 40
0.0
 40
0.0
 40
0.0
 40
0.0
 40
0.936546238022593
 40
0.936546238022593
 40
0.936546238022593
 40
0.936546238022593
 10
10330.58975918432
 20
-609.61357853545655
 30
0.0
 10
10330.16426734848
 20
-610.07036462295332
 30
0.0
 10
10329.74038520628
 20
-610.52892228119049
 30
0.0
 10
10329.320769419401
 20
-610.99135384049373
 30
0.0
 11
10330.58975918432
 21
-609.61357853545655
 31
0.0
 11
10329.9530607835
 21
-610.30034913604766
 31
0.0
 11
10329.320769419401
 21
-610.99135384049373
 31
0.0
  0
SPLINE
  5
1A3
100
AcDbEntity
  8
1
  6
CONTINUOUS
 62
             3
100
AcDbSpline
210
0.0
220
0.0
230
1.0
 70
             0
 71
             3
 72
            12
 73
             8
 74
            11
 42
0.00000000001
 43
0.00000000001
 44
0.00000000001
 40
0.0
 40
0.0
 40
0.0
 40
0.0
 40
0.5239431407868309
 40
0.8313640790765972
 40
1.1426701526318079
 40
1.4560688587676931
 40
3.6736118400094742
 40
3.6736118400094742
 40
3.6736118400094742
 40
3.6736118400094742
 10
10398.376594588461
 20
-605.29881607214315
 30
0.0
 10
10398.11421614808
 20
-605.53270716702514
 30
0.0
 10
10397.833553182039
 20
-606.03776204408064
 30
0.0
 10
10397.739130764139
 20
-606.80226699314221
 30
0.0
 10
10397.81939169072
 20
-607.42375138895591
 30
0.0
 10
10398.40628695968
 20
-609.23296963085318
 30
0.0
 10
10399.634302124819
 20
-610.53950260416309
 30
0.0
 10
10400.640713164879
 20
-611.5694741707905
 30
0.0
 11
10398.376594588461
 21
-605.29881607214315
 31
0.0
 11
10398.046987117106
 21
-605.70494638397884
 31
0.0
 11
10397.844644585282
 21
-606.18962335651622
 31
0.0
 11
10397.784401202503
 21
-606.49197752539226
 31
0.0
 11
10397.765225799161
 21
-606.7993144173065
 31
0.0
 11
10397.784641996439
 21
-607.110385606053
 31
0.0
 11
10397.837886959527
 21
-607.41767211435842
 31
0.0
 11
10397.919747975013
 21
-607.72048077740476
 31
0.0
 11
10398.023916518525
 21
-608.01622704016825
 31
0.0
 11
10399.155322616563
 21
-609.92355872074427
 31
0.0
 11
10400.640713164879
 21
-611.5694741707905
 31
0.0
  0
SPLINE
  5
1A2
100
AcDbEntity
  8
1
  6
CONTINUOUS
 62
             3
100
AcDbSpline
210
0.0
220
0.0
230
1.0
 70
             0
 71
             3
 72
             9
 73
             5
 74
             5
 42
0.00000000001
 43
0.00000000001
 44
0.00000000001
 40
0.0
 40
0.0
 40
0.0
 40
0.0
 40
8.8444469975108966
 40
18.450484713909908
 40
18.450484713909908
 40
18.450484713909908
 40
18.450484713909908
 10
10400.640713164879
 20
-611.5694741707905
 30
0.0
 10
10396.089652648119
 20
-615.3286723713602
 30
0.0
 10
10386.586405948001
 20
-623.10261272269895
 30
0.0
 10
10377.01083283098
 20
-630.89133042719891
 30
0.0
 10
10374.8776066889
 20
-637.59335998155734
 30
0.0
 11
10400.640713164879
 21
-611.5694741707905
 31
0.0
 11
10393.809277751046
 21
-617.18827554465167
 31
0.0
 11
10386.962056960485
 21
-622.78511919396306
 31
0.0
 11
10379.857613067588
 21
-629.19514205749476
 31
0.0
 11
10374.8776066889
 21
-637.59335998155734
 31
0.0
  0
SPLINE
  5
1A1
100
AcDbEntity
  8
1
  6
CONTINUOUS
 62
             3
100
AcDbSpline
210
0.0
220
0.0
230
1.0
 70
             0
 71
             3
 72
             9
 73
             5
 74
             5
 42
0.00000000001
 43
0.00000000001
 44
0.00000000001
 40
0.0
 40
0.0
 40
0.0
 40
0.0
 40
4.4561465529582893
 40
5.2547945137979397
 40
5.2547945137979397
 40
5.2547945137979397
 40
5.2547945137979397
 10
10398.376594588461
 20
-605.29881607214315
 30
0.0
 10
10396.252981547041
 20
-607.37594692039852
 30
0.0
 10
10393.678925595221
 20
-609.75433753516631
 30
0.0
 10
10391.15976696012
 20
-612.18769599368693
 30
0.0
 10
10390.776957534559
 20
-612.55763516230695
 30
0.0
 11
10398.376594588461
 21
-605.29881607214315
 31
0.0
 11
10395.15909357274
 21
-608.38181657739642
 31
0.0
 11
10391.926781799784
 21
-611.44929958003127
 31
0.0
 11
10391.351370152259
 21
-612.00295143797553
 31
0.0
 11
10390.776957534559
 21
-612.55763516230695
 31
0.0
  0
SPLINE
  5
1A0
100
AcDbEntity
  8
1
  6
CONTINUOUS
 62
             3
100
AcDbSpline
210
0.0
220
0.0
230
1.0
 70
             0
 71
             3
 72
            15
 73
            11
 74
            17
 42
0.00000000001
 43
0.00000000001
 44
0.00000000001
 40
0.0
 40
0.0
 40
0.0
 40
0.0
 40
2.1886075444360071
 40
3.6808520992913452
 40
5.2202743766673079
 40
7.6842776538972828
 40
9.7097877682230767
 40
12.04763440306917
 40
13.84434343416447
 40
17.008078609286731
 40
17.008078609286731
 40
17.008078609286731
 40
17.008078609286731
 10
10388.89390725468
 20
-611.59647264145474
 30
0.0
 10
10387.866175666621
 20
-612.63224816097022
 30
0.0
 10
10386.08470714346
 20
-614.32173331091531
 30
0.0
 10
10383.406075716321
 20
-616.54816784684431
 30
0.0
 10
10380.42183747578
 20
-618.67638261520574
 30
0.0
 10
10377.08349443318
 20
-620.91628224452893
 30
0.0
 10
10373.481067839941
 20
-623.70281681985193
 30
0.0
 10
10370.181276150241
 20
-626.13985833255651
 30
0.0
 10
10366.426103096621
 20
-629.26789648306408
 30
0.0
 10
10364.702079286521
 20
-632.21698038129102
 30
0.0
 10
10364.24507003178
 20
-634.30311870671517
 30
0.0
 11
10388.89390725468
 21
-611.59647264145474
 31
0.0
 11
10387.327872280235
 21
-613.12533746724716
 31
0.0
 11
10385.709761171272
 21
-614.59907185536258
 31
0.0
 11
10384.573887921944
 21
-615.56732803416526
 31
0.0
 11
10383.408325039098
 21
-616.49922105359167
 31
0.0
 11
10382.174083855067
 21
-617.41911857387458
 31
0.0
 11
10380.917563857896
 21
-618.3090256094913
 31
0.0
 11
10378.889622847917
 21
-619.70924391260212
 31
0.0
 11
10376.875953337687
 21
-621.12871229486689
 31
0.0
 11
10375.251032940087
 21
-622.33800541760922
 31
0.0
 11
10373.638321361859
 21
-623.56356425793194
 31
0.0
 11
10371.772127672208
 21
-624.97008535681164
 31
0.0
 11
10369.919356933649
 21
-626.39753869923322
 31
0.0
 11
10368.531807682286
 21
-627.54360601872463
 31
0.0
 11
10367.238139104829
 21
-628.78996933022245
 31
0.0
 11
10365.374299291569
 21
-631.3440322063725
 31
0.0
 11
10364.24507003178
 21
-634.30311870671517
 31
0.0
  0
SPLINE
  5
19F
100
AcDbEntity
  8
1
  6
CONTINUOUS
 62
             3
100
AcDbSpline
210
0.0
220
0.0
230
1.0
 70
             0
 71
             3
 72
            14
 73
            10
 74
            15
 42
0.00000000001
 43
0.00000000001
 44
0.00000000001
 40
0.0
 40
0.0
 40
0.0
 40
0.0
 40
2.2398264336303342
 40
3.6592979614108998
 40
4.9027167232565212
 40
5.9831044960350059
 40
7.0776649385475521
 40
9.0783801806749658
 40
10.841555375434799
 40
10.841555375434799
 40
10.841555375434799
 40
10.841555375434799
 10
10309.89480775568
 20
-623.74245506869488
 30
0.0
 10
10310.84197854074
 20
-624.90307639312937
 30
0.0
 10
10312.101228814099
 20
-626.99855739834425
 30
0.0
 10
10313.632493409361
 20
-629.88573462122554
 30
0.0
 10
10314.953433525599
 20
-632.00676736455375
 30
0.0
 10
10316.31937951032
 20
-633.83364667124283
 30
0.0
 10
10318.16850227742
 20
-635.92098146836429
 30
0.0
 10
10320.667729536961
 20
-638.00382153650048
 30
0.0
 10
10322.735347751421
 20
-639.42582674969549
 30
0.0
 10
10323.713923061379
 20
-640.07707777612427
 30
0.0
 11
10309.89480775568
 21
-623.74245506869488
 31
0.0
 11
10311.199869150858
 21
-625.56242490538273
 31
0.0
 11
10312.339943744537
 21
-627.49060532363956
 31
0.0
 11
10313.024112366171
 21
-628.73454698131752
 31
0.0
 11
10313.718165050326
 21
-629.97256094471777
 31
0.0
 11
10314.35961957492
 21
-631.03802393623255
 31
0.0
 11
10315.042039814967
 21
-632.07772518458091
 31
0.0
 11
10315.671981197485
 21
-632.95564514089858
 31
0.0
 11
10316.336923675059
 21
-633.80753059188817
 31
0.0
 11
10317.046605603384
 21
-634.64146432771236
 31
0.0
 11
10317.794930699174
 21
-635.44046223983264
 31
0.0
 11
10319.262358050715
 21
-636.80080978502951
 31
0.0
 11
10320.827061115837
 21
-638.05152161424235
 31
0.0
 11
10322.255921900247
 21
-639.08564583933696
 31
0.0
 11
10323.713923061379
 21
-640.07707777612427
 31
0.0
  0
SPLINE
  5
19E
100
AcDbEntity
  8
1
  6
CONTINUOUS
 62
             3
100
AcDbSpline
210
0.0
220
0.0
230
1.0
 70
             0
 71
             3
 72
             9
 73
             5
 74
             5
 42
0.00000000001
 43
0.00000000001
 44
0.00000000001
 40
0.0
 40
0.0
 40
0.0
 40
0.0
 40
2.2398264336303342
 40
3.1047874040882939
 40
3.1047874040882939
 40
3.1047874040882939
 40
3.1047874040882939
 10
10292.6274162678
 20
-704.88935848958067
 30
0.0
 10
10294.023924610519
 20
-704.34719725567379
 30
0.0
 10
10296.045011926981
 20
-703.88047435687599
 30
0.0
 10
10298.080924338959
 20
-703.5066327427428
 30
0.0
 10
10298.64707706978
 20
-703.39751931172009
 30
0.0
 11
10292.6274162678
 21
-704.88935848958067
 31
0.0
 11
10294.761596590257
 21
-704.2105729543058
 31
0.0
 11
10296.947707565934
 21
-703.72213810039011
 31
0.0
 11
10297.797347450041
 21
-703.55898735517314
 31
0.0
 11
10298.64707706978
 21
-703.39751931172009
 31
0.0
  0
SPLINE
  5
19D
100
AcDbEntity
  8
1
  6
CONTINUOUS
 62
             3
100
AcDbSpline
210
0.0
220
0.0
230
1.0
 70
             0
 71
             3
 72
            15
 73
            11
 74
            17
 42
0.00000000001
 43
0.00000000001
 44
0.00000000001
 40
0.0
 40
0.0
 40
0.0
 40
0.0
 40
2.2398264336303342
 40
3.6592979614108998
 40
4.9027167232565212
 40
5.9831044960350059
 40
7.0776649385475521
 40
9.0783801806749658
 40
11.276130702390519
 40
14.29916665356018
 40
14.29916665356018
 40
14.29916665356018
 40
14.29916665356018
 10
10364.46679012512
 20
-746.38739588149724
 30
0.0
 10
10364.382708961421
 20
-744.89170048712526
 30
0.0
 10
10364.59564692144
 20
-742.45625200289419
 30
0.0
 10
10365.053868033359
 20
-739.22042181736128
 30
0.0
 10
10365.23191679694
 20
-736.72804116290149
 30
0.0
 10
10365.200655996079
 20
-734.44718185187162
 30
0.0
 10
10364.931588863141
 20
-731.67160543586056
 30
0.0
 10
10364.06258615522
 20
-728.23542116576277
 30
0.0
 10
10362.40837522648
 20
-723.71366649363631
 30
0.0
 10
10361.132204138799
 20
-720.47505599356396
 30
0.0
 10
10360.48910547386
 20
-718.56427796327284
 30
0.0
 11
10364.46679012512
 21
-746.38739588149724
 31
0.0
 11
10364.480724707339
 21
-744.14791351293729
 31
0.0
 11
10364.691740999815
 21
-741.91786375367099
 31
0.0
 11
10364.869407518994
 21
-740.50934958672224
 31
0.0
 11
10365.035593452343
 21
-739.09982131899915
 31
0.0
 11
10365.142909274111
 21
-737.86080614241541
 31
0.0
 11
10365.201940763174
 21
-736.61855361046355
 31
0.0
 11
10365.208335882271
 21
-735.53803119165048
 31
0.0
 11
10365.171111822361
 21
-734.45799800259715
 31
0.0
 11
10365.087141033046
 21
-733.36619086684186
 31
0.0
 11
10364.951372502586
 21
-732.27993352223837
 31
0.0
 11
10364.563791062237
 21
-730.31685708387181
 31
0.0
 11
10364.033069659483
 21
-728.38530057307912
 31
0.0
 11
10363.341461707001
 21
-726.29859411443874
 31
0.0
 11
10362.583198680752
 21
-724.23580619811867
 31
0.0
 11
10361.51029815734
 21
-721.40953248063101
 31
0.0
 11
10360.48910547386
 21
-718.56427796327284
 31
0.0
  0
SPLINE
  5
19C
100
AcDbEntity
  8
1
  6
CONTINUOUS
 62
             3
100
AcDbSpline
210
0.0
220
0.0
230
1.0
 70
             0
 71
             3
 72
            13
 73
             9
 74
            13
 42
0.00000000001
 43
0.00000000001
 44
0.00000000001
 40
0.0
 40
0.0
 40
0.0
 40
0.0
 40
2.2398264336303342
 40
3.6592979614108998
 40
4.9027167232565212
 40
5.9831044960350059
 40
7.0776649385475521
 40
8.1800102673654767
 40
8.1800102673654767
 40
8.1800102673654767
 40
8.1800102673654767
 10
10426.13335638734
 20
-690.88769003522907
 30
0.0
 10
10424.684883027639
 20
-690.50546067859727
 30
0.0
 10
10422.434435325
 20
-689.55034967361075
 30
0.0
 10
10419.498576052199
 20
-688.11462898097784
 30
0.0
 10
10417.18320128346
 20
-687.17510656548097
 30
0.0
 10
10415.004315054221
 20
-686.50001306494528
 30
0.0
 10
10412.86724984622
 20
-686.02768511306954
 30
0.0
 10
10411.409630509501
 20
-685.86645184102076
 30
0.0
 10
10410.67570221612
 20
-685.81409323524963
 30
0.0
 11
10426.13335638734
 21
-690.88769003522907
 31
0.0
 11
10424.007788110306
 21
-690.18239934952749
 31
0.0
 11
10421.952092375561
 21
-689.29258765561281
 31
0.0
 11
10420.667417772549
 21
-688.68836194041671
 31
0.0
 11
10419.378231006263
 21
-688.09474153681128
 31
0.0
 11
10418.233019961475
 21
-687.60980137936906
 31
0.0
 11
10417.0698093294
 21
-687.16978195334718
 31
0.0
 11
10416.044147642466
 21
-686.82980004343733
 31
0.0
 11
10415.005472173087
 21
-686.53145361826819
 31
0.0
 11
10413.941153481157
 21
-686.27392762509419
 31
0.0
 11
10412.866106571984
 21
-686.06737919094621
 31
0.0
 11
10411.774221076419
 21
-685.91536129901658
 31
0.0
 11
10410.67570221612
 21
-685.81409323524963
 31
0.0
  0
SPLINE
  5
19B
100
AcDbEntity
  8
1
  6
CONTINUOUS
 62
             3
100
AcDbSpline
210
0.0
220
0.0
230
1.0
 70
             0
 71
             3
 72
            19
 73
            15
 74
            25
 42
0.00000000001
 43
0.00000000001
 44
0.00000000001
 40
0.0
 40
0.0
 40
0.0
 40
0.0
 40
2.3269882542241489
 40
3.7285281950751932
 40
5.0861358929371399
 40
6.2581818023094851
 40
7.3819135188808058
 40
8.9017223411339881
 40
10.15591093139173
 40
11.818817030115261
 40
13.26126616322626
 40
15.172544979313811
 40
16.501328970211489
 40
20.476272849351201
 40
20.476272849351201
 40
20.476272849351201
 40
20.476272849351201
 10
10285.585147862161
 20
-680.84122711874875
 30
0.0
 10
10286.3378601571
 20
-682.19740158658192
 30
0.0
 10
10287.565516058119
 20
-684.36066879022678
 30
0.0
 10
10289.438870231381
 20
-687.1895174911599
 30
0.0
 10
10291.048917604779
 20
-689.26213654449225
 30
0.0
 10
10292.729965344501
 20
-691.03038866663906
 30
0.0
 10
10294.6648820051
 20
-692.68787735479259
 30
0.0
 10
10296.860974192459
 20
-694.10325672737076
 30
0.0
 10
10299.58532280124
 20
-695.27754496886632
 30
0.0
 10
10302.4651013364
 20
-695.89598748808407
 30
0.0
 10
10305.85616985802
 20
-695.53220908273602
 30
0.0
 10
10308.649744976001
 20
-693.96131551405983
 30
0.0
 10
10312.19439108052
 20
-690.69608558467576
 30
0.0
 10
10314.12546244196
 20
-687.66458604413788
 30
0.0
 10
10315.63916315222
 20
-685.51465104721115
 30
0.0
 11
10285.585147862161
 21
-680.84122711874875
 31
0.0
 11
10286.729728244765
 21
-682.86733641838407
 31
0.0
 11
10287.926963370925
 21
-684.86274549007976
 31
0.0
 11
10288.686958827329
 21
-686.04051374407845
 31
0.0
 11
10289.484405286103
 21
-687.19333157603069
 31
0.0
 11
10290.298938452852
 21
-688.27996961870758
 31
0.0
 11
10291.161766248086
 21
-689.32847907641303
 31
0.0
 11
10291.950195233414
 21
-690.19621714621496
 31
0.0
 11
10292.780303719081
 21
-691.02409191833272
 31
0.0
 11
10293.615839510876
 21
-691.77593288177161
 31
0.0
 11
10294.490930999476
 21
-692.48177713499786
 31
0.0
 11
10295.737593554735
 21
-693.35384794370407
 31
0.0
 11
10297.052758258984
 21
-694.11772227993129
 31
0.0
 11
10298.185939720479
 21
-694.6562076863388
 31
0.0
 11
10299.359462400707
 21
-695.1031521771298
 31
0.0
 11
10300.970261995601
 21
-695.53499945768806
 31
0.0
 11
10302.624438261395
 21
-695.73636572865473
 31
0.0
 11
10304.071824489156
 21
-695.68475604017647
 31
0.0
 11
10305.490017784134
 21
-695.40306105525781
 31
0.0
 11
10307.261216091974
 21
-694.6753919975871
 31
0.0
 11
10308.878529415922
 21
-693.6338986057923
 31
0.0
 11
10309.902674665356
 21
-692.78273949634513
 31
0.0
 11
10310.852021295801
 21
-691.85401170547641
 31
0.0
 11
10313.362770471993
 21
-688.77152031419814
 31
0.0
 11
10315.63916315222
 21
-685.51465104721115
 31
0.0
  0
SPLINE
  5
19A
100
AcDbEntity
  8
1
  6
CONTINUOUS
 62
             3
100
AcDbSpline
210
0.0
220
0.0
230
1.0
 70
             0
 71
             3
 72
            11
 73
             7
 74
             9
 42
0.00000000001
 43
0.00000000001
 44
0.00000000001
 40
0.0
 40
0.0
 40
0.0
 40
0.0
 40
2.3269882542241489
 40
3.7285281950751932
 40
5.0861358929371399
 40
5.2686940328547376
 40
5.2686940328547376
 40
5.2686940328547376
 40
5.2686940328547376
 10
10417.6955342415
 20
-714.48237850871851
 30
0.0
 10
10417.883716554739
 20
-712.94277713072074
 30
0.0
 10
10418.16205862664
 20
-710.47105916608712
 30
0.0
 10
10418.30923881136
 20
-707.08134253714729
 30
0.0
 10
10418.246156678661
 20
-705.11844652104287
 30
0.0
 10
10418.150937583499
 20
-704.09565946385396
 30
0.0
 10
10418.13876158918
 20
-703.97451355834687
 30
0.0
 11
10417.6955342415
 21
-714.48237850871851
 31
0.0
 11
10417.960466426395
 21
-712.17045418389466
 31
0.0
 11
10418.164754887703
 21
-709.852417183478
 31
0.0
 11
10418.242180458143
 21
-708.45286852947288
 31
0.0
 11
10418.274642041084
 21
-707.05149204404211
 31
0.0
 11
10418.254380682763
 21
-705.69361281786405
 31
0.0
 11
10418.172636729332
 21
-704.33819339451054
 31
0.0
 11
10418.156360400128
 21
-704.1562951417792
 31
0.0
 11
10418.13876158918
 21
-703.97451355834687
 31
0.0
  0
SPLINE
  5
199
100
AcDbEntity
  8
1
  6
CONTINUOUS
 62
             3
100
AcDbSpline
210
0.0
220
0.0
230
1.0
 70
             0
 71
             3
 72
            19
 73
            15
 74
            25
 42
0.00000000001
 43
0.00000000001
 44
0.00000000001
 40
0.0
 40
0.0
 40
0.0
 40
0.0
 40
2.3269882542241489
 40
3.7285281950751932
 40
5.0861358929371399
 40
6.2581818023094851
 40
7.3819135188808058
 40
8.9017223411339881
 40
10.15591093139173
 40
11.818817030115261
 40
13.26126616322626
 40
15.172544979313811
 40
16.501328970211489
 40
18.696727031895151
 40
18.696727031895151
 40
18.696727031895151
 40
18.696727031895151
 10
10412.23846823364
 20
-630.40495351513732
 30
0.0
 10
10410.83237184344
 20
-629.75021850950611
 30
0.0
 10
10408.567640797201
 20
-628.72169661189423
 30
0.0
 10
10405.389309887159
 20
-627.53423989369389
 30
0.0
 10
10402.86849928716
 20
-626.8038179582561
 30
0.0
 10
10400.469150577641
 20
-626.36136701090959
 30
0.0
 10
10397.929522709779
 20
-626.15774597172572
 30
0.0
 10
10395.320907687381
 20
-626.30351060622365
 30
0.0
 10
10392.426634054
 20
-626.95482339690693
 30
0.0
 10
10389.733332886821
 20
-628.14718424164789
 30
0.0
 10
10387.203724405501
 20
-630.43470722028474
 30
0.0
 10
10385.8670227326
 20
-633.34760906921133
 30
0.0
 10
10385.15252212696
 20
-636.90729942052963
 30
0.0
 10
10385.09404497124
 20
-639.26570032510085
 30
0.0
 10
10385.10679863316
 20
-640.73357206387959
 30
0.0
 11
10412.23846823364
 21
-630.40495351513732
 31
0.0
 11
10410.121566086835
 21
-629.43856412822902
 31
0.0
 11
10407.980110498875
 21
-628.52796142918226
 31
0.0
 11
10406.672986448675
 21
-628.02184101734713
 31
0.0
 11
10405.350229391213
 21
-627.55791906784168
 31
0.0
 11
10404.052548400765
 21
-627.15758100749974
 31
0.0
 11
10402.738207655073
 21
-626.81647649075933
 31
0.0
 11
10401.590311566802
 21
-626.57788857567994
 31
0.0
 11
10400.432127112927
 21
-626.39604934150168
 31
0.0
 11
10399.31424342758
 21
-626.27891284119244
 31
0.0
 11
10398.191394699206
 21
-626.22223871635606
 31
0.0
 11
10396.670233145434
 21
-626.24948847638075
 31
0.0
 11
10395.157248479854
 21
-626.4045355742993
 31
0.0
 11
10393.923971639339
 21
-626.63495908053005
 31
0.0
 11
10392.71186446747
 21
-626.96315271660694
 31
0.0
 11
10391.154866757914
 21
-627.56058517393797
 31
0.0
 11
10389.698249922807
 21
-628.36997685235701
 31
0.0
 11
10388.557625280884
 21
-629.26248224645917
 31
0.0
 11
10387.575858961718
 21
-630.32397138017711
 31
0.0
 11
10386.570642570923
 21
-631.95375225834414
 31
0.0
 11
10385.874383062685
 21
-633.74697103198559
 31
0.0
 11
10385.546130923074
 21
-635.0375506902684
 31
0.0
 11
10385.323985864357
 21
-636.34691920491855
 31
0.0
 11
10385.13804247476
 21
-638.53339723967827
 31
0.0
 11
10385.10679863316
 21
-640.73357206387959
 31
0.0
  0
SPLINE
  5
198
100
AcDbEntity
  8
1
  6
CONTINUOUS
 62
             3
100
AcDbSpline
210
0.0
220
0.0
230
1.0
 70
             0
 71
             3
 72
            15
 73
            11
 74
            17
 42
0.00000000001
 43
0.00000000001
 44
0.00000000001
 40
0.0
 40
0.0
 40
0.0
 40
0.0
 40
2.1886075444360071
 40
3.6808520992913452
 40
5.2202743766673079
 40
7.6842776538972828
 40
9.7097877682230767
 40
12.04763440306917
 40
13.84434343416447
 40
17.008078609286731
 40
17.008078609286731
 40
17.008078609286731
 40
17.008078609286731
 10
10355.2584101633
 20
-604.22287060567555
 30
0.0
 10
10354.829204919861
 20
-605.61744796205608
 30
0.0
 10
10354.036031063841
 20
-607.94099383099069
 30
0.0
 10
10352.69764433108
 20
-611.1567049527705
 30
0.0
 10
10351.04298979134
 20
-614.42734622485727
 30
0.0
 10
10349.126591010179
 20
-617.96133834866691
 30
0.0
 10
10347.2301555499
 20
-622.10208524314135
 30
0.0
 10
10345.43944769984
 20
-625.79277107721305
 30
0.0
 10
10343.566321219399
 20
-630.30689829318021
 30
0.0
 10
10343.408952960741
 20
-633.71931520319754
 30
0.0
 10
10343.972966262339
 20
-635.77910149486183
 30
0.0
 11
10355.2584101633
 21
-604.22287060567555
 31
0.0
 11
10354.581443598787
 21
-606.30412250471772
 31
0.0
 11
10353.832755104242
 21
-608.36073188566456
 31
0.0
 11
10353.276421092876
 21
-609.74573027343297
 31
0.0
 11
10352.676906581222
 21
-611.11231132987803
 31
0.0
 11
10352.010997581556
 21
-612.50016144870733
 31
0.0
 11
10351.311430709975
 21
-613.87179668721467
 31
0.0
 11
10350.165642453103
 21
-616.05361366092143
 31
0.0
 11
10349.041432883741
 21
-618.24585183886768
 31
0.0
 11
10348.163913022623
 21
-620.07142436511367
 31
0.0
 11
10347.304759190145
 21
-621.905732899079
 31
0.0
 11
10346.305147210003
 21
-624.01801990089541
 31
0.0
 11
10345.327143572162
 21
-626.14261194145831
 31
0.0
 11
10344.630487659193
 21
-627.80195933266225
 31
0.0
 11
10344.063551226165
 21
-629.50653639852214
 31
0.0
 11
10343.59891752994
 21
-632.63403564762802
 31
0.0
 11
10343.972966262339
 21
-635.77910149486183
 31
0.0
  0
SPLINE
  5
197
100
AcDbEntity
  8
1
  6
CONTINUOUS
 62
             3
100
AcDbSpline
210
0.0
220
0.0
230
1.0
 70
             0
 71
             3
 72
            15
 73
            11
 74
            17
 42
0.00000000001
 43
0.00000000001
 44
0.00000000001
 40
0.0
 40
0.0
 40
0.0
 40
0.0
 40
2.1886075444360071
 40
3.6808520992913452
 40
5.2202743766673079
 40
7.6842776538972828
 40
9.7097877682230767
 40
12.04763440306917
 40
13.84434343416447
 40
17.008078609286731
 40
17.008078609286731
 40
17.008078609286731
 40
17.008078609286731
 10
10322.045431504799
 20
-613.31213461303628
 30
0.0
 10
10322.31292309452
 20
-614.74653741328825
 30
0.0
 10
10322.68946355546
 20
-617.17268816131968
 30
0.0
 10
10322.99744564168
 20
-620.64215845226295
 30
0.0
 10
10323.050837664139
 20
-624.30714484630585
 30
0.0
 10
10322.99471377412
 20
-628.32691284067073
 30
0.0
 10
10323.23803394172
 20
-632.87477471139323
 30
0.0
 10
10323.365991750699
 20
-636.97494828445292
 30
0.0
 10
10323.803344963801
 20
-641.84266535723032
 30
0.0
 10
10325.24862650194
 20
-644.93790609296252
 30
0.0
 10
10326.704657735099
 20
-646.50021323938131
 30
0.0
 11
10322.045431504799
 21
-613.31213461303628
 31
0.0
 11
10322.412373346669
 21
-615.46973672682668
 31
0.0
 11
10322.704352148223
 21
-617.63882063186725
 31
0.0
 11
10322.854805544615
 21
-619.12377579679185
 31
0.0
 11
10322.958464086118
 21
-620.61247198483397
 31
0.0
 11
10323.013198112376
 21
-622.15083700476396
 31
0.0
 11
10323.030593645422
 21
-623.69047151683412
 31
0.0
 11
10323.029029946892
 21
-626.15484843427032
 31
0.0
 11
10323.05141651222
 21
-628.61843407848426
 31
0.0
 11
10323.122008979431
 21
-630.64272972359572
 31
0.0
 11
10323.212923892426
 21
-632.66623351263081
 31
0.0
 11
10323.308531081273
 21
-635.00115101745462
 31
0.0
 11
10323.428989609405
 21
-637.336931871356
 31
0.0
 11
10323.582570501343
 21
-639.13002309474587
 31
0.0
 11
10323.872039434274
 21
-640.90293246338683
 31
0.0
 11
10324.912885759373
 21
-643.88852703605744
 31
0.0
 11
10326.704657735099
 21
-646.50021323938131
 31
0.0
  0
SPLINE
  5
196
100
AcDbEntity
  8
1
  6
CONTINUOUS
 62
             3
100
AcDbSpline
210
0.0
220
0.0
230
1.0
 70
             0
 71
             3
 72
            15
 73
            11
 74
            17
 42
0.00000000001
 43
0.00000000001
 44
0.00000000001
 40
0.0
 40
0.0
 40
0.0
 40
0.0
 40
2.1886075444360071
 40
3.6808520992913452
 40
5.2202743766673079
 40
7.6842776538972828
 40
9.7097877682230767
 40
12.04763440306917
 40
13.84434343416447
 40
17.008078609286731
 40
17.008078609286731
 40
17.008078609286731
 40
17.008078609286731
 10
10296.8516500038
 20
-636.78531175728654
 30
0.0
 10
10297.754656089221
 20
-637.9314544855863
 30
0.0
 10
10299.21478619464
 20
-639.90528584772051
 30
0.0
 10
10301.0986935246
 20
-642.83495651817725
 30
0.0
 10
10302.84791995432
 20
-646.05600958730815
 30
0.0
 10
10304.664907960059
 20
-649.64212715461349
 30
0.0
 10
10306.99233005586
 20
-653.55688879321247
 30
0.0
 10
10309.00968621922
 20
-657.12873294438509
 30
0.0
 10
10311.657484983079
 20
-661.23666539755072
 30
0.0
 10
10314.3748425497
 20
-663.30676727710329
 30
0.0
 10
10316.389859209119
 20
-664.01425468613911
 30
0.0
 11
10296.8516500038
 21
-636.78531175728654
 31
0.0
 11
10298.178571035352
 21
-638.52576393208801
 31
0.0
 11
10299.44443392838
 21
-640.31119602089029
 31
0.0
 11
10300.26726209743
 21
-641.55645979637973
 31
0.0
 11
10301.050384266784
 21
-642.82676727938895
 31
0.0
 11
10301.813242212593
 21
-644.16378280012646
 31
0.0
 11
10302.543621335923
 21
-645.51926181934073
 31
0.0
 11
10303.686639854561
 21
-647.7025310886695
 31
0.0
 11
10304.850502160338
 21
-649.87397759223927
 31
0.0
 11
10305.853060608415
 21
-651.63398688580094
 31
0.0
 11
10306.873249643431
 21
-653.38385757772971
 31
0.0
 11
10308.042208131335
 21
-655.40734875449402
 31
0.0
 11
10309.233576802861
 21
-657.42006412010448
 31
0.0
 11
10310.202266524393
 21
-658.93677221633379
 31
0.0
 11
10311.281931691399
 21
-660.37250304755241
 31
0.0
 11
10313.590189202892
 21
-662.53330921318957
 31
0.0
 11
10316.389859209119
 21
-664.01425468613911
 31
0.0
  0
SPLINE
  5
195
100
AcDbEntity
  8
1
  6
CONTINUOUS
 62
             3
100
AcDbSpline
210
0.0
220
0.0
230
1.0
 70
             0
 71
             3
 72
            15
 73
            11
 74
            17
 42
0.00000000001
 43
0.00000000001
 44
0.00000000001
 40
0.0
 40
0.0
 40
0.0
 40
0.0
 40
2.1886075444360071
 40
3.6808520992913452
 40
5.2202743766673079
 40
7.6842776538972828
 40
9.7097877682230767
 40
12.04763440306917
 40
13.84434343416447
 40
17.008078609286731
 40
17.008078609286731
 40
17.008078609286731
 40
17.008078609286731
 10
10285.43954381348
 20
-669.27347119832871
 30
0.0
 10
10286.77152323526
 20
-669.86920097254392
 30
0.0
 10
10288.98127296034
 20
-670.9392459825433
 30
0.0
 10
10292.01020655082
 20
-672.65902456410481
 30
0.0
 10
10295.05517345646
 20
-674.6994050482665
 30
0.0
 10
10298.329680578179
 20
-677.03163310945479
 30
0.0
 10
10302.208862167619
 20
-679.41788592407579
 30
0.0
 10
10305.6541944563
 20
-681.64442627867652
 30
0.0
 10
10309.90681779534
 20
-684.05298229211462
 30
0.0
 10
10313.27472049358
 20
-684.62445875868457
 30
0.0
 10
10315.38783545606
 20
-684.31530551678748
 30
0.0
 11
10285.43954381348
 21
-669.27347119832871
 31
0.0
 11
10287.422942416468
 21
-670.19868640486482
 31
0.0
 11
10289.373153379322
 21
-671.19209156290754
 31
0.0
 11
10290.6801539526
 21
-671.91283948539603
 31
0.0
 11
10291.963619184193
 21
-672.6742056475066
 31
0.0
 11
10293.260115442992
 21
-673.50406117655336
 31
0.0
 11
10294.536421308014
 21
-674.3653511243873
 31
0.0
 11
10296.562583750336
 21
-675.76814184066859
 31
0.0
 11
10298.601715982641
 21
-677.15078247505517
 31
0.0
 11
10300.306929017665
 21
-678.2439451621434
 31
0.0
 11
10302.023048203444
 21
-679.31994146596628
 31
0.0
 11
10303.997986546061
 21
-680.56918084725169
 31
0.0
 11
10305.987768120267
 21
-681.7984699675942
 31
0.0
 11
10307.550001942916
 21
-682.6918840424438
 31
0.0
 11
10309.172915622494
 21
-683.46204706492642
 31
0.0
 11
10312.220625328546
 21
-684.30383181915749
 31
0.0
 11
10315.38783545606
 21
-684.31530551678748
 31
0.0
  0
SPLINE
  5
194
100
AcDbEntity
  8
1
  6
CONTINUOUS
 62
             3
100
AcDbSpline
210
0.0
220
0.0
230
1.0
 70
             0
 71
             3
 72
            15
 73
            11
 74
            17
 42
0.00000000001
 43
0.00000000001
 44
0.00000000001
 40
0.0
 40
0.0
 40
0.0
 40
0.0
 40
2.1886075444360071
 40
3.6808520992913452
 40
5.2202743766673079
 40
7.6842776538972828
 40
9.7097877682230767
 40
12.04763440306917
 40
13.84434343416447
 40
17.008078609286731
 40
17.008078609286731
 40
17.008078609286731
 40
17.008078609286731
 10
10290.41936072856
 20
-703.34571936392445
 30
0.0
 10
10291.87565488202
 20
-703.2547771707375
 30
0.0
 10
10294.329596547541
 20
-703.17628848915115
 30
0.0
 10
10297.810759898681
 20
-703.29281654516603
 30
0.0
 10
10301.455003540959
 20
-703.68583594967254
 30
0.0
 10
10305.43806417574
 20
-704.23073281992697
 30
0.0
 10
10309.98173475674
 20
-704.5426782486627
 30
0.0
 10
10314.06700537486
 20
-704.91464667042351
 30
0.0
 10
10318.95176687106
 20
-705.0729263560977
 30
0.0
 10
10322.199887081781
 20
-704.01506576349834
 30
0.0
 10
10323.927775571099
 20
-702.75998331993492
 30
0.0
 11
10290.41936072856
 21
-703.34571936392445
 31
0.0
 11
10292.605581657997
 21
-703.24407663475858
 31
0.0
 11
10294.794076328842
 21
-703.21823706544922
 31
0.0
 11
10296.286304019024
 21
-703.24961519440649
 31
0.0
 11
10297.776550175033
 21
-703.32789563909091
 31
0.0
 11
10299.310142071537
 21
-703.46078146660886
 31
0.0
 11
10300.8404500752
 21
-703.63088275775817
 31
0.0
 11
10303.286319985336
 21
-703.93233991731881
 31
0.0
 11
10305.734319157395
 21
-704.20992853070811
 31
0.0
 11
10307.752159864958
 21
-704.38620965321331
 31
0.0
 11
10309.771687764576
 21
-704.54222301260063
 31
0.0
 11
10312.100885800211
 21
-704.7314768095963
 31
0.0
 11
10314.43396507931
 21
-704.8961690434304
 31
0.0
 11
10316.232419182006
 21
-704.96194188178072
 31
0.0
 11
10318.027378479399
 21
-704.89038062646944
 31
0.0
 11
10321.117449290387
 21
-704.22060573299507
 31
0.0
 11
10323.927775571099
 21
-702.75998331993492
 31
0.0
  0
SPLINE
  5
193
100
AcDbEntity
  8
1
  6
CONTINUOUS
 62
             3
100
AcDbSpline
210
0.0
220
0.0
230
1.0
 70
             0
 71
             3
 72
            15
 73
            11
 74
            17
 42
0.00000000001
 43
0.00000000001
 44
0.00000000001
 40
0.0
 40
0.0
 40
0.0
 40
0.0
 40
2.1886075444360071
 40
3.6808520992913452
 40
5.2202743766673079
 40
7.6842776538972828
 40
9.7097877682230767
 40
12.04763440306917
 40
13.84434343416447
 40
17.008078609286731
 40
17.008078609286731
 40
17.008078609286731
 40
17.008078609286731
 10
10310.652086100559
 20
-731.20884007189284
 30
0.0
 10
10311.899602343639
 20
-730.45202677446127
 30
0.0
 10
10314.03645517338
 20
-729.24295681994067
 30
0.0
 10
10317.173614986201
 20
-727.72958132982308
 30
0.0
 10
10320.583601329219
 20
-726.38534581590397
 30
0.0
 10
10324.3641851147
 20
-725.01827929935985
 30
0.0
 10
10328.533088136681
 20
-723.18456724663315
 30
0.0
 10
10332.32388861978
 20
-721.61688480828047
 30
0.0
 10
10336.723515290339
 20
-719.48868545359824
 30
0.0
 10
10339.108922788781
 20
-717.04344824566738
 30
0.0
 10
10340.05637141982
 20
-715.12950685073724
 30
0.0
 11
10310.652086100559
 21
-731.20884007189284
 31
0.0
 11
10312.541083329485
 21
-730.10358776322005
 31
0.0
 11
10314.467295617102
 21
-729.06441365330988
 31
0.0
 11
10315.803438840461
 21
-728.3992449882295
 31
0.0
 11
10317.159607565956
 21
-727.77653492607408
 31
0.0
 11
10318.579522438296
 21
-727.18205658039926
 31
0.0
 11
10320.013811031096
 21
-726.62206259125765
 31
0.0
 11
10322.319953854847
 21
-725.75323504057451
 31
0.0
 11
10324.61689839445
 21
-724.86227984154255
 31
0.0
 11
10326.485833717537
 21
-724.08135928645561
 31
0.0
 11
10328.346851368929
 21
-723.28170535703737
 31
0.0
 11
10330.497560459031
 21
-722.36768626606704
 31
0.0
 11
10332.640301062358
 21
-721.43011218296465
 31
0.0
 11
10334.263621854698
 21
-720.65319981279208
 31
0.0
 11
10335.820072533073
 21
-719.75628221438251
 31
0.0
 11
10338.24572426439
 21
-717.72814274600341
 31
0.0
 11
10340.05637141982
 21
-715.12950685073724
 31
0.0
  0
SPLINE
  5
192
100
AcDbEntity
  8
1
  6
CONTINUOUS
 62
             3
100
AcDbSpline
210
0.0
220
0.0
230
1.0
 70
             0
 71
             3
 72
            15
 73
            11
 74
            17
 42
0.00000000001
 43
0.00000000001
 44
0.00000000001
 40
0.0
 40
0.0
 40
0.0
 40
0.0
 40
2.1886075444360071
 40
3.6808520992913452
 40
5.2202743766673079
 40
7.6842776538972828
 40
9.7097877682230767
 40
12.04763440306917
 40
13.84434343416447
 40
17.008078609286731
 40
17.008078609286731
 40
17.008078609286731
 40
17.008078609286731
 10
10341.50996534128
 20
-746.48980732957966
 30
0.0
 10
10342.26336401204
 20
-745.2402259649491
 30
0.0
 10
10343.59437375736
 20
-743.17712072557129
 30
0.0
 10
10345.669979358319
 20
-740.37999032917537
 30
0.0
 10
10348.065755150419
 20
-737.60596179100435
 30
0.0
 10
10350.779143486499
 20
-734.63961583053174
 30
0.0
 10
10353.619741562259
 20
-731.07966430402143
 30
0.0
 10
10356.24901648372
 20
-727.93090106784598
 30
0.0
 10
10359.15719839578
 20
-724.00299764489569
 30
0.0
 10
10360.134287965981
 20
-720.7296736602591
 30
0.0
 10
10360.08459040438
 20
-718.59464187499748
 30
0.0
 11
10341.50996534128
 21
-746.48980732957966
 31
0.0
 11
10342.669675693205
 21
-744.63374561283217
 31
0.0
 11
10343.893030361774
 21
-742.81892331780023
 31
0.0
 11
10344.767478143076
 21
-741.60934936632168
 31
0.0
 11
10345.679378105631
 21
-740.42807890964582
 31
0.0
 11
10346.660844206826
 21
-739.24220916959086
 31
0.0
 11
10347.671053995187
 21
-738.08020520280388
 31
0.0
 11
10349.309994425226
 21
-736.23981657451225
 31
0.0
 11
10350.930512913712
 21
-734.38410236883283
 31
0.0
 11
10352.223068359523
 21
-732.82459713487128
 31
0.0
 11
10353.499912248926
 21
-731.25217772907263
 31
0.0
 11
10354.980208854935
 21
-729.4439458724961
 31
0.0
 11
10356.44250984571
 21
-727.61855323888949
 31
0.0
 11
10357.519401315581
 21
-726.17665588196814
 31
0.0
 11
10358.481342310539
 21
-724.65953050324458
 31
0.0
 11
10359.687764835387
 21
-721.73691511350341
 31
0.0
 11
10360.08459040438
 21
-718.59464187499748
 31
0.0
  0
SPLINE
  5
191
100
AcDbEntity
  8
1
  6
CONTINUOUS
 62
             3
100
AcDbSpline
210
0.0
220
0.0
230
1.0
 70
             0
 71
             3
 72
            15
 73
            11
 74
            17
 42
0.00000000001
 43
0.00000000001
 44
0.00000000001
 40
0.0
 40
0.0
 40
0.0
 40
0.0
 40
2.1886075444360071
 40
3.6808520992913452
 40
5.2202743766673079
 40
7.6842776538972828
 40
9.7097877682230767
 40
12.04763440306917
 40
13.84434343416447
 40
17.008078609286731
 40
17.008078609286731
 40
17.008078609286731
 40
17.008078609286731
 10
10375.934992689619
 20
-745.69346341410142
 30
0.0
 10
10376.021951765621
 20
-744.23692599163655
 30
0.0
 10
10376.242681612281
 20
-741.79167170921733
 30
0.0
 10
10376.781987599261
 20
-738.35056344041845
 30
0.0
 10
10377.615576123961
 20
-734.78123491140082
 30
0.0
 10
10378.641145980821
 20
-730.89409057548596
 30
0.0
 10
10379.50371987894
 20
-726.42215379491222
 30
0.0
 10
10380.37008515146
 20
-722.41251444147179
 30
0.0
 10
10381.12164487886
 20
-717.58332141263486
 30
0.0
 10
10380.46693052682
 20
-714.23060563973627
 30
0.0
 10
10379.43145390748
 20
-712.36282119218345
 30
0.0
 11
10375.934992689619
 21
-745.69346341410142
 31
0.0
 11
10376.10016001128
 21
-743.51112225090026
 31
0.0
 11
10376.340843784232
 21
-741.33574919574437
 31
0.0
 11
10376.553586996804
 21
-739.85843122325866
 31
0.0
 11
10376.81264277427
 21
-738.38878788636293
 31
0.0
 11
10377.131173082946
 21
-736.8827662428838
 31
0.0
 11
10377.486242610868
 21
-735.38453306154383
 31
0.0
 11
10378.083112014541
 21
-732.99352847114699
 31
0.0
 11
10378.656549400133
 21
-730.59750573555198
 31
0.0
 11
10379.077083660593
 21
-728.61611554403851
 31
0.0
 11
10379.477706124684
 21
-726.6305841927591
 31
0.0
 11
10379.949007614534
 21
-724.34172958956526
 31
0.0
 11
10380.396402429553
 21
-722.04603354393055
 31
0.0
 11
10380.680551272681
 21
-720.2689509176256
 31
0.0
 11
10380.827961466399
 21
-718.47862409625077
 31
0.0
 11
10380.539214333265
 21
-715.33001152593772
 31
0.0
 11
10379.43145390748
 21
-712.36282119218345
 31
0.0
  0
SPLINE
  5
190
100
AcDbEntity
  8
1
  6
CONTINUOUS
 62
             3
100
AcDbSpline
210
0.0
220
0.0
230
1.0
 70
             0
 71
             3
 72
            15
 73
            11
 74
            17
 42
0.00000000001
 43
0.00000000001
 44
0.00000000001
 40
0.0
 40
0.0
 40
0.0
 40
0.0
 40
2.1886075444360071
 40
3.6808520992913452
 40
5.2202743766673079
 40
7.6842776538972828
 40
9.7097877682230767
 40
12.04763440306917
 40
13.84434343416447
 40
17.008078609286731
 40
17.008078609286731
 40
17.008078609286731
 40
17.008078609286731
 10
10406.053262118019
 20
-729.00195305094007
 30
0.0
 10
10405.45389177942
 20
-727.67160785470992
 30
0.0
 10
10404.51385502618
 20
-725.40349827325667
 30
0.0
 10
10403.39350798486
 20
-722.10548378387944
 30
0.0
 10
10402.47424569838
 20
-718.55725424997786
 30
0.0
 10
10401.577422369801
 20
-714.63840332950826
 30
0.0
 10
10400.26467883186
 20
-710.27733044514412
 30
0.0
 10
10399.16997401036
 20
-706.32392458640538
 30
0.0
 10
10397.59301014522
 20
-701.69800496954599
 30
0.0
 10
10395.456242203179
 20
-699.0327513796467
 30
0.0
 10
10393.67182716858
 20
-697.85942552720803
 30
0.0
 11
10406.053262118019
 21
-729.00195305094007
 31
0.0
 11
10405.186108313957
 21
-726.99249106402908
 31
0.0
 11
10404.389070504138
 21
-724.95413208255013
 31
0.0
 11
10403.891449199305
 21
-723.546971429569
 31
0.0
 11
10403.438407945578
 21
-722.12510116265537
 31
0.0
 11
10403.021146231527
 21
-720.64339423813749
 31
0.0
 11
10402.639861791675
 21
-719.15161703920467
 31
0.0
 11
10402.058140492547
 21
-716.75688190427127
 31
0.0
 11
10401.453336615483
 21
-714.36858383766059
 31
0.0
 11
10400.905662483106
 21
-712.41850455722943
 31
0.0
 11
10400.338430664102
 21
-710.47400432088068
 31
0.0
 11
10399.692938034341
 21
-708.22804800923518
 31
0.0
 11
10399.023095753282
 21
-705.98713440693689
 31
0.0
 11
10398.449509681765
 21
-704.28133188485936
 31
0.0
 11
10397.748672499347
 21
-702.62729828898421
 31
0.0
 11
10396.030799745582
 21
-699.97285875742602
 31
0.0
 11
10393.67182716858
 21
-697.85942552720803
 31
0.0
  0
SPLINE
  5
18F
100
AcDbEntity
  8
1
  6
CONTINUOUS
 62
             3
100
AcDbSpline
210
0.0
220
0.0
230
1.0
 70
             0
 71
             3
 72
            15
 73
            11
 74
            17
 42
0.00000000001
 43
0.00000000001
 44
0.00000000001
 40
0.0
 40
0.0
 40
0.0
 40
0.0
 40
2.1886075444360071
 40
3.6808520992913452
 40
5.2202743766673079
 40
7.6842776538972828
 40
9.7097877682230767
 40
12.04763440306917
 40
13.84434343416447
 40
17.008078609286731
 40
17.008078609286731
 40
17.008078609286731
 40
17.008078609286731
 10
10424.9759360145
 20
-700.23306214125137
 30
0.0
 10
10423.827327967079
 20
-699.33319398571098
 30
0.0
 10
10421.941535657599
 20
-697.76100521319427
 30
0.0
 10
10419.417788320379
 20
-695.36042685724919
 30
0.0
 10
10416.955934601319
 20
-692.64486941124346
 30
0.0
 10
10414.3418450881
 20
-689.59065582401786
 30
0.0
 10
10411.154042967981
 20
-686.33793850735424
 30
0.0
 10
10408.34865573714
 20
-683.34501368117458
 30
0.0
 10
10404.803861247319
 20
-679.98043653708396
 30
0.0
 10
10401.67377454788
 20
-678.61225848195159
 30
0.0
 10
10399.54856358558
 20
-678.40176159971293
 30
0.0
 11
10424.9759360145
 21
-700.23306214125137
 31
0.0
 11
10423.274801887608
 21
-698.85609595462768
 31
0.0
 11
10421.622345932325
 21
-697.42097717086494
 31
0.0
 11
10420.528179145052
 21
-696.40582836012049
 31
0.0
 11
10419.466663268971
 21
-695.35695016016314
 31
0.0
 11
10418.409048222544
 21
-694.23846316348158
 31
0.0
 11
10417.378619559699
 21
-693.09435049152955
 31
0.0
 11
10415.751362465679
 21
-691.24362350294086
 31
0.0
 11
10414.106651824432
 21
-689.40931646995648
 31
0.0
 11
10412.716036727721
 21
-687.93658234322493
 31
0.0
 11
10411.310691409666
 21
-686.47787139081686
 31
0.0
 11
10409.696045742958
 21
-684.78852244525171
 31
0.0
 11
10408.062176851934
 21
-683.11494696102579
 31
0.0
 11
10406.762050033902
 21
-681.87058628871296
 31
0.0
 11
10405.373265307768
 21
-680.73116675359961
 31
0.0
 11
10402.619189457257
 21
-679.17804015398644
 31
0.0
 11
10399.54856358558
 21
-678.40176159971293
 31
0.0
  0
SPLINE
  5
18E
100
AcDbEntity
  8
1
  6
CONTINUOUS
 62
             3
100
AcDbSpline
210
0.0
220
0.0
230
1.0
 70
             0
 71
             3
 72
            15
 73
            11
 74
            17
 42
0.00000000001
 43
0.00000000001
 44
0.00000000001
 40
0.0
 40
0.0
 40
0.0
 40
0.0
 40
2.1886075444360071
 40
3.6808520992913452
 40
5.2202743766673079
 40
7.6842776538972828
 40
9.7097877682230767
 40
12.04763440306917
 40
13.84434343416447
 40
17.008078609286731
 40
17.008078609286731
 40
17.008078609286731
 40
17.008078609286731
 10
10428.374902899461
 20
-665.96699006287395
 30
0.0
 10
10426.93977390846
 20
-665.7034223805565
 30
0.0
 10
10424.539556170161
 20
-665.18675519600015
 30
0.0
 10
10421.18965569998
 20
-664.2326881621641
 30
0.0
 10
10417.748301018561
 20
-662.97092196616563
 30
0.0
 10
10414.01485610712
 20
-661.47992440990151
 30
0.0
 10
10409.68112930136
 20
-660.07954436431851
 30
0.0
 10
10405.8067252495
 20
-658.73166092239921
 30
0.0
 10
10401.104887543161
 20
-657.39799322881413
 30
0.0
 10
10397.6974149534
 20
-657.63982888932492
 30
0.0
 10
10395.71749951184
 20
-658.44030713133566
 30
0.0
 11
10428.374902899461
 21
-665.96699006287395
 31
0.0
 11
10426.228882410953
 21
-665.53746793342236
 31
0.0
 11
10424.098968297722
 21
-665.03383862739497
 31
0.0
 11
10422.658520650153
 21
-664.64289279874879
 31
0.0
 11
10421.231326654699
 21
-664.20691260096305
 31
0.0
 11
10419.775262556881
 21
-663.70747282357627
 31
0.0
 11
10418.33137571356
 21
-663.17271323364173
 31
0.0
 11
10416.030779172119
 21
-662.28930416086723
 31
0.0
 11
10413.722350197875
 21
-661.42854225676751
 31
0.0
 11
10411.806864257191
 21
-660.77000617858107
 31
0.0
 11
10409.884844748147
 21
-660.1307299374472
 31
0.0
 11
10407.670357828008
 21
-659.38438673930671
 31
0.0
 11
10405.446170965764
 21
-658.66093995046992
 31
0.0
 11
10403.716876480561
 21
-658.16263902812034
 31
0.0
 11
10401.957795677341
 21
-657.79844866540361
 31
0.0
 11
10398.797446060851
 21
-657.70187575819875
 31
0.0
 11
10395.71749951184
 21
-658.44030713133566
 31
0.0
  0
SPLINE
  5
18D
100
AcDbEntity
  8
1
  6
CONTINUOUS
 62
             3
100
AcDbSpline
210
0.0
220
0.0
230
1.0
 70
             0
 71
             3
 72
            14
 73
            10
 74
            15
 42
0.00000000001
 43
0.00000000001
 44
0.00000000001
 40
0.0
 40
0.0
 40
0.0
 40
0.0
 40
4.4561465529582893
 40
6.7907849268563361
 40
8.7123853831413349
 40
10.84496157914824
 40
13.074900040921779
 40
17.408481403808452
 40
21.976279994883161
 40
21.976279994883161
 40
21.976279994883161
 40
21.976279994883161
 10
10322.2582047373
 20
-601.93072148078522
 30
0.0
 10
10322.759020342361
 20
-604.85875642597352
 30
0.0
 10
10323.395408160641
 20
-609.34287980887552
 30
0.0
 10
10324.3756443493
 20
-615.06611223802815
 30
0.0
 10
10324.965101231721
 20
-619.29025419153891
 30
0.0
 10
10325.03822868574
 20
-623.48487320418985
 30
0.0
 10
10324.997565961099
 20
-629.28296757690873
 30
0.0
 10
10325.234108602021
 20
-636.68424108077784
 30
0.0
 10
10325.74184621828
 20
-642.65843519460873
 30
0.0
 10
10328.133718582279
 20
-645.10454614047808
 30
0.0
 11
10322.2582047373
 21
-601.93072148078522
 31
0.0
 11
10322.964289630441
 21
-606.33056795825507
 31
0.0
 11
10323.64918777932
 21
-610.73377200697962
 31
0.0
 11
10324.026752893766
 21
-613.03731804806159
 31
0.0
 11
10324.396187514327
 21
-615.34290823228389
 31
0.0
 11
10324.668319250946
 21
-617.24616507580447
 31
0.0
 11
10324.872200626745
 21
-619.15651607410348
 31
0.0
 11
10324.98643947593
 21
-621.28544490720594
 31
0.0
 11
10325.020089699603
 21
-623.41910375639623
 31
0.0
 11
10325.023174223104
 21
-625.64988272073117
 31
0.0
 11
10325.027044611557
 21
-627.87897525705466
 31
0.0
 11
10325.109708628444
 21
-632.20736565602351
 31
0.0
 11
10325.304640648535
 21
-636.5416913527888
 31
0.0
 11
10325.888473796933
 21
-641.04997048129076
 31
0.0
 11
10328.133718582279
 21
-645.10454614047808
 31
0.0
  0
SPLINE
  5
18C
100
AcDbEntity
  8
1
  6
CONTINUOUS
 62
             3
100
AcDbSpline
210
0.0
220
0.0
230
1.0
 70
             0
 71
             3
 72
            14
 73
            10
 74
            15
 42
0.00000000001
 43
0.00000000001
 44
0.00000000001
 40
0.0
 40
0.0
 40
0.0
 40
0.0
 40
4.4561465529582893
 40
6.7907849268563361
 40
8.7123853831413349
 40
10.84496157914824
 40
13.074900040921779
 40
17.408481403808452
 40
21.976279994883161
 40
21.976279994883161
 40
21.976279994883161
 40
21.976279994883161
 10
10291.754807511041
 20
-626.60670507761711
 30
0.0
 10
10293.55806444518
 20
-628.9673129103569
 30
0.0
 10
10296.20400297828
 20
-632.64309326932676
 30
0.0
 10
10299.72988177968
 20
-637.2565985637309
 30
0.0
 10
10302.21352678658
 20
-640.72392348927792
 30
0.0
 10
10304.2261815859
 20
-644.40487403834391
 30
0.0
 10
10306.8826789124
 20
-649.55876322674453
 30
0.0
 10
10310.529161283601
 20
-656.00375882151388
 30
0.0
 10
10313.75311909976
 20
-661.05894316992385
 30
0.0
 10
10317.00737057896
 20
-662.11457543320853
 30
0.0
 11
10291.754807511041
 21
-626.60670507761711
 31
0.0
 11
10294.423335971369
 21
-630.17548088425622
 31
0.0
 11
10297.074659852826
 21
-633.75706894608584
 31
0.0
 11
10298.478762452651
 21
-635.62184122928591
 31
0.0
 11
10299.87661364302
 21
-637.49219950673842
 31
0.0
 11
10301.001454899966
 21
-639.05142189022001
 31
0.0
 11
10302.069145491445
 21
-640.64862111165894
 31
0.0
 11
10303.158948177228
 21
-642.48102898032619
 31
0.0
 11
10304.179575120188
 21
-644.35504954200337
 31
0.0
 11
10305.218232434154
 21
-646.32927731157349
 31
0.0
 11
10306.256802598389
 21
-648.30164657957448
 31
0.0
 11
10308.340023870762
 21
-652.09664143014788
 31
0.0
 11
10310.525430052965
 21
-655.84475796474374
 31
0.0
 11
10313.136041637685
 21
-659.5663367962901
 31
0.0
 11
10317.00737057896
 21
-662.11457543320853
 31
0.0
  0
SPLINE
  5
18B
100
AcDbEntity
  8
1
  6
CONTINUOUS
 62
             3
100
AcDbSpline
210
0.0
220
0.0
230
1.0
 70
             0
 71
             3
 72
            14
 73
            10
 74
            15
 42
0.00000000001
 43
0.00000000001
 44
0.00000000001
 40
0.0
 40
0.0
 40
0.0
 40
0.0
 40
4.4561465529582893
 40
6.7907849268563361
 40
8.7123853831413349
 40
10.84496157914824
 40
13.074900040921779
 40
17.408481403808452
 40
21.976279994883161
 40
21.976279994883161
 40
21.976279994883161
 40
21.976279994883161
 10
10299.92886696188
 20
-735.02910297375524
 30
0.0
 10
10302.49137871018
 20
-733.52652570441319
 30
0.0
 10
10306.46183891444
 20
-731.347581525534
 30
0.0
 10
10311.47013963342
 20
-728.4093547929549
 30
0.0
 10
10315.21394327796
 20
-726.36612966323742
 30
0.0
 10
10319.112467077761
 20
-724.81639146976772
 30
0.0
 10
10324.5513348938
 20
-722.80684707074465
 30
0.0
 10
10331.39219017592
 20
-719.97179840991043
 30
0.0
 10
10336.802144518821
 20
-717.38699922925184
 30
0.0
 10
10338.24596044142
 20
-714.28540161724891
 30
0.0
 11
10299.92886696188
 21
-735.02910297375524
 31
0.0
 11
10303.79586704139
 21
-732.81471473166846
 31
0.0
 11
10307.673490417495
 21
-730.61896239542352
 31
0.0
 11
10309.695276430617
 21
-729.4522314512144
 31
0.0
 11
10311.72184614736
 21
-728.29238524604762
 31
0.0
 11
10313.406368269907
 21
-727.36565577466581
 31
0.0
 11
10315.121629950378
 21
-726.50027382453572
 31
0.0
 11
10317.073043023722
 21
-725.64156810761699
 31
0.0
 11
10319.057341081076
 21
-724.85658808120331
 31
0.0
 11
10321.143295772907
 21
-724.06590652354362
 31
0.0
 11
10323.22739517087
 21
-723.27508529545639
 31
0.0
 11
10327.2477032925
 21
-721.66918386861119
 31
0.0
 11
10331.23391703159
 21
-719.95615212214318
 31
0.0
 11
10335.245536154831
 21
-717.81784581675095
 31
0.0
 11
10338.24596044142
 21
-714.28540161724891
 31
0.0
  0
SPLINE
  5
18A
100
AcDbEntity
  8
1
  6
CONTINUOUS
 62
             3
100
AcDbSpline
210
0.0
220
0.0
230
1.0
 70
             0
 71
             3
 72
            14
 73
            10
 74
            15
 42
0.00000000001
 43
0.00000000001
 44
0.00000000001
 40
0.0
 40
0.0
 40
0.0
 40
0.0
 40
4.4561465529582893
 40
6.7907849268563361
 40
8.7123853831413349
 40
10.84496157914824
 40
13.074900040921779
 40
17.408481403808452
 40
21.976279994883161
 40
21.976279994883161
 40
21.976279994883161
 40
21.976279994883161
 10
10333.7871343774
 20
-754.85280435450045
 30
0.0
 10
10335.35882491112
 20
-752.33209140441681
 30
0.0
 10
10337.863356366681
 20
-748.55854212601548
 30
0.0
 10
10340.93444326266
 20
-743.63059349591254
 30
0.0
 10
10343.30126430008
 20
-740.08249642333135
 30
0.0
 10
10346.03427588484
 20
-736.89960089199417
 30
0.0
 10
10349.91794889564
 20
-732.59418154455238
 30
0.0
 10
10354.65992739198
 20
-726.9066124820863
 30
0.0
 10
10358.25085767428
 20
-722.10515306808088
 30
0.0
 10
10358.08923941646
 20
-718.68778687408098
 30
0.0
 11
10333.7871343774
 21
-754.85280435450045
 31
0.0
 11
10336.183578272252
 21
-751.09590915227921
 31
0.0
 11
10338.598084662484
 21
-747.35058536646522
 31
0.0
 11
10339.84684831109
 21
-745.37841165988118
 31
0.0
 11
10341.103045708158
 21
-743.41011388361676
 31
0.0
 11
10342.164567509679
 21
-741.80711239909681
 31
0.0
 11
10343.281801861047
 21
-740.24416775637269
 31
0.0
 11
10344.611280897212
 21
-738.57747222824469
 31
0.0
 11
10346.004120706042
 21
-736.96079981578134
 31
0.0
 11
10347.484343713095
 21
-735.29187077253289
 31
0.0
 11
10348.96285874352
 21
-733.62367959038102
 31
0.0
 11
10351.777646024995
 21
-730.33448981999311
 31
0.0
 11
10354.512489057921
 21
-726.96625418047017
 31
0.0
 11
10357.07234372098
 21
-723.20958198959841
 31
0.0
 11
10358.08923941646
 21
-718.68778687408098
 31
0.0
  0
SPLINE
  5
189
100
AcDbEntity
  8
1
  6
CONTINUOUS
 62
             3
100
AcDbSpline
210
0.0
220
0.0
230
1.0
 70
             0
 71
             3
 72
            14
 73
            10
 74
            15
 42
0.00000000001
 43
0.00000000001
 44
0.00000000001
 40
0.0
 40
0.0
 40
0.0
 40
0.0
 40
4.4561465529582893
 40
6.7907849268563361
 40
8.7123853831413349
 40
10.84496157914824
 40
13.074900040921779
 40
17.408481403808452
 40
21.976279994883161
 40
21.976279994883161
 40
21.976279994883161
 40
21.976279994883161
 10
10372.978963755821
 20
-756.68635795002569
 30
0.0
 10
10373.200346256201
 20
-753.72406243825958
 30
0.0
 10
10373.6660969759
 20
-749.21901768426801
 30
0.0
 10
10374.09753198322
 20
-743.4284981688786
 30
0.0
 10
10374.54601640836
 20
-739.18707194883768
 30
0.0
 10
10375.48840439698
 20
-735.09903071069652
 30
0.0
 10
10376.928584794659
 20
-729.48249866376341
 30
0.0
 10
10378.487071736819
 20
-722.24330531428245
 30
0.0
 10
10379.437638085399
 20
-716.32340528019017
 30
0.0
 10
10377.707551978699
 20
-713.37191172123562
 30
0.0
 11
10372.978963755821
 21
-756.68635795002569
 31
0.0
 11
10373.35672193694
 21
-752.24625618787923
 31
0.0
 11
10373.755850446127
 21
-747.80801466648836
 31
0.0
 11
10373.945966753945
 21
-745.48148601449782
 31
0.0
 11
10374.144466561949
 21
-743.1549379572524
 31
0.0
 11
10374.340190184168
 21
-741.24231291344768
 31
0.0
 11
10374.603856427793
 21
-739.33929198238275
 31
0.0
 11
10375.007314725834
 21
-737.24582359408043
 31
0.0
 11
10375.490117315814
 21
-735.16723414895375
 31
0.0
 11
10376.026042840023
 21
-733.00178543459901
 31
0.0
 11
10376.560798363866
 21
-730.83778334469309
 31
0.0
 11
10377.526249178905
 21
-726.61762914024666
 31
0.0
 11
10378.384191224359
 21
-722.36459337920019
 31
0.0
 11
10378.906775572521
 21
-717.8488046945173
 31
0.0
 11
10377.707551978699
 21
-713.37191172123562
 31
0.0
  0
SPLINE
  5
188
100
AcDbEntity
  8
1
  6
CONTINUOUS
 62
             3
100
AcDbSpline
210
0.0
220
0.0
230
1.0
 70
             0
 71
             3
 72
            14
 73
            10
 74
            15
 42
0.00000000001
 43
0.00000000001
 44
0.00000000001
 40
0.0
 40
0.0
 40
0.0
 40
0.0
 40
4.4561465529582893
 40
6.7907849268563361
 40
8.7123853831413349
 40
10.84496157914824
 40
13.074900040921779
 40
17.408481403808452
 40
21.976279994883161
 40
21.976279994883161
 40
21.976279994883161
 40
21.976279994883161
 10
10408.540156508379
 20
-740.11038199596646
 30
0.0
 10
10407.3605949952
 20
-737.38405854722328
 30
0.0
 10
10405.6810355822
 20
-733.17794012918898
 30
0.0
 10
10403.37413820688
 20
-727.84929331002445
 30
0.0
 10
10401.80170587702
 20
-723.88466328596792
 30
0.0
 10
10400.737921436699
 20
-719.82651851891683
 30
0.0
 10
10399.4052022175
 20
-714.18352185979188
 30
0.0
 10
10397.42373079418
 20
-707.04849748011134
 30
0.0
 10
10395.516513770959
 20
-701.36419312310795
 30
0.0
 10
10392.613675853179
 20
-699.55365613417894
 30
0.0
 11
10408.540156508379
 21
-740.11038199596646
 31
0.0
 11
10406.812825778783
 21
-736.0026413210644
 31
0.0
 11
10405.1052852558
 21
-731.88662422544894
 31
0.0
 11
10404.193269640322
 21
-729.7378787086061
 31
0.0
 11
10403.288669750538
 21
-727.58522288942447
 31
0.0
 11
10402.573828071176
 21
-725.80044176336742
 31
0.0
 11
10401.923618826502
 21
-723.99261530868876
 31
0.0
 11
10401.308774899095
 21
-721.95120514999826
 31
0.0
 11
10400.77111066374
 21
-719.88612655771658
 31
0.0
 11
10400.240158491228
 21
-717.71945304919984
 31
0.0
 11
10399.708841904354
 21
-715.55460404755718
 31
0.0
 11
10398.604132347296
 21
-711.36874528499493
 31
0.0
 11
10397.388939572993
 21
-707.2036901521808
 31
0.0
 11
10395.754724868999
 21
-702.96166420377881
 31
0.0
 11
10392.613675853179
 21
-699.55365613417894
 31
0.0
  0
SPLINE
  5
187
100
AcDbEntity
  8
1
  6
CONTINUOUS
 62
             3
100
AcDbSpline
210
0.0
220
0.0
230
1.0
 70
             0
 71
             3
 72
            12
 73
             8
 74
            11
 42
0.00000000001
 43
0.00000000001
 44
0.00000000001
 40
0.0
 40
0.0
 40
0.0
 40
0.0
 40
0.5239431407868309
 40
0.8313640790765972
 40
1.1426701526318079
 40
1.4560688587676931
 40
3.6736118400094742
 40
3.6736118400094742
 40
3.6736118400094742
 40
3.6736118400094742
 10
10322.2582047373
 20
-601.93072148078522
 30
0.0
 10
10322.301373775041
 20
-602.27955371041185
 30
0.0
 10
10322.557187706439
 20
-602.79763802965567
 30
0.0
 10
10323.13232603944
 20
-603.31008247354043
 30
0.0
 10
10323.68916742932
 20
-603.59750609313755
 30
0.0
 10
10325.511094625021
 20
-604.14367273166431
 30
0.0
 10
10327.28415079994
 20
-603.87661195802707
 30
0.0
 10
10328.703696336381
 20
-603.63454775256673
 30
0.0
 11
10322.2582047373
 21
-601.93072148078522
 31
0.0
 11
10322.404814125473
 21
-602.43280573932043
 31
0.0
 11
10322.688407644793
 21
-602.87487924417439
 31
0.0
 11
10322.902845689378
 21
-603.09638236749663
 31
0.0
 11
10323.144737811805
 21
-603.28693908433968
 31
0.0
 11
10323.411648799936
 21
-603.44787633174258
 31
0.0
 11
10323.694685334665
 21
-603.5788356547821
 31
0.0
 11
10323.990312760947
 21
-603.68371051879399
 31
0.0
 11
10324.292817483605
 21
-603.76622009499624
 31
0.0
 11
10326.505113291754
 21
-603.92030174749016
 31
0.0
 11
10328.703696336381
 21
-603.63454775256673
 31
0.0
  0
SPLINE
  5
186
100
AcDbEntity
  8
1
  6
CONTINUOUS
 62
             3
100
AcDbSpline
210
0.0
220
0.0
230
1.0
 70
             0
 71
             3
 72
            12
 73
             8
 74
            11
 42
0.00000000001
 43
0.00000000001
 44
0.00000000001
 40
0.0
 40
0.0
 40
0.0
 40
0.0
 40
0.5239431407868309
 40
0.8313640790765972
 40
1.1426701526318079
 40
1.4560688587676931
 40
3.6736118400094742
 40
3.6736118400094742
 40
3.6736118400094742
 40
3.6736118400094742
 10
10291.754807511041
 20
-626.60670507761711
 30
0.0
 10
10291.95502975312
 20
-626.89559700208679
 30
0.0
 10
10292.42217517162
 20
-627.2356371281187
 30
0.0
 10
10293.169507025441
 20
-627.42239502063353
 30
0.0
 10
10293.79613962304
 20
-627.41836287399769
 30
0.0
 10
10295.66333355258
 20
-627.0560045802697
 30
0.0
 10
10297.1096002658
 20
-625.99611673223194
 30
0.0
 10
10298.2543927809
 20
-625.12252946871763
 30
0.0
 11
10291.754807511041
 21
-626.60670507761711
 31
0.0
 11
10292.117807274504
 21
-626.98328718963739
 31
0.0
 11
10292.574257541317
 21
-627.24310909368046
 31
0.0
 11
10292.867033049322
 21
-627.33970003796173
 31
0.0
 11
10293.169752059141
 21
-627.39613462239902
 31
0.0
 11
10293.480874057939
 21
-627.41471889128593
 31
0.0
 11
10293.792356335476
 21
-627.39926524893508
 31
0.0
 11
10294.102876512003
 21
-627.35486330931735
 31
0.0
 11
10294.409101519574
 21
-627.28746017782134
 31
0.0
 11
10296.439944500022
 21
-626.3965782063035
 31
0.0
 11
10298.2543927809
 21
-625.12252946871763
 31
0.0
  0
SPLINE
  5
185
100
AcDbEntity
  8
1
  6
CONTINUOUS
 62
             3
100
AcDbSpline
210
0.0
220
0.0
230
1.0
 70
             0
 71
             3
 72
            12
 73
             8
 74
            11
 42
0.00000000001
 43
0.00000000001
 44
0.00000000001
 40
0.0
 40
0.0
 40
0.0
 40
0.0
 40
0.5239431407868309
 40
0.8313640790765972
 40
1.1426701526318079
 40
1.4560688587676931
 40
3.6736118400094742
 40
3.6736118400094742
 40
3.6736118400094742
 40
3.6736118400094742
 10
10299.92886696188
 20
-735.02910297375524
 30
0.0
 10
10300.239977938079
 20
-734.86552592545945
 30
0.0
 10
10300.634340464199
 20
-734.44323416927341
 30
0.0
 10
10300.910657640419
 20
-733.72418463811141
 30
0.0
 10
10300.98291421236
 20
-733.10171884917986
 30
0.0
 10
10300.850479417461
 20
-731.20430541805104
 30
0.0
 10
10299.9744743171
 20
-729.63980398937497
 30
0.0
 10
10299.24669686776
 20
-728.39720808007428
 30
0.0
 11
10299.92886696188
 21
-735.02910297375524
 31
0.0
 11
10300.346825751214
 21
-734.71462981784998
 31
0.0
 11
10300.660264726404
 21
-734.29319147511706
 31
0.0
 11
10300.791767389783
 21
-734.01434679051783
 31
0.0
 11
10300.884622244695
 21
-733.72074563734543
 31
0.0
 11
10300.940930721128
 21
-733.41419771504411
 31
0.0
 11
10300.963498120795
 21
-733.10314991043322
 31
0.0
 11
10300.957215300159
 21
-732.78953416076945
 31
0.0
 11
10300.927579540798
 21
-732.47738250025475
 31
0.0
 11
10300.290464822474
 21
-730.35321707964522
 31
0.0
 11
10299.24669686776
 21
-728.39720808007428
 31
0.0
  0
SPLINE
  5
184
100
AcDbEntity
  8
1
  6
CONTINUOUS
 62
             3
100
AcDbSpline
210
0.0
220
0.0
230
1.0
 70
             0
 71
             3
 72
            12
 73
             8
 74
            11
 42
0.00000000001
 43
0.00000000001
 44
0.00000000001
 40
0.0
 40
0.0
 40
0.0
 40
0.0
 40
0.5239431407868309
 40
0.8313640790765972
 40
1.1426701526318079
 40
1.4560688587676931
 40
3.6736118400094742
 40
3.6736118400094742
 40
3.6736118400094742
 40
3.6736118400094742
 10
10333.7871343774
 20
-754.85280435450045
 30
0.0
 10
10333.986704089921
 20
-754.56346127078154
 30
0.0
 10
10334.139862926821
 20
-754.00633067565445
 30
0.0
 10
10334.05066854848
 20
-753.24119815574863
 30
0.0
 10
10333.82560197298
 20
-752.65636509652245
 30
0.0
 10
10332.8271950362
 20
-751.03744561361577
 30
0.0
 10
10331.32485194286
 20
-750.05866326496266
 30
0.0
 10
10330.10327069324
 20
-749.29613860292761
 30
0.0
 11
10333.7871343774
 21
-754.85280435450045
 31
0.0
 11
10334.011259563727
 21
-754.38020429501091
 31
0.0
 11
10334.093145825007
 21
-753.86140866269784
 31
0.0
 11
10334.080119989521
 21
-753.55338652677995
 31
0.0
 11
10334.026013643806
 21
-753.25024272496523
 31
0.0
 11
10333.933528277117
 21
-752.95260413517417
 31
0.0
 11
10333.809070919855
 21
-752.66664891052631
 31
0.0
 11
10333.65787024487
 21
-752.39181683787672
 31
0.0
 11
10333.486667237104
 21
-752.12912601670666
 31
0.0
 11
10331.935998415895
 21
-750.54374905669556
 31
0.0
 11
10330.10327069324
 21
-749.29613860292761
 31
0.0
  0
SPLINE
  5
183
100
AcDbEntity
  8
1
  6
CONTINUOUS
 62
             3
100
AcDbSpline
210
0.0
220
0.0
230
1.0
 70
             0
 71
             3
 72
            12
 73
             8
 74
            11
 42
0.00000000001
 43
0.00000000001
 44
0.00000000001
 40
0.0
 40
0.0
 40
0.0
 40
0.0
 40
0.5239431407868309
 40
0.8313640790765972
 40
1.1426701526318079
 40
1.4560688587676931
 40
3.6736118400094742
 40
3.6736118400094742
 40
3.6736118400094742
 40
3.6736118400094742
 10
10372.978963755821
 20
-756.68635795002569
 30
0.0
 10
10373.021345380679
 20
-756.33742917775385
 30
0.0
 10
10372.89826908812
 20
-755.77289011307062
 30
0.0
 10
10372.463964247339
 20
-755.1366804656916
 30
0.0
 10
10371.993053149159
 20
-754.72324678517202
 30
0.0
 10
10370.357035904981
 20
-753.75311056777832
 30
0.0
 10
10368.5719800602
 20
-753.58392047597204
 30
0.0
 10
10367.136002659519
 20
-753.47587643702786
 30
0.0
 11
10372.978963755821
 21
-756.68635795002569
 31
0.0
 11
10372.957992034719
 21
-756.16372700730858
 31
0.0
 11
10372.789596047925
 21
-755.66623624405338
 31
0.0
 11
10372.635021063563
 21
-755.39948939249916
 31
0.0
 11
10372.446329056613
 21
-755.1561398748546
 31
0.0
 11
10372.226203674183
 21
-754.93548836410616
 31
0.0
 11
10371.983188219599
 21
-754.74003117412678
 31
0.0
 11
10371.721653247572
 21
-754.56684407679927
 31
0.0
 11
10371.448041606476
 21
-754.41369837084858
 31
0.0
 11
10369.3384972845
 21
-753.72972713459819
 31
0.0
 11
10367.136002659519
 21
-753.47587643702786
 31
0.0
  0
SPLINE
  5
182
100
AcDbEntity
  8
1
  6
CONTINUOUS
 62
             3
100
AcDbSpline
210
0.0
220
0.0
230
1.0
 70
             0
 71
             3
 72
            12
 73
             8
 74
            11
 42
0.00000000001
 43
0.00000000001
 44
0.00000000001
 40
0.0
 40
0.0
 40
0.0
 40
0.0
 40
0.5239431407868309
 40
0.8313640790765972
 40
1.1426701526318079
 40
1.4560688587676931
 40
3.6736118400094742
 40
3.6736118400094742
 40
3.6736118400094742
 40
3.6736118400094742
 10
10408.540156508379
 20
-740.11038199596646
 30
0.0
 10
10408.415656257201
 20
-739.78167669071286
 30
0.0
 10
10408.04449560906
 20
-739.33885403702175
 30
0.0
 10
10407.364417205939
 20
-738.97708508345045
 30
0.0
 10
10406.75537129574
 20
-738.82961390038395
 30
0.0
 10
10404.855943767579
 20
-738.73015652849631
 30
0.0
 10
10403.19646422902
 20
-739.4092569019715
 30
0.0
 10
10401.87453634548
 20
-739.98040598963621
 30
0.0
 11
10408.540156508379
 21
-740.11038199596646
 31
0.0
 11
10408.278884662155
 21
-739.65725956467281
 31
0.0
 11
10407.898723003073
 21
-739.29486284716427
 31
0.0
 11
10407.637954220125
 21
-739.13040327630472
 31
0.0
 11
10407.357835359498
 21
-739.00250845565699
 31
0.0
 11
10407.060418405737
 21
-738.9093128076903
 31
0.0
 11
10406.75442885769
 21
-738.84905983462068
 31
0.0
 11
10406.442379491504
 21
-738.81713014097249
 31
0.0
 11
10406.1289413707
 21
-738.80855798710991
 31
0.0
 11
10403.943029625119
 21
-739.18243462309954
 31
0.0
 11
10401.87453634548
 21
-739.98040598963621
 31
0.0
  0
SPLINE
  5
181
100
AcDbEntity
  8
1
  6
CONTINUOUS
 62
             3
100
AcDbSpline
210
0.0
220
0.0
230
1.0
 70
             0
 71
             3
 72
             9
 73
             5
 74
             5
 42
0.00000000001
 43
0.00000000001
 44
0.00000000001
 40
0.0
 40
0.0
 40
0.0
 40
0.0
 40
8.8444469975108966
 40
18.450484713909908
 40
18.450484713909908
 40
18.450484713909908
 40
18.450484713909908
 10
10365.6492773706
 20
-598.74399693588452
 30
0.0
 10
10363.36438067698
 20
-604.18669571845862
 30
0.0
 10
10358.558004688261
 20
-615.48468652587394
 30
0.0
 10
10353.694436039719
 20
-626.82935152756932
 30
0.0
 10
10354.917449963639
 20
-633.75554029648151
 30
0.0
 11
10365.6492773706
 21
-598.74399693588452
 31
0.0
 11
10362.208356062998
 21
-606.89258572457061
 31
0.0
 11
10358.743257950566
 21
-615.02905833011198
 31
0.0
 11
10355.427976423534
 21
-624.00516130048834
 31
0.0
 11
10354.917449963639
 21
-633.75554029648151
 31
0.0
  0
SPLINE
  5
180
100
AcDbEntity
  8
1
  6
CONTINUOUS
 62
             3
100
AcDbSpline
210
0.0
220
0.0
230
1.0
 70
             0
 71
             3
 72
             9
 73
             5
 74
             5
 42
0.00000000001
 43
0.00000000001
 44
0.00000000001
 40
0.0
 40
0.0
 40
0.0
 40
0.0
 40
8.8444469975108966
 40
18.450484713909908
 40
18.450484713909908
 40
18.450484713909908
 40
18.450484713909908
 10
10328.703696336381
 20
-603.63454775256673
 30
0.0
 10
10329.2075792264
 20
-609.51585925353834
 30
0.0
 10
10330.19741811184
 20
-621.75375390132854
 30
0.0
 10
10331.15827955482
 20
-634.05954397296387
 30
0.0
 10
10335.4577982054
 20
-639.62569105097714
 30
0.0
 11
10328.703696336381
 21
-603.63454775256673
 31
0.0
 11
10329.440318023897
 21
-612.44912812724533
 31
0.0
 11
10330.149901347422
 21
-621.26420514883353
 31
0.0
 11
10331.382073964331
 21
-630.75331821489215
 31
0.0
 11
10335.4577982054
 21
-639.62569105097714
 31
0.0
  0
SPLINE
  5
17F
100
AcDbEntity
  8
1
  6
CONTINUOUS
 62
             3
100
AcDbSpline
210
0.0
220
0.0
230
1.0
 70
             0
 71
             3
 72
             9
 73
             5
 74
             5
 42
0.00000000001
 43
0.00000000001
 44
0.00000000001
 40
0.0
 40
0.0
 40
0.0
 40
0.0
 40
8.8444469975108966
 40
18.450484713909908
 40
18.450484713909908
 40
18.450484713909908
 40
18.450484713909908
 10
10298.2543927809
 20
-625.12252946871763
 30
0.0
 10
10301.431804030961
 20
-630.09724359983352
 30
0.0
 10
10307.99145569396
 20
-640.47591482931171
 30
0.0
 10
10314.556973032501
 20
-650.92817324924295
 30
0.0
 10
10320.949583804821
 20
-653.86115491202986
 30
0.0
 11
10298.2543927809
 21
-625.12252946871763
 31
0.0
 11
10303.000072776906
 21
-632.58697586933624
 31
0.0
 11
10307.722037232259
 21
-640.06441815075323
 31
0.0
 11
10313.219833820634
 21
-647.89613244655789
 31
0.0
 11
10320.949583804821
 21
-653.86115491202986
 31
0.0
  0
SPLINE
  5
17E
100
AcDbEntity
  8
1
  6
CONTINUOUS
 62
             3
100
AcDbSpline
210
0.0
220
0.0
230
1.0
 70
             0
 71
             3
 72
             9
 73
             5
 74
             5
 42
0.00000000001
 43
0.00000000001
 44
0.00000000001
 40
0.0
 40
0.0
 40
0.0
 40
0.0
 40
8.8444469975108966
 40
18.450484713909908
 40
18.450484713909908
 40
18.450484713909908
 40
18.450484713909908
 10
10299.24669686776
 20
-728.39720808007428
 30
0.0
 10
10304.57111455976
 20
-725.84881659143025
 30
0.0
 10
10315.67092943488
 20
-720.60096406228809
 30
0.0
 10
10326.844498386679
 20
-715.3562447295692
 30
0.0
 10
10330.533636250681
 20
-709.36808009079391
 30
0.0
 11
10299.24669686776
 21
-728.39720808007428
 31
0.0
 11
10307.233193867107
 21
-724.59519488026058
 31
0.0
 11
10315.229704065126
 21
-720.8183025012637
 31
0.0
 11
10323.672268870007
 21
-716.31445795980562
 31
0.0
 11
10330.533636250681
 21
-709.36808009079391
 31
0.0
  0
SPLINE
  5
17D
100
AcDbEntity
  8
1
  6
CONTINUOUS
 62
             3
100
AcDbSpline
210
0.0
220
0.0
230
1.0
 70
             0
 71
             3
 72
             9
 73
             5
 74
             5
 42
0.00000000001
 43
0.00000000001
 44
0.00000000001
 40
0.0
 40
0.0
 40
0.0
 40
0.0
 40
8.8444469975108966
 40
18.450484713909908
 40
18.450484713909908
 40
18.450484713909908
 40
18.450484713909908
 10
10330.10327069324
 20
-749.29613860292761
 30
0.0
 10
10333.635353507059
 20
-744.56664455655505
 30
0.0
 10
10341.028769775519
 20
-734.76443856450328
 30
0.0
 10
10348.4889603642
 20
-724.93075764733908
 30
0.0
 10
10348.975422707619
 20
-717.91426220380458
 30
0.0
 11
10330.10327069324
 21
-749.29613860292761
 31
0.0
 11
10335.410834326161
 21
-742.22017881116221
 31
0.0
 11
10340.738931583615
 21
-735.16181703206098
 31
0.0
 11
10346.124490382599
 21
-727.25250147627185
 31
0.0
 11
10348.975422707619
 21
-717.91426220380458
 31
0.0
  0
SPLINE
  5
17C
100
AcDbEntity
  8
1
  6
CONTINUOUS
 62
             3
100
AcDbSpline
210
0.0
220
0.0
230
1.0
 70
             0
 71
             3
 72
             9
 73
             5
 74
             5
 42
0.00000000001
 43
0.00000000001
 44
0.00000000001
 40
0.0
 40
0.0
 40
0.0
 40
0.0
 40
8.8444469975108966
 40
18.450484713909908
 40
18.450484713909908
 40
18.450484713909908
 40
18.450484713909908
 10
10367.136002659519
 20
-753.47587643702786
 30
0.0
 10
10368.067870680439
 20
-747.64703908041088
 30
0.0
 10
10370.063820261739
 20
-735.53250104966196
 30
0.0
 10
10372.10429136954
 20
-723.35907911259005
 30
0.0
 10
10369.27681150438
 20
-716.91910927315462
 30
0.0
 11
10367.136002659519
 21
-753.47587643702786
 31
0.0
 11
10368.55065401299
 21
-744.74442751715742
 31
0.0
 11
10369.991662838751
 21
-736.0190286750626
 31
0.0
 11
10371.088397180094
 21
-726.51330987410756
 31
0.0
 11
10369.27681150438
 21
-716.91910927315462
 31
0.0
  0
SPLINE
  5
17B
100
AcDbEntity
  8
1
  6
CONTINUOUS
 62
             3
100
AcDbSpline
210
0.0
220
0.0
230
1.0
 70
             0
 71
             3
 72
             9
 73
             5
 74
             5
 42
0.00000000001
 43
0.00000000001
 44
0.00000000001
 40
0.0
 40
0.0
 40
0.0
 40
0.0
 40
8.8444469975108966
 40
18.450484713909908
 40
18.450484713909908
 40
18.450484713909908
 40
18.450484713909908
 10
10401.87453634548
 20
-739.98040598963621
 30
0.0
 10
10399.993046933079
 20
-734.38543319887799
 30
0.0
 10
10396.1350038445
 20
-722.72947549664809
 30
0.0
 10
10392.289046248759
 20
-711.00069319959607
 30
0.0
 10
10386.79434292784
 20
-706.61023885684176
 30
0.0
 11
10401.87453634548
 21
-739.98040598963621
 31
0.0
 11
10399.072707577254
 21
-731.59057915914013
 31
0.0
 11
10396.297031484317
 21
-723.19387066017202
 31
0.0
 11
10392.854089478968
 21
-714.26595564679099
 31
0.0
 11
10386.79434292784
 21
-706.61023885684176
 31
0.0
  0
SPLINE
  5
17A
100
AcDbEntity
  8
1
  6
CONTINUOUS
 62
             3
100
AcDbSpline
210
0.0
220
0.0
230
1.0
 70
             0
 71
             3
 72
             9
 73
             5
 74
             5
 42
0.00000000001
 43
0.00000000001
 44
0.00000000001
 40
0.0
 40
0.0
 40
0.0
 40
0.0
 40
8.8444469975108966
 40
18.450484713909908
 40
18.450484713909908
 40
18.450484713909908
 40
18.450484713909908
 10
10426.37325860724
 20
-711.89649506561159
 30
0.0
 10
10422.10875770356
 20
-707.81510376106075
 30
0.0
 10
10413.27915751802
 20
-699.28374941413699
 30
0.0
 10
10404.426442522639
 20
-690.68228667744484
 30
0.0
 10
10397.52129841052
 20
-689.34555981247672
 30
0.0
 11
10426.37325860724
 21
-711.89649506561159
 31
0.0
 11
10419.995801391957
 21
-705.76726361628391
 31
0.0
 11
10413.638310252689
 21
-699.61979277018315
 31
0.0
 11
10406.443182976091
 21
-693.31172970677744
 31
0.0
 11
10397.52129841052
 21
-689.34555981247672
 31
0.0
  0
SPLINE
  5
179
100
AcDbEntity
  8
1
  6
CONTINUOUS
 62
             3
100
AcDbSpline
210
0.0
220
0.0
230
1.0
 70
             0
 71
             3
 72
            13
 73
             9
 74
            13
 42
0.00000000001
 43
0.00000000001
 44
0.00000000001
 40
0.0
 40
0.0
 40
0.0
 40
0.0
 40
4.4345888800800282
 40
5.8431899279388499
 40
7.5574917226688374
 40
9.4334756070504024
 40
10.98203382778369
 40
15.478943096655151
 40
15.478943096655151
 40
15.478943096655151
 40
15.478943096655151
 10
10390.26542717964
 20
-649.61569730621136
 30
0.0
 10
10392.867664241599
 20
-648.25126934766035
 30
0.0
 10
10396.2218016755
 20
-646.18134733993179
 30
0.0
 10
10400.9782856396
 20
-644.49866182282381
 30
0.0
 10
10404.19324478684
 20
-643.60782910137846
 30
0.0
 10
10407.56273222784
 20
-642.97889147669389
 30
0.0
 10
10412.728303346281
 20
-641.88249903154042
 30
0.0
 10
10416.67869941854
 20
-641.08212741976854
 30
0.0
 10
10419.612367334181
 20
-640.46524007101266
 30
0.0
 11
10390.26542717964
 21
-649.61569730621136
 31
0.0
 11
10394.156647540771
 21
-647.49535125142745
 31
0.0
 11
10398.145072287356
 21
-645.55229214599285
 31
0.0
 11
10399.459524025742
 21
-645.04628225971862
 31
0.0
 11
10400.794629298211
 21
-644.59496498438511
 31
0.0
 11
10402.438373479319
 21
-644.10583006003083
 31
0.0
 11
10404.09953807579
 21
-643.68233113366546
 31
0.0
 11
10405.933403754356
 21
-643.28799913901446
 31
0.0
 11
10407.773731810852
 21
-642.92235578203531
 31
0.0
 11
10409.290718841159
 21
-642.61096993229035
 31
0.0
 11
10410.806221257439
 21
-642.29296082785868
 31
0.0
 11
10415.20941271618
 21
-641.37962875394135
 31
0.0
 11
10419.612367334181
 21
-640.46524007101266
 31
0.0
  0
SPLINE
  5
178
100
AcDbEntity
  8
1
  6
CONTINUOUS
 62
             3
100
AcDbSpline
210
0.0
220
0.0
230
1.0
 70
             0
 71
             3
 72
             8
 73
             4
 74
             3
 42
0.00000000001
 43
0.00000000001
 44
0.00000000001
 40
0.0
 40
0.0
 40
0.0
 40
0.0
 40
6.7144404739856638
 40
6.7144404739856638
 40
6.7144404739856638
 40
6.7144404739856638
 10
10394.06691620184
 20
-645.2998428451167
 30
0.0
 10
10397.978757230199
 20
-643.10969005449101
 30
0.0
 10
10402.374276333499
 20
-641.88131090265483
 30
0.0
 10
10406.76334817582
 20
-641.08943843173506
 30
0.0
 11
10394.06691620184
 21
-645.2998428451167
 31
0.0
 11
10400.236170633594
 21
-642.67028551853616
 31
0.0
 11
10406.76334817582
 21
-641.08943843173506
 31
0.0
  0
SPLINE
  5
177
100
AcDbEntity
  8
1
  6
CONTINUOUS
 62
             3
100
AcDbSpline
210
0.0
220
0.0
230
1.0
 70
             0
 71
             3
 72
            12
 73
             8
 74
            11
 42
0.00000000001
 43
0.00000000001
 44
0.00000000001
 40
0.0
 40
0.0
 40
0.0
 40
0.0
 40
1.9829288172893089
 40
3.651961785891717
 40
5.0562071247685312
 40
5.9594237465770732
 40
8.1794031028428744
 40
8.1794031028428744
 40
8.1794031028428744
 40
8.1794031028428744
 10
10412.853178768901
 20
-630.63365523774087
 30
0.0
 10
10411.558813464
 20
-630.90233781378242
 30
0.0
 10
10409.17496278472
 20
-631.39690751745206
 30
0.0
 10
10405.87453217244
 20
-632.08248388556854
 30
0.0
 10
10403.2787883536
 20
-632.61990443245554
 30
0.0
 10
10400.323687644061
 20
-633.23765892552933
 30
0.0
 10
10398.32764600124
 20
-633.84367711642813
 30
0.0
 10
10396.91884859196
 20
-634.29587177485723
 30
0.0
 11
10412.853178768901
 21
-630.63365523774087
 31
0.0
 11
10410.91162649593
 21
-631.03661201299644
 31
0.0
 11
10408.970075912432
 21
-631.43959505179873
 31
0.0
 11
10407.335878499183
 21
-631.77889355826881
 31
0.0
 11
10405.701671182307
 21
-632.11798632622254
 31
0.0
 11
10404.326713446513
 21
-632.40304709798602
 31
0.0
 11
10402.951784795379
 21
-632.68872685046119
 31
0.0
 11
10402.067903427469
 21
-632.87506730227256
 31
0.0
 11
10401.186704359538
 21
-633.07303417365426
 31
0.0
 11
10399.04097631305
 21
-633.6423360840306
 31
0.0
 11
10396.91884859196
 21
-634.29587177485723
 31
0.0
  0
SPLINE
  5
176
100
AcDbEntity
  8
1
  6
CONTINUOUS
 62
             3
100
AcDbSpline
210
0.0
220
0.0
230
1.0
 70
             0
 71
             3
 72
            10
 73
             6
 74
             9
 42
0.00000000001
 43
0.00000000001
 44
0.00000000001
 40
0.0
 40
0.0
 40
0.0
 40
0.0
 40
2.5944329631397149
 40
4.0170283679993952
 40
12.529932486605979
 40
12.529932486605979
 40
12.529932486605979
 40
12.529932486605979
 10
10390.024075871061
 20
-639.52606848508481
 30
0.0
 10
10391.53794913212
 20
-638.69322559079023
 30
0.0
 10
10393.92050217922
 20
-637.45018356920195
 30
0.0
 10
10401.793149897379
 20
-634.62390198714161
 30
0.0
 10
10408.4302700301
 20
-633.6979920106794
 30
0.0
 10
10425.49074759922
 20
-630.05016252119708
 30
0.0
 11
10390.024075871061
 21
-639.52606848508481
 31
0.0
 11
10392.31783198499
 21
-638.3131316859043
 31
0.0
 11
10394.674506941796
 21
-637.22812019579965
 31
0.0
 11
10396.000744301771
 21
-636.71318777154568
 31
0.0
 11
10397.346346668031
 21
-636.2501717201477
 31
0.0
 11
10401.621692406035
 21
-635.05238383468372
 31
0.0
 11
10407.044790490239
 21
-633.85853653915149
 31
0.0
 11
10414.654766896136
 21
-632.31050453437967
 31
0.0
 11
10425.49074759922
 21
-630.05016252119708
 31
0.0
  0
SPLINE
  5
175
100
AcDbEntity
  8
1
  6
CONTINUOUS
 62
             3
100
AcDbSpline
210
0.0
220
0.0
230
1.0
 70
             0
 71
             3
 72
             8
 73
             4
 74
             3
 42
0.00000000001
 43
0.00000000001
 44
0.00000000001
 40
17.125587512203762
 40
17.125587512203762
 40
17.125587512203762
 40
17.125587512203762
 40
20.476272849351201
 40
20.476272849351201
 40
20.476272849351201
 40
20.476272849351201
 10
10402.507235895861
 20
-690.98167928947055
 30
0.0
 10
10400.336132341539
 20
-691.50592892121699
 30
0.0
 10
10398.22581943604
 20
-692.32001795729843
 30
0.0
 10
10396.1282947855
 20
-693.03619216900483
 30
0.0
 11
10402.507235895861
 21
-690.98167928947055
 31
0.0
 11
10399.290173251764
 21
-691.93696401175271
 31
0.0
 11
10396.1282947855
 21
-693.03619216900483
 31
0.0
  0
SPLINE
  5
174
100
AcDbEntity
  8
1
  6
CONTINUOUS
 62
             3
100
AcDbSpline
210
0.0
220
0.0
230
1.0
 70
             0
 71
             3
 72
            18
 73
            14
 74
            23
 42
0.00000000001
 43
0.00000000001
 44
0.00000000001
 40
1.5272324099944361
 40
1.5272324099944361
 40
1.5272324099944361
 40
1.5272324099944361
 40
2.3269882542241489
 40
3.7285281950751932
 40
5.0861358929371399
 40
6.2581818023094851
 40
7.3819135188808058
 40
8.9017223411339881
 40
10.15591093139173
 40
11.818817030115261
 40
13.26126616322626
 40
15.172544979313811
 40
16.22117580877649
 40
16.22117580877649
 40
16.22117580877649
 40
16.22117580877649
 10
10342.41094520992
 20
-745.03621792919535
 30
0.0
 10
10342.931372927
 20
-744.92017977320006
 30
0.0
 10
10344.360315333999
 20
-744.58533575382739
 30
0.0
 10
10346.647926093599
 20
-743.95033170069087
 30
0.0
 10
10349.1166359502
 20
-743.05956016502319
 30
0.0
 10
10351.31781597334
 20
-742.0072087140386
 30
0.0
 10
10353.492103521719
 20
-740.67918578810963
 30
0.0
 10
10355.516839104161
 20
-739.02795428255536
 30
0.0
 10
10357.47552360694
 20
-736.79981980842717
 30
0.0
 10
10358.9535979022
 20
-734.25209691556597
 30
0.0
 10
10359.655521881579
 20
-730.91458539143264
 30
0.0
 10
10359.062512853199
 20
-727.96030638732077
 30
0.0
 10
10358.27472408754
 20
-726.14699669359857
 30
0.0
 10
10357.960380495721
 20
-725.52293326876384
 30
0.0
 11
10342.41094520992
 21
-745.03621792919535
 31
0.0
 11
10343.190558182416
 21
-744.85769588827986
 31
0.0
 11
10343.967829506237
 21
-744.66922848199761
 31
0.0
 11
10345.322805190572
 21
-744.31038025674854
 31
0.0
 11
10346.665624609617
 21
-743.90820390722286
 31
0.0
 11
10347.950783391967
 21
-743.46932645316917
 31
0.0
 11
10349.214603596063
 21
-742.97273569726497
 31
0.0
 11
10350.283509497107
 21
-742.49104098336659
 31
0.0
 11
10351.327382823047
 21
-741.95738827263767
 31
0.0
 11
10352.300620829617
 21
-741.395078148023
 31
0.0
 11
10353.242336747748
 21
-740.78093455506462
 31
0.0
 11
10354.456965288869
 21
-739.86477270845285
 31
0.0
 11
10355.589861197986
 21
-738.85002689793623
 31
0.0
 11
10356.452163581989
 21
-737.93870842664069
 31
0.0
 11
10357.239871503847
 21
-736.96073547778599
 31
0.0
 11
10358.148347123419
 21
-735.56222217528466
 31
0.0
 11
10358.851026405408
 21
-734.05123265842542
 31
0.0
 11
10359.249209616681
 21
-732.65873828410372
 31
0.0
 11
10359.419547595124
 21
-731.22290777197782
 31
0.0
 11
10359.274823573647
 21
-729.31353597455893
 31
0.0
 11
10358.784081799033
 21
-727.45354044133705
 31
0.0
 11
10358.403761934132
 21
-726.47321262416244
 31
0.0
 11
10357.960380495721
 21
-725.52293326876384
 31
0.0
  0
SPLINE
  5
173
100
AcDbEntity
  8
1
  6
CONTINUOUS
 62
             3
100
AcDbSpline
210
0.0
220
0.0
230
1.0
 70
             0
 71
             3
 72
             8
 73
             4
 74
             3
 42
0.00000000001
 43
0.00000000001
 44
0.00000000001
 40
12.432072550414469
 40
12.432072550414469
 40
12.432072550414469
 40
12.432072550414469
 40
14.29916665356018
 40
14.29916665356018
 40
14.29916665356018
 40
14.29916665356018
 10
10314.9140392188
 20
-694.80343372719858
 30
0.0
 10
10315.884499407401
 20
-694.0239993786488
 30
0.0
 10
10316.859961979901
 20
-693.25097434115537
 30
0.0
 10
10317.85960171206
 20
-692.50853930898279
 30
0.0
 11
10314.9140392188
 21
-694.80343372719858
 31
0.0
 11
10316.375878136594
 21
-693.64211177444918
 31
0.0
 11
10317.85960171206
 21
-692.50853930898279
 31
0.0
  0
SPLINE
  5
172
100
AcDbEntity
  8
1
  6
CONTINUOUS
 62
             3
100
AcDbSpline
210
0.0
220
0.0
230
1.0
 70
             0
 71
             3
 72
            14
 73
            10
 74
            20
 42
0.00000000001
 43
0.00000000001
 44
0.00000000001
 40
4.3324557744729173
 40
4.3324557744729173
 40
4.3324557744729173
 40
4.3324557744729173
 40
4.4561465529582893
 40
6.7907849268563361
 40
8.7123853831413349
 40
10.84496157914824
 40
13.074900040921779
 40
17.408481403808452
 40
21.976279994883161
 40
21.976279994883161
 40
21.976279994883161
 40
21.976279994883161
 10
10357.954760373579
 20
-602.44962177669436
 30
0.0
 10
10357.928498330841
 20
-602.52777804621223
 30
0.0
 10
10357.407305193599
 20
-604.08135534630469
 30
0.0
 10
10356.50762332448
 20
-606.85835839498191
 30
0.0
 10
10355.06806784386
 20
-610.87314539778595
 30
0.0
 10
10353.18494178718
 20
-614.62201356571427
 30
0.0
 10
10350.45641964228
 20
-619.73813697283299
 30
0.0
 10
10347.2289190512
 20
-626.40282314959063
 30
0.0
 10
10344.90430356706
 20
-631.92957225259329
 30
0.0
 10
10345.886712915721
 20
-635.20667219565553
 30
0.0
 11
10357.954760373579
 21
-602.44962177669436
 31
0.0
 11
10357.915396332917
 21
-602.5668652488157
 31
0.0
 11
10357.8760917692
 21
-602.68412731112983
 31
0.0
 11
10357.140760360697
 21
-604.89956575502356
 31
0.0
 11
10356.39727903092
 21
-607.11303894183311
 31
0.0
 11
10355.75445758653
 21
-608.92500552130377
 31
0.0
 11
10355.047896732305
 21
-610.71156095324011
 31
0.0
 11
10354.160442325905
 21
-612.65006892785414
 31
0.0
 11
10353.199419142164
 21
-614.55534236298217
 31
0.0
 11
10352.166225363831
 21
-616.53243490467401
 31
0.0
 11
10351.13451071722
 21
-618.50839882219952
 31
0.0
 11
10349.197710051347
 21
-622.38016843908554
 31
0.0
 11
10347.357581847209
 21
-626.30932940937328
 31
0.0
 11
10346.827693471872
 21
-627.50685326058124
 31
0.0
 11
10346.342941170522
 21
-628.71754188214709
 31
0.0
 11
10345.940196147225
 21
-629.94820143550805
 31
0.0
 11
10345.656329606032
 21
-631.2056380821017
 31
0.0
 11
10345.528212751013
 21
-632.49665798336594
 31
0.0
 11
10345.592716786223
 21
-633.8280673007381
 31
0.0
 11
10345.886712915721
 21
-635.20667219565553
 31
0.0
  0
SPLINE
  5
171
100
AcDbEntity
  8
1
  6
CONTINUOUS
 62
             3
100
AcDbSpline
210
0.0
220
0.0
230
1.0
 70
             0
 71
             3
 72
            13
 73
             9
 74
            13
 42
0.00000000001
 43
0.00000000001
 44
0.00000000001
 40
6.5008015000325274
 40
6.5008015000325274
 40
6.5008015000325274
 40
6.5008015000325274
 40
7.3819135188808058
 40
8.9017223411339881
 40
10.15591093139173
 40
11.818817030115261
 40
13.26126616322626
 40
13.56313521128072
 40
13.56313521128072
 40
13.56313521128072
 40
13.56313521128072
 10
10322.92489168562
 20
-620.0437917191764
 30
0.0
 10
10322.684074495441
 20
-620.57978919553375
 30
0.0
 10
10322.087169443919
 20
-622.06696858132614
 30
0.0
 10
10321.461241467439
 20
-624.4357191724755
 30
0.0
 10
10321.186297002059
 20
-627.38960369243728
 30
0.0
 10
10321.48802372162
 20
-630.31954508226295
 30
0.0
 10
10322.43472088926
 20
-632.43363448119794
 30
0.0
 10
10323.1240265702
 20
-633.37373131633353
 30
0.0
 10
10323.24882781952
 20
-633.53223117508855
 30
0.0
 11
10322.92489168562
 21
-620.0437917191764
 31
0.0
 11
10322.580392763994
 21
-620.8550590764429
 31
0.0
 11
10322.27097657577
 21
-621.68060939981501
 31
0.0
 11
10321.826827866309
 21
-623.13574064680392
 31
0.0
 11
10321.506748445221
 21
-624.62258676024305
 31
0.0
 11
10321.344790719835
 21
-625.86670751514418
 31
0.0
 11
10321.282359700917
 21
-627.12090735039226
 31
0.0
 11
10321.369412980057
 21
-628.78631695022773
 31
0.0
 11
10321.689070853718
 21
-630.42175766673211
 31
0.0
 11
10322.185421526048
 21
-631.78235549942531
 31
0.0
 11
10322.891575206513
 21
-633.0440889364113
 31
0.0
 11
10323.065836484122
 21
-633.29132910369799
 31
0.0
 11
10323.24882781952
 21
-633.53223117508855
 31
0.0
  0
SPLINE
  5
170
100
AcDbEntity
  8
1
  6
CONTINUOUS
 62
             3
100
AcDbSpline
210
0.0
220
0.0
230
1.0
 70
             0
 71
             3
 72
            11
 73
             7
 74
             9
 42
0.00000000001
 43
0.00000000001
 44
0.00000000001
 40
6.2557870222016492
 40
6.2557870222016492
 40
6.2557870222016492
 40
6.2557870222016492
 40
7.0776649385475521
 40
9.0783801806749658
 40
11.276130702390519
 40
14.29916665356018
 40
14.29916665356018
 40
14.29916665356018
 40
14.29916665356018
 10
10384.53317158784
 20
-624.78754090262032
 30
0.0
 10
10384.24574774366
 20
-625.25436953086933
 30
0.0
 10
10383.312428891501
 20
-626.89059977343709
 30
0.0
 10
10382.0635612925
 20
-630.01178922361782
 30
0.0
 10
10380.74402533538
 20
-634.64228638585814
 30
0.0
 10
10379.87286194318
 20
-638.01249186331802
 30
0.0
 10
10379.270012545579
 20
-639.9363476733331
 30
0.0
 11
10384.53317158784
 21
-624.78754090262032
 31
0.0
 11
10384.114274271251
 21
-625.49504460782532
 31
0.0
 11
10383.72182274897
 21
-626.21729448585063
 31
0.0
 11
10382.881515341318
 21
-628.03327134044434
 31
0.0
 11
10382.175537544408
 21
-629.90788359688554
 31
0.0
 11
10381.508524849165
 21
-632.00258153903724
 31
0.0
 11
10380.909496207787
 21
-634.11710784331842
 31
0.0
 11
10380.11624895442
 21
-637.03424641635877
 31
0.0
 11
10379.270012545579
 21
-639.9363476733331
 31
0.0
  0
SPLINE
  5
16F
100
AcDbEntity
  8
1
  6
CONTINUOUS
 62
             3
100
AcDbSpline
210
0.0
220
0.0
230
1.0
 70
             0
 71
             3
 72
             8
 73
             4
 74
             3
 42
0.00000000001
 43
0.00000000001
 44
0.00000000001
 40
5.2547945137979397
 40
5.2547945137979397
 40
5.2547945137979397
 40
5.2547945137979397
 40
5.9480573439278732
 40
5.9480573439278732
 40
5.9480573439278732
 40
5.9480573439278732
 10
10390.776957534559
 20
-612.55763516230695
 30
0.0
 10
10390.4446615058
 20
-612.87875922145236
 30
0.0
 10
10390.11241366264
 20
-613.19996322858674
 30
0.0
 10
10389.779426405719
 20
-613.52048608995369
 30
0.0
 11
10390.776957534559
 21
-612.55763516230695
 31
0.0
 11
10390.278451180699
 21
-613.03928607529713
 31
0.0
 11
10389.779426405719
 21
-613.52048608995369
 31
0.0
  0
SPLINE
  5
16E
100
AcDbEntity
  8
1
  6
CONTINUOUS
 62
             3
100
AcDbSpline
210
0.0
220
0.0
230
1.0
 70
             0
 71
             3
 72
            13
 73
             9
 74
            14
 42
0.00000000001
 43
0.00000000001
 44
0.00000000001
 40
5.9480573439278732
 40
5.9480573439278732
 40
5.9480573439278732
 40
5.9480573439278732
 40
6.7907849268563361
 40
8.7123853831413349
 40
10.84496157914824
 40
13.074900040921779
 40
17.408481403808452
 40
21.976279994883161
 40
21.976279994883161
 40
21.976279994883161
 40
21.976279994883161
 10
10389.779426405719
 20
-613.52048608995369
 30
0.0
 10
10389.37464839948
 20
-613.91011242572972
 30
0.0
 10
10388.04330532476
 20
-615.18486917892164
 30
0.0
 10
10385.637089166161
 20
-617.39781049986345
 30
0.0
 10
10382.228429884321
 20
-619.84346341599007
 30
0.0
 10
10377.436132847681
 20
-623.10742434174449
 30
0.0
 10
10371.48280300194
 20
-627.51113478269303
 30
0.0
 10
10366.857534906279
 20
-631.32632650003893
 30
0.0
 10
10366.20577847282
 20
-634.68485679119135
 30
0.0
 11
10389.779426405719
 21
-613.52048608995369
 31
0.0
 11
10389.171263095936
 21
-614.10399982039075
 31
0.0
 11
10388.560399820832
 21
-614.68497844531669
 31
0.0
 11
10387.149655307981
 21
-615.99121051273642
 31
0.0
 11
10385.694261209921
 21
-617.2453383257706
 31
0.0
 11
10384.008097630689
 21
-618.55003786020131
 31
0.0
 11
10382.272212229887
 21
-619.79113990982296
 31
0.0
 11
10380.439058646616
 21
-621.06233314539259
 31
0.0
 11
10378.607739145647
 21
-622.3332137065687
 31
0.0
 11
10375.094470872447
 21
-624.8627873516939
 31
0.0
 11
10371.640167993755
 21
-627.48808149908712
 31
0.0
 11
10369.305354536142
 21
-629.44333010894593
 31
0.0
 11
10367.368997591086
 21
-631.74422505214056
 31
0.0
 11
10366.20577847282
 21
-634.68485679119135
 31
0.0
  0
SPLINE
  5
16D
100
AcDbEntity
  8
1
  6
CONTINUOUS
 62
             3
100
AcDbSpline
210
0.0
220
0.0
230
1.0
 70
             0
 71
             3
 72
            14
 73
            10
 74
            15
 42
0.00000000001
 43
0.00000000001
 44
0.00000000001
 40
1.4430964806645521
 40
1.4430964806645521
 40
1.4430964806645521
 40
1.4430964806645521
 40
4.4561465529582893
 40
6.7907849268563361
 40
8.7123853831413349
 40
10.84496157914824
 40
13.074900040921779
 40
17.408481403808452
 40
21.976279994883161
 40
21.976279994883161
 40
21.976279994883161
 40
21.976279994883161
 10
10430.105677397099
 20
-707.0856173567347
 30
0.0
 10
10428.56023537944
 20
-705.80232955146198
 30
0.0
 10
10425.83723630498
 20
-703.50008373912465
 30
0.0
 10
10422.06793475636
 20
-700.45635139836781
 30
0.0
 10
10418.83424215848
 20
-697.67533236894565
 30
0.0
 10
10416.007600672279
 20
-694.57528814436068
 30
0.0
 10
10412.20680965192
 20
-690.19652811078254
 30
0.0
 10
10407.13859431162
 20
-684.79763978407777
 30
0.0
 10
10402.80982443758
 20
-680.64908049507153
 30
0.0
 10
10399.39818982332
 20
-680.39361733934516
 30
0.0
 11
10430.105677397099
 21
-707.0856173567347
 31
0.0
 11
10427.792547530682
 21
-705.15452279741305
 31
0.0
 11
10425.475951688211
 21
-703.22805333362476
 31
0.0
 11
10423.670406024432
 21
-701.74856536981588
 31
0.0
 11
10421.869612141028
 21
-700.26217059521719
 31
0.0
 11
10420.407708188011
 21
-699.01345960918843
 31
0.0
 11
10418.992343351145
 21
-697.71432492384554
 31
0.0
 11
10417.499828119418
 21
-696.19189700300558
 31
0.0
 11
10416.064674961419
 21
-694.61266686291458
 31
0.0
 11
10414.588287770181
 21
-692.94034357970679
 31
0.0
 11
10413.112425101712
 21
-691.26980537325596
 31
0.0
 11
10410.190231202469
 21
-688.07565766208461
 31
0.0
 11
10407.179850045857
 21
-684.95124043162741
 31
0.0
 11
10403.762624024952
 21
-681.95323973654456
 31
0.0
 11
10399.39818982332
 21
-680.39361733934516
 31
0.0
  0
SPLINE
  5
16C
100
AcDbEntity
  8
1
  6
CONTINUOUS
 62
             3
100
AcDbSpline
210
0.0
220
0.0
230
1.0
 70
             0
 71
             3
 72
             9
 73
             5
 74
             6
 42
0.00000000001
 43
0.00000000001
 44
0.00000000001
 40
1.1766618562898279
 40
1.1766618562898279
 40
1.1766618562898279
 40
1.1766618562898279
 40
1.4560688587676931
 40
3.6736118400094742
 40
3.6736118400094742
 40
3.6736118400094742
 40
3.6736118400094742
 10
10430.10567739932
 20
-708.65160006050132
 30
0.0
 10
10429.93092419122
 20
-708.71682973688689
 30
0.0
 10
10428.41761091608
 20
-709.42315426343998
 30
0.0
 10
10427.2787774192
 20
-710.77678961738934
 30
0.0
 10
10426.37325860724
 20
-711.89649506561159
 30
0.0
 11
10430.10567739932
 21
-708.65160006050132
 31
0.0
 11
10429.847517768341
 21
-708.75908745761842
 31
0.0
 11
10429.596935774365
 21
-708.88300947881692
 31
0.0
 11
10428.381611999956
 21
-709.7228448241234
 31
0.0
 11
10427.321088555682
 21
-710.77126652732613
 31
0.0
 11
10426.37325860724
 21
-711.89649506561159
 31
0.0
  0
SPLINE
  5
16B
100
AcDbEntity
  8
1
  6
CONTINUOUS
 62
             3
100
AcDbSpline
210
0.0
220
0.0
230
1.0
 70
             0
 71
             3
 72
            14
 73
            10
 74
            15
 42
0.00000000001
 43
0.00000000001
 44
0.00000000001
 40
2.4802567546071721
 40
2.4802567546071721
 40
2.4802567546071721
 40
2.4802567546071721
 40
4.4561465529582893
 40
6.7907849268563361
 40
8.7123853831413349
 40
10.84496157914824
 40
13.074900040921779
 40
17.408481403808452
 40
21.976279994883161
 40
21.976279994883161
 40
21.976279994883161
 40
21.976279994883161
 10
10284.105677396919
 20
-701.56864905433872
 30
0.0
 10
10285.422430299601
 20
-701.52862288303572
 30
0.0
 10
10288.2950442979
 20
-701.44403188064439
 30
0.0
 10
10292.4438795889
 20
-701.24627829695032
 30
0.0
 10
10296.70835982274
 20
-701.17526424977882
 30
0.0
 10
10300.88070126502
 20
-701.61314913734645
 30
0.0
 10
10306.63075226518
 20
-702.35911516054989
 30
0.0
 10
10314.005801432621
 20
-703.02503683613099
 30
0.0
 10
10319.9973814841
 20
-703.24810920849836
 30
0.0
 10
10322.71639304352
 20
-701.17169684460055
 30
0.0
 11
10284.105677396919
 21
-701.56864905433872
 31
0.0
 11
10286.080737289712
 21
-701.50802082260225
 31
0.0
 11
10288.055332942335
 21
-701.4401064592829
 31
0.0
 11
10290.387705868165
 21
-701.34568022417056
 31
0.0
 11
10292.721118294377
 21
-701.25957281655724
 31
0.0
 11
10294.643346377543
 21
-701.22108267781005
 31
0.0
 11
10296.56431008413
 21
-701.25119895375383
 31
0.0
 11
10298.691317878634
 21
-701.3968915520062
 31
0.0
 11
10300.813213210738
 21
-701.62314941785007
 31
0.0
 11
10303.027787076882
 21
-701.89156494161944
 31
0.0
 11
10305.24078268626
 21
-702.15899520972425
 31
0.0
 11
10309.547061809169
 21
-702.60369387309197
 31
0.0
 11
10313.872894694436
 21
-702.93768127831106
 31
0.0
 11
10318.418715840655
 21
-702.90682755501598
 31
0.0
 11
10322.71639304352
 21
-701.17169684460055
 31
0.0
  0
SPLINE
  5
16A
100
AcDbEntity
  8
1
  6
CONTINUOUS
 62
             3
100
AcDbSpline
210
0.0
220
0.0
230
1.0
 70
             0
 71
             3
 72
             9
 73
             5
 74
             5
 42
0.00000000001
 43
0.00000000001
 44
0.00000000001
 40
1.2407907217369121
 40
1.2407907217369121
 40
1.2407907217369121
 40
1.2407907217369121
 40
8.8444469975108966
 40
18.450484713909908
 40
18.450484713909908
 40
18.450484713909908
 40
18.450484713909908
 10
10284.10567739718
 20
-695.65151890887114
 30
0.0
 10
10289.173154677441
 20
-695.84314784237154
 30
0.0
 10
10300.619576209119
 20
-696.31820896700924
 30
0.0
 10
10312.1215611882
 20
-696.82548240961455
 30
0.0
 10
10318.16957205172
 20
-693.2352987770671
 30
0.0
 11
10284.10567739718
 21
-695.65151890887114
 31
0.0
 11
10291.701890847922
 21
-695.95116362684826
 31
0.0
 11
10299.298609208401
 21
-696.26922279646965
 31
0.0
 11
10308.867144170403
 21
-696.20099656082527
 31
0.0
 11
10318.16957205172
 21
-693.2352987770671
 31
0.0
  0
SPLINE
  5
169
100
AcDbEntity
  8
1
  6
CONTINUOUS
 62
             3
100
AcDbSpline
210
0.0
220
0.0
230
1.0
 70
             0
 71
             3
 72
             9
 73
             5
 74
             5
 42
0.00000000001
 43
0.00000000001
 44
0.00000000001
 40
1.635400017674866
 40
1.635400017674866
 40
1.635400017674866
 40
1.635400017674866
 40
8.8444469975108966
 40
18.450484713909908
 40
18.450484713909908
 40
18.450484713909908
 40
18.450484713909908
 10
10284.10567739728
 20
-659.92015918016727
 30
0.0
 10
10288.274680344981
 20
-662.31329070914057
 30
0.0
 10
10297.964826539341
 20
-667.91918226878329
 30
0.0
 10
10307.68767039126
 20
-673.5769417175718
 30
0.0
 10
10314.71121565268
 20
-673.20590818599999
 30
0.0
 11
10284.10567739728
 21
-659.92015918016727
 31
0.0
 11
10290.350811106195
 21
-663.51745708471356
 31
0.0
 11
10296.589505957976
 21
-667.1295958725641
 31
0.0
 11
10305.095436341924
 21
-671.5125930710218
 31
0.0
 11
10314.71121565268
 21
-673.20590818599999
 31
0.0
  0
SPLINE
  5
168
100
AcDbEntity
  8
1
  6
CONTINUOUS
 62
             3
100
AcDbSpline
210
0.0
220
0.0
230
1.0
 70
             0
 71
             3
 72
            14
 73
            10
 74
            22
 42
0.00000000001
 43
0.00000000001
 44
0.00000000001
 40
4.3868114245653018
 40
4.3868114245653018
 40
4.3868114245653018
 40
4.3868114245653018
 40
4.4561465529582893
 40
6.7907849268563361
 40
8.7123853831413349
 40
10.84496157914824
 40
13.074900040921779
 40
17.408481403808452
 40
21.976279994883161
 40
21.976279994883161
 40
21.976279994883161
 40
21.976279994883161
 10
10284.10567739714
 20
-666.42824725306878
 30
0.0
 10
10284.1473791801
 20
-666.44817239715462
 30
0.0
 10
10285.59344069974
 20
-667.13860240964209
 30
0.0
 10
10288.20746747574
 20
-668.35427154125978
 30
0.0
 10
10292.0172258982
 20
-670.2717113504857
 30
0.0
 10
10295.509061138921
 20
-672.59706356843003
 30
0.0
 10
10300.25510795178
 20
-675.92791803273508
 30
0.0
 10
10306.4774839614
 20
-679.94249630385343
 30
0.0
 10
10311.680258325599
 20
-682.92241773100454
 30
0.0
 10
10315.05255631342
 20
-682.34612054518425
 30
0.0
 11
10284.10567739714
 21
-666.42824725306878
 31
0.0
 11
10284.168234117422
 21
-666.45812602856722
 31
0.0
 11
10284.230799039507
 21
-666.4879866825338
 31
0.0
 11
10286.340284058888
 21
-667.48746291138127
 31
0.0
 11
10288.44682661443
 21
-668.49478932229999
 31
0.0
 11
10290.167096714378
 21
-669.35334221973744
 31
0.0
 11
10291.85438769931
 21
-670.27206834010531
 31
0.0
 11
10293.670487783933
 21
-671.38883553773496
 31
0.0
 11
10295.4446473139
 21
-672.5745801917451
 31
0.0
 11
10297.281309267637
 21
-673.84069913154076
 31
0.0
 11
10299.117030990388
 21
-675.10521258422921
 31
0.0
 11
10302.724322212463
 21
-677.49879709803554
 31
0.0
 11
10306.400342883848
 21
-679.80341198162569
 31
0.0
 11
10307.273464173919
 21
-680.32830666278198
 31
0.0
 11
10308.15630164287
 21
-680.83187735676722
 31
0.0
 11
10309.054145045215
 21
-681.29729453943025
 31
0.0
 11
10309.972284135474
 21
-681.70772868662027
 31
0.0
 11
10310.916008668153
 21
-682.04635027418578
 31
0.0
 11
10311.890608397774
 21
-682.2963297779761
 31
0.0
 11
10312.90137307885
 21
-682.44083767384006
 31
0.0
 11
10313.953592465892
 21
-682.46304443762642
 31
0.0
 11
10315.05255631342
 21
-682.34612054518425
 31
0.0
  0
CIRCLE
  5
167
100
AcDbEntity
  8
1
  6
CONTINUOUS
 62
             3
100
AcDbCircle
 10
10357.105677397099
 20
-676.19916950793981
 40
42.5
  0
CIRCLE
  5
166
100
AcDbEntity
  8
1
  6
DASHED
 62
             1
100
AcDbCircle
 10
10357.105677397099
 20
-676.19916950793981
 40
80.9999999990996
  0
CIRCLE
  5
165
100
AcDbEntity
  8
1
  6
CONTINUOUS
 62
             3
100
AcDbCircle
 10
10290.351456119461
 20
-722.0780746983412
 40
2.25
  0
CIRCLE
  5
164
100
AcDbEntity
  8
1
  6
CONTINUOUS
 62
             3
100
AcDbCircle
 10
10357.105677397099
 20
-757.19916950704032
 40
2.24999999999939
  0
CIRCLE
  5
163
100
AcDbEntity
  8
1
  6
CONTINUOUS
 62
             3
100
AcDbCircle
 10
10423.85989867474
 20
-722.07807469834302
 40
2.25000000000154
  0
CIRCLE
  5
162
100
AcDbEntity
  8
1
  6
CONTINUOUS
 62
             3
100
AcDbCircle
 10
10357.105677397099
 20
-595.1991695088393
 40
2.24999999999939
  0
ARC
  5
161
100
AcDbEntity
  8
1
  6
CONTINUOUS
 62
             3
100
AcDbCircle
 10
10489.08593116976
 20
-676.19916950793981
 40
42.88463706140065
100
AcDbArc
 50
-46.07115779045434
 51
46.07115779045476
  0
ARC
  5
160
100
AcDbEntity
  8
1
  6
CONTINUOUS
 62
             3
100
AcDbCircle
 10
10356.140379586281
 20
-672.83688081301921
 40
68.19105625964727
100
AcDbArc
 50
90.85366725236408
 51
112.00525713207145
  0
ARC
  5
15F
100
AcDbEntity
  8
1
  6
CONTINUOUS
 62
             3
100
AcDbCircle
 10
10357.105677397099
 20
-676.19916950793981
 40
71.99999999914411
100
AcDbArc
 50
91.49016987897718
 51
112.82807498732626
  0
ARC
  5
15E
100
AcDbEntity
  8
1
  6
CONTINUOUS
 62
             3
100
AcDbCircle
 10
10357.10567739756
 20
-676.19916950776701
 40
71.99999999895658
100
AcDbArc
 50
63.8001698789426
 51
85.13807498734911
  0
ARC
  5
15D
100
AcDbEntity
  8
1
  6
CONTINUOUS
 62
             3
100
AcDbCircle
 10
10353.60965739596
 20
-676.07821793436801
 40
68.19105625962804
100
AcDbArc
 50
174.38915171691136
 51
-175.99474286794199
  0
ARC
  5
15C
100
AcDbEntity
  8
1
  6
CONTINUOUS
 62
             3
100
AcDbCircle
 10
10359.862923439519
 20
-678.3519303848509
 40
68.19105625965823
100
AcDbArc
 50
-47.53743663348835
 51
-31.99474286793986
  0
ARC
  5
15B
100
AcDbEntity
  8
1
  6
CONTINUOUS
 62
             3
100
AcDbCircle
 10
10357.10567739744
 20
-676.19916950757056
 40
71.99999999895317
100
AcDbArc
 50
91.47016987895994
 51
112.80807498735501
  0
ARC
  5
15A
100
AcDbEntity
  8
1
  6
CONTINUOUS
 62
             3
100
AcDbCircle
 10
10357.10567739722
 20
-676.19916950745869
 40
71.99999999895337
100
AcDbArc
 50
119.1401698789501
 51
140.4780749873546
  0
ARC
  5
159
100
AcDbEntity
  8
1
  6
CONTINUOUS
 62
             3
100
AcDbCircle
 10
10357.105677396979
 20
-676.19916950745687
 40
71.99999999894885
100
AcDbArc
 50
146.81016987894643
 51
168.14807498735323
  0
ARC
  5
158
100
AcDbEntity
  8
1
  6
CONTINUOUS
 62
             3
100
AcDbCircle
 10
10357.105677396779
 20
-676.19916950756692
 40
71.99999999895783
100
AcDbArc
 50
174.48016987894911
 51
-164.18192501264676
  0
ARC
  5
157
100
AcDbEntity
  8
1
  6
CONTINUOUS
 62
             3
100
AcDbCircle
 10
10357.105677396639
 20
-676.19916950776019
 40
71.99999999894862
100
AcDbArc
 50
-157.84983012104973
 51
-136.51192501264561
  0
ARC
  5
156
100
AcDbEntity
  8
1
  6
CONTINUOUS
 62
             3
100
AcDbCircle
 10
10357.105677396599
 20
-676.19916950799529
 40
71.99999999894487
100
AcDbArc
 50
-130.17983012104361
 51
-108.84192501264266
  0
ARC
  5
155
100
AcDbEntity
  8
1
  6
CONTINUOUS
 62
             3
100
AcDbCircle
 10
10357.105677396679
 20
-676.19916950821766
 40
71.99999999895012
100
AcDbArc
 50
-102.50983012104285
 51
-81.17192501263587
  0
ARC
  5
154
100
AcDbEntity
  8
1
  6
CONTINUOUS
 62
             3
100
AcDbCircle
 10
10357.105677396859
 20
-676.19916950837683
 40
71.99999999895412
100
AcDbArc
 50
-74.83983012104591
 51
-53.5019250126352
  0
ARC
  5
153
100
AcDbEntity
  8
1
  6
CONTINUOUS
 62
             3
100
AcDbCircle
 10
10357.105677397099
 20
-676.19916950843731
 40
71.99999999894448
100
AcDbArc
 50
-47.16983012105657
 51
-25.83192501264666
  0
ARC
  5
152
100
AcDbEntity
  8
1
  6
CONTINUOUS
 62
             3
100
AcDbCircle
 10
10357.1056773975
 20
-676.19916950822812
 40
71.99999999896738
100
AcDbArc
 50
8.1701698789476
 51
29.75581236856342
  0
ARC
  5
151
100
AcDbEntity
  8
1
  6
CONTINUOUS
 62
             3
100
AcDbCircle
 10
10454.595400214361
 20
-722.69893758707508
 40
107.45690715379088
100
AcDbArc
 50
128.91010041852468
 51
131.75032981702819
  0
ARC
  5
150
100
AcDbEntity
  8
1
  6
CONTINUOUS
 62
             3
100
AcDbCircle
 10
10360.005110541901
 20
-674.2421123880597
 40
68.19105625962745
100
AcDbArc
 50
7.0818826382155
 51
29.62435214371778
  0
ARC
  5
14F
100
AcDbEntity
  8
1
  6
CONTINUOUS
 62
             3
100
AcDbCircle
 10
10360.005110541901
 20
-674.2421123880597
 40
68.19105625962064
100
AcDbArc
 50
-14.12877478086322
 51
0.48444935111774
  0
ARC
  5
14E
100
AcDbEntity
  8
1
  6
CONTINUOUS
 62
             3
100
AcDbCircle
 10
10357.10567739732
 20
-676.19916950838228
 40
71.99999999896677
100
AcDbArc
 50
-19.49983012104747
 51
-8.19983012099904
  0
ARC
  5
14D
100
AcDbEntity
  8
1
  6
CONTINUOUS
 62
             3
100
AcDbCircle
 10
10359.862923439519
 20
-678.3519303848509
 40
68.19105625965925
100
AcDbArc
 50
-76.30401613331823
 51
-54.19291319145761
  0
ARC
  5
14C
100
AcDbEntity
  8
1
  6
CONTINUOUS
 62
             3
100
AcDbCircle
 10
10359.862923439519
 20
-678.3519303848509
 40
68.19105625963081
100
AcDbArc
 50
-86.12877478087013
 51
-82.85637886654716
  0
ARC
  5
14B
100
AcDbEntity
  8
1
  6
CONTINUOUS
 62
             3
100
AcDbCircle
 10
10355.91031602188
 20
-679.4867060194008
 40
68.19105625966344
100
AcDbArc
 50
-131.04199966610875
 51
-108.72410152810902
  0
ARC
  5
14A
100
AcDbEntity
  8
1
  6
CONTINUOUS
 62
             3
100
AcDbCircle
 10
10355.91031602188
 20
-679.4867060194008
 40
68.19105625964217
100
AcDbArc
 50
-158.12877478086352
 51
-137.66085673354203
  0
ARC
  5
149
100
AcDbEntity
  8
1
  6
CONTINUOUS
 62
             3
100
AcDbCircle
 10
10357.105677397099
 20
-676.19916950793981
 40
85.75000000000463
100
AcDbArc
 50
32.5731592108176
 51
150.82752464212396
  0
ARC
  5
148
100
AcDbEntity
  8
1
  6
CONTINUOUS
 62
             3
100
AcDbCircle
 10
10357.105677397099
 20
-676.19916950793981
 40
85.74999999999635
100
AcDbArc
 50
-150.82752464212396
 51
-29.17247535787546
  0
ARC
  5
147
100
AcDbEntity
  8
1
  6
CONTINUOUS
 62
             3
100
AcDbCircle
 10
10357.105677397099
 20
-676.19916950793981
 40
82.50000000000074
100
AcDbArc
 50
96.39503892584223
 51
152.23288155943408
  0
ARC
  5
146
100
AcDbEntity
  8
1
  6
CONTINUOUS
 62
             3
100
AcDbCircle
 10
10357.105677397099
 20
-676.19916950793981
 40
79.73679999999899
100
AcDbArc
 50
-28.62950713748094
 51
-26.92490844591647
  0
ARC
  5
145
100
AcDbEntity
  8
1
  6
CONTINUOUS
 62
             3
100
AcDbCircle
 10
10290.351456119461
 20
-722.0780746983412
 40
5.7999999999882
100
AcDbArc
 50
2.00000000000412
 51
66.99999999998418
  0
ARC
  5
144
100
AcDbEntity
  8
1
  6
CONTINUOUS
 62
             3
100
AcDbCircle
 10
10290.351456119461
 20
-722.0780746983412
 40
7.3000000000007
100
AcDbArc
 50
2.0000000000006
 51
66.9999999999485
  0
ARC
  5
143
100
AcDbEntity
  8
1
  6
CONTINUOUS
 62
             3
100
AcDbCircle
 10
10357.105677397099
 20
-676.19916950793981
 40
79.73679999999966
100
AcDbArc
 50
-153.07509155408266
 51
-151.37049286251877
  0
ARC
  5
142
100
AcDbEntity
  8
1
  6
CONTINUOUS
 62
             3
100
AcDbCircle
 10
10357.105677397099
 20
-676.19916950793981
 40
82.03740000001966
100
AcDbArc
 50
142.80643902326639
 51
145.72953180399597
  0
ARC
  5
141
100
AcDbEntity
  8
1
  6
CONTINUOUS
 62
             3
100
AcDbCircle
 10
10357.105677397099
 20
-676.19916950793981
 40
82.03739999999331
100
AcDbArc
 50
-51.17356097672992
 51
-48.25046819600286
  0
ARC
  5
140
100
AcDbEntity
  8
1
  6
CONTINUOUS
 62
             3
100
AcDbCircle
 10
10357.105677397099
 20
-676.19916950793981
 40
82.03739999998582
100
AcDbArc
 50
-134.18356097672898
 51
-131.26046819600347
  0
ARC
  5
13F
100
AcDbEntity
  8
1
  6
CONTINUOUS
 62
             3
100
AcDbCircle
 10
10357.105677397099
 20
-676.19916950793981
 40
82.03739999996668
100
AcDbArc
 50
-106.51356097672632
 51
-103.59046819599531
  0
ARC
  5
13E
100
AcDbEntity
  8
1
  6
CONTINUOUS
 62
             3
100
AcDbCircle
 10
10357.105677397099
 20
-757.19916950704032
 40
5.79999999999847
100
AcDbArc
 50
45.00000000001588
 51
134.99999999998411
  0
ARC
  5
13D
100
AcDbEntity
  8
1
  6
CONTINUOUS
 62
             3
100
AcDbCircle
 10
10423.85989867474
 20
-722.07807469834302
 40
5.8000000000017
100
AcDbArc
 50
113.0000000000088
 51
177.99999999999204
  0
ARC
  5
13C
100
AcDbEntity
  8
1
  6
CONTINUOUS
 62
             3
100
AcDbCircle
 10
10357.105677397099
 20
-757.19916950704032
 40
7.29999999999905
100
AcDbArc
 50
45.00000000000505
 51
134.99999999998235
  0
ARC
  5
13B
100
AcDbEntity
  8
1
  6
CONTINUOUS
 62
             3
100
AcDbCircle
 10
10423.85989867474
 20
-722.07807469834302
 40
7.30000000000471
100
AcDbArc
 50
113.00000000005906
 51
177.99999999999585
  0
ARC
  5
13A
100
AcDbEntity
  8
1
  6
CONTINUOUS
 62
             3
100
AcDbCircle
 10
10357.105677397099
 20
-676.19916950793981
 40
79.73679999999969
100
AcDbArc
 50
-96.18868921473485
 51
-94.79160895815014
  0
ARC
  5
139
100
AcDbEntity
  8
1
  6
CONTINUOUS
 62
             3
100
AcDbCircle
 10
10357.105677397099
 20
-676.19916950793981
 40
82.50000000000033
100
AcDbArc
 50
-137.26659582016057
 51
-96.39503892584223
  0
ARC
  5
138
100
AcDbEntity
  8
1
  6
CONTINUOUS
 62
             3
100
AcDbCircle
 10
10357.105677397099
 20
-676.19916950793981
 40
79.73679999999483
100
AcDbArc
 50
-139.62950713747713
 51
-137.92490844591643
  0
ARC
  5
137
100
AcDbEntity
  8
1
  6
CONTINUOUS
 62
             3
100
AcDbCircle
 10
10357.105677397099
 20
-676.19916950793981
 40
79.73680000000044
100
AcDbArc
 50
-85.20839104184857
 51
-83.81131078526381
  0
ARC
  5
136
100
AcDbEntity
  8
1
  6
CONTINUOUS
 62
             3
100
AcDbCircle
 10
10357.105677397099
 20
-676.19916950793981
 40
82.0374000000113
100
AcDbArc
 50
-78.84356097674191
 51
-75.9204681960011
  0
ARC
  5
135
100
AcDbEntity
  8
1
  6
CONTINUOUS
 62
             3
100
AcDbCircle
 10
10357.105677397099
 20
-676.19916950793981
 40
79.73680000000087
100
AcDbArc
 50
-42.07509155408269
 51
-40.37049286252202
  0
ARC
  5
134
100
AcDbEntity
  8
1
  6
CONTINUOUS
 62
             3
100
AcDbCircle
 10
10357.105677397099
 20
-676.19916950793981
 40
82.50000000000074
100
AcDbArc
 50
-83.60496107415777
 51
-42.73340417983987
  0
ARC
  5
133
100
AcDbEntity
  8
1
  6
CONTINUOUS
 62
             3
100
AcDbCircle
 10
10357.105677397099
 20
-676.19916950793981
 40
79.73680000000074
100
AcDbArc
 50
94.79160895815011
 51
96.18868921473485
  0
ARC
  5
132
100
AcDbEntity
  8
1
  6
CONTINUOUS
 62
             3
100
AcDbCircle
 10
10357.105677397099
 20
-676.19916950793981
 40
79.73679999999989
100
AcDbArc
 50
83.81131078526386
 51
85.2083910418486
  0
ARC
  5
131
100
AcDbEntity
  8
1
  6
CONTINUOUS
 62
             3
100
AcDbCircle
 10
10357.105677397099
 20
-595.1991695088393
 40
7.29999999999808
100
AcDbArc
 50
-134.99999999998235
 51
-45.00000000000505
  0
ARC
  5
130
100
AcDbEntity
  8
1
  6
CONTINUOUS
 62
             3
100
AcDbCircle
 10
10357.105677397099
 20
-595.1991695088393
 40
5.79999999999847
100
AcDbArc
 50
-134.99999999998411
 51
-45.00000000001588
  0
ARC
  5
12F
100
AcDbEntity
  8
1
  6
CONTINUOUS
 62
             3
100
AcDbCircle
 10
10357.105677397099
 20
-676.19916950793981
 40
82.49999999999766
100
AcDbArc
 50
33.09229916140756
 51
83.60496107415777
  0
ARC
  5
12E
100
AcDbEntity
  8
1
  6
CONTINUOUS
 62
             3
100
AcDbCircle
 10
10357.105677397099
 20
-676.19916950793981
 40
82.03740000000954
100
AcDbArc
 50
59.79643902326709
 51
62.7195318040004
  0
ARC
  5
12D
100
AcDbEntity
  8
1
  6
CONTINUOUS
 62
             3
100
AcDbCircle
 10
10357.105677397099
 20
-676.19916950793981
 40
82.0374000000172
100
AcDbArc
 50
34.14337654711865
 51
37.20019777804567
  0
ARC
  5
12C
100
AcDbEntity
  8
1
  6
CONTINUOUS
 62
             3
100
AcDbCircle
 10
10357.105677397099
 20
-676.19916950793981
 40
82.03740000000916
100
AcDbArc
 50
115.13643902325704
 51
118.05953180400215
  0
ARC
  5
12B
100
AcDbEntity
  8
1
  6
CONTINUOUS
 62
             3
100
AcDbCircle
 10
10357.105677397099
 20
-676.19916950793981
 40
82.31740000000092
100
AcDbArc
 50
29.31409139958062
 51
29.94890571592923
  0
ARC
  5
12A
100
AcDbEntity
  8
1
  6
CONTINUOUS
 62
             3
100
AcDbCircle
 10
10357.105677397099
 20
-676.19916950793981
 40
82.31740000000012
100
AcDbArc
 50
27.52474944208243
 51
29.31409139958062
  0
ARC
  5
129
100
AcDbEntity
  8
1
  6
CONTINUOUS
 62
             3
100
AcDbCircle
 10
10357.105677397099
 20
-676.19916950793981
 40
85.74999999999994
100
AcDbArc
 50
28.99812541551365
 51
29.79709238665367
  0
ARC
  5
128
100
AcDbEntity
  8
1
  6
CONTINUOUS
 62
             3
100
AcDbCircle
 10
10357.105677397099
 20
-676.19916950793981
 40
82.03740000000012
100
AcDbArc
 50
27.14709669292589
 51
28.94472441070989
  0
ARC
  5
127
100
AcDbEntity
  8
1
  6
CONTINUOUS
 62
             3
100
AcDbCircle
 10
10353.60965739596
 20
-676.07821793436801
 40
68.19105625961785
100
AcDbArc
 50
145.52753877449331
 51
167.71810652377266
  0
ARC
  5
126
100
AcDbEntity
  8
1
  6
CONTINUOUS
 62
             3
100
AcDbCircle
 10
10353.60965739596
 20
-676.07821793436801
 40
68.19105625963211
100
AcDbArc
 50
129.87122521914125
 51
138.95163087878421
  0
ARC
  5
125
100
AcDbEntity
  8
1
  6
CONTINUOUS
 62
             3
100
AcDbCircle
 10
10356.140379586281
 20
-672.83688081301921
 40
68.19105625965548
100
AcDbArc
 50
62.18758653897524
 51
84.21506564062229
  0
ARC
  5
124
100
AcDbEntity
  8
1
  6
CONTINUOUS
 62
             3
100
AcDbCircle
 10
10357.105677397099
 20
-676.19916950793981
 40
71.999999999352
100
AcDbArc
 50
39.26102776862951
 51
57.4433280200991
  0
ARC
  5
123
100
AcDbEntity
  8
1
  6
CONTINUOUS
 62
             3
100
AcDbCircle
 10
10357.10567739742
 20
-676.19916950832908
 40
71.99999999894153
100
AcDbArc
 50
-8.1998301210523
 51
1.8133280206096
  0
ARC
  5
122
100
AcDbEntity
  8
1
  6
CONTINUOUS
 62
             3
100
AcDbCircle
 10
10316.9970438618
 20
-686.67816950794008
 40
19.99999999999735
100
AcDbArc
 50
-48.9986119879942
 51
-8.33886755487742
  0
ARC
  5
121
100
AcDbEntity
  8
1
  6
CONTINUOUS
 62
             3
100
AcDbCircle
 10
10316.9970438618
 20
-686.67816950794008
 40
21.99999999999651
100
AcDbArc
 50
-48.81245657195514
 51
-8.27009958552035
  0
ARC
  5
120
100
AcDbEntity
  8
1
  6
CONTINUOUS
 62
             3
100
AcDbCircle
 10
10348.698077397101
 20
-691.02536950793979
 40
11.99999999999928
100
AcDbArc
 50
113.99074926843308
 51
173.07590700738382
  0
ARC
  5
11F
100
AcDbEntity
  8
1
  6
CONTINUOUS
 62
             3
100
AcDbCircle
 10
10348.698077397101
 20
-691.02536950793979
 40
10.00000000000035
100
AcDbArc
 50
115.54971164908999
 51
173.2075876645952
  0
ARC
  5
11E
100
AcDbEntity
  8
1
  6
CONTINUOUS
 62
             3
100
AcDbCircle
 10
10357.105677397099
 20
-676.19916950793981
 40
12.00000000000749
100
AcDbArc
 50
-166.00000000000381
 51
-104.00000000001937
  0
ARC
  5
11D
100
AcDbEntity
  8
1
  6
CONTINUOUS
 62
             3
100
AcDbCircle
 10
10357.105677397099
 20
-676.19916950793981
 40
13.00000000000144
100
AcDbArc
 50
-118.35594439883337
 51
-113.1915267114051
  0
ARC
  5
11C
100
AcDbEntity
  8
1
  6
CONTINUOUS
 62
             3
100
AcDbCircle
 10
10326.28515504648
 20
-703.92293777821374
 40
21.99999999999211
100
AcDbArc
 50
-21.4824565719536
 51
19.05990041448138
  0
ARC
  5
11B
100
AcDbEntity
  8
1
  6
CONTINUOUS
 62
             3
100
AcDbCircle
 10
10342.4538268747
 20
-714.97848359855129
 40
22.00000000001223
100
AcDbArc
 50
5.84754342805302
 51
46.38990041446479
  0
ARC
  5
11A
100
AcDbEntity
  8
1
  6
CONTINUOUS
 62
             3
100
AcDbCircle
 10
10361.89346682322
 20
-717.37669975782433
 40
21.99999999999033
100
AcDbArc
 50
33.17754342807245
 51
73.71990041446715
  0
ARC
  5
119
100
AcDbEntity
  8
1
  6
CONTINUOUS
 62
             3
100
AcDbCircle
 10
10326.28515504648
 20
-703.92293777821374
 40
19.99999999999412
100
AcDbArc
 50
-21.66861198799476
 51
18.99113244511728
  0
ARC
  5
118
100
AcDbEntity
  8
1
  6
CONTINUOUS
 62
             3
100
AcDbCircle
 10
10342.4538268747
 20
-714.97848359855129
 40
20.00000000001521
100
AcDbArc
 50
5.66138801200914
 51
46.3211324450975
  0
ARC
  5
117
100
AcDbEntity
  8
1
  6
CONTINUOUS
 62
             3
100
AcDbCircle
 10
10361.89346682322
 20
-717.37669975782433
 40
20.00000000000258
100
AcDbArc
 50
32.99138801200935
 51
73.65113244512639
  0
ARC
  5
116
100
AcDbEntity
  8
1
  6
CONTINUOUS
 62
             3
100
AcDbCircle
 10
10356.443486657299
 20
-693.23047737387037
 40
12.00000000000417
100
AcDbArc
 50
141.28804016846408
 51
-159.59409299261878
  0
ARC
  5
115
100
AcDbEntity
  8
1
  6
CONTINUOUS
 62
             3
100
AcDbCircle
 10
10364.33672740104
 20
-691.6334126069903
 40
11.99999999999705
100
AcDbArc
 50
168.61804016845181
 51
-132.26409299260928
  0
ARC
  5
114
100
AcDbEntity
  8
1
  6
CONTINUOUS
 62
             3
100
AcDbCircle
 10
10370.61566461342
 20
-686.59071364799297
 40
11.99999999999139
100
AcDbArc
 50
-160.44549079646222
 51
-104.93409299257937
  0
ARC
  5
113
100
AcDbEntity
  8
1
  6
CONTINUOUS
 62
             3
100
AcDbCircle
 10
10356.443486657299
 20
-693.23047737387037
 40
10.00000000000609
100
AcDbArc
 50
142.8797116491032
 51
-159.4624123354252
  0
ARC
  5
112
100
AcDbEntity
  8
1
  6
CONTINUOUS
 62
             3
100
AcDbCircle
 10
10364.33672740104
 20
-691.6334126069903
 40
10.0000000000156
100
AcDbArc
 50
170.93077852276593
 51
-132.13241233541567
  0
ARC
  5
111
100
AcDbEntity
  8
1
  6
CONTINUOUS
 62
             3
100
AcDbCircle
 10
10370.61566461342
 20
-686.59071364799297
 40
9.99999999998893
100
AcDbArc
 50
-141.02356993500896
 51
-104.80241233532621
  0
ARC
  5
110
100
AcDbEntity
  8
1
  6
CONTINUOUS
 62
             3
100
AcDbCircle
 10
10316.6630276866
 20
-667.09400561797179
 40
20.00000000000135
100
AcDbArc
 50
-76.32861198797642
 51
-35.66886755487521
  0
ARC
  5
10F
100
AcDbEntity
  8
1
  6
CONTINUOUS
 62
             3
100
AcDbCircle
 10
10325.35767432098
 20
-649.54253382847105
 40
20.00000000000121
100
AcDbArc
 50
-103.65861198800211
 51
-62.99886755488336
  0
ARC
  5
10E
100
AcDbEntity
  8
1
  6
CONTINUOUS
 62
             3
100
AcDbCircle
 10
10342.829631836899
 20
-685.51037068517212
 40
11.99999999999993
100
AcDbArc
 50
94.683386893494
 51
145.74590700740623
  0
ARC
  5
10D
100
AcDbEntity
  8
1
  6
CONTINUOUS
 62
             3
100
AcDbCircle
 10
10340.148257414199
 20
-677.91668274625749
 40
11.9999999999998
100
AcDbArc
 50
91.2493242540679
 51
118.4159070073775
  0
ARC
  5
10C
100
AcDbEntity
  8
1
  6
CONTINUOUS
 62
             3
100
AcDbCircle
 10
10342.829631836899
 20
-685.51037068517212
 40
9.99999999999959
100
AcDbArc
 50
90.47668361211042
 51
145.87758766461658
  0
ARC
  5
10B
100
AcDbEntity
  8
1
  6
CONTINUOUS
 62
             3
100
AcDbCircle
 10
10340.148257414199
 20
-677.91668274625749
 40
10.0000000000019
100
AcDbArc
 50
85.40952172326648
 51
118.54758766458131
  0
ARC
  5
10A
100
AcDbEntity
  8
1
  6
CONTINUOUS
 62
             3
100
AcDbCircle
 10
10316.6630276866
 20
-667.09400561797179
 40
22.00000000000345
100
AcDbArc
 50
-76.14245657191026
 51
-35.60009958551618
  0
ARC
  5
109
100
AcDbEntity
  8
1
  6
CONTINUOUS
 62
             3
100
AcDbCircle
 10
10325.35767432098
 20
-649.54253382847105
 40
21.99999999999966
100
AcDbArc
 50
-103.47245657194408
 51
-62.9300995855233
  0
ARC
  5
108
100
AcDbEntity
  8
1
  6
CONTINUOUS
 62
             3
100
AcDbCircle
 10
10357.105677397099
 20
-676.19916950793981
 40
40.40993848830112
100
AcDbArc
 50
0.0
 51
121.27490388750059
  0
ARC
  5
107
100
AcDbEntity
  8
1
  6
CONTINUOUS
 62
             3
100
AcDbCircle
 10
10357.105677397099
 20
-676.19916950793981
 40
40.4099384882956
100
AcDbArc
 50
-31.27490388749448
 51
0.0
  0
ARC
  5
106
100
AcDbEntity
  8
1
  6
CONTINUOUS
 62
             3
100
AcDbCircle
 10
10357.105677397099
 20
-676.19916950793981
 40
40.40993848830765
100
AcDbArc
 50
-50.10106871358175
 51
-34.80817505988073
  0
ARC
  5
105
100
AcDbEntity
  8
1
  6
CONTINUOUS
 62
             3
100
AcDbCircle
 10
10357.105677397099
 20
-676.19916950793981
 40
40.40993848830298
100
AcDbArc
 50
-77.43106871359032
 51
-65.99282504814572
  0
ARC
  5
104
100
AcDbEntity
  8
1
  6
CONTINUOUS
 62
             3
100
AcDbCircle
 10
10357.105677397099
 20
-676.19916950793981
 40
40.40993848830412
100
AcDbArc
 50
-104.76106871359693
 51
-93.72898874254034
  0
ARC
  5
103
100
AcDbEntity
  8
1
  6
CONTINUOUS
 62
             3
100
AcDbCircle
 10
10357.105677397099
 20
-676.19916950793981
 40
40.40993848830625
100
AcDbArc
 50
-132.09106871359532
 51
-121.04012616572786
  0
ARC
  5
102
100
AcDbEntity
  8
1
  6
CONTINUOUS
 62
             3
100
AcDbCircle
 10
10357.105677397099
 20
-676.19916950793981
 40
40.40993848831095
100
AcDbArc
 50
-159.4210687135942
 51
-149.27424365597329
  0
ARC
  5
101
100
AcDbEntity
  8
1
  6
CONTINUOUS
 62
             3
100
AcDbCircle
 10
10357.105677397099
 20
-676.19916950793981
 40
40.40993848830462
100
AcDbArc
 50
173.2489312864092
 51
-174.8035101693518
  0
ARC
  5
100
100
AcDbEntity
  8
1
  6
CONTINUOUS
 62
             3
100
AcDbCircle
 10
10357.105677397099
 20
-676.19916950793981
 40
40.40993848829649
100
AcDbArc
 50
145.91893128640336
 51
157.45456333022983
  0
ARC
  5
FF
100
AcDbEntity
  8
1
  6
CONTINUOUS
 62
             3
100
AcDbCircle
 10
10357.105677397099
 20
-676.19916950793981
 40
40.40993848830795
100
AcDbArc
 50
124.80817505989
 51
131.86213474552554
  0
ARC
  5
FE
100
AcDbEntity
  8
1
  6
CONTINUOUS
 62
             3
100
AcDbCircle
 10
10357.105677397099
 20
-676.19916950793981
 40
40.40993848830189
100
AcDbArc
 50
131.86213474552554
 51
145.91893128640336
  0
ARC
  5
FD
100
AcDbEntity
  8
1
  6
CONTINUOUS
 62
             3
100
AcDbCircle
 10
10357.105677397099
 20
-676.19916950793981
 40
40.4099384882966
100
AcDbArc
 50
157.45456333022983
 51
173.2489312864092
  0
ARC
  5
FC
100
AcDbEntity
  8
1
  6
CONTINUOUS
 62
             3
100
AcDbCircle
 10
10357.105677397099
 20
-676.19916950793981
 40
40.40993848830286
100
AcDbArc
 50
-174.8035101693518
 51
-159.4210687135942
  0
ARC
  5
FB
100
AcDbEntity
  8
1
  6
CONTINUOUS
 62
             3
100
AcDbCircle
 10
10357.105677397099
 20
-676.19916950793981
 40
40.40993848829769
100
AcDbArc
 50
-149.27424365597329
 51
-132.09106871359532
  0
ARC
  5
FA
100
AcDbEntity
  8
1
  6
CONTINUOUS
 62
             3
100
AcDbCircle
 10
10357.105677397099
 20
-676.19916950793981
 40
40.40993848830325
100
AcDbArc
 50
-121.04012616572786
 51
-104.76106871359693
  0
ARC
  5
F9
100
AcDbEntity
  8
1
  6
CONTINUOUS
 62
             3
100
AcDbCircle
 10
10357.105677397099
 20
-676.19916950793981
 40
40.4099384883025
100
AcDbArc
 50
-93.72898874254034
 51
-77.43106871359032
  0
ARC
  5
F8
100
AcDbEntity
  8
1
  6
CONTINUOUS
 62
             3
100
AcDbCircle
 10
10357.105677397099
 20
-676.19916950793981
 40
40.40993848830818
100
AcDbArc
 50
-65.99282504814572
 51
-50.10106871358175
  0
ARC
  5
F7
100
AcDbEntity
  8
1
  6
CONTINUOUS
 62
             3
100
AcDbCircle
 10
10357.105677397099
 20
-676.19916950793981
 40
12.99999999999483
100
AcDbArc
 50
-140.52152671140655
 51
-118.35594439883337
  0
ARC
  5
F6
100
AcDbEntity
  8
1
  6
CONTINUOUS
 62
             3
100
AcDbCircle
 10
10357.105677397099
 20
-676.19916950793981
 40
12.99999999999165
100
AcDbArc
 50
-151.37850347995294
 51
-143.88404860565521
  0
ARC
  5
F5
100
AcDbEntity
  8
1
  6
CONTINUOUS
 62
             3
100
AcDbCircle
 10
10341.139938030499
 20
-637.94205132652655
 40
20.00000000000125
100
AcDbArc
 50
-130.98861198798946
 51
-100.11806205250184
  0
ARC
  5
F4
100
AcDbEntity
  8
1
  6
CONTINUOUS
 62
             3
100
AcDbCircle
 10
10341.139938030499
 20
-637.94205132652655
 40
22.00000000000521
100
AcDbArc
 50
-130.80245657196238
 51
-95.72793067595137
  0
ARC
  5
F3
100
AcDbEntity
  8
1
  6
CONTINUOUS
 62
             3
100
AcDbCircle
 10
10357.105677397099
 20
-676.19916950793981
 40
12.99999999999739
100
AcDbArc
 50
-143.88404860565521
 51
-140.52152671140655
  0
ARC
  5
F2
100
AcDbEntity
  8
1
  6
CONTINUOUS
 62
             3
100
AcDbCircle
 10
10357.105677397099
 20
-676.19916950793981
 40
12.99999999998937
100
AcDbArc
 50
-168.02562145196242
 51
-151.42675493627056
  0
ARC
  5
F1
100
AcDbEntity
  8
1
  6
CONTINUOUS
 62
             3
100
AcDbCircle
 10
10357.105677397099
 20
-676.19916950793981
 40
12.99999999999837
100
AcDbArc
 50
-113.1915267114051
 51
-104.00000000001208
  0
ARC
  5
F0
100
AcDbEntity
  8
1
  6
CONTINUOUS
 62
             2
100
AcDbCircle
 10
10357.38852010958
 20
-675.91632679546524
 40
11.49924375514226
100
AcDbArc
 50
-165.99999999999264
 51
-104.00000000006344
  0
ARC
  5
EF
100
AcDbEntity
  8
1
  6
CONTINUOUS
 62
             2
100
AcDbCircle
 10
10357.38852010958
 20
-675.91632679546524
 40
39.00993848830014
100
AcDbArc
 50
-31.14534527563649
 51
121.14534527563922
  0
LINE
  5
EE
100
AcDbEntity
  8
1
  6
DOTTED
 62
             2
100
AcDbLine
 10
10554.8375870706
 20
-759.44916950703941
 11
10562.3356231776
 21
-759.44916950703941
  0
LINE
  5
ED
100
AcDbEntity
  8
1
  6
DOTTED
 62
             2
100
AcDbLine
 10
10554.83760628386
 20
-754.94916950703987
 11
10562.3356231776
 21
-754.94916950703987
  0
LINE
  5
EC
100
AcDbEntity
  8
1
  6
DOTTED
 62
             2
100
AcDbLine
 10
10512.037768231159
 20
-724.32807469834302
 11
10518.83773702406
 21
-724.32807469834302
  0
LINE
  5
EB
100
AcDbEntity
  8
1
  6
DOTTED
 62
             2
100
AcDbLine
 10
10554.83773702406
 20
-724.32807469834302
 11
10561.637768231159
 21
-724.32807469834302
  0
LINE
  5
EA
100
AcDbEntity
  8
1
  6
DOTTED
 62
             2
100
AcDbLine
 10
10554.837756237321
 20
-719.82807469834211
 11
10562.3356231776
 21
-719.82807469834211
  0
LINE
  5
E9
100
AcDbEntity
  8
1
  6
DOTTED
 62
             2
100
AcDbLine
 10
10554.83578525538
 20
-597.4491695088393
 11
10562.3356231776
 21
-597.4491695088393
  0
LINE
  5
E8
100
AcDbEntity
  8
1
  6
DOTTED
 62
             2
100
AcDbLine
 10
10554.83554999722
 20
-592.94916950883976
 11
10562.3356231776
 21
-592.94916950883976
  0
LINE
  5
E7
100
AcDbEntity
  8
1
  6
DOT_CENTER
 62
             1
100
AcDbLine
 10
10509.33760012178
 20
-595.1991695088393
 11
10520.83759103356
 21
-595.1991695088393
  0
LINE
  5
E6
100
AcDbEntity
  8
1
  6
DOT_CENTER
 62
             1
100
AcDbLine
 10
10509.33760012178
 20
-722.07807469834302
 11
10520.83759103356
 21
-722.07807469834302
  0
LINE
  5
E5
100
AcDbEntity
  8
1
  6
DOT_CENTER
 62
             1
100
AcDbLine
 10
10552.83759667722
 20
-595.1991695088393
 11
10564.337595351441
 21
-595.1991695088393
  0
LINE
  5
E4
100
AcDbEntity
  8
1
  6
DOT_CENTER
 62
             1
100
AcDbLine
 10
10552.83759667722
 20
-722.07807469834302
 11
10564.337595351441
 21
-722.07807469834302
  0
LINE
  5
E3
100
AcDbEntity
  8
1
  6
DOT_CENTER
 62
             1
100
AcDbLine
 10
10552.83759667722
 20
-757.19916950703941
 11
10564.337595351441
 21
-757.19916950703941
  0
LINE
  5
E2
100
AcDbEntity
  8
1
  6
DOT_CENTER
 62
             1
100
AcDbLine
 10
10509.33760012178
 20
-757.19916950703941
 11
10520.83759103356
 21
-757.19916950703941
  0
LINE
  5
E1
100
AcDbEntity
  8
1
  6
DOTTED
 62
             2
100
AcDbLine
 10
10511.335562730301
 20
-759.44916950703941
 11
10518.8375870706
 21
-759.44916950703941
  0
LINE
  5
E0
100
AcDbEntity
  8
1
  6
DOTTED
 62
             2
100
AcDbLine
 10
10511.335562730301
 20
-754.94916950703987
 11
10518.83760628386
 21
-754.94916950703987
  0
LINE
  5
DF
100
AcDbEntity
  8
1
  6
DOTTED
 62
             2
100
AcDbLine
 10
10511.335562730301
 20
-719.82807469834211
 11
10518.837756237321
 21
-719.82807469834211
  0
LINE
  5
DE
100
AcDbEntity
  8
1
  6
DOTTED
 62
             2
100
AcDbLine
 10
10511.335562730301
 20
-597.4491695088393
 11
10518.835823454579
 21
-597.4491695088393
  0
LINE
  5
DD
100
AcDbEntity
  8
1
  6
DOTTED
 62
             2
100
AcDbLine
 10
10511.335562730301
 20
-592.94916950883976
 11
10518.835562730301
 21
-592.94916950883976
  0
LINE
  5
DC
100
AcDbEntity
  8
1
  6
CONTINUOUS
 62
             3
100
AcDbLine
 10
10562.33776823116
 20
-723.81149310315573
 11
10562.337577463981
 21
-761.69916950793981
  0
LINE
  5
DB
100
AcDbEntity
  8
1
  6
CONTINUOUS
 62
             3
100
AcDbLine
 10
10561.637768231159
 20
-723.81149310315573
 11
10562.33776823116
 21
-723.81149310315573
  0
LINE
  5
DA
100
AcDbEntity
  8
1
  6
CONTINUOUS
 62
             3
100
AcDbLine
 10
10561.637768231159
 20
-728.58240093335485
 11
10561.637768231159
 21
-720.75320214145518
  0
LINE
  5
D9
100
AcDbEntity
  8
1
  6
CONTINUOUS
 62
             3
100
AcDbLine
 10
10511.33776823116
 20
-723.81149310315573
 11
10512.037768231159
 21
-723.81149310315573
  0
LINE
  5
D8
100
AcDbEntity
  8
1
  6
CONTINUOUS
 62
             3
100
AcDbLine
 10
10511.33776823116
 20
-723.81149310315573
 11
10511.337577463981
 21
-761.69916950793981
  0
LINE
  5
D7
100
AcDbEntity
  8
1
  6
CONTINUOUS
 62
             3
100
AcDbLine
 10
10512.037768231159
 20
-720.75320214145518
 11
10512.037768231159
 21
-728.58240093335485
  0
LINE
  5
D6
100
AcDbEntity
  8
1
  6
CONTINUOUS
 62
             3
100
AcDbLine
 10
10555.33776823116
 20
-717.51895831325442
 11
10561.83776823116
 21
-717.51895831325442
  0
LINE
  5
D5
100
AcDbEntity
  8
1
  6
CONTINUOUS
 62
             3
100
AcDbLine
 10
10511.83776823116
 20
-717.51895831325442
 11
10518.33776823116
 21
-717.51895831325442
  0
LINE
  5
D4
100
AcDbEntity
  8
1
  6
CONTINUOUS
 62
             3
100
AcDbLine
 10
10522.244134819381
 20
-635.01635474241834
 11
10532.712859110979
 21
-616.88399237893168
  0
LINE
  5
D3
100
AcDbEntity
  8
1
  6
CONTINUOUS
 62
             3
100
AcDbLine
 10
10518.83776823116
 20
-628.91635474241752
 11
10526.685185320939
 21
-615.32422963474369
  0
LINE
  5
D2
100
AcDbEntity
  8
1
  6
CONTINUOUS
 62
             3
100
AcDbLine
 10
10523.786221308021
 20
-626.34538259444366
 11
10529.122300012999
 21
-617.10302316421325
  0
LINE
  5
D1
100
AcDbEntity
  8
1
  6
CONTINUOUS
 62
             3
100
AcDbLine
 10
10521.188145096659
 20
-624.84538259444366
 11
10526.38429751936
 21
-627.84538259444366
  0
LINE
  5
D0
100
AcDbEntity
  8
1
  6
CONTINUOUS
 62
             3
100
AcDbLine
 10
10524.59901545194
 20
-630.93758184105832
 11
10532.60476823116
 21
-631.71434191335561
  0
LINE
  5
CF
100
AcDbEntity
  8
1
  6
CONTINUOUS
 62
             3
100
AcDbLine
 10
10528.0187706498
 20
-625.01439208892521
 11
10534.92836823116
 21
-627.9415391962259
  0
LINE
  5
CE
100
AcDbEntity
  8
1
  6
CONTINUOUS
 62
             3
100
AcDbLine
 10
10518.83776823116
 20
-635.91635474241843
 11
10520.68528909256
 21
-635.91635474241843
  0
LINE
  5
CD
100
AcDbEntity
  8
1
  6
CONTINUOUS
 62
             3
100
AcDbLine
 10
10532.60476823116
 20
-631.71434191335561
 11
10532.60476823116
 21
-637.44881438794141
  0
LINE
  5
CC
100
AcDbEntity
  8
1
  6
CONTINUOUS
 62
             3
100
AcDbLine
 10
10518.83776823116
 20
-636.66392851085561
 11
10532.056482358659
 21
-637.94647740095002
  0
LINE
  5
CB
100
AcDbEntity
  8
1
  6
CONTINUOUS
 62
             3
100
AcDbLine
 10
10555.33776823116
 20
-634.87938070255564
 11
10561.83776823116
 21
-634.87938070255564
  0
LINE
  5
CA
100
AcDbEntity
  8
1
  6
CONTINUOUS
 62
             3
100
AcDbLine
 10
10511.83776823116
 20
-633.34114972075463
 11
10518.33776823116
 21
-633.34114972075463
  0
LINE
  5
C9
100
AcDbEntity
  8
1
  6
CONTINUOUS
 62
             3
100
AcDbLine
 10
10511.83776823116
 20
-631.51525851925567
 11
10518.33776823116
 21
-631.51525851925567
  0
LINE
  5
C8
100
AcDbEntity
  8
1
  6
CONTINUOUS
 62
             3
100
AcDbLine
 10
10518.83776823116
 20
-713.46708357125522
 11
10529.69733307724
 21
-716.63352568265532
  0
LINE
  5
C7
100
AcDbEntity
  8
1
  6
CONTINUOUS
 62
             3
100
AcDbLine
 10
10530.16508536378
 20
-721.04453049863491
 11
10518.83776823116
 21
-725.8431780591925
  0
LINE
  5
C6
100
AcDbEntity
  8
1
  6
CONTINUOUS
 62
             3
100
AcDbLine
 10
10534.92836823116
 20
-739.58706364346085
 11
10534.92836823116
 21
-750.23074236719481
  0
LINE
  5
C5
100
AcDbEntity
  8
1
  6
CONTINUOUS
 62
             3
100
AcDbLine
 10
10518.337577463981
 20
-762.19916950793981
 11
10511.837577463981
 21
-762.19916950793981
  0
LINE
  5
C4
100
AcDbEntity
  8
1
  6
CONTINUOUS
 62
             3
100
AcDbLine
 10
10561.837577463981
 20
-762.19916950793981
 11
10555.337577463981
 21
-762.19916950793981
  0
LINE
  5
C3
100
AcDbEntity
  8
1
  6
CONTINUOUS
 62
             3
100
AcDbLine
 10
10554.83776823116
 20
-760.15156950792402
 11
10518.83776823116
 21
-760.15156950792357
  0
LINE
  5
C2
100
AcDbEntity
  8
1
  6
CONTINUOUS
 62
             3
100
AcDbLine
 10
10541.65383489644
 20
-750.23074236719481
 11
10534.92836823116
 21
-750.23074236719481
  0
LINE
  5
C1
100
AcDbEntity
  8
1
  6
CONTINUOUS
 62
             3
100
AcDbLine
 10
10534.92836823116
 20
-750.23074236719481
 11
10518.83776823116
 21
-757.04728308322342
  0
LINE
  5
C0
100
AcDbEntity
  8
1
  6
CONTINUOUS
 62
             3
100
AcDbLine
 10
10554.83776823116
 20
-739.58706364346085
 11
10518.83776823116
 21
-739.58706364346085
  0
LINE
  5
BF
100
AcDbEntity
  8
1
  6
CONTINUOUS
 62
             3
100
AcDbLine
 10
10554.83776823116
 20
-736.90423589182751
 11
10518.83776823116
 21
-736.90423589182751
  0
LINE
  5
BE
100
AcDbEntity
  8
1
  6
CONTINUOUS
 62
             3
100
AcDbLine
 10
10534.92836823116
 20
-724.45679981965282
 11
10518.83776823116
 21
-731.27334053568234
  0
LINE
  5
BD
100
AcDbEntity
  8
1
  6
CONTINUOUS
 62
             3
100
AcDbLine
 10
10541.65383489644
 20
-724.45679981965282
 11
10534.92836823116
 21
-724.45679981965282
  0
LINE
  5
BC
100
AcDbEntity
  8
1
  6
CONTINUOUS
 62
             3
100
AcDbLine
 10
10534.92836823116
 20
-627.9415391962259
 11
10541.65383489644
 21
-627.9415391962259
  0
LINE
  5
BB
100
AcDbEntity
  8
1
  6
CONTINUOUS
 62
             3
100
AcDbLine
 10
10518.83776823116
 20
-621.12499848019729
 11
10522.452096614739
 21
-622.656154346834
  0
LINE
  5
BA
100
AcDbEntity
  8
1
  6
CONTINUOUS
 62
             3
100
AcDbLine
 10
10534.92836823116
 20
-602.16759664868482
 11
10541.65383489644
 21
-602.16759664868482
  0
LINE
  5
B9
100
AcDbEntity
  8
1
  6
CONTINUOUS
 62
             3
100
AcDbLine
 10
10518.83776823116
 20
-615.49410312405166
 11
10526.58710881616
 21
-615.49410312405166
  0
LINE
  5
B8
100
AcDbEntity
  8
1
  6
CONTINUOUS
 62
             3
100
AcDbLine
 10
10518.83776823116
 20
-612.81127537241832
 11
10554.83776823116
 21
-612.81127537241832
  0
LINE
  5
B7
100
AcDbEntity
  8
1
  6
CONTINUOUS
 62
             3
100
AcDbLine
 10
10518.83776823116
 20
-595.35105593265575
 11
10534.92836823116
 21
-602.16759664868482
  0
LINE
  5
B6
100
AcDbEntity
  8
1
  6
CONTINUOUS
 62
             3
100
AcDbLine
 10
10555.33543236816
 20
-590.19916950793981
 11
10561.83543236816
 21
-590.19916950793981
  0
LINE
  5
B5
100
AcDbEntity
  8
1
  6
CONTINUOUS
 62
             3
100
AcDbLine
 10
10518.83776823116
 20
-592.24676950795561
 11
10554.83776823116
 21
-592.24676950795561
  0
LINE
  5
B4
100
AcDbEntity
  8
1
  6
CONTINUOUS
 62
             3
100
AcDbLine
 10
10554.83543236816
 20
-590.69916950793981
 11
10554.83776823116
 21
-635.37938070255564
  0
LINE
  5
B3
100
AcDbEntity
  8
1
  6
CONTINUOUS
 62
             3
100
AcDbLine
 10
10511.83543236816
 20
-590.19916950793981
 11
10518.33543236816
 21
-590.19916950793981
  0
LINE
  5
B2
100
AcDbEntity
  8
1
  6
CONTINUOUS
 62
             3
100
AcDbLine
 10
10562.33543236816
 20
-590.69916950793981
 11
10562.33776823116
 21
-635.37938070255564
  0
LINE
  5
B1
100
AcDbEntity
  8
1
  6
CONTINUOUS
 62
             3
100
AcDbLine
 10
10518.83776823116
 20
-707.08476950793943
 11
10518.83776823116
 21
-717.01895831325442
  0
LINE
  5
B0
100
AcDbEntity
  8
1
  6
CONTINUOUS
 62
             3
100
AcDbLine
 10
10518.83543236816
 20
-590.69916950793981
 11
10518.83776823116
 21
-631.01525851925567
  0
LINE
  5
AF
100
AcDbEntity
  8
1
  6
CONTINUOUS
 62
             3
100
AcDbLine
 10
10511.33543236816
 20
-590.69916950793981
 11
10511.33776823116
 21
-631.01525851925567
  0
LINE
  5
AE
100
AcDbEntity
  8
1
  6
CONTINUOUS
 62
             3
100
AcDbLine
 10
10511.33776823116
 20
-717.01895831325442
 11
10511.33776823116
 21
-720.21204386795421
  0
LINE
  5
AD
100
AcDbEntity
  8
1
  6
CONTINUOUS
 62
             3
100
AcDbLine
 10
10518.83776823116
 20
-717.01895831325442
 11
10518.837577463981
 21
-761.69916950793981
  0
LINE
  5
AC
100
AcDbEntity
  8
1
  6
CONTINUOUS
 62
             3
100
AcDbLine
 10
10554.83776823116
 20
-717.01895831325442
 11
10554.837577463981
 21
-761.69916950793981
  0
LINE
  5
AB
100
AcDbEntity
  8
1
  6
CONTINUOUS
 62
             3
100
AcDbLine
 10
10562.33776823116
 20
-717.01895831325442
 11
10562.33776823116
 21
-720.25920409475179
  0
LINE
  5
AA
100
AcDbEntity
  8
1
  6
CONTINUOUS
 62
             3
100
AcDbLine
 10
10554.83776823116
 20
-635.37938070255564
 11
10554.83776823116
 21
-717.01895831325442
  0
LINE
  5
A9
100
AcDbEntity
  8
1
  6
CONTINUOUS
 62
             3
100
AcDbLine
 10
10562.33776823116
 20
-635.37938070255564
 11
10562.33776823116
 21
-717.01895831325442
  0
LINE
  5
A8
100
AcDbEntity
  8
1
  6
CONTINUOUS
 62
             3
100
AcDbLine
 10
10518.83776823116
 20
-631.01525851925567
 11
10518.83776823116
 21
-633.84114972075463
  0
LINE
  5
A7
100
AcDbEntity
  8
1
  6
CONTINUOUS
 62
             3
100
AcDbLine
 10
10518.83776823116
 20
-633.84114972075463
 11
10518.83776823116
 21
-645.31356950793975
  0
LINE
  5
A6
100
AcDbEntity
  8
1
  6
CONTINUOUS
 62
             3
100
AcDbLine
 10
10511.33776823116
 20
-633.84114972075463
 11
10511.33776823116
 21
-717.01895831325442
  0
LINE
  5
A5
100
AcDbEntity
  8
1
  6
CONTINUOUS
 62
             3
100
AcDbLine
 10
10511.33776823116
 20
-631.01525851925567
 11
10511.33776823116
 21
-633.84114972075463
  0
LINE
  5
A4
100
AcDbEntity
  8
1
  6
CONTINUOUS
 62
             3
100
AcDbLine
 10
10534.92836823116
 20
-627.9415391962259
 11
10534.92836823116
 21
-724.45679981965282
  0
LINE
  5
A3
100
AcDbEntity
  8
1
  6
CONTINUOUS
 62
             3
100
AcDbLine
 10
10529.507191910439
 20
-615.49410312405166
 11
10554.83776823116
 21
-615.49410312405166
  0
LINE
  5
A2
100
AcDbEntity
  8
1
  6
CONTINUOUS
 62
             3
100
AcDbLine
 10
10534.92836823116
 20
-602.16759664868482
 11
10534.92836823116
 21
-612.81127537241832
  0
LINE
  5
A1
100
AcDbEntity
  8
1
  6
DOT_CENTER
 62
             1
100
AcDbLine
 10
10503.94891750894
 20
-676.19916950793981
 11
10566.450503535099
 21
-676.19916950793981
  0
LINE
  5
A0
100
AcDbEntity
  8
1
  6
CONTINUOUS
 62
             3
100
AcDbLine
 10
10352.355677397099
 20
-598.65160817060382
 11
10352.355677397099
 21
-590.58083035095774
  0
LINE
  5
9F
100
AcDbEntity
  8
1
  6
CONTINUOUS
 62
             3
100
AcDbLine
 10
10361.855677397099
 20
-753.74673084527672
 11
10361.855677397099
 21
-761.81750866492234
  0
LINE
  5
9E
100
AcDbEntity
  8
1
  6
CONTINUOUS
 62
             3
100
AcDbLine
 10
10416.5643456375
 20
-721.8233083724142
 11
10416.291690931481
 21
-729.63111759284652
  0
LINE
  5
9D
100
AcDbEntity
  8
1
  6
CONTINUOUS
 62
             3
100
AcDbLine
 10
10418.063431878039
 20
-721.87565761746805
 11
10417.70350268686
 21
-732.18268109976339
  0
LINE
  5
9C
100
AcDbEntity
  8
1
  6
CONTINUOUS
 62
             3
100
AcDbLine
 10
10430.105677397099
 20
-713.12600873413226
 11
10421.593658129501
 21
-716.73914654831765
  0
LINE
  5
9B
100
AcDbEntity
  8
1
  6
CONTINUOUS
 62
             3
100
AcDbLine
 10
10428.19906859086
 20
-712.30577559063681
 11
10421.00756143676
 21
-715.35838926813881
  0
LINE
  5
9A
100
AcDbEntity
  8
1
  6
CONTINUOUS
 62
             3
100
AcDbLine
 10
10293.203793357439
 20
-715.35838926813881
 11
10286.01228620334
 21
-712.30577559063727
  0
LINE
  5
99
100
AcDbEntity
  8
1
  6
CONTINUOUS
 62
             3
100
AcDbLine
 10
10292.6176966647
 20
-716.73914654831765
 11
10284.105677397099
 21
-713.12600873413226
  0
LINE
  5
98
100
AcDbEntity
  8
1
  6
CONTINUOUS
 62
             3
100
AcDbLine
 10
10297.91966386272
 20
-729.63111759284652
 11
10297.647009156701
 21
-721.82330837241284
  0
LINE
  5
97
100
AcDbEntity
  8
1
  6
CONTINUOUS
 62
             3
100
AcDbLine
 10
10296.507852107339
 20
-732.18268109976248
 11
10296.14792291616
 21
-721.87565761746669
  0
LINE
  5
96
100
AcDbEntity
  8
1
  6
CONTINUOUS
 62
             3
100
AcDbLine
 10
10361.206896727979
 20
-599.30038883972134
 11
10366.29476535414
 21
-594.21252021357054
  0
LINE
  5
95
100
AcDbEntity
  8
1
  6
CONTINUOUS
 62
             3
100
AcDbLine
 10
10362.26755689976
 20
-600.36104901150088
 11
10365.701551447341
 21
-596.9270544639196
  0
LINE
  5
94
100
AcDbEntity
  8
1
  6
CONTINUOUS
 62
             3
100
AcDbLine
 10
10347.916589440059
 20
-594.21252021357054
 11
10353.00445806622
 21
-599.30038883972134
  0
LINE
  5
93
100
AcDbEntity
  8
1
  6
CONTINUOUS
 62
             3
100
AcDbLine
 10
10348.50980334686
 20
-596.9270544639196
 11
10351.943797894441
 21
-600.36104901150134
  0
LINE
  5
92
100
AcDbEntity
  8
1
  6
CONTINUOUS
 62
             3
100
AcDbLine
 10
10351.943797894441
 20
-752.03729000437829
 11
10348.50980334686
 21
-755.47128455196003
  0
LINE
  5
91
100
AcDbEntity
  8
1
  6
CONTINUOUS
 62
             3
100
AcDbLine
 10
10353.00445806622
 20
-753.09795017615829
 11
10347.916589440059
 21
-758.18581880230909
  0
LINE
  5
90
100
AcDbEntity
  8
1
  6
CONTINUOUS
 62
             3
100
AcDbLine
 10
10365.701551447341
 20
-755.47128455195957
 11
10362.26755689976
 21
-752.03729000437875
  0
LINE
  5
8F
100
AcDbEntity
  8
1
  6
CONTINUOUS
 62
             3
100
AcDbLine
 10
10366.29476535414
 20
-758.18581880230909
 11
10361.206896727979
 21
-753.09795017615829
  0
LINE
  5
8E
100
AcDbEntity
  8
1
  6
CONTINUOUS
 62
             3
100
AcDbLine
 10
10456.02166249702
 20
-636.25016252119735
 11
10444.105677397099
 21
-636.25016252119735
  0
LINE
  5
8D
100
AcDbEntity
  8
1
  6
CONTINUOUS
 62
             3
100
AcDbLine
 10
10456.507709407921
 20
-633.05016252119708
 11
10444.105677397099
 21
-633.05016252119708
  0
LINE
  5
8C
100
AcDbEntity
  8
1
  6
CONTINUOUS
 62
             3
100
AcDbLine
 10
10459.204768654099
 20
-629.85016252119726
 11
10471.52129594938
 21
-629.85016252119726
  0
LINE
  5
8B
100
AcDbEntity
  8
1
  6
CONTINUOUS
 62
             2
100
AcDbLine
 10
10477.52129594938
 20
-635.25016252119735
 11
10471.52129594938
 21
-635.25016252119735
  0
LINE
  5
8A
100
AcDbEntity
  8
1
  6
CONTINUOUS
 62
             2
100
AcDbLine
 10
10477.52129594938
 20
-634.05016252119708
 11
10471.52129594938
 21
-634.05016252119708
  0
LINE
  5
89
100
AcDbEntity
  8
1
  6
CONTINUOUS
 62
             2
100
AcDbLine
 10
10477.52129594938
 20
-632.05016252119708
 11
10471.52129594938
 21
-632.05016252119708
  0
LINE
  5
88
100
AcDbEntity
  8
1
  6
CONTINUOUS
 62
             2
100
AcDbLine
 10
10477.52129594938
 20
-630.85016252119726
 11
10471.52129594938
 21
-630.85016252119726
  0
LINE
  5
87
100
AcDbEntity
  8
1
  6
CONTINUOUS
 62
             3
100
AcDbLine
 10
10471.52129594938
 20
-636.25016252119735
 11
10457.62166249702
 21
-636.25016252119735
  0
LINE
  5
86
100
AcDbEntity
  8
1
  6
CONTINUOUS
 62
             3
100
AcDbLine
 10
10471.52129594938
 20
-633.05016252119708
 11
10458.107709407919
 21
-633.05016252119708
  0
LINE
  5
85
100
AcDbEntity
  8
1
  6
CONTINUOUS
 62
             2
100
AcDbLine
 10
10471.52129594938
 20
-629.85016252119726
 11
10477.52129594938
 21
-629.85016252119726
  0
LINE
  5
84
100
AcDbEntity
  8
1
  6
CONTINUOUS
 62
             3
100
AcDbLine
 10
10471.52129594938
 20
-629.85016252119726
 11
10471.52129594938
 21
-636.25016252119735
  0
LINE
  5
83
100
AcDbEntity
  8
1
  6
CONTINUOUS
 62
             2
100
AcDbLine
 10
10477.52129594938
 20
-633.05016252119708
 11
10471.52129594938
 21
-633.05016252119708
  0
LINE
  5
82
100
AcDbEntity
  8
1
  6
CONTINUOUS
 62
             3
100
AcDbLine
 10
10444.105677397099
 20
-629.65016252119699
 11
10444.105677397099
 21
-636.45016252119717
  0
LINE
  5
81
100
AcDbEntity
  8
1
  6
CONTINUOUS
 62
             3
100
AcDbLine
 10
10444.105677397099
 20
-636.45016252119717
 11
10432.105677397099
 21
-636.45016252119672
  0
LINE
  5
80
100
AcDbEntity
  8
1
  6
CONTINUOUS
 62
             3
100
AcDbLine
 10
10444.105677397099
 20
-629.85016252119726
 11
10457.604768654101
 21
-629.85016252119726
  0
LINE
  5
7F
100
AcDbEntity
  8
1
  6
CONTINUOUS
 62
             2
100
AcDbLine
 10
10477.52129594938
 20
-636.25016252119735
 11
10471.52129594938
 21
-636.25016252119735
  0
LINE
  5
7E
100
AcDbEntity
  8
1
  6
CONTINUOUS
 62
             3
100
AcDbLine
 10
10429.12131770216
 20
-629.65016252119699
 11
10444.105677397099
 21
-629.65016252119699
  0
LINE
  5
7D
100
AcDbEntity
  8
1
  6
CONTINUOUS
 62
             3
100
AcDbLine
 10
10430.105677397099
 20
-676.29903165346582
 11
10429.105424097421
 21
-676.00818520643247
  0
LINE
  5
7C
100
AcDbEntity
  8
1
  6
CONTINUOUS
 62
             3
100
AcDbLine
 10
10430.105677397099
 20
-664.29225875899897
 11
10428.039514932099
 21
-663.85450699897069
  0
LINE
  5
7B
100
AcDbEntity
  8
1
  6
CONTINUOUS
 62
             3
100
AcDbLine
 10
10394.707241030759
 20
-603.28649975114354
 11
10386.96090608458
 21
-610.68073454554656
  0
LINE
  5
7A
100
AcDbEntity
  8
1
  6
CONTINUOUS
 62
             3
100
AcDbLine
 10
10400.243226521779
 20
-611.89617354719053
 11
10401.66822135604
 21
-613.31380428281614
  0
LINE
  5
79
100
AcDbEntity
  8
1
  6
CONTINUOUS
 62
             3
100
AcDbLine
 10
10401.66822135604
 20
-613.31380428281614
 11
10397.59440682682
 21
-616.66209879495932
  0
LINE
  5
78
100
AcDbEntity
  8
1
  6
CONTINUOUS
 62
             3
100
AcDbLine
 10
10318.51621025358
 20
-603.80450102786676
 11
10320.19289088374
 21
-614.38132263730108
  0
LINE
  5
77
100
AcDbEntity
  8
1
  6
CONTINUOUS
 62
             3
100
AcDbLine
 10
10289.31090186618
 20
-630.00389475530733
 11
10295.7074794945
 21
-638.59250395226286
  0
LINE
  5
76
100
AcDbEntity
  8
1
  6
CONTINUOUS
 62
             3
100
AcDbLine
 10
10303.003392901321
 20
-737.86826882922583
 11
10312.306605071341
 21
-732.56443468653629
  0
LINE
  5
75
100
AcDbEntity
  8
1
  6
CONTINUOUS
 62
             3
100
AcDbLine
 10
10337.828495256101
 20
-755.93953097854342
 11
10343.60477723146
 21
-746.92204907756627
  0
LINE
  5
74
100
AcDbEntity
  8
1
  6
CONTINUOUS
 62
             3
100
AcDbLine
 10
10377.062794417539
 20
-755.77208248083821
 11
10377.990959115319
 21
-745.10348727869746
  0
LINE
  5
73
100
AcDbEntity
  8
1
  6
CONTINUOUS
 62
             3
100
AcDbLine
 10
10411.732377844421
 20
-737.40422319632694
 11
10407.60012967122
 21
-727.52470203746839
  0
LINE
  5
72
100
AcDbEntity
  8
1
  6
CONTINUOUS
 62
             3
100
AcDbLine
 10
10367.36930574552
 20
-599.81168743977491
 11
10365.316260912819
 21
-604.66885203174002
  0
LINE
  5
71
100
AcDbEntity
  8
1
  6
CONTINUOUS
 62
             3
100
AcDbLine
 10
10330.722829324121
 20
-603.78138984612974
 11
10331.160139351039
 21
-609.03646367043552
  0
LINE
  5
70
100
AcDbEntity
  8
1
  6
CONTINUOUS
 62
             3
100
AcDbLine
 10
10300.110801746099
 20
-624.31493651645474
 11
10302.9384423677
 21
-628.76594645506361
  0
LINE
  5
6F
100
AcDbEntity
  8
1
  6
CONTINUOUS
 62
             3
100
AcDbLine
 10
10298.67102417426
 20
-726.4563161272406
 11
10303.43306442928
 21
-724.19136280144016
  0
LINE
  5
6E
100
AcDbEntity
  8
1
  6
CONTINUOUS
 62
             3
100
AcDbLine
 10
10328.6921254342
 20
-747.84454303924645
 11
10331.85776859888
 21
-743.6272282166899
  0
LINE
  5
6D
100
AcDbEntity
  8
1
  6
CONTINUOUS
 62
             3
100
AcDbLine
 10
10365.212150741499
 20
-752.84559521393771
 11
10366.05733125318
 21
-747.64052932950995
  0
LINE
  5
6C
100
AcDbEntity
  8
1
  6
CONTINUOUS
 62
             3
100
AcDbLine
 10
10399.878013125919
 20
-740.31560094240035
 11
10398.20941604958
 21
-735.31331898759186
  0
LINE
  5
6B
100
AcDbEntity
  8
1
  6
CONTINUOUS
 62
             3
100
AcDbLine
 10
10424.760721274901
 20
-713.12049832314301
 11
10420.9599984955
 21
-709.46515328981172
  0
LINE
  5
6A
100
AcDbEntity
  8
1
  6
CONTINUOUS
 62
             3
100
AcDbLine
 10
10365.44896066492
 20
-599.21791816500013
 11
10367.36930574552
 21
-599.81168743977491
  0
LINE
  5
69
100
AcDbEntity
  8
1
  6
CONTINUOUS
 62
             3
100
AcDbLine
 10
10328.746367248959
 20
-604.14729262792002
 11
10330.722829324121
 21
-603.78138984612974
  0
LINE
  5
68
100
AcDbEntity
  8
1
  6
CONTINUOUS
 62
             3
100
AcDbLine
 10
10298.530291355641
 20
-625.55681979837505
 11
10300.110801746099
 21
-624.31493651645474
  0
LINE
  5
67
100
AcDbEntity
  8
1
  6
CONTINUOUS
 62
             3
100
AcDbLine
 10
10299.7113350772
 20
-728.17621159075748
 11
10298.67102417426
 21
-726.4563161272406
  0
LINE
  5
66
100
AcDbEntity
  8
1
  6
CONTINUOUS
 62
             3
100
AcDbLine
 10
10330.412145440299
 20
-748.88464801419082
 11
10328.6921254342
 21
-747.84454303924645
  0
LINE
  5
65
100
AcDbEntity
  8
1
  6
CONTINUOUS
 62
             3
100
AcDbLine
 10
10367.218466193959
 20
-752.96801043159917
 11
10365.212150741499
 21
-752.84559521393771
  0
LINE
  5
64
100
AcDbEntity
  8
1
  6
CONTINUOUS
 62
             3
100
AcDbLine
 10
10401.711727095641
 20
-739.49232683402283
 11
10399.878013125919
 21
-740.31560094240035
  0
LINE
  5
63
100
AcDbEntity
  8
1
  6
CONTINUOUS
 62
             3
100
AcDbLine
 10
10426.002415315739
 20
-711.53983925515809
 11
10424.760721274901
 21
-713.12049832314301
  0
LINE
  5
62
100
AcDbEntity
  8
1
  6
CONTINUOUS
 62
             3
100
AcDbLine
 10
10394.06691620184
 20
-645.2998428451167
 11
10389.995630020439
 21
-639.49153751464041
  0
LINE
  5
61
100
AcDbEntity
  8
1
  6
CONTINUOUS
 62
             3
100
AcDbLine
 10
10406.76334817582
 20
-641.08943843173506
 11
10406.399491304341
 21
-639.02590357151644
  0
LINE
  5
60
100
AcDbEntity
  8
1
  6
CONTINUOUS
 62
             3
100
AcDbLine
 10
10406.399491304341
 20
-639.02590357151644
 11
10412.30833782244
 21
-637.98401450551341
  0
LINE
  5
5F
100
AcDbEntity
  8
1
  6
CONTINUOUS
 62
             3
100
AcDbLine
 10
10412.30833782244
 20
-637.98401450551341
 11
10412.64081168042
 21
-639.86956745169869
  0
LINE
  5
5E
100
AcDbEntity
  8
1
  6
CONTINUOUS
 62
             3
100
AcDbLine
 10
10411.3832608211
 20
-628.89225735379273
 11
10422.45074968138
 21
-626.59920451880657
  0
LINE
  5
5D
100
AcDbEntity
  8
1
  6
CONTINUOUS
 62
             3
100
AcDbLine
 10
10412.64081168042
 20
-639.86956745169869
 11
10429.19012128786
 21
-636.43474858571449
  0
LINE
  5
5C
100
AcDbEntity
  8
1
  6
CONTINUOUS
 62
             3
100
AcDbLine
 10
10420.62493022036
 20
-642.29777542645365
 11
10430.105677396199
 21
-640.33000635486246
  0
LINE
  5
5B
100
AcDbEntity
  8
1
  6
CONTINUOUS
 62
             3
100
AcDbLine
 10
10396.66203817034
 20
-635.05867217899981
 11
10397.46835158778
 21
-636.21059239882811
  0
LINE
  5
5A
100
AcDbEntity
  8
1
  6
CONTINUOUS
 62
             3
100
AcDbLine
 10
10282.105677397099
 20
-634.88860790439799
 11
10282.105677397099
 21
-717.50973111148164
  0
LINE
  5
59
100
AcDbEntity
  8
1
  6
CONTINUOUS
 62
             3
100
AcDbLine
 10
10432.105677397099
 20
-634.62919837492132
 11
10432.105677397099
 21
-717.50973111148164
  0
LINE
  5
58
100
AcDbEntity
  8
1
  6
CONTINUOUS
 62
             3
100
AcDbLine
 10
10284.105677397099
 20
-637.76415942598464
 11
10284.105677397099
 21
-713.12600873413226
  0
LINE
  5
57
100
AcDbEntity
  8
1
  6
CONTINUOUS
 62
             3
100
AcDbLine
 10
10430.105677397099
 20
-638.1576876393267
 11
10430.105677397099
 21
-713.12600873413226
  0
LINE
  5
56
100
AcDbEntity
  8
1
  6
DASH_CENTER
 62
            40
100
AcDbLine
 10
10357.105677397099
 20
-676.19916950793981
 11
10282.105761429921
 21
-727.74518364890287
  0
LINE
  5
55
100
AcDbEntity
  8
1
  6
CONTINUOUS
 62
             3
100
AcDbLine
 10
10283.85493224612
 20
-720.77933140564551
 11
10290.834664530141
 21
-715.98229431070308
  0
LINE
  5
54
100
AcDbEntity
  8
1
  6
CONTINUOUS
 62
             3
100
AcDbLine
 10
10296.21552378092
 20
-723.81149310261185
 11
10289.2357914969
 21
-728.60853019755518
  0
LINE
  5
53
100
AcDbEntity
  8
1
  6
CONTINUOUS
 62
             3
100
AcDbLine
 10
10352.355677397099
 20
-761.81750866492234
 11
10352.355677397099
 21
-753.74673084527581
  0
LINE
  5
52
100
AcDbEntity
  8
1
  6
CONTINUOUS
 62
             3
100
AcDbLine
 10
10424.975563297299
 20
-728.60853019755564
 11
10417.995831013281
 21
-723.81149310261276
  0
LINE
  5
51
100
AcDbEntity
  8
1
  6
CONTINUOUS
 62
             3
100
AcDbLine
 10
10423.37669026406
 20
-715.98229431070354
 11
10430.35642254808
 21
-720.77933140564642
  0
LINE
  5
50
100
AcDbEntity
  8
1
  6
CONTINUOUS
 62
             3
100
AcDbLine
 10
10361.855677397099
 20
-590.58083035095774
 11
10361.855677397099
 21
-598.65160817060291
  0
LINE
  5
4F
100
AcDbEntity
  8
1
  6
CONTINUOUS
 62
             3
100
AcDbLine
 10
10353.971467273041
 20
-601.79209957810849
 11
10353.121224025221
 21
-604.3095031348787
  0
LINE
  5
4E
100
AcDbEntity
  8
1
  6
CONTINUOUS
 62
             3
100
AcDbLine
 10
10428.69407378516
 20
-633.92162776437931
 11
10430.96287411216
 21
-633.35099537313295
  0
LINE
  5
4D
100
AcDbEntity
  8
1
  6
CONTINUOUS
 62
             3
100
AcDbLine
 10
10426.7643804584
 20
-631.36695057417251
 11
10429.068210940341
 21
-630.78750764951269
  0
LINE
  5
4C
100
AcDbEntity
  8
1
  6
CONTINUOUS
 62
             3
100
AcDbLine
 10
10428.3236280158
 20
-634.49335000757651
 11
10428.43131244552
 21
-635.10405875618039
  0
LINE
  5
4B
100
AcDbEntity
  8
1
  6
DOT_CENTER
 62
             1
100
AcDbLine
 10
10272.742242694259
 20
-676.19916950793981
 11
10442.83661326778
 21
-676.19916950793981
  0
LINE
  5
4A
100
AcDbEntity
  8
1
  6
DOT_CENTER
 62
             1
100
AcDbLine
 10
10357.105677397099
 20
-586.45499224951595
 11
10357.105677397099
 21
-764.06644361127292
  0
LINE
  5
49
100
AcDbEntity
  8
1
  6
CONTINUOUS
 62
             3
100
AcDbLine
 10
10430.105677397099
 20
-701.88850284786145
 11
10425.65989554268
 21
-698.20642227494068
  0
LINE
  5
48
100
AcDbEntity
  8
1
  6
CONTINUOUS
 62
             3
100
AcDbLine
 10
10284.105677397099
 20
-705.5664963468214
 11
10291.255154926719
 21
-705.3146068269964
  0
LINE
  5
47
100
AcDbEntity
  8
1
  6
CONTINUOUS
 62
             3
100
AcDbLine
 10
10284.105677397099
 20
-693.65446606546197
 11
10287.28469359372
 21
-693.77842491431625
  0
LINE
  5
46
100
AcDbEntity
  8
1
  6
CONTINUOUS
 62
             3
100
AcDbLine
 10
10284.105677397099
 20
-657.61905817914135
 11
10287.10621174782
 21
-659.34465056703743
  0
LINE
  5
45
100
AcDbEntity
  8
1
  6
CONTINUOUS
 62
             3
100
AcDbLine
 10
10284.105677397099
 20
-670.8483480573334
 11
10285.265445199901
 21
-671.40531534288289
  0
LINE
  5
44
100
AcDbEntity
  8
1
  6
DASH_CENTER
 62
            40
100
AcDbLine
 10
10431.961470468161
 20
-727.64613072670704
 11
10357.105677397099
 21
-676.19916950793981
  0
LINE
  5
43
100
AcDbEntity
  8
1
  6
CONTINUOUS
 62
             3
100
AcDbLine
 10
10331.4846128563
 20
-703.23444761110818
 11
10329.981657254901
 21
-704.73740321251785
  0
LINE
  5
42
100
AcDbEntity
  8
1
  6
CONTINUOUS
 62
             3
100
AcDbLine
 10
10330.118590100279
 20
-701.7720432423846
 11
10328.56744369252
 21
-703.32318965014451
  0
LINE
  5
41
100
AcDbEntity
  8
1
  6
CONTINUOUS
 62
             3
100
AcDbLine
 10
10339.814723130021
 20
-660.58529123858011
 11
10340.398924822361
 21
-662.92839624760086
  0
LINE
  5
40
100
AcDbEntity
  8
1
  6
CONTINUOUS
 62
             3
100
AcDbLine
 10
10355.69116167464
 20
-689.24446830941611
 11
10356.376037346919
 21
-689.4152269929848
  0
LINE
  5
3F
100
AcDbEntity
  8
1
  6
CONTINUOUS
 62
             3
100
AcDbLine
 10
10354.202614649899
 20
-687.84271822325195
 11
10391.64349831272
 21
-697.17777897158999
  0
LINE
  5
3E
100
AcDbEntity
  8
1
  6
CONTINUOUS
 62
             3
100
AcDbLine
 10
10336.127067933439
 20
-641.66134859231101
 11
10345.46212868178
 21
-679.10223225513687
  0
LINE
  5
3D
100
AcDbEntity
  8
1
  6
CONTINUOUS
 62
             3
100
AcDbLine
 10
10344.87185481262
 20
-711.30769178922515
 11
10344.20600630548
 21
-713.39784875035207
  0
LINE
  5
3C
100
AcDbEntity
  8
1
  6
CONTINUOUS
 62
             3
100
AcDbLine
 10
10362.35627239894
 20
-713.0055005384927
 11
10362.724369858161
 21
-715.16804871532736
  0
LINE
  5
3B
100
AcDbEntity
  8
1
  6
CONTINUOUS
 62
             3
100
AcDbLine
 10
10378.66851525978
 20
-706.48644035085204
 11
10379.988382372379
 21
-708.23859935096539
  0
LINE
  5
3A
100
AcDbEntity
  8
1
  6
CONTINUOUS
 62
             3
100
AcDbLine
 10
10346.75680940544
 20
-711.97969691616231
 11
10346.11164738948
 21
-714.00491716412557
  0
LINE
  5
39
100
AcDbEntity
  8
1
  6
CONTINUOUS
 62
             3
100
AcDbLine
 10
10364.3393501142
 20
-712.73708391668993
 11
10364.696011571439
 21
-714.83244633988375
  0
LINE
  5
38
100
AcDbEntity
  8
1
  6
CONTINUOUS
 62
             3
100
AcDbLine
 10
10380.307001781161
 20
-705.33752493758607
 11
10381.58586344122
 21
-707.03524809937539
  0
LINE
  5
37
100
AcDbEntity
  8
1
  6
CONTINUOUS
 62
             3
100
AcDbLine
 10
10321.39008670204
 20
-686.52735100842369
 11
10319.299929740921
 21
-687.19319951556849
  0
LINE
  5
36
100
AcDbEntity
  8
1
  6
CONTINUOUS
 62
             3
100
AcDbLine
 10
10320.634948741979
 20
-668.97693279282043
 11
10318.472400565161
 21
-668.6088353335997
  0
LINE
  5
35
100
AcDbEntity
  8
1
  6
CONTINUOUS
 62
             3
100
AcDbLine
 10
10328.02175780578
 20
-653.03885057642833
 11
10326.26959880566
 21
-651.71898346382272
  0
LINE
  5
34
100
AcDbEntity
  8
1
  6
CONTINUOUS
 62
             3
100
AcDbLine
 10
10321.932218402661
 20
-688.45367858358463
 11
10319.90699815468
 21
-689.09884059956062
  0
LINE
  5
33
100
AcDbEntity
  8
1
  6
CONTINUOUS
 62
             3
100
AcDbLine
 10
10320.232160612901
 20
-670.93713850414292
 11
10318.13679818972
 21
-670.58047704689193
  0
LINE
  5
32
100
AcDbEntity
  8
1
  6
CONTINUOUS
 62
             3
100
AcDbLine
 10
10326.76397071586
 20
-654.59532619270954
 11
10325.066247554079
 21
-653.31646453266126
  0
LINE
  5
31
100
AcDbEntity
  8
1
  6
CONTINUOUS
 62
             3
100
AcDbLine
 10
10363.8609434792
 20
-691.28142369041393
 11
10389.70582961838
 21
-697.72527753520467
  0
LINE
  5
30
100
AcDbEntity
  8
1
  6
CONTINUOUS
 62
             3
100
AcDbLine
 10
10353.960692754301
 20
-688.81301394952811
 11
10363.8609434792
 21
-691.28142369041393
  0
LINE
  5
2F
100
AcDbEntity
  8
1
  6
CONTINUOUS
 62
             3
100
AcDbLine
 10
10344.043808181719
 20
-677.54722493028589
 11
10344.38271429516
 21
-678.90650310831347
  0
LINE
  5
2E
100
AcDbEntity
  8
1
  6
CONTINUOUS
 62
             3
100
AcDbLine
 10
10342.409839574781
 20
-670.99373479556311
 11
10343.72505114028
 21
-676.26876026600189
  0
LINE
  5
2D
100
AcDbEntity
  8
1
  6
CONTINUOUS
 62
             3
100
AcDbLine
 10
10340.398924822361
 20
-662.92839624760086
 11
10341.838852598399
 21
-668.70363111740085
  0
LINE
  5
2C
100
AcDbEntity
  8
1
  6
CONTINUOUS
 62
             3
100
AcDbLine
 10
10335.57956936984
 20
-643.59901728666432
 11
10339.814723130021
 21
-660.58529123858011
  0
LINE
  5
2B
100
AcDbEntity
  8
1
  6
CONTINUOUS
 62
             3
100
AcDbLine
 10
10341.838852598399
 20
-668.70363111740085
 11
10342.409839574781
 21
-670.99373479556311
  0
LINE
  5
2A
100
AcDbEntity
  8
1
  6
CONTINUOUS
 62
             3
100
AcDbLine
 10
10343.72505114028
 20
-676.26876026600189
 11
10344.043808181719
 21
-677.54722493028589
  0
LINE
  5
29
100
AcDbEntity
  8
1
  6
CONTINUOUS
 62
             2
100
AcDbLine
 10
10337.212157147
 20
-642.52935810312124
 11
10346.2301192574
 21
-678.69842859486221
  0
LINE
  5
28
100
AcDbEntity
  8
1
  6
CONTINUOUS
 62
             2
100
AcDbLine
 10
10354.606418310181
 20
-687.07472764763929
 11
10390.775488801921
 21
-696.09268975804139
  0
INSERT
  5
23E
100
AcDbEntity
  8
0
100
AcDbBlockReference
  2
*D6
 10
0.0
 20
0.0
  0
INSERT
  5
247
100
AcDbEntity
  8
0
100
AcDbBlockReference
  2
*D7
 10
0.0
 20
0.0
  0
ENDSEC
  0
SECTION
  2
OBJECTS
  0
DICTIONARY
  5
19
100
AcDbDictionary
  3
ACAD_GROUP
350
1A
  3
ACAD_MLINESTYLE
350
1B
  0
DICTIONARY
  5
1A
102
{ACAD_REACTORS
330
19
102
}
100
AcDbDictionary
  0
DICTIONARY
  5
1B
102
{ACAD_REACTORS
330
19
102
}
100
AcDbDictionary
  3
STANDARD
350
1C
  0
MLINESTYLE
  5
1C
102
{ACAD_REACTORS
330
1B
102
}
100
AcDbMlineStyle
  2
STANDARD
 70
             0
  3

 62
             0
 51
90.0
 52
90.0
 71
             2
 49
0.5
 62
           256
  6
BYLAYER
 49
-0.5
 62
           256
  6
BYLAYER
  0
ENDSEC
  0
EOF
