  0
SECTION
  2
HEADER
  9
$ACADVER
  1
AC1014
  9
$ACADMAINTVER
 70
             0
  9
$DWGCODEPAGE
  3
ANSI_1252
  9
$INSBASE
 10
0.0
 20
0.0
 30
0.0
  9
$EXTMIN
 10
16.37014748726421
 20
16.09321374208534
 30
0.0
  9
$EXTMAX
 10
296.36067832204589
 20
178.05681149281409
 30
0.0
  9
$LIMMIN
 10
0.0
 20
0.0
  9
$LIMMAX
 10
0.0
 20
0.0
  9
$ORTHOMODE
 70
             0
  9
$REGENMODE
 70
             1
  9
$FILLMODE
 70
             1
  9
$QTEXTMODE
 70
             0
  9
$MIRRTEXT
 70
             1
  9
$DRAGMODE
 70
             2
  9
$LTSCALE
 40
1.0
  9
$OSMODE
 70
             0
  9
$ATTMODE
 70
             1
  9
$TEXTSIZE
 40
0.2
  9
$TRACEWID
 40
0.05
  9
$TEXTSTYLE
  7
STANDARD
  9
$CLAYER
  8
0
  9
$CELTYPE
  6
CONTINUOUS
  9
$CECOLOR
 62
           256
  9
$CELTSCALE
 40
1.0
  9
$DELOBJ
 70
             1
  9
$DISPSILH
 70
             0
  9
$DIMSCALE
 40
1.0
  9
$DIMASZ
 40
0.18
  9
$DIMEXO
 40
0.0625
  9
$DIMDLI
 40
0.38
  9
$DIMRND
 40
0.0
  9
$DIMDLE
 40
0.0
  9
$DIMEXE
 40
0.18
  9
$DIMTP
 40
0.0
  9
$DIMTM
 40
0.0
  9
$DIMTXT
 40
0.18
  9
$DIMCEN
 40
0.09
  9
$DIMTSZ
 40
0.0
  9
$DIMTOL
 70
             0
  9
$DIMLIM
 70
             0
  9
$DIMTIH
 70
             1
  9
$DIMTOH
 70
             1
  9
$DIMSE1
 70
             0
  9
$DIMSE2
 70
             0
  9
$DIMTAD
 70
             0
  9
$DIMZIN
 70
             0
  9
$DIMBLK
  1

  9
$DIMASO
 70
             1
  9
$DIMSHO
 70
             1
  9
$DIMPOST
  1

  9
$DIMAPOST
  1

  9
$DIMALT
 70
             0
  9
$DIMALTD
 70
             2
  9
$DIMALTF
 40
25.4
  9
$DIMLFAC
 40
1.0
  9
$DIMTOFL
 70
             0
  9
$DIMTVP
 40
0.0
  9
$DIMTIX
 70
             0
  9
$DIMSOXD
 70
             0
  9
$DIMSAH
 70
             0
  9
$DIMBLK1
  1

  9
$DIMBLK2
  1

  9
$DIMSTYLE
  2
STANDARD
  9
$DIMCLRD
 70
             0
  9
$DIMCLRE
 70
             0
  9
$DIMCLRT
 70
             0
  9
$DIMTFAC
 40
1.0
  9
$DIMGAP
 40
0.09
  9
$DIMJUST
 70
             0
  9
$DIMSD1
 70
             0
  9
$DIMSD2
 70
             0
  9
$DIMTOLJ
 70
             1
  9
$DIMTZIN
 70
             0
  9
$DIMALTZ
 70
             0
  9
$DIMALTTZ
 70
             0
  9
$DIMFIT
 70
             3
  9
$DIMUPT
 70
             0
  9
$DIMUNIT
 70
             2
  9
$DIMDEC
 70
             4
  9
$DIMTDEC
 70
             4
  9
$DIMALTU
 70
             2
  9
$DIMALTTD
 70
             2
  9
$DIMTXSTY
  7
STANDARD
  9
$DIMAUNIT
 70
             0
  9
$LUNITS
 70
             2
  9
$LUPREC
 70
             4
  9
$SKETCHINC
 40
0.1
  9
$FILLETRAD
 40
0.0
  9
$AUNITS
 70
             0
  9
$AUPREC
 70
             0
  9
$MENU
  1
acad
  9
$ELEVATION
 40
0.0
  9
$PELEVATION
 40
0.0
  9
$THICKNESS
 40
0.0
  9
$LIMCHECK
 70
             0
  9
$BLIPMODE
 70
             1
  9
$CHAMFERA
 40
0.0
  9
$CHAMFERB
 40
0.0
  9
$CHAMFERC
 40
0.0
  9
$CHAMFERD
 40
0.0
  9
$SKPOLY
 70
             0
  9
$TDCREATE
 40
0.000000000
  9
$TDUPDATE
 40
0.000000000
  9
$TDINDWG
 40
0.0000000000
  9
$TDUSRTIMER
 40
0.0000000000
  9
$USRTIMER
 70
             1
  9
$ANGBASE
 50
0.0
  9
$ANGDIR
 70
             0
  9
$PDMODE
 70
             0
  9
$PDSIZE
 40
0.0
  9
$PLINEWID
 40
0.0
  9
$COORDS
 70
             0
  9
$SPLFRAME
 70
             0
  9
$SPLINETYPE
 70
             6
  9
$SPLINESEGS
 70
             8
  9
$ATTDIA
 70
             0
  9
$ATTREQ
 70
             1
  9
$HANDLING
 70
             1
  9
$HANDSEED
  5
6B7
  9
$SURFTAB1
 70
             6
  9
$SURFTAB2
 70
             6
  9
$SURFTYPE
 70
             6
  9
$SURFU
 70
             6
  9
$SURFV
 70
             6
  9
$UCSNAME
  2

  9
$UCSORG
 10
0.0
 20
0.0
 30
0.0
  9
$UCSXDIR
 10
1.0
 20
0.0
 30
0.0
  9
$UCSYDIR
 10
0.0
 20
1.0
 30
0.0
  9
$PUCSNAME
  2

  9
$PUCSORG
 10
0.0
 20
0.0
 30
0.0
  9
$PUCSXDIR
 10
1.0
 20
0.0
 30
0.0
  9
$PUCSYDIR
 10
0.0
 20
1.0
 30
0.0
  9
$USERI1
 70
             0
  9
$USERI2
 70
             0
  9
$USERI3
 70
             0
  9
$USERI4
 70
             0
  9
$USERI5
 70
             0
  9
$USERR1
 40
12.01
  9
$USERR2
 40
0.0
  9
$USERR3
 40
0.0
  9
$USERR4
 40
0.0
  9
$USERR5
 40
0.0
  9
$WORLDVIEW
 70
             1
  9
$SHADEDGE
 70
             3
  9
$SHADEDIF
 70
            70
  9
$TILEMODE
 70
             1
  9
$MAXACTVP
 70
            16
  9
$PINSBASE
 10
0.0
 20
0.0
 30
0.0
  9
$PLIMCHECK
 70
             0
  9
$PEXTMIN
 10
1.00000000000000E+20
 20
1.00000000000000E+20
 30
1.00000000000000E+20
  9
$PEXTMAX
 10
-1.00000000000000E+20
 20
-1.00000000000000E+20
 30
-1.00000000000000E+20
  9
$PLIMMIN
 10
0.0
 20
0.0
  9
$PLIMMAX
 10
12.0
 20
9.0
  9
$UNITMODE
 70
             0
  9
$VISRETAIN
 70
             0
  9
$PLINEGEN
 70
             1
  9
$PSLTSCALE
 70
             0
  9
$TREEDEPTH
 70
          3020
  9
$PICKSTYLE
 70
             1
  9
$CMLSTYLE
  2
STANDARD
  9
$CMLJUST
 70
             0
  9
$CMLSCALE
 40
1.0
  9
$PROXYGRAPHICS
 70
             0
  9
$MEASUREMENT
 70
             1
  0
ENDSEC
  0
SECTION
  2
CLASSES
  0
CLASS
  1
LWPOLYLINE
  2
AcDbPolyline
  3
"AutoCAD"
 90
        0
280
             0
281
             1
  0
CLASS
  1
IMAGE
  2
AcDbRasterImage
  3
ISM
 90
      127
280
             0
281
             1
  0
CLASS
  1
OLE2FRAME
  2
AcDbOle2Frame
  3
""
 90
        0
280
             0
281
             1
  0
CLASS
  1
HATCH
  2
AcDbHatch
  3
"ACAD_SEDONA"
 90
        0
280
             0
281
             1
  0
CLASS
  1
DICTIONARYVAR
  2
AcDbDictionaryVar
  3
"AutoCAD"
 90
        0
280
             0
281
             0
  0
CLASS
  1
RASTERVARIABLES
  2
AcDbRasterVariables
  3
ISM
 90
        0
280
             0
281
             0
  0
CLASS
  1
IMAGEDEF
  2
AcDbRasterImageDef
  3
ISM
 90
        0
280
             0
281
             0
  0
CLASS
  1
IMAGEDEF_REACTOR
  2
AcDbRasterImageDefReactor
  3
ISM
 90
        1
280
             0
281
             0
  0
CLASS
  1
IDBUFFER
  2
AcDbIdBuffer
  3
"Acad"
 90
        0
280
             0
281
             0
  0
CLASS
  1
SPATIAL_FILTER
  2
AcDbSpatialFilter
  3
"Acad"
 90
        0
280
             0
281
             0
  0
CLASS
  1
XRECORD
  2
AcDbXrecord
  3
"<Built In>"
 90
        0
280
             0
281
             0
  0
CLASS
  1
SORTENTSTABLE
  2
AcDbSortentsTable
  3
"AutoCAD"
 90
        0
280
             0
281
             0
  0
CLASS
  1
LAYER_INDEX
  2
AcDbLayerIndex
  3
"Acad"
 90
        0
280
             0
281
             0
  0
CLASS
  1
SPATIAL_INDEX
  2
AcDbSpatialIndex
  3
"Acad"
 90
        0
280
             0
281
             0
  0
CLASS
  1
OBJECT_PTR
  2
CAseDLPNTableRecord
  3
"ASE-LPNTableRecord"
 90
        1
280
             0
281
             0
  0
CLASS
  1
LAYOUT
  2
AcDbLayout
  3
"AutoCAD 2000"
 90
        0
280
             0
281
             0
  0
CLASS
  1
PLOTSETTINGS
  2
AcDbPlotSettings
  3
"AutoCAD 2000"
 90
        0
280
             0
281
             0
  0
CLASS
  1
ACDBDICTIONARYWDFLT
  2
AcDbDictionaryWithDefault
  3
"AutoCAD 2000"
 90
        0
280
             0
281
             0
  0
CLASS
  1
ACDBPLACEHOLDER
  2
AcDbPlaceHolder
  3
"AutoCAD 2000"
 90
        0
280
             0
281
             0
  0
ENDSEC
  0
SECTION
  2
TABLES
  0
TABLE
  2
VPORT
  5
7
100
AcDbSymbolTable
 70
             1
  0
VPORT
  5
15
100
AcDbSymbolTableRecord
100
AcDbViewportTableRecord
  2
*ACTIVE
 70
             0
 10
0.0
 20
0.0
 11
1.0
 21
1.0
 12
156.36541290465505
 22
97.07501261744972
 13
0.0
 23
0.0
 14
1.0
 24
1.0
 15
0.0
 25
0.0
 16
0.0
 26
0.0
 36
1.0
 17
0.0
 27
0.0
 37
0.0
 40
192.17177380972211
 41
1.60267857142857
 42
50.0
 43
0.0
 44
0.0
 50
0.0
 51
0.0
 71
             0
 72
           100
 73
             1
 74
             1
 75
             0
 76
             0
 77
             0
 78
             0
  0
ENDTAB
  0
TABLE
  2
LTYPE
  5
4
100
AcDbSymbolTable
 70
            10
  0
LTYPE
  5
11
100
AcDbSymbolTableRecord
100
AcDbLinetypeTableRecord
  2
BYBLOCK
 70
            64
  3

 72
            65
 73
             0
 40
0.0
  0
LTYPE
  5
12
100
AcDbSymbolTableRecord
100
AcDbLinetypeTableRecord
  2
BYLAYER
 70
            64
  3

 72
            65
 73
             0
 40
0.0
  0
LTYPE
  5
13
100
AcDbSymbolTableRecord
100
AcDbLinetypeTableRecord
  2
CONTINUOUS
 70
            64
  3
Solid line
 72
            65
 73
             0
 40
0.0
  0
LTYPE
  5
1D
100
AcDbSymbolTableRecord
100
AcDbLinetypeTableRecord
  2
DASHED
 70
            64
  3
Dashed
 72
            65
 73
             2
 40
15.0
 49
7.0
 74
             0
 49
-8.0
 74
             0
  0
LTYPE
  5
1E
100
AcDbSymbolTableRecord
100
AcDbLinetypeTableRecord
  2
DOTTED
 70
            64
  3
Dotted
 72
            65
 73
             2
 40
1.0
 49
0.0
 74
             0
 49
-1.0
 74
             0
  0
LTYPE
  5
1F
100
AcDbSymbolTableRecord
100
AcDbLinetypeTableRecord
  2
DOT_CENTER
 70
            64
  3
Dot_Center
 72
            65
 73
             4
 40
14.0
 49
12.0
 74
             0
 49
-1.0
 74
             0
 49
0.0
 74
             0
 49
-1.0
 74
             0
  0
LTYPE
  5
20
100
AcDbSymbolTableRecord
100
AcDbLinetypeTableRecord
  2
LONG_DASHED
 70
            64
  3
Long_Dashed
 72
            65
 73
             2
 40
15.0
 49
10.0
 74
             0
 49
-5.0
 74
             0
  0
LTYPE
  5
21
100
AcDbSymbolTableRecord
100
AcDbLinetypeTableRecord
  2
DASH_CENTER
 70
            64
  3
Dash_Center
 72
            65
 73
             4
 40
14.0
 49
11.0
 74
             0
 49
-1.0
 74
             0
 49
1.0
 74
             0
 49
-1.0
 74
             0
  0
LTYPE
  5
22
100
AcDbSymbolTableRecord
100
AcDbLinetypeTableRecord
  2
PHANTOM
 70
            64
  3
Phantom
 72
            65
 73
             6
 40
13.0
 49
10.0
 74
             0
 49
-1.0
 74
             0
 49
0.0
 74
             0
 49
-1.0
 74
             0
 49
0.0
 74
             0
 49
-1.0
 74
             0
  0
LTYPE
  5
23
100
AcDbSymbolTableRecord
100
AcDbLinetypeTableRecord
  2
CENTER_DASH_DASH
 70
            64
  3
Center_Dash_Dash
 72
            65
 73
             6
 40
14.0
 49
9.0
 74
             0
 49
-1.0
 74
             0
 49
1.0
 74
             0
 49
-1.0
 74
             0
 49
1.0
 74
             0
 49
-1.0
 74
             0
  0
ENDTAB
  0
TABLE
  2
LAYER
  5
2
100
AcDbSymbolTable
 70
             3
  0
LAYER
  5
14
100
AcDbSymbolTableRecord
100
AcDbLayerTableRecord
  2
0
 70
             0
 62
             7
  6
CONTINUOUS
  0
LAYER
  5
24
100
AcDbSymbolTableRecord
100
AcDbLayerTableRecord
  2
1
 70
             0
 62
             7
  6
CONTINUOUS
  0
LAYER
  5
25
100
AcDbSymbolTableRecord
100
AcDbLayerTableRecord
  2
___C_____1
 70
             0
 62
             7
  6
CONTINUOUS
  0
ENDTAB
  0
TABLE
  2
STYLE
  5
3
100
AcDbSymbolTable
 70
             2
  0
STYLE
  5
17
100
AcDbSymbolTableRecord
100
AcDbTextStyleTableRecord
  2
STANDARD
 70
             0
 40
0.0
 41
1.0
 50
0.0
 71
             0
 42
0.0
  3
txt
  4

  0
STYLE
  5
65C
100
AcDbSymbolTableRecord
100
AcDbTextStyleTableRecord
  2
CONVERTER_1
 70
             0
 40
0.0
 41
0.9
 50
0.0
 71
             0
 42
0.0
  3
txt.shx
  4

  0
ENDTAB
  0
TABLE
  2
VIEW
  5
5
100
AcDbSymbolTable
 70
             0
  0
ENDTAB
  0
TABLE
  2
UCS
  5
6
100
AcDbSymbolTable
 70
             0
  0
ENDTAB
  0
TABLE
  2
APPID
  5
8
100
AcDbSymbolTable
 70
             1
  0
APPID
  5
16
100
AcDbSymbolTableRecord
100
AcDbRegAppTableRecord
  2
ACAD
 70
             0
  0
ENDTAB
  0
TABLE
  2
DIMSTYLE
  5
9
100
AcDbSymbolTable
 70
             7
  0
DIMSTYLE
105
18
100
AcDbSymbolTableRecord
100
AcDbDimStyleTableRecord
  2
STANDARD
 70
             0
  3

  4

  5

  6

  7

 40
1.0
 41
0.18
 42
0.0625
 43
0.38
 44
0.18
 45
0.0
 46
0.0
 47
0.0
 48
0.0
 71
             0
 72
             0
 73
             1
 74
             1
 75
             0
 76
             0
 77
             0
 78
             0
140
0.18
141
0.09
142
0.0
143
25.4
144
1.0
145
0.0
146
1.0
147
0.09
170
             0
171
             2
172
             0
173
             0
174
             0
175
             0
176
             0
177
             0
178
             0
270
             2
271
             4
272
             4
273
             2
274
             2
275
             0
280
             0
281
             0
282
             0
283
             1
284
             0
285
             0
286
             0
287
             3
288
             0
340
17
  0
DIMSTYLE
105
668
100
AcDbSymbolTableRecord
100
AcDbDimStyleTableRecord
  2
ME10_DIM_0
 70
             0
  3

  4

  5

  6

  7

 40
1.0
 41
3.2
 42
1.0
 43
0.38
 44
1.5
 45
0.0
 46
0.0
 47
0.5
 48
0.5
 71
             1
 72
             0
 73
             1
 74
             1
 75
             0
 76
             0
 77
             1
 78
             8
140
3.2
141
0.09
142
0.0
143
25.4
144
1.0
145
0.0
146
0.6
147
0.625
170
             0
171
             2
172
             1
173
             1
174
             0
175
             0
176
             2
177
             2
178
             2
270
             2
271
             4
272
             1
273
             2
274
             2
275
             0
280
             0
281
             0
282
             0
283
             1
284
             0
285
             0
286
             0
287
             3
288
             0
340
65C
  0
DIMSTYLE
105
675
100
AcDbSymbolTableRecord
100
AcDbDimStyleTableRecord
  2
ME10_DIM_1
 70
             0
  3

  4

  5

  6

  7

 40
1.0
 41
3.2
 42
1.0
 43
0.38
 44
1.5
 45
0.0
 46
0.0
 47
0.0
 48
0.0
 71
             0
 72
             0
 73
             1
 74
             1
 75
             0
 76
             0
 77
             1
 78
             8
140
3.2
141
0.09
142
0.0
143
25.4
144
1.0
145
0.0
146
1.0
147
0.625
170
             0
171
             2
172
             1
173
             1
174
             0
175
             0
176
             2
177
             2
178
             2
270
             2
271
             4
272
             4
273
             2
274
             2
275
             0
280
             0
281
             0
282
             0
283
             1
284
             0
285
             0
286
             0
287
             3
288
             0
340
65C
  0
DIMSTYLE
105
682
100
AcDbSymbolTableRecord
100
AcDbDimStyleTableRecord
  2
ME10_DIM_2
 70
             0
  3

  4

  5

  6

  7

 40
1.0
 41
3.2
 42
1.0
 43
0.38
 44
1.5
 45
0.0
 46
0.0
 47
0.0
 48
0.0
 71
             0
 72
             0
 73
             1
 74
             1
 75
             0
 76
             0
 77
             1
 78
             8
140
3.2
141
0.09
142
0.0
143
25.4
144
1.0
145
0.0
146
1.0
147
0.625
170
             0
171
             2
172
             1
173
             1
174
             0
175
             0
176
             2
177
             2
178
             2
270
             2
271
             4
272
             4
273
             2
274
             2
275
             0
280
             0
281
             0
282
             0
283
             1
284
             0
285
             0
286
             0
287
             3
288
             0
340
65C
  0
DIMSTYLE
105
68D
100
AcDbSymbolTableRecord
100
AcDbDimStyleTableRecord
  2
ME10_DIM_3
 70
             0
  3

  4

  5

  6

  7

 40
1.0
 41
3.2
 42
1.0
 43
0.38
 44
1.5
 45
0.0
 46
0.0
 47
30.0
 48
30.0
 71
             1
 72
             0
 73
             1
 74
             1
 75
             0
 76
             0
 77
             1
 78
             8
140
3.2
141
0.09
142
0.0
143
25.4
144
1.0
145
0.0
146
0.6
147
0.625
170
             0
171
             2
172
             1
173
             1
174
             0
175
             0
176
             2
177
             2
178
             2
270
             2
271
             4
272
             0
273
             2
274
             2
275
             0
280
             0
281
             0
282
             0
283
             1
284
             0
285
             0
286
             0
287
             3
288
             0
340
65C
  0
DIMSTYLE
105
698
100
AcDbSymbolTableRecord
100
AcDbDimStyleTableRecord
  2
ME10_DIM_4
 70
             0
  3
 <>
  4

  5

  6

  7

 40
1.0
 41
3.2
 42
1.0
 43
0.38
 44
1.5
 45
0.0
 46
0.0
 47
0.3
 48
0.3
 71
             1
 72
             0
 73
             1
 74
             1
 75
             0
 76
             0
 77
             1
 78
             8
140
3.2
141
0.09
142
0.0
143
25.4
144
1.0
145
0.0
146
0.6
147
0.625
170
             0
171
             2
172
             1
173
             1
174
             0
175
             0
176
             2
177
             2
178
             2
270
             2
271
             4
272
             1
273
             2
274
             2
275
             0
280
             0
281
             0
282
             0
283
             1
284
             0
285
             0
286
             0
287
             3
288
             0
340
65C
  0
DIMSTYLE
105
6A3
100
AcDbSymbolTableRecord
100
AcDbDimStyleTableRecord
  2
ME10_DIM_5
 70
             0
  3
 <>
  4

  5

  6

  7

 40
1.0
 41
3.2
 42
1.0
 43
0.38
 44
1.5
 45
0.0
 46
0.0
 47
0.5
 48
0.5
 71
             1
 72
             0
 73
             1
 74
             1
 75
             0
 76
             0
 77
             1
 78
             8
140
3.2
141
0.09
142
0.0
143
25.4
144
1.0
145
0.0
146
0.6
147
0.625
170
             0
171
             2
172
             1
173
             1
174
             0
175
             0
176
             2
177
             2
178
             2
270
             2
271
             4
272
             1
273
             2
274
             2
275
             0
280
             0
281
             0
282
             0
283
             1
284
             0
285
             0
286
             0
287
             3
288
             0
340
65C
  0
ENDTAB
  0
TABLE
  2
BLOCK_RECORD
  5
1
100
AcDbSymbolTable
 70
             7
  0
BLOCK_RECORD
  5
A
100
AcDbSymbolTableRecord
100
AcDbBlockTableRecord
  2
*MODEL_SPACE
  0
BLOCK_RECORD
  5
B
100
AcDbSymbolTableRecord
100
AcDbBlockTableRecord
  2
*PAPER_SPACE
  0
BLOCK_RECORD
  5
65F
100
AcDbSymbolTableRecord
100
AcDbBlockTableRecord
  2
*D0
  0
BLOCK_RECORD
  5
66A
100
AcDbSymbolTableRecord
100
AcDbBlockTableRecord
  2
*D1
  0
BLOCK_RECORD
  5
677
100
AcDbSymbolTableRecord
100
AcDbBlockTableRecord
  2
*D2
  0
BLOCK_RECORD
  5
684
100
AcDbSymbolTableRecord
100
AcDbBlockTableRecord
  2
*D3
  0
BLOCK_RECORD
  5
68F
100
AcDbSymbolTableRecord
100
AcDbBlockTableRecord
  2
*D4
  0
BLOCK_RECORD
  5
69A
100
AcDbSymbolTableRecord
100
AcDbBlockTableRecord
  2
*D5
  0
BLOCK_RECORD
  5
6A5
100
AcDbSymbolTableRecord
100
AcDbBlockTableRecord
  2
*D6
  0
ENDTAB
  0
ENDSEC
  0
SECTION
  2
BLOCKS
  0
BLOCK
  5
D
100
AcDbEntity
  8
0
100
AcDbBlockBegin
  2
*MODEL_SPACE
 70
             0
 10
0.0
 20
0.0
 30
0.0
  3
*MODEL_SPACE
  1

  0
ENDBLK
  5
E
100
AcDbEntity
  8
0
100
AcDbBlockEnd
  0
BLOCK
  5
F
100
AcDbEntity
 67
             1
  8
0
100
AcDbBlockBegin
  2
*PAPER_SPACE
 70
             0
 10
0.0
 20
0.0
 30
0.0
  3
*PAPER_SPACE
  1

  0
ENDBLK
  5
10
100
AcDbEntity
 67
             1
  8
0
100
AcDbBlockEnd
  0
BLOCK
  5
660
100
AcDbEntity
  8
0
100
AcDbBlockBegin
  2
*D0
 70
             1
 10
0.0
 20
0.0
 30
0.0
  3
*D0
  1

  0
LINE
  5
661
100
AcDbEntity
  8
0
  6
CONTINUOUS
 62
             2
100
AcDbLine
 10
287.1016761790442
 20
172.8568114928141
 11
248.90167619096502
 21
172.8568114928141
  0
LINE
  5
662
100
AcDbEntity
  8
0
  6
CONTINUOUS
 62
             2
100
AcDbLine
 10
248.90167619096502
 20
153.71738585002592
 11
248.90167619096502
 21
174.3568114928141
  0
LINE
  5
663
100
AcDbEntity
  8
0
  6
CONTINUOUS
 62
             2
100
AcDbLine
 10
287.1016761790442
 20
153.71738585002592
 11
287.1016761790442
 21
174.3568114928141
  0
SOLID
  5
664
100
AcDbEntity
  8
0
 62
             2
100
AcDbTrace
 10
283.90167617904422
 20
172.43552350053443
 11
283.90167617904422
 21
173.27809948509378
 12
287.1016761790442
 22
172.8568114928141
 13
287.1016761790442
 23
172.8568114928141
  0
SOLID
  5
665
100
AcDbEntity
  8
0
 62
             2
100
AcDbTrace
 10
252.10167619096501
 20
173.27809948509378
 11
252.10167619096501
 21
172.43552350053443
 12
248.90167619096502
 22
172.8568114928141
 13
248.90167619096502
 23
172.8568114928141
  0
MTEXT
  5
666
100
AcDbEntity
  8
0
 62
             2
100
AcDbMText
 10
260.37768980563902
 20
174.8568114928141
 30
0.0
 40
3.2
 41
0.0
 71
             7
 72
             1
  1
\C2;38.2\C2;\H1.920000;{\Fgdt;`}0.5
  7
CONVERTER_1
 11
0.99999999999706
 21
0.00000242406841
 31
0.0
  0
ENDBLK
  5
667
100
AcDbEntity
  8
0
100
AcDbBlockEnd
  0
BLOCK
  5
66B
100
AcDbEntity
  8
0
100
AcDbBlockBegin
  2
*D1
 70
             1
 10
0.0
 20
0.0
 30
0.0
  3
*D1
  1

  0
LINE
  5
66C
100
AcDbEntity
  8
0
  6
CONTINUOUS
 62
             2
100
AcDbLine
 10
287.1016761790442
 20
162.8568114928141
 11
296.360678322046
 21
162.8568114928141
  0
LINE
  5
66D
100
AcDbEntity
  8
0
  6
CONTINUOUS
 62
             2
100
AcDbLine
 10
282.10167617904409
 20
162.8568114928141
 11
287.1016761790442
 21
162.8568114928141
  0
LINE
  5
66E
100
AcDbEntity
  8
0
  6
CONTINUOUS
 62
             2
100
AcDbLine
 10
275.70167617904411
 20
162.8568114928141
 11
282.10167617904409
 21
162.8568114928141
  0
LINE
  5
66F
100
AcDbEntity
  8
0
  6
CONTINUOUS
 62
             2
100
AcDbLine
 10
287.1016761790442
 20
149.91626155294321
 11
287.1016761790442
 21
164.3568114928141
  0
LINE
  5
670
100
AcDbEntity
  8
0
  6
CONTINUOUS
 62
             2
100
AcDbLine
 10
282.10167617904409
 20
149.91626155294321
 11
282.10167617904409
 21
164.3568114928141
  0
SOLID
  5
671
100
AcDbEntity
  8
0
 62
             2
100
AcDbTrace
 10
278.9016761790441
 20
162.43552350053443
 11
278.9016761790441
 21
163.27809948509378
 12
282.10167617904409
 22
162.8568114928141
 13
282.10167617904409
 23
162.8568114928141
  0
SOLID
  5
672
100
AcDbEntity
  8
0
 62
             2
100
AcDbTrace
 10
290.30167617904419
 20
163.27809948509378
 11
290.30167617904419
 21
162.43552350053443
 12
287.1016761790442
 22
162.8568114928141
 13
287.1016761790442
 23
162.8568114928141
  0
MTEXT
  5
673
100
AcDbEntity
  8
0
 62
             2
100
AcDbMText
 10
291.56067832204604
 20
164.8568114928141
 30
0.0
 40
3.2
 41
0.0
 71
             7
 72
             1
  1
(5)
  7
CONVERTER_1
 11
0.99999999999706
 21
0.00000242406841
 31
0.0
  0
ENDBLK
  5
674
100
AcDbEntity
  8
0
100
AcDbBlockEnd
  0
BLOCK
  5
678
100
AcDbEntity
  8
0
100
AcDbBlockBegin
  2
*D2
 70
             1
 10
0.0
 20
0.0
 30
0.0
  3
*D2
  1

  0
LINE
  5
679
100
AcDbEntity
  8
0
  6
CONTINUOUS
 62
             2
100
AcDbLine
 10
248.90167619096505
 20
162.8568114928141
 11
237.89441829920904
 21
162.8568114928141
  0
LINE
  5
67A
100
AcDbEntity
  8
0
  6
CONTINUOUS
 62
             2
100
AcDbLine
 10
253.90167619096505
 20
162.8568114928141
 11
248.90167619096505
 21
162.8568114928141
  0
LINE
  5
67B
100
AcDbEntity
  8
0
  6
CONTINUOUS
 62
             2
100
AcDbLine
 10
260.301676190965
 20
162.8568114928141
 11
253.90167619096505
 21
162.8568114928141
  0
LINE
  5
67C
100
AcDbEntity
  8
0
  6
CONTINUOUS
 62
             2
100
AcDbLine
 10
248.90167619096505
 20
149.91626155294321
 11
248.90167619096505
 21
164.3568114928141
  0
LINE
  5
67D
100
AcDbEntity
  8
0
  6
CONTINUOUS
 62
             2
100
AcDbLine
 10
253.90167619096505
 20
149.91626155294321
 11
253.90167619096505
 21
164.3568114928141
  0
SOLID
  5
67E
100
AcDbEntity
  8
0
 62
             2
100
AcDbTrace
 10
257.10167619096507
 20
163.27809948509378
 11
257.10167619096507
 21
162.43552350053443
 12
253.90167619096505
 22
162.8568114928141
 13
253.90167619096505
 23
162.8568114928141
  0
SOLID
  5
67F
100
AcDbEntity
  8
0
 62
             2
100
AcDbTrace
 10
245.70167619096506
 20
162.43552350053443
 11
245.70167619096506
 21
163.27809948509378
 12
248.90167619096505
 22
162.8568114928141
 13
248.90167619096505
 23
162.8568114928141
  0
MTEXT
  5
680
100
AcDbEntity
  8
0
 62
             2
100
AcDbMText
 10
237.89441829920901
 20
164.8568114928141
 30
0.0
 40
3.2
 41
0.0
 71
             7
 72
             1
  1
(5)
  7
CONVERTER_1
 11
0.99999999999706
 21
0.00000242406841
 31
0.0
  0
ENDBLK
  5
681
100
AcDbEntity
  8
0
100
AcDbBlockEnd
  0
BLOCK
  5
685
100
AcDbEntity
  8
0
100
AcDbBlockBegin
  2
*D3
 70
             1
 10
0.0
 20
0.0
 30
0.0
  3
*D3
  1

  0
LINE
  5
686
100
AcDbEntity
  8
0
  6
CONTINUOUS
 62
             2
100
AcDbLine
 10
75.19625215802722
 20
172.8568114928141
 11
16.37014748726421
 21
172.8568114928141
  0
LINE
  5
687
100
AcDbEntity
  8
0
  6
CONTINUOUS
 62
             2
100
AcDbLine
 10
16.37014748726421
 20
137.87187796003963
 11
16.37014748726421
 21
174.3568114928141
  0
LINE
  5
688
100
AcDbEntity
  8
0
  6
CONTINUOUS
 62
             2
100
AcDbLine
 10
75.19625215802722
 20
149.85735312767173
 11
75.19625215802722
 21
174.3568114928141
  0
SOLID
  5
689
100
AcDbEntity
  8
0
 62
             2
100
AcDbTrace
 10
71.99625215802722
 20
172.43552350053443
 11
71.99625215802722
 21
173.27809948509378
 12
75.19625215802722
 22
172.8568114928141
 13
75.19625215802722
 23
172.8568114928141
  0
SOLID
  5
68A
100
AcDbEntity
  8
0
 62
             2
100
AcDbTrace
 10
19.57014748726421
 20
173.27809948509378
 11
19.57014748726421
 21
172.43552350053443
 12
16.37014748726421
 22
172.8568114928141
 13
16.37014748726421
 23
172.8568114928141
  0
MTEXT
  5
68B
100
AcDbEntity
  8
0
 62
             2
100
AcDbMText
 10
39.4289284248019
 20
174.8568114928141
 30
0.0
 40
3.2
 41
0.0
 71
             7
 72
             1
  1
\C2;300\C2;\H1.920000;{\Fgdt;`}30
  7
CONVERTER_1
 11
0.99999999999706
 21
0.00000242406841
 31
0.0
  0
ENDBLK
  5
68C
100
AcDbEntity
  8
0
100
AcDbBlockEnd
  0
BLOCK
  5
690
100
AcDbEntity
  8
0
100
AcDbBlockBegin
  2
*D4
 70
             1
 10
0.0
 20
0.0
 30
0.0
  3
*D4
  1

  0
LINE
  5
691
100
AcDbEntity
  8
0
  6
CONTINUOUS
 62
             2
100
AcDbLine
 10
187.08109994802996
 20
162.8568114928141
 11
82.29529075894877
 21
162.8568114928141
  0
LINE
  5
692
100
AcDbEntity
  8
0
  6
CONTINUOUS
 62
             2
100
AcDbLine
 10
82.29529075894877
 20
151.19001369096182
 11
82.29529075894877
 21
164.3568114928141
  0
LINE
  5
693
100
AcDbEntity
  8
0
  6
CONTINUOUS
 62
             2
100
AcDbLine
 10
187.08109994802996
 20
150.87222076870353
 11
187.08109994802996
 21
164.3568114928141
  0
SOLID
  5
694
100
AcDbEntity
  8
0
 62
             2
100
AcDbTrace
 10
183.88109994802997
 20
162.43552350053443
 11
183.88109994802997
 21
163.27809948509378
 12
187.08109994802996
 22
162.8568114928141
 13
187.08109994802996
 23
162.8568114928141
  0
SOLID
  5
695
100
AcDbEntity
  8
0
 62
             2
100
AcDbTrace
 10
85.49529075894877
 20
163.27809948509378
 11
85.49529075894877
 21
162.43552350053443
 12
82.29529075894877
 22
162.8568114928141
 13
82.29529075894877
 23
162.8568114928141
  0
MTEXT
  5
696
100
AcDbEntity
  8
0
 62
             2
100
AcDbMText
 10
122.85203249542909
 20
164.85679877130312
 30
0.0
 40
3.2
 41
0.0
 71
             7
 72
             1
  1
\C2; \C2;\C2;104.8\C2;\H1.920000;{\Fgdt;`}0.3
  7
CONVERTER_1
 11
0.99999999999706
 21
0.00000242406841
 31
0.0
  0
ENDBLK
  5
697
100
AcDbEntity
  8
0
100
AcDbBlockEnd
  0
BLOCK
  5
69B
100
AcDbEntity
  8
0
100
AcDbBlockBegin
  2
*D5
 70
             1
 10
0.0
 20
0.0
 30
0.0
  3
*D5
  1

  0
LINE
  5
69C
100
AcDbEntity
  8
0
  6
CONTINUOUS
 62
             2
100
AcDbLine
 10
75.19625215802719
 20
172.8568114928141
 11
194.18013854895159
 21
172.8568114928141
  0
LINE
  5
69D
100
AcDbEntity
  8
0
  6
CONTINUOUS
 62
             2
100
AcDbLine
 10
194.18013854895159
 20
149.85735312767173
 11
194.18013854895159
 21
174.3568114928141
  0
LINE
  5
69E
100
AcDbEntity
  8
0
  6
CONTINUOUS
 62
             2
100
AcDbLine
 10
75.19625215802719
 20
149.85735312767173
 11
75.19625215802719
 21
174.3568114928141
  0
SOLID
  5
69F
100
AcDbEntity
  8
0
 62
             2
100
AcDbTrace
 10
78.3962521580272
 20
173.27809948509378
 11
78.3962521580272
 21
172.43552350053443
 12
75.19625215802719
 22
172.8568114928141
 13
75.19625215802719
 23
172.8568114928141
  0
SOLID
  5
6A0
100
AcDbEntity
  8
0
 62
             2
100
AcDbTrace
 10
190.9801385489516
 20
172.43552350053443
 11
190.9801385489516
 21
173.27809948509378
 12
194.18013854895159
 22
172.8568114928141
 13
194.18013854895159
 23
172.8568114928141
  0
MTEXT
  5
6A1
100
AcDbEntity
  8
0
 62
             2
100
AcDbMText
 10
125.3720324954291
 20
174.85679877130312
 30
0.0
 40
3.2
 41
0.0
 71
             7
 72
             1
  1
\C2; \C2;\C2;119\C2;\H1.920000;{\Fgdt;`}0.5
  7
CONVERTER_1
 11
0.99999999999706
 21
0.00000242406841
 31
0.0
  0
ENDBLK
  5
6A2
100
AcDbEntity
  8
0
100
AcDbBlockEnd
  0
BLOCK
  5
6A6
100
AcDbEntity
  8
0
100
AcDbBlockBegin
  2
*D6
 70
             1
 10
0.0
 20
0.0
 30
0.0
  3
*D6
  1

  0
LINE
  5
6A7
100
AcDbEntity
  8
0
  6
CONTINUOUS
 62
             2
100
AcDbLine
 10
69.1232205667373
 20
25.2829764058035
 11
41.77922056673729
 21
25.2829764058035
  0
LINE
  5
6A8
100
AcDbEntity
  8
0
  6
CONTINUOUS
 62
             2
100
AcDbLine
 10
80.848734626205
 20
39.24899985791135
 11
69.1232205667373
 21
25.2829764058035
  0
SOLID
  5
6A9
100
AcDbEntity
  8
0
 62
             2
100
AcDbTrace
 10
79.11378163540866
 20
36.52734196387583
 11
78.46848182776733
 21
37.0691190841146
 12
80.848734626205
 22
39.24899985791135
 13
80.848734626205
 23
39.24899985791135
  0
MTEXT
  5
6AA
100
AcDbEntity
  8
0
 62
             2
100
AcDbMText
 10
43.50722056676042
 20
27.28295732353701
 30
0.0
 40
3.2
 41
0.0
 71
             7
 72
             1
  1
\C2;8x{\Fgdt;n}\C2;\C2;4.5\C2;\H1.920000;{\Fgdt;`}0.3
  7
CONVERTER_1
 11
0.99999999999706
 21
0.00000242406841
 31
0.0
  0
ENDBLK
  5
6AB
100
AcDbEntity
  8
0
100
AcDbBlockEnd
  0
ENDSEC
  0
SECTION
  2
ENTITIES
  0
HATCH
  5
6B5
100
AcDbEntity
  8
1
  6
CONTINUOUS
 62
             2
100
AcDbHatch
 10
0.0
 20
0.0
 30
0.0
210
0.0
220
0.0
230
1.0
  2
USER
 70
             0
 71
             1
 91
        1
 92
        1
 93
        1
 72
             4
 94
        3
 73
             0
 74
             0
 95
       69
 96
       65
 40
0.0
 40
0.0
 40
0.0
 40
0.0
 40
0.76099347813172
 40
1.40091981201519
 40
1.93707430797159
 40
2.16191329014688
 40
2.49999821379611
 40
3.34521052291919
 40
4.44398652477918
 40
5.54276252663917
 40
6.38797483576224
 40
6.72605975941148
 40
7.02298227820473
 40
7.67621181954988
 40
8.32944136089501
 40
8.62636387968826
 40
8.85761123378011
 40
9.34102130610694
 40
9.99742077104045
 40
10.63647096375525
 40
11.09338188686014
 40
11.41609852996283
 40
11.91185898800444
 40
12.67546219463049
 40
13.27897646054342
 40
13.58784880397065
 40
14.38441432123031
 40
15.4735957427895
 40
16.66031579911514
 40
17.7494972206743
 40
18.546062737934
 40
18.85493508136122
 40
19.13555626730369
 40
19.75292287637715
 40
20.37028948545057
 40
20.65091067139304
 40
20.951164803884
 40
21.74274388045112
 40
22.86187291973568
 40
24.14477694037894
 40
25.42768096102219
 40
26.54681000030674
 40
27.33838907687386
 40
27.63864320936483
 40
27.96028238027176
 40
28.76438030753912
 40
29.80970761298669
 40
30.85503491843426
 40
31.6591328457016
 40
31.98077201660855
 40
32.18577243082022
 40
32.68888297989621
 40
33.36178193397494
 40
34.17830940380141
 40
35.27292182577281
 40
36.42661113299239
 40
37.26409759436016
 40
37.94904804322297
 40
38.46504481401117
 40
38.67706961295217
 40
39.0168135502293
 40
39.82697216989022
 40
40.79393568367903
 40
41.94383824061708
 40
41.94383824061708
 40
41.94383824061708
 40
41.94383824061708
 10
136.9395313470599
 20
104.9327107010326
 10
136.68535490185479
 20
104.93177338845838
 10
136.22157148903372
 20
104.93761356680577
 10
135.56645042836118
 20
104.92034925834119
 10
135.12185465710508
 20
104.96131929326876
 10
134.713118176579
 20
104.88373297849006
 10
134.54044429028474
 20
105.42695757766
 10
134.07022171595395
 20
105.96798960361561
 10
133.56324190106352
 20
106.85245683751687
 10
132.93895890516546
 20
107.7309138552878
 10
132.69206354083002
 20
108.283388408107
 10
132.16991788371053
 20
108.83696822783118
 10
132.79695644192319
 20
108.72952645566313
 10
133.23009207038348
 20
108.78224142639671
 10
133.79364384963242
 20
108.77502224768473
 10
134.18523006246875
 20
108.76079741342933
 10
134.51938656812777
 20
108.80937683151774
 10
134.95836763578669
 20
109.02514123512267
 10
135.15259022091337
 20
109.64343503916051
 10
134.99490125000997
 20
110.26719622192937
 10
134.53639539914144
 20
110.49908647020025
 10
134.11356842379053
 20
110.51047105598724
 10
133.56975368969955
 20
110.52139688233322
 10
133.04208680929943
 20
110.43042910201788
 10
132.22658493525807
 20
110.68675443582582
 10
132.35091477282393
 20
109.99285165528647
 10
132.28354933059433
 20
109.32864025831175
 10
132.3168450123307
 20
108.27117861145403
 10
132.29339081070964
 20
107.17305295056137
 10
132.34047361386177
 20
106.1014326012376
 10
132.23996532599901
 20
105.47125729316373
 10
132.39110118404759
 20
104.85680925076977
 10
131.8688807697402
 20
104.98120993025552
 10
131.40828384304211
 20
104.89914950036749
 10
130.94883871241461
 20
104.98184405556289
 10
130.42860875249761
 20
104.85664511463833
 10
130.57580361061252
 20
105.46254247951003
 10
130.476111137929
 20
106.09928743412947
 10
130.52347331730707
 20
107.2097963965289
 10
130.50381852621848
 20
108.42631629268483
 10
130.52272287708658
 20
109.64433369692787
 10
130.47836352304449
 20
110.75128050179239
 10
130.57149877603769
 20
111.39551424023774
 10
130.42990420752488
 20
112.00813334897444
 10
131.05909074868865
 20
111.85475979911823
 10
131.68516528291363
 20
111.95299669989798
 10
132.6910456887199
 20
111.91205915696995
 10
133.64458061188105
 20
111.92690220669861
 10
134.37031289191117
 20
111.91894144068984
 10
134.81382983582898
 20
111.92888028524963
 10
135.15679164753652
 20
111.90546775439429
 10
135.60764566937257
 20
111.79592566770916
 10
136.2050197419801
 20
111.47758775053308
 10
136.74835719451389
 20
110.76581812916713
 10
136.91844189073248
 20
109.73104997003306
 10
136.79302693918288
 20
108.68418551561336
 10
136.27318886422864
 20
107.91518145227082
 10
135.62833158984353
 20
107.60026233584935
 10
135.24202040235139
 20
107.45512932258362
 10
134.74553963510309
 20
107.50475065721101
 10
135.32017221727574
 20
107.02261731081927
 10
135.58016749478003
 20
106.55913657412985
 10
136.27427757181886
 20
105.76718038466234
 10
136.69330604271252
 20
105.23188792681951
 10
136.9395313470599
 20
104.9327107010326
 97
        1
330
58B
 75
             1
 76
             0
 52
45.0
 41
0.01666666666667
 77
             0
 78
             1
 53
45.0
 43
-357.10417454558279
 44
326.6219434317382
 45
-0.0117851130197758
 46
0.0117851130197758
 79
             0
 98
        1
 10
0.0
 20
0.0
  0
HATCH
  5
6B4
100
AcDbEntity
  8
1
  6
CONTINUOUS
 62
             2
100
AcDbHatch
 10
0.0
 20
0.0
 30
0.0
210
0.0
220
0.0
230
1.0
  2
USER
 70
             0
 71
             1
 91
        1
 92
        1
 93
        1
 72
             4
 94
        3
 73
             0
 74
             0
 95
       71
 96
       67
 40
0.0
 40
0.0
 40
0.0
 40
0.0
 40
0.95288397021122
 40
1.14801356457502
 40
1.37537615472756
 40
1.89915178727612
 40
2.48188546475242
 40
2.88619755026438
 40
3.33673549248756
 40
4.07005861080878
 40
4.95452065336986
 40
6.07970010876748
 40
7.29405051963365
 40
8.16895477498932
 40
8.83578245834414
 40
9.12255760338296
 40
9.45071357854064
 40
10.27110351643486
 40
11.33761043569736
 40
12.40411735495985
 40
13.22450729285407
 40
13.55266326801177
 40
13.76829569179601
 40
14.24268702412132
 40
14.71707835644664
 40
14.93271078023086
 40
15.30802875858143
 40
16.20301778387895
 40
17.27123049149209
 40
18.16621951678958
 40
18.54153749514016
 40
18.74750400938464
 40
19.17198137232659
 40
19.73341642917075
 40
20.2861555359035
 40
20.70417566056281
 40
20.91058077367012
 40
21.54319864057159
 40
22.2737020188062
 40
22.87704079531993
 40
23.12816485705872
 40
23.482139731604
 40
24.09414553206149
 40
24.9066267196352
 40
26.10151558464702
 40
27.30683915676648
 40
28.20941248337027
 40
28.9123746533441
 40
29.21559509583347
 40
29.54804148938978
 40
30.37915747328053
 40
31.45960825233852
 40
32.54005903139648
 40
33.37117501528726
 40
33.70362140884356
 40
33.96006581200107
 40
34.5242434989476
 40
35.08842118589414
 40
35.34486558905166
 40
35.66216512794642
 40
36.4188024899262
 40
37.32188579293439
 40
38.07852315491419
 40
38.39582269380896
 40
38.57725665510317
 40
39.48723160038835
 40
39.48723160038835
 40
39.48723160038835
 40
39.48723160038835
 10
119.9594227381978
 20
109.8630837402319
 10
119.90750244329107
 20
109.49010909771499
 10
120.24271633866107
 20
109.18120140895826
 10
120.69774276102105
 20
109.11101365267572
 10
121.01376387771606
 20
109.12754495555428
 10
121.458094308627
 20
109.12363625843062
 10
121.96150527825196
 20
109.12350317250586
 10
122.44157555766152
 20
109.13063254753216
 10
122.96639436332931
 20
109.04240599658917
 10
123.61673832890457
 20
108.78990077362758
 10
124.31554267283306
 20
108.13994742908548
 10
124.59008555868152
 20
107.05691148075881
 10
124.44402017508676
 20
105.94119058956807
 10
123.78816641408685
 20
105.23070014498083
 10
123.21465414152283
 20
104.99800386721063
 10
122.79316457078146
 20
104.91480133420671
 10
122.3132694692535
 20
104.93913338775914
 10
121.57345047259358
 20
104.9210972032586
 10
120.60223318801391
 20
104.94122091088849
 10
119.56870376032637
 20
104.89053588553898
 10
118.94751749766007
 20
105.00730863497985
 10
118.31960232553567
 20
104.83520152362972
 10
118.40685272064606
 20
105.25910583073433
 10
118.35544366299636
 20
105.61762983372546
 10
118.4046016972256
 20
105.98022800491395
 10
118.32023726929873
 20
106.4166513494071
 10
119.01551731063046
 20
106.21799539622704
 10
119.66448725663675
 20
106.34849660178659
 10
120.66657593167707
 20
106.29541585606907
 10
121.43472882160752
 20
106.31750549200704
 10
121.92903807567319
 20
106.29883548054843
 10
122.26170782994456
 20
106.33504762700674
 10
122.64962561726438
 20
106.50721438605832
 10
122.84290770501596
 20
107.04354655845799
 10
122.65001975169935
 20
107.58355539622123
 10
122.25446965738527
 20
107.73506793446207
 10
121.83721505474803
 20
107.74917541048659
 10
121.31308493241367
 20
107.74182304961036
 10
120.65771825349742
 20
107.74133742244408
 10
120.13000110207965
 20
107.74997229065589
 10
119.72593841444764
 20
107.73299311772718
 10
119.32685867201742
 20
107.82270362637271
 10
118.77525672586256
 20
108.07215890663268
 10
118.22593168086702
 20
108.80680895405041
 10
118.08549825201973
 20
109.89647071582075
 10
118.31819155422848
 20
111.0321134896424
 10
119.06404455534727
 20
111.67875521059023
 10
119.67659373231504
 20
111.87846547923203
 10
120.12095419158575
 20
111.93229443656561
 10
120.61007855122003
 20
111.9172363022186
 10
121.36144861635883
 20
111.92874763761615
 10
122.33902420308934
 20
111.91386966642651
 10
123.40776699099433
 20
111.95409052767704
 10
123.98556873082023
 20
111.86070216285201
 10
124.71737034025308
 20
112.00221853704268
 10
124.34676200873929
 20
111.58890885192481
 10
124.18840114432771
 20
111.23025558775471
 10
123.89232640861081
 20
110.87323361601551
 10
123.74262419458553
 20
110.46279414001489
 10
123.2259992750699
 20
110.5936048213067
 10
122.61205245951891
 20
110.5128114282204
 10
121.78974100877312
 20
110.54409161988386
 10
121.13413815569587
 20
110.53496406887619
 10
120.71570512758659
 20
110.53958164411998
 10
120.24492200881858
 20
110.52575650666333
 10
119.91154708677777
 20
110.21090603938724
 10
119.9594227381978
 20
109.8630837402319
 97
        1
330
58A
 75
             1
 76
             0
 52
45.0
 41
0.01666666666667
 77
             0
 78
             1
 53
45.0
 43
-357.10417454558279
 44
326.6219434317382
 45
-0.0117851130197758
 46
0.0117851130197758
 79
             0
 98
        1
 10
0.0
 20
0.0
  0
HATCH
  5
6B3
100
AcDbEntity
  8
1
  6
CONTINUOUS
 62
             2
100
AcDbHatch
 10
0.0
 20
0.0
 30
0.0
210
0.0
220
0.0
230
1.0
  2
USER
 70
             0
 71
             1
 91
        2
 92
        1
 93
        1
 72
             2
 10
147.79173754289471
 20
108.35545595799969
 40
3.8868240385168917
 50
0.0
 51
360.0
 73
             1
 97
        1
330
57A
 92
       16
 93
        1
 72
             2
 10
147.79173754289471
 20
108.35628111465481
 40
2.2015523534159911
 50
0.0
 51
360.0
 73
             1
 97
        1
330
57B
 75
             1
 76
             0
 52
45.0
 41
0.01666666666667
 77
             0
 78
             1
 53
45.0
 43
-357.10417454558279
 44
326.6219434317382
 45
-0.0117851130197758
 46
0.0117851130197758
 79
             0
 98
        1
 10
0.0
 20
0.0
  0
HATCH
  5
6B2
100
AcDbEntity
  8
1
  6
CONTINUOUS
 62
             2
100
AcDbHatch
 10
0.0
 20
0.0
 30
0.0
210
0.0
220
0.0
230
1.0
  2
USER
 70
             0
 71
             1
 91
        1
 92
        1
 93
       12
 72
             1
 10
130.3112299909655
 20
111.9238180667282
 11
124.9342161753772
 21
111.9204432390044
 72
             1
 10
124.9342161753772
 20
111.9204432390044
 11
124.9342161753772
 21
104.9327107010326
 72
             1
 10
124.9342161753772
 20
104.9327107010326
 11
130.09259722875331
 21
104.9371727540874
 72
             1
 10
130.09259722875331
 20
104.9371727540874
 11
130.09259722875331
 21
106.33548419389319
 72
             1
 10
130.09259722875331
 20
106.33548419389319
 11
126.7308104960254
 21
106.33548419389319
 72
             1
 10
126.7308104960254
 20
106.33548419389319
 11
126.7308104960254
 21
107.73173384563751
 72
             1
 10
126.7308104960254
 20
107.73173384563751
 11
130.09259722875331
 21
107.73173384563751
 72
             1
 10
130.09259722875331
 20
107.73173384563751
 11
130.09259722875331
 21
109.12948274446011
 72
             1
 10
130.09259722875331
 20
109.12948274446011
 11
126.7308104960254
 21
109.12948274446011
 72
             1
 10
126.7308104960254
 20
109.12948274446011
 11
126.7308104960254
 21
110.52441938871119
 72
             1
 10
126.7308104960254
 20
110.52441938871119
 11
129.4627252602223
 21
110.52441938871119
 72
             1
 10
129.4627252602223
 20
110.52441938871119
 11
130.3112299909655
 21
111.9238180667282
 97
        1
330
58D
 75
             1
 76
             0
 52
45.0
 41
0.01666666666667
 77
             0
 78
             1
 53
45.0
 43
-357.10417454558279
 44
326.6219434317382
 45
-0.0117851130197758
 46
0.0117851130197758
 79
             0
 98
        1
 10
0.0
 20
0.0
  0
HATCH
  5
6B1
100
AcDbEntity
  8
1
  6
CONTINUOUS
 62
             2
100
AcDbHatch
 10
0.0
 20
0.0
 30
0.0
210
0.0
220
0.0
230
1.0
  2
USER
 70
             0
 71
             1
 91
        1
 92
        1
 93
        4
 72
             1
 10
143.083897163887
 20
108.75233173994749
 11
141.5209173744885
 21
111.91485555054371
 72
             1
 10
141.5209173744885
 20
111.91485555054371
 11
140.96552297043681
 21
111.91485555054371
 72
             1
 10
140.96552297043681
 20
111.91485555054371
 11
142.80421246824821
 21
108.1968997109235
 72
             1
 10
142.80421246824821
 20
108.1968997109235
 11
143.083897163887
 21
108.75233173994749
 97
        1
330
58F
 75
             1
 76
             0
 52
45.0
 41
0.01666666666667
 77
             0
 78
             1
 53
45.0
 43
-357.10417454558279
 44
326.6219434317382
 45
-0.0117851130197758
 46
0.0117851130197758
 79
             0
 98
        1
 10
0.0
 20
0.0
  0
HATCH
  5
6B0
100
AcDbEntity
  8
1
  6
CONTINUOUS
 62
             2
100
AcDbHatch
 10
0.0
 20
0.0
 30
0.0
210
0.0
220
0.0
230
1.0
  2
USER
 70
             0
 71
             1
 91
        1
 92
        1
 93
        4
 72
             1
 10
143.72494465743799
 20
110.0288764060967
 11
142.79326204981561
 21
111.91485555054371
 72
             1
 10
142.79326204981561
 20
111.91485555054371
 11
142.07518666439691
 21
111.91485555054371
 72
             1
 10
142.07518666439691
 20
111.91485555054371
 11
143.36328192139499
 21
109.3076885189853
 72
             1
 10
143.36328192139499
 20
109.3076885189853
 11
143.72494465743799
 21
110.0288764060967
 97
        1
330
591
 75
             1
 76
             0
 52
45.0
 41
0.01666666666667
 77
             0
 78
             1
 53
45.0
 43
-357.10417454558279
 44
326.6219434317382
 45
-0.0117851130197758
 46
0.0117851130197758
 79
             0
 98
        1
 10
0.0
 20
0.0
  0
HATCH
  5
6AF
100
AcDbEntity
  8
1
  6
CONTINUOUS
 62
             2
100
AcDbHatch
 10
0.0
 20
0.0
 30
0.0
210
0.0
220
0.0
230
1.0
  2
USER
 70
             0
 71
             1
 91
        1
 92
        1
 93
        3
 72
             1
 10
144.67132801470839
 20
111.91485555054371
 11
143.34663144790071
 21
111.91485555054371
 72
             1
 10
143.34663144790071
 20
111.91485555054371
 11
144.00350452840499
 21
110.58483415547261
 72
             1
 10
144.00350452840499
 20
110.58483415547261
 11
144.67132801470839
 21
111.91485555054371
 97
        1
330
593
 75
             1
 76
             0
 52
45.0
 41
0.01666666666667
 77
             0
 78
             1
 53
45.0
 43
-357.10417454558279
 44
326.6219434317382
 45
-0.0117851130197758
 46
0.0117851130197758
 79
             0
 98
        1
 10
0.0
 20
0.0
  0
HATCH
  5
6AE
100
AcDbEntity
  8
1
  6
CONTINUOUS
 62
             2
100
AcDbHatch
 10
0.0
 20
0.0
 30
0.0
210
0.0
220
0.0
230
1.0
  2
USER
 70
             0
 71
             1
 91
        1
 92
        1
 93
        4
 72
             1
 10
142.4726258238465
 20
107.52971429887251
 11
140.28697402435921
 21
111.91485555054371
 72
             1
 10
140.28697402435921
 20
111.91485555054371
 11
139.38821737507641
 21
111.91485555054371
 72
             1
 10
139.38821737507641
 20
111.91485555054371
 11
142.0186348142617
 21
106.6201572228057
 72
             1
 10
142.0186348142617
 20
106.6201572228057
 11
142.4726258238465
 21
107.52971429887251
 97
        1
330
595
 75
             1
 76
             0
 52
45.0
 41
0.01666666666667
 77
             0
 78
             1
 53
45.0
 43
-357.10417454558279
 44
326.6219434317382
 45
-0.0117851130197758
 46
0.0117851130197758
 79
             0
 98
        1
 10
0.0
 20
0.0
  0
HATCH
  5
6AD
100
AcDbEntity
  8
1
  6
CONTINUOUS
 62
             2
100
AcDbHatch
 10
0.0
 20
0.0
 30
0.0
210
0.0
220
0.0
230
1.0
  2
USER
 70
             0
 71
             1
 91
        1
 92
        1
 93
        4
 72
             1
 10
141.64654682675831
 20
105.8736563356992
 11
138.6113401685125
 21
111.91485555054371
 72
             1
 10
138.6113401685125
 20
111.91485555054371
 11
136.4836654453099
 21
111.91485555054371
 72
             1
 10
136.4836654453099
 20
111.91485555054371
 11
140.577084228872
 21
103.7094922767305
 72
             1
 10
140.577084228872
 20
103.7094922767305
 11
141.64654682675831
 21
105.8736563356992
 97
        1
330
597
 75
             1
 76
             0
 52
45.0
 41
0.01666666666667
 77
             0
 78
             1
 53
45.0
 43
-357.10417454558279
 44
326.6219434317382
 45
-0.0117851130197758
 46
0.0117851130197758
 79
             0
 98
        1
 10
0.0
 20
0.0
  0
DIMENSION
  5
6A4
100
AcDbEntity
  8
1
100
AcDbDimension
  2
*D5
 10
75.19625215802719
 20
172.8568114928141
 11
134.68314360652479
 21
176.4568114928141
 31
0.0
 53
0.00013888888889
  1
 119
  3
ME10_DIM_5
100
AcDbAlignedDimension
 13
194.18013854895159
 23
148.8573531276717
 14
75.19625215802722
 24
148.8573531276717
100
AcDbRotatedDimension
  0
DIMENSION
  5
699
100
AcDbEntity
  8
1
100
AcDbDimension
  2
*D4
 10
187.08109994802996
 20
162.8568114928141
 11
134.68314360652479
 21
166.4568114928141
 31
0.0
 53
0.00013888888889
  1
 104.8
  3
ME10_DIM_4
100
AcDbAlignedDimension
 13
82.2952907589488
 23
150.19001369096179
 14
187.08109994802999
 24
149.8722207687035
100
AcDbRotatedDimension
  0
DIMENSION
  5
68E
100
AcDbEntity
  8
1
100
AcDbDimension
  2
*D3
 10
75.19625215802722
 20
172.8568114928141
 11
46.1809284248019
 21
176.4568114928141
 31
0.0
 53
0.00013888888889
  1
300
  3
ME10_DIM_3
100
AcDbAlignedDimension
 13
16.37014748726421
 23
136.8718779600396
 14
75.19625215802722
 24
148.8573531276717
100
AcDbRotatedDimension
  0
DIMENSION
  5
683
100
AcDbEntity
  8
1
100
AcDbDimension
  2
*D2
 10
253.90167619096505
 20
162.8568114928141
 11
240.29441829920901
 21
166.4568114928141
 31
0.0
 53
0.00013888888889
  1
(5)
  3
ME10_DIM_2
100
AcDbAlignedDimension
 13
248.90167619096499
 23
148.91626155294321
 14
253.90167619096499
 24
148.91626155294321
100
AcDbRotatedDimension
  0
DIMENSION
  5
676
100
AcDbEntity
  8
1
100
AcDbDimension
  2
*D1
 10
282.10167617904409
 20
162.8568114928141
 11
293.96067832204602
 21
166.4568114928141
 31
0.0
 53
0.00013888888889
  1
(5)
  3
ME10_DIM_1
100
AcDbAlignedDimension
 13
287.1016761790442
 23
148.91626155294321
 14
282.10167617904398
 24
148.91626155294321
100
AcDbRotatedDimension
  0
DIMENSION
  5
669
100
AcDbEntity
  8
1
100
AcDbDimension
  2
*D0
 10
287.1016761790442
 20
172.8568114928141
 11
268.08968980563901
 21
176.4568114928141
 31
0.0
 53
0.00013888888889
  1
<>
  3
ME10_DIM_0
100
AcDbAlignedDimension
 13
248.90167619096499
 23
152.71738585002589
 14
287.1016761790442
 24
152.71738585002589
100
AcDbRotatedDimension
  0
MTEXT
  5
65E
100
AcDbEntity
  8
1
 62
             2
100
AcDbMText
 10
269.2396479028896
 20
21.66661689348376
 30
0.0
 40
4.0
 41
0.0
 71
             8
 72
             1
  1
%%d*
  7
CONVERTER_1
  0
MTEXT
  5
65D
100
AcDbEntity
  8
1
 62
             2
100
AcDbMText
 10
134.68314360652479
 20
21.66661689348376
 30
0.0
 40
4.0
 41
0.0
 71
             8
 72
             1
  1
%%p]«*
  7
CONVERTER_1
  0
LEADER
  5
65B
100
AcDbEntity
  8
1
  6
CONTINUOUS
 62
             2
100
AcDbLeader
  3
Standard
 71
             0
 73
             3
 74
             0
 75
             0
 40
0.0
 76
             2
 10
255.73697732127499
 20
17.2683520085352
 30
0.0
 10
281.14150495635732
 20
17.2683520085352
 30
0.0
 77
             2
  0
LEADER
  5
659
100
AcDbEntity
  8
1
  6
CONTINUOUS
 62
             2
100
AcDbLeader
  3
Standard
 71
             0
 73
             3
 74
             0
 75
             0
 40
0.0
 76
             2
 10
108.9769600835854
 20
19.78205750800527
 30
0.0
 10
112.5996250127078
 20
18.79457455397096
 30
0.0
 77
             2
  0
LWPOLYLINE
  5
657
100
AcDbEntity
  8
0
  6
CONTINUOUS
 62
             3
100
AcDbPolyline
 90
       16
 70
             0
 10
254.15175016032919
 20
138.1564536011949
 10
254.09735335218181
 20
138.18155672319079
 10
254.09735335218181
 20
138.18155672319079
 10
254.04816610919701
 20
138.2113488978878
 10
254.04816610919701
 20
138.2113488978878
 10
254.00503007876131
 20
138.24532035656119
 10
254.00503007876131
 20
138.24532035656119
 10
253.96868328558671
 20
138.28288984216621
 10
253.96868328558671
 20
138.28288984216621
 10
253.93974767433869
 20
138.32341453350949
 10
253.93974767433869
 20
138.32341453350949
 10
253.91871832119691
 20
138.36620103485731
 10
253.91871832119691
 20
138.36620103485731
 10
253.90595502959951
 20
138.41051726706181
 10
253.90595502959951
 20
138.41051726706181
 10
253.90167619096499
 20
138.45560496218349
  0
LWPOLYLINE
  5
655
100
AcDbEntity
  8
0
  6
CONTINUOUS
 62
             3
100
AcDbPolyline
 90
       16
 70
             0
 10
281.60152824031582
 20
143.2656182787552
 10
281.69910226570818
 20
143.2724137148991
 10
281.69910226570818
 20
143.2724137148991
 10
281.792926562898
 20
143.2925388879313
 10
281.792926562898
 20
143.2925388879313
 10
281.87939555751541
 20
143.32522039778399
 10
281.87939555751541
 20
143.32522039778399
 10
281.9551862310098
 20
143.36920230753589
 10
281.9551862310098
 20
143.36920230753589
 10
282.01738606201872
 20
143.4227944157258
 10
282.01738606201872
 20
143.4227944157258
 10
282.06360469567051
 20
143.48393721796421
 10
282.06360469567051
 20
143.48393721796421
 10
282.0920659731554
 20
143.5502810171977
 10
282.0920659731554
 20
143.5502810171977
 10
282.10167617904398
 20
143.61927626944919
  0
LWPOLYLINE
  5
653
100
AcDbEntity
  8
0
  6
CONTINUOUS
 62
             3
100
AcDbPolyline
 90
       16
 70
             0
 10
254.40182409989089
 20
143.2656182787552
 10
254.30425010430079
 20
143.2724137148991
 10
254.30425010430079
 20
143.2724137148991
 10
254.21042577730881
 20
143.2925388879313
 10
254.21042577730881
 20
143.2925388879313
 10
254.1239568124937
 20
143.32522039778399
 10
254.1239568124937
 20
143.32522039778399
 10
254.04816610919701
 20
143.36920230753589
 10
254.04816610919701
 20
143.36920230753589
 10
253.9859663079904
 20
143.4227944157258
 10
253.9859663079904
 20
143.4227944157258
 10
253.93974767433869
 20
143.48393721796421
 10
253.93974767433869
 20
143.48393721796421
 10
253.91128639685371
 20
143.5502810171977
 10
253.91128639685371
 20
143.5502810171977
 10
253.90167619096499
 20
143.61927626944919
  0
LWPOLYLINE
  5
651
100
AcDbEntity
  8
0
  6
CONTINUOUS
 62
             3
100
AcDbPolyline
 90
       16
 70
             0
 10
281.60152824031582
 20
44.24137949116374
 10
281.69910226570818
 20
44.23458404756929
 10
281.69910226570818
 20
44.23458404756929
 10
281.792926562898
 20
44.214458874537
 10
281.792926562898
 20
44.214458874537
 10
281.87939555751541
 20
44.18177737213523
 10
281.87939555751541
 20
44.18177737213523
 10
281.9551862310098
 20
44.13779546238334
 10
281.9551862310098
 20
44.13779546238334
 10
282.01738606201872
 20
44.08420334674264
 10
282.01738606201872
 20
44.08420334674264
 10
282.06360469567051
 20
44.02306055195481
 10
282.06360469567051
 20
44.02306055195481
 10
282.0920659731554
 20
43.95671674527074
 10
282.0920659731554
 20
43.95671674527074
 10
282.10167617904398
 20
43.88772149301911
  0
LWPOLYLINE
  5
64F
100
AcDbEntity
  8
0
  6
CONTINUOUS
 62
             3
100
AcDbPolyline
 90
       16
 70
             0
 10
254.40182409989089
 20
44.24137949116374
 10
254.30425010430079
 20
44.23458404756929
 10
254.30425010430079
 20
44.23458404756929
 10
254.21042577730881
 20
44.214458874537
 10
254.21042577730881
 20
44.214458874537
 10
254.1239568124937
 20
44.18177737213523
 10
254.1239568124937
 20
44.18177737213523
 10
254.04816610919701
 20
44.13779546238334
 10
254.04816610919701
 20
44.13779546238334
 10
253.9859663079904
 20
44.08420334674264
 10
253.9859663079904
 20
44.08420334674264
 10
253.93974767433869
 20
44.02306055195481
 10
253.93974767433869
 20
44.02306055195481
 10
253.91128639685371
 20
43.95671674527074
 10
253.91128639685371
 20
43.95671674527074
 10
253.90167619096499
 20
43.88772149301911
  0
LWPOLYLINE
  5
64D
100
AcDbEntity
  8
0
  6
CONTINUOUS
 62
             3
100
AcDbPolyline
 90
       16
 70
             0
 10
281.60152824031582
 20
142.55830228246589
 10
281.69910226570818
 20
142.5650977260604
 10
281.69910226570818
 20
142.5650977260604
 10
281.792926562898
 20
142.58522289909271
 10
281.792926562898
 20
142.58522289909271
 10
281.87939555751541
 20
142.61790440149451
 10
281.87939555751541
 20
142.61790440149451
 10
281.9551862310098
 20
142.66188631124641
 10
281.9551862310098
 20
142.66188631124641
 10
282.01738606201872
 20
142.71547842688699
 10
282.01738606201872
 20
142.71547842688699
 10
282.06360469567051
 20
142.77662122912551
 10
282.06360469567051
 20
142.77662122912551
 10
282.0920659731554
 20
142.84296502835889
 10
282.0920659731554
 20
142.84296502835889
 10
282.10167617904398
 20
142.9119602806106
  0
LWPOLYLINE
  5
64B
100
AcDbEntity
  8
0
  6
CONTINUOUS
 62
             3
100
AcDbPolyline
 90
       16
 70
             0
 10
254.40182409989089
 20
142.55830228246589
 10
254.30425010430079
 20
142.5650977260604
 10
254.30425010430079
 20
142.5650977260604
 10
254.21042577730881
 20
142.58522289909271
 10
254.21042577730881
 20
142.58522289909271
 10
254.1239568124937
 20
142.61790440149451
 10
254.1239568124937
 20
142.61790440149451
 10
254.04816610919701
 20
142.66188631124641
 10
254.04816610919701
 20
142.66188631124641
 10
253.9859663079904
 20
142.71547842688699
 10
253.9859663079904
 20
142.71547842688699
 10
253.93974767433869
 20
142.77662122912551
 10
253.93974767433869
 20
142.77662122912551
 10
253.91128639685371
 20
142.84296502835889
 10
253.91128639685371
 20
142.84296502835889
 10
253.90167619096499
 20
142.9119602806106
  0
LWPOLYLINE
  5
649
100
AcDbEntity
  8
0
  6
CONTINUOUS
 62
             3
100
AcDbPolyline
 90
       10
 70
             0
 10
282.10167617904398
 20
136.5333828396335
 10
282.02828784095499
 20
136.06876597471381
 10
282.02828784095499
 20
136.06876597471381
 10
281.6449563633131
 20
135.4124759948983
 10
281.6449563633131
 20
135.4124759948983
 10
280.97498546349271
 20
134.88268609262849
 10
280.97498546349271
 20
134.88268609262849
 10
280.09386889445051
 20
134.53892244316481
 10
280.09386889445051
 20
134.53892244316481
 10
279.10078857647642
 20
134.4198561228051
  0
LWPOLYLINE
  5
647
100
AcDbEntity
  8
0
  6
CONTINUOUS
 62
             3
100
AcDbPolyline
 90
       10
 70
             0
 10
279.10078857647642
 20
52.37982565082456
 10
279.75867576705667
 20
52.32841834343816
 10
279.75867576705667
 20
52.32841834343816
 10
280.69079880224922
 20
52.05881264723683
 10
280.69079880224922
 20
52.05881264723683
 10
281.44375730859502
 20
51.58698181725896
 10
281.44375730859502
 20
51.58698181725896
 10
281.9324334095644
 20
50.96612352050687
 10
281.9324334095644
 20
50.96612352050687
 10
282.10167617904398
 20
50.26629893399621
  0
LWPOLYLINE
  5
645
100
AcDbEntity
  8
0
  6
CONTINUOUS
 62
             3
100
AcDbPolyline
 90
       16
 70
             0
 10
254.15175016032919
 20
48.64322817988528
 10
254.09735335218181
 20
48.61812505043889
 10
254.09735335218181
 20
48.61812505043889
 10
254.04816610919701
 20
48.58833287574197
 10
254.04816610919701
 20
48.58833287574197
 10
254.00503007876131
 20
48.55436141706849
 10
254.00503007876131
 20
48.55436141706849
 10
253.96868328558671
 20
48.51679193146373
 10
253.96868328558671
 20
48.51679193146373
 10
253.93974767433869
 20
48.47626724012042
 10
253.93974767433869
 20
48.47626724012042
 10
253.91871832119691
 20
48.4334807387724
 10
253.91871832119691
 20
48.4334807387724
 10
253.90595502959951
 20
48.38916450656797
 10
253.90595502959951
 20
48.38916450656797
 10
253.90167619096499
 20
48.3440768114462
  0
LWPOLYLINE
  5
643
100
AcDbEntity
  8
0
  6
CONTINUOUS
 62
             3
100
AcDbPolyline
 90
        6
 70
             0
 10
263.30638168560722
 20
134.4186507231727
 10
258.23279170500501
 20
136.49018812097449
 10
258.23279170500501
 20
136.49018812097449
 10
254.7679010759519
 20
137.90488362230229
 10
254.7679010759519
 20
137.90488362230229
 10
254.15175016032919
 20
138.1564536011949
  0
LWPOLYLINE
  5
641
100
AcDbEntity
  8
0
  6
CONTINUOUS
 62
             3
100
AcDbPolyline
 90
        6
 70
             0
 10
254.15175016032919
 20
48.64322817988528
 10
258.97529466258737
 20
50.61265477455999
 10
258.97529466258737
 20
50.61265477455999
 10
262.44016639696821
 20
52.02735523797418
 10
262.44016639696821
 20
52.02735523797418
 10
263.30638168560722
 20
52.38103105045701
  0
LWPOLYLINE
  5
63F
100
AcDbEntity
  8
0
  6
CONTINUOUS
 62
             3
100
AcDbPolyline
 90
        4
 70
             0
 10
254.15175016032919
 20
119.03356671996259
 10
254.00207854615911
 20
119.36684854246531
 10
254.00207854615911
 20
119.36684854246531
 10
253.90167619096499
 20
120.1096366263168
  0
LWPOLYLINE
  5
63D
100
AcDbEntity
  8
0
  6
CONTINUOUS
 62
             3
100
AcDbPolyline
 90
       14
 70
             0
 10
263.30638168560722
 20
93.39984089054013
 10
263.15980623471012
 20
96.57483095593597
 10
263.15980623471012
 20
96.57483095593597
 10
262.71641380893448
 20
99.7764833412304
 10
262.71641380893448
 20
99.7764833412304
 10
262.00038935052612
 20
102.9036756373181
 10
262.00038935052612
 20
102.9036756373181
 10
261.05415679322942
 20
105.90883829362539
 10
261.05415679322942
 20
105.90883829362539
 10
259.9009168575929
 20
108.8240534505978
 10
259.9009168575929
 20
108.8240534505978
 10
257.25689996587488
 20
114.0867795637982
 10
257.25689996587488
 20
114.0867795637982
 10
254.15175016032919
 20
119.03356671996259
  0
LWPOLYLINE
  5
63B
100
AcDbEntity
  8
0
  6
CONTINUOUS
 62
             3
100
AcDbPolyline
 90
       14
 70
             0
 10
254.15175016032919
 20
67.76611505366708
 10
255.08619679319131
 20
69.16234723396457
 10
255.08619679319131
 20
69.16234723396457
 10
257.24384124385568
 20
72.68969432927514
 10
257.24384124385568
 20
72.68969432927514
 10
259.16094939219221
 20
76.35217012382879
 10
259.16094939219221
 20
76.35217012382879
 10
260.74619616376617
 20
80.05427846975471
 10
260.74619616376617
 20
80.05427846975471
 10
261.99629212724432
 20
83.88101589597608
 10
261.99629212724432
 20
83.88101589597608
 10
262.97730339872112
 20
88.64042839325811
 10
262.97730339872112
 20
88.64042839325811
 10
263.30638168560722
 20
93.39984089054013
  0
LWPOLYLINE
  5
639
100
AcDbEntity
  8
0
  6
CONTINUOUS
 62
             3
100
AcDbPolyline
 90
        4
 70
             0
 10
253.90167619096499
 20
66.69004514731313
 10
254.00568131911029
 20
67.44466987170137
 10
254.00568131911029
 20
67.44466987170137
 10
254.15175016032919
 20
67.76611505366708
  0
LWPOLYLINE
  5
637
100
AcDbEntity
  8
0
  6
CONTINUOUS
 62
             3
100
AcDbPolyline
 90
        4
 70
             0
 10
126.7581989077145
 20
35.37272199906266
 10
126.76399003539611
 20
35.50899762578166
 10
126.76399003539611
 20
35.50899762578166
 10
126.68531339440869
 20
35.6501787371173
  0
LWPOLYLINE
  5
635
100
AcDbEntity
  8
0
  6
CONTINUOUS
 62
             3
100
AcDbPolyline
 90
        8
 70
             0
 10
191.41311546240379
 20
78.35223571874047
 10
191.3790671733432
 20
78.42483092017318
 10
191.3790671733432
 20
78.42483092017318
 10
191.2935630885178
 20
78.50688012607242
 10
191.2935630885178
 20
78.50688012607242
 10
191.16205363545939
 20
78.52390678144838
 10
191.16205363545939
 20
78.52390678144838
 10
191.01751609716939
 20
78.46381870575107
  0
LWPOLYLINE
  5
633
100
AcDbEntity
  8
0
  6
CONTINUOUS
 62
             3
100
AcDbPolyline
 90
        8
 70
             0
 10
156.42880251083901
 20
147.8666269994512
 10
156.35263254318761
 20
147.84157734282161
 10
156.35263254318761
 20
147.84157734282161
 10
156.2608751860671
 20
147.76658660091331
 10
156.2608751860671
 20
147.76658660091331
 10
156.2281209436469
 20
147.63808833725619
 10
156.2281209436469
 20
147.63808833725619
 10
156.27034883771481
 20
147.48736182518149
  0
LWPOLYLINE
  5
631
100
AcDbEntity
  8
0
  6
CONTINUOUS
 62
             3
100
AcDbPolyline
 90
       42
 70
             0
 10
163.65913792524859
 20
80.19631116010106
 10
165.0258205739074
 20
80.24796918697501
 10
165.0258205739074
 20
80.24796918697501
 10
166.0955043939166
 20
80.29540317423488
 10
166.0955043939166
 20
80.29540317423488
 10
167.30721720133349
 20
80.36513691313411
 10
167.30721720133349
 20
80.36513691313411
 10
168.4488212672286
 20
80.4536367795601
 10
168.4488212672286
 20
80.4536367795601
 10
169.6531798449569
 20
80.5762192971244
 10
169.6531798449569
 20
80.5762192971244
 10
170.70660512719681
 20
80.70468324340726
 10
170.70660512719681
 20
80.70468324340726
 10
173.11250226769971
 20
81.02401553757346
 10
173.11250226769971
 20
81.02401553757346
 10
175.36890452180421
 20
81.29092760301973
 10
175.36890452180421
 20
81.29092760301973
 10
177.76028346095609
 20
81.58103221572782
 10
177.76028346095609
 20
81.58103221572782
 10
180.14798226032781
 20
82.13045763887311
 10
180.14798226032781
 20
82.13045763887311
 10
182.19232936773841
 20
83.0494335583582
 10
182.19232936773841
 20
83.0494335583582
 10
184.03430541430029
 20
84.34198906190539
 10
184.03430541430029
 20
84.34198906190539
 10
185.1330327001624
 20
85.32957921840097
 10
185.1330327001624
 20
85.32957921840097
 10
186.16947757278001
 20
86.4095292306676
 10
186.16947757278001
 20
86.4095292306676
 10
187.15638267074169
 20
87.56766056932366
 10
187.15638267074169
 20
87.56766056932366
 10
187.97743751678991
 20
88.62186634458448
 10
187.97743751678991
 20
88.62186634458448
 10
188.80943792138609
 20
89.76987793959523
 10
188.80943792138609
 20
89.76987793959523
 10
189.65238382492589
 20
91.01169535435582
 10
189.65238382492589
 20
91.01169535435582
 10
190.36404033575579
 20
92.11655171878482
 10
190.36404033575579
 20
92.11655171878482
 10
191.02516176376869
 20
93.17792413301612
 10
191.02516176376869
 20
93.17792413301612
 10
191.8017738965564
 20
94.44774041987802
  0
LWPOLYLINE
  5
62F
100
AcDbEntity
  8
0
  6
CONTINUOUS
 62
             3
100
AcDbPolyline
 90
       42
 70
             0
 10
154.2209573594146
 20
68.24122170276786
 10
155.45510145102071
 20
67.65183351106788
 10
155.45510145102071
 20
67.65183351106788
 10
156.4243031052165
 20
67.19672735698367
 10
156.4243031052165
 20
67.19672735698367
 10
157.52962841663901
 20
66.69536250002528
 10
157.52962841663901
 20
66.69536250002528
 10
158.58159654412779
 20
66.24319538391973
 10
158.58159654412779
 20
66.24319538391973
 10
159.70497002277901
 20
65.79204347647573
 10
159.70497002277901
 20
65.79204347647573
 10
160.69743194256341
 20
65.41624151833202
 10
160.69743194256341
 20
65.41624151833202
 10
162.97614919219541
 20
64.58092006958867
 10
162.97614919219541
 20
64.58092006958867
 10
165.0981343892627
 20
63.76865654356624
 10
165.0981343892627
 20
63.76865654356624
 10
167.35041361127409
 20
62.91420222736741
 10
167.35041361127409
 20
62.91420222736741
 10
169.71994664345311
 20
62.29107531823064
 10
169.71994664345311
 20
62.29107531823064
 10
171.95719551120331
 20
62.15473259903337
 10
171.95719551120331
 20
62.15473259903337
 10
174.18886478815591
 20
62.44322471983577
 10
174.18886478815591
 20
62.44322471983577
 10
175.62069552217039
 20
62.80708833701766
 10
175.62069552217039
 20
62.80708833701766
 10
177.0402996746117
 20
63.28167663432504
 10
177.0402996746117
 20
63.28167663432504
 10
178.45237120066199
 20
63.84851334161903
 10
178.45237120066199
 20
63.84851334161903
 10
179.66929300699761
 20
64.40040297724153
 10
179.66929300699761
 20
64.40040297724153
 10
180.93950035248341
 20
65.03026690997029
 10
180.93950035248341
 20
65.03026690997029
 10
182.26299323711919
 20
65.73810511745359
 10
182.26299323711919
 20
65.73810511745359
 10
183.40658613119649
 20
66.38568357296134
 10
183.40658613119649
 20
66.38568357296134
 10
184.4852244463973
 20
67.01824372179652
 10
184.4852244463973
 20
67.01824372179652
 10
185.7629933861308
 20
67.78170056558992
  0
LWPOLYLINE
  5
62D
100
AcDbEntity
  8
0
  6
CONTINUOUS
 62
             3
100
AcDbPolyline
 90
       42
 70
             0
 10
109.7105377224498
 20
113.0839714697733
 10
108.3712057975346
 20
113.3608831009998
 10
108.3712057975346
 20
113.3608831009998
 10
107.3212533501202
 20
113.5708195633426
 10
107.3212533501202
 20
113.5708195633426
 10
106.1280623284391
 20
113.79309400833991
 10
106.1280623284391
 20
113.79309400833991
 10
104.9984517899566
 20
113.98036952234651
 10
104.9984517899566
 20
113.98036952234651
 10
103.79975380573801
 20
114.149570903851
 10
103.79975380573801
 20
114.149570903851
 10
102.7461957243495
 20
114.2769410527482
 10
102.7461957243495
 20
114.2769410527482
 10
100.33378835592779
 20
114.54265685297391
 10
100.33378835592779
 20
114.54265685297391
 10
98.07907678757238
 20
114.82349317438771
 10
98.07907678757238
 20
114.82349317438771
 10
95.6877604034953
 20
115.11411290533709
 10
95.6877604034953
 20
115.11411290533709
 10
93.23795767698812
 20
115.1520665130749
 10
93.23795767698812
 20
115.1520665130749
 10
91.0330902544074
 20
114.7490386507645
 10
91.0330902544074
 20
114.7490386507645
 10
88.93530990753698
 20
113.9348561755552
 10
88.93530990753698
 20
113.9348561755552
 10
87.63216384325551
 20
113.23890624858279
 10
87.63216384325551
 20
113.23890624858279
 10
86.3673871961646
 20
112.4383751145735
 10
86.3673871961646
 20
112.4383751145735
 10
85.13200082455211
 20
111.5500788158908
 10
85.13200082455211
 20
111.5500788158908
 10
84.08251636300611
 20
110.72299763478181
 10
84.08251636300611
 20
110.72299763478181
 10
82.99995525751638
 20
109.80745589651011
 10
82.99995525751638
 20
109.80745589651011
 10
81.88431744847821
 20
108.8034536010756
 10
81.88431744847821
 20
108.8034536010756
 10
80.9289309290462
 20
107.901012904121
 10
80.9289309290462
 20
107.901012904121
 10
80.03301744733381
 20
107.02869875646979
 10
80.03301744733381
 20
107.02869875646979
 10
78.97508536849551
 20
105.98163646377471
  0
LWPOLYLINE
  5
62B
100
AcDbEntity
  8
0
  6
CONTINUOUS
 62
             3
100
AcDbPolyline
 90
       42
 70
             0
 10
140.30805643473209
 20
62.04165691055204
 10
141.12693439994379
 20
60.94624423153556
 10
141.12693439994379
 20
60.94624423153556
 10
141.7736214903407
 20
60.09285727806247
 10
141.7736214903407
 20
60.09285727806247
 10
142.51934256229941
 20
59.13525047071124
 10
142.51934256229941
 20
59.13525047071124
 10
143.24068154964971
 20
58.24600239761008
 10
143.24068154964971
 20
58.24600239761008
 10
144.02571862016251
 20
57.32446953572179
 10
144.02571862016251
 20
57.32446953572179
 10
144.72985612426331
 20
56.53049337036754
 10
144.72985612426331
 20
56.53049337036754
 10
146.35936679516351
 20
54.73188026167298
 10
146.35936679516351
 20
54.73188026167298
 10
147.8608137277179
 20
53.02652092195893
 10
147.8608137277179
 20
53.02652092195893
 10
149.45802318130049
 20
51.22325286932136
 10
149.45802318130049
 20
51.22325286932136
 10
151.26655896578359
 20
49.57032448716308
 10
151.26655896578359
 20
49.57032448716308
 10
153.18418284330889
 20
48.40989760972406
 10
153.18418284330889
 20
48.40989760972406
 10
155.29429682169501
 20
47.62823627061988
 10
155.29429682169501
 20
47.62823627061988
 10
156.73121582541989
 20
47.28501658804561
 10
156.73121582541989
 20
47.28501658804561
 10
158.20876508031429
 20
47.04552069969321
 10
158.20876508031429
 20
47.04552069969321
 10
159.72251447115471
 20
46.89120732165719
 10
159.72251447115471
 20
46.89120732165719
 10
161.05652110848951
 20
46.8143495611086
 10
161.05652110848951
 20
46.8143495611086
 10
162.47394623432669
 20
46.78177158452417
 10
162.47394623432669
 20
46.78177158452417
 10
163.97478978906199
 20
46.79347339190389
 10
163.97478978906199
 20
46.79347339190389
 10
165.28833573136839
 20
46.83542150921966
 10
165.28833573136839
 20
46.83542150921966
 10
166.53738789830729
 20
46.89425749249602
 10
166.53738789830729
 20
46.89425749249602
 10
168.0235921648555
 20
46.97645612723972
  0
LWPOLYLINE
  5
629
100
AcDbEntity
  8
0
  6
CONTINUOUS
 62
             3
100
AcDbPolyline
 90
       40
 70
             0
 10
109.0691784230286
 20
111.68551979876899
 10
107.6669181195313
 20
111.9734995505943
 10
107.6669181195313
 20
111.9734995505943
 10
106.33634631906079
 20
112.23116997547289
 10
106.33634631906079
 20
112.23116997547289
 10
105.037837227922
 20
112.45615741528439
 10
105.037837227922
 20
112.45615741528439
 10
103.6736273077539
 20
112.6535574413075
 10
103.6736273077539
 20
112.6535574413075
 10
102.4221573082023
 20
112.80440692521481
 10
102.4221573082023
 20
112.80440692521481
 10
100.04916982923081
 20
113.0654077000155
 10
100.04916982923081
 20
113.0654077000155
 10
97.80295672092962
 20
113.3484483129516
 10
97.80295672092962
 20
113.3484483129516
 10
95.5202432480865
 20
113.6231928832068
 10
95.5202432480865
 20
113.6231928832068
 10
93.34951721702151
 20
113.6564244545236
 10
93.34951721702151
 20
113.6564244545236
 10
92.08512418542432
 20
113.4714011541741
 10
92.08512418542432
 20
113.4714011541741
 10
90.84140633616971
 20
113.1106357119217
 10
90.84140633616971
 20
113.1106357119217
 10
89.58496298466241
 20
112.58306418277169
 10
89.58496298466241
 20
112.58306418277169
 10
87.76918633852529
 20
111.5652730382218
 10
87.76918633852529
 20
111.5652730382218
 10
86.03791632328557
 20
110.35479317523379
 10
86.03791632328557
 20
110.35479317523379
 10
85.02678926859431
 20
109.55775883711721
 10
85.02678926859431
 20
109.55775883711721
 10
83.98190369282281
 20
108.67380512423659
 10
83.98190369282281
 20
108.67380512423659
 10
82.90325956616931
 20
107.70293205149321
 10
82.90325956616931
 20
107.70293205149321
 10
81.96662085328632
 20
106.8181517563
 10
81.96662085328632
 20
106.8181517563
 10
81.083399733644
 20
105.95814124412679
 10
81.083399733644
 20
105.95814124412679
 10
80.03201588068532
 20
104.9175459734335
  0
LWPOLYLINE
  5
627
100
AcDbEntity
  8
0
  6
CONTINUOUS
 62
             3
100
AcDbPolyline
 90
       42
 70
             0
 10
103.40765370998911
 20
99.21757074363376
 10
102.0930469540172
 20
98.84034523285783
 10
102.0930469540172
 20
98.84034523285783
 10
101.06579788599539
 20
98.53829750336564
 10
101.06579788599539
 20
98.53829750336564
 10
99.90598361764478
 20
98.18060824192907
 10
99.90598361764478
 20
98.18060824192907
 10
98.81873189483201
 20
97.82147627986825
 10
98.81873189483201
 20
97.82147627986825
 10
97.67870574269819
 20
97.41423392213727
 10
97.67870574269819
 20
97.41423392213727
 10
96.6866345313602
 20
97.03740173496152
 10
96.6866345313602
 20
97.03740173496152
 10
94.4270695951991
 20
96.15157978154576
 10
94.4270695951991
 20
96.15157978154576
 10
92.30011050973451
 20
95.35243128903056
 10
92.30011050973451
 20
95.35243128903056
 10
90.04764728818452
 20
94.49846215464021
 10
90.04764728818452
 20
94.49846215464021
 10
87.86081679735707
 20
93.39358831114913
 10
87.86081679735707
 20
93.39358831114913
 10
86.09580000315242
 20
92.01207186944629
 10
86.09580000315242
 20
92.01207186944629
 10
84.61667724524068
 20
90.31626196123506
 10
84.61667724524068
 20
90.31626196123506
 10
83.7862227467113
 20
89.09442672796394
 10
83.7862227467113
 20
89.09442672796394
 10
83.03834401641421
 20
87.79782060451652
 10
83.03834401641421
 20
87.79782060451652
 10
82.35727556620168
 20
86.43716061033166
 10
82.35727556620168
 20
86.43716061033166
 10
81.81236704264211
 20
85.21709685690547
 10
81.81236704264211
 20
85.21709685690547
 10
81.27928023610639
 20
83.90333366311933
 10
81.27928023610639
 20
83.90333366311933
 10
80.75801514659452
 20
82.49587104387427
 10
80.75801514659452
 20
82.49587104387427
 10
80.33144750271367
 20
81.25280924804366
 10
80.33144750271367
 20
81.25280924804366
 10
79.94354011688762
 20
80.06406167067433
 10
79.94354011688762
 20
80.06406167067433
 10
79.49338187847661
 20
78.64528849638856
  0
LWPOLYLINE
  5
625
100
AcDbEntity
  8
0
  6
CONTINUOUS
 62
             3
100
AcDbPolyline
 90
       40
 70
             0
 10
103.4896511641555
 20
97.68124875344182
 10
102.1141804662757
 20
97.28457929856921
 10
102.1141804662757
 20
97.28457929856921
 10
100.8162722197585
 20
96.89438757963336
 10
100.8162722197585
 20
96.89438757963336
 10
99.56194265757131
 20
96.4901568061843
 10
99.56194265757131
 20
96.4901568061843
 10
98.26225837145381
 20
96.03096588618899
 10
98.26225837145381
 20
96.03096588618899
 10
97.08403348002958
 20
95.58294936187411
 10
97.08403348002958
 20
95.58294936187411
 10
94.8615642992072
 20
94.7112717992797
 10
94.8615642992072
 20
94.7112717992797
 10
92.74110587511592
 20
93.91802454657699
 10
92.74110587511592
 20
93.91802454657699
 10
90.59218331251668
 20
93.1004689327612
 10
90.59218331251668
 20
93.1004689327612
 10
88.6546573844962
 20
92.12110733903791
 10
88.6546573844962
 20
92.12110733903791
 10
87.62107755814111
 20
91.36968459851886
 10
87.62107755814111
 20
91.36968459851886
 10
86.68747614894437
 20
90.4722581646576
 10
86.68747614894437
 20
90.4722581646576
 10
85.82012551103162
 20
89.42121843166507
 10
85.82012551103162
 20
89.42121843166507
 10
84.68532629881429
 20
87.6761756456628
 10
84.68532629881429
 20
87.6761756456628
 10
83.7149008718543
 20
85.79978766955281
 10
83.7149008718543
 20
85.79978766955281
 10
83.18999265704679
 20
84.62415463395263
 10
83.18999265704679
 20
84.62415463395263
 10
82.67558618460231
 20
83.35586995549346
 10
82.67558618460231
 20
83.35586995549346
 10
82.17168145452069
 20
81.99493361927426
 10
82.17168145452069
 20
81.99493361927426
 10
81.75350697908931
 20
80.77622187055493
 10
81.75350697908931
 20
80.77622187055493
 10
81.37112032447391
 20
79.60426705993558
 10
81.37112032447391
 20
79.60426705993558
 10
80.92375489149617
 20
78.19426326371587
  0
LWPOLYLINE
  5
623
100
AcDbEntity
  8
0
  6
CONTINUOUS
 62
             3
100
AcDbPolyline
 90
       42
 70
             0
 10
104.2707648483329
 20
84.01038641400481
 10
103.2820437756591
 20
83.06544158525611
 10
103.2820437756591
 20
83.06544158525611
 10
102.5128284898809
 20
82.32060515798486
 10
102.5128284898809
 20
82.32060515798486
 10
101.65209045086431
 20
81.46489448018218
 10
101.65209045086431
 20
81.46489448018218
 10
100.8562738207393
 20
80.6416278622284
 10
100.8562738207393
 20
80.6416278622284
 10
100.03608571563289
 20
79.75123608030236
 10
100.03608571563289
 20
79.75123608030236
 10
99.3327729311996
 20
78.95652926631118
 10
99.3327729311996
 20
78.95652926631118
 10
97.743689557653
 20
77.12210070259727
 10
97.743689557653
 20
77.12210070259727
 10
96.23174362454938
 20
75.42604268260146
 10
96.23174362454938
 20
75.42604268260146
 10
94.634145757299
 20
73.62311871267701
 10
94.634145757299
 20
73.62311871267701
 10
93.21126397524387
 20
71.62853070266391
 10
93.21126397524387
 20
71.62853070266391
 10
92.2904419508987
 20
69.58501444674886
 10
92.2904419508987
 20
69.58501444674886
 10
91.76882593904071
 20
67.39606672443296
 10
91.76882593904071
 20
67.39606672443296
 10
91.60131015453851
 20
65.92825390316392
 10
91.60131015453851
 20
65.92825390316392
 10
91.54165934596591
 20
64.43260963179017
 10
91.54165934596591
 20
64.43260963179017
 10
91.57093339238691
 20
62.91129674680377
 10
91.57093339238691
 20
62.91129674680377
 10
91.65543275151782
 20
61.57775232113744
 10
91.65543275151782
 20
61.57775232113744
 10
91.79394402180242
 20
60.16673500008727
 10
91.79394402180242
 20
60.16673500008727
 10
91.98646720324092
 20
58.67824477620269
 10
91.98646720324092
 20
58.67824477620269
 10
92.18643995199727
 20
57.37933234788324
 10
92.18643995199727
 20
57.37933234788324
 10
92.39540355477857
 20
56.14647908426667
 10
92.39540355477857
 20
56.14647908426667
 10
92.65614499722051
 20
54.6810188657775
  0
LWPOLYLINE
  5
621
100
AcDbEntity
  8
0
  6
CONTINUOUS
 62
             3
100
AcDbPolyline
 90
       40
 70
             0
 10
105.0573343840652
 20
82.68814696289456
 10
104.0237570611053
 20
81.69770049966718
 10
104.0237570611053
 20
81.69770049966718
 10
103.0558475163989
 20
80.74903485841907
 10
103.0558475163989
 20
80.74903485841907
 10
102.13304927025369
 20
79.80819026298667
 10
102.13304927025369
 20
79.80819026298667
 10
101.19563265715171
 20
78.7976035020485
 10
101.19563265715171
 20
78.7976035020485
 10
100.3605699745231
 20
77.85335615940238
 10
100.3605699745231
 20
77.85335615940238
 10
98.79776000056791
 20
76.0486910781994
 10
98.79776000056791
 20
76.0486910781994
 10
97.28882767830419
 20
74.36087934590722
 10
97.28882767830419
 20
74.36087934590722
 10
95.76598828111219
 20
72.63831569172288
 10
95.76598828111219
 20
72.63831569172288
 10
94.5055263248496
 20
70.87072087742246
 10
94.5055263248496
 20
70.87072087742246
 10
93.93954037700212
 20
69.72504058398152
 10
93.93954037700212
 20
69.72504058398152
 10
93.52993225131559
 20
68.49654274351741
 10
93.52993225131559
 20
68.49654274351741
 10
93.25037392054128
 20
67.16281533159162
 10
93.25037392054128
 20
67.16281533159162
 10
93.05652092967557
 20
65.09028918959047
 10
93.05652092967557
 20
65.09028918959047
 10
93.06925286922979
 20
62.97785097278501
 10
93.06925286922979
 20
62.97785097278501
 10
93.15081362996631
 20
61.69294260360147
 10
93.15081362996631
 20
61.69294260360147
 10
93.284730604034
 20
60.33087567902948
 10
93.284730604034
 20
60.33087567902948
 10
93.47100379143291
 20
58.89165019906903
 10
93.47100379143291
 20
58.89165019906903
 10
93.66709225450092
 20
57.61819917626536
 10
93.66709225450092
 20
57.61819917626536
 10
93.8731402662807
 20
56.40278078533567
 10
93.8731402662807
 20
56.40278078533567
 10
94.13227926765012
 20
54.94638334132577
  0
LWPOLYLINE
  5
61F
100
AcDbEntity
  8
0
  6
CONTINUOUS
 62
             3
100
AcDbPolyline
 90
       42
 70
             0
 10
166.46042465243849
 20
95.16815835900451
 10
167.64655538473639
 20
95.84902837790406
 10
167.64655538473639
 20
95.84902837790406
 10
168.57166968856379
 20
96.38813593901529
 10
168.57166968856379
 20
96.38813593901529
 10
169.61218120728051
 20
97.01299311883594
 10
169.61218120728051
 20
97.01299311883594
 10
170.58189346466591
 20
97.62188572354461
 10
170.58189346466591
 20
97.62188572354461
 10
171.59133308206131
 20
98.29012048162366
 10
171.59133308206131
 20
98.29012048162366
 10
172.46439467940871
 20
98.89342079229499
 10
172.46439467940871
 20
98.89342079229499
 10
174.4463096765094
 20
100.29425164975081
 10
174.4463096765094
 20
100.29425164975081
 10
176.32021444116151
 20
101.5791929654017
 10
176.32021444116151
 20
101.5791929654017
 10
178.30285697255661
 20
102.94739703751949
 10
178.30285697255661
 20
102.94739703751949
 10
180.16172855172681
 20
104.5435080520049
 10
180.16172855172681
 20
104.5435080520049
 10
181.54483862791599
 20
106.3072763002648
 10
181.54483862791599
 20
106.3072763002648
 10
182.57514690433061
 20
108.3077862999573
 10
182.57514690433061
 20
108.3077862999573
 10
183.08906557236239
 20
109.69285799480819
 10
183.08906557236239
 20
109.69285799480819
 10
183.50491415534529
 20
111.1307661897674
 10
183.50491415534529
 20
111.1307661897674
 10
183.84056474838781
 20
112.6148782289758
 10
183.84056474838781
 20
112.6148782289758
 10
184.07765885267781
 20
113.9298942974939
 10
184.07765885267781
 20
113.9298942974939
 10
184.2808510271125
 20
115.3330579391851
 10
184.2808510271125
 20
115.3330579391851
 10
184.4501412418895
 20
116.82436915404941
 10
184.4501412418895
 20
116.82436915404941
 10
184.56682943378021
 20
118.13339415110489
 10
184.56682943378021
 20
118.13339415110489
 10
184.65897901926579
 20
119.3804312042131
 10
184.65897901926579
 20
119.3804312042131
 10
184.75652184162649
 20
120.865707322134
  0
LWPOLYLINE
  5
61D
100
AcDbEntity
  8
0
  6
CONTINUOUS
 62
             3
100
AcDbPolyline
 90
       40
 70
             0
 10
166.01314400706829
 20
96.64021435297872
 10
167.25371681724121
 20
97.35452899254716
 10
167.25371681724121
 20
97.35452899254716
 10
168.42053120408579
 20
98.04399222798503
 10
168.42053120408579
 20
98.04399222798503
 10
169.54167347226669
 20
98.73665749944604
 10
169.54167347226669
 20
98.73665749944604
 10
170.69369970832409
 20
99.49353997327245
 10
170.69369970832409
 20
99.49353997327245
 10
171.73047014151129
 20
100.2105056262746
 10
171.73047014151129
 20
100.2105056262746
 10
173.6797523108535
 20
101.58872550643829
 10
173.6797523108535
 20
101.58872550643829
 10
175.54875760350751
 20
102.8663813612595
 10
175.54875760350751
 20
102.8663813612595
 10
177.43958251748609
 20
104.17445112682719
 10
177.43958251748609
 20
104.17445112682719
 10
179.08643089805159
 20
105.5890345565215
 10
179.08643089805159
 20
105.5890345565215
 10
179.91014953527991
 20
106.5659741602077
 10
179.91014953527991
 20
106.5659741602077
 10
180.60185395751509
 20
107.6607484436765
 10
180.60185395751509
 20
107.6607484436765
 10
181.192470690351
 20
108.88881747342499
 10
181.192470690351
 20
108.88881747342499
 10
181.87667866621541
 20
110.8547277144327
 10
181.87667866621541
 20
110.8547277144327
 10
182.3698562291676
 20
112.9088292709725
 10
182.3698562291676
 20
112.9088292709725
 10
182.5981641915852
 20
114.1759193084376
 10
182.5981641915852
 20
114.1759193084376
 10
182.7941025403552
 20
115.530455469264
 10
182.7941025403552
 20
115.530455469264
 10
182.95767133508241
 20
116.97243776090291
 10
182.95767133508241
 20
116.97243776090291
 10
183.07203759823369
 20
118.2558116606607
 10
183.07203759823369
 20
118.2558116606607
 10
183.1628456321769
 20
119.485222711338
 10
183.1628456321769
 20
119.485222711338
 10
183.25977548037099
 20
120.9613159141675
  0
LWPOLYLINE
  5
61B
100
AcDbEntity
  8
0
  6
CONTINUOUS
 62
             3
100
AcDbPolyline
 90
       42
 70
             0
 10
112.102142712217
 20
70.94620115227843
 10
111.6658114698938
 20
69.6500124699607
 10
111.6658114698938
 20
69.6500124699607
 10
111.3308478799871
 20
68.63302040017987
 10
111.3308478799871
 20
68.63302040017987
 10
110.9663707819991
 20
67.47532132185842
 10
110.9663707819991
 20
67.47532132185842
 10
110.64430122647811
 20
66.37652049131538
 10
110.64430122647811
 20
66.37652049131538
 10
110.3318464366013
 20
65.20695731706763
 10
110.3318464366013
 20
65.20695731706763
 10
110.078412553411
 20
64.17643362946666
 10
110.078412553411
 20
64.17643362946666
 10
109.5238505509906
 20
61.81364393152143
 10
109.5238505509906
 20
61.81364393152143
 10
108.9732864109092
 20
59.60922283597137
 10
108.9732864109092
 20
59.60922283597137
 10
108.39654426847029
 20
57.27037219621087
 10
108.39654426847029
 20
57.27037219621087
 10
108.0635763016753
 20
54.84300608850862
 10
108.0635763016753
 20
54.84300608850862
 10
108.1978982296996
 20
52.60563496418143
 10
108.1978982296996
 20
52.60563496418143
 10
108.7532849219853
 20
50.4250109634533
 10
108.7532849219853
 20
50.4250109634533
 10
109.2870837060027
 20
49.04747879423047
 10
109.2870837060027
 20
49.04747879423047
 10
109.9293260780387
 20
47.69543044932033
 10
109.9293260780387
 20
47.69543044932033
 10
110.66223632369579
 20
46.36197912610913
 10
110.66223632369579
 20
46.36197912610913
 10
111.3567857948357
 20
45.22045298583652
 10
111.3567857948357
 20
45.22045298583652
 10
112.1351638642365
 20
44.03542859025151
 10
112.1351638642365
 20
44.03542859025151
 10
112.9973705915028
 20
42.80690593935407
 10
112.9973705915028
 20
42.80690593935407
 10
113.77807234798
 20
41.74970807053006
 10
113.77807234798
 20
41.74970807053006
 10
114.5360359159522
 20
40.75518094666154
 10
114.5360359159522
 20
40.75518094666154
 10
115.44794430409
 20
39.57875295646346
  0
LWPOLYLINE
  5
619
100
AcDbEntity
  8
0
  6
CONTINUOUS
 62
             3
100
AcDbPolyline
 90
       40
 70
             0
 10
163.94718908343839
 20
81.70761369831706
 10
165.3776203301959
 20
81.76358497060681
 10
165.3776203301959
 20
81.76358497060681
 10
166.73119269881761
 20
81.83182866044189
 10
166.73119269881761
 20
81.83182866044189
 10
168.04581247840451
 20
81.92413250274802
 10
168.04581247840451
 20
81.92413250274802
 10
169.41762187157201
 20
82.05894537187959
 10
169.41762187157201
 20
82.05894537187959
 10
170.6688270774894
 20
82.21197567052997
 10
170.6688270774894
 20
82.21197567052997
 10
173.0353214350753
 20
82.52645218290246
 10
173.0353214350753
 20
82.52645218290246
 10
175.28399970207741
 20
82.78919018722917
 10
175.28399970207741
 20
82.78919018722917
 10
177.5661323574594
 20
83.06871829099799
 10
177.5661323574594
 20
83.06871829099799
 10
179.68173386726889
 20
83.55594111151839
 10
179.68173386726889
 20
83.55594111151839
 10
180.8651069608741
 20
84.03817703492786
 10
180.8651069608741
 20
84.03817703492786
 10
181.9863477853352
 20
84.68610044486667
 10
181.9863477853352
 20
84.68610044486667
 10
183.08002506766829
 20
85.49902828700687
 10
183.08002506766829
 20
85.49902828700687
 10
184.5994651821666
 20
86.92178806580449
 10
184.5994651821666
 20
86.92178806580449
 10
185.99074082646879
 20
88.51141361065066
 10
185.99074082646879
 20
88.51141361065066
 10
186.78174357686569
 20
89.52726612903024
 10
186.78174357686569
 20
89.52726612903024
 10
187.58472271833929
 20
90.635591237916
 10
187.58472271833929
 20
90.635591237916
 10
188.3996782806926
 20
91.83638893730796
 10
188.3996782806926
 20
91.83638893730796
 10
189.0973581579739
 20
92.91961143828786
 10
189.0973581579739
 20
92.91961143828786
 10
189.749100497108
 20
93.96600025810147
 10
189.749100497108
 20
93.96600025810147
 10
190.52090232644619
 20
95.22797034598733
  0
LWPOLYLINE
  5
617
100
AcDbEntity
  8
0
  6
CONTINUOUS
 62
             3
100
AcDbPolyline
 90
       40
 70
             0
 10
155.17835133348049
 20
69.44554959155477
 10
156.4709464219624
 20
68.83035514421607
 10
156.4709464219624
 20
68.83035514421607
 10
157.70118965778889
 20
68.26174548931266
 10
157.70118965778889
 20
68.26174548931266
 10
158.90812342439219
 20
67.73254220850612
 10
158.90812342439219
 20
67.73254220850612
 10
160.18545096192869
 20
67.21440145291234
 10
160.18545096192869
 20
67.21440145291234
 10
161.36445488606009
 20
66.76843901641513
 10
161.36445488606009
 20
66.76843901641513
 10
163.60602607403339
 20
65.94712936796094
 10
163.60602607403339
 20
65.94712936796094
 10
165.7192322519833
 20
65.13475942529584
 10
165.7192322519833
 20
65.13475942529584
 10
167.86986353073661
 20
64.32170934147979
 10
167.86986353073661
 20
64.32170934147979
 10
169.96955939207601
 20
63.76995468057538
 10
169.96955939207601
 20
63.76995468057538
 10
171.2414904442841
 20
63.64701247878219
 10
171.2414904442841
 20
63.64701247878219
 10
172.53540491138031
 20
63.69965357251311
 10
172.53540491138031
 20
63.69965357251311
 10
173.881594440084
 20
63.91120824880744
 10
173.881594440084
 20
63.91120824880744
 10
175.8881812897736
 20
64.46488044328834
 10
175.8881812897736
 20
64.46488044328834
 10
177.85883053217461
 20
65.22586592949773
 10
177.85883053217461
 20
65.22586592949773
 10
179.03131886396929
 20
65.75776135839368
 10
179.03131886396929
 20
65.75776135839368
 10
180.2573859599643
 20
66.36597148991967
 10
180.2573859599643
 20
66.36597148991967
 10
181.5370317903571
 20
67.05049631662513
 10
181.5370317903571
 20
67.05049631662513
 10
182.6581952479892
 20
67.68541419423963
 10
182.6581952479892
 20
67.68541419423963
 10
183.72156553540739
 20
68.30906571365739
 10
183.72156553540739
 20
68.30906571365739
 10
184.99142884288361
 20
69.06781054951097
  0
LWPOLYLINE
  5
615
100
AcDbEntity
  8
0
  6
CONTINUOUS
 62
             3
100
AcDbPolyline
 90
       40
 70
             0
 10
113.4130907860807
 20
70.14095336861766
 10
112.9581869152597
 20
68.78362923033382
 10
112.9581869152597
 20
68.78362923033382
 10
112.5420125034863
 20
67.49381753720189
 10
112.5420125034863
 20
67.49381753720189
 10
112.1621474829726
 20
66.23189528949416
 10
112.1621474829726
 20
66.23189528949416
 10
111.8017493990474
 20
64.90142592705632
 10
111.8017493990474
 20
64.90142592705632
 10
111.5011517313533
 20
63.67726346023227
 10
111.5011517313533
 20
63.67726346023227
 10
110.95602192555
 20
61.35303788550044
 10
110.95602192555
 20
61.35303788550044
 10
110.40429391537251
 20
59.15731899358178
 10
110.40429391537251
 20
59.15731899358178
 10
109.8564018515164
 20
56.92436586983348
 10
109.8564018515164
 20
56.92436586983348
 10
109.56176047597469
 20
54.77347250200654
 10
109.56176047597469
 20
54.77347250200654
 10
109.5930289832169
 20
53.4959962136283
 10
109.5930289832169
 20
53.4959962136283
 10
109.8012504187635
 20
52.21786101080323
 10
109.8012504187635
 20
52.21786101080323
 10
110.1735278574041
 20
50.90698680944587
 10
110.1735278574041
 20
50.90698680944587
 10
110.9650304821545
 20
48.98176806337978
 10
110.9650304821545
 20
48.98176806337978
 10
111.9580030349307
 20
47.11721373267318
 10
111.9580030349307
 20
47.11721373267318
 10
112.6273482051902
 20
46.01738706149001
 10
112.6273482051902
 20
46.01738706149001
 10
113.3789098468833
 20
44.87357101507331
 10
113.3789098468833
 20
44.87357101507331
 10
114.21268798981239
 20
43.68576560087354
 10
114.21268798981239
 20
43.68576560087354
 10
114.97811790381
 20
42.64930757798101
 10
114.97811790381
 20
42.64930757798101
 10
115.72539742861321
 20
41.66886332549001
 10
115.72539742861321
 20
41.66886332549001
 10
116.6316752639823
 20
40.49971532739556
  0
LWPOLYLINE
  5
613
100
AcDbEntity
  8
0
  6
CONTINUOUS
 62
             3
100
AcDbPolyline
 90
       40
 70
             0
 10
141.71546574507269
 20
62.66311313874866
 10
142.5741067734771
 20
61.51768661208297
 10
142.5741067734771
 20
61.51768661208297
 10
143.39918695960569
 20
60.44248522735978
 10
143.39918695960569
 20
60.44248522735978
 10
144.2219407168441
 20
59.41300891257669
 10
144.2219407168441
 20
59.41300891257669
 10
145.112166067701
 20
58.36061435110713
 10
145.112166067701
 20
58.36061435110713
 10
145.94887309346711
 20
57.4178237906828
 10
145.94887309346711
 20
57.4178237906828
 10
147.55200420890381
 20
55.64888013072158
 10
147.55200420890381
 20
55.64888013072158
 10
149.04562821064519
 20
53.94750638969089
 10
149.04562821064519
 20
53.94750638969089
 10
150.57207443390431
 20
52.22813810326016
 10
150.57207443390431
 20
52.22813810326016
 10
152.17484959040209
 20
50.76380630500461
 10
152.17484959040209
 20
50.76380630500461
 10
153.24395453010129
 20
50.06385055102254
 10
153.24395453010129
 20
50.06385055102254
 10
154.4141224232726
 20
49.50914988584663
 10
154.4141224232726
 20
49.50914988584663
 10
155.70442842517409
 20
49.07086677767182
 10
155.70442842517409
 20
49.07086677767182
 10
157.73847713146719
 20
48.6286117649808
 10
157.73847713146719
 20
48.6286117649808
 10
159.8370479551368
 20
48.38662458129073
 10
159.8370479551368
 20
48.38662458129073
 10
161.12241896067189
 20
48.31271208740617
 10
161.12241896067189
 20
48.31271208740617
 10
162.49069677863659
 20
48.28147362835551
 10
162.49069677863659
 20
48.28147362835551
 10
163.94188143883289
 20
48.29290919668819
 10
163.94188143883289
 20
48.29290919668819
 10
165.22968341980521
 20
48.33407042093421
 10
165.22968341980521
 20
48.33407042093421
 10
166.46107639942679
 20
48.39211359537984
 10
166.46107639942679
 20
48.39211359537984
 10
167.93809082184359
 20
48.47381386823798
  0
LWPOLYLINE
  5
611
100
AcDbEntity
  8
0
  6
CONTINUOUS
 62
             3
100
AcDbPolyline
 90
       40
 70
             0
 10
160.90293066773941
 20
110.8224726981654
 10
161.6694447902255
 20
112.0314898333683
 10
161.6694447902255
 20
112.0314898333683
 10
162.38219808612379
 20
113.1842248878615
 10
162.38219808612379
 20
113.1842248878615
 10
163.05302264366659
 20
114.318570329918
 10
163.05302264366659
 20
114.318570329918
 10
163.72135039244219
 20
115.5241297549739
 10
163.72135039244219
 20
115.5241297549739
 10
164.30617447767781
 20
116.6407825640576
 10
164.30617447767781
 20
116.6407825640576
 10
165.39168741379311
 20
118.7670122600331
 10
165.39168741379311
 20
118.7670122600331
 10
166.4528531340176
 20
120.7668903983369
 10
166.4528531340176
 20
120.7668903983369
 10
167.51920511398839
 20
122.8038388035431
 10
167.51920511398839
 20
122.8038388035431
 10
168.32002722297241
 20
124.82171881861829
 10
168.32002722297241
 20
124.82171881861829
 10
168.5953873899989
 20
126.0695570252075
 10
168.5953873899989
 20
126.0695570252075
 10
168.6990942565017
 20
127.3603825858965
 10
168.6990942565017
 20
127.3603825858965
 10
168.65134727035081
 20
128.72225699491639
 10
168.65134727035081
 20
128.72225699491639
 10
168.34357928309981
 20
130.78095135010619
 10
168.34357928309981
 20
130.78095135010619
 10
167.82567777309939
 20
132.8289590022697
 10
167.82567777309939
 20
132.8289590022697
 10
167.43898831878229
 20
134.05701149917979
 10
167.43898831878229
 20
134.05701149917979
 10
166.9829987791592
 20
135.3474508068696
 10
166.9829987791592
 20
135.3474508068696
 10
166.45770915422949
 20
136.7002769253387
 10
166.45770915422949
 20
136.7002769253387
 10
165.96256186638399
 20
137.8897967255846
 10
165.96256186638399
 20
137.8897967255846
 10
165.47163259063291
 20
139.02058675058041
 10
165.47163259063291
 20
139.02058675058041
 10
164.87148498569061
 20
140.37264791048909
  0
LWPOLYLINE
  5
60F
100
AcDbEntity
  8
0
  6
CONTINUOUS
 62
             3
100
AcDbPolyline
 90
       42
 70
             0
 10
161.98307656322049
 20
109.7268935359254
 10
162.71692710195109
 20
110.88099642760901
 10
162.71692710195109
 20
110.88099642760901
 10
163.2855393496566
 20
111.78827452577519
 10
163.2855393496566
 20
111.78827452577519
 10
163.91648094926421
 20
112.82510790146731
 10
163.91648094926421
 20
112.82510790146731
 10
164.49215199623629
 20
113.814903280808
 10
164.49215199623629
 20
113.814903280808
 10
165.07542221818511
 20
114.8757057554259
 10
165.07542221818511
 20
114.8757057554259
 10
165.56811221514269
 20
115.8156335941687
 10
165.56811221514269
 20
115.8156335941687
 10
166.6720122304969
 20
117.9770495436326
 10
166.6720122304969
 20
117.9770495436326
 10
167.73413049254941
 20
119.98565554536719
 10
167.73413049254941
 20
119.98565554536719
 10
168.85383715305849
 20
122.118520013167
 10
168.85383715305849
 20
122.118520013167
 10
169.75803639565041
 20
124.39566682197
 10
169.75803639565041
 20
124.39566682197
 10
170.16305558953809
 20
126.6001693449154
 10
170.16305558953809
 20
126.6001693449154
 10
170.14566489134361
 20
128.85034111060051
 10
170.14566489134361
 20
128.85034111060051
 10
169.957042386871
 20
130.3155911035075
 10
169.957042386871
 20
130.3155911035075
 10
169.65702875528859
 20
131.782050049974
 10
169.65702875528859
 20
131.782050049974
 10
169.26453133497759
 20
133.2521506018177
 10
169.26453133497759
 20
133.2521506018177
 10
168.86334930930661
 20
134.52672263152741
 10
168.86334930930661
 20
134.52672263152741
 10
168.3911843505912
 20
135.86359044082309
 10
168.3911843505912
 20
135.86359044082309
 10
167.84803651843609
 20
137.26275402970461
 10
167.84803651843609
 20
137.26275402970461
 10
167.34302454267069
 20
138.4760658062234
 10
167.34302454267069
 20
138.4760658062234
 10
166.8450919595771
 20
139.62308633245371
 10
166.8450919595771
 20
139.62308633245371
 10
166.24121960077809
 20
140.9835634297863
  0
LWPOLYLINE
  5
60D
100
AcDbEntity
  8
0
  6
CONTINUOUS
 62
             3
100
AcDbPolyline
 90
       42
 70
             0
 10
125.1077130642942
 20
63.01786236382867
 10
125.3237298337035
 20
61.66737104125167
 10
125.3237298337035
 20
61.66737104125167
 10
125.4997540918404
 20
60.61120395280267
 10
125.4997540918404
 20
60.61120395280267
 10
125.7150352505261
 20
59.41673136420394
 10
125.7150352505261
 20
59.41673136420394
 10
125.9404950049931
 20
58.29411836631442
 10
125.9404950049931
 20
58.29411836631442
 10
126.2073531356864
 20
57.11331661708499
 10
126.2073531356864
 20
57.11331661708499
 10
126.4618568328433
 20
56.08305662043239
 10
126.4618568328433
 20
56.08305662043239
 10
127.0688596871904
 20
53.73319242812539
 10
127.0688596871904
 20
53.73319242812539
 10
127.6058049109988
 20
51.52541456289447
 10
127.6058049109988
 20
51.52541456289447
 10
128.18204321537539
 20
49.18643974430717
 10
128.18204321537539
 20
49.18643974430717
 10
129.0152679887824
 20
46.8823758653536
 10
129.0152679887824
 20
46.8823758653536
 10
130.17396234546229
 20
44.96370463736201
 10
130.17396234546229
 20
44.96370463736201
 10
131.67911933932831
 20
43.29095903701943
 10
131.67911933932831
 20
43.29095903701943
 10
132.79194580588879
 20
42.31928353674573
 10
132.79194580588879
 20
42.31928353674573
 10
133.98895140562581
 20
41.42056909866471
 10
133.98895140562581
 20
41.42056909866471
 10
135.25759690080201
 20
40.58045696385051
 10
135.25759690080201
 20
40.58045696385051
 10
136.40308355365309
 20
39.89245899684573
 10
136.40308355365309
 20
39.89245899684573
 10
137.6430114117675
 20
39.20490233518029
 10
137.6430114117675
 20
39.20490233518029
 10
138.97738050494721
 20
38.51778698630471
 10
138.97738050494721
 20
38.51778698630471
 10
140.15996192966031
 20
37.94449496932174
 10
140.15996192966031
 20
37.94449496932174
 10
141.29328512225689
 20
37.41612816519881
 10
141.29328512225689
 20
37.41612816519881
 10
142.64745326910531
 20
36.79823787428296
  0
LWPOLYLINE
  5
60B
100
AcDbEntity
  8
0
  6
CONTINUOUS
 62
             3
100
AcDbPolyline
 90
       40
 70
             0
 10
126.6427172330432
 20
62.91407880104936
 10
126.8706998435073
 20
61.50082360125924
 10
126.8706998435073
 20
61.50082360125924
 10
127.1016010848098
 20
60.16534616716052
 10
127.1016010848098
 20
60.16534616716052
 10
127.3516918328816
 20
58.87143744446183
 10
127.3516918328816
 20
58.87143744446183
 10
127.65087511215719
 20
57.5258799783125
 10
127.65087511215719
 20
57.5258799783125
 10
127.95360576186719
 20
56.30224324680711
 10
127.95360576186719
 20
56.30224324680711
 10
128.55103876266989
 20
53.99090924776937
 10
128.55103876266989
 20
53.99090924776937
 10
129.08290933642911
 20
51.79029594279672
 10
129.08290933642911
 20
51.79029594279672
 10
129.6354800370747
 20
49.55849600501216
 10
129.6354800370747
 20
49.55849600501216
 10
130.37415804539251
 20
47.51704782910491
 10
130.37415804539251
 20
47.51704782910491
 10
130.99551778111979
 20
46.40042996324456
 10
130.99551778111979
 20
46.40042996324456
 10
131.77386774693059
 20
45.36546277172704
 10
131.77386774693059
 20
45.36546277172704
 10
132.71269666228821
 20
44.37774725921304
 10
132.71269666228821
 20
44.37774725921304
 10
134.30823119555029
 20
43.04088032163531
 10
134.30823119555029
 20
43.04088032163531
 10
136.05396633420531
 20
41.85135681845094
 10
136.05396633420531
 20
41.85135681845094
 10
137.15775697503599
 20
41.18856886692191
 10
137.15775697503599
 20
41.18856886692191
 10
138.35478960547971
 20
40.52503817446393
 10
138.35478960547971
 20
40.52503817446393
 10
139.64506416593119
 20
39.8607647336259
 10
139.64506416593119
 20
39.8607647336259
 10
140.8044847754054
 20
39.29873976029302
 10
140.8044847754054
 20
39.29873976029302
 10
141.92180310760071
 20
38.77787759817983
 10
141.92180310760071
 20
38.77787759817983
 10
143.26760243449749
 20
38.16381677158023
  0
LWPOLYLINE
  5
609
100
AcDbEntity
  8
0
  6
CONTINUOUS
 62
             3
100
AcDbPolyline
 90
       40
 70
             0
 10
149.78723742638161
 20
121.0054042629138
 10
149.90409367356841
 20
122.43215264297871
 10
149.90409367356841
 20
122.43215264297871
 10
149.9995026794486
 20
123.7840818084016
 10
149.9995026794486
 20
123.7840818084016
 10
150.06633173499631
 20
125.1002425394192
 10
150.06633173499631
 20
125.1002425394192
 10
150.09785517130419
 20
126.4782997883096
 10
150.09785517130419
 20
126.4782997883096
 10
150.096756747108
 20
127.73882804728891
 10
150.096756747108
 20
127.73882804728891
 10
150.06982248101761
 20
130.1259739614265
 10
150.06982248101761
 20
130.1259739614265
 10
150.08004834328219
 20
132.38992640293981
 10
150.08004834328219
 20
132.38992640293981
 10
150.0776390043311
 20
134.6891131169333
 10
150.0776390043311
 20
134.6891131169333
 10
149.84897618566069
 20
136.8480177364483
 10
149.84897618566069
 20
136.8480177364483
 10
149.5128961709552
 20
138.08088983513261
 10
149.5128961709552
 20
138.08088983513261
 10
149.00484748755039
 20
139.2720540977254
 10
149.00484748755039
 20
139.2720540977254
 10
148.32967503939199
 20
140.4557448617353
 10
148.32967503939199
 20
140.4557448617353
 10
147.1004370657021
 20
142.13560127384829
 10
147.1004370657021
 20
142.13560127384829
 10
145.69010140572121
 20
143.7083411506548
 10
145.69010140572121
 20
143.7083411506548
 10
144.7770004478507
 20
144.61602408356811
 10
144.7770004478507
 20
144.61602408356811
 10
143.77354471955809
 20
145.546742438449
 10
143.77354471955809
 20
145.546742438449
 10
142.67973422084381
 20
146.5004962152972
 10
142.67973422084381
 20
146.5004962152972
 10
141.68850564036879
 20
147.32365728087569
 10
141.68850564036879
 20
147.32365728087569
 10
140.72830503259229
 20
148.09677591092731
 10
140.72830503259229
 20
148.09677591092731
 10
139.56856658135001
 20
149.0150641045704
  0
LWPOLYLINE
  5
607
100
AcDbEntity
  8
0
  6
CONTINUOUS
 62
             3
100
AcDbPolyline
 90
       42
 70
             0
 10
151.252800127607
 20
120.5372859156861
 10
151.36625414166991
 20
121.90023061551
 10
151.36625414166991
 20
121.90023061551
 10
151.44810213718941
 20
122.9678327731028
 10
151.44810213718941
 20
122.9678327731028
 10
151.5249326733165
 20
124.1791163078681
 10
151.5249326733165
 20
124.1791163078681
 10
151.57468323979899
 20
125.32306427426489
 10
151.57468323979899
 20
125.32306427426489
 10
151.59816386375951
 20
126.5334173954263
 10
151.59816386375951
 20
126.5334173954263
 10
151.59761293802799
 20
127.5946466318502
 10
151.59761293802799
 20
127.5946466318502
 10
151.57060780201479
 20
130.02149332232619
 10
151.57060780201479
 20
130.02149332232619
 10
151.57762106333291
 20
132.29361658461241
 10
151.57762106333291
 20
132.29361658461241
 10
151.57788052235159
 20
134.7025278947487
 10
151.57788052235159
 20
134.7025278947487
 10
151.32026629720261
 20
137.1390436059967
 10
151.32026629720261
 20
137.1390436059967
 10
150.65440957818569
 20
139.27925544895081
 10
150.65440957818569
 20
139.27925544895081
 10
149.5933039394431
 20
141.26360174186371
 10
149.5933039394431
 20
141.26360174186371
 10
148.7453513649516
 20
142.4733589283361
 10
148.7453513649516
 20
142.4733589283361
 10
147.79820503864809
 20
143.63242054648541
 10
147.79820503864809
 20
143.63242054648541
 10
146.7674760428481
 20
144.751727297081
 10
146.7674760428481
 20
144.751727297081
 10
145.81992383871591
 20
145.69386619247351
 10
145.81992383871591
 20
145.69386619247351
 10
144.78056909714269
 20
146.65817785926009
 10
144.78056909714269
 20
146.65817785926009
 10
143.6494118181281
 20
147.6446623048916
 10
143.6494118181281
 20
147.6446623048916
 10
142.63839184318101
 20
148.48430576838399
 10
142.63839184318101
 20
148.48430576838399
 10
141.66444738779589
 20
149.2685411862268
 10
141.66444738779589
 20
149.2685411862268
 10
140.49749975476789
 20
150.19255035288481
  0
LWPOLYLINE
  5
605
100
AcDbEntity
  8
0
  6
CONTINUOUS
 62
             3
100
AcDbPolyline
 90
       42
 70
             0
 10
136.72777234588179
 20
125.1228048867717
 10
136.19483890209719
 20
126.382357186748
 10
136.19483890209719
 20
126.382357186748
 10
135.77117224607991
 20
127.365708618535
 10
135.77117224607991
 20
127.365708618535
 10
135.27629079495
 20
128.47395184554
 10
135.27629079495
 20
128.47395184554
 10
134.78872357879209
 20
129.50998770363469
 10
134.78872357879209
 20
129.50998770363469
 10
134.2470355239922
 20
130.5926141656175
 10
134.2470355239922
 20
130.5926141656175
 10
133.7533698884063
 20
131.53202996320871
 10
133.7533698884063
 20
131.53202996320871
 10
132.6016461161189
 20
133.66834607638259
 10
132.6016461161189
 20
133.66834607638259
 10
131.551947733503
 20
135.68347053147701
 10
131.551947733503
 20
135.68347053147701
 10
130.43270056520029
 20
137.81657614476819
 10
130.43270056520029
 20
137.81657614476819
 10
129.07228918943929
 20
139.85428436763431
 10
129.07228918943929
 20
139.85428436763431
 10
127.48809631739201
 20
141.43990878678699
 10
127.48809631739201
 20
141.43990878678699
 10
125.6263622251563
 20
142.7038397929802
 10
125.6263622251563
 20
142.7038397929802
 10
124.3133353200965
 20
143.3809633693831
 10
124.3133353200965
 20
143.3809633693831
 10
122.9360360709243
 20
143.96710061199809
 10
122.9360360709243
 20
143.96710061199809
 10
121.5032031146102
 20
144.47919387288241
 10
121.5032031146102
 20
144.47919387288241
 10
120.2263535169177
 20
144.87306696839499
 10
120.2263535169177
 20
144.87306696839499
 10
118.85791262064519
 20
145.24391031928229
 10
118.85791262064519
 20
145.24391031928229
 10
117.3978804257922
 20
145.5917239255443
 10
117.3978804257922
 20
145.5917239255443
 10
116.11246489558729
 20
145.86534686304469
 10
116.11246489558729
 20
145.86534686304469
 10
114.88562755857041
 20
146.1071382901803
 10
114.88562755857041
 20
146.1071382901803
 10
113.4229382780603
 20
146.383000164403
  0
LWPOLYLINE
  5
603
100
AcDbEntity
  8
0
  6
CONTINUOUS
 62
             3
100
AcDbPolyline
 90
       38
 70
             0
 10
134.13580771360921
 20
127.3557543746369
 10
133.48086481366681
 20
128.7695551804438
 10
133.48086481366681
 20
128.7695551804438
 10
132.7718126681857
 20
130.17939852096009
 10
132.7718126681857
 20
130.17939852096009
 10
131.99819706950711
 20
131.63030684657241
 10
131.99819706950711
 20
131.63030684657241
 10
131.17807962570731
 20
133.14960275508309
 10
131.17807962570731
 20
133.14960275508309
 10
130.40898617182299
 20
134.62231977201839
 10
130.40898617182299
 20
134.62231977201839
 10
129.6181670037322
 20
136.17470379836701
 10
129.6181670037322
 20
136.17470379836701
 10
128.8079765943103
 20
137.6184660858645
 10
128.8079765943103
 20
137.6184660858645
 10
127.9047729579023
 20
138.91285113908219
 10
127.9047729579023
 20
138.91285113908219
 10
127.0342446473651
 20
139.848321004881
 10
127.0342446473651
 20
139.848321004881
 10
126.0308282581382
 20
140.66694258816409
 10
126.0308282581382
 20
140.66694258816409
 10
124.8829042223506
 20
141.40128042466779
 10
124.8829042223506
 20
141.40128042466779
 10
123.0137998369746
 20
142.3174640230074
 10
123.0137998369746
 20
142.3174640230074
 10
121.0341209677272
 20
143.05464037425671
 10
121.0341209677272
 20
143.05464037425671
 10
119.80378895078231
 20
143.43401452071811
 10
119.80378895078231
 20
143.43401452071811
 10
118.4827466217095
 20
143.79179556585689
 10
118.4827466217095
 20
143.79179556585689
 10
117.07099404011311
 20
144.1279835096731
 10
117.07099404011311
 20
144.1279835096731
 10
115.81076272402321
 20
144.3962095446125
 10
115.81076272402321
 20
144.3962095446125
 10
114.6012611595206
 20
144.6345446250572
 10
114.6012611595206
 20
144.6345446250572
 10
113.1476139334254
 20
144.90869109995509
  0
LWPOLYLINE
  5
601
100
AcDbEntity
  8
0
  6
CONTINUOUS
 62
             3
100
AcDbPolyline
 90
       36
 70
             0
 10
118.4174283352903
 20
123.1940161503091
 10
116.9942808357291
 20
124.2795548356309
 10
116.9942808357291
 20
124.2795548356309
 10
115.5646906701139
 20
125.2910803250208
 10
115.5646906701139
 20
125.2910803250208
 10
113.7626279202515
 20
126.50820292450329
 10
113.7626279202515
 20
126.50820292450329
 10
112.28092240367459
 20
127.51709382153889
 10
112.28092240367459
 20
127.51709382153889
 10
110.7045790163094
 20
128.63459558702851
 10
110.7045790163094
 20
128.63459558702851
 10
109.1322821286731
 20
129.68607737786911
 10
109.1322821286731
 20
129.68607737786911
 10
107.5145700481944
 20
130.5431905902162
 10
107.5145700481944
 20
130.5431905902162
 10
106.3090209868959
 20
130.96695334382201
 10
106.3090209868959
 20
130.96695334382201
 10
105.0401074794345
 20
131.22549590386319
 10
105.0401074794345
 20
131.22549590386319
 10
103.6824074295573
 20
131.34225286461259
 10
103.6824074295573
 20
131.34225286461259
 10
101.6016259399467
 20
131.284877038671
 10
101.6016259399467
 20
131.284877038671
 10
99.5061244276576
 20
131.017611644341
 10
99.5061244276576
 20
131.017611644341
 10
98.2404155639224
 20
130.7817669577137
 10
98.2404155639224
 20
130.7817669577137
 10
96.90442152891671
 20
130.48464737005381
 10
96.90442152891671
 20
130.48464737005381
 10
95.49814238224542
 20
130.126252873911
 10
95.49814238224542
 20
130.126252873911
 10
94.2576120999866
 20
129.7780965334909
 10
94.2576120999866
 20
129.7780965334909
 10
93.0758918133788
 20
129.42704836197041
 10
93.0758918133788
 20
129.42704836197041
 10
91.66134889994191
 20
128.9942494622602
  0
LWPOLYLINE
  5
5FF
100
AcDbEntity
  8
0
  6
CONTINUOUS
 62
             3
100
AcDbPolyline
 90
       32
 70
             0
 10
118.1140388456397
 20
125.3170496217146
 10
116.30207135353611
 20
126.6038376755252
 10
116.30207135353611
 20
126.6038376755252
 10
114.2589743045384
 20
127.981956116034
 10
114.2589743045384
 20
127.981956116034
 10
112.3374827412181
 20
129.31259795941261
 10
112.3374827412181
 20
129.31259795941261
 10
110.3107768801265
 20
130.7161728060976
 10
110.3107768801265
 20
130.7161728060976
 10
108.11084850702809
 20
131.91936016745711
 10
108.11084850702809
 20
131.91936016745711
 10
105.9712389615588
 20
132.5871497160926
 10
105.9712389615588
 20
132.5871497160926
 10
103.7353772727065
 20
132.84111406572009
 10
103.7353772727065
 20
132.84111406572009
 10
102.2580746618322
 20
132.83048318989421
 10
102.2580746618322
 20
132.83048318989421
 10
100.7661451903396
 20
132.70941907830391
 10
100.7661451903396
 20
132.70941907830391
 10
99.25945298944032
 20
132.4969844511881
 10
99.25945298944032
 20
132.4969844511881
 10
97.94581689510869
 20
132.25236017174859
 10
97.94581689510869
 20
132.25236017174859
 10
96.56178315554189
 20
131.94477946229119
 10
96.56178315554189
 20
131.94477946229119
 10
95.1073518005424
 20
131.57424231536541
 10
95.1073518005424
 20
131.57424231536541
 10
93.84201397572087
 20
131.21916101790811
 10
93.84201397572087
 20
131.21916101790811
 10
92.64333738956981
 20
130.8631169564261
 10
92.64333738956981
 20
130.8631169564261
 10
91.21999092970418
 20
130.42763490147729
  0
LWPOLYLINE
  5
5FD
100
AcDbEntity
  8
0
  6
CONTINUOUS
 62
             3
100
AcDbPolyline
 90
        8
 70
             0
 10
102.18419977102791
 20
142.21756496943379
 10
102.16154577408361
 20
142.14064848340891
 10
102.16154577408361
 20
142.14064848340891
 10
102.17113783035801
 20
142.02253407157801
 10
102.17113783035801
 20
142.02253407157801
 10
102.2582833078914
 20
141.92258254356531
 10
102.2582833078914
 20
141.92258254356531
 10
102.4063169566207
 20
141.8717129967346
  0
LWPOLYLINE
  5
5FB
100
AcDbEntity
  8
0
  6
CONTINUOUS
 62
             3
100
AcDbPolyline
 90
       16
 70
             0
 10
102.18419977102791
 20
142.21756496943379
 10
102.34307967696699
 20
142.6429793528452
 10
102.34307967696699
 20
142.6429793528452
 10
102.59132801566651
 20
143.7339654631152
 10
102.59132801566651
 20
143.7339654631152
 10
102.5637197700553
 20
144.71172511495519
 10
102.5637197700553
 20
144.71172511495519
 10
102.261164626222
 20
145.54530040092621
 10
102.261164626222
 20
145.54530040092621
 10
101.721537193399
 20
146.2362458846705
 10
101.721537193399
 20
146.2362458846705
 10
100.8459050861411
 20
146.86683483339701
 10
100.8459050861411
 20
146.86683483339701
 10
99.76504873309659
 20
147.3278533361092
 10
99.76504873309659
 20
147.3278533361092
 10
98.54029359493779
 20
147.6365796170368
  0
LWPOLYLINE
  5
5F9
100
AcDbEntity
  8
0
  6
CONTINUOUS
 62
             3
100
AcDbPolyline
 90
        8
 70
             0
 10
83.20435645256572
 20
121.51642300851491
 10
83.22004218969869
 20
121.4377889997497
 10
83.22004218969869
 20
121.4377889997497
 10
83.2834260371738
 20
121.33766152627619
 10
83.2834260371738
 20
121.33766152627619
 10
83.4070393351131
 20
121.289657368435
 10
83.4070393351131
 20
121.289657368435
 10
83.5617568698936
 20
121.3134092978375
  0
LWPOLYLINE
  5
5F7
100
AcDbEntity
  8
0
  6
CONTINUOUS
 62
             3
100
AcDbPolyline
 90
       16
 70
             0
 10
83.20435645256572
 20
121.51642300851491
 10
83.14733769569921
 20
121.96694391138701
 10
83.14733769569921
 20
121.96694391138701
 10
82.8552313355022
 20
123.06621629662661
 10
82.8552313355022
 20
123.06621629662661
 10
82.38131069217252
 20
123.901263869478
 10
82.38131069217252
 20
123.901263869478
 10
81.71736513648557
 20
124.5058992273345
 10
81.71736513648557
 20
124.5058992273345
 10
80.92711495433377
 20
124.8597782246008
 10
80.92711495433377
 20
124.8597782246008
 10
80.12197040591747
 20
124.9990090123551
 10
80.12197040591747
 20
124.9990090123551
 10
79.2542120424323
 20
124.9895424834623
 10
79.2542120424323
 20
124.9895424834623
 10
77.45949607167768
 20
124.62131453968431
  0
LWPOLYLINE
  5
5F5
100
AcDbEntity
  8
0
  6
CONTINUOUS
 62
             3
100
AcDbPolyline
 90
        8
 70
             0
 10
177.9388994482571
 20
53.7104575104251
 10
177.9424878564887
 20
53.79056040115501
 10
177.9424878564887
 20
53.79056040115501
 10
177.90490790281819
 20
53.90294709719564
 10
177.90490790281819
 20
53.90294709719564
 10
177.79637472901871
 20
53.97913893975164
 10
177.79637472901871
 20
53.97913893975164
 10
177.64046879683079
 20
53.99310353316213
  0
LWPOLYLINE
  5
5F3
100
AcDbEntity
  8
0
  6
CONTINUOUS
 62
             3
100
AcDbPolyline
 90
       16
 70
             0
 10
177.9388994482571
 20
53.7104575104251
 10
177.8864446190411
 20
53.2593824408188
 10
177.8864446190411
 20
53.2593824408188
 10
177.90698980365309
 20
52.12214729107762
 10
177.90698980365309
 20
52.12214729107762
 10
178.16729920182749
 20
51.19794805265809
 10
178.16729920182749
 20
51.19794805265809
 10
178.66725300822779
 20
50.45198971696044
 10
178.66725300822779
 20
50.45198971696044
 10
179.34985118184599
 20
49.91927455283548
 10
179.34985118184599
 20
49.91927455283548
 10
180.09827955637499
 20
49.59140586025859
 10
180.09827955637499
 20
49.59140586025859
 10
180.94308792625
 20
49.39292914338256
 10
180.94308792625
 20
49.39292914338256
 10
182.7737754491383
 20
49.32095340557243
  0
LWPOLYLINE
  5
5F1
100
AcDbEntity
  8
0
  6
CONTINUOUS
 62
             3
100
AcDbPolyline
 90
        8
 70
             0
 10
154.5564683285767
 20
38.15302692271627
 10
154.5968713966422
 20
38.22228689409639
 10
154.5968713966422
 20
38.22228689409639
 10
154.61582469020399
 20
38.33926464535142
 10
154.61582469020399
 20
38.33926464535142
 10
154.55513145599889
 20
38.45716704346091
 10
154.55513145599889
 20
38.45716704346091
 10
154.42357327614371
 20
38.54198519058372
  0
LWPOLYLINE
  5
5EF
100
AcDbEntity
  8
0
  6
CONTINUOUS
 62
             3
100
AcDbPolyline
 90
        8
 70
             0
 10
179.26677714858579
 20
131.52041502959881
 10
179.18769081507239
 20
131.53363261289741
 10
179.18769081507239
 20
131.53363261289741
 10
179.07159378204869
 20
131.5098733819261
 10
179.07159378204869
 20
131.5098733819261
 10
178.98287524853291
 20
131.4113154626622
 10
178.98287524853291
 20
131.4113154626622
 10
178.95021887693929
 20
131.2582238829865
  0
LWPOLYLINE
  5
5ED
100
AcDbEntity
  8
0
  6
CONTINUOUS
 62
             3
100
AcDbPolyline
 90
       16
 70
             0
 10
179.26677714858579
 20
131.52041502959881
 10
179.7082406190448
 20
131.41397157229329
 10
179.7082406190448
 20
131.41397157229329
 10
180.83966051612441
 20
131.29728841699529
 10
180.83966051612441
 20
131.29728841699529
 10
181.78849812422311
 20
131.44429995782519
 10
181.78849812422311
 20
131.44429995782519
 10
182.58928035770001
 20
131.85069318778659
 10
182.58928035770001
 20
131.85069318778659
 10
183.20038952503731
 20
132.4641027367847
 10
183.20038952503731
 20
132.4641027367847
 10
183.61608078156041
 20
133.16755403496171
 10
183.61608078156041
 20
133.16755403496171
 10
183.91494076524319
 20
133.9822790763512
 10
183.91494076524319
 20
133.9822790763512
 10
184.20705672178789
 20
135.79094307787571
  0
LWPOLYLINE
  5
5EB
100
AcDbEntity
  8
0
  6
CONTINUOUS
 62
             3
100
AcDbPolyline
 90
        8
 70
             0
 10
191.89233591232809
 20
106.43322713591
 10
191.8284509686047
 20
106.48168396867661
 10
191.8284509686047
 20
106.48168396867661
 10
191.71461068664121
 20
106.51459918834109
 10
191.71461068664121
 20
106.51459918834109
 10
191.5902521816306
 20
106.4685600540771
 10
191.5902521816306
 20
106.4685600540771
 10
191.49019484792279
 20
106.34818476356421
  0
LWPOLYLINE
  5
5E9
100
AcDbEntity
  8
0
  6
CONTINUOUS
 62
             3
100
AcDbPolyline
 90
        8
 70
             0
 10
100.5362061468177
 20
45.64969950832273
 10
100.6161575225406
 20
45.65579259313483
 10
100.6161575225406
 20
45.65579259313483
 10
100.7231950369886
 20
45.70664527185102
 10
100.7231950369886
 20
45.70664527185102
 10
100.7857491282039
 20
45.82357101060302
 10
100.7857491282039
 20
45.82357101060302
 10
100.7808195260577
 20
45.98002348013063
  0
LWPOLYLINE
  5
5E7
100
AcDbEntity
  8
0
  6
CONTINUOUS
 62
             3
100
AcDbPolyline
 90
       16
 70
             0
 10
100.5362061468177
 20
45.64969950832273
 10
100.0820971933416
 20
45.64740078069121
 10
100.0820971933416
 20
45.64740078069121
 10
98.97397740755611
 20
45.49264799721397
 10
98.97397740755611
 20
45.49264799721397
 10
98.06954627309369
 20
45.12011548049594
 10
98.06954627309369
 20
45.12011548049594
 10
97.39742737088727
 20
44.54163163818276
 10
97.39742737088727
 20
44.54163163818276
 10
96.94273661647367
 20
43.79205858625323
 10
96.94273661647367
 20
43.79205858625323
 10
96.66362916503482
 20
42.74971841938628
 10
96.66362916503482
 20
42.74971841938628
 10
96.61584629688787
 20
41.57562075473226
 10
96.61584629688787
 20
41.57562075473226
 10
96.76148637209451
 20
40.32097895361329
  0
LWPOLYLINE
  5
5E5
100
AcDbEntity
  8
0
  6
CONTINUOUS
 62
             3
100
AcDbPolyline
 90
        8
 70
             0
 10
82.27376612101131
 20
66.98640532709504
 10
82.3473911491447
 20
66.95464523054517
 10
82.3473911491447
 20
66.95464523054517
 10
82.46580057416492
 20
66.94993022747184
 10
82.46580057416492
 20
66.94993022747184
 10
82.57552756939458
 20
67.02439249224807
 10
82.57552756939458
 20
67.02439249224807
 10
82.6438697186523
 20
67.16521517850316
  0
LWPOLYLINE
  5
5E3
100
AcDbEntity
  8
0
  6
CONTINUOUS
 62
             3
100
AcDbPolyline
 90
       14
 70
             0
 10
82.27376612101131
 20
66.98640532709504
 10
81.87060435686641
 20
67.19540486402656
 10
81.87060435686641
 20
67.19540486402656
 10
80.81749578390651
 20
67.57334703124906
 10
80.81749578390651
 20
67.57334703124906
 10
79.8435372916274
 20
67.6637959695592
 10
79.8435372916274
 20
67.6637959695592
 10
78.97957070742177
 20
67.46392319269336
 10
78.97957070742177
 20
67.46392319269336
 10
78.22861810598897
 20
67.0115145436659
 10
78.22861810598897
 20
67.0115145436659
 10
77.35639732156307
 20
66.01200628943587
 10
77.35639732156307
 20
66.01200628943587
 10
76.69604905520009
 20
64.70503315992499
  0
LWPOLYLINE
  5
5E1
100
AcDbEntity
  8
0
  6
CONTINUOUS
 62
             3
100
AcDbPolyline
 90
        4
 70
             0
 10
123.7297204640918
 20
143.6293323404326
 10
124.5801770893148
 20
146.8892000681891
 10
124.5801770893148
 20
146.8892000681891
 10
125.5580764320903
 20
150.12749333597591
  0
LWPOLYLINE
  5
5DF
100
AcDbEntity
  8
0
  6
CONTINUOUS
 62
             3
100
AcDbPolyline
 90
       12
 70
             0
 10
171.47280218277501
 20
98.21165469951785
 10
174.76049741182851
 20
98.25345894612218
 10
174.76049741182851
 20
98.25345894612218
 10
179.13029967818801
 20
98.20760830409671
 10
179.13029967818801
 20
98.20760830409671
 10
180.8831750956588
 20
98.15824187464858
 10
180.8831750956588
 20
98.15824187464858
 10
182.6110335496478
 20
97.98969361848987
 10
182.6110335496478
 20
97.98969361848987
 10
184.29761081014189
 20
97.62368715472377
 10
184.29761081014189
 20
97.62368715472377
 10
185.6127088573985
 20
97.19146541423942
  0
LWPOLYLINE
  5
5DD
100
AcDbEntity
  8
0
  6
CONTINUOUS
 62
             3
100
AcDbPolyline
 90
       14
 70
             0
 10
98.0998975244575
 20
77.53330511517669
 10
97.61637823854022
 20
77.38462781824018
 10
97.61637823854022
 20
77.38462781824018
 10
93.4106660393291
 20
76.19750562228109
 10
93.4106660393291
 20
76.19750562228109
 10
91.71488626871621
 20
75.75103028781558
 10
91.71488626871621
 20
75.75103028781558
 10
90.0095326808505
 20
75.42595717228807
 10
90.0095326808505
 20
75.42595717228807
 10
88.28815772209691
 20
75.30197408713246
 10
88.28815772209691
 20
75.30197408713246
 10
86.56021272216367
 20
75.35718420810844
 10
86.56021272216367
 20
75.35718420810844
 10
85.47814478550481
 20
75.4793222314849
  0
LWPOLYLINE
  5
5DB
100
AcDbEntity
  8
0
  6
CONTINUOUS
 62
             3
100
AcDbPolyline
 90
        4
 70
             0
 10
161.35772578988599
 20
42.43265041626853
 10
161.59902383957419
 20
44.85621264494802
 10
161.59902383957419
 20
44.85621264494802
 10
161.7069123295361
 20
46.79940102912332
  0
LWPOLYLINE
  5
5D9
100
AcDbEntity
  8
0
  6
CONTINUOUS
 62
             3
100
AcDbPolyline
 90
       14
 70
             0
 10
100.6843105760627
 20
98.42064597375537
 10
99.14948435698079
 20
98.76400182314075
 10
99.14948435698079
 20
98.76400182314075
 10
94.86182796035337
 20
99.96397204615033
 10
94.86182796035337
 20
99.96397204615033
 10
90.68195100699001
 20
101.239080979599
 10
90.68195100699001
 20
101.239080979599
 10
89.01398747239637
 20
101.7802898056045
 10
89.01398747239637
 20
101.7802898056045
 10
87.40360494528341
 20
102.4288046500816
 10
87.40360494528341
 20
102.4288046500816
 10
85.88846187863857
 20
103.2551489985719
 10
85.88846187863857
 20
103.2551489985719
 10
85.856253823381
 20
103.2773324689999
  0
LWPOLYLINE
  5
5D7
100
AcDbEntity
  8
0
  6
CONTINUOUS
 62
             3
100
AcDbPolyline
 90
        4
 70
             0
 10
134.74628930364179
 20
61.86918724991227
 10
134.4017031398827
 20
57.41951333649303
 10
134.4017031398827
 20
57.41951333649303
 10
133.92562984500469
 20
53.78047029591943
  0
LWPOLYLINE
  5
5D5
100
AcDbEntity
  8
0
  6
CONTINUOUS
 62
             3
100
AcDbPolyline
 90
        4
 70
             0
 10
186.9131562915853
 20
99.21087210543288
 10
185.68269284639871
 20
99.72800226427461
 10
185.68269284639871
 20
99.72800226427461
 10
183.95345898542931
 20
100.23235950536881
  0
LWPOLYLINE
  5
5D3
100
AcDbEntity
  8
0
  6
CONTINUOUS
 62
             3
100
AcDbPolyline
 90
        4
 70
             0
 10
159.40344699297489
 20
46.92373342729951
 10
159.4663146940284
 20
44.85640588320632
 10
159.4663146940284
 20
44.85640588320632
 10
159.44035979185631
 20
41.47378016926206
  0
LWPOLYLINE
  5
5D1
100
AcDbEntity
  8
0
  6
CONTINUOUS
 62
             3
100
AcDbPolyline
 90
        6
 70
             0
 10
83.67083715472751
 20
101.21737873472119
 10
83.06970899377382
 20
100.64994577981381
 10
83.06970899377382
 20
100.64994577981381
 10
77.51760607038068
 20
95.37936121143247
 10
77.51760607038068
 20
95.37936121143247
 10
76.69995175872361
 20
94.60334718145276
  0
LWPOLYLINE
  5
5CF
100
AcDbEntity
  8
0
  6
CONTINUOUS
 62
             3
100
AcDbPolyline
 90
        6
 70
             0
 10
136.3344680872971
 20
144.95731982506661
 10
135.82057928119229
 20
145.38428710318951
 10
135.82057928119229
 20
145.38428710318951
 10
129.62461437855291
 20
150.50379551119951
 10
129.62461437855291
 20
150.50379551119951
 10
128.64146449242159
 20
151.3163628942504
  0
LWPOLYLINE
  5
5CD
100
AcDbEntity
  8
0
  6
CONTINUOUS
 62
             3
100
AcDbPolyline
 90
        6
 70
             0
 10
120.7428784874493
 20
43.66557851351644
 10
121.13965468679
 20
43.12803648330123
 10
121.13965468679
 20
43.12803648330123
 10
125.9303975311332
 20
36.67450022615338
 10
125.9303975311332
 20
36.67450022615338
 10
126.6887091604285
 20
35.65269980497516
  0
LWPOLYLINE
  5
5CB
100
AcDbEntity
  8
0
  6
CONTINUOUS
 62
             3
100
AcDbPolyline
 90
        6
 70
             0
 10
112.1696897355132
 20
139.81277646787311
 10
111.5162421968988
 20
139.9520211807623
 10
111.5162421968988
 20
139.9520211807623
 10
103.6508335677198
 20
141.60571229375739
 10
103.6508335677198
 20
141.60571229375739
 10
102.4054783192687
 20
141.86772341944121
  0
LWPOLYLINE
  5
5C9
100
AcDbEntity
  8
0
  6
CONTINUOUS
 62
             3
100
AcDbPolyline
 90
        6
 70
             0
 10
160.1221052018218
 20
138.28265429206041
 10
159.86550082836689
 20
138.8995310804977
 10
159.86550082836689
 20
138.8995310804977
 10
156.7584005800301
 20
146.3120391062632
 10
156.7584005800301
 20
146.3120391062632
 10
156.26658909593141
 20
147.4857856772079
  0
LWPOLYLINE
  5
5C7
100
AcDbEntity
  8
0
  6
CONTINUOUS
 62
             3
100
AcDbPolyline
 90
        6
 70
             0
 10
167.66806610498949
 20
53.65568305469907
 10
168.33584909711411
 20
53.67686477966453
 10
168.33584909711411
 20
53.67686477966453
 10
176.36845742736401
 20
53.95354241795684
 10
176.36845742736401
 20
53.95354241795684
 10
177.64032830868291
 20
53.99717787571098
  0
LWPOLYLINE
  5
5C5
100
AcDbEntity
  8
0
  6
CONTINUOUS
 62
             3
100
AcDbPolyline
 90
        6
 70
             0
 10
145.43664210114991
 20
42.87762080050851
 10
146.03777821932351
 20
42.58604206062699
 10
146.03777821932351
 20
42.58604206062699
 10
153.2788781729752
 20
39.09808871812976
 10
153.2788781729752
 20
39.09808871812976
 10
154.4253423121983
 20
38.5456581331029
  0
LWPOLYLINE
  5
5C3
100
AcDbEntity
  8
0
  6
CONTINUOUS
 62
             3
100
AcDbPolyline
 90
        4
 70
             0
 10
178.0830174890572
 20
121.3178426764145
 10
178.91179816995191
 20
130.86234275914569
 10
178.91179816995191
 20
130.86234275914569
 10
178.9461706784779
 20
131.2585743433967
  0
LWPOLYLINE
  5
5C1
100
AcDbEntity
  8
0
  6
CONTINUOUS
 62
             3
100
AcDbPolyline
 90
        6
 70
             0
 10
182.34419917140531
 20
73.53064110793019
 10
182.92564799461891
 20
73.85973081655646
 10
182.92564799461891
 20
73.85973081655646
 10
189.90959095035109
 20
77.83765592343951
 10
189.90959095035109
 20
77.83765592343951
 10
191.01549824152519
 20
78.46736106939449
  0
LWPOLYLINE
  5
5BF
100
AcDbEntity
  8
0
  6
CONTINUOUS
 62
             3
100
AcDbPolyline
 90
        6
 70
             0
 10
93.16362964187192
 20
124.0275771162643
 10
92.52032034669452
 20
123.8471999681728
 10
92.52032034669452
 20
123.8471999681728
 10
84.78733830724292
 20
121.6562330789106
 10
84.78733830724292
 20
121.6562330789106
 10
83.56286834750699
 20
121.309486962034
  0
LWPOLYLINE
  5
5BD
100
AcDbEntity
  8
0
  6
CONTINUOUS
 62
             3
100
AcDbPolyline
 90
        6
 70
             0
 10
99.24381889973211
 20
55.83904457010186
 10
99.34533854399251
 20
55.17868365265287
 10
99.34533854399251
 20
55.17868365265287
 10
100.58822282228979
 20
47.23799187607909
 10
100.58822282228979
 20
47.23799187607909
 10
100.7848472205215
 20
45.98065405256892
  0
LWPOLYLINE
  5
5BB
100
AcDbEntity
  8
0
  6
CONTINUOUS
 62
             3
100
AcDbPolyline
 90
        6
 70
             0
 10
186.10291605268051
 20
97.94938157416726
 10
186.46482782636201
 20
98.51098878599549
 10
186.46482782636201
 20
98.51098878599549
 10
190.80016820703079
 20
105.2788666627541
 10
190.80016820703079
 20
105.2788666627541
 10
191.4867619184071
 20
106.35038363106391
  0
LWPOLYLINE
  5
5B9
100
AcDbEntity
  8
0
  6
CONTINUOUS
 62
             3
100
AcDbPolyline
 90
        6
 70
             0
 10
85.86463882599401
 20
76.60922460920966
 10
85.64764495764291
 20
75.97732553548957
 10
85.64764495764291
 20
75.97732553548957
 10
83.05794089112811
 20
68.36859502561237
 10
83.05794089112811
 20
68.36859502561237
 10
82.6477291194015
 20
67.16390176035299
  0
LWPOLYLINE
  5
5B7
100
AcDbEntity
  8
0
  6
CONTINUOUS
 62
             3
100
AcDbPolyline
 90
       32
 70
             0
 10
107.94798289809749
 20
76.72040563739682
 10
107.88024028215931
 20
76.69109839118863
 10
107.88024028215931
 20
76.69109839118863
 10
106.6237313357407
 20
76.02971786923553
 10
106.6237313357407
 20
76.02971786923553
 10
105.5152371135764
 20
75.27680795557643
 10
105.5152371135764
 20
75.27680795557643
 10
104.3883762863689
 20
74.33713494904197
 10
104.3883762863689
 20
74.33713494904197
 10
103.10173152957491
 20
73.05272049374736
 10
103.10173152957491
 20
73.05272049374736
 10
101.2204663065486
 20
71.00876105494643
 10
101.2204663065486
 20
71.00876105494643
 10
100.3033537176662
 20
69.9637843958273
 10
100.3033537176662
 20
69.9637843958273
 10
99.5417335537486
 20
69.02330735243703
 10
99.5417335537486
 20
69.02330735243703
 10
98.95828174624967
 20
68.09517370082284
 10
98.95828174624967
 20
68.09517370082284
 10
98.5378472713046
 20
67.17164602793599
 10
98.5378472713046
 20
67.17164602793599
 10
98.27321564231431
 20
66.24955549754048
 10
98.27321564231431
 20
66.24955549754048
 10
98.1627674606853
 20
65.32925806112434
 10
98.1627674606853
 20
65.32925806112434
 10
98.15374257240819
 20
64.20000176049626
 10
98.15374257240819
 20
64.20000176049626
 10
98.30056103144221
 20
62.38302771665002
 10
98.30056103144221
 20
62.38302771665002
 10
98.70560847793149
 20
59.36324568010713
 10
98.70560847793149
 20
59.36324568010713
 10
99.24466090474641
 20
55.83916680432702
  0
LWPOLYLINE
  5
5B5
100
AcDbEntity
  8
0
  6
CONTINUOUS
 62
             3
100
AcDbPolyline
 90
       30
 70
             0
 10
164.63250946078841
 20
103.1338376841679
 10
165.65127494011449
 20
103.35380206175
 10
165.65127494011449
 20
103.35380206175
 10
166.88070662890021
 20
103.7573031253353
 10
166.88070662890021
 20
103.7573031253353
 10
168.1759144571835
 20
104.3346853471532
 10
168.1759144571835
 20
104.3346853471532
 10
169.65748219762361
 20
105.1721912614241
 10
169.65748219762361
 20
105.1721912614241
 10
172.57452138338601
 20
107.08784599520121
 10
172.57452138338601
 20
107.08784599520121
 10
173.69821449194481
 20
107.8729445851579
 10
173.69821449194481
 20
107.8729445851579
 10
174.6541917232089
 20
108.59903696842341
 10
174.6541917232089
 20
108.59903696842341
 10
175.43969025288149
 20
109.36407069034721
 10
175.43969025288149
 20
109.36407069034721
 10
176.0705484953933
 20
110.1728877118959
 10
176.0705484953933
 20
110.1728877118959
 10
176.54989688668789
 20
111.0197147942319
 10
176.54989688668789
 20
111.0197147942319
 10
176.87701799545809
 20
111.89753332652
 10
176.87701799545809
 20
111.89753332652
 10
177.1498835590892
 20
112.9880448199049
 10
177.1498835590892
 20
112.9880448199049
 10
177.4385432210976
 20
114.7753826371565
 10
177.4385432210976
 20
114.7753826371565
 10
177.7774760333115
 20
117.9226168758407
 10
177.7774760333115
 20
117.9226168758407
 10
178.08192654524359
 20
121.3179752743974
  0
LWPOLYLINE
  5
5B3
100
AcDbEntity
  8
0
  6
CONTINUOUS
 62
             3
100
AcDbPolyline
 90
       32
 70
             0
 10
105.7993864027076
 20
105.9156331486239
 10
105.7043914404922
 20
105.9747720650568
 10
105.7043914404922
 20
105.9747720650568
 10
104.4422561136298
 20
106.63050036795291
 10
104.4422561136298
 20
106.63050036795291
 10
103.187307587009
 20
107.1125759921207
 10
103.187307587009
 20
107.1125759921207
 10
101.7690045741611
 20
107.5030623442665
 10
101.7690045741611
 20
107.5030623442665
 10
99.9850080517345
 20
107.82827602989821
 10
99.9850080517345
 20
107.82827602989821
 10
97.28561603103208
 20
108.20730239070799
 10
97.28561603103208
 20
108.20730239070799
 10
95.90140410337972
 20
108.369052953197
 10
95.90140410337972
 20
108.369052953197
 10
94.69335403118657
 20
108.461977533175
 10
94.69335403118657
 20
108.461977533175
 10
93.5981078055911
 20
108.41567435778531
 10
93.5981078055911
 20
108.41567435778531
 10
92.60052328382062
 20
108.238308533205
 10
92.60052328382062
 20
108.238308533205
 10
91.69267379317807
 20
107.93366549827
 10
91.69267379317807
 20
107.93366549827
 10
90.87335406814151
 20
107.5029302454724
 10
90.87335406814151
 20
107.5029302454724
 10
89.93770926271009
 20
106.86896221257599
 10
89.93770926271009
 20
106.86896221257599
 10
88.52450104628122
 20
105.7152755624785
 10
88.52450104628122
 20
105.7152755624785
 10
86.2808285561614
 20
103.67754812456531
 10
86.2808285561614
 20
103.67754812456531
 10
83.67088245425748
 20
101.2173422417775
  0
LWPOLYLINE
  5
5B1
100
AcDbEntity
  8
0
  6
CONTINUOUS
 62
             3
100
AcDbPolyline
 90
       32
 70
             0
 10
143.6632948127799
 20
123.5567334509625
 10
143.74747233663129
 20
123.73908346064231
 10
143.74747233663129
 20
123.73908346064231
 10
144.23881333146619
 20
125.08005138404511
 10
144.23881333146619
 20
125.08005138404511
 10
144.55874865327419
 20
126.3963567904367
 10
144.55874865327419
 20
126.3963567904367
 10
144.7667757776791
 20
127.86106730915461
 10
144.7667757776791
 20
127.86106730915461
 10
144.8667955604607
 20
129.66195201791669
 10
144.8667955604607
 20
129.66195201791669
 10
144.9132856336646
 20
132.26112999684949
 10
144.9132856336646
 20
132.26112999684949
 10
144.907558670383
 20
133.6639681226745
 10
144.907558670383
 20
133.6639681226745
 10
144.85480960283789
 20
134.87828606285001
 10
144.85480960283789
 20
134.87828606285001
 10
144.6789573637061
 20
135.9601129583254
 10
144.6789573637061
 20
135.9601129583254
 10
144.3863708880954
 20
136.92611639119531
 10
144.3863708880954
 20
136.92611639119531
 10
143.9785041419083
 20
137.78777089632891
 10
143.9785041419083
 20
137.78777089632891
 10
143.455419292789
 20
138.5475953809156
 10
143.455419292789
 20
138.5475953809156
 10
142.71304949198279
 20
139.40325625158701
 10
142.71304949198279
 20
139.40325625158701
 10
141.39550488267469
 20
140.6699559829369
 10
141.39550488267469
 20
140.6699559829369
 10
139.1342323628478
 20
142.6256157151594
 10
139.1342323628478
 20
142.6256157151594
 10
136.33407147799059
 20
144.9568580008283
  0
LWPOLYLINE
  5
5AF
100
AcDbEntity
  8
0
  6
CONTINUOUS
 62
             3
100
AcDbPolyline
 90
       32
 70
             0
 10
159.73594727192449
 20
74.26732527382518
 10
159.8984514382893
 20
74.10208744473601
 10
159.8984514382893
 20
74.10208744473601
 10
160.9820199218801
 20
73.16849698789264
 10
160.9820199218801
 20
73.16849698789264
 10
162.1042959300095
 20
72.40343331463481
 10
162.1042959300095
 20
72.40343331463481
 10
163.4040447679572
 20
71.69127076782132
 10
163.4040447679572
 20
71.69127076782132
 10
165.0506349113995
 20
70.96256080187703
 10
165.0506349113995
 20
70.96256080187703
 10
167.42222004209091
 20
70.01506926782287
 10
167.42222004209091
 20
70.01506926782287
 10
168.73944543872389
 20
69.52139810390617
 10
168.73944543872389
 20
69.52139810390617
 10
169.89491750870289
 20
69.13930612720407
 10
169.89491750870289
 20
69.13930612720407
 10
170.96853833470871
 20
68.91926502354289
 10
170.96853833470871
 20
68.91926502354289
 10
171.9739406910949
 20
68.84929454244519
 10
171.9739406910949
 20
68.84929454244519
 10
172.92271285329389
 20
68.92402739740754
 10
172.92271285329389
 20
68.92402739740754
 10
173.81766243849339
 20
69.1426882139578
 10
173.81766243849339
 20
69.1426882139578
 10
174.88229097996279
 20
69.53305096842206
 10
174.88229097996279
 20
69.53305096842206
 10
176.53506465826561
 20
70.31602799810327
 10
176.53506465826561
 20
70.31602799810327
 10
179.1516790596061
 20
71.72883317537452
 10
179.1516790596061
 20
71.72883317537452
 10
182.3439463285022
 20
73.53110956318523
  0
LWPOLYLINE
  5
5AD
100
AcDbEntity
  8
0
  6
CONTINUOUS
 62
             3
100
AcDbPolyline
 90
       32
 70
             0
 10
133.19943439040711
 20
61.90241738326694
 10
133.1601214912944
 20
61.6986091277733
 10
133.1601214912944
 20
61.6986091277733
 10
133.00469874415921
 20
60.27847973175193
 10
133.00469874415921
 20
60.27847973175193
 10
133.00983740959691
 20
58.92307671077396
 10
133.00983740959691
 20
58.92307671077396
 10
133.1591888872199
 20
57.4506327501669
 10
133.1591888872199
 20
57.4506327501669
 10
133.49344675813259
 20
55.67890228994037
 10
133.49344675813259
 20
55.67890228994037
 10
134.0682993141227
 20
53.15377232350267
 10
134.0682993141227
 20
53.15377232350267
 10
134.40972792182481
 20
51.7922766051426
 10
134.40972792182481
 20
51.7922766051426
 10
134.7515729573779
 20
50.62553583748496
 10
134.7515729573779
 20
50.62553583748496
 10
135.1810366419368
 20
49.61717362619783
 10
135.1810366419368
 20
49.61717362619783
 10
135.69593842897939
 20
48.74941809393312
 10
135.69593842897939
 20
48.74941809393312
 10
136.29778771672761
 20
48.01054895587112
 10
136.29778771672761
 20
48.01054895587112
 10
136.98721771512569
 20
47.39804099418069
 10
136.98721771512569
 20
47.39804099418069
 10
137.9128846434169
 20
46.74463598348046
 10
137.9128846434169
 20
46.74463598348046
 10
139.495473792892
 20
45.82987183995391
 10
139.495473792892
 20
45.82987183995391
 10
142.15598629985379
 20
44.4736443302765
 10
142.15598629985379
 20
44.4736443302765
 10
145.43690987501671
 20
42.87814973957683
  0
LWPOLYLINE
  5
5AB
100
AcDbEntity
  8
0
  6
CONTINUOUS
 62
             3
100
AcDbPolyline
 90
       32
 70
             0
 10
118.7483628598267
 20
66.19831612624074
 10
118.6278960612825
 20
66.04764482296849
 10
118.6278960612825
 20
66.04764482296849
 10
117.8294574824387
 20
64.86418889380838
 10
117.8294574824387
 20
64.86418889380838
 10
117.2034356204084
 20
63.66393335081483
 10
117.2034356204084
 20
63.66393335081483
 10
116.6503669825605
 20
62.29255225427306
 10
116.6503669825605
 20
62.29255225427306
 10
116.12144087825359
 20
60.56734537251128
 10
116.12144087825359
 20
60.56734537251128
 10
115.4511273113303
 20
58.04368944384004
 10
115.4511273113303
 20
58.04368944384004
 10
115.1212412622981
 20
56.68113176442529
 10
115.1212412622981
 20
56.68113176442529
 10
114.8820062485746
 20
55.48982960648681
 10
114.8820062485746
 20
55.48982960648681
 10
114.7940607276969
 20
54.39731652207519
 10
114.7940607276969
 20
54.39731652207519
 10
114.8472524193338
 20
53.38900508649493
 10
114.8472524193338
 20
53.38900508649493
 10
115.0373686162046
 20
52.45443352974797
 10
115.0373686162046
 20
52.45443352974797
 10
115.3636868206078
 20
51.59128928102399
 10
115.3636868206078
 20
51.59128928102399
 10
115.8797590640596
 20
50.58315696485187
 10
115.8797590640596
 20
50.58315696485187
 10
116.8557777014785
 20
49.03824881382133
 10
116.8557777014785
 20
49.03824881382133
 10
118.5857039896064
 20
46.59510770357991
 10
118.5857039896064
 20
46.59510770357991
 10
120.7433886734061
 20
43.6659430108204
  0
LWPOLYLINE
  5
5A9
100
AcDbEntity
  8
0
  6
CONTINUOUS
 62
             3
100
AcDbPolyline
 90
       32
 70
             0
 10
114.9429537561946
 20
117.904482922627
 10
114.9279859272057
 20
117.9301807648674
 10
114.9279859272057
 20
117.9301807648674
 10
114.1253853050283
 20
119.0983999437823
 10
114.1253853050283
 20
119.0983999437823
 10
113.2513816264682
 20
120.10765803523211
 10
113.2513816264682
 20
120.10765803523211
 10
112.1894758251721
 20
121.1135014659896
 10
112.1894758251721
 20
121.1135014659896
 10
110.75792320643011
 20
122.2420385918751
 10
110.75792320643011
 20
122.2420385918751
 10
108.454876562696
 20
123.898409730865
 10
108.454876562696
 20
123.898409730865
 10
107.3094170597607
 20
124.68095423944141
 10
107.3094170597607
 20
124.68095423944141
 10
106.28503905807079
 20
125.3227156988516
 10
106.28503905807079
 20
125.3227156988516
 10
105.29298581753299
 20
125.7894062838688
 10
105.29298581753299
 20
125.7894062838688
 10
104.32381027017151
 20
126.094982548727
 10
104.32381027017151
 20
126.094982548727
 10
103.37470235500859
 20
126.24597415990969
 10
103.37470235500859
 20
126.24597415990969
 10
102.4465389457755
 20
126.2440680480733
 10
102.4465389457755
 20
126.2440680480733
 10
101.32534726534401
 20
126.116299740149
 10
101.32534726534401
 20
126.116299740149
 10
99.54081599984681
 20
125.7515898785725
 10
99.54081599984681
 20
125.7515898785725
 10
96.57670741353559
 20
124.9810855827466
 10
96.57670741353559
 20
124.9810855827466
 10
93.16386910353231
 20
124.0266996092334
  0
LWPOLYLINE
  5
5A7
100
AcDbEntity
  8
0
  6
CONTINUOUS
 62
             3
100
AcDbPolyline
 90
       32
 70
             0
 10
165.7417990771346
 20
88.09458200551416
 10
165.9393527713828
 20
88.03099873579896
 10
165.9393527713828
 20
88.03099873579896
 10
167.33039074216401
 20
87.70552846707238
 10
167.33039074216401
 20
87.70552846707238
 10
168.67652668629231
 20
87.54725075431014
 10
168.67652668629231
 20
87.54725075431014
 10
170.1562344041877
 20
87.51802635855819
 10
170.1562344041877
 20
87.51802635855819
 10
171.95534058485569
 20
87.6362863770857
 10
171.95534058485569
 20
87.6362863770857
 10
174.5313962606007
 20
87.90258081175233
 10
174.5313962606007
 20
87.90258081175233
 10
175.92411600623669
 20
88.07740961678172
 10
175.92411600623669
 20
88.07740961678172
 10
177.123553237062
 20
88.27612724818147
 10
177.123553237062
 20
88.27612724818147
 10
178.17632930551099
 20
88.58091588236238
 10
178.17632930551099
 20
88.58091588236238
 10
179.0998234060817
 20
88.98746867395784
 10
179.0998234060817
 20
88.98746867395784
 10
179.90585114632179
 20
89.49587064154292
 10
179.90585114632179
 20
89.49587064154292
 10
180.59699525509421
 20
90.10644556499864
 10
180.59699525509421
 20
90.10644556499864
 10
181.3572116998248
 20
90.94660376675273
 10
181.3572116998248
 20
90.94660376675273
 10
182.45606528792919
 20
92.40739067561771
 10
182.45606528792919
 20
92.40739067561771
 10
184.12310217891249
 20
94.88504338927413
 10
184.12310217891249
 20
94.88504338927413
 10
186.10242318187269
 20
97.94971118785287
  0
LWPOLYLINE
  5
5A5
100
AcDbEntity
  8
0
  6
CONTINUOUS
 62
             3
100
AcDbPolyline
 90
       32
 70
             0
 10
156.668121149879
 20
115.92500475711989
 10
156.72612752590689
 20
115.969095609261
 10
156.72612752590689
 20
115.969095609261
 10
157.7878718582206
 20
116.9118433511987
 10
157.7878718582206
 20
116.9118433511987
 10
158.68398072395851
 20
117.9080023012295
 10
158.68398072395851
 20
117.9080023012295
 10
159.5532470849565
 20
119.0899038157597
 10
159.5532470849565
 20
119.0899038157597
 10
160.49525581870591
 20
120.64496822573091
 10
160.49525581870591
 20
120.64496822573091
 10
161.83334087405731
 20
123.08086506940271
 10
161.83334087405731
 20
123.08086506940271
 10
162.47368427191321
 20
124.31488962389371
 10
162.47368427191321
 20
124.31488962389371
 10
162.98808210168411
 20
125.410277455224
 10
162.98808210168411
 20
125.410277455224
 10
163.33244620833921
 20
126.45107743061919
 10
163.33244620833921
 20
126.45107743061919
 10
163.51963221107039
 20
127.4484255827203
 10
163.51963221107039
 20
127.4484255827203
 10
163.5558840838485
 20
128.4070949397221
 10
163.5558840838485
 20
128.4070949397221
 10
163.4428623226695
 20
129.32711072184
 10
163.4428623226695
 20
129.32711072184
 10
163.18136413965749
 20
130.42568799026179
 10
163.18136413965749
 20
130.42568799026179
 10
162.6039868799262
 20
132.15469264902021
 10
162.6039868799262
 20
132.15469264902021
 10
161.48787664447369
 20
134.99014536954309
 10
161.48787664447369
 20
134.99014536954309
 10
160.12131558928999
 20
138.2823335296645
  0
LWPOLYLINE
  5
5A3
100
AcDbEntity
  8
0
  6
CONTINUOUS
 62
             3
100
AcDbPolyline
 90
       32
 70
             0
 10
103.2759046462587
 20
91.05475310154117
 10
103.2351718751006
 20
91.05786479182387
 10
103.2351718751006
 20
91.05786479182387
 10
101.8222216573768
 20
91.0603931612506
 10
101.8222216573768
 20
91.0603931612506
 10
100.5005552378707
 20
90.91427032567407
 10
100.5005552378707
 20
90.91427032567407
 10
99.06900014553577
 20
90.61084736056472
 10
99.06900014553577
 20
90.61084736056472
 10
97.36505918775129
 20
90.08649019814874
 10
97.36505918775129
 20
90.08649019814874
 10
94.21419652376699
 20
88.95498543895627
 10
94.21419652376699
 20
88.95498543895627
 10
93.00516214047002
 20
88.48064593888677
 10
93.00516214047002
 20
88.48064593888677
 10
91.96150623832261
 20
87.99337589658643
 10
91.96150623832261
 20
87.99337589658643
 10
91.05279784474897
 20
87.41292036242629
 10
91.05279784474897
 20
87.41292036242629
 10
90.28488825831937
 20
86.75587154097701
 10
90.28488825831937
 20
86.75587154097701
 10
89.62401681218671
 20
85.98517453588391
 10
89.62401681218671
 20
85.98517453588391
 10
89.10719805036121
 20
85.15012360282088
 10
89.10719805036121
 20
85.15012360282088
 10
88.36607479129361
 20
83.68939539708043
 10
88.36607479129361
 20
83.68939539708043
 10
87.65598585281902
 20
81.98284726507808
 10
87.65598585281902
 20
81.98284726507808
 10
86.90097858582067
 20
79.82786705262816
 10
86.90097858582067
 20
79.82786705262816
 10
85.85711189184701
 20
76.61189402557756
  0
LWPOLYLINE
  5
5A1
100
AcDbEntity
  8
0
  6
CONTINUOUS
 62
             3
100
AcDbPolyline
 90
       28
 70
             0
 10
128.1999795046859
 20
126.73377259738589
 10
128.14302333269629
 20
126.978543779923
 10
128.14302333269629
 20
126.978543779923
 10
127.6730957535318
 20
128.36123472370051
 10
127.6730957535318
 20
128.36123472370051
 10
126.94836618576559
 20
129.992798692657
 10
126.94836618576559
 20
129.992798692657
 10
125.43360482726619
 20
133.00850931472931
 10
125.43360482726619
 20
133.00850931472931
 10
124.8159346786553
 20
134.15394655532981
 10
124.8159346786553
 20
134.15394655532981
 10
124.20615615521
 20
135.1316917753949
 10
124.20615615521
 20
135.1316917753949
 10
123.52092807565261
 20
135.9638263574972
 10
123.52092807565261
 20
135.9638263574972
 10
122.7775076237731
 20
136.64641491241599
 10
122.7775076237731
 20
136.64641491241599
 10
121.93221702251959
 20
137.2102658889427
 10
121.93221702251959
 20
137.2102658889427
 10
121.0410829690509
 20
137.6228141552939
 10
121.0410829690509
 20
137.6228141552939
 10
119.505413105827
 20
138.18180049873729
 10
119.505413105827
 20
138.18180049873729
 10
117.729966750484
 20
138.68022841878081
 10
117.729966750484
 20
138.68022841878081
 10
115.5047301260047
 20
139.16899084217701
 10
115.5047301260047
 20
139.16899084217701
 10
112.17139016662171
 20
139.82035142101191
  0
LWPOLYLINE
  5
59F
100
AcDbEntity
  8
0
  6
CONTINUOUS
 62
             3
100
AcDbPolyline
 90
       32
 70
             0
 10
147.99112080607941
 20
64.81433223105813
 10
148.04868163738789
 20
64.62315677769328
 10
148.04868163738789
 20
64.62315677769328
 10
148.56997596297791
 20
63.29363359428788
 10
148.56997596297791
 20
63.29363359428788
 10
149.20318897638859
 20
62.09626793779279
 10
149.20318897638859
 20
62.09626793779279
 10
150.01859267626321
 20
60.86198326863206
 10
150.01859267626321
 20
60.86198326863206
 10
151.13793571863701
 20
59.44752424873258
 10
151.13793571863701
 20
59.44752424873258
 10
152.82781862292799
 20
57.46984362520124
 10
152.82781862292799
 20
57.46984362520124
 10
153.7622721103244
 20
56.42371243156339
 10
153.7622721103244
 20
56.42371243156339
 10
154.60696639690909
 20
55.54981105692531
 10
154.60696639690909
 20
55.54981105692531
 10
155.45600043807539
 20
54.85668653912688
 10
155.45600043807539
 20
54.85668653912688
 10
156.3156523612553
 20
54.32764835573579
 10
156.3156523612553
 20
54.32764835573579
 10
157.19239698920759
 20
53.95316515780831
 10
157.19239698920759
 20
53.95316515780831
 10
158.08783849154031
 20
53.73131298191692
 10
158.08783849154031
 20
53.73131298191692
 10
159.2108818200642
 20
53.58315770990993
 10
159.2108818200642
 20
53.58315770990993
 10
161.03701089892911
 20
53.50872578389789
 10
161.03701089892911
 20
53.50872578389789
 10
164.02703516755631
 20
53.54442022658731
 10
164.02703516755631
 20
53.54442022658731
 10
167.66805659804871
 20
53.6562945014968
  0
LWPOLYLINE
  5
59D
100
AcDbEntity
  8
0
  6
CONTINUOUS
 62
             3
100
AcDbPolyline
 90
        4
 70
             0
 10
143.49442943010871
 20
123.6043440989389
 10
144.50011681590621
 20
126.3380551404493
 10
144.50011681590621
 20
126.3380551404493
 10
144.57663979206609
 20
126.52232753403329
  0
LWPOLYLINE
  5
59B
100
AcDbEntity
  8
0
  6
CONTINUOUS
 62
             3
100
AcDbPolyline
 90
        4
 70
             0
 10
172.4122779277377
 20
125.8160350389019
 10
170.877519300323
 20
125.3293588674798
 10
170.877519300323
 20
125.3293588674798
 10
169.85770120296999
 20
124.9381382159128
  0
LWPOLYLINE
  5
599
100
AcDbEntity
  8
0
  6
CONTINUOUS
 62
             3
100
AcDbPolyline
 90
        4
 70
             0
 10
159.30048917804291
 20
118.746240503265
 10
158.30495869193601
 20
117.8655634961262
 10
158.30495869193601
 20
117.8655634961262
 10
156.3518384305053
 20
115.99711771972321
  0
LWPOLYLINE
  5
597
102
{ACAD_REACTORS
330
6AD
330
6AD
330
6AD
330
6AD
102
}
100
AcDbEntity
  8
___C_____1
  6
CONTINUOUS
 62
             2
100
AcDbPolyline
 90
        8
 70
             1
 10
141.64654682675831
 20
105.8736563356992
 10
140.577084228872
 20
103.7094922767305
 10
140.577084228872
 20
103.7094922767305
 10
136.4836654453099
 20
111.91485555054371
 10
136.4836654453099
 20
111.91485555054371
 10
138.6113401685125
 20
111.91485555054371
 10
138.6113401685125
 20
111.91485555054371
 10
141.64654682675831
 20
105.8736563356992
  0
LWPOLYLINE
  5
595
102
{ACAD_REACTORS
330
6AE
330
6AE
330
6AE
330
6AE
102
}
100
AcDbEntity
  8
___C_____1
  6
CONTINUOUS
 62
             2
100
AcDbPolyline
 90
        8
 70
             1
 10
139.38821737507641
 20
111.91485555054371
 10
140.28697402435921
 20
111.91485555054371
 10
140.28697402435921
 20
111.91485555054371
 10
142.4726258238465
 20
107.52971429887251
 10
142.4726258238465
 20
107.52971429887251
 10
142.0186348142617
 20
106.6201572228057
 10
142.0186348142617
 20
106.6201572228057
 10
139.38821737507641
 20
111.91485555054371
  0
LWPOLYLINE
  5
593
102
{ACAD_REACTORS
330
6AF
330
6AF
330
6AF
102
}
100
AcDbEntity
  8
___C_____1
  6
CONTINUOUS
 62
             2
100
AcDbPolyline
 90
        6
 70
             1
 10
143.34663144790071
 20
111.91485555054371
 10
144.67132801470839
 20
111.91485555054371
 10
144.67132801470839
 20
111.91485555054371
 10
144.00350452840499
 20
110.58483415547261
 10
144.00350452840499
 20
110.58483415547261
 10
143.34663144790071
 20
111.91485555054371
  0
LWPOLYLINE
  5
591
102
{ACAD_REACTORS
330
6B0
330
6B0
330
6B0
330
6B0
102
}
100
AcDbEntity
  8
___C_____1
  6
CONTINUOUS
 62
             2
100
AcDbPolyline
 90
        8
 70
             1
 10
142.07518666439691
 20
111.91485555054371
 10
142.79326204981561
 20
111.91485555054371
 10
142.79326204981561
 20
111.91485555054371
 10
143.72494465743799
 20
110.0288764060967
 10
143.72494465743799
 20
110.0288764060967
 10
143.36328192139499
 20
109.3076885189853
 10
143.36328192139499
 20
109.3076885189853
 10
142.07518666439691
 20
111.91485555054371
  0
LWPOLYLINE
  5
58F
102
{ACAD_REACTORS
330
6B1
330
6B1
330
6B1
330
6B1
102
}
100
AcDbEntity
  8
___C_____1
  6
CONTINUOUS
 62
             2
100
AcDbPolyline
 90
        8
 70
             1
 10
143.083897163887
 20
108.75233173994749
 10
142.80421246824821
 20
108.1968997109235
 10
142.80421246824821
 20
108.1968997109235
 10
140.96552297043681
 20
111.91485555054371
 10
140.96552297043681
 20
111.91485555054371
 10
141.5209173744885
 20
111.91485555054371
 10
141.5209173744885
 20
111.91485555054371
 10
143.083897163887
 20
108.75233173994749
  0
LWPOLYLINE
  5
58D
102
{ACAD_REACTORS
330
6B2
330
6B2
330
6B2
330
6B2
330
6B2
330
6B2
330
6B2
330
6B2
330
6B2
330
6B2
330
6B2
330
6B2
102
}
100
AcDbEntity
  8
___C_____1
  6
CONTINUOUS
 62
             2
100
AcDbPolyline
 90
       24
 70
             1
 10
130.09259722875331
 20
104.9371727540874
 10
124.9342161753772
 20
104.9327107010326
 10
124.9342161753772
 20
104.9327107010326
 10
124.9342161753772
 20
111.9204432390044
 10
124.9342161753772
 20
111.9204432390044
 10
130.3112299909655
 20
111.9238180667282
 10
130.3112299909655
 20
111.9238180667282
 10
129.4627252602223
 20
110.52441938871119
 10
129.4627252602223
 20
110.52441938871119
 10
126.7308104960254
 20
110.52441938871119
 10
126.7308104960254
 20
110.52441938871119
 10
126.7308104960254
 20
109.12948274446011
 10
126.7308104960254
 20
109.12948274446011
 10
130.09259722875331
 20
109.12948274446011
 10
130.09259722875331
 20
109.12948274446011
 10
130.09259722875331
 20
107.73173384563751
 10
130.09259722875331
 20
107.73173384563751
 10
126.7308104960254
 20
107.73173384563751
 10
126.7308104960254
 20
107.73173384563751
 10
126.7308104960254
 20
106.33548419389319
 10
126.7308104960254
 20
106.33548419389319
 10
130.09259722875331
 20
106.33548419389319
 10
130.09259722875331
 20
106.33548419389319
 10
130.09259722875331
 20
104.9371727540874
  0
SPLINE
  5
58B
102
{ACAD_REACTORS
330
6B5
102
}
100
AcDbEntity
  8
___C_____1
  6
CONTINUOUS
 62
             2
100
AcDbSpline
210
0.0
220
0.0
230
1.0
 70
             1
 71
             3
 72
            44
 73
            40
 74
            65
 42
0.00000000001
 43
0.00000000001
 44
0.00000000001
 40
0.0
 40
0.0
 40
0.0
 40
0.0
 40
1.0
 40
1.0
 40
1.0
 40
2.0
 40
2.0
 40
2.0
 40
3.0
 40
3.0
 40
3.0
 40
4.0
 40
4.0
 40
4.0
 40
5.0
 40
5.0
 40
5.0
 40
6.0
 40
6.0
 40
6.0
 40
7.0
 40
7.0
 40
7.0
 40
8.0
 40
8.0
 40
8.0
 40
9.0
 40
9.0
 40
9.0
 40
10.0
 40
10.0
 40
10.0
 40
11.0
 40
11.0
 40
11.0
 40
12.0
 40
12.0
 40
12.0
 40
13.0
 40
13.0
 40
13.0
 40
13.0
 10
136.9395313470599
 20
104.9327107010326
 30
0.0
 10
136.9395313470599
 20
104.9327107010326
 30
0.0
 10
134.77761805691301
 20
104.9327107010326
 30
0.0
 10
134.77761805691301
 20
104.9327107010326
 30
0.0
 10
134.77761805691301
 20
104.9327107010326
 30
0.0
 10
132.30650626318351
 20
108.7700326181763
 30
0.0
 10
132.30650626318351
 20
108.7700326181763
 30
0.0
 10
132.30650626318351
 20
108.7700326181763
 30
0.0
 10
134.20681038346029
 20
108.7700326181763
 30
0.0
 10
134.20681038346029
 20
108.7700326181763
 30
0.0
 10
134.20681038346029
 20
108.7700326181763
 30
0.0
 10
135.08824138782381
 20
108.7823710045315
 30
0.0
 10
135.08824138782381
 20
109.6522511219447
 30
0.0
 10
135.08824138782381
 20
110.52078142410529
 30
0.0
 10
134.35655330804451
 20
110.50866932185041
 30
0.0
 10
134.1693841937641
 20
110.50866932185041
 30
0.0
 10
133.9501890064472
 20
110.50866932185041
 30
0.0
 10
132.6873321623074
 20
110.50866932185041
 30
0.0
 10
132.30650626318351
 20
110.50866932185041
 30
0.0
 10
132.30650626318351
 20
110.50866932185041
 30
0.0
 10
132.30650626318351
 20
104.9327107010326
 30
0.0
 10
132.30650626318351
 20
104.9327107010326
 30
0.0
 10
132.30650626318351
 20
104.9327107010326
 30
0.0
 10
130.51053067315169
 20
104.9327107010326
 30
0.0
 10
130.51053067315169
 20
104.9327107010326
 30
0.0
 10
130.51053067315169
 20
104.9327107010326
 30
0.0
 10
130.51053067315169
 20
111.9204432390044
 30
0.0
 10
130.51053067315169
 20
111.9204432390044
 30
0.0
 10
130.51053067315169
 20
111.9204432390044
 30
0.0
 10
134.8526581688885
 20
111.9238180667282
 30
0.0
 10
134.8526581688885
 20
111.9238180667282
 30
0.0
 10
134.8526581688885
 20
111.9238180667282
 30
0.0
 10
136.81480204402681
 20
111.9494315969572
 30
0.0
 10
136.863928809844
 20
109.750128937713
 30
0.0
 10
136.91650567275329
 20
107.4037843550317
 30
0.0
 10
134.8771840619921
 20
107.4661867602187
 30
0.0
 10
134.8771840619921
 20
107.4661867602187
 30
0.0
 10
134.8771840619921
 20
107.4661867602187
 30
0.0
 10
136.9395313470599
 20
104.9327107010326
 30
0.0
 10
136.9395313470599
 20
104.9327107010326
 30
0.0
 11
136.9395313470599
 21
104.9327107010326
 31
0.0
 11
136.71469236488463
 21
104.93271070103262
 31
0.0
 11
136.17853786892817
 21
104.9327107010326
 31
0.0
 11
135.53861153504471
 21
104.9327107010326
 31
0.0
 11
135.00245703908831
 21
104.9327107010326
 31
0.0
 11
134.77761805691301
 21
104.9327107010326
 31
0.0
 11
134.59457273885897
 21
105.21695676896917
 31
0.0
 11
134.13695944372387
 21
105.9275719388106
 31
0.0
 11
133.54206216004826
 21
106.85137165960445
 31
0.0
 11
132.94716487637265
 21
107.77517138039831
 31
0.0
 11
132.48955158123755
 21
108.48578655023972
 31
0.0
 11
132.30650626318351
 21
108.7700326181763
 31
0.0
 11
132.60342878197676
 21
108.77003261817632
 31
0.0
 11
133.25665832332191
 21
108.7700326181763
 31
0.0
 11
133.90988786466704
 21
108.77003261817632
 31
0.0
 11
134.20681038346029
 21
108.7700326181763
 31
0.0
 11
134.43532953273973
 21
108.80544924120963
 31
0.0
 11
134.85972223854438
 21
109.0369144206359
 31
0.0
 11
135.08824138782381
 21
109.6522511219447
 31
0.0
 11
134.89161228883361
 21
110.26029893769534
 31
0.0
 11
134.49079270227458
 21
110.47964170754017
 31
0.0
 11
134.1693841937641
 21
110.50866932185041
 31
0.0
 11
133.67362373572249
 21
110.50866932185041
 31
0.0
 11
132.91002052909644
 21
110.50866932185041
 31
0.0
 11
132.30650626318351
 21
110.50866932185041
 31
0.0
 11
132.30650626318348
 21
110.19979697842318
 31
0.0
 11
132.30650626318351
 21
109.40323146116351
 31
0.0
 11
132.30650626318351
 21
108.31405003960433
 31
0.0
 11
132.30650626318351
 21
107.12732998327868
 31
0.0
 11
132.30650626318351
 21
106.03814856171952
 31
0.0
 11
132.30650626318351
 21
105.24158304445983
 31
0.0
 11
132.30650626318351
 21
104.9327107010326
 31
0.0
 11
132.02588507724104
 21
104.93271070103259
 31
0.0
 11
131.40851846816759
 21
104.93271070103262
 31
0.0
 11
130.79115185909416
 21
104.93271070103259
 31
0.0
 11
130.51053067315169
 21
104.9327107010326
 31
0.0
 11
130.51053067315169
 21
105.23296483352357
 31
0.0
 11
130.51053067315169
 21
106.02454391009069
 31
0.0
 11
130.51053067315169
 21
107.14367294937524
 31
0.0
 11
130.51053067315169
 21
108.4265769700185
 31
0.0
 11
130.51053067315169
 21
109.70948099066176
 31
0.0
 11
130.51053067315169
 21
110.8286100299463
 31
0.0
 11
130.51053067315169
 21
111.62018910651342
 31
0.0
 11
130.51053067315169
 21
111.9204432390044
 31
0.0
 11
130.83216974690995
 21
111.9206932262432
 31
0.0
 11
131.63626743130567
 21
111.92131819434022
 31
0.0
 11
132.68159442102009
 21
111.92213065286631
 31
0.0
 11
133.72692141073452
 21
111.92294311139241
 31
0.0
 11
134.5310190951302
 21
111.9235680794894
 31
0.0
 11
134.8526581688885
 21
111.9238180667282
 31
0.0
 11
135.05711414602942
 21
111.90888745259807
 31
0.0
 11
135.54647692594949
 21
111.79207865917716
 31
0.0
 11
136.13473878139465
 21
111.46536625991985
 31
0.0
 11
136.63589198511085
 21
110.82072482828036
 31
0.0
 11
136.863928809844
 21
109.750128937713
 31
0.0
 11
136.67749687142458
 21
108.61160263150397
 31
0.0
 11
136.18730786337693
 21
107.93256043151669
 31
0.0
 11
135.59166034975385
 21
107.59438716688449
 31
0.0
 11
135.08885289460798
 21
107.47846766674071
 31
0.0
 11
134.8771840619921
 21
107.4661867602187
 31
0.0
 11
135.09166817963913
 21
107.20270525006336
 31
0.0
 11
135.60313030633597
 21
106.5744031873852
 31
0.0
 11
136.21358510271605
 21
105.82449427386612
 31
0.0
 11
136.72504722941284
 21
105.19619221118796
 31
0.0
 11
136.9395313470599
 21
104.9327107010326
 31
0.0
  0
SPLINE
  5
58A
102
{ACAD_REACTORS
330
6B4
102
}
100
AcDbEntity
  8
___C_____1
  6
CONTINUOUS
 62
             2
100
AcDbSpline
210
0.0
220
0.0
230
1.0
 70
             1
 71
             3
 72
            53
 73
            49
 74
            67
 42
0.00000000001
 43
0.00000000001
 44
0.00000000001
 40
0.0
 40
0.0
 40
0.0
 40
0.0
 40
1.0
 40
1.0
 40
1.0
 40
2.0
 40
2.0
 40
2.0
 40
3.0
 40
3.0
 40
3.0
 40
4.0
 40
4.0
 40
4.0
 40
5.0
 40
5.0
 40
5.0
 40
6.0
 40
6.0
 40
6.0
 40
7.0
 40
7.0
 40
7.0
 40
8.0
 40
8.0
 40
8.0
 40
9.0
 40
9.0
 40
9.0
 40
10.0
 40
10.0
 40
10.0
 40
11.0
 40
11.0
 40
11.0
 40
12.0
 40
12.0
 40
12.0
 40
13.0
 40
13.0
 40
13.0
 40
14.0
 40
14.0
 40
14.0
 40
15.0
 40
15.0
 40
15.0
 40
16.0
 40
16.0
 40
16.0
 40
16.0
 10
119.9594227381978
 20
109.8630837402319
 30
0.0
 10
119.94170319213779
 20
109.1339832075723
 30
0.0
 10
120.6873607697131
 20
109.1188320197095
 30
0.0
 10
120.6873607697131
 20
109.1188320197095
 30
0.0
 10
120.6873607697131
 20
109.1188320197095
 30
0.0
 10
122.1109669729108
 20
109.1339832075723
 30
0.0
 10
122.42547177236619
 20
109.1188320197095
 30
0.0
 10
122.7399953681728
 20
109.1008311839669
 30
0.0
 10
124.412591450999
 20
108.8863990561792
 30
0.0
 10
124.5118201503291
 20
107.08082368673421
 30
0.0
 10
124.6242116010292
 20
105.0467895624022
 30
0.0
 10
122.80603521671161
 20
104.92843600076721
 30
0.0
 10
122.80603521671161
 20
104.92843600076721
 30
0.0
 10
122.80603521671161
 20
104.92843600076721
 30
0.0
 10
118.37592955208279
 20
104.92843600076721
 30
0.0
 10
118.37592955208279
 20
104.92843600076721
 30
0.0
 10
118.37592955208279
 20
104.92843600076721
 30
0.0
 10
118.37592955208279
 20
106.3084835129863
 30
0.0
 10
118.37592955208279
 20
106.3084835129863
 30
0.0
 10
118.37592955208279
 20
106.3084835129863
 30
0.0
 10
121.98475626699209
 20
106.3084835129863
 30
0.0
 10
121.98475626699209
 20
106.3084835129863
 30
0.0
 10
121.98475626699209
 20
106.3084835129863
 30
0.0
 10
122.7728463660568
 20
106.3022580013623
 30
0.0
 10
122.7728463660568
 20
107.0476721972276
 30
0.0
 10
122.7728463660568
 20
107.7958612993361
 30
0.0
 10
121.9785873377017
 20
107.74358441331491
 30
0.0
 10
121.9785873377017
 20
107.74358441331491
 30
0.0
 10
121.3003761285236
 20
107.74358441331491
 30
0.0
 10
119.7610032543131
 20
107.74358441331491
 30
0.0
 10
119.7610032543131
 20
107.74358441331491
 30
0.0
 10
119.5440206638683
 20
107.7773352773402
 30
0.0
 10
118.1212768433314
 20
107.8919772266633
 30
0.0
 10
118.1538655086903
 20
109.895709490071
 30
0.0
 10
118.18729800486921
 20
111.8991055029974
 30
0.0
 10
120.1114717912408
 20
111.9238180667282
 30
0.0
 10
120.1114717912408
 20
111.9238180667282
 30
0.0
 10
120.1114717912408
 20
111.9238180667282
 30
0.0
 10
124.5994981042509
 20
111.9238180667282
 30
0.0
 10
124.5994981042509
 20
111.9238180667282
 30
0.0
 10
124.5994981042509
 20
111.9238180667282
 30
0.0
 10
123.721198533132
 20
110.53735770940121
 30
0.0
 10
123.721198533132
 20
110.53735770940121
 30
0.0
 10
123.721198533132
 20
110.53735770940121
 30
0.0
 10
120.67024142837469
 20
110.53735770940121
 30
0.0
 10
120.67024142837469
 20
110.53735770940121
 30
0.0
 10
120.67024142837469
 20
110.53735770940121
 30
0.0
 10
119.9743106603691
 20
110.5918837748513
 30
0.0
 10
119.9594227381978
 20
109.8630837402319
 30
0.0
 11
119.9594227381978
 21
109.8630837402319
 31
0.0
 11
120.14027205923065
 21
109.34608490928478
 31
0.0
 11
120.49469841797358
 21
109.14976382888355
 31
0.0
 11
120.6873607697131
 21
109.1188320197095
 31
0.0
 11
120.91471337645423
 21
109.12096265550271
 31
0.0
 11
121.43847697124387
 21
109.12451371515806
 31
0.0
 11
122.0212102159314
 21
109.12522392708911
 31
0.0
 11
122.42547177236619
 21
109.1188320197095
 31
0.0
 11
122.87019931256053
 21
109.0467081514314
 31
0.0
 11
123.54938154752634
 21
108.77016830336026
 31
0.0
 11
124.1881959894028
 21
108.15845823021991
 31
0.0
 11
124.5118201503291
 21
107.08082368673421
 31
0.0
 11
124.29270639771546
 21
105.88640496459929
 31
0.0
 11
123.70107447753288
 21
105.24186704712621
 31
0.0
 11
123.08836916034403
 21
104.97871052796535
 31
0.0
 11
122.80603521671161
 21
104.92843600076721
 31
0.0
 11
122.47787924155392
 21
104.92843600076721
 31
0.0
 11
121.6574893036597
 21
104.92843600076721
 31
0.0
 11
120.59098238439721
 21
104.92843600076721
 31
0.0
 11
119.52447546513471
 21
104.92843600076721
 31
0.0
 11
118.70408552724049
 21
104.92843600076719
 31
0.0
 11
118.37592955208279
 21
104.92843600076721
 31
0.0
 11
118.37592955208279
 21
105.14406842455145
 31
0.0
 11
118.37592955208279
 21
105.61845975687676
 31
0.0
 11
118.37592955208279
 21
106.09285108920207
 31
0.0
 11
118.37592955208279
 21
106.3084835129863
 31
0.0
 11
118.75124753043336
 21
106.3084835129863
 31
0.0
 11
119.64623655573088
 21
106.3084835129863
 31
0.0
 11
120.71444926334402
 21
106.3084835129863
 31
0.0
 11
121.60943828864151
 21
106.3084835129863
 31
0.0
 11
121.98475626699209
 21
106.3084835129863
 31
0.0
 11
122.18907592230516
 21
106.33447742463434
 31
0.0
 11
122.56852671074373
 21
106.52473548833602
 31
0.0
 11
122.7728463660568
 21
107.0476721972276
 31
0.0
 11
122.56692735870548
 21
107.56062237270585
 31
0.0
 11
122.18450634505302
 21
107.72942697257565
 31
0.0
 11
121.9785873377017
 21
107.74358441331491
 31
0.0
 11
121.34596947080023
 21
107.74358441331492
 31
0.0
 11
120.61546609256561
 21
107.74358441331491
 31
0.0
 11
120.01212731605189
 21
107.74358441331491
 31
0.0
 11
119.7610032543131
 21
107.74358441331491
 31
0.0
 11
119.41376567014954
 21
107.81231775277701
 31
0.0
 11
118.86384516057531
 21
108.08090392692456
 31
0.0
 11
118.36071926146428
 21
108.71886161345628
 31
0.0
 11
118.1538655086903
 21
109.895709490071
 31
0.0
 11
118.47384582466429
 21
111.05778414812701
 31
0.0
 11
119.14520583603264
 21
111.66103728324701
 31
0.0
 11
119.81029725436744
 21
111.88865366594328
 31
0.0
 11
120.1114717912408
 21
111.9238180667282
 31
0.0
 11
120.44391818479711
 21
111.92381806672819
 31
0.0
 11
121.27503416868787
 21
111.92381806672822
 31
0.0
 11
122.35548494774585
 21
111.92381806672822
 31
0.0
 11
123.43593572680382
 21
111.92381806672822
 31
0.0
 11
124.2670517106946
 21
111.9238180667282
 31
0.0
 11
124.5994981042509
 21
111.9238180667282
 31
0.0
 11
124.46226379626358
 21
111.70718363589586
 31
0.0
 11
124.16034831869145
 21
111.23058788806472
 31
0.0
 11
123.85843284111932
 21
110.75399214023355
 31
0.0
 11
123.721198533132
 21
110.53735770940121
 31
0.0
 11
123.40389899423724
 21
110.53735770940121
 31
0.0
 11
122.64726163225745
 21
110.53735770940122
 31
0.0
 11
121.74417832924927
 21
110.53735770940122
 31
0.0
 11
120.98754096726947
 21
110.53735770940122
 31
0.0
 11
120.67024142837469
 21
110.53735770940121
 31
0.0
 11
120.48926352844099
 21
110.52450150286533
 31
0.0
 11
120.15032591957905
 21
110.36180663651405
 31
0.0
 11
119.9594227381978
 21
109.8630837402319
 31
0.0
  0
SPLINE
  5
589
100
AcDbEntity
  8
1
  6
CONTINUOUS
 62
             3
100
AcDbSpline
210
0.0
220
0.0
230
1.0
 70
             0
 71
             3
 72
             8
 73
             4
 74
             3
 42
0.00000000001
 43
0.00000000001
 44
0.00000000001
 40
0.0
 40
0.0
 40
0.0
 40
0.0
 40
12.10877545691382
 40
12.10877545691382
 40
12.10877545691382
 40
12.10877545691382
 10
125.0769538489394
 20
128.05309514619279
 30
0.0
 10
122.0867335108334
 20
130.70333275861881
 30
0.0
 10
118.6501128581575
 20
132.9983272991314
 30
0.0
 10
114.95361348066839
 20
134.69304133869551
 30
0.0
 11
125.0769538489394
 21
128.05309514619279
 31
0.0
 11
120.28013830457256
 21
131.73138958226738
 31
0.0
 11
114.95361348066839
 21
134.69304133869551
 31
0.0
  0
SPLINE
  5
588
100
AcDbEntity
  8
1
  6
CONTINUOUS
 62
             3
100
AcDbSpline
210
0.0
220
0.0
230
1.0
 70
             0
 71
             1
 72
             4
 73
             2
 74
             3
 42
0.00000000001
 43
0.00000000001
 44
0.00000000001
 40
0.0
 40
0.0
 40
9.065188948088613
 40
9.065188948088613
 10
90.216695567708484
 20
131.8596550739542
 30
0.0
 10
99.259452989440319
 20
132.4969844511881
 30
0.0
 11
90.216695567708484
 21
131.8596550739542
 31
0.0
 11
94.738074278574402
 21
132.17831976257116
 31
0.0
 11
99.259452989440319
 21
132.4969844511881
 31
0.0
  0
SPLINE
  5
587
100
AcDbEntity
  8
1
  6
CONTINUOUS
 62
             3
100
AcDbSpline
210
0.0
220
0.0
230
1.0
 70
             0
 71
             1
 72
             4
 73
             2
 74
             3
 42
0.00000000001
 43
0.00000000001
 44
0.00000000001
 40
0.0
 40
0.0
 40
3.0684117293934321
 40
3.0684117293934321
 10
126.7584847119862
 20
126.7858120865359
 30
0.0
 10
128.4733874407822
 20
124.24135551519539
 30
0.0
 11
126.7584847119862
 21
126.7858120865359
 31
0.0
 11
127.6159360763842
 21
125.51358380086565
 31
0.0
 11
128.4733874407822
 21
124.24135551519539
 31
0.0
  0
SPLINE
  5
586
100
AcDbEntity
  8
1
  6
CONTINUOUS
 62
             3
100
AcDbSpline
210
0.0
220
0.0
230
1.0
 70
             0
 71
             2
 72
             6
 73
             3
 74
             3
 42
0.00000000001
 43
0.00000000001
 44
0.00000000001
 40
0.0
 40
0.0
 40
0.0
 40
0.2258581366520345
 40
0.2258581366520345
 40
0.2258581366520345
 10
97.500481238704197
 20
132.15339101768899
 30
0.0
 10
97.465386590104572
 20
132.26072852231411
 30
0.0
 10
97.430291941505004
 20
132.3680660269394
 30
0.0
 11
97.500481238704197
 21
132.15339101768899
 31
0.0
 11
97.465386590104572
 21
132.26072852231414
 31
0.0
 11
97.430291941505004
 21
132.3680660269394
 31
0.0
  0
SPLINE
  5
585
100
AcDbEntity
  8
1
  6
CONTINUOUS
 62
             3
100
AcDbSpline
210
0.0
220
0.0
230
1.0
 70
             0
 71
             2
 72
             6
 73
             3
 74
             3
 42
0.00000000001
 43
0.00000000001
 44
0.00000000001
 40
0.0
 40
0.0
 40
0.0
 40
0.5892166986288459
 40
0.5892166986288459
 40
0.5892166986288459
 10
95.362113794427387
 20
131.63914656556989
 30
0.0
 10
95.294911017756817
 20
131.92598774947081
 30
0.0
 10
95.227708241086475
 20
132.21282894082211
 30
0.0
 11
95.362113794427387
 21
131.63914656556989
 31
0.0
 11
95.294911017756874
 21
131.92598775133339
 31
0.0
 11
95.227708241086475
 21
132.21282894082211
 31
0.0
  0
SPLINE
  5
584
100
AcDbEntity
  8
1
  6
CONTINUOUS
 62
             3
100
AcDbSpline
210
0.0
220
0.0
230
1.0
 70
             0
 71
             3
 72
             9
 73
             5
 74
             5
 42
0.00000000001
 43
0.00000000001
 44
0.00000000001
 40
0.0
 40
0.0
 40
0.0
 40
0.0
 40
2.8992997233345039
 40
6.3949158239997974
 40
6.3949158239997974
 40
6.3949158239997974
 40
6.3949158239997974
 10
120.53668581519651
 20
137.80641553468851
 30
0.0
 10
120.474916895967
 20
136.84180944330859
 30
0.0
 10
120.43118097458409
 20
134.70876896299271
 30
0.0
 10
120.5919200686029
 20
132.57931377656601
 30
0.0
 10
120.74039762292431
 20
131.4237192339435
 30
0.0
 11
120.53668581519651
 21
137.80641553468851
 31
0.0
 11
120.47549872599788
 21
136.35805931417099
 31
0.0
 11
120.47728903475218
 21
134.90840876687759
 31
0.0
 11
120.56320192581835
 21
133.16250577841339
 31
0.0
 11
120.74039762292431
 21
131.4237192339435
 31
0.0
  0
SPLINE
  5
583
100
AcDbEntity
  8
1
  6
CONTINUOUS
 62
             3
100
AcDbSpline
210
0.0
220
0.0
230
1.0
 70
             0
 71
             3
 72
            10
 73
             6
 74
             7
 42
0.00000000001
 43
0.00000000001
 44
0.00000000001
 40
0.0
 40
0.0
 40
0.0
 40
0.0
 40
3.0195802602211281
 40
4.9302391255638787
 40
7.5235050349192258
 40
7.5235050349192258
 40
7.5235050349192258
 40
7.5235050349192258
 10
123.6874342170768
 20
135.7616228751078
 30
0.0
 10
123.80794828210399
 20
134.76233863003401
 30
0.0
 10
124.0211561528257
 20
133.13271250493671
 30
0.0
 10
124.3873479274324
 20
130.65169125713251
 30
0.0
 10
124.6288609710746
 20
129.16986577875761
 30
0.0
 10
124.7752874997668
 20
128.31793730623889
 30
0.0
 11
123.6874342170768
 21
135.7616228751078
 31
0.0
 11
123.87575231718
 21
134.26362485722666
 31
0.0
 11
124.07914997112611
 21
132.76759260723068
 31
0.0
 11
124.21563095136462
 21
131.82205740494962
 31
0.0
 11
124.35813536743194
 21
130.87741154536349
 31
0.0
 11
124.56117677247664
 21
129.59676951239018
 31
0.0
 11
124.7752874997668
 21
128.31793730623889
 31
0.0
  0
SPLINE
  5
582
100
AcDbEntity
  8
1
  6
CONTINUOUS
 62
             3
100
AcDbSpline
210
0.0
220
0.0
230
1.0
 70
             0
 71
             3
 72
            10
 73
             6
 74
             7
 42
0.00000000001
 43
0.00000000001
 44
0.00000000001
 40
0.0
 40
0.0
 40
0.0
 40
0.0
 40
3.1445827506822108
 40
4.6109354897643957
 40
6.9221566318159127
 40
6.9221566318159127
 40
6.9221566318159127
 40
6.9221566318159127
 10
103.4717469719461
 20
141.64339043862961
 30
0.0
 10
102.5914608744197
 20
141.07438706524539
 30
0.0
 10
101.3233867493682
 20
140.2045938140883
 30
0.0
 10
99.47433265123891
 20
138.8240174121394
 30
0.0
 10
98.490395775180218
 20
138.03769329108141
 30
0.0
 10
97.898370465379116
 20
137.54472710855151
 30
0.0
 11
103.4717469719461
 21
141.64339043862961
 31
0.0
 11
102.16310895381774
 21
140.77187521400552
 31
0.0
 11
100.8787769846559
 21
139.8648432871079
 31
0.0
 11
100.28848894718338
 21
139.42995169877477
 31
0.0
 11
99.703801801316231
 21
138.98756130123613
 31
0.0
 11
98.793817990865918
 21
138.27521634937983
 31
0.0
 11
97.898370465379116
 21
137.54472710855151
 31
0.0
  0
SPLINE
  5
581
100
AcDbEntity
  8
1
  6
CONTINUOUS
 62
             3
100
AcDbSpline
210
0.0
220
0.0
230
1.0
 70
             0
 71
             3
 72
             8
 73
             4
 74
             3
 42
0.00000000001
 43
0.00000000001
 44
0.00000000001
 40
0.0
 40
0.0
 40
0.0
 40
0.0
 40
11.92493041338339
 40
11.92493041338339
 40
11.92493041338339
 40
11.92493041338339
 10
114.95361348066839
 20
134.69304133869551
 30
0.0
 10
108.7406331208757
 20
138.32529675133381
 30
0.0
 10
104.38630413089309
 20
138.7600019416943
 30
0.0
 10
98.35439144645261
 20
137.6021201974884
 30
0.0
 11
114.95361348066839
 21
134.69304133869551
 31
0.0
 11
106.58610208530342
 21
137.94388220190854
 31
0.0
 11
98.35439144645261
 21
137.6021201974884
 31
0.0
  0
SPLINE
  5
580
100
AcDbEntity
  8
1
  6
CONTINUOUS
 62
             3
100
AcDbSpline
210
0.0
220
0.0
230
1.0
 70
             0
 71
             3
 72
             8
 73
             4
 74
             3
 42
0.00000000001
 43
0.00000000001
 44
0.00000000001
 40
29.118397105831889
 40
29.118397105831889
 40
29.118397105831889
 40
29.118397105831889
 40
30.744707299924901
 40
30.744707299924901
 40
30.744707299924901
 40
30.744707299924901
 10
98.35439144645261
 20
137.6021201974884
 30
0.0
 10
97.809292575460006
 20
137.53828560478831
 30
0.0
 10
97.264232179265491
 20
137.45741353101869
 30
0.0
 10
96.719662210088302
 20
137.35891032881881
 30
0.0
 11
98.35439144645261
 21
137.6021201974884
 31
0.0
 11
97.53682849008969
 21
137.49351599171604
 31
0.0
 11
96.719662210088302
 21
137.35891032881881
 31
0.0
  0
SPLINE
  5
57F
100
AcDbEntity
  8
1
  6
CONTINUOUS
 62
             2
100
AcDbSpline
210
0.0
220
0.0
230
1.0
 70
             0
 71
             3
 72
             9
 73
             5
 74
             5
 42
0.00000000001
 43
0.00000000001
 44
0.00000000001
 40
0.0
 40
0.0
 40
0.0
 40
0.0
 40
4.0311288741492746
 40
8.0622577482985491
 40
8.0622577482985491
 40
8.0622577482985491
 40
8.0622577482985491
 10
43.31544082437091
 20
131.9968779600396
 30
0.0
 10
41.419144531827499
 20
133.17465574212221
 30
0.0
 10
43.31544082437091
 20
134.59687796152971
 30
0.0
 10
45.211737116914321
 20
134.95243351824431
 30
0.0
 10
43.31544082437091
 20
137.19687796302011
 30
0.0
 11
43.31544082437091
 21
131.9968779600396
 31
0.0
 11
42.248774159815241
 21
133.43854462971757
 31
0.0
 11
43.31544082437091
 21
134.33021129585649
 31
0.0
 11
44.382107488926579
 21
135.0885446291588
 31
0.0
 11
43.31544082437091
 21
137.19687796302011
 31
0.0
  0
SPLINE
  5
57E
100
AcDbEntity
  8
1
  6
CONTINUOUS
 62
             2
100
AcDbSpline
210
0.0
220
0.0
230
1.0
 70
             0
 71
             3
 72
             9
 73
             5
 74
             5
 42
0.00000000001
 43
0.00000000001
 44
0.00000000001
 40
0.0
 40
0.0
 40
0.0
 40
0.0
 40
4.0311288741492746
 40
8.0622577482985491
 40
8.0622577482985491
 40
8.0622577482985491
 40
8.0622577482985491
 10
41.715440830331318
 20
131.9968779600396
 30
0.0
 10
39.819144507985577
 20
133.17465574212221
 30
0.0
 10
41.715440830331318
 20
134.59687796152971
 30
0.0
 10
43.611737122874622
 20
134.95243351824431
 30
0.0
 10
41.715440830331318
 20
137.19687796302011
 30
0.0
 11
41.715440830331318
 21
131.9968779600396
 31
0.0
 11
40.64877414808052
 21
133.43854462971757
 31
0.0
 11
41.715440822880709
 21
134.33021129585649
 31
0.0
 11
42.7821074939556
 21
135.0885446291588
 31
0.0
 11
41.715440830331318
 21
137.19687796302011
 31
0.0
  0
SPLINE
  5
57D
100
AcDbEntity
  8
1
  6
CONTINUOUS
 62
             3
100
AcDbSpline
210
0.0
220
0.0
230
1.0
 70
             0
 71
             1
 72
             4
 73
             2
 74
             3
 42
0.00000000001
 43
0.00000000001
 44
0.00000000001
 40
0.0
 40
0.0
 40
4.1091200131155698
 40
4.1091200131155698
 10
126.7584847119862
 20
126.7858120865359
 30
0.0
 10
128.61945002351331
 20
123.77757410622981
 30
0.0
 11
126.7584847119862
 21
126.7858120865359
 31
0.0
 11
127.68896736774975
 21
125.28169309638285
 31
0.0
 11
128.61945002351331
 21
123.77757410622981
 31
0.0
  0
SPLINE
  5
57C
100
AcDbEntity
  8
1
  6
CONTINUOUS
 62
             3
100
AcDbSpline
210
0.0
220
0.0
230
1.0
 70
             0
 71
             1
 72
             4
 73
             2
 74
             3
 42
0.00000000001
 43
0.00000000001
 44
0.00000000001
 40
0.0
 40
0.0
 40
2.2268735334976908
 40
2.2268735334976908
 10
121.7311853078418
 20
122.59117101050759
 30
0.0
 10
123.09014173422371
 20
120.8270272604363
 30
0.0
 11
121.7311853078418
 21
122.59117101050759
 31
0.0
 11
122.41066352103275
 21
121.70909913547194
 31
0.0
 11
123.09014173422371
 21
120.8270272604363
 31
0.0
  0
CIRCLE
  5
57B
102
{ACAD_REACTORS
330
6B3
102
}
100
AcDbEntity
  8
___C_____1
  6
CONTINUOUS
 62
             2
100
AcDbCircle
 10
147.79173754289471
 20
108.35628111465481
 40
2.20155235341599
  0
CIRCLE
  5
57A
102
{ACAD_REACTORS
330
6B3
102
}
100
AcDbEntity
  8
___C_____1
  6
CONTINUOUS
 62
             2
100
AcDbCircle
 10
147.79173754289471
 20
108.35545595799969
 40
3.88682403851689
  0
CIRCLE
  5
579
100
AcDbEntity
  8
0
  6
CONTINUOUS
 62
             3
100
AcDbCircle
 10
187.08109994802999
 20
40.97196371026183
 40
2.24969533085809
  0
CIRCLE
  5
578
100
AcDbEntity
  8
0
  6
CONTINUOUS
 62
             3
100
AcDbCircle
 10
187.08109994802999
 20
145.75777289189239
 40
2.24969533085809
  0
CIRCLE
  5
577
100
AcDbEntity
  8
0
  6
CONTINUOUS
 62
             3
100
AcDbCircle
 10
82.2952907589488
 20
40.97196371026183
 40
2.24969533085817
  0
CIRCLE
  5
576
100
AcDbEntity
  8
0
  6
CONTINUOUS
 62
             3
100
AcDbCircle
 10
82.2952907589488
 20
145.75777289189239
 40
2.24969533085817
  0
ARC
  5
575
100
AcDbEntity
  8
1
  6
CONTINUOUS
 62
             3
100
AcDbCircle
 10
134.75226738211086
 20
93.42999323151673
 40
28.99607315999286
100
AcDbArc
 50
166.91891920239161
 51
-179.9999999414394
  0
ARC
  5
574
100
AcDbEntity
  8
1
  6
CONTINUOUS
 62
             3
100
AcDbCircle
 10
134.75226737580158
 20
93.42999319821512
 40
28.99607313802851
100
AcDbArc
 50
-89.99999999424712
 51
13.08108087524956
  0
ARC
  5
573
100
AcDbEntity
  8
1
  6
CONTINUOUS
 62
             3
100
AcDbCircle
 10
134.75226737126246
 20
93.42999320933109
 40
28.99607314914447
100
AcDbArc
 50
-179.9999999852779
 51
-89.99999998527788
  0
ARC
  5
572
100
AcDbEntity
  8
1
  6
CONTINUOUS
 62
             3
100
AcDbCircle
 10
134.75226736381251
 20
93.42999320188056
 40
28.99607314887687
100
AcDbArc
 50
13.08108086283284
 51
166.91891913716717
  0
ARC
  5
571
100
AcDbEntity
  8
0
  6
CONTINUOUS
 62
             3
100
AcDbCircle
 10
113.15836351299127
 20
129.95530811883674
 40
1.00000000597896
100
AcDbArc
 50
151.13999997016583
 51
-125.37479530480333
  0
ARC
  5
570
100
AcDbEntity
  8
0
  6
CONTINUOUS
 62
             3
100
AcDbCircle
 10
112.47198381157811
 20
132.8534877793698
 40
1.00000000125984
100
AcDbArc
 50
-28.85999973695926
 51
61.13999968313045
  0
ARC
  5
56F
100
AcDbEntity
  8
0
  6
CONTINUOUS
 62
             3
100
AcDbCircle
 10
109.84457867662132
 20
134.30150100577382
 40
1.00000000452241
100
AcDbArc
 50
61.13999990829346
 51
151.14000028216023
  0
ARC
  5
56E
100
AcDbEntity
  8
0
  6
CONTINUOUS
 62
             3
100
AcDbCircle
 10
107.04240411021748
 20
133.36059257482609
 40
0.99999999988518
100
AcDbArc
 50
-105.67506278180804
 51
-28.86000002604743
  0
ARC
  5
56D
100
AcDbEntity
  8
1
  6
CONTINUOUS
 62
             2
100
AcDbCircle
 10
134.5130298641734
 20
106.3245261005297
 40
90.23131235844427
100
AcDbArc
 50
-106.43973876578602
 51
-73.56026123421381
  0
ARC
  5
56C
100
AcDbEntity
  8
0
  6
CONTINUOUS
 62
             3
100
AcDbCircle
 10
104.96705445197846
 20
58.35930441452619
 40
32.86067428073335
100
AcDbArc
 50
-18.12838188432387
 51
6.66212344618213
  0
ARC
  5
56B
100
AcDbEntity
  8
0
  6
CONTINUOUS
 62
             3
100
AcDbCircle
 10
172.83766047430561
 20
60.72186000708653
 40
41.08395496194143
100
AcDbArc
 50
74.2809618677363
 51
84.99540272879536
  0
ARC
  5
56A
100
AcDbEntity
  8
0
  6
CONTINUOUS
 62
             3
100
AcDbCircle
 10
89.11365445004303
 20
109.65156979737546
 40
36.79602254593387
100
AcDbArc
 50
-89.63251965415986
 51
-81.81206881710965
  0
ARC
  5
569
100
AcDbEntity
  8
0
  6
CONTINUOUS
 62
             3
100
AcDbCircle
 10
85.79282546352687
 20
83.21524058561731
 40
38.7423759489577
100
AcDbArc
 50
-39.8270228226371
 51
-27.32438084484483
  0
ARC
  5
568
100
AcDbEntity
  8
0
  6
CONTINUOUS
 62
             3
100
AcDbCircle
 10
128.57117139196549
 20
140.00164465752493
 40
34.30244943980379
100
AcDbArc
 50
-154.52584668495604
 51
-129.98419278109492
  0
ARC
  5
567
100
AcDbEntity
  8
0
  6
CONTINUOUS
 62
             3
100
AcDbCircle
 10
127.75786374768924
 20
47.19735289965919
 40
33.89516354808492
100
AcDbArc
 50
10.73173995418603
 51
38.19959787018657
  0
ARC
  5
566
100
AcDbEntity
  8
0
  6
CONTINUOUS
 62
             3
100
AcDbCircle
 10
107.62471257802547
 20
136.14229690057363
 40
41.86729483578097
100
AcDbArc
 50
-121.96645212269337
 51
-107.85799026048211
  0
ARC
  5
565
100
AcDbEntity
  8
0
  6
CONTINUOUS
 62
             3
100
AcDbCircle
 10
151.71892031835247
 20
47.94389481348532
 40
37.38227938122576
100
AcDbArc
 50
41.12534313652667
 51
60.89672869482417
  0
ARC
  5
564
100
AcDbEntity
  8
0
  6
CONTINUOUS
 62
             3
100
AcDbCircle
 10
171.17668992069031
 20
119.24137901246738
 40
30.87843947494653
100
AcDbArc
 50
148.70947995493682
 51
170.71063356606942
  0
ARC
  5
563
100
AcDbEntity
  8
0
  6
CONTINUOUS
 62
             3
100
AcDbCircle
 10
116.78919263074836
 20
-7.83832092534257
 40
99.72573182871358
100
AcDbArc
 50
52.25467710380807
 51
61.97728896114849
  0
ARC
  5
562
100
AcDbEntity
  8
0
  6
CONTINUOUS
 62
             3
100
AcDbCircle
 10
57.80349503181694
 20
65.56694732374163
 40
77.04340958514082
100
AcDbArc
 50
-8.82818339301117
 51
-2.7509290481891
  0
ARC
  5
561
100
AcDbEntity
  8
0
  6
CONTINUOUS
 62
             3
100
AcDbCircle
 10
198.57421147702655
 20
202.16479566452455
 40
124.42450498730243
100
AcDbArc
 50
-142.19715472124915
 51
-134.83947459128885
  0
ARC
  5
560
100
AcDbEntity
  8
0
  6
CONTINUOUS
 62
             3
100
AcDbCircle
 10
31.17428391899179
 20
1.15826046993212
 40
137.35855399821318
100
AcDbArc
 50
22.50547665909194
 51
28.59821053692999
  0
ARC
  5
55F
100
AcDbEntity
  8
0
  6
CONTINUOUS
 62
             3
100
AcDbCircle
 10
32.53493140582553
 20
1.71165493610027
 40
135.88732533791523
100
AcDbArc
 50
22.51025150779059
 51
28.66754918272763
  0
ARC
  5
55E
100
AcDbEntity
  8
0
  6
CONTINUOUS
 62
             3
100
AcDbCircle
 10
141.45377679734378
 20
-21.07021477460666
 40
58.38795115557034
100
AcDbArc
 50
89.9458316438437
 51
101.72550099771117
  0
ARC
  5
55D
100
AcDbEntity
  8
0
  6
CONTINUOUS
 62
             3
100
AcDbCircle
 10
97.95711142184098
 20
62.73559828554051
 40
41.35219473221088
100
AcDbArc
 50
-40.10063247847398
 51
-30.52864761757026
  0
ARC
  5
55C
100
AcDbEntity
  8
0
  6
CONTINUOUS
 62
             3
100
AcDbCircle
 10
180.37200885659377
 20
104.45944475093958
 40
20.29288994396836
100
AcDbArc
 50
95.65418075085243
 51
127.40138149289021
  0
ARC
  5
55B
100
AcDbEntity
  8
0
  6
CONTINUOUS
 62
             3
100
AcDbCircle
 10
93.2562919182765
 20
70.1128927917952
 40
20.92701561168862
100
AcDbArc
 50
-70.90266224040832
 51
-44.66470005615123
  0
ARC
  5
55A
100
AcDbEntity
  8
0
  6
CONTINUOUS
 62
             3
100
AcDbCircle
 10
88.35314457068539
 20
90.08792599256486
 40
17.22106467901425
100
AcDbArc
 50
-102.17642388549386
 51
-86.67047763874577
  0
ARC
  5
559
100
AcDbEntity
  8
0
  6
CONTINUOUS
 62
             3
100
AcDbCircle
 10
176.06712925843487
 20
119.71968122300632
 40
32.04039755045845
100
AcDbArc
 50
126.32984358706662
 51
142.45062936744119
  0
ARC
  5
558
100
AcDbEntity
  8
0
  6
CONTINUOUS
 62
             3
100
AcDbCircle
 10
179.53773030162634
 20
103.75672010329758
 40
23.1420626557589
100
AcDbArc
 50
92.40690132916771
 51
107.91284755409249
  0
ARC
  5
557
100
AcDbEntity
  8
0
  6
CONTINUOUS
 62
             3
100
AcDbCircle
 10
196.66308171298397
 20
200.50544390324222
 40
121.88864563115153
100
AcDbArc
 50
-142.2607685992227
 51
-134.75289658806619
  0
ARC
  5
556
100
AcDbEntity
  8
0
  6
CONTINUOUS
 62
             3
100
AcDbCircle
 10
163.16040621575752
 20
132.34912898636301
 40
43.35625951770884
100
AcDbArc
 50
156.34102833529002
 51
163.76755311876411
  0
ARC
  5
555
100
AcDbEntity
  8
0
  6
CONTINUOUS
 62
             3
100
AcDbCircle
 10
94.58527711555165
 20
60.94545641327767
 40
41.06677764090919
100
AcDbArc
 50
-36.82825075337738
 51
-25.44356679904054
  0
ARC
  5
554
100
AcDbEntity
  8
0
  6
CONTINUOUS
 62
             3
100
AcDbCircle
 10
93.03594208639673
 20
73.53574322173581
 40
26.30996851304927
100
AcDbArc
 50
-73.69059137451717
 51
-56.34571541518191
  0
ARC
  5
553
100
AcDbEntity
  8
0
  6
CONTINUOUS
 62
             3
100
AcDbCircle
 10
125.96626347978604
 20
6.25676098099487
 40
82.97056697184515
100
AcDbArc
 50
51.30839023031065
 51
63.01609407340698
  0
ARC
  5
552
100
AcDbEntity
  8
0
  6
CONTINUOUS
 62
             3
100
AcDbCircle
 10
170.83916928373674
 20
122.34094971277128
 40
28.82001429910923
100
AcDbArc
 50
121.65257728835232
 51
138.13693988284979
  0
ARC
  5
551
100
AcDbEntity
  8
0
  6
CONTINUOUS
 62
             3
100
AcDbCircle
 10
134.6881952403958
 20
93.36486831108789
 40
57.49221400119788
100
AcDbArc
 50
-98.70061985832544
 51
-97.22602679497568
  0
ARC
  5
550
100
AcDbEntity
  8
0
  6
CONTINUOUS
 62
             3
100
AcDbCircle
 10
134.61836398082391
 20
93.23772774587918
 40
57.34822693358016
100
AcDbArc
 50
-126.36308144417458
 51
-109.08700130747371
  0
ARC
  5
54F
100
AcDbEntity
  8
0
  6
CONTINUOUS
 62
             3
100
AcDbCircle
 10
134.79147068239755
 20
93.14718341611442
 40
57.25127367528347
100
AcDbArc
 50
-70.98730548082912
 51
-64.49824756060212
  0
ARC
  5
54E
100
AcDbEntity
  8
0
  6
CONTINUOUS
 62
             3
100
AcDbCircle
 10
134.67434054609407
 20
93.17285505628307
 40
57.29972880827185
100
AcDbArc
 50
-95.09269695750405
 51
-81.3823835299135
  0
ARC
  5
54D
100
AcDbEntity
  8
0
  6
CONTINUOUS
 62
             3
100
AcDbCircle
 10
134.67911377605844
 20
93.36739165611368
 40
57.48278841737442
100
AcDbArc
 50
150.57674393700572
 51
164.59217465208295
  0
ARC
  5
54C
100
AcDbEntity
  8
0
  6
CONTINUOUS
 62
             3
100
AcDbCircle
 10
134.72571555901243
 20
93.341521212819
 40
57.4480230028787
100
AcDbArc
 50
-43.27644305963892
 51
-31.77138867035515
  0
ARC
  5
54B
100
AcDbEntity
  8
0
  6
CONTINUOUS
 62
             3
100
AcDbCircle
 10
134.93926695723113
 20
92.90436181263769
 40
56.96778579487762
100
AcDbArc
 50
-62.37104524562799
 51
-53.66195056416922
  0
ARC
  5
54A
100
AcDbEntity
  8
0
  6
CONTINUOUS
 62
             3
100
AcDbCircle
 10
134.74816454582825
 20
93.36553254815905
 40
57.43224207067697
100
AcDbArc
 50
-15.59367064675205
 51
0.95612667288005
  0
ARC
  5
549
100
AcDbEntity
  8
0
  6
CONTINUOUS
 62
             3
100
AcDbCircle
 10
136.42747732202781
 20
92.41367452803858
 40
55.51011259755243
100
AcDbArc
 50
-29.66924190015742
 51
-25.94160420663308
  0
ARC
  5
548
100
AcDbEntity
  8
0
  6
CONTINUOUS
 62
             3
100
AcDbCircle
 10
134.97681292307641
 20
93.48860624948684
 40
57.17825846218501
100
AcDbArc
 50
12.05132874753053
 51
29.22452668192452
  0
ARC
  5
547
100
AcDbEntity
  8
0
  6
CONTINUOUS
 62
             3
100
AcDbCircle
 10
134.60841476531175
 20
93.31356434265447
 40
57.39758482703887
100
AcDbArc
 50
-154.0477292495832
 51
-136.78701329827641
  0
ARC
  5
546
100
AcDbEntity
  8
0
  6
CONTINUOUS
 62
             3
100
AcDbCircle
 10
134.65855537294934
 20
93.50154382620517
 40
57.35238124492116
100
AcDbArc
 50
101.27182766943851
 51
112.45000819069004
  0
ARC
  5
545
100
AcDbEntity
  8
0
  6
CONTINUOUS
 62
             3
100
AcDbCircle
 10
134.57059745625176
 20
93.34529563587552
 40
57.37306827627528
100
AcDbArc
 50
178.24629826427079
 51
-164.48277923759605
  0
ARC
  5
544
100
AcDbEntity
  8
0
  6
CONTINUOUS
 62
             3
100
AcDbCircle
 10
133.84610155539005
 20
93.56078693540928
 40
56.62763371454482
100
AcDbArc
 50
166.72606096494559
 51
167.82700463967623
  0
ARC
  5
543
100
AcDbEntity
  8
0
  6
CONTINUOUS
 62
             3
100
AcDbCircle
 10
134.73093378877576
 20
93.41176001278683
 40
57.42882539252702
100
AcDbArc
 50
39.80092674204142
 51
57.05314887195592
  0
ARC
  5
542
100
AcDbEntity
  8
0
  6
CONTINUOUS
 62
             3
100
AcDbCircle
 10
134.57495157933377
 20
94.07841518056796
 40
56.7697384131018
100
AcDbArc
 50
95.14438410351715
 51
99.13913242533235
  0
ARC
  5
541
100
AcDbEntity
  8
0
  6
CONTINUOUS
 62
             3
100
AcDbCircle
 10
134.69471185290595
 20
93.38230734281294
 40
57.47359985432352
100
AcDbArc
 50
68.54658784772809
 51
84.74022183936525
  0
ARC
  5
540
100
AcDbEntity
  8
0
  6
CONTINUOUS
 62
             3
100
AcDbCircle
 10
134.6881953571411
 20
93.3648683060035
 40
31.49573462894027
100
AcDbArc
 50
86.0276243479921
 51
101.38041258435405
  0
ARC
  5
53F
100
AcDbEntity
  8
0
  6
CONTINUOUS
 62
             3
100
AcDbCircle
 10
134.68819535871313
 20
93.36486829891391
 40
31.49573463590393
100
AcDbArc
 50
61.35372361429494
 51
86.02762435173847
  0
ARC
  5
53E
100
AcDbEntity
  8
0
  6
CONTINUOUS
 62
             3
100
AcDbCircle
 10
134.68819527725452
 20
93.36486834043559
 40
31.49573463785493
100
AcDbArc
 50
58.33531650014145
 51
61.35380159516826
  0
ARC
  5
53D
100
AcDbEntity
  8
0
  6
CONTINUOUS
 62
             3
100
AcDbCircle
 10
134.68819532691481
 20
93.36486831607581
 40
31.49573463251936
100
AcDbArc
 50
33.6614158925759
 51
58.33531660029566
  0
ARC
  5
53C
100
AcDbEntity
  8
0
  6
CONTINUOUS
 62
             3
100
AcDbCircle
 10
134.68819514728946
 20
93.36486860914168
 40
31.49573464360077
100
AcDbArc
 50
30.64300829025008
 51
33.66149338658134
  0
ARC
  5
53B
100
AcDbEntity
  8
0
  6
CONTINUOUS
 62
             3
100
AcDbCircle
 10
134.68819534147624
 20
93.3648682960725
 40
31.4957346360977
100
AcDbArc
 50
5.96910823845525
 51
30.64300896029518
  0
ARC
  5
53A
100
AcDbEntity
  8
0
  6
CONTINUOUS
 62
             3
100
AcDbCircle
 10
134.68819537172388
 20
93.36486787997551
 40
31.495734646697
100
AcDbArc
 50
2.95070203811412
 51
5.96918715229636
  0
ARC
  5
539
100
AcDbEntity
  8
0
  6
CONTINUOUS
 62
             3
100
AcDbCircle
 10
134.68819534256681
 20
93.36486832887188
 40
31.4957346527077
100
AcDbArc
 50
-21.72319950041083
 51
2.95070121985208
  0
ARC
  5
538
100
AcDbEntity
  8
0
  6
CONTINUOUS
 62
             3
100
AcDbCircle
 10
134.68819529877243
 20
93.36486821205025
 40
31.49573463410987
100
AcDbArc
 50
-24.74160624755445
 51
-21.72312112686917
  0
ARC
  5
537
100
AcDbEntity
  8
0
  6
CONTINUOUS
 62
             3
100
AcDbCircle
 10
134.68819534261866
 20
93.36486831013598
 40
31.49573463534001
100
AcDbArc
 50
-49.41550717059629
 51
-24.74160644299174
  0
ARC
  5
536
100
AcDbEntity
  8
0
  6
CONTINUOUS
 62
             3
100
AcDbCircle
 10
134.68819539748705
 20
93.36486835262622
 40
31.49573463793028
100
AcDbArc
 50
-52.43391425639653
 51
-49.41542913650384
  0
ARC
  5
535
100
AcDbEntity
  8
0
  6
CONTINUOUS
 62
             3
100
AcDbCircle
 10
134.68819533858809
 20
93.36486830480243
 40
31.49573463596055
100
AcDbArc
 50
-77.10781480628921
 51
-52.4339141184254
  0
ARC
  5
534
100
AcDbEntity
  8
0
  6
CONTINUOUS
 62
             3
100
AcDbCircle
 10
134.68819538099768
 20
93.36486831334062
 40
31.49573463735702
100
AcDbArc
 50
-80.12622186874344
 51
-77.10773674382217
  0
ARC
  5
533
100
AcDbEntity
  8
0
  6
CONTINUOUS
 62
             3
100
AcDbCircle
 10
134.6881953531738
 20
93.36486830417499
 40
31.49573463309834
100
AcDbArc
 50
-104.80012252441513
 51
-80.12622181601789
  0
ARC
  5
532
100
AcDbEntity
  8
0
  6
CONTINUOUS
 62
             3
100
AcDbCircle
 10
134.68819536070171
 20
93.36486829833206
 40
31.49573462937225
100
AcDbArc
 50
-107.8185295219598
 51
-104.80012254037048
  0
ARC
  5
531
100
AcDbEntity
  8
0
  6
CONTINUOUS
 62
             3
100
AcDbCircle
 10
134.68819536212794
 20
93.36486829112639
 40
31.49573462294865
100
AcDbArc
 50
-132.49243023584049
 51
-107.81852952844106
  0
ARC
  5
530
100
AcDbEntity
  8
0
  6
CONTINUOUS
 62
             3
100
AcDbCircle
 10
134.68819544284628
 20
93.36486820411587
 40
31.49573462684488
100
AcDbArc
 50
-135.5108374450995
 51
-132.49235234453471
  0
ARC
  5
52F
100
AcDbEntity
  8
0
  6
CONTINUOUS
 62
             3
100
AcDbCircle
 10
134.68819533557479
 20
93.3648683095963
 40
31.49573462423721
100
AcDbArc
 50
-160.18473790329747
 51
-135.51083717145951
  0
ARC
  5
52E
100
AcDbEntity
  8
0
  6
CONTINUOUS
 62
             3
100
AcDbCircle
 10
134.68819530720489
 20
93.36486839966257
 40
31.49573461683955
100
AcDbArc
 50
-163.20314469785734
 51
-160.18465958168969
  0
ARC
  5
52D
100
AcDbEntity
  8
0
  6
CONTINUOUS
 62
             3
100
AcDbCircle
 10
134.68819533641644
 20
93.36486833264499
 40
31.4957346254381
100
AcDbArc
 50
172.12295443506946
 51
-163.20314482992805
  0
ARC
  5
52C
100
AcDbEntity
  8
0
  6
CONTINUOUS
 62
             3
100
AcDbCircle
 10
134.68819535007086
 20
93.36486837426787
 40
31.49573461651233
100
AcDbArc
 50
169.10454754062314
 51
172.12303266600139
  0
ARC
  5
52B
100
AcDbEntity
  8
0
  6
CONTINUOUS
 62
             3
100
AcDbCircle
 10
134.68819534241987
 20
93.36486831372871
 40
31.49573462044222
100
AcDbArc
 50
144.4306467034815
 51
169.10454742984717
  0
ARC
  5
52A
100
AcDbEntity
  8
0
  6
CONTINUOUS
 62
             3
100
AcDbCircle
 10
134.68819544420259
 20
93.36486844455872
 40
31.49573461554162
100
AcDbArc
 50
141.41224003574354
 51
144.43072513863495
  0
ARC
  5
529
100
AcDbEntity
  8
0
  6
CONTINUOUS
 62
             3
100
AcDbCircle
 10
134.68819534008441
 20
93.36486830602695
 40
31.49573462056127
100
AcDbArc
 50
117.17847998665763
 51
141.4122397206219
  0
ARC
  5
528
100
AcDbEntity
  8
0
  6
CONTINUOUS
 62
             3
100
AcDbCircle
 10
134.68819548140607
 20
93.36486837270692
 40
31.49573462187315
100
AcDbArc
 50
113.6800596956468
 51
117.17854414392441
  0
ARC
  5
527
100
AcDbEntity
  8
0
  6
CONTINUOUS
 62
             3
100
AcDbCircle
 10
134.68819538527418
 20
93.36486837996287
 40
65.49668347320532
100
AcDbArc
 50
144.00345783699763
 51
152.30338813878163
  0
ARC
  5
526
100
AcDbEntity
  8
0
  6
CONTINUOUS
 62
             3
100
AcDbCircle
 10
134.68819535388036
 20
93.36486828951016
 40
65.49668347669763
100
AcDbArc
 50
-152.30338807387491
 51
-117.69661194162012
  0
ARC
  5
525
100
AcDbEntity
  8
0
  6
CONTINUOUS
 62
             3
100
AcDbCircle
 10
134.68819533819709
 20
93.36486830441145
 40
65.49668349681754
100
AcDbArc
 50
-62.30338805289669
 51
-27.6966119316082
  0
ARC
  5
524
100
AcDbEntity
  8
0
  6
CONTINUOUS
 62
             3
100
AcDbCircle
 10
134.6881953340806
 20
93.36486830930991
 40
65.49668349508612
100
AcDbArc
 50
27.6966119209751
 51
62.30338804803455
  0
ARC
  5
523
100
AcDbEntity
  8
0
  6
CONTINUOUS
 62
             3
100
AcDbCircle
 10
134.68819533813092
 20
93.36486830444846
 40
65.49668348323107
100
AcDbArc
 50
117.69661192305961
 51
137.80168719942608
  0
ARC
  5
522
100
AcDbEntity
  8
0
  6
CONTINUOUS
 62
             3
100
AcDbCircle
 10
134.68819533187849
 20
93.36486830406075
 40
30.49587003439558
100
AcDbArc
 50
93.71680246683387
 51
98.8989402142648
  0
ARC
  5
521
100
AcDbEntity
  8
0
  6
CONTINUOUS
 62
             3
100
AcDbCircle
 10
129.89535408425223
 20
124.79830573369665
 40
1.30682979336346
100
AcDbArc
 50
-132.5960508901602
 51
-86.69366233435545
  0
ARC
  5
520
100
AcDbEntity
  8
0
  6
CONTINUOUS
 62
             3
100
AcDbCircle
 10
134.68819527336157
 20
93.36486827190969
 40
30.49587002823174
100
AcDbArc
 50
115.49904925267455
 51
118.02319729343654
  0
ARC
  5
51F
100
AcDbEntity
  8
0
  6
CONTINUOUS
 62
             3
100
AcDbCircle
 10
121.12940372929977
 20
121.79267985052179
 40
0.99986459225925
100
AcDbArc
 50
-64.50095025831917
 51
-5.29173881568118
  0
ARC
  5
51E
100
AcDbEntity
  8
0
  6
CONTINUOUS
 62
             3
100
AcDbCircle
 10
134.68819532262452
 20
93.36486832914983
 40
57.99214630232124
100
AcDbArc
 50
-153.70777223574015
 51
-139.78989760740498
  0
ARC
  5
51D
100
AcDbEntity
  8
0
  6
CONTINUOUS
 62
             3
100
AcDbCircle
 10
134.68819533175753
 20
93.36486831011334
 40
65.20804743722665
100
AcDbArc
 50
-130.16669121230228
 51
-125.56500248236196
  0
ARC
  5
51C
100
AcDbEntity
  8
0
  6
CONTINUOUS
 62
             3
100
AcDbCircle
 10
134.68819535916904
 20
93.36486829336764
 40
57.99214629307036
100
AcDbArc
 50
-126.01546457720174
 51
-112.09758995489784
  0
ARC
  5
51B
100
AcDbEntity
  8
0
  6
CONTINUOUS
 62
             3
100
AcDbCircle
 10
79.19571052689486
 20
148.85735312394647
 40
3.99945836886764
100
AcDbArc
 50
89.99999994663274
 51
179.99999994663273
  0
ARC
  5
51A
100
AcDbEntity
  8
0
  6
CONTINUOUS
 62
             3
100
AcDbCircle
 10
196.36642623235997
 20
111.19085296680076
 40
6.53088720914409
100
AcDbArc
 50
-133.24081648048255
 51
-124.3611875381102
  0
ARC
  5
519
100
AcDbEntity
  8
0
  6
CONTINUOUS
 62
             3
100
AcDbCircle
 10
134.6881953310463
 20
93.36486832621252
 40
57.99214631710197
100
AcDbArc
 50
12.44607385637253
 51
26.36394847796049
  0
ARC
  5
518
100
AcDbEntity
  8
0
  6
CONTINUOUS
 62
             3
100
AcDbCircle
 10
134.68819531091995
 20
93.36486833985146
 40
65.20804745662275
100
AcDbArc
 50
35.98715487698037
 51
40.58884360111325
  0
ARC
  5
517
100
AcDbEntity
  8
0
  6
CONTINUOUS
 62
             3
100
AcDbCircle
 10
134.68819538036462
 20
93.3648682660903
 40
57.99214631638429
100
AcDbArc
 50
40.30438598360412
 51
54.0562562526904
  0
ARC
  5
516
100
AcDbEntity
  8
0
  6
CONTINUOUS
 62
             3
100
AcDbCircle
 10
79.19571052689489
 20
37.87238347820787
 40
3.99945836886766
100
AcDbArc
 50
-179.99999994663315
 51
-89.99999994663314
  0
ARC
  5
515
100
AcDbEntity
  8
0
  6
CONTINUOUS
 62
             3
100
AcDbCircle
 10
134.68819534999807
 20
93.36486832051868
 40
57.99214631233308
100
AcDbArc
 50
-42.93854151921354
 51
-29.02066688919371
  0
ARC
  5
514
100
AcDbEntity
  8
0
  6
CONTINUOUS
 62
             3
100
AcDbCircle
 10
157.68526457833005
 20
35.52462042822583
 40
4.08630476992969
100
AcDbArc
 50
139.96740403662858
 51
-177.86967811373361
  0
ARC
  5
513
100
AcDbEntity
  8
0
  6
CONTINUOUS
 62
             3
100
AcDbCircle
 10
134.68819540519269
 20
93.36486833776112
 40
57.99214631576422
100
AcDbArc
 50
-70.63084926085845
 51
-56.71297462077981
  0
ARC
  5
512
100
AcDbEntity
  8
0
  6
CONTINUOUS
 62
             3
100
AcDbCircle
 10
134.68819538609128
 20
93.36486835265694
 40
65.2080474624545
100
AcDbArc
 50
-47.08976819940849
 51
-42.48807946452706
  0
ARC
  5
511
100
AcDbEntity
  8
0
  6
CONTINUOUS
 62
             3
100
AcDbCircle
 10
134.68819533157935
 20
93.36486828757086
 40
57.99214628874948
100
AcDbArc
 50
150.90761231823507
 51
164.82548694958425
  0
ARC
  5
510
100
AcDbEntity
  8
0
  6
CONTINUOUS
 62
             3
100
AcDbCircle
 10
134.68819529074878
 20
93.36486822945302
 40
65.20804743473984
100
AcDbArc
 50
143.81900421642752
 51
151.3580743479115
  0
ARC
  5
50F
100
AcDbEntity
  8
0
  6
CONTINUOUS
 62
             3
100
AcDbCircle
 10
190.18068018008395
 20
148.85735312394644
 40
3.99945836886764
100
AcDbArc
 50
0.00000005336767
 51
90.00000005336767
  0
ARC
  5
50E
100
AcDbEntity
  8
0
  6
CONTINUOUS
 62
             3
100
AcDbCircle
 10
190.18068018008393
 20
37.87238347820789
 40
3.99945836886769
100
AcDbArc
 50
-90.00000005336726
 51
-0.00000005336716
  0
ARC
  5
50D
100
AcDbEntity
  8
0
  6
CONTINUOUS
 62
             3
100
AcDbCircle
 10
134.68819535823002
 20
93.36486830915045
 40
57.99214629735693
100
AcDbArc
 50
95.52299696785846
 51
109.44087158860998
  0
ARC
  5
50C
100
AcDbEntity
  8
0
  6
CONTINUOUS
 62
             3
100
AcDbCircle
 10
134.68819544229319
 20
93.36486836801717
 40
65.20804743176262
100
AcDbArc
 50
119.06407811027323
 51
123.66576682588165
  0
ARC
  5
50B
100
AcDbEntity
  8
0
  6
CONTINUOUS
 62
             3
100
AcDbCircle
 10
134.68819540641002
 20
93.36486835366537
 40
57.9921462950977
100
AcDbArc
 50
123.21530472501266
 51
128.32713503764185
  0
ARC
  5
50A
100
AcDbEntity
  8
0
  6
CONTINUOUS
 62
             3
100
AcDbCircle
 10
134.68819492712643
 20
93.36486786869804
 40
65.20804743101826
100
AcDbArc
 50
135.75946179170137
 51
137.57131726758374
  0
ARC
  5
509
100
AcDbEntity
  8
0
  6
CONTINUOUS
 62
             3
100
AcDbCircle
 10
90.21669556672642
 20
131.35972277951072
 40
0.49993229444347
100
AcDbArc
 50
-40.50938983459339
 51
89.99999988744789
  0
ARC
  5
508
100
AcDbEntity
  8
0
  6
CONTINUOUS
 62
             3
100
AcDbCircle
 10
134.68819578306721
 20
93.36486883794572
 40
57.99214629345472
100
AcDbArc
 50
139.49061146048209
 51
140.87376127254487
  0
ARC
  5
507
100
AcDbEntity
  8
0
  6
CONTINUOUS
 62
             3
100
AcDbCircle
 10
127.36026630591705
 20
127.58430324694268
 40
0.9998646008544
100
AcDbArc
 50
-127.00344818421547
 51
-77.91293843490176
  0
ARC
  5
506
100
AcDbEntity
  8
0
  6
CONTINUOUS
 62
             3
100
AcDbCircle
 10
134.68819537105952
 20
93.36486830850726
 40
33.99539610526944
100
AcDbArc
 50
90.93094843642497
 51
102.08706155618009
  0
ARC
  5
505
100
AcDbEntity
  8
0
  6
CONTINUOUS
 62
             3
100
AcDbCircle
 10
134.68819530021884
 20
93.36486828983428
 40
57.99214629626371
100
AcDbArc
 50
109.44087152821129
 51
113.18145285193656
  0
ARC
  5
504
100
AcDbEntity
  8
0
  6
CONTINUOUS
 62
             3
100
AcDbCircle
 10
134.68819540184194
 20
93.36486829772846
 40
57.99214630403554
100
AcDbArc
 50
81.74856393501737
 51
85.48914526165821
  0
ARC
  5
503
100
AcDbEntity
  8
0
  6
CONTINUOUS
 62
             3
100
AcDbCircle
 10
134.68819525989804
 20
93.36486829449157
 40
57.99214630853096
100
AcDbArc
 50
-84.4052821588304
 51
-80.66470085406895
  0
ARC
  5
502
100
AcDbEntity
  8
0
  6
CONTINUOUS
 62
             3
100
AcDbCircle
 10
134.6881953151329
 20
93.36486832066693
 40
57.9921463104898
100
AcDbArc
 50
54.05625616886209
 51
57.79683747831631
  0
ARC
  5
501
100
AcDbEntity
  8
0
  6
CONTINUOUS
 62
             3
100
AcDbCircle
 10
156.2343955835189
 20
151.14718768585681
 40
3.28631594199037
100
AcDbArc
 50
-86.60860260553179
 51
3.66074985946963
  0
ARC
  5
500
100
AcDbEntity
  8
0
  6
CONTINUOUS
 62
             3
100
AcDbCircle
 10
134.6881953973633
 20
93.36486828314556
 40
57.99214629796727
100
AcDbArc
 50
-112.09758999366079
 51
-108.35700867585459
  0
ARC
  5
4FF
100
AcDbEntity
  8
0
  6
CONTINUOUS
 62
             3
100
AcDbCircle
 10
134.68819531952749
 20
93.36486834029938
 40
57.99214632116715
100
AcDbArc
 50
26.36394846043659
 51
30.10452977503843
  0
ARC
  5
4FE
100
AcDbEntity
  8
0
  6
CONTINUOUS
 62
             3
100
AcDbCircle
 10
134.68819537828801
 20
93.36486826083541
 40
57.99214630072719
100
AcDbArc
 50
-139.78989769445346
 51
-136.04931637939751
  0
ARC
  5
4FD
100
AcDbEntity
  8
0
  6
CONTINUOUS
 62
             3
100
AcDbCircle
 10
196.33077089324451
 20
80.00247694904125
 40
5.18716021100773
100
AcDbArc
 50
-161.44954515985384
 51
-134.7281063288595
  0
ARC
  5
4FC
100
AcDbEntity
  8
0
  6
CONTINUOUS
 62
             3
100
AcDbCircle
 10
134.68819527388089
 20
93.36486855703809
 40
57.99214629311297
100
AcDbArc
 50
-167.48220507490453
 51
-163.74162375325506
  0
ARC
  5
4FB
100
AcDbEntity
  8
0
  6
CONTINUOUS
 62
             3
100
AcDbCircle
 10
134.68819523922394
 20
93.36486823481954
 40
57.9921463208013
100
AcDbArc
 50
-56.71297442788788
 51
-52.97239310939056
  0
ARC
  5
4FA
100
AcDbEntity
  8
0
  6
CONTINUOUS
 62
             3
100
AcDbCircle
 10
134.68819537826695
 20
93.36486847260056
 40
57.99214628537587
100
AcDbArc
 50
164.82548713809234
 51
168.56606846192665
  0
ARC
  5
4F9
100
AcDbEntity
  8
0
  6
CONTINUOUS
 62
             3
100
AcDbCircle
 10
134.68819539265533
 20
93.36486841023037
 40
57.99214631855305
100
AcDbArc
 50
-29.02066698714525
 51
-25.28008566617892
  0
ARC
  5
4F8
100
AcDbEntity
  8
0
  6
CONTINUOUS
 62
             3
100
AcDbCircle
 10
134.68819534321642
 20
93.36486808496824
 40
57.99214630856227
100
AcDbArc
 50
0.00000021719443
 51
2.4122223559498
  0
ARC
  5
4F7
100
AcDbEntity
  8
0
  6
CONTINUOUS
 62
             3
100
AcDbCircle
 10
96.71966223109649
 20
137.85884263313824
 40
0.49993230431943
100
AcDbArc
 50
-90.00000240768731
 51
-49.52451456254486
  0
ARC
  5
4F6
100
AcDbEntity
  8
0
  6
CONTINUOUS
 62
             3
100
AcDbCircle
 10
134.68819544059534
 20
93.36486838859605
 40
57.99214628889524
100
AcDbArc
 50
128.32713508553979
 51
130.47548625958126
  0
ARC
  5
4F5
100
AcDbEntity
  8
0
  6
CONTINUOUS
 62
             3
100
AcDbCircle
 10
134.68819533459302
 20
93.36486796018095
 40
57.99214631718567
100
AcDbArc
 50
-1.32835884540389
 51
0.00000034048329
  0
ARC
  5
4F4
100
AcDbEntity
  8
0
  6
CONTINUOUS
 62
             3
100
AcDbCircle
 10
134.68819534990152
 20
93.36486830172643
 40
57.99214630753332
100
AcDbArc
 50
67.83068927168299
 51
81.748563883665
  0
ARC
  5
4F3
100
AcDbEntity
  8
0
  6
CONTINUOUS
 62
             3
100
AcDbCircle
 10
134.68819534769995
 20
93.36486822172182
 40
57.99214629249985
100
AcDbArc
 50
179.99999991791702
 51
-167.48220541412681
  0
ARC
  5
4F2
100
AcDbEntity
  8
0
  6
CONTINUOUS
 62
             3
100
AcDbCircle
 10
134.68819534473184
 20
93.36486834698177
 40
57.99214631601645
100
AcDbArc
 50
-15.24623385223184
 51
-1.32835922768954
  0
ARC
  5
4F1
100
AcDbEntity
  8
0
  6
CONTINUOUS
 62
             3
100
AcDbCircle
 10
134.68819533377359
 20
93.36486830515273
 40
57.99214630609007
100
AcDbArc
 50
-98.32315685363409
 51
-89.99999999524331
  0
ARC
  5
4F0
100
AcDbEntity
  8
0
  6
CONTINUOUS
 62
             3
100
AcDbCircle
 10
134.68819539365492
 20
93.36486830749311
 40
57.99214630843045
100
AcDbArc
 50
-90.0000000544056
 51
-84.40528229160394
  0
ARC
  5
4EF
100
AcDbEntity
  8
0
  6
CONTINUOUS
 62
             3
100
AcDbCircle
 10
134.68819534537133
 20
93.3648688599598
 40
57.99214629017124
100
AcDbArc
 50
178.59992058667927
 51
-179.99999945150896
  0
ARC
  5
4EE
100
AcDbEntity
  8
0
  6
CONTINUOUS
 62
             3
100
AcDbCircle
 10
254.40182411479219
 20
42.88742563791433
 40
0.5001479238272
100
AcDbArc
 50
90.00000170705856
 51
-179.99999829294146
  0
ARC
  5
4ED
100
AcDbEntity
  8
0
  6
CONTINUOUS
 62
             3
100
AcDbCircle
 10
281.60152824031582
 20
42.88742562301303
 40
0.50014793872816
100
AcDbArc
 50
0.0
 51
90.0
  0
ARC
  5
4EC
100
AcDbEntity
  8
0
  6
CONTINUOUS
 62
             3
100
AcDbCircle
 10
249.10173536645641
 20
152.71738585002589
 40
0.20005917549111
100
AcDbArc
 50
90.0
 51
180.0
  0
ARC
  5
4EB
100
AcDbEntity
  8
0
  6
CONTINUOUS
 62
             3
100
AcDbCircle
 10
249.10173536645641
 20
34.08229592360402
 40
0.20005917549142
100
AcDbArc
 50
180.0
 51
-90.0
  0
ARC
  5
4EA
100
AcDbEntity
  8
0
  6
CONTINUOUS
 62
             3
100
AcDbCircle
 10
286.90161700355281
 20
34.08229592360402
 40
0.20005917549133
100
AcDbArc
 50
-90.0
 51
0.0
  0
ARC
  5
4E9
100
AcDbEntity
  8
0
  6
CONTINUOUS
 62
             3
100
AcDbCircle
 10
286.90161700355281
 20
152.71738585002589
 40
0.20005917549139
100
AcDbArc
 50
0.0
 51
90.0
  0
ARC
  5
4E8
100
AcDbEntity
  8
0
  6
CONTINUOUS
 62
             3
100
AcDbCircle
 10
132.84093435284603
 20
121.80107182448614
 40
1.99972917673363
100
AcDbArc
 50
18.21227219719007
 51
93.7168024893346
  0
ARC
  5
4E7
100
AcDbEntity
  8
0
  6
CONTINUOUS
 62
             3
100
AcDbCircle
 10
121.1294037273944
 20
121.79267987394658
 40
0.99986459631688
100
AcDbArc
 50
-5.29174014221381
 51
24.58955326412096
  0
ARC
  5
4E6
100
AcDbEntity
  8
0
  6
CONTINUOUS
 62
             3
100
AcDbCircle
 10
121.29988183409779
 20
118.52004877586633
 40
1.99972917882129
100
AcDbArc
 50
118.02319704029675
 51
-165.15428478013089
  0
LINE
  5
4E5
100
AcDbEntity
  8
1
  6
PHANTOM
 62
             2
100
AcDbLine
 10
146.3710310115342
 20
73.45463229111618
 11
123.133504103471
 21
73.45463229111618
  0
LINE
  5
4E4
100
AcDbEntity
  8
1
  6
PHANTOM
 62
             2
100
AcDbLine
 10
129.13575789443789
 20
70.43310760410503
 11
129.13575789443789
 21
67.43351383048247
  0
LINE
  5
4E3
100
AcDbEntity
  8
1
  6
PHANTOM
 62
             2
100
AcDbLine
 10
129.13575789443789
 20
67.43351383048247
 11
140.368776982181
 21
67.43351383048247
  0
LINE
  5
4E2
100
AcDbEntity
  8
1
  6
PHANTOM
 62
             2
100
AcDbLine
 10
140.368776982181
 20
67.43351383048247
 11
140.368776982181
 21
70.43310760410503
  0
LINE
  5
4E1
100
AcDbEntity
  8
1
  6
PHANTOM
 62
             2
100
AcDbLine
 10
140.368776982181
 20
70.43310760410503
 11
129.13575789443789
 21
70.43310760410503
  0
LINE
  5
4E0
100
AcDbEntity
  8
1
  6
PHANTOM
 62
             2
100
AcDbLine
 10
123.133504103471
 20
71.43297219531308
 11
146.3710310115342
 21
71.43297219531308
  0
LINE
  5
4DF
100
AcDbEntity
  8
1
  6
PHANTOM
 62
             2
100
AcDbLine
 10
146.3710310115342
 20
71.43297219531308
 11
146.3710310115342
 21
73.45463229111618
  0
LINE
  5
4DE
100
AcDbEntity
  8
1
  6
PHANTOM
 62
             2
100
AcDbLine
 10
123.133504103471
 20
73.45463229111618
 11
123.133504103471
 21
71.43297219531308
  0
LINE
  5
4DD
100
AcDbEntity
  8
1
  6
CONTINUOUS
 62
             4
100
AcDbLine
 10
117.0113923651584
 20
104.92843600076721
 11
151.1494267867148
 21
104.92843600076721
  0
LINE
  5
4BD
100
AcDbEntity
  8
1
  6
CONTINUOUS
 62
             4
100
AcDbLine
 10
117.0113923651584
 20
104.92843600076721
 11
151.1494267867148
 21
104.92843600076721
  0
LINE
  5
4BC
100
AcDbEntity
  8
0
  6
CONTINUOUS
 62
             3
100
AcDbLine
 10
110.3272497561984
 20
135.17730271734141
 11
112.95465489302219
 21
133.72928948618321
  0
LINE
  5
4BB
100
AcDbEntity
  8
0
  6
CONTINUOUS
 62
             3
100
AcDbLine
 10
112.28256179962681
 20
130.43797919817109
 11
113.3477855232768
 21
132.37081670679001
  0
LINE
  5
4BA
100
AcDbEntity
  8
0
  6
CONTINUOUS
 62
             3
100
AcDbLine
 10
108.9687769619042
 20
134.78417207963611
 11
107.9182058182769
 21
132.87792149849091
  0
LINE
  5
4B9
100
AcDbEntity
  8
1
  6
DOT_CENTER
 62
             1
100
AcDbLine
 10
244.90167619096499
 20
41.01744502700711
 11
291.1016761790442
 21
41.01744502700711
  0
LINE
  5
4B8
100
AcDbEntity
  8
1
  6
DOT_CENTER
 62
             1
100
AcDbLine
 10
244.90167619096499
 20
93.43055357701923
 11
291.1016761790442
 21
93.43055357701923
  0
LINE
  5
4B7
100
AcDbEntity
  8
1
  6
DOT_CENTER
 62
             1
100
AcDbLine
 10
244.90167619096499
 20
145.81744502402691
 11
291.1016761790442
 21
145.81744502402691
  0
LINE
  5
4B6
100
AcDbEntity
  8
1
  6
DOT_CENTER
 62
             1
100
AcDbLine
 10
199.18013854895159
 20
93.36486830480243
 11
70.19625215802724
 21
93.36486830480243
  0
LINE
  5
4B5
100
AcDbEntity
  8
1
  6
DOT_CENTER
 62
             1
100
AcDbLine
 10
134.68314360652479
 20
28.8729251093402
 11
134.68314360652479
 21
157.8568114928141
  0
LINE
  5
4B4
100
AcDbEntity
  8
1
  6
DOT_CENTER
 62
             1
100
AcDbLine
 10
182.77615072403481
 20
145.75777289934311
 11
191.51334073219809
 21
145.75777289934311
  0
LINE
  5
4B3
100
AcDbEntity
  8
1
  6
DOT_CENTER
 62
             1
100
AcDbLine
 10
187.08109994802999
 20
149.8722207687035
 11
187.08109994802999
 21
141.69272373534579
  0
LINE
  5
4B2
100
AcDbEntity
  8
1
  6
DOT_CENTER
 62
             1
100
AcDbLine
 10
187.08109994802999
 20
149.8722207687035
 11
187.08109994802999
 21
141.69272373534579
  0
LINE
  5
4B1
100
AcDbEntity
  8
1
  6
DOT_CENTER
 62
             1
100
AcDbLine
 10
187.08109994802999
 20
45.27691294170762
 11
187.08109994802999
 21
36.53972293354411
  0
LINE
  5
4B0
100
AcDbEntity
  8
1
  6
DOT_CENTER
 62
             1
100
AcDbLine
 10
191.19554780994
 20
40.97196372516299
 11
183.01605077658209
 21
40.97196372516299
  0
LINE
  5
4AF
100
AcDbEntity
  8
1
  6
DOT_CENTER
 62
             1
100
AcDbLine
 10
191.19554780994
 20
40.97196372516299
 11
183.01605077658209
 21
40.97196372516299
  0
LINE
  5
4AE
100
AcDbEntity
  8
1
  6
DOT_CENTER
 62
             1
100
AcDbLine
 10
86.600239982944
 20
40.97196371771241
 11
77.86304997478061
 21
40.97196371771241
  0
LINE
  5
4AD
100
AcDbEntity
  8
1
  6
DOT_CENTER
 62
             1
100
AcDbLine
 10
82.2952907589488
 20
36.85751585580266
 11
82.2952907589488
 21
45.03701288916022
  0
LINE
  5
4AC
100
AcDbEntity
  8
1
  6
DOT_CENTER
 62
             1
100
AcDbLine
 10
78.18084289703882
 20
145.75777289189239
 11
86.36033993039661
 21
145.75777289189239
  0
LINE
  5
4AB
100
AcDbEntity
  8
1
  6
DOT_CENTER
 62
             1
100
AcDbLine
 10
82.2952907589488
 20
141.4528236753479
 11
82.2952907589488
 21
150.19001369096179
  0
LINE
  5
4A6
100
AcDbEntity
  8
0
  6
CONTINUOUS
 62
             3
100
AcDbLine
 10
108.3340568450502
 20
52.07103318638946
 11
107.63475336704779
 21
51.60009960003043
  0
LINE
  5
4A5
100
AcDbEntity
  8
0
  6
CONTINUOUS
 62
             3
100
AcDbLine
 10
179.87796514306589
 20
72.53053765661861
 11
180.11252527509259
 21
72.27130357093967
  0
LINE
  5
4A4
100
AcDbEntity
  8
0
  6
CONTINUOUS
 62
             3
100
AcDbLine
 10
173.49297436152031
 20
123.5608676961794
 11
173.3014327195697
 21
123.48136494971661
  0
LINE
  5
4A3
100
AcDbEntity
  8
0
  6
CONTINUOUS
 62
             3
100
AcDbLine
 10
150.88951032434019
 20
139.57636971689629
 11
150.6634336021954
 21
139.25025021202711
  0
LINE
  5
4A0
100
AcDbEntity
  8
0
  6
CONTINUOUS
 62
             3
100
AcDbLine
 10
151.007662972551
 20
139.746806911303
 11
150.88951032434019
 21
139.57636971689629
  0
LINE
  5
49F
100
AcDbEntity
  8
0
  6
CONTINUOUS
 62
             3
100
AcDbLine
 10
86.45585559878862
 20
102.917389190866
 11
86.6413728800826
 21
102.82469490833429
  0
LINE
  5
3A5
100
AcDbEntity
  8
0
  6
CONTINUOUS
 62
             3
100
AcDbLine
 10
79.26230700884389
 20
108.6398666343822
 11
80.53629546437787
 21
107.5187198735013
  0
LINE
  5
39D
100
AcDbEntity
  8
0
  6
CONTINUOUS
 62
             3
100
AcDbLine
 10
183.56548141513409
 20
63.09333749778426
 11
181.98744552407791
 21
65.59073508448756
  0
LINE
  5
393
100
AcDbEntity
  8
0
  6
CONTINUOUS
 62
             3
100
AcDbLine
 10
85.48372521076732
 20
100.65518743462709
 11
84.04887675319242
 21
101.5736499122515
  0
LINE
  5
392
100
AcDbEntity
  8
0
  6
CONTINUOUS
 62
             3
100
AcDbLine
 10
79.13315706525361
 20
106.1380840606227
 11
78.73136510525262
 21
106.5628916240468
  0
LINE
  5
391
100
AcDbEntity
  8
0
  6
CONTINUOUS
 62
             3
100
AcDbLine
 10
192.17241009150089
 20
94.32389196671392
 11
191.82495825563001
 21
94.48580126382257
  0
LINE
  5
38A
100
AcDbEntity
  8
0
  6
CONTINUOUS
 62
             3
100
AcDbLine
 10
179.8456184772067
 20
72.50735714204467
 11
180.0711989608817
 21
72.247971727623
  0
LINE
  5
389
100
AcDbEntity
  8
0
  6
CONTINUOUS
 62
             3
100
AcDbLine
 10
183.80202796135461
 20
66.61758774436856
 11
184.6600679663234
 21
64.93659680254604
  0
LINE
  5
386
100
AcDbEntity
  8
0
  6
CONTINUOUS
 62
             3
100
AcDbLine
 10
79.19571053062009
 20
152.8568114928141
 11
190.18068017635869
 21
152.8568114928141
  0
LINE
  5
385
100
AcDbEntity
  8
0
  6
CONTINUOUS
 62
             3
100
AcDbLine
 10
75.39622508559751
 20
131.8596550739542
 11
81.69794209871822
 21
131.8596550739542
  0
LINE
  5
384
100
AcDbEntity
  8
0
  6
CONTINUOUS
 62
             3
100
AcDbLine
 10
76.69604905520009
 20
62.92268515296127
 11
76.69604905520009
 21
123.807051449193
  0
LINE
  5
383
100
AcDbEntity
  8
0
  6
CONTINUOUS
 62
             3
100
AcDbLine
 10
165.1303785053307
 20
35.37272199906266
 11
104.2460122016481
 21
35.37272199906266
  0
LINE
  5
382
100
AcDbEntity
  8
0
  6
CONTINUOUS
 62
             3
100
AcDbLine
 10
192.68034165177869
 20
123.807051449193
 11
192.68034165177869
 21
62.92268515296127
  0
LINE
  5
381
100
AcDbEntity
  8
0
  6
CONTINUOUS
 62
             3
100
AcDbLine
 10
104.2460122016481
 20
151.35701461054231
 11
165.1303785053307
 21
151.35701461054231
  0
LINE
  5
380
100
AcDbEntity
  8
0
  6
CONTINUOUS
 62
             3
100
AcDbLine
 10
86.16665565047788
 20
137.35891032881881
 11
75.39622508559751
 21
137.35891032881881
  0
LINE
  5
37F
100
AcDbEntity
  8
0
  6
CONTINUOUS
 62
             3
100
AcDbLine
 10
194.18013854895159
 20
148.8573531276717
 11
194.18013854895159
 21
37.87238347448266
  0
LINE
  5
367
100
AcDbEntity
  8
0
  6
CONTINUOUS
 62
             3
100
AcDbLine
 10
75.19625215802722
 20
137.35891032881881
 11
75.19625215802722
 21
148.8573531276717
  0
LINE
  5
366
100
AcDbEntity
  8
0
  6
CONTINUOUS
 62
             3
100
AcDbLine
 10
75.39622508559751
 20
137.35891032881881
 11
75.19625215802722
 21
137.35891032881881
  0
LINE
  5
345
100
AcDbEntity
  8
0
  6
CONTINUOUS
 62
             3
100
AcDbLine
 10
75.19625215802722
 20
37.87238347448266
 11
75.19625215802722
 21
131.8596550739542
  0
LINE
  5
344
100
AcDbEntity
  8
0
  6
CONTINUOUS
 62
             3
100
AcDbLine
 10
75.19625215802722
 20
131.8596550739542
 11
75.39622508559751
 21
131.8596550739542
  0
LINE
  5
337
100
AcDbEntity
  8
0
  6
CONTINUOUS
 62
             3
100
AcDbLine
 10
82.0551178959422
 20
131.8596550739542
 11
81.69794209871822
 21
131.8596550739542
  0
LINE
  5
336
100
AcDbEntity
  8
0
  6
CONTINUOUS
 62
             3
100
AcDbLine
 10
190.18068017635869
 20
33.8729251093402
 11
79.19571053062009
 21
33.8729251093402
  0
LINE
  5
329
100
AcDbEntity
  8
0
  6
CONTINUOUS
 62
             3
100
AcDbLine
 10
86.16665565047788
 20
137.35891032881881
 11
86.55698179278897
 21
137.35891032881881
  0
LINE
  5
328
100
AcDbEntity
  8
0
  6
CONTINUOUS
 62
             3
100
AcDbLine
 10
91.21999092970418
 20
130.42763490147729
 11
89.70035298738992
 21
129.95971864379791
  0
LINE
  5
317
100
AcDbEntity
  8
0
  6
CONTINUOUS
 62
             3
100
AcDbLine
 10
118.1141235438398
 20
125.3171638167634
 11
121.7311853078418
 21
122.59117101050759
  0
LINE
  5
316
100
AcDbEntity
  8
0
  6
CONTINUOUS
 62
             3
100
AcDbLine
 10
118.4174625483564
 20
123.19405956484221
 11
120.30205159459641
 21
121.3830796546476
  0
LINE
  5
303
100
AcDbEntity
  8
0
  6
CONTINUOUS
 62
             3
100
AcDbLine
 10
91.66134889994191
 20
128.9942494622602
 11
77.45949607167768
 21
124.62131453968431
  0
LINE
  5
302
100
AcDbEntity
  8
0
  6
CONTINUOUS
 62
             3
100
AcDbLine
 10
82.0551178959422
 20
131.8596550739542
 11
90.21669556770848
 21
131.8596550739542
  0
LINE
  5
301
100
AcDbEntity
  8
0
  6
CONTINUOUS
 62
             3
100
AcDbLine
 10
126.7584847119862
 20
126.7858120865359
 11
125.0769538489394
 21
128.05309514619279
  0
LINE
  5
2ED
100
AcDbEntity
  8
0
  6
CONTINUOUS
 62
             3
100
AcDbLine
 10
113.1476139334254
 20
144.90869109995509
 11
98.54029359493779
 21
147.6365796170368
  0
LINE
  5
2EC
100
AcDbEntity
  8
0
  6
CONTINUOUS
 62
             3
100
AcDbLine
 10
115.38644375477359
 20
148.05061980999861
 11
103.0109431353622
 21
150.36172035254381
  0
LINE
  5
2EB
100
AcDbEntity
  8
0
  6
CONTINUOUS
 62
             3
100
AcDbLine
 10
113.4229382780603
 20
146.383000164403
 11
111.8599141744189
 21
146.67489185847191
  0
LINE
  5
2EA
100
AcDbEntity
  8
0
  6
CONTINUOUS
 62
             3
100
AcDbLine
 10
136.87007825646941
 20
124.7849365241065
 11
136.72777234588179
 21
125.1228048867717
  0
LINE
  5
2BF
100
AcDbEntity
  8
0
  6
CONTINUOUS
 62
             3
100
AcDbLine
 10
151.22179048333689
 20
120.17198549128911
 11
151.252800127607
 21
120.5372859156861
  0
LINE
  5
2AA
100
AcDbEntity
  8
0
  6
CONTINUOUS
 62
             3
100
AcDbLine
 10
139.56856658135001
 20
149.0150641045704
 11
136.59998436842491
 21
151.35701461054231
  0
LINE
  5
2A9
100
AcDbEntity
  8
0
  6
CONTINUOUS
 62
             3
100
AcDbLine
 10
140.49749975476789
 20
150.19255035288481
 11
139.24915947590401
 21
151.17738112725161
  0
LINE
  5
27F
100
AcDbEntity
  8
0
  6
CONTINUOUS
 62
             3
100
AcDbLine
 10
125.0503995028548
 20
63.37996891803886
 11
125.1077130642942
 21
63.01786236382867
  0
LINE
  5
27E
100
AcDbEntity
  8
0
  6
CONTINUOUS
 62
             3
100
AcDbLine
 10
143.26760243449749
 20
38.16381677158023
 11
149.41364010248711
 21
35.37272199906266
  0
LINE
  5
27D
100
AcDbEntity
  8
0
  6
CONTINUOUS
 62
             3
100
AcDbLine
 10
140.34191619430109
 20
35.64897383667386
 11
140.95022740040349
 21
35.37272199906266
  0
LINE
  5
27C
100
AcDbEntity
  8
0
  6
CONTINUOUS
 62
             3
100
AcDbLine
 10
142.64745326910531
 20
36.79823787428296
 11
144.09520446334409
 21
36.1407718724742
  0
LINE
  5
27B
100
AcDbEntity
  8
0
  6
CONTINUOUS
 62
             3
100
AcDbLine
 10
183.25977548037099
 20
120.9613159141675
 11
184.20705672178789
 21
135.79094307787571
  0
LINE
  5
27A
100
AcDbEntity
  8
0
  6
CONTINUOUS
 62
             3
100
AcDbLine
 10
164.87148498569061
 20
140.37264791048909
 11
159.97234614763769
 21
151.35701461054231
  0
LINE
  5
279
100
AcDbEntity
  8
0
  6
CONTINUOUS
 62
             3
100
AcDbLine
 10
168.72904189501321
 20
140.31494603969
 11
163.80416744027659
 21
151.35701461054231
  0
LINE
  5
278
100
AcDbEntity
  8
0
  6
CONTINUOUS
 62
             3
100
AcDbLine
 10
166.24121960077809
 20
140.9835634297863
 11
165.59354286466171
 21
142.43572042800341
  0
LINE
  5
262
100
AcDbEntity
  8
0
  6
CONTINUOUS
 62
             3
100
AcDbLine
 10
161.78585531387839
 20
109.417846969439
 11
161.98307656322049
 21
109.7268935359254
  0
LINE
  5
225
100
AcDbEntity
  8
0
  6
CONTINUOUS
 62
             3
100
AcDbLine
 10
116.6316752639823
 20
40.49971532739556
 11
120.6205613223127
 21
35.37272199906266
  0
LINE
  5
224
100
AcDbEntity
  8
0
  6
CONTINUOUS
 62
             3
100
AcDbLine
 10
94.13227926765012
 20
54.94638334132577
 11
96.76148637209451
 21
40.32097895361329
  0
LINE
  5
20F
100
AcDbEntity
  8
0
  6
CONTINUOUS
 62
             3
100
AcDbLine
 10
190.52090232644619
 20
95.22797034598733
 11
192.68034165177869
 21
98.77303361810579
  0
LINE
  5
1FA
100
AcDbEntity
  8
0
  6
CONTINUOUS
 62
             3
100
AcDbLine
 10
112.87240298662709
 20
39.63256669707442
 11
116.18663298163941
 21
35.37272199906266
  0
LINE
  5
1F9
100
AcDbEntity
  8
0
  6
CONTINUOUS
 62
             3
100
AcDbLine
 10
115.44794430409
 20
39.57875295646346
 11
116.4243246522956
 21
38.32379218853873
  0
LINE
  5
1E3
100
AcDbEntity
  8
0
  6
CONTINUOUS
 62
             3
100
AcDbLine
 10
112.2196733859593
 20
71.29346552409078
 11
112.102142712217
 21
70.94620115227843
  0
LINE
  5
1E2
100
AcDbEntity
  8
0
  6
CONTINUOUS
 62
             3
100
AcDbLine
 10
166.14217283401999
 20
94.98616450197841
 11
166.46042465243849
 21
95.16815835900451
  0
LINE
  5
1CD
100
AcDbEntity
  8
0
  6
CONTINUOUS
 62
             3
100
AcDbLine
 10
186.6486571041161
 20
119.1175273499622
 11
187.45120536361279
 21
131.6813690058126
  0
LINE
  5
1B7
100
AcDbEntity
  8
0
  6
CONTINUOUS
 62
             3
100
AcDbLine
 10
184.75652184162649
 20
120.865707322134
 11
184.85788359318289
 21
122.4525188720956
  0
LINE
  5
1B6
100
AcDbEntity
  8
0
  6
CONTINUOUS
 62
             3
100
AcDbLine
 10
92.65614499722051
 20
54.6810188657775
 11
92.93747749004888
 21
53.11605972714568
  0
LINE
  5
1B5
100
AcDbEntity
  8
0
  6
CONTINUOUS
 62
             3
100
AcDbLine
 10
104.53621487889799
 20
84.26325451500549
 11
104.2707648483329
 21
84.01038641400481
  0
LINE
  5
1A0
100
AcDbEntity
  8
0
  6
CONTINUOUS
 62
             3
100
AcDbLine
 10
90.40062489185857
 20
55.92558230377568
 11
92.62812133703761
 21
43.53476068295396
  0
LINE
  5
18A
100
AcDbEntity
  8
0
  6
CONTINUOUS
 62
             3
100
AcDbLine
 10
80.92375489149617
 20
78.19426326371587
 11
76.69604905520009
 21
64.78659579820777
  0
LINE
  5
189
100
AcDbEntity
  8
0
  6
CONTINUOUS
 62
             3
100
AcDbLine
 10
167.93809082184359
 20
48.47381386823798
 11
182.7737754491383
 21
49.32095340557243
  0
LINE
  5
188
100
AcDbEntity
  8
0
  6
CONTINUOUS
 62
             3
100
AcDbLine
 10
184.99142884288361
 20
69.06781054951097
 11
192.68034165177869
 21
73.68055159516479
  0
LINE
  5
187
100
AcDbEntity
  8
0
  6
CONTINUOUS
 62
             3
100
AcDbLine
 10
78.07459547195958
 20
80.79548714227821
 11
76.69604905520009
 21
76.42359068907643
  0
LINE
  5
186
100
AcDbEntity
  8
0
  6
CONTINUOUS
 62
             3
100
AcDbLine
 10
103.7602117267661
 20
99.3181135422721
 11
103.40765370998911
 21
99.21757074363376
  0
LINE
  5
15C
100
AcDbEntity
  8
0
  6
CONTINUOUS
 62
             3
100
AcDbLine
 10
79.49338187847661
 20
78.64528849638856
 11
79.0152166691833
 21
77.12884426034833
  0
LINE
  5
147
100
AcDbEntity
  8
0
  6
CONTINUOUS
 62
             3
100
AcDbLine
 10
140.08902849827351
 20
62.33565140433456
 11
140.30805643473209
 21
62.04165691055204
  0
LINE
  5
146
100
AcDbEntity
  8
0
  6
CONTINUOUS
 62
             3
100
AcDbLine
 10
166.51623009715621
 20
44.88739685632146
 11
179.08520369802059
 21
45.60510383464242
  0
LINE
  5
145
100
AcDbEntity
  8
0
  6
CONTINUOUS
 62
             3
100
AcDbLine
 10
168.0235921648555
 20
46.97645612723972
 11
169.6110518780761
 21
47.06710242397929
  0
LINE
  5
12F
100
AcDbEntity
  8
0
  6
CONTINUOUS
 62
             3
100
AcDbLine
 10
80.03201588068532
 20
104.9175459734335
 11
76.69604905520009
 21
101.60402593679579
  0
LINE
  5
12E
100
AcDbEntity
  8
0
  6
CONTINUOUS
 62
             3
100
AcDbLine
 10
110.0694368985704
 20
113.0091558239596
 11
109.7105377224498
 21
113.0839714697733
  0
LINE
  5
12D
100
AcDbEntity
  8
0
  6
CONTINUOUS
 62
             3
100
AcDbLine
 10
78.7180595305972
 20
108.54488573141251
 11
76.69604905520009
 21
106.5364807910457
  0
LINE
  5
12C
100
AcDbEntity
  8
0
  6
CONTINUOUS
 62
             3
100
AcDbLine
 10
78.97508536849551
 20
105.98163646377471
 11
77.84696432028341
 21
104.8611062309875
  0
LINE
  5
116
100
AcDbEntity
  8
0
  6
CONTINUOUS
 62
             3
100
AcDbLine
 10
185.39912479196121
 20
65.23142436064626
 11
192.68034165177869
 21
69.59958001144076
  0
LINE
  5
115
100
AcDbEntity
  8
0
  6
CONTINUOUS
 62
             3
100
AcDbLine
 10
153.89039169822249
 20
68.39975353993322
 11
154.2209573594146
 21
68.24122170276786
  0
LINE
  5
114
100
AcDbEntity
  8
0
  6
CONTINUOUS
 62
             3
100
AcDbLine
 10
185.7629933861308
 20
67.78170056558992
 11
187.1264937130027
 21
68.59969318576003
  0
LINE
  5
FE
100
AcDbEntity
  8
0
  6
CONTINUOUS
 62
             3
100
AcDbLine
 10
163.29276313458001
 20
80.18306260473872
 11
163.65913792524859
 21
80.19631116010106
  0
LINE
  5
FD
100
AcDbEntity
  8
0
  6
CONTINUOUS
 62
             3
100
AcDbLine
 10
191.8017738965564
 20
94.44774041987802
 11
192.62895332847179
 21
95.80568712122596
  0
LINE
  5
E7
100
AcDbEntity
  8
0
  6
CONTINUOUS
 62
             3
100
AcDbLine
 10
87.97203036222982
 20
138.8587072110906
 11
98.72432940278577
 21
138.8587072110906
  0
LINE
  5
E6
100
AcDbEntity
  8
0
  6
CONTINUOUS
 62
             3
100
AcDbLine
 10
96.7196622100883
 20
137.35891032881881
 11
86.55698179278897
 21
137.35891032881881
  0
LINE
  5
E5
100
AcDbEntity
  8
0
  6
CONTINUOUS
 62
             3
100
AcDbLine
 10
192.66475670610001
 20
92.02048482663776
 11
192.68034165177869
 21
92.04607000864888
  0
LINE
  5
DA
100
AcDbEntity
  8
0
  6
CONTINUOUS
 62
             3
100
AcDbLine
 10
254.40182409989089
 20
43.38757356174153
 11
281.60152824031582
 21
43.38757356174153
  0
LINE
  5
D9
100
AcDbEntity
  8
0
  6
CONTINUOUS
 62
             3
100
AcDbLine
 10
263.30638168560722
 20
33.88223674811269
 11
282.10167617904398
 21
33.88223674811269
  0
LINE
  5
D8
100
AcDbEntity
  8
0
  6
CONTINUOUS
 62
             3
100
AcDbLine
 10
282.10167617904398
 20
152.917445025517
 11
263.30638168560722
 21
152.917445025517
  0
LINE
  5
D7
100
AcDbEntity
  8
0
  6
CONTINUOUS
 62
             3
100
AcDbLine
 10
248.90167619096499
 20
137.4128590739503
 11
248.90167619096499
 21
148.91626155294321
  0
LINE
  5
D6
100
AcDbEntity
  8
0
  6
CONTINUOUS
 62
             3
100
AcDbLine
 10
248.90167619096499
 20
148.91626155294321
 11
248.90167619096499
 21
152.71738585002589
  0
LINE
  5
D5
100
AcDbEntity
  8
0
  6
CONTINUOUS
 62
             3
100
AcDbLine
 10
253.90167619096499
 20
37.88342022068656
 11
253.90167619096499
 21
33.88223674811269
  0
LINE
  5
D4
100
AcDbEntity
  8
0
  6
CONTINUOUS
 62
             3
100
AcDbLine
 10
253.90167619096499
 20
33.88223674811269
 11
249.10173536645641
 21
33.88223674811269
  0
LINE
  5
D3
100
AcDbEntity
  8
0
  6
CONTINUOUS
 62
             3
100
AcDbLine
 10
253.90167619096499
 20
37.88342022068656
 11
253.90167619096499
 21
66.69004514731313
  0
LINE
  5
C0
100
AcDbEntity
  8
0
  6
CONTINUOUS
 62
             3
100
AcDbLine
 10
253.90167619096499
 20
120.1096366263168
 11
253.90167619096499
 21
131.91123180009271
  0
LINE
  5
BF
100
AcDbEntity
  8
0
  6
CONTINUOUS
 62
             3
100
AcDbLine
 10
248.90167619096499
 20
37.88342022068656
 11
248.90167619096499
 21
131.91123180009271
  0
LINE
  5
BE
100
AcDbEntity
  8
0
  6
CONTINUOUS
 62
             3
100
AcDbLine
 10
263.30638168560722
 20
93.39984089054013
 11
263.30638168560722
 21
52.38103105045701
  0
LINE
  5
BA
100
AcDbEntity
  8
0
  6
CONTINUOUS
 62
             3
100
AcDbLine
 10
253.90167619096499
 20
152.917445025517
 11
253.90167619096499
 21
148.91626155294321
  0
LINE
  5
B9
100
AcDbEntity
  8
0
  6
CONTINUOUS
 62
             3
100
AcDbLine
 10
249.10173536645641
 20
152.917445025517
 11
253.90167619096499
 21
152.917445025517
  0
LINE
  5
B8
100
AcDbEntity
  8
0
  6
CONTINUOUS
 62
             3
100
AcDbLine
 10
248.90167619096499
 20
34.08229592360402
 11
248.90167619096499
 21
37.88342022068656
  0
LINE
  5
B7
100
AcDbEntity
  8
0
  6
CONTINUOUS
 62
             3
100
AcDbLine
 10
253.90167619096499
 20
131.91123180009271
 11
253.90167619096499
 21
143.41463427908559
  0
LINE
  5
B6
100
AcDbEntity
  8
0
  6
CONTINUOUS
 62
             3
100
AcDbLine
 10
263.30638168560722
 20
134.4186507231727
 11
263.30638168560722
 21
93.39984089054013
  0
LINE
  5
AA
100
AcDbEntity
  8
0
  6
CONTINUOUS
 62
             3
100
AcDbLine
 10
279.10078857647642
 20
134.4198561228051
 11
263.30638168560722
 21
134.4198561228051
  0
LINE
  5
A9
100
AcDbEntity
  8
0
  6
CONTINUOUS
 62
             3
100
AcDbLine
 10
263.30638168560722
 20
134.4198561228051
 11
263.30638168560722
 21
134.4186507231727
  0
LINE
  5
A8
100
AcDbEntity
  8
0
  6
CONTINUOUS
 62
             3
100
AcDbLine
 10
263.30638168560722
 20
52.38103105045701
 11
263.30638168560722
 21
52.37982565082456
  0
LINE
  5
A7
100
AcDbEntity
  8
0
  6
CONTINUOUS
 62
             3
100
AcDbLine
 10
263.30638168560722
 20
52.37982565082456
 11
279.10078857647642
 21
52.37982565082456
  0
LINE
  5
A6
100
AcDbEntity
  8
0
  6
CONTINUOUS
 62
             3
100
AcDbLine
 10
282.10167617904398
 20
112.5366276419892
 11
282.10167617904398
 21
93.39984089054013
  0
LINE
  5
A0
100
AcDbEntity
  8
0
  6
CONTINUOUS
 62
             3
100
AcDbLine
 10
282.10167617904398
 20
93.39984089054013
 11
282.10167617904398
 21
74.26305413164056
  0
LINE
  5
9A
100
AcDbEntity
  8
0
  6
CONTINUOUS
 62
             3
100
AcDbLine
 10
282.10167617904398
 20
148.91626155294321
 11
282.10167617904398
 21
152.917445025517
  0
LINE
  5
99
100
AcDbEntity
  8
0
  6
CONTINUOUS
 62
             3
100
AcDbLine
 10
282.10167617904398
 20
152.917445025517
 11
286.90161700355281
 21
152.917445025517
  0
LINE
  5
98
100
AcDbEntity
  8
0
  6
CONTINUOUS
 62
             3
100
AcDbLine
 10
282.10167617904398
 20
33.88223674811269
 11
282.10167617904398
 21
37.88342022068656
  0
LINE
  5
97
100
AcDbEntity
  8
0
  6
CONTINUOUS
 62
             3
100
AcDbLine
 10
286.90161700355281
 20
33.88223674811269
 11
282.10167617904398
 21
33.88223674811269
  0
LINE
  5
96
100
AcDbEntity
  8
0
  6
CONTINUOUS
 62
             3
100
AcDbLine
 10
282.10167617904398
 20
148.91626155294321
 11
282.10167617904398
 21
112.5366276419892
  0
LINE
  5
95
100
AcDbEntity
  8
0
  6
CONTINUOUS
 62
             3
100
AcDbLine
 10
282.10167617904398
 20
74.26305413164056
 11
282.10167617904398
 21
37.88342022068656
  0
LINE
  5
94
100
AcDbEntity
  8
0
  6
CONTINUOUS
 62
             3
100
AcDbLine
 10
287.1016761790442
 20
37.88342022068656
 11
287.1016761790442
 21
34.08229592360402
  0
LINE
  5
93
100
AcDbEntity
  8
0
  6
CONTINUOUS
 62
             3
100
AcDbLine
 10
287.1016761790442
 20
148.91626155294321
 11
287.1016761790442
 21
37.88342022068656
  0
LINE
  5
92
100
AcDbEntity
  8
0
  6
CONTINUOUS
 62
             3
100
AcDbLine
 10
287.1016761790442
 20
152.71738585002589
 11
287.1016761790442
 21
148.91626155294321
  0
LINE
  5
61
100
AcDbEntity
  8
0
  6
CONTINUOUS
 62
             3
100
AcDbLine
 10
254.40182409989089
 20
142.55830228246589
 11
281.60152824031582
 21
142.55830228246589
  0
LINE
  5
60
100
AcDbEntity
  8
0
  6
CONTINUOUS
 62
             3
100
AcDbLine
 10
281.60152824031582
 20
44.24137949116374
 11
254.40182409989089
 21
44.24137949116374
  0
LINE
  5
5F
100
AcDbEntity
  8
0
  6
CONTINUOUS
 62
             3
100
AcDbLine
 10
281.60152824031582
 20
143.2656182787552
 11
254.40182409989089
 21
143.2656182787552
  0
LINE
  5
56
100
AcDbEntity
  8
0
  6
CONTINUOUS
 62
             3
100
AcDbLine
 10
253.90167619096499
 20
152.917445025517
 11
254.15175016032919
 21
152.917445025517
  0
LINE
  5
55
100
AcDbEntity
  8
0
  6
CONTINUOUS
 62
             3
100
AcDbLine
 10
254.15175016032919
 20
33.88223674811269
 11
253.90167619096499
 21
33.88223674811269
  0
LINE
  5
54
100
AcDbEntity
  8
0
  6
CONTINUOUS
 62
             3
100
AcDbLine
 10
263.30638168560722
 20
152.917445025517
 11
263.30638168560722
 21
143.41210821188841
  0
LINE
  5
53
100
AcDbEntity
  8
0
  6
CONTINUOUS
 62
             3
100
AcDbLine
 10
254.15175016032919
 20
152.917445025517
 11
263.30638168560722
 21
152.917445025517
  0
LINE
  5
52
100
AcDbEntity
  8
0
  6
CONTINUOUS
 62
             3
100
AcDbLine
 10
263.30638168560722
 20
43.38757356174153
 11
263.30638168560722
 21
33.88223674811269
  0
LINE
  5
51
100
AcDbEntity
  8
0
  6
CONTINUOUS
 62
             3
100
AcDbLine
 10
263.30638168560722
 20
33.88223674811269
 11
254.15175016032919
 21
33.88223674811269
  0
LINE
  5
50
100
AcDbEntity
  8
0
  6
CONTINUOUS
 62
             3
100
AcDbLine
 10
248.90167619096499
 20
35.38268054939653
 11
248.90167619096499
 21
62.39066898740674
  0
LINE
  5
4F
100
AcDbEntity
  8
0
  6
CONTINUOUS
 62
             3
100
AcDbLine
 10
248.90167619096499
 20
124.4090127936735
 11
248.90167619096499
 21
137.4128590739503
  0
LINE
  5
4E
100
AcDbEntity
  8
1
  6
CONTINUOUS
 62
             3
100
AcDbLine
 10
253.90167619096499
 20
148.91626155294321
 11
253.90167619096499
 21
143.9122561506166
  0
LINE
  5
4D
100
AcDbEntity
  8
1
  6
CONTINUOUS
 62
             3
100
AcDbLine
 10
253.90167619096499
 20
143.41463427908559
 11
253.90167619096499
 21
143.9122561506166
  0
LINE
  5
4C
100
AcDbEntity
  8
1
  6
CONTINUOUS
 62
             3
100
AcDbLine
 10
92.10662954125928
 20
131.9928567475811
 11
90.57109289441621
 21
130.22783077426101
  0
LINE
  5
4B
100
AcDbEntity
  8
1
  6
CONTINUOUS
 62
             3
100
AcDbLine
 10
91.3883576599174
 20
131.9422332785264
 11
90.5967938509994
 21
131.034980430378
  0
LINE
  5
4A
100
AcDbEntity
  8
1
  6
CONTINUOUS
 62
             3
100
AcDbLine
 10
91.3197090831809
 20
131.93739496089361
 11
90.21669556770848
 21
131.8596550739542
  0
LINE
  5
49
100
AcDbEntity
  8
1
  6
CONTINUOUS
 62
             3
100
AcDbLine
 10
75.19625215802722
 20
131.8596550739542
 11
67.70839812431859
 21
131.8596550739542
  0
LINE
  5
48
100
AcDbEntity
  8
1
  6
CONTINUOUS
 62
             3
100
AcDbLine
 10
75.19625215802722
 20
137.35891032881881
 11
67.70839812431859
 21
137.35891032881881
  0
LINE
  5
47
100
AcDbEntity
  8
1
  6
CONTINUOUS
 62
             3
100
AcDbLine
 10
67.70839812431859
 20
131.8596550739542
 11
67.70839812431859
 21
137.35891032881881
  0
LINE
  5
46
100
AcDbEntity
  8
1
  6
CONTINUOUS
 62
             3
100
AcDbLine
 10
41.71544083033132
 20
137.19687796302011
 11
20.6157638040595
 21
137.19687796302011
  0
LINE
  5
45
100
AcDbEntity
  8
1
  6
CONTINUOUS
 62
             3
100
AcDbLine
 10
41.71544083033132
 20
131.9968779600396
 11
20.6157638040595
 21
131.9968779600396
  0
LINE
  5
44
100
AcDbEntity
  8
1
  6
CONTINUOUS
 62
             3
100
AcDbLine
 10
67.70839812431859
 20
137.19687796302011
 11
43.31544082437091
 21
137.19687796302011
  0
LINE
  5
43
100
AcDbEntity
  8
1
  6
CONTINUOUS
 62
             3
100
AcDbLine
 10
43.31544082437091
 20
131.9968779600396
 11
67.70839812431859
 21
131.9968779600396
  0
LINE
  5
42
100
AcDbEntity
  8
1
  6
CONTINUOUS
 62
             3
100
AcDbLine
 10
20.6157638040595
 20
131.9968779600396
 11
20.6157638040595
 21
137.19687796302011
  0
LINE
  5
41
100
AcDbEntity
  8
1
  6
CONTINUOUS
 62
             2
100
AcDbLine
 10
16.37014748726421
 20
132.32187796302011
 11
20.6157638040595
 21
132.32187796302011
  0
LINE
  5
40
100
AcDbEntity
  8
1
  6
CONTINUOUS
 62
             3
100
AcDbLine
 10
20.6157638040595
 20
135.89687796600009
 11
42.63299735460811
 21
135.89687796600009
  0
LINE
  5
3F
100
AcDbEntity
  8
1
  6
CONTINUOUS
 62
             3
100
AcDbLine
 10
20.6157638040595
 20
134.59687796152971
 11
42.28706966910892
 21
134.59687796152971
  0
LINE
  5
3E
100
AcDbEntity
  8
1
  6
CONTINUOUS
 62
             3
100
AcDbLine
 10
20.6157638040595
 20
133.29687796451
 11
40.62203603063142
 21
133.29687796451
  0
LINE
  5
3D
100
AcDbEntity
  8
1
  6
CONTINUOUS
 62
             3
100
AcDbLine
 10
42.22203602467107
 20
133.29687796451
 11
67.70839812431859
 21
133.29687796451
  0
LINE
  5
3C
100
AcDbEntity
  8
1
  6
CONTINUOUS
 62
             3
100
AcDbLine
 10
67.70839812431859
 20
134.59687796152971
 11
43.8870696631484
 21
134.59687796152971
  0
LINE
  5
3B
100
AcDbEntity
  8
1
  6
CONTINUOUS
 62
             3
100
AcDbLine
 10
44.23299734864759
 20
135.89687796600009
 11
67.70839812431859
 21
135.89687796600009
  0
LINE
  5
3A
100
AcDbEntity
  8
1
  6
CONTINUOUS
 62
             2
100
AcDbLine
 10
20.6157638040595
 20
136.8718779600396
 11
16.37014748726421
 21
136.8718779600396
  0
LINE
  5
39
100
AcDbEntity
  8
1
  6
CONTINUOUS
 62
             2
100
AcDbLine
 10
16.37014748726421
 20
136.22187796152971
 11
20.6157638040595
 21
136.22187796152971
  0
LINE
  5
38
100
AcDbEntity
  8
1
  6
CONTINUOUS
 62
             2
100
AcDbLine
 10
16.37014748726421
 20
136.8718779600396
 11
16.37014748726421
 21
136.22187796152971
  0
LINE
  5
37
100
AcDbEntity
  8
1
  6
CONTINUOUS
 62
             2
100
AcDbLine
 10
20.6157638040595
 20
135.57187796302011
 11
16.37014748726421
 21
135.57187796302011
  0
LINE
  5
36
100
AcDbEntity
  8
1
  6
CONTINUOUS
 62
             2
100
AcDbLine
 10
16.37014748726421
 20
134.92187796451
 11
20.6157638040595
 21
134.92187796451
  0
LINE
  5
35
100
AcDbEntity
  8
1
  6
CONTINUOUS
 62
             2
100
AcDbLine
 10
16.37014748726421
 20
135.57187796302011
 11
16.37014748726421
 21
134.92187796451
  0
LINE
  5
34
100
AcDbEntity
  8
1
  6
CONTINUOUS
 62
             2
100
AcDbLine
 10
20.6157638040595
 20
134.27187796600009
 11
16.37014748726421
 21
134.27187796600009
  0
LINE
  5
33
100
AcDbEntity
  8
1
  6
CONTINUOUS
 62
             2
100
AcDbLine
 10
16.37014748726421
 20
134.27187796600009
 11
16.37014748726421
 21
133.6218779600396
  0
LINE
  5
32
100
AcDbEntity
  8
1
  6
CONTINUOUS
 62
             2
100
AcDbLine
 10
16.37014748726421
 20
133.6218779600396
 11
20.6157638040595
 21
133.6218779600396
  0
LINE
  5
31
100
AcDbEntity
  8
1
  6
CONTINUOUS
 62
             2
100
AcDbLine
 10
20.6157638040595
 20
132.97187796152971
 11
16.37014748726421
 21
132.97187796152971
  0
LINE
  5
30
100
AcDbEntity
  8
1
  6
CONTINUOUS
 62
             2
100
AcDbLine
 10
16.37014748726421
 20
132.97187796152971
 11
16.37014748726421
 21
132.32187796302011
  0
LINE
  5
2F
100
AcDbEntity
  8
1
  6
CONTINUOUS
 62
             3
100
AcDbLine
 10
125.81636225257429
 20
122.4283533758655
 11
126.2854886261039
 21
121.1623914904132
  0
LINE
  5
2E
100
AcDbEntity
  8
1
  6
CONTINUOUS
 62
             3
100
AcDbLine
 10
128.61945002351331
 20
123.77757410622981
 11
130.48718120728051
 21
122.1106713256969
  0
LINE
  5
2D
100
AcDbEntity
  8
1
  6
CONTINUOUS
 62
             3
100
AcDbLine
 10
126.41043191228439
 20
122.7142991564407
 11
127.7135033515506
 21
121.5587695456281
  0
LINE
  5
2C
100
AcDbEntity
  8
1
  6
CONTINUOUS
 62
             3
100
AcDbLine
 10
124.6345764604621
 20
121.85951999492789
 11
124.5698971656375
 21
120.5794240302577
  0
LINE
  5
2B
100
AcDbEntity
  8
1
  6
CONTINUOUS
 62
             3
100
AcDbLine
 10
123.09014173422371
 20
120.8270272604363
 11
123.09014173422371
 21
119.97744285233161
  0
LINE
  5
2A
100
AcDbEntity
  8
1
  6
CONTINUOUS
 62
             3
100
AcDbLine
 10
122.92767750297131
 20
121.0379319331782
 11
128.61945002351331
 21
123.77757410622981
  0
LINE
  5
29
100
AcDbEntity
  8
0
  6
CONTINUOUS
 62
             3
100
AcDbLine
 10
129.01085870538279
 20
123.8362911633387
 11
128.4733874407822
 21
124.24135551519539
  0
SOLID
  5
658
100
AcDbEntity
  8
1
 62
             2
100
AcDbTrace
 10
112.47493687628484
 20
19.30615834408677
 11
112.23257444024313
 21
18.41703120158977
 12
108.9769600835854
 22
19.78205750800527
 13
108.9769600835854
 23
19.78205750800527
  0
SOLID
  5
65A
100
AcDbEntity
  8
1
 62
             2
100
AcDbTrace
 10
258.93697732127498
 20
17.68964000081487
 11
258.93697732127498
 21
16.84706401625553
 12
255.73697732127499
 22
17.2683520085352
 13
255.73697732127499
 23
17.2683520085352
  0
INSERT
  5
6AC
100
AcDbEntity
  8
0
100
AcDbBlockReference
  2
*D6
 10
0.0
 20
0.0
  0
ENDSEC
  0
SECTION
  2
OBJECTS
  0
DICTIONARY
  5
19
100
AcDbDictionary
  3
ACAD_GROUP
350
1A
  3
ACAD_MLINESTYLE
350
1B
  0
DICTIONARY
  5
1A
102
{ACAD_REACTORS
330
19
102
}
100
AcDbDictionary
  0
DICTIONARY
  5
1B
102
{ACAD_REACTORS
330
19
102
}
100
AcDbDictionary
  3
STANDARD
350
1C
  0
MLINESTYLE
  5
1C
102
{ACAD_REACTORS
330
1B
102
}
100
AcDbMlineStyle
  2
STANDARD
 70
             0
  3

 62
             0
 51
90.0
 52
90.0
 71
             2
 49
0.5
 62
           256
  6
BYLAYER
 49
-0.5
 62
           256
  6
BYLAYER
  0
ENDSEC
  0
EOF
