  0
SECTION
  2
HEADER
  9
$ACADVER
  1
AC1014
  9
$ACADMAINTVER
 70
             0
  9
$DWGCODEPAGE
  3
ANSI_1252
  9
$INSBASE
 10
0.0
 20
0.0
 30
0.0
  9
$EXTMIN
 10
-11527708.48932267
 20
-4207440.3282121811
 30
0.0
  9
$EXTMAX
 10
-11527430.21020435
 20
-4207288.7470889892
 30
0.0
  9
$LIMMIN
 10
0.0
 20
0.0
  9
$LIMMAX
 10
0.0
 20
0.0
  9
$ORTHOMODE
 70
             0
  9
$REGENMODE
 70
             1
  9
$FILLMODE
 70
             1
  9
$QTEXTMODE
 70
             0
  9
$MIRRTEXT
 70
             1
  9
$DRAGMODE
 70
             2
  9
$LTSCALE
 40
1.0
  9
$OSMODE
 70
             0
  9
$ATTMODE
 70
             1
  9
$TEXTSIZE
 40
0.2
  9
$TRACEWID
 40
0.05
  9
$TEXTSTYLE
  7
STANDARD
  9
$CLAYER
  8
0
  9
$CELTYPE
  6
CONTINUOUS
  9
$CECOLOR
 62
           256
  9
$CELTSCALE
 40
1.0
  9
$DELOBJ
 70
             1
  9
$DISPSILH
 70
             0
  9
$DIMSCALE
 40
1.0
  9
$DIMASZ
 40
0.18
  9
$DIMEXO
 40
0.0625
  9
$DIMDLI
 40
0.38
  9
$DIMRND
 40
0.0
  9
$DIMDLE
 40
0.0
  9
$DIMEXE
 40
0.18
  9
$DIMTP
 40
0.0
  9
$DIMTM
 40
0.0
  9
$DIMTXT
 40
0.18
  9
$DIMCEN
 40
0.09
  9
$DIMTSZ
 40
0.0
  9
$DIMTOL
 70
             0
  9
$DIMLIM
 70
             0
  9
$DIMTIH
 70
             1
  9
$DIMTOH
 70
             1
  9
$DIMSE1
 70
             0
  9
$DIMSE2
 70
             0
  9
$DIMTAD
 70
             0
  9
$DIMZIN
 70
             0
  9
$DIMBLK
  1

  9
$DIMASO
 70
             1
  9
$DIMSHO
 70
             1
  9
$DIMPOST
  1

  9
$DIMAPOST
  1

  9
$DIMALT
 70
             0
  9
$DIMALTD
 70
             2
  9
$DIMALTF
 40
25.4
  9
$DIMLFAC
 40
1.0
  9
$DIMTOFL
 70
             0
  9
$DIMTVP
 40
0.0
  9
$DIMTIX
 70
             0
  9
$DIMSOXD
 70
             0
  9
$DIMSAH
 70
             0
  9
$DIMBLK1
  1

  9
$DIMBLK2
  1

  9
$DIMSTYLE
  2
STANDARD
  9
$DIMCLRD
 70
             0
  9
$DIMCLRE
 70
             0
  9
$DIMCLRT
 70
             0
  9
$DIMTFAC
 40
1.0
  9
$DIMGAP
 40
0.09
  9
$DIMJUST
 70
             0
  9
$DIMSD1
 70
             0
  9
$DIMSD2
 70
             0
  9
$DIMTOLJ
 70
             1
  9
$DIMTZIN
 70
             0
  9
$DIMALTZ
 70
             0
  9
$DIMALTTZ
 70
             0
  9
$DIMFIT
 70
             3
  9
$DIMUPT
 70
             0
  9
$DIMUNIT
 70
             2
  9
$DIMDEC
 70
             4
  9
$DIMTDEC
 70
             4
  9
$DIMALTU
 70
             2
  9
$DIMALTTD
 70
             2
  9
$DIMTXSTY
  7
STANDARD
  9
$DIMAUNIT
 70
             0
  9
$LUNITS
 70
             2
  9
$LUPREC
 70
             4
  9
$SKETCHINC
 40
0.1
  9
$FILLETRAD
 40
0.0
  9
$AUNITS
 70
             0
  9
$AUPREC
 70
             0
  9
$MENU
  1
acad
  9
$ELEVATION
 40
0.0
  9
$PELEVATION
 40
0.0
  9
$THICKNESS
 40
0.0
  9
$LIMCHECK
 70
             0
  9
$BLIPMODE
 70
             1
  9
$CHAMFERA
 40
0.0
  9
$CHAMFERB
 40
0.0
  9
$CHAMFERC
 40
0.0
  9
$CHAMFERD
 40
0.0
  9
$SKPOLY
 70
             0
  9
$TDCREATE
 40
0.000000000
  9
$TDUPDATE
 40
0.000000000
  9
$TDINDWG
 40
0.0000000000
  9
$TDUSRTIMER
 40
0.0000000000
  9
$USRTIMER
 70
             1
  9
$ANGBASE
 50
0.0
  9
$ANGDIR
 70
             0
  9
$PDMODE
 70
             0
  9
$PDSIZE
 40
0.0
  9
$PLINEWID
 40
0.0
  9
$COORDS
 70
             0
  9
$SPLFRAME
 70
             0
  9
$SPLINETYPE
 70
             6
  9
$SPLINESEGS
 70
             8
  9
$ATTDIA
 70
             0
  9
$ATTREQ
 70
             1
  9
$HANDLING
 70
             1
  9
$HANDSEED
  5
66E
  9
$SURFTAB1
 70
             6
  9
$SURFTAB2
 70
             6
  9
$SURFTYPE
 70
             6
  9
$SURFU
 70
             6
  9
$SURFV
 70
             6
  9
$UCSNAME
  2

  9
$UCSORG
 10
0.0
 20
0.0
 30
0.0
  9
$UCSXDIR
 10
1.0
 20
0.0
 30
0.0
  9
$UCSYDIR
 10
0.0
 20
1.0
 30
0.0
  9
$PUCSNAME
  2

  9
$PUCSORG
 10
0.0
 20
0.0
 30
0.0
  9
$PUCSXDIR
 10
1.0
 20
0.0
 30
0.0
  9
$PUCSYDIR
 10
0.0
 20
1.0
 30
0.0
  9
$USERI1
 70
             0
  9
$USERI2
 70
             0
  9
$USERI3
 70
             0
  9
$USERI4
 70
             0
  9
$USERI5
 70
             0
  9
$USERR1
 40
12.01
  9
$USERR2
 40
0.0
  9
$USERR3
 40
0.0
  9
$USERR4
 40
0.0
  9
$USERR5
 40
0.0
  9
$WORLDVIEW
 70
             1
  9
$SHADEDGE
 70
             3
  9
$SHADEDIF
 70
            70
  9
$TILEMODE
 70
             1
  9
$MAXACTVP
 70
            16
  9
$PINSBASE
 10
0.0
 20
0.0
 30
0.0
  9
$PLIMCHECK
 70
             0
  9
$PEXTMIN
 10
1.00000000000000E+20
 20
1.00000000000000E+20
 30
1.00000000000000E+20
  9
$PEXTMAX
 10
-1.00000000000000E+20
 20
-1.00000000000000E+20
 30
-1.00000000000000E+20
  9
$PLIMMIN
 10
0.0
 20
0.0
  9
$PLIMMAX
 10
12.0
 20
9.0
  9
$UNITMODE
 70
             0
  9
$VISRETAIN
 70
             0
  9
$PLINEGEN
 70
             1
  9
$PSLTSCALE
 70
             0
  9
$TREEDEPTH
 70
          3020
  9
$PICKSTYLE
 70
             1
  9
$CMLSTYLE
  2
STANDARD
  9
$CMLJUST
 70
             0
  9
$CMLSCALE
 40
1.0
  9
$PROXYGRAPHICS
 70
             0
  9
$MEASUREMENT
 70
             1
  0
ENDSEC
  0
SECTION
  2
CLASSES
  0
CLASS
  1
LWPOLYLINE
  2
AcDbPolyline
  3
"AutoCAD"
 90
        0
280
             0
281
             1
  0
CLASS
  1
IMAGE
  2
AcDbRasterImage
  3
ISM
 90
      127
280
             0
281
             1
  0
CLASS
  1
OLE2FRAME
  2
AcDbOle2Frame
  3
""
 90
        0
280
             0
281
             1
  0
CLASS
  1
HATCH
  2
AcDbHatch
  3
"ACAD_SEDONA"
 90
        0
280
             0
281
             1
  0
CLASS
  1
DICTIONARYVAR
  2
AcDbDictionaryVar
  3
"AutoCAD"
 90
        0
280
             0
281
             0
  0
CLASS
  1
RASTERVARIABLES
  2
AcDbRasterVariables
  3
ISM
 90
        0
280
             0
281
             0
  0
CLASS
  1
IMAGEDEF
  2
AcDbRasterImageDef
  3
ISM
 90
        0
280
             0
281
             0
  0
CLASS
  1
IMAGEDEF_REACTOR
  2
AcDbRasterImageDefReactor
  3
ISM
 90
        1
280
             0
281
             0
  0
CLASS
  1
IDBUFFER
  2
AcDbIdBuffer
  3
"Acad"
 90
        0
280
             0
281
             0
  0
CLASS
  1
SPATIAL_FILTER
  2
AcDbSpatialFilter
  3
"Acad"
 90
        0
280
             0
281
             0
  0
CLASS
  1
XRECORD
  2
AcDbXrecord
  3
"<Built In>"
 90
        0
280
             0
281
             0
  0
CLASS
  1
SORTENTSTABLE
  2
AcDbSortentsTable
  3
"AutoCAD"
 90
        0
280
             0
281
             0
  0
CLASS
  1
LAYER_INDEX
  2
AcDbLayerIndex
  3
"Acad"
 90
        0
280
             0
281
             0
  0
CLASS
  1
SPATIAL_INDEX
  2
AcDbSpatialIndex
  3
"Acad"
 90
        0
280
             0
281
             0
  0
CLASS
  1
OBJECT_PTR
  2
CAseDLPNTableRecord
  3
"ASE-LPNTableRecord"
 90
        1
280
             0
281
             0
  0
CLASS
  1
LAYOUT
  2
AcDbLayout
  3
"AutoCAD 2000"
 90
        0
280
             0
281
             0
  0
CLASS
  1
PLOTSETTINGS
  2
AcDbPlotSettings
  3
"AutoCAD 2000"
 90
        0
280
             0
281
             0
  0
CLASS
  1
ACDBDICTIONARYWDFLT
  2
AcDbDictionaryWithDefault
  3
"AutoCAD 2000"
 90
        0
280
             0
281
             0
  0
CLASS
  1
ACDBPLACEHOLDER
  2
AcDbPlaceHolder
  3
"AutoCAD 2000"
 90
        0
280
             0
281
             0
  0
ENDSEC
  0
SECTION
  2
TABLES
  0
TABLE
  2
VPORT
  5
7
100
AcDbSymbolTable
 70
             1
  0
VPORT
  5
15
100
AcDbSymbolTableRecord
100
AcDbViewportTableRecord
  2
*ACTIVE
 70
             0
 10
0.0
 20
0.0
 11
1.0
 21
1.0
 12
-11527569.349763509
 22
-4207364.5376505852
 13
0.0
 23
0.0
 14
1.0
 24
1.0
 15
0.0
 25
0.0
 16
0.0
 26
0.0
 36
1.0
 17
0.0
 27
0.0
 37
0.0
 40
190.99714416167541
 41
1.60267857142857
 42
50.0
 43
0.0
 44
0.0
 50
0.0
 51
0.0
 71
             0
 72
           100
 73
             1
 74
             1
 75
             0
 76
             0
 77
             0
 78
             0
  0
ENDTAB
  0
TABLE
  2
LTYPE
  5
4
100
AcDbSymbolTable
 70
            10
  0
LTYPE
  5
11
100
AcDbSymbolTableRecord
100
AcDbLinetypeTableRecord
  2
BYBLOCK
 70
            64
  3

 72
            65
 73
             0
 40
0.0
  0
LTYPE
  5
12
100
AcDbSymbolTableRecord
100
AcDbLinetypeTableRecord
  2
BYLAYER
 70
            64
  3

 72
            65
 73
             0
 40
0.0
  0
LTYPE
  5
13
100
AcDbSymbolTableRecord
100
AcDbLinetypeTableRecord
  2
CONTINUOUS
 70
            64
  3
Solid line
 72
            65
 73
             0
 40
0.0
  0
LTYPE
  5
1D
100
AcDbSymbolTableRecord
100
AcDbLinetypeTableRecord
  2
DASHED
 70
            64
  3
Dashed
 72
            65
 73
             2
 40
15.0
 49
7.0
 74
             0
 49
-8.0
 74
             0
  0
LTYPE
  5
1E
100
AcDbSymbolTableRecord
100
AcDbLinetypeTableRecord
  2
DOTTED
 70
            64
  3
Dotted
 72
            65
 73
             2
 40
1.0
 49
0.0
 74
             0
 49
-1.0
 74
             0
  0
LTYPE
  5
1F
100
AcDbSymbolTableRecord
100
AcDbLinetypeTableRecord
  2
DOT_CENTER
 70
            64
  3
Dot_Center
 72
            65
 73
             4
 40
14.0
 49
12.0
 74
             0
 49
-1.0
 74
             0
 49
0.0
 74
             0
 49
-1.0
 74
             0
  0
LTYPE
  5
20
100
AcDbSymbolTableRecord
100
AcDbLinetypeTableRecord
  2
LONG_DASHED
 70
            64
  3
Long_Dashed
 72
            65
 73
             2
 40
15.0
 49
10.0
 74
             0
 49
-5.0
 74
             0
  0
LTYPE
  5
21
100
AcDbSymbolTableRecord
100
AcDbLinetypeTableRecord
  2
DASH_CENTER
 70
            64
  3
Dash_Center
 72
            65
 73
             4
 40
14.0
 49
11.0
 74
             0
 49
-1.0
 74
             0
 49
1.0
 74
             0
 49
-1.0
 74
             0
  0
LTYPE
  5
22
100
AcDbSymbolTableRecord
100
AcDbLinetypeTableRecord
  2
PHANTOM
 70
            64
  3
Phantom
 72
            65
 73
             6
 40
13.0
 49
10.0
 74
             0
 49
-1.0
 74
             0
 49
0.0
 74
             0
 49
-1.0
 74
             0
 49
0.0
 74
             0
 49
-1.0
 74
             0
  0
LTYPE
  5
23
100
AcDbSymbolTableRecord
100
AcDbLinetypeTableRecord
  2
CENTER_DASH_DASH
 70
            64
  3
Center_Dash_Dash
 72
            65
 73
             6
 40
14.0
 49
9.0
 74
             0
 49
-1.0
 74
             0
 49
1.0
 74
             0
 49
-1.0
 74
             0
 49
1.0
 74
             0
 49
-1.0
 74
             0
  0
ENDTAB
  0
TABLE
  2
LAYER
  5
2
100
AcDbSymbolTable
 70
             2
  0
LAYER
  5
14
100
AcDbSymbolTableRecord
100
AcDbLayerTableRecord
  2
0
 70
             0
 62
             7
  6
CONTINUOUS
  0
LAYER
  5
24
100
AcDbSymbolTableRecord
100
AcDbLayerTableRecord
  2
1
 70
             0
 62
             7
  6
CONTINUOUS
  0
ENDTAB
  0
TABLE
  2
STYLE
  5
3
100
AcDbSymbolTable
 70
             2
  0
STYLE
  5
17
100
AcDbSymbolTableRecord
100
AcDbTextStyleTableRecord
  2
STANDARD
 70
             0
 40
0.0
 41
1.0
 50
0.0
 71
             0
 42
0.0
  3
txt
  4

  0
STYLE
  5
625
100
AcDbSymbolTableRecord
100
AcDbTextStyleTableRecord
  2
CONVERTER_1
 70
             0
 40
0.0
 41
0.9
 50
0.0
 71
             0
 42
0.0
  3
txt.shx
  4

  0
ENDTAB
  0
TABLE
  2
VIEW
  5
5
100
AcDbSymbolTable
 70
             0
  0
ENDTAB
  0
TABLE
  2
UCS
  5
6
100
AcDbSymbolTable
 70
             0
  0
ENDTAB
  0
TABLE
  2
APPID
  5
8
100
AcDbSymbolTable
 70
             1
  0
APPID
  5
16
100
AcDbSymbolTableRecord
100
AcDbRegAppTableRecord
  2
ACAD
 70
             0
  0
ENDTAB
  0
TABLE
  2
DIMSTYLE
  5
9
100
AcDbSymbolTable
 70
             7
  0
DIMSTYLE
105
18
100
AcDbSymbolTableRecord
100
AcDbDimStyleTableRecord
  2
STANDARD
 70
             0
  3

  4

  5

  6

  7

 40
1.0
 41
0.18
 42
0.0625
 43
0.38
 44
0.18
 45
0.0
 46
0.0
 47
0.0
 48
0.0
 71
             0
 72
             0
 73
             1
 74
             1
 75
             0
 76
             0
 77
             0
 78
             0
140
0.18
141
0.09
142
0.0
143
25.4
144
1.0
145
0.0
146
1.0
147
0.09
170
             0
171
             2
172
             0
173
             0
174
             0
175
             0
176
             0
177
             0
178
             0
270
             2
271
             4
272
             4
273
             2
274
             2
275
             0
280
             0
281
             0
282
             0
283
             1
284
             0
285
             0
286
             0
287
             3
288
             0
340
17
  0
DIMSTYLE
105
628
100
AcDbSymbolTableRecord
100
AcDbDimStyleTableRecord
  2
ME10_DIM_0
 70
             0
  3

  4

  5

  6

  7

 40
1.0
 41
3.5
 42
1.0
 43
0.38
 44
1.5
 45
0.0
 46
0.0
 47
0.5
 48
0.5
 71
             1
 72
             0
 73
             0
 74
             0
 75
             0
 76
             0
 77
             1
 78
             8
140
3.2
141
0.09
142
0.0
143
25.4
144
1.0
145
0.0
146
0.6
147
0.625
170
             0
171
             2
172
             1
173
             1
174
             0
175
             0
176
             2
177
             2
178
             2
270
             2
271
             4
272
             1
273
             2
274
             2
275
             0
280
             0
281
             0
282
             0
283
             1
284
             0
285
             0
286
             0
287
             3
288
             0
340
625
  0
DIMSTYLE
105
635
100
AcDbSymbolTableRecord
100
AcDbDimStyleTableRecord
  2
ME10_DIM_1
 70
             0
  3

  4

  5

  6

  7

 40
1.0
 41
3.5
 42
1.0
 43
0.38
 44
1.5
 45
0.0
 46
0.0
 47
0.0
 48
0.0
 71
             0
 72
             0
 73
             0
 74
             0
 75
             0
 76
             0
 77
             1
 78
             8
140
3.2
141
0.09
142
0.0
143
25.4
144
1.0
145
0.0
146
1.0
147
0.625
170
             0
171
             2
172
             1
173
             1
174
             0
175
             0
176
             2
177
             2
178
             2
270
             2
271
             4
272
             4
273
             2
274
             2
275
             0
280
             0
281
             0
282
             0
283
             1
284
             0
285
             0
286
             0
287
             3
288
             0
340
625
  0
DIMSTYLE
105
642
100
AcDbSymbolTableRecord
100
AcDbDimStyleTableRecord
  2
ME10_DIM_2
 70
             0
  3

  4

  5

  6

  7

 40
1.0
 41
3.5
 42
1.0
 43
0.38
 44
1.5
 45
0.0
 46
0.0
 47
0.0
 48
0.0
 71
             0
 72
             0
 73
             0
 74
             0
 75
             0
 76
             0
 77
             1
 78
             8
140
3.2
141
0.09
142
0.0
143
25.4
144
1.0
145
0.0
146
1.0
147
0.625
170
             0
171
             2
172
             1
173
             1
174
             0
175
             0
176
             2
177
             2
178
             2
270
             2
271
             4
272
             4
273
             2
274
             2
275
             0
280
             0
281
             0
282
             0
283
             1
284
             0
285
             0
286
             0
287
             3
288
             0
340
625
  0
DIMSTYLE
105
64D
100
AcDbSymbolTableRecord
100
AcDbDimStyleTableRecord
  2
ME10_DIM_3
 70
             0
  3

  4

  5

  6

  7

 40
1.0
 41
3.5
 42
1.0
 43
0.38
 44
1.5
 45
0.0
 46
0.0
 47
30.0
 48
30.0
 71
             1
 72
             0
 73
             0
 74
             0
 75
             0
 76
             0
 77
             1
 78
             8
140
3.2
141
0.09
142
0.0
143
25.4
144
1.0
145
0.0
146
0.6
147
0.625
170
             0
171
             2
172
             1
173
             1
174
             0
175
             0
176
             2
177
             2
178
             2
270
             2
271
             4
272
             0
273
             2
274
             2
275
             0
280
             0
281
             0
282
             0
283
             1
284
             0
285
             0
286
             0
287
             3
288
             0
340
625
  0
DIMSTYLE
105
658
100
AcDbSymbolTableRecord
100
AcDbDimStyleTableRecord
  2
ME10_DIM_4
 70
             0
  3
 <>
  4

  5

  6

  7

 40
1.0
 41
3.5
 42
1.0
 43
0.38
 44
1.5
 45
0.0
 46
0.0
 47
0.5
 48
0.5
 71
             1
 72
             0
 73
             0
 74
             0
 75
             0
 76
             0
 77
             1
 78
             8
140
3.2
141
0.09
142
0.0
143
25.4
144
1.0
145
0.0
146
0.6
147
0.625
170
             0
171
             2
172
             1
173
             1
174
             0
175
             0
176
             2
177
             2
178
             2
270
             2
271
             4
272
             1
273
             2
274
             2
275
             0
280
             0
281
             0
282
             0
283
             1
284
             0
285
             0
286
             0
287
             3
288
             0
340
625
  0
DIMSTYLE
105
663
100
AcDbSymbolTableRecord
100
AcDbDimStyleTableRecord
  2
ME10_DIM_5
 70
             0
  3
 <>
  4

  5

  6

  7

 40
1.0
 41
3.5
 42
1.0
 43
0.38
 44
1.5
 45
0.0
 46
0.0
 47
0.3
 48
0.3
 71
             1
 72
             0
 73
             0
 74
             0
 75
             0
 76
             0
 77
             1
 78
             8
140
3.2
141
0.09
142
0.0
143
25.4
144
1.0
145
0.0
146
0.6
147
0.625
170
             0
171
             2
172
             1
173
             1
174
             0
175
             0
176
             2
177
             2
178
             2
270
             2
271
             4
272
             1
273
             2
274
             2
275
             0
280
             0
281
             0
282
             0
283
             1
284
             0
285
             0
286
             0
287
             3
288
             0
340
625
  0
ENDTAB
  0
TABLE
  2
BLOCK_RECORD
  5
1
100
AcDbSymbolTable
 70
             7
  0
BLOCK_RECORD
  5
A
100
AcDbSymbolTableRecord
100
AcDbBlockTableRecord
  2
*MODEL_SPACE
  0
BLOCK_RECORD
  5
B
100
AcDbSymbolTableRecord
100
AcDbBlockTableRecord
  2
*PAPER_SPACE
  0
BLOCK_RECORD
  5
61E
100
AcDbSymbolTableRecord
100
AcDbBlockTableRecord
  2
*D0
  0
BLOCK_RECORD
  5
62A
100
AcDbSymbolTableRecord
100
AcDbBlockTableRecord
  2
*D1
  0
BLOCK_RECORD
  5
637
100
AcDbSymbolTableRecord
100
AcDbBlockTableRecord
  2
*D2
  0
BLOCK_RECORD
  5
644
100
AcDbSymbolTableRecord
100
AcDbBlockTableRecord
  2
*D3
  0
BLOCK_RECORD
  5
64F
100
AcDbSymbolTableRecord
100
AcDbBlockTableRecord
  2
*D4
  0
BLOCK_RECORD
  5
65A
100
AcDbSymbolTableRecord
100
AcDbBlockTableRecord
  2
*D5
  0
BLOCK_RECORD
  5
665
100
AcDbSymbolTableRecord
100
AcDbBlockTableRecord
  2
*D6
  0
ENDTAB
  0
ENDSEC
  0
SECTION
  2
BLOCKS
  0
BLOCK
  5
D
100
AcDbEntity
  8
0
100
AcDbBlockBegin
  2
*MODEL_SPACE
 70
             0
 10
0.0
 20
0.0
 30
0.0
  3
*MODEL_SPACE
  1

  0
ENDBLK
  5
E
100
AcDbEntity
  8
0
100
AcDbBlockEnd
  0
BLOCK
  5
F
100
AcDbEntity
 67
             1
  8
0
100
AcDbBlockBegin
  2
*PAPER_SPACE
 70
             0
 10
0.0
 20
0.0
 30
0.0
  3
*PAPER_SPACE
  1

  0
ENDBLK
  5
10
100
AcDbEntity
 67
             1
  8
0
100
AcDbBlockEnd
  0
BLOCK
  5
61F
100
AcDbEntity
  8
0
100
AcDbBlockBegin
  2
*D0
 70
             1
 10
0.0
 20
0.0
 30
0.0
  3
*D0
  1

  0
LINE
  5
620
100
AcDbEntity
  8
0
  6
CONTINUOUS
 62
             2
100
AcDbLine
 10
-11527440.013001999
 20
-4207293.9470889885
 11
-11527478.213567933
 21
-4207293.9470889885
  0
LINE
  5
621
100
AcDbEntity
  8
0
  6
CONTINUOUS
 62
             2
100
AcDbLine
 10
-11527478.213567933
 20
-4207317.335855728
 11
-11527478.213567933
 21
-4207292.4470889885
  0
LINE
  5
622
100
AcDbEntity
  8
0
  6
CONTINUOUS
 62
             2
100
AcDbLine
 10
-11527440.013001999
 20
-4207317.335855728
 11
-11527440.013001999
 21
-4207292.4470889885
  0
SOLID
  5
623
100
AcDbEntity
  8
0
 62
             2
100
AcDbTrace
 10
-11527443.513001999
 20
-4207294.4078727299
 11
-11527443.513001999
 21
-4207293.4863052471
 12
-11527440.013001999
 22
-4207293.9470889885
 13
-11527440.013001999
 23
-4207293.9470889885
  0
SOLID
  5
624
100
AcDbEntity
  8
0
 62
             2
100
AcDbTrace
 10
-11527474.713567933
 20
-4207293.4863052471
 11
-11527474.713567933
 21
-4207294.4078727299
 12
-11527478.213567933
 22
-4207293.9470889885
 13
-11527478.213567933
 23
-4207293.9470889885
  0
MTEXT
  5
626
100
AcDbEntity
  8
0
 62
             2
100
AcDbMText
 10
-11527465.72709463
 20
-4207291.9470889885
 30
0.0
 40
3.2
 41
0.0
 71
             7
 72
             1
  1
\C2;38.2\C2;\H1.920000;{\Fgdt;`}0.5
  7
CONVERTER_1
 11
0.99999999999706
 21
0.00000242406841
 31
0.0
  0
ENDBLK
  5
627
100
AcDbEntity
  8
0
100
AcDbBlockEnd
  0
BLOCK
  5
62B
100
AcDbEntity
  8
0
100
AcDbBlockBegin
  2
*D1
 70
             1
 10
0.0
 20
0.0
 30
0.0
  3
*D1
  1

  0
LINE
  5
62C
100
AcDbEntity
  8
0
  6
CONTINUOUS
 62
             2
100
AcDbLine
 10
-11527478.213567929
 20
-4207303.8769690599
 11
-11527485.61922189
 21
-4207303.8769690599
  0
LINE
  5
62D
100
AcDbEntity
  8
0
  6
CONTINUOUS
 62
             2
100
AcDbLine
 10
-11527473.213493852
 20
-4207303.8769690599
 11
-11527478.213567929
 21
-4207303.8769690599
  0
LINE
  5
62E
100
AcDbEntity
  8
0
  6
CONTINUOUS
 62
             2
100
AcDbLine
 10
-11527466.213493852
 20
-4207303.8769690599
 11
-11527473.213493852
 21
-4207303.8769690599
  0
LINE
  5
62F
100
AcDbEntity
  8
0
  6
CONTINUOUS
 62
             2
100
AcDbLine
 10
-11527478.213567929
 20
-4207317.335855728
 11
-11527478.213567929
 21
-4207302.3769690599
  0
LINE
  5
630
100
AcDbEntity
  8
0
  6
CONTINUOUS
 62
             2
100
AcDbLine
 10
-11527473.213493852
 20
-4207317.335855728
 11
-11527473.213493852
 21
-4207302.3769690599
  0
SOLID
  5
631
100
AcDbEntity
  8
0
 62
             2
100
AcDbTrace
 10
-11527469.713493852
 20
-4207303.4161853185
 11
-11527469.713493852
 21
-4207304.3377528014
 12
-11527473.213493852
 22
-4207303.8769690599
 13
-11527473.213493852
 23
-4207303.8769690599
  0
SOLID
  5
632
100
AcDbEntity
  8
0
 62
             2
100
AcDbTrace
 10
-11527481.713567929
 20
-4207304.3377528014
 11
-11527481.713567929
 21
-4207303.4161853185
 12
-11527478.213567929
 22
-4207303.8769690599
 13
-11527478.213567929
 23
-4207303.8769690599
  0
MTEXT
  5
633
100
AcDbEntity
  8
0
 62
             2
100
AcDbMText
 10
-11527485.61922189
 20
-4207301.8769690599
 30
0.0
 40
3.2
 41
0.0
 71
             7
 72
             1
  1
5
  7
CONVERTER_1
 11
0.99999999999706
 21
0.00000242406841
 31
0.0
  0
ENDBLK
  5
634
100
AcDbEntity
  8
0
100
AcDbBlockEnd
  0
BLOCK
  5
638
100
AcDbEntity
  8
0
100
AcDbBlockBegin
  2
*D2
 70
             1
 10
0.0
 20
0.0
 30
0.0
  3
*D2
  1

  0
LINE
  5
639
100
AcDbEntity
  8
0
  6
CONTINUOUS
 62
             2
100
AcDbLine
 10
-11527445.013076063
 20
-4207303.8769690599
 11
-11527452.013076063
 21
-4207303.8769690599
  0
LINE
  5
63A
100
AcDbEntity
  8
0
  6
CONTINUOUS
 62
             2
100
AcDbLine
 10
-11527440.01300199
 20
-4207303.8769690599
 11
-11527445.013076063
 21
-4207303.8769690599
  0
LINE
  5
63B
100
AcDbEntity
  8
0
  6
CONTINUOUS
 62
             2
100
AcDbLine
 10
-11527430.21020435
 20
-4207303.8769690599
 11
-11527440.01300199
 21
-4207303.8769690599
  0
LINE
  5
63C
100
AcDbEntity
  8
0
  6
CONTINUOUS
 62
             2
100
AcDbLine
 10
-11527445.013076063
 20
-4207317.335855728
 11
-11527445.013076063
 21
-4207302.3769690599
  0
LINE
  5
63D
100
AcDbEntity
  8
0
  6
CONTINUOUS
 62
             2
100
AcDbLine
 10
-11527440.01300199
 20
-4207317.335855728
 11
-11527440.01300199
 21
-4207302.3769690599
  0
SOLID
  5
63E
100
AcDbEntity
  8
0
 62
             2
100
AcDbTrace
 10
-11527436.51300199
 20
-4207303.4161853185
 11
-11527436.51300199
 21
-4207304.3377528014
 12
-11527440.01300199
 22
-4207303.8769690599
 13
-11527440.01300199
 23
-4207303.8769690599
  0
SOLID
  5
63F
100
AcDbEntity
  8
0
 62
             2
100
AcDbTrace
 10
-11527448.513076063
 20
-4207304.3377528014
 11
-11527448.513076063
 21
-4207303.4161853185
 12
-11527445.013076063
 22
-4207303.8769690599
 13
-11527445.013076063
 23
-4207303.8769690599
  0
MTEXT
  5
640
100
AcDbEntity
  8
0
 62
             2
100
AcDbMText
 10
-11527432.130204352
 20
-4207301.8769690599
 30
0.0
 40
3.2
 41
0.0
 71
             7
 72
             1
  1
5
  7
CONVERTER_1
 11
0.99999999999706
 21
0.00000242406841
 31
0.0
  0
ENDBLK
  5
641
100
AcDbEntity
  8
0
100
AcDbBlockEnd
  0
BLOCK
  5
645
100
AcDbEntity
  8
0
100
AcDbBlockBegin
  2
*D3
 70
             1
 10
0.0
 20
0.0
 30
0.0
  3
*D3
  1

  0
LINE
  5
646
100
AcDbEntity
  8
0
  6
CONTINUOUS
 62
             2
100
AcDbLine
 10
-11527653.50241168
 20
-4207294.5541147208
 11
-11527708.487734327
 21
-4207294.5541147208
  0
LINE
  5
647
100
AcDbEntity
  8
0
  6
CONTINUOUS
 62
             2
100
AcDbLine
 10
-11527708.487734327
 20
-4207329.380417753
 11
-11527708.487734327
 21
-4207293.0541147208
  0
LINE
  5
648
100
AcDbEntity
  8
0
  6
CONTINUOUS
 62
             2
100
AcDbLine
 10
-11527653.50241168
 20
-4207317.3947650241
 11
-11527653.50241168
 21
-4207293.0541147208
  0
SOLID
  5
649
100
AcDbEntity
  8
0
 62
             2
100
AcDbTrace
 10
-11527657.00241168
 20
-4207295.0148984622
 11
-11527657.00241168
 21
-4207294.0933309793
 12
-11527653.50241168
 22
-4207294.5541147208
 13
-11527653.50241168
 23
-4207294.5541147208
  0
SOLID
  5
64A
100
AcDbEntity
  8
0
 62
             2
100
AcDbTrace
 10
-11527704.987734327
 20
-4207294.0933309793
 11
-11527704.987734327
 21
-4207295.0148984622
 12
-11527708.487734327
 22
-4207294.5541147208
 13
-11527708.487734327
 23
-4207294.5541147208
  0
MTEXT
  5
64B
100
AcDbEntity
  8
0
 62
             2
100
AcDbMText
 10
-11527689.13245617
 20
-4207292.5541147208
 30
0.0
 40
3.2
 41
0.0
 71
             7
 72
             1
  1
\C2;300\C2;\H1.920000;{\Fgdt;`}30
  7
CONVERTER_1
 11
0.99999999999706
 21
0.00000242406841
 31
0.0
  0
ENDBLK
  5
64C
100
AcDbEntity
  8
0
100
AcDbBlockEnd
  0
BLOCK
  5
650
100
AcDbEntity
  8
0
100
AcDbBlockBegin
  2
*D4
 70
             1
 10
0.0
 20
0.0
 30
0.0
  3
*D4
  1

  0
LINE
  5
651
100
AcDbEntity
  8
0
  6
CONTINUOUS
 62
             2
100
AcDbLine
 10
-11527653.502411684
 20
-4207294.5541147208
 11
-11527534.516762549
 21
-4207294.5541147208
  0
LINE
  5
652
100
AcDbEntity
  8
0
  6
CONTINUOUS
 62
             2
100
AcDbLine
 10
-11527534.516762549
 20
-4207317.3947650241
 11
-11527534.516762549
 21
-4207293.0541147208
  0
LINE
  5
653
100
AcDbEntity
  8
0
  6
CONTINUOUS
 62
             2
100
AcDbLine
 10
-11527653.502411684
 20
-4207317.3947650241
 11
-11527653.502411684
 21
-4207293.0541147208
  0
SOLID
  5
654
100
AcDbEntity
  8
0
 62
             2
100
AcDbTrace
 10
-11527650.002411684
 20
-4207294.0933309793
 11
-11527650.002411684
 21
-4207295.0148984622
 12
-11527653.502411684
 22
-4207294.5541147208
 13
-11527653.502411684
 23
-4207294.5541147208
  0
SOLID
  5
655
100
AcDbEntity
  8
0
 62
             2
100
AcDbTrace
 10
-11527538.016762549
 20
-4207295.0148984622
 11
-11527538.016762549
 21
-4207294.0933309793
 12
-11527534.516762549
 22
-4207294.5541147208
 13
-11527534.516762549
 23
-4207294.5541147208
  0
MTEXT
  5
656
100
AcDbEntity
  8
0
 62
             2
100
AcDbMText
 10
-11527603.518918453
 20
-4207292.9822715186
 30
0.0
 40
3.2
 41
0.0
 71
             7
 72
             1
  1
\C2; \C2;\C2;119\C2;\H1.920000;{\Fgdt;`}0.5
  7
CONVERTER_1
 11
0.99999999999706
 21
0.00000242406841
 31
0.0
  0
ENDBLK
  5
657
100
AcDbEntity
  8
0
100
AcDbBlockEnd
  0
BLOCK
  5
65B
100
AcDbEntity
  8
0
100
AcDbBlockBegin
  2
*D5
 70
             1
 10
0.0
 20
0.0
 30
0.0
  3
*D5
  1

  0
LINE
  5
65C
100
AcDbEntity
  8
0
  6
CONTINUOUS
 62
             2
100
AcDbLine
 10
-11527646.403267913
 20
-4207303.7778034527
 11
-11527541.615906324
 21
-4207303.7778034527
  0
LINE
  5
65D
100
AcDbEntity
  8
0
  6
CONTINUOUS
 62
             2
100
AcDbLine
 10
-11527541.615906324
 20
-4207316.3798823496
 11
-11527541.615906324
 21
-4207302.2778034527
  0
LINE
  5
65E
100
AcDbEntity
  8
0
  6
CONTINUOUS
 62
             2
100
AcDbLine
 10
-11527646.403267913
 20
-4207316.0620847195
 11
-11527646.403267913
 21
-4207302.2778034527
  0
SOLID
  5
65F
100
AcDbEntity
  8
0
 62
             2
100
AcDbTrace
 10
-11527642.903267913
 20
-4207303.3170197112
 11
-11527642.903267913
 21
-4207304.2385871941
 12
-11527646.403267913
 22
-4207303.7778034527
 13
-11527646.403267913
 23
-4207303.7778034527
  0
SOLID
  5
660
100
AcDbEntity
  8
0
 62
             2
100
AcDbTrace
 10
-11527545.115906324
 20
-4207304.2385871941
 11
-11527545.115906324
 21
-4207303.3170197112
 12
-11527541.615906324
 22
-4207303.7778034527
 13
-11527541.615906324
 23
-4207303.7778034527
  0
MTEXT
  5
661
100
AcDbEntity
  8
0
 62
             2
100
AcDbMText
 10
-11527602.824203664
 20
-4207303.1661186749
 30
0.0
 40
3.2
 41
0.0
 71
             7
 72
             1
  1
\C2; \C2;\C2;104.8\C2;\H1.920000;{\Fgdt;`}0.3
  7
CONVERTER_1
 11
0.99999999999706
 21
0.00000242406841
 31
0.0
  0
ENDBLK
  5
662
100
AcDbEntity
  8
0
100
AcDbBlockEnd
  0
BLOCK
  5
666
100
AcDbEntity
  8
0
100
AcDbBlockBegin
  2
*D6
 70
             1
 10
0.0
 20
0.0
 30
0.0
  3
*D6
  1

  0
LINE
  5
667
100
AcDbEntity
  8
0
  6
CONTINUOUS
 62
             2
100
AcDbLine
 10
-11527549.018718479
 20
-4207440.328212182
 11
-11527521.994718479
 21
-4207440.328212182
  0
LINE
  5
668
100
AcDbEntity
  8
0
  6
CONTINUOUS
 62
             2
100
AcDbLine
 10
-11527542.664812008
 20
-4207428.2719979426
 11
-11527549.018718479
 21
-4207440.328212182
  0
SOLID
  5
669
100
AcDbEntity
  8
0
 62
             2
100
AcDbTrace
 10
-11527543.784072237
 20
-4207431.29933012
 11
-11527544.529465593
 21
-4207430.9064904135
 12
-11527542.664812008
 22
-4207428.2719979426
 13
-11527542.664812008
 23
-4207428.2719979426
  0
MTEXT
  5
66A
100
AcDbEntity
  8
0
 62
             2
100
AcDbMText
 10
-11527542.410718478
 20
-4207438.328212182
 30
0.0
 40
3.2
 41
0.0
 71
             7
 72
             1
  1
\C2;8-{\Fgdt;n}\C2;\C2;4.5\C2;\H1.920000;{\Fgdt;`}0.3
  7
CONVERTER_1
  0
ENDBLK
  5
66B
100
AcDbEntity
  8
0
100
AcDbBlockEnd
  0
ENDSEC
  0
SECTION
  2
ENTITIES
  0
DIMENSION
  5
664
100
AcDbEntity
  8
1
100
AcDbDimension
  2
*D5
 10
-11527646.403267913
 20
-4207303.7778034527
 11
-11527590.974791899
 21
-4207301.5661059534
 31
0.0
 53
0.00013888888889
  1
 104.8
  3
ME10_DIM_5
100
AcDbAlignedDimension
 13
-11527541.615906321
 23
-4207317.3798823496
 14
-11527646.403267911
 24
-4207317.0620847195
100
AcDbRotatedDimension
  0
DIMENSION
  5
659
100
AcDbEntity
  8
1
100
AcDbDimension
  2
*D4
 10
-11527653.502411684
 20
-4207294.5541147208
 11
-11527594.189506689
 21
-4207291.3822587971
 31
0.0
 53
0.00013888888889
  1
 119
  3
ME10_DIM_4
100
AcDbAlignedDimension
 13
-11527534.516762551
 23
-4207318.3947650241
 14
-11527653.50241168
 24
-4207318.3947650241
100
AcDbRotatedDimension
  0
DIMENSION
  5
64E
100
AcDbEntity
  8
1
100
AcDbDimension
  2
*D3
 10
-11527653.50241168
 20
-4207294.5541147208
 11
-11527682.38045617
 21
-4207290.9541147212
 31
0.0
 53
0.00013888888889
  1
300
  3
ME10_DIM_3
100
AcDbAlignedDimension
 13
-11527708.487734331
 23
-4207330.380417753
 14
-11527653.50241168
 24
-4207318.3947650241
100
AcDbRotatedDimension
  0
DIMENSION
  5
643
100
AcDbEntity
  8
1
100
AcDbDimension
  2
*D2
 10
-11527440.01300199
 20
-4207303.8769690599
 11
-11527431.170204351
 21
-4207300.2769690603
 31
0.0
 53
0.00013888888889
  1
5
  3
ME10_DIM_2
100
AcDbAlignedDimension
 13
-11527445.013076071
 23
-4207318.335855728
 14
-11527440.01300199
 24
-4207318.335855728
100
AcDbRotatedDimension
  0
DIMENSION
  5
636
100
AcDbEntity
  8
1
100
AcDbDimension
  2
*D1
 10
-11527473.213493852
 20
-4207303.8769690599
 11
-11527484.659221889
 21
-4207300.2769690603
 31
0.0
 53
0.00013888888889
  1
5
  3
ME10_DIM_1
100
AcDbAlignedDimension
 13
-11527478.213567929
 23
-4207318.335855728
 14
-11527473.21349385
 24
-4207318.335855728
100
AcDbRotatedDimension
  0
DIMENSION
  5
629
100
AcDbEntity
  8
1
100
AcDbDimension
  2
*D0
 10
-11527440.013001999
 20
-4207293.9470889885
 11
-11527458.01509463
 21
-4207290.3470889889
 31
0.0
 53
0.00013888888889
  1
38.2
  3
ME10_DIM_0
100
AcDbAlignedDimension
 13
-11527478.213567929
 23
-4207318.335855728
 14
-11527440.01300199
 24
-4207318.335855728
100
AcDbRotatedDimension
  0
LWPOLYLINE
  5
61D
100
AcDbEntity
  8
0
  6
CONTINUOUS
 62
             3
100
AcDbPolyline
 90
        4
 70
             0
 10
-11527572.34562308
 20
-4207351.2554872651
 10
-11527570.39247389
 20
-4207349.3870138004
 10
-11527570.39247389
 20
-4207349.3870138004
 10
-11527569.396928661
 20
-4207348.5063237427
  0
LWPOLYLINE
  5
61B
100
AcDbEntity
  8
0
  6
CONTINUOUS
 62
             3
100
AcDbPolyline
 90
        4
 70
             0
 10
-11527558.83956022
 20
-4207342.3143343031
 10
-11527557.81972703
 20
-4207341.9231078541
 10
-11527557.81972703
 20
-4207341.9231078541
 10
-11527556.284945659
 20
-4207341.4364244733
  0
LWPOLYLINE
  5
619
100
AcDbEntity
  8
0
  6
CONTINUOUS
 62
             3
100
AcDbPolyline
 90
        4
 70
             0
 10
-11527584.12099617
 20
-4207340.7301215138
 10
-11527584.19752029
 20
-4207340.914396639
 10
-11527584.19752029
 20
-4207340.914396639
 10
-11527585.20322256
 20
-4207343.6481481763
  0
LWPOLYLINE
  5
617
100
AcDbEntity
  8
0
  6
CONTINUOUS
 62
             3
100
AcDbPolyline
 90
       32
 70
             0
 10
-11527561.029237259
 20
-4207413.5972340582
 10
-11527564.67031263
 20
-4207413.7091099909
 10
-11527564.67031263
 20
-4207413.7091099909
 10
-11527567.66038122
 20
-4207413.7448049597
 10
-11527567.66038122
 20
-4207413.7448049597
 10
-11527569.48653733
 20
-4207413.670371931
 10
-11527569.48653733
 20
-4207413.670371931
 10
-11527570.60959731
 20
-4207413.5222144676
 10
-11527570.60959731
 20
-4207413.5222144676
 10
-11527571.505052069
 20
-4207413.3003590014
 10
-11527571.505052069
 20
-4207413.3003590014
 10
-11527572.3818097
 20
-4207412.9258702612
 10
-11527572.3818097
 20
-4207412.9258702612
 10
-11527573.24147436
 20
-4207412.3968242388
 10
-11527573.24147436
 20
-4207412.3968242388
 10
-11527574.09052098
 20
-4207411.7036894485
 10
-11527574.09052098
 20
-4207411.7036894485
 10
-11527574.93522777
 20
-4207410.8297751313
 10
-11527574.93522777
 20
-4207410.8297751313
 10
-11527575.86969509
 20
-4207409.7836284349
 10
-11527575.86969509
 20
-4207409.7836284349
 10
-11527577.559603021
 20
-4207407.805918511
 10
-11527577.559603021
 20
-4207407.805918511
 10
-11527578.67896265
 20
-4207406.3914385354
 10
-11527578.67896265
 20
-4207406.3914385354
 10
-11527579.49437847
 20
-4207405.1571355863
 10
-11527579.49437847
 20
-4207405.1571355863
 10
-11527580.12760083
 20
-4207403.9597521853
 10
-11527580.12760083
 20
-4207403.9597521853
 10
-11527580.648902871
 20
-4207402.6302093081
 10
-11527580.648902871
 20
-4207402.6302093081
 10
-11527580.706464561
 20
-4207402.4390310207
  0
LWPOLYLINE
  5
615
100
AcDbEntity
  8
0
  6
CONTINUOUS
 62
             3
100
AcDbPolyline
 90
       28
 70
             0
 10
-11527616.52672586
 20
-4207327.4319006177
 10
-11527613.193336541
 20
-4207328.0832708431
 10
-11527613.193336541
 20
-4207328.0832708431
 10
-11527610.968066949
 20
-4207328.5720405113
 10
-11527610.968066949
 20
-4207328.5720405113
 10
-11527609.19259429
 20
-4207329.070475813
 10
-11527609.19259429
 20
-4207329.070475813
 10
-11527607.656901689
 20
-4207329.6294704396
 10
-11527607.656901689
 20
-4207329.6294704396
 10
-11527606.76575442
 20
-4207330.0420248173
 10
-11527606.76575442
 20
-4207330.0420248173
 10
-11527605.92045128
 20
-4207330.6058841432
 10
-11527605.92045128
 20
-4207330.6058841432
 10
-11527605.17701982
 20
-4207331.2884828169
 10
-11527605.17701982
 20
-4207331.2884828169
 10
-11527604.4917816
 20
-4207332.1206297213
 10
-11527604.4917816
 20
-4207332.1206297213
 10
-11527603.88199405
 20
-4207333.0983894309
 10
-11527603.88199405
 20
-4207333.0983894309
 10
-11527603.26431473
 20
-4207334.2438436374
 10
-11527603.26431473
 20
-4207334.2438436374
 10
-11527601.749530939
 20
-4207337.2595989415
 10
-11527601.749530939
 20
-4207337.2595989415
 10
-11527601.024790641
 20
-4207338.8911870848
 10
-11527601.024790641
 20
-4207338.8911870848
 10
-11527600.55485611
 20
-4207340.2738985093
 10
-11527600.55485611
 20
-4207340.2738985093
 10
-11527600.49789908
 20
-4207340.5186733156
  0
LWPOLYLINE
  5
613
100
AcDbEntity
  8
0
  6
CONTINUOUS
 62
             3
100
AcDbPolyline
 90
       32
 70
             0
 10
-11527642.841394011
 20
-4207390.6412944477
 10
-11527641.79751184
 20
-4207387.4252737733
 10
-11527641.79751184
 20
-4207387.4252737733
 10
-11527641.04249339
 20
-4207385.2702616323
 10
-11527641.04249339
 20
-4207385.2702616323
 10
-11527640.332393941
 20
-4207383.5636882186
 10
-11527640.332393941
 20
-4207383.5636882186
 10
-11527639.59125971
 20
-4207382.1029383717
 10
-11527639.59125971
 20
-4207382.1029383717
 10
-11527639.074433271
 20
-4207381.2678750725
 10
-11527639.074433271
 20
-4207381.2678750725
 10
-11527638.413552031
 20
-4207380.4971666522
 10
-11527638.413552031
 20
-4207380.4971666522
 10
-11527637.64563108
 20
-4207379.8401080901
 10
-11527637.64563108
 20
-4207379.8401080901
 10
-11527636.73690924
 20
-4207379.2596439617
 10
-11527636.73690924
 20
-4207379.2596439617
 10
-11527635.69323786
 20
-4207378.7723666951
 10
-11527635.69323786
 20
-4207378.7723666951
 10
-11527634.48418558
 20
-4207378.2980201691
 10
-11527634.48418558
 20
-4207378.2980201691
 10
-11527631.33327622
 20
-4207377.1664986489
 10
-11527631.33327622
 20
-4207377.1664986489
 10
-11527629.629310019
 20
-4207376.6421337128
 10
-11527629.629310019
 20
-4207376.6421337128
 10
-11527628.197733721
 20
-4207376.3387062568
 10
-11527628.197733721
 20
-4207376.3387062568
 10
-11527626.876047719
 20
-4207376.1925812578
 10
-11527626.876047719
 20
-4207376.1925812578
 10
-11527625.46307658
 20
-4207376.1951096654
 10
-11527625.46307658
 20
-4207376.1951096654
 10
-11527625.4223432
 20
-4207376.1982213957
  0
LWPOLYLINE
  5
611
100
AcDbEntity
  8
0
  6
CONTINUOUS
 62
             3
100
AcDbPolyline
 90
       32
 70
             0
 10
-11527568.576090081
 20
-4207328.9699412938
 10
-11527567.209508769
 20
-4207332.2621782301
 10
-11527567.209508769
 20
-4207332.2621782301
 10
-11527566.093382001
 20
-4207335.0976729533
 10
-11527566.093382001
 20
-4207335.0976729533
 10
-11527565.51599618
 20
-4207336.8267032271
 10
-11527565.51599618
 20
-4207336.8267032271
 10
-11527565.25449414
 20
-4207337.9252967723
 10
-11527565.25449414
 20
-4207337.9252967723
 10
-11527565.141470701
 20
-4207338.845326188
 10
-11527565.141470701
 20
-4207338.845326188
 10
-11527565.1777231
 20
-4207339.8040097412
 10
-11527565.1777231
 20
-4207339.8040097412
 10
-11527565.364911869
 20
-4207340.8013726687
 10
-11527565.364911869
 20
-4207340.8013726687
 10
-11527565.709281091
 20
-4207341.8421880687
 10
-11527565.709281091
 20
-4207341.8421880687
 10
-11527566.223686559
 20
-4207342.9375921264
 10
-11527566.223686559
 20
-4207342.9375921264
 10
-11527566.86403943
 20
-4207344.1716349628
 10
-11527566.86403943
 20
-4207344.1716349628
 10
-11527568.20214431
 20
-4207346.607567898
 10
-11527568.20214431
 20
-4207346.607567898
 10
-11527569.14416701
 20
-4207348.1626553461
 10
-11527569.14416701
 20
-4207348.1626553461
 10
-11527570.013446219
 20
-4207349.3445743704
 10
-11527570.013446219
 20
-4207349.3445743704
 10
-11527570.909568399
 20
-4207350.3407480782
 10
-11527570.909568399
 20
-4207350.3407480782
 10
-11527571.97132843
 20
-4207351.2835097853
 10
-11527571.97132843
 20
-4207351.2835097853
 10
-11527572.02933567
 20
-4207351.3276012922
  0
LWPOLYLINE
  5
60F
100
AcDbEntity
  8
0
  6
CONTINUOUS
 62
             3
100
AcDbPolyline
 90
       32
 70
             0
 10
-11527542.594597571
 20
-4207369.3031611657
 10
-11527544.57394789
 20
-4207372.3678743653
 10
-11527544.57394789
 20
-4207372.3678743653
 10
-11527546.241009491
 20
-4207374.8455637842
 10
-11527546.241009491
 20
-4207374.8455637842
 10
-11527547.339879351
 20
-4207376.3063723352
 10
-11527547.339879351
 20
-4207376.3063723352
 10
-11527548.100107091
 20
-4207377.1465429869
 10
-11527548.100107091
 20
-4207377.1465429869
 10
-11527548.79126142
 20
-4207377.7571269516
 10
-11527548.79126142
 20
-4207377.7571269516
 10
-11527549.597301081
 20
-4207378.2655364554
 10
-11527549.597301081
 20
-4207378.2655364554
 10
-11527550.520808861
 20
-4207378.6720952652
 10
-11527550.520808861
 20
-4207378.6720952652
 10
-11527551.57360054
 20
-4207378.9768884191
 10
-11527551.57360054
 20
-4207378.9768884191
 10
-11527552.773055529
 20
-4207379.1756089944
 10
-11527552.773055529
 20
-4207379.1756089944
 10
-11527554.16579593
 20
-4207379.3504403839
 10
-11527554.16579593
 20
-4207379.3504403839
 10
-11527556.74188978
 20
-4207379.6167387702
 10
-11527556.74188978
 20
-4207379.6167387702
 10
-11527558.54102258
 20
-4207379.7350005396
 10
-11527558.54102258
 20
-4207379.7350005396
 10
-11527560.020752219
 20
-4207379.705775707
 10
-11527560.020752219
 20
-4207379.705775707
 10
-11527561.366908129
 20
-4207379.5474956539
 10
-11527561.366908129
 20
-4207379.5474956539
 10
-11527562.75796671
 20
-4207379.2220205599
 10
-11527562.75796671
 20
-4207379.2220205599
 10
-11527562.955523331
 20
-4207379.1584363524
  0
LWPOLYLINE
  5
60D
100
AcDbEntity
  8
0
  6
CONTINUOUS
 62
             3
100
AcDbPolyline
 90
       32
 70
             0
 10
-11527635.534528559
 20
-4207343.2257864131
 10
-11527632.121639671
 20
-4207342.2713862993
 10
-11527632.121639671
 20
-4207342.2713862993
 10
-11527629.15748718
 20
-4207341.5008705901
 10
-11527629.15748718
 20
-4207341.5008705901
 10
-11527627.37292948
 20
-4207341.1361553222
 10
-11527627.37292948
 20
-4207341.1361553222
 10
-11527626.25172119
 20
-4207341.0083851172
 10
-11527626.25172119
 20
-4207341.0083851172
 10
-11527625.32354402
 20
-4207341.006478982
 10
-11527625.32354402
 20
-4207341.006478982
 10
-11527624.37442206
 20
-4207341.1574728293
 10
-11527624.37442206
 20
-4207341.1574728293
 10
-11527623.40523213
 20
-4207341.4630536186
 10
-11527623.40523213
 20
-4207341.4630536186
 10
-11527622.41316418
 20
-4207341.9297511196
 10
-11527622.41316418
 20
-4207341.9297511196
 10
-11527621.388771011
 20
-4207342.5715220878
 10
-11527621.388771011
 20
-4207342.5715220878
 10
-11527620.243294541
 20
-4207343.3540781932
 10
-11527620.243294541
 20
-4207343.3540781932
 10
-11527617.94021379
 20
-4207345.0104738688
 10
-11527617.94021379
 20
-4207345.0104738688
 10
-11527616.50863996
 20
-4207346.1390277157
 10
-11527616.50863996
 20
-4207346.1390277157
 10
-11527615.44671843
 20
-4207347.1448860457
 10
-11527615.44671843
 20
-4207347.1448860457
 10
-11527614.572701801
 20
-4207348.1541590896
 10
-11527614.572701801
 20
-4207348.1541590896
 10
-11527613.770089271
 20
-4207349.3223955724
 10
-11527613.770089271
 20
-4207349.3223955724
 10
-11527613.755121229
 20
-4207349.3480938002
  0
LWPOLYLINE
  5
60B
100
AcDbEntity
  8
0
  6
CONTINUOUS
 62
             3
100
AcDbPolyline
 90
       32
 70
             0
 10
-11527607.95460037
 20
-4207423.5877335556
 10
-11527610.112317029
 20
-4207420.6585254641
 10
-11527610.112317029
 20
-4207420.6585254641
 10
-11527611.842268961
 20
-4207418.2153481664
 10
-11527611.842268961
 20
-4207418.2153481664
 10
-11527612.81830205
 20
-4207416.6704171207
 10
-11527612.81830205
 20
-4207416.6704171207
 10
-11527613.334381931
 20
-4207415.6622698726
 10
-11527613.334381931
 20
-4207415.6622698726
 10
-11527613.66070497
 20
-4207414.7991128368
 10
-11527613.66070497
 20
-4207414.7991128368
 10
-11527613.85082398
 20
-4207413.8645274369
 10
-11527613.85082398
 20
-4207413.8645274369
 10
-11527613.904016471
 20
-4207412.8562010583
 10
-11527613.904016471
 20
-4207412.8562010583
 10
-11527613.816069661
 20
-4207411.7636717856
 10
-11527613.816069661
 20
-4207411.7636717856
 10
-11527613.576831089
 20
-4207410.5723519791
 10
-11527613.576831089
 20
-4207410.5723519791
 10
-11527613.24694014
 20
-4207409.209774117
 10
-11527613.24694014
 20
-4207409.209774117
 10
-11527612.57661666
 20
-4207406.6860807994
 10
-11527612.57661666
 20
-4207406.6860807994
 10
-11527612.047682701
 20
-4207404.9608483585
 10
-11527612.047682701
 20
-4207404.9608483585
 10
-11527611.49460588
 20
-4207403.5894469451
 10
-11527611.49460588
 20
-4207403.5894469451
 10
-11527610.86857475
 20
-4207402.3891736204
 10
-11527610.86857475
 20
-4207402.3891736204
 10
-11527610.070124321
 20
-4207401.2057001563
 10
-11527610.070124321
 20
-4207401.2057001563
 10
-11527609.94965574
 20
-4207401.0550266234
  0
LWPOLYLINE
  5
609
100
AcDbEntity
  8
0
  6
CONTINUOUS
 62
             3
100
AcDbPolyline
 90
       32
 70
             0
 10
-11527583.26071333
 20
-4207424.3755384963
 10
-11527586.54168552
 20
-4207422.7800202714
 10
-11527586.54168552
 20
-4207422.7800202714
 10
-11527589.20223744
 20
-4207421.4237726722
 10
-11527589.20223744
 20
-4207421.4237726722
 10
-11527590.78485005
 20
-4207420.5089949714
 10
-11527590.78485005
 20
-4207420.5089949714
 10
-11527591.7105307
 20
-4207419.8555802871
 10
-11527591.7105307
 20
-4207419.8555802871
 10
-11527592.39997087
 20
-4207419.2430632468
 10
-11527592.39997087
 20
-4207419.2430632468
 10
-11527593.00182911
 20
-4207418.5041831639
 10
-11527593.00182911
 20
-4207418.5041831639
 10
-11527593.5167385
 20
-4207417.6364147784
 10
-11527593.5167385
 20
-4207417.6364147784
 10
-11527593.94620855
 20
-4207416.6280376231
 10
-11527593.94620855
 20
-4207416.6280376231
 10
-11527594.28805867
 20
-4207415.4612795673
 10
-11527594.28805867
 20
-4207415.4612795673
 10
-11527594.629492341
 20
-4207414.0997636784
 10
-11527594.629492341
 20
-4207414.0997636784
 10
-11527595.204353411
 20
-4207411.5745963054
 10
-11527595.204353411
 20
-4207411.5745963054
 10
-11527595.538616231
 20
-4207409.8028395958
 10
-11527595.538616231
 20
-4207409.8028395958
 10
-11527595.687969919
 20
-4207408.3303738264
 10
-11527595.687969919
 20
-4207408.3303738264
 10
-11527595.69310865
 20
-4207406.9749507206
 10
-11527595.69310865
 20
-4207406.9749507206
 10
-11527595.53768361
 20
-4207405.5548002869
 10
-11527595.53768361
 20
-4207405.5548002869
 10
-11527595.49837013
 20
-4207405.3509890074
  0
LWPOLYLINE
  5
607
100
AcDbEntity
  8
0
  6
CONTINUOUS
 62
             3
100
AcDbPolyline
 90
       32
 70
             0
 10
-11527546.353130121
 20
-4207393.7221245514
 10
-11527549.54544466
 20
-4207395.5244276384
 10
-11527549.54544466
 20
-4207395.5244276384
 10
-11527552.162097851
 20
-4207396.9372537453
 10
-11527552.162097851
 20
-4207396.9372537453
 10
-11527553.81489601
 20
-4207397.7202423764
 10
-11527553.81489601
 20
-4207397.7202423764
 10
-11527554.87954032
 20
-4207398.1106109144
 10
-11527554.87954032
 20
-4207398.1106109144
 10
-11527555.77450316
 20
-4207398.329274971
 10
-11527555.77450316
 20
-4207398.329274971
 10
-11527556.723289371
 20
-4207398.4040089333
 10
-11527556.723289371
 20
-4207398.4040089333
 10
-11527557.72870663
 20
-4207398.3340374157
 10
-11527557.72870663
 20
-4207398.3340374157
 10
-11527558.80234337
 20
-4207398.1139930533
 10
-11527558.80234337
 20
-4207398.1139930533
 10
-11527559.957832569
 20
-4207397.7318954114
 10
-11527559.957832569
 20
-4207397.7318954114
 10
-11527561.27507747
 20
-4207397.2382169338
 10
-11527561.27507747
 20
-4207397.2382169338
 10
-11527563.646697739
 20
-4207396.2907113684
 10
-11527563.646697739
 20
-4207396.2907113684
 10
-11527565.29331224
 20
-4207395.5619906001
 10
-11527565.29331224
 20
-4207395.5619906001
 10
-11527566.593080379
 20
-4207394.8498175042
 10
-11527566.593080379
 20
-4207394.8498175042
 10
-11527567.715373
 20
-4207394.0847424977
 10
-11527567.715373
 20
-4207394.0847424977
 10
-11527568.79895753
 20
-4207393.151138206
 10
-11527568.79895753
 20
-4207393.151138206
 10
-11527568.96146409
 20
-4207392.9858979369
  0
LWPOLYLINE
  5
605
100
AcDbEntity
  8
0
  6
CONTINUOUS
 62
             3
100
AcDbPolyline
 90
       32
 70
             0
 10
-11527592.36368659
 20
-4207322.2953179404
 10
-11527589.56348424
 20
-4207324.6265947614
 10
-11527589.56348424
 20
-4207324.6265947614
 10
-11527587.3021782
 20
-4207326.5822834661
 10
-11527587.3021782
 20
-4207326.5822834661
 10
-11527585.984614089
 20
-4207327.8490019673
 10
-11527585.984614089
 20
-4207327.8490019673
 10
-11527585.242233271
 20
-4207328.7046755077
 10
-11527585.242233271
 20
-4207328.7046755077
 10
-11527584.71914069
 20
-4207329.4645112539
 10
-11527584.71914069
 20
-4207329.4645112539
 10
-11527584.311267881
 20
-4207330.32617852
 10
-11527584.311267881
 20
-4207330.32617852
 10
-11527584.01867708
 20
-4207331.2921962654
 10
-11527584.01867708
 20
-4207331.2921962654
 10
-11527583.842822241
 20
-4207332.3740391899
 10
-11527583.842822241
 20
-4207332.3740391899
 10
-11527583.79007237
 20
-4207333.5883751214
 10
-11527583.79007237
 20
-4207333.5883751214
 10
-11527583.78434534
 20
-4207334.9912340278
 10
-11527583.78434534
 20
-4207334.9912340278
 10
-11527583.83083611
 20
-4207337.5904505141
 10
-11527583.83083611
 20
-4207337.5904505141
 10
-11527583.930857381
 20
-4207339.3913619043
 10
-11527583.930857381
 20
-4207339.3913619043
 10
-11527584.13888758
 20
-4207340.8560941238
 10
-11527584.13888758
 20
-4207340.8560941238
 10
-11527584.45882765
 20
-4207342.172419033
 10
-11527584.45882765
 20
-4207342.172419033
 10
-11527584.950175909
 20
-4207343.5134068271
 10
-11527584.950175909
 20
-4207343.5134068271
 10
-11527585.03435467
 20
-4207343.6957595339
  0
LWPOLYLINE
  5
603
100
AcDbEntity
  8
0
  6
CONTINUOUS
 62
             3
100
AcDbPolyline
 90
       32
 70
             0
 10
-11527645.027655849
 20
-4207366.0354817025
 10
-11527642.417671051
 20
-4207363.5752393724
 10
-11527642.417671051
 20
-4207363.5752393724
 10
-11527640.17396534
 20
-4207361.5374817429
 10
-11527640.17396534
 20
-4207361.5374817429
 10
-11527638.76073619
 20
-4207360.383778004
 10
-11527638.76073619
 20
-4207360.383778004
 10
-11527637.82507751
 20
-4207359.7498005712
 10
-11527637.82507751
 20
-4207359.7498005712
 10
-11527637.005745649
 20
-4207359.3190589407
 10
-11527637.005745649
 20
-4207359.3190589407
 10
-11527636.097882699
 20
-4207359.0144113889
 10
-11527636.097882699
 20
-4207359.0144113889
 10
-11527635.100283431
 20
-4207358.8370429436
 10
-11527635.100283431
 20
-4207358.8370429436
 10
-11527634.00502095
 20
-4207358.790739079
 10
-11527634.00502095
 20
-4207358.790739079
 10
-11527632.796952991
 20
-4207358.8836650327
 10
-11527632.796952991
 20
-4207358.8836650327
 10
-11527631.412720559
 20
-4207359.0454179943
 10
-11527631.412720559
 20
-4207359.0454179943
 10
-11527628.71328852
 20
-4207359.4244499672
 10
-11527628.71328852
 20
-4207359.4244499672
 10
-11527626.92926559
 20
-4207359.7496684762
 10
-11527626.92926559
 20
-4207359.7496684762
 10
-11527625.510941541
 20
-4207360.1401606109
 10
-11527625.510941541
 20
-4207360.1401606109
 10
-11527624.255974431
 20
-4207360.6222433764
 10
-11527624.255974431
 20
-4207360.6222433764
 10
-11527622.99382044
 20
-4207361.2779813958
 10
-11527622.99382044
 20
-4207361.2779813958
 10
-11527622.898824049
 20
-4207361.3371211849
  0
LWPOLYLINE
  5
601
100
AcDbEntity
  8
0
  6
CONTINUOUS
 62
             3
100
AcDbPolyline
 90
       30
 70
             0
 10
-11527550.61521304
 20
-4207345.9345508711
 10
-11527550.91966805
 20
-4207349.3299595769
 10
-11527550.91966805
 20
-4207349.3299595769
 10
-11527551.25860591
 20
-4207352.4772404414
 10
-11527551.25860591
 20
-4207352.4772404414
 10
-11527551.54726984
 20
-4207354.2646047389
 10
-11527551.54726984
 20
-4207354.2646047389
 10
-11527551.82013943
 20
-4207355.3551323833
 10
-11527551.82013943
 20
-4207355.3551323833
 10
-11527552.14726539
 20
-4207356.2329639234
 10
-11527552.14726539
 20
-4207356.2329639234
 10
-11527552.62662087
 20
-4207357.0798035534
 10
-11527552.62662087
 20
-4207357.0798035534
 10
-11527553.257488471
 20
-4207357.8886325592
 10
-11527553.257488471
 20
-4207357.8886325592
 10
-11527554.04299864
 20
-4207358.6536776153
 10
-11527554.04299864
 20
-4207358.6536776153
 10
-11527554.99899004
 20
-4207359.3797807526
 10
-11527554.99899004
 20
-4207359.3797807526
 10
-11527556.122699801
 20
-4207360.164890972
 10
-11527556.122699801
 20
-4207360.164890972
 10
-11527559.0397822
 20
-4207362.0805740887
 10
-11527559.0397822
 20
-4207362.0805740887
 10
-11527560.521371869
 20
-4207362.918092411
 10
-11527560.521371869
 20
-4207362.918092411
 10
-11527561.81659889
 20
-4207363.495483188
 10
-11527561.81659889
 20
-4207363.495483188
 10
-11527563.04604879
 20
-4207363.8989902269
 10
-11527563.04604879
 20
-4207363.8989902269
 10
-11527564.064829379
 20
-4207364.118957866
  0
LWPOLYLINE
  5
5FF
100
AcDbEntity
  8
0
  6
CONTINUOUS
 62
             3
100
AcDbPolyline
 90
       32
 70
             0
 10
-11527629.453646669
 20
-4207411.4143294189
 10
-11527629.992707061
 20
-4207407.8901983304
 10
-11527629.992707061
 20
-4207407.8901983304
 10
-11527630.39776051
 20
-4207404.8703715578
 10
-11527630.39776051
 20
-4207404.8703715578
 10
-11527630.54458116
 20
-4207403.0533705959
 10
-11527630.54458116
 20
-4207403.0533705959
 10
-11527630.53555613
 20
-4207401.924097565
 10
-11527630.53555613
 20
-4207401.924097565
 10
-11527630.425106309
 20
-4207401.0037864912
 10
-11527630.425106309
 20
-4207401.0037864912
 10
-11527630.160470741
 20
-4207400.0816822983
 10
-11527630.160470741
 20
-4207400.0816822983
 10
-11527629.74003005
 20
-4207399.1581409434
 10
-11527629.74003005
 20
-4207399.1581409434
 10
-11527629.156569621
 20
-4207398.2299935408
 10
-11527629.156569621
 20
-4207398.2299935408
 10
-11527628.39493815
 20
-4207397.2895025704
 10
-11527628.39493815
 20
-4207397.2895025704
 10
-11527627.47781199
 20
-4207396.244510428
 10
-11527627.47781199
 20
-4207396.244510428
 10
-11527625.596518889
 20
-4207394.2005207073
 10
-11527625.596518889
 20
-4207394.2005207073
 10
-11527624.30985507
 20
-4207392.9160872204
 10
-11527624.30985507
 20
-4207392.9160872204
 10
-11527623.182977561
 20
-4207391.9764002943
 10
-11527623.182977561
 20
-4207391.9764002943
 10
-11527622.074466901
 20
-4207391.2234792262
 10
-11527622.074466901
 20
-4207391.2234792262
 10
-11527620.81793935
 20
-4207390.562088904
 10
-11527620.81793935
 20
-4207390.562088904
 10
-11527620.750195719
 20
-4207390.5327812294
  0
LWPOLYLINE
  5
5FD
100
AcDbEntity
  8
0
  6
CONTINUOUS
 62
             3
100
AcDbPolyline
 90
        6
 70
             0
 10
-11527646.05082434
 20
-4207400.0894266861
 10
-11527645.64060648
 20
-4207398.884715572
 10
-11527645.64060648
 20
-4207398.884715572
 10
-11527643.05086403
 20
-4207391.2758723367
 10
-11527643.05086403
 20
-4207391.2758723367
 10
-11527642.833866959
 20
-4207390.6439638995
  0
LWPOLYLINE
  5
5FB
100
AcDbEntity
  8
0
  6
CONTINUOUS
 62
             3
100
AcDbPolyline
 90
        6
 70
             0
 10
-11527537.21017905
 20
-4207360.9023642633
 10
-11527537.896782961
 20
-4207361.9738971069
 10
-11527537.896782961
 20
-4207361.9738971069
 10
-11527542.23218758
 20
-4207368.7418752518
 10
-11527542.23218758
 20
-4207368.7418752518
 10
-11527542.594104679
 20
-4207369.3034907803
  0
LWPOLYLINE
  5
5F9
100
AcDbEntity
  8
0
  6
CONTINUOUS
 62
             3
100
AcDbPolyline
 90
        6
 70
             0
 10
-11527627.913437501
 20
-4207421.2729882207
 10
-11527628.110064819
 20
-4207420.0156317698
 10
-11527628.110064819
 20
-4207420.0156317698
 10
-11527629.35296753
 20
-4207412.0748223504
 10
-11527629.35296753
 20
-4207412.0748223504
 10
-11527629.45448867
 20
-4207411.4144516503
  0
LWPOLYLINE
  5
5F7
100
AcDbEntity
  8
0
  6
CONTINUOUS
 62
             3
100
AcDbPolyline
 90
        6
 70
             0
 10
-11527645.13567155
 20
-4207345.943039313
 10
-11527643.911183439
 20
-4207345.5962880608
 10
-11527643.911183439
 20
-4207345.5962880608
 10
-11527636.17808683
 20
-4207343.4052887131
 10
-11527636.17808683
 20
-4207343.4052887131
 10
-11527635.534768
 20
-4207343.2249088902
  0
LWPOLYLINE
  5
5F5
100
AcDbEntity
  8
0
  6
CONTINUOUS
 62
             3
100
AcDbPolyline
 90
        6
 70
             0
 10
-11527537.681449721
 20
-4207388.7857999131
 10
-11527538.78737342
 20
-4207389.4155143863
 10
-11527538.78737342
 20
-4207389.4155143863
 10
-11527545.771419831
 20
-4207393.393498431
 10
-11527545.771419831
 20
-4207393.393498431
 10
-11527546.352877259
 20
-4207393.7225930151
  0
LWPOLYLINE
  5
5F3
100
AcDbEntity
  8
0
  6
CONTINUOUS
 62
             3
100
AcDbPolyline
 90
        4
 70
             0
 10
-11527549.75095609
 20
-4207335.9938045349
 10
-11527549.7853291
 20
-4207336.3900419902
 10
-11527549.7853291
 20
-4207336.3900419902
 10
-11527550.61412208
 20
-4207345.9346834738
  0
LWPOLYLINE
  5
5F1
100
AcDbEntity
  8
0
  6
CONTINUOUS
 62
             3
100
AcDbPolyline
 90
        6
 70
             0
 10
-11527574.27214773
 20
-4207428.7080942914
 10
-11527575.41862887
 20
-4207428.1556555247
 10
-11527575.41862887
 20
-4207428.1556555247
 10
-11527582.65983611
 20
-4207424.667650504
 10
-11527582.65983611
 20
-4207424.667650504
 10
-11527583.26098112
 20
-4207424.3760674438
  0
LWPOLYLINE
  5
5EF
100
AcDbEntity
  8
0
  6
CONTINUOUS
 62
             3
100
AcDbPolyline
 90
        6
 70
             0
 10
-11527551.056817841
 20
-4207413.2563456316
 10
-11527552.328707529
 20
-4207413.2999817412
 10
-11527552.328707529
 20
-4207413.2999817412
 10
-11527560.361434881
 20
-4207413.5766634746
 10
-11527560.361434881
 20
-4207413.5766634746
 10
-11527561.02922776
 20
-4207413.5978455124
  0
LWPOLYLINE
  5
5ED
100
AcDbEntity
  8
0
  6
CONTINUOUS
 62
             3
100
AcDbPolyline
 90
        6
 70
             0
 10
-11527572.43087369
 20
-4207319.7663527923
 10
-11527571.939054919
 20
-4207320.9401167529
 10
-11527571.939054919
 20
-4207320.9401167529
 10
-11527568.831908621
 20
-4207328.3527345983
 10
-11527568.831908621
 20
-4207328.3527345983
 10
-11527568.57530045
 20
-4207328.9696205277
  0
LWPOLYLINE
  5
5EB
100
AcDbEntity
  8
0
  6
CONTINUOUS
 62
             3
100
AcDbPolyline
 90
        6
 70
             0
 10
-11527626.29278243
 20
-4207325.3844982833
 10
-11527625.047408709
 20
-4207325.6465132954
 10
-11527625.047408709
 20
-4207325.6465132954
 10
-11527617.181883549
 20
-4207327.3002289115
 10
-11527617.181883549
 20
-4207327.3002289115
 10
-11527616.528426331
 20
-4207327.4394756779
  0
LWPOLYLINE
  5
5E9
100
AcDbEntity
  8
0
  6
CONTINUOUS
 62
             3
100
AcDbPolyline
 90
        6
 70
             0
 10
-11527602.0091918
 20
-4207431.6010954799
 10
-11527602.76751467
 20
-4207430.5792799173
 10
-11527602.76751467
 20
-4207430.5792799173
 10
-11527607.558328491
 20
-4207424.1256480524
 10
-11527607.558328491
 20
-4207424.1256480524
 10
-11527607.955110559
 20
-4207423.5880980594
  0
LWPOLYLINE
  5
5E7
100
AcDbEntity
  8
0
  6
CONTINUOUS
 62
             3
100
AcDbPolyline
 90
        6
 70
             0
 10
-11527600.05640756
 20
-4207315.9357188279
 10
-11527599.073243091
 20
-4207316.7482982483
 10
-11527599.073243091
 20
-4207316.7482982483
 10
-11527592.87718641
 20
-4207321.867882506
 10
-11527592.87718641
 20
-4207321.867882506
 10
-11527592.36328999
 20
-4207322.2948561069
  0
LWPOLYLINE
  5
5E5
100
AcDbEntity
  8
0
  6
CONTINUOUS
 62
             3
100
AcDbPolyline
 90
        6
 70
             0
 10
-11527651.998689789
 20
-4207372.6495747464
 10
-11527651.18102337
 20
-4207371.8735492192
 10
-11527651.18102337
 20
-4207371.8735492192
 10
-11527645.6288382
 20
-4207366.6028865669
 10
-11527645.6288382
 20
-4207366.6028865669
 10
-11527645.02770113
 20
-4207366.0354452096
  0
LWPOLYLINE
  5
5E3
100
AcDbEntity
  8
0
  6
CONTINUOUS
 62
             3
100
AcDbPolyline
 90
        4
 70
             0
 10
-11527569.25705597
 20
-4207425.7799288761
 10
-11527569.231100669
 20
-4207422.3972530458
 10
-11527569.231100669
 20
-4207422.3972530458
 10
-11527569.29396932
 20
-4207420.3298948742
  0
LWPOLYLINE
  5
5E1
100
AcDbEntity
  8
0
  6
CONTINUOUS
 62
             3
100
AcDbPolyline
 90
        4
 70
             0
 10
-11527544.74359362
 20
-4207367.0204790318
 10
-11527543.01433412
 20
-4207367.5248437412
 10
-11527543.01433412
 20
-4207367.5248437412
 10
-11527541.783852439
 20
-4207368.0419815611
  0
LWPOLYLINE
  5
5DF
100
AcDbEntity
  8
0
  6
CONTINUOUS
 62
             3
100
AcDbPolyline
 90
        4
 70
             0
 10
-11527594.772163911
 20
-4207413.4730564216
 10
-11527594.29608357
 20
-4207409.8339594714
 10
-11527594.29608357
 20
-4207409.8339594714
 10
-11527593.9514923
 20
-4207405.3842196371
  0
LWPOLYLINE
  5
5DD
100
AcDbEntity
  8
0
  6
CONTINUOUS
 62
             3
100
AcDbPolyline
 90
       14
 70
             0
 10
-11527642.842252091
 20
-4207363.9754609568
 10
-11527642.81004354
 20
-4207363.9976447513
 10
-11527642.81004354
 20
-4207363.9976447513
 10
-11527641.29487803
 20
-4207364.824001343
 10
-11527641.29487803
 20
-4207364.824001343
 10
-11527639.684471659
 20
-4207365.4725257996
 10
-11527639.684471659
 20
-4207365.4725257996
 10
-11527638.016483409
 20
-4207366.0137426378
 10
-11527638.016483409
 20
-4207366.0137426378
 10
-11527633.83654454
 20
-4207367.2888704622
 10
-11527633.83654454
 20
-4207367.2888704622
 10
-11527629.54882461
 20
-4207368.4888584632
 10
-11527629.54882461
 20
-4207368.4888584632
 10
-11527628.013975659
 20
-4207368.8322193967
  0
LWPOLYLINE
  5
5DB
100
AcDbEntity
  8
0
  6
CONTINUOUS
 62
             3
100
AcDbPolyline
 90
        4
 70
             0
 10
-11527566.990469869
 20
-4207420.4542291183
 10
-11527567.098359941
 20
-4207422.3974462906
 10
-11527567.098359941
 20
-4207422.3974462906
 10
-11527567.33966157
 20
-4207424.8210444199
  0
LWPOLYLINE
  5
5D9
100
AcDbEntity
  8
0
  6
CONTINUOUS
 62
             3
100
AcDbPolyline
 90
       14
 70
             0
 10
-11527643.22036672
 20
-4207391.7738830214
 10
-11527642.13828278
 20
-4207391.8960228562
 10
-11527642.13828278
 20
-4207391.8960228562
 10
-11527640.410312161
 20
-4207391.9512337958
 10
-11527640.410312161
 20
-4207391.9512337958
 10
-11527638.68891171
 20
-4207391.8272488704
 10
-11527638.68891171
 20
-4207391.8272488704
 10
-11527636.983532861
 20
-4207391.5021709399
 10
-11527636.983532861
 20
-4207391.5021709399
 10
-11527635.28772793
 20
-4207391.0556889893
 10
-11527635.28772793
 20
-4207391.0556889893
 10
-11527631.08195344
 20
-4207389.8685492072
 10
-11527631.08195344
 20
-4207389.8685492072
 10
-11527630.598426981
 20
-4207389.7198697086
  0
LWPOLYLINE
  5
5D7
100
AcDbEntity
  8
0
  6
CONTINUOUS
 62
             3
100
AcDbPolyline
 90
       12
 70
             0
 10
-11527543.084319171
 20
-4207370.061418172
 10
-11527544.39943669
 20
-4207369.6291900296
 10
-11527544.39943669
 20
-4207369.6291900296
 10
-11527546.08603893
 20
-4207369.2631781437
 10
-11527546.08603893
 20
-4207369.2631781437
 10
-11527547.813922981
 20
-4207369.0946273934
 10
-11527547.813922981
 20
-4207369.0946273934
 10
-11527549.566824401
 20
-4207369.0452602282
 10
-11527549.566824401
 20
-4207369.0452602282
 10
-11527553.936691379
 20
-4207368.9994089073
 10
-11527553.936691379
 20
-4207368.9994089073
 10
-11527557.224435311
 20
-4207369.0412137732
  0
LWPOLYLINE
  5
5D5
100
AcDbEntity
  8
0
  6
CONTINUOUS
 62
             3
100
AcDbPolyline
 90
        4
 70
             0
 10
-11527603.13984129
 20
-4207317.1246060021
 10
-11527604.117755121
 20
-4207320.3629472423
 10
-11527604.117755121
 20
-4207320.3629472423
 10
-11527604.968224339
 20
-4207323.6228632694
  0
LWPOLYLINE
  5
5D3
100
AcDbEntity
  8
0
  6
CONTINUOUS
 62
             3
100
AcDbPolyline
 90
       14
 70
             0
 10
-11527652.00259256
 20
-4207402.5483317114
 10
-11527651.342234511
 20
-4207401.2413392169
 10
-11527651.342234511
 20
-4207401.2413392169
 10
-11527650.470000811
 20
-4207400.2418161621
 10
-11527650.470000811
 20
-4207400.2418161621
 10
-11527649.719037071
 20
-4207399.7894008057
 10
-11527649.719037071
 20
-4207399.7894008057
 10
-11527648.855057679
 20
-4207399.5895250663
 10
-11527648.855057679
 20
-4207399.5895250663
 10
-11527647.88108477
 20
-4207399.6799753504
 10
-11527647.88108477
 20
-4207399.6799753504
 10
-11527646.827960599
 20
-4207400.0579231139
 10
-11527646.827960599
 20
-4207400.0579231139
 10
-11527646.42479286
 20
-4207400.2669257447
  0
LWPOLYLINE
  5
5D1
100
AcDbEntity
  8
0
  6
CONTINUOUS
 62
             3
100
AcDbPolyline
 90
        8
 70
             0
 10
-11527646.05468378
 20
-4207400.0881132456
 10
-11527646.12302692
 20
-4207400.228938017
 10
-11527646.12302692
 20
-4207400.228938017
 10
-11527646.232755549
 20
-4207400.3034013854
 10
-11527646.232755549
 20
-4207400.3034013854
 10
-11527646.35116674
 20
-4207400.2986863134
 10
-11527646.35116674
 20
-4207400.2986863134
 10
-11527646.42479286
 20
-4207400.2669257447
  0
LWPOLYLINE
  5
5CF
100
AcDbEntity
  8
0
  6
CONTINUOUS
 62
             3
100
AcDbPolyline
 90
       16
 70
             0
 10
-11527631.93685798
 20
-4207426.9327471722
 10
-11527632.082500201
 20
-4207425.6780867809
 10
-11527632.082500201
 20
-4207425.6780867809
 10
-11527632.03471664
 20
-4207424.503971722
 10
-11527632.03471664
 20
-4207424.503971722
 10
-11527631.75560504
 20
-4207423.4616161119
 10
-11527631.75560504
 20
-4207423.4616161119
 10
-11527631.30090756
 20
-4207422.7120319586
 10
-11527631.30090756
 20
-4207422.7120319586
 10
-11527630.6287787
 20
-4207422.1335395426
 10
-11527630.6287787
 20
-4207422.1335395426
 10
-11527629.72433418
 20
-4207421.7610015068
 10
-11527629.72433418
 20
-4207421.7610015068
 10
-11527628.616197949
 20
-4207421.6062464304
 10
-11527628.616197949
 20
-4207421.6062464304
 10
-11527628.16208227
 20
-4207421.6039476721
  0
LWPOLYLINE
  5
5CD
100
AcDbEntity
  8
0
  6
CONTINUOUS
 62
             3
100
AcDbPolyline
 90
        8
 70
             0
 10
-11527627.917465281
 20
-4207421.2736188071
 10
-11527627.912535589
 20
-4207421.4300735947
 10
-11527627.912535589
 20
-4207421.4300735947
 10
-11527627.975090619
 20
-4207421.5470010657
 10
-11527627.975090619
 20
-4207421.5470010657
 10
-11527628.0821297
 20
-4207421.5978544923
 10
-11527628.0821297
 20
-4207421.5978544923
 10
-11527628.16208227
 20
-4207421.6039476721
  0
LWPOLYLINE
  5
5CB
100
AcDbEntity
  8
0
  6
CONTINUOUS
 62
             3
100
AcDbPolyline
 90
        8
 70
             0
 10
-11527537.20674607
 20
-4207360.9045631671
 10
-11527537.10668727
 20
-4207360.7841860922
 10
-11527537.10668727
 20
-4207360.7841860922
 10
-11527536.98232693
 20
-4207360.7381462734
 10
-11527536.98232693
 20
-4207360.7381462734
 10
-11527536.86848494
 20
-4207360.7710619858
 10
-11527536.86848494
 20
-4207360.7710619858
 10
-11527536.80459908
 20
-4207360.8195195319
  0
LWPOLYLINE
  5
5C9
100
AcDbEntity
  8
0
  6
CONTINUOUS
 62
             3
100
AcDbPolyline
 90
       16
 70
             0
 10
-11527544.489992131
 20
-4207331.4613686483
 10
-11527544.78211241
 20
-4207333.2700594543
 10
-11527544.78211241
 20
-4207333.2700594543
 10
-11527545.08097682
 20
-4207334.0847965637
 10
-11527545.08097682
 20
-4207334.0847965637
 10
-11527545.49667421
 20
-4207334.7882582853
 10
-11527545.49667421
 20
-4207334.7882582853
 10
-11527546.107792471
 20
-4207335.4016769221
 10
-11527546.107792471
 20
-4207335.4016769221
 10
-11527546.908586551
 20
-4207335.8080761721
 10
-11527546.908586551
 20
-4207335.8080761721
 10
-11527547.85743822
 20
-4207335.9550898857
 10
-11527547.85743822
 20
-4207335.9550898857
 10
-11527548.988874869
 20
-4207335.8384050038
 10
-11527548.988874869
 20
-4207335.8384050038
 10
-11527549.430344891
 20
-4207335.7319599688
  0
LWPOLYLINE
  5
5C7
100
AcDbEntity
  8
0
  6
CONTINUOUS
 62
             3
100
AcDbPolyline
 90
        8
 70
             0
 10
-11527549.74690783
 20
-4207335.9941550056
 10
-11527549.714251
 20
-4207335.8410611534
 10
-11527549.714251
 20
-4207335.8410611534
 10
-11527549.62553113
 20
-4207335.7425017776
 10
-11527549.62553113
 20
-4207335.7425017776
 10
-11527549.509432379
 20
-4207335.7187421899
 10
-11527549.509432379
 20
-4207335.7187421899
 10
-11527549.430344891
 20
-4207335.7319599688
  0
LWPOLYLINE
  5
5C5
100
AcDbEntity
  8
0
  6
CONTINUOUS
 62
             3
100
AcDbPolyline
 90
        8
 70
             0
 10
-11527574.273916811
 20
-4207428.7117672917
 10
-11527574.14235666
 20
-4207428.7965866933
 10
-11527574.14235666
 20
-4207428.7965866933
 10
-11527574.081662539
 20
-4207428.9144908385
 10
-11527574.081662539
 20
-4207428.9144908385
 10
-11527574.100616129
 20
-4207429.0314703239
 10
-11527574.100616129
 20
-4207429.0314703239
 10
-11527574.141019771
 20
-4207429.1007313188
  0
LWPOLYLINE
  5
5C3
100
AcDbEntity
  8
0
  6
CONTINUOUS
 62
             3
100
AcDbPolyline
 90
       16
 70
             0
 10
-11527545.92329463
 20
-4207417.9326393809
 10
-11527547.75400926
 20
-4207417.8606625786
 10
-11527547.75400926
 20
-4207417.8606625786
 10
-11527548.59883016
 20
-4207417.6621829187
 10
-11527548.59883016
 20
-4207417.6621829187
 10
-11527549.34726961
 20
-4207417.3343093684
 10
-11527549.34726961
 20
-4207417.3343093684
 10
-11527550.02987791
 20
-4207416.8015863122
 10
-11527550.02987791
 20
-4207416.8015863122
 10
-11527550.52983911
 20
-4207416.0556169339
 10
-11527550.52983911
 20
-4207416.0556169339
 10
-11527550.790152371
 20
-4207415.1314039994
 10
-11527550.790152371
 20
-4207415.1314039994
 10
-11527550.810697859
 20
-4207413.9941519964
 10
-11527550.810697859
 20
-4207413.9941519964
 10
-11527550.758242261
 20
-4207413.5430702474
  0
LWPOLYLINE
  5
5C1
100
AcDbEntity
  8
0
  6
CONTINUOUS
 62
             3
100
AcDbPolyline
 90
        8
 70
             0
 10
-11527551.05667733
 20
-4207413.2604200384
 10
-11527550.90076907
 20
-4207413.2743848404
 10
-11527550.90076907
 20
-4207413.2743848404
 10
-11527550.7922343
 20
-4207413.3505778126
 10
-11527550.7922343
 20
-4207413.3505778126
 10
-11527550.754653789
 20
-4207413.4629661739
 10
-11527550.754653789
 20
-4207413.4629661739
 10
-11527550.758242261
 20
-4207413.5430702474
  0
LWPOLYLINE
  5
5BF
100
AcDbEntity
  8
0
  6
CONTINUOUS
 62
             3
100
AcDbPolyline
 90
       16
 70
             0
 10
-11527651.23913422
 20
-4207342.6311626742
 10
-11527649.444391681
 20
-4207342.2629292747
 10
-11527649.444391681
 20
-4207342.2629292747
 10
-11527648.57662046
 20
-4207342.2534626052
 10
-11527648.57662046
 20
-4207342.2534626052
 10
-11527647.77146399
 20
-4207342.3926954558
 10
-11527647.77146399
 20
-4207342.3926954558
 10
-11527646.98120209
 20
-4207342.7465796927
 10
-11527646.98120209
 20
-4207342.7465796927
 10
-11527646.31724669
 20
-4207343.3512240108
 10
-11527646.31724669
 20
-4207343.3512240108
 10
-11527645.84331903
 20
-4207344.1862839572
 10
-11527645.84331903
 20
-4207344.1862839572
 10
-11527645.55120834
 20
-4207345.2855726248
 10
-11527645.55120834
 20
-4207345.2855726248
 10
-11527645.494188741
 20
-4207345.7361002024
  0
LWPOLYLINE
  5
5BD
100
AcDbEntity
  8
0
  6
CONTINUOUS
 62
             3
100
AcDbPolyline
 90
        8
 70
             0
 10
-11527645.136783009
 20
-4207345.9391169222
 10
-11527645.291502871
 20
-4207345.9628692018
 10
-11527645.291502871
 20
-4207345.9628692018
 10
-11527645.41511799
 20
-4207345.9148643287
 10
-11527645.41511799
 20
-4207345.9148643287
 10
-11527645.47850278
 20
-4207345.8147353744
 10
-11527645.47850278
 20
-4207345.8147353744
 10
-11527645.494188741
 20
-4207345.7361002024
  0
LWPOLYLINE
  5
5BB
100
AcDbEntity
  8
0
  6
CONTINUOUS
 62
             3
100
AcDbPolyline
 90
       16
 70
             0
 10
-11527630.1580244
 20
-4207319.615556621
 10
-11527628.933251111
 20
-4207319.9242874747
 10
-11527628.933251111
 20
-4207319.9242874747
 10
-11527627.85237875
 20
-4207320.3853128124
 10
-11527627.85237875
 20
-4207320.3853128124
 10
-11527626.97673367
 20
-4207321.0159110967
 10
-11527626.97673367
 20
-4207321.0159110967
 10
-11527626.43709825
 20
-4207321.7068668194
 10
-11527626.43709825
 20
-4207321.7068668194
 10
-11527626.13453863
 20
-4207322.5404544603
 10
-11527626.13453863
 20
-4207322.5404544603
 10
-11527626.10692996
 20
-4207323.5182285924
 10
-11527626.10692996
 20
-4207323.5182285924
 10
-11527626.35518197
 20
-4207324.6092308676
 10
-11527626.35518197
 20
-4207324.6092308676
 10
-11527626.514064239
 20
-4207325.0346515533
  0
LWPOLYLINE
  5
5B9
100
AcDbEntity
  8
0
  6
CONTINUOUS
 62
             3
100
AcDbPolyline
 90
        8
 70
             0
 10
-11527626.29194377
 20
-4207325.3805086501
 10
-11527626.43997962
 20
-4207325.3296383489
 10
-11527626.43997962
 20
-4207325.3296383489
 10
-11527626.527126379
 20
-4207325.2296853382
 10
-11527626.527126379
 20
-4207325.2296853382
 10
-11527626.53671857
 20
-4207325.1115691746
 10
-11527626.53671857
 20
-4207325.1115691746
 10
-11527626.514064239
 20
-4207325.0346515533
  0
LWPOLYLINE
  5
5B7
100
AcDbEntity
  8
0
  6
CONTINUOUS
 62
             3
100
AcDbPolyline
 90
       32
 70
             0
 10
-11527637.47843552
 20
-4207336.824756288
 10
-11527636.05506799
 20
-4207336.3892677827
 10
-11527636.05506799
 20
-4207336.3892677827
 10
-11527634.85637363
 20
-4207336.0332184462
 10
-11527634.85637363
 20
-4207336.0332184462
 10
-11527633.591017051
 20
-4207335.6781318868
 10
-11527633.591017051
 20
-4207335.6781318868
 10
-11527632.136564139
 20
-4207335.3075892534
 10
-11527632.136564139
 20
-4207335.3075892534
 10
-11527630.752509911
 20
-4207335.0000039842
 10
-11527630.752509911
 20
-4207335.0000039842
 10
-11527629.43885434
 20
-4207334.7553760791
 10
-11527629.43885434
 20
-4207334.7553760791
 10
-11527627.93213981
 20
-4207334.5429383069
 10
-11527627.93213981
 20
-4207334.5429383069
 10
-11527626.440188261
 20
-4207334.4218724053
 10
-11527626.440188261
 20
-4207334.4218724053
 10
-11527624.962863769
 20
-4207334.4112413684
 10
-11527624.962863769
 20
-4207334.4112413684
 10
-11527622.72696895
 20
-4207334.6652094824
 10
-11527622.72696895
 20
-4207334.6652094824
 10
-11527620.5873277
 20
-4207335.3330089236
 10
-11527620.5873277
 20
-4207335.3330089236
 10
-11527618.387366731
 20
-4207336.5362141104
 10
-11527618.387366731
 20
-4207336.5362141104
 10
-11527616.360630849
 20
-4207337.9398097498
 10
-11527616.360630849
 20
-4207337.9398097498
 10
-11527614.439110819
 20
-4207339.2704713074
 10
-11527614.439110819
 20
-4207339.2704713074
 10
-11527612.39598351
 20
-4207340.6486101644
 10
-11527612.39598351
 20
-4207340.6486101644
 10
-11527610.583989151
 20
-4207341.9354172787
  0
LWPOLYLINE
  5
5B5
100
AcDbEntity
  8
0
  6
CONTINUOUS
 62
             3
100
AcDbPolyline
 90
       36
 70
             0
 10
-11527637.037071001
 20
-4207338.2581629651
 10
-11527635.622507131
 20
-4207337.8253576523
 10
-11527635.622507131
 20
-4207337.8253576523
 10
-11527634.440769341
 20
-4207337.4743042802
 10
-11527634.440769341
 20
-4207337.4743042802
 10
-11527633.200220671
 20
-4207337.1261427822
 10
-11527633.200220671
 20
-4207337.1261427822
 10
-11527631.79392069
 20
-4207336.7677429803
 10
-11527631.79392069
 20
-4207336.7677429803
 10
-11527630.457906879
 20
-4207336.4706189856
 10
-11527630.457906879
 20
-4207336.4706189856
 10
-11527629.192179261
 20
-4207336.2347708074
 10
-11527629.192179261
 20
-4207336.2347708074
 10
-11527627.0966467
 20
-4207335.9675014522
 10
-11527627.0966467
 20
-4207335.9675014522
 10
-11527625.015834389
 20
-4207335.9101247732
 10
-11527625.015834389
 20
-4207335.9101247732
 10
-11527623.65811421
 20
-4207336.0268834634
 10
-11527623.65811421
 20
-4207336.0268834634
 10
-11527622.38918189
 20
-4207336.2854298558
 10
-11527622.38918189
 20
-4207336.2854298558
 10
-11527621.18361498
 20
-4207336.7091988903
 10
-11527621.18361498
 20
-4207336.7091988903
 10
-11527619.565878941
 20
-4207337.5663247984
 10
-11527619.565878941
 20
-4207337.5663247984
 10
-11527617.993558761
 20
-4207338.6178221693
 10
-11527617.993558761
 20
-4207338.6178221693
 10
-11527616.41719204
 20
-4207339.7353404909
 10
-11527616.41719204
 20
-4207339.7353404909
 10
-11527614.93546454
 20
-4207340.7442463301
 10
-11527614.93546454
 20
-4207340.7442463301
 10
-11527613.13337511
 20
-4207341.9613869647
 10
-11527613.13337511
 20
-4207341.9613869647
 10
-11527611.703763761
 20
-4207342.9729274372
 10
-11527611.703763761
 20
-4207342.9729274372
 10
-11527610.28059518
 20
-4207344.0584822083
  0
LWPOLYLINE
  5
5B3
100
AcDbEntity
  8
0
  6
CONTINUOUS
 62
             3
100
AcDbPolyline
 90
       38
 70
             0
 10
-11527615.550487651
 20
-4207322.3434855537
 10
-11527614.09681889
 20
-4207322.6176360901
 10
-11527614.09681889
 20
-4207322.6176360901
 10
-11527612.887299409
 20
-4207322.8559746984
 10
-11527612.887299409
 20
-4207322.8559746984
 10
-11527611.62704942
 20
-4207323.1242047083
 10
-11527611.62704942
 20
-4207323.1242047083
 10
-11527610.21527593
 20
-4207323.4603976347
 10
-11527610.21527593
 20
-4207323.4603976347
 10
-11527608.89421403
 20
-4207323.81818398
 10
-11527608.89421403
 20
-4207323.81818398
 10
-11527607.663863771
 20
-4207324.1975637442
 10
-11527607.663863771
 20
-4207324.1975637442
 10
-11527605.68415558
 20
-4207324.9347510152
 10
-11527605.68415558
 20
-4207324.9347510152
 10
-11527603.81502351
 20
-4207325.8509481931
 10
-11527603.81502351
 20
-4207325.8509481931
 10
-11527602.66708247
 20
-4207326.5852969084
 10
-11527602.66708247
 20
-4207326.5852969084
 10
-11527601.6636512
 20
-4207327.4039306166
 10
-11527601.6636512
 20
-4207327.4039306166
 10
-11527600.79311
 20
-4207328.3394143414
 10
-11527600.79311
 20
-4207328.3394143414
 10
-11527599.88989299
 20
-4207329.6338185733
 10
-11527599.88989299
 20
-4207329.6338185733
 10
-11527599.07969057
 20
-4207331.0776022468
 10
-11527599.07969057
 20
-4207331.0776022468
 10
-11527598.288859669
 20
-4207332.630009274
 10
-11527598.288859669
 20
-4207332.630009274
 10
-11527597.51975484
 20
-4207334.1027481109
 10
-11527597.51975484
 20
-4207334.1027481109
 10
-11527596.699625241
 20
-4207335.6220665239
 10
-11527596.699625241
 20
-4207335.6220665239
 10
-11527595.9259982
 20
-4207337.0729963491
 10
-11527595.9259982
 20
-4207337.0729963491
 10
-11527595.21693553
 20
-4207338.4828605782
 10
-11527595.21693553
 20
-4207338.4828605782
 10
-11527594.561982941
 20
-4207339.8966823267
  0
LWPOLYLINE
  5
5B1
100
AcDbEntity
  8
0
  6
CONTINUOUS
 62
             3
100
AcDbPolyline
 90
       42
 70
             0
 10
-11527615.27515923
 20
-4207320.8691546489
 10
-11527613.812448259
 20
-4207321.1450206088
 10
-11527613.812448259
 20
-4207321.1450206088
 10
-11527612.58559276
 20
-4207321.3868156224
 10
-11527612.58559276
 20
-4207321.3868156224
 10
-11527611.30015818
 20
-4207321.6604426103
 10
-11527611.30015818
 20
-4207321.6604426103
 10
-11527609.840104351
 20
-4207322.0082613667
 10
-11527609.840104351
 20
-4207322.0082613667
 10
-11527608.4716432
 20
-4207322.3791102124
 10
-11527608.4716432
 20
-4207322.3791102124
 10
-11527607.194774689
 20
-4207322.7729891464
 10
-11527607.194774689
 20
-4207322.7729891464
 10
-11527605.76192048
 20
-4207323.2850899911
 10
-11527605.76192048
 20
-4207323.2850899911
 10
-11527604.384600841
 20
-4207323.8712359192
 10
-11527604.384600841
 20
-4207323.8712359192
 10
-11527603.071554489
 20
-4207324.5483695259
 10
-11527603.071554489
 20
-4207324.5483695259
 10
-11527601.20979281
 20
-4207325.8123192582
 10
-11527601.20979281
 20
-4207325.8123192582
 10
-11527599.625576461
 20
-4207327.3979671644
 10
-11527599.625576461
 20
-4207327.3979671644
 10
-11527598.26514495
 20
-4207329.4357055798
 10
-11527598.26514495
 20
-4207329.4357055798
 10
-11527597.145881191
 20
-4207331.5688427938
 10
-11527597.145881191
 20
-4207331.5688427938
 10
-11527596.09616725
 20
-4207333.5839971034
 10
-11527596.09616725
 20
-4207333.5839971034
 10
-11527594.944426419
 20
-4207335.7203448676
 10
-11527594.944426419
 20
-4207335.7203448676
 10
-11527594.45075348
 20
-4207336.6597745791
 10
-11527594.45075348
 20
-4207336.6597745791
 10
-11527593.909057381
 20
-4207337.7424170803
 10
-11527593.909057381
 20
-4207337.7424170803
 10
-11527593.42148296
 20
-4207338.7784682866
 10
-11527593.42148296
 20
-4207338.7784682866
 10
-11527592.92659416
 20
-4207339.8867279366
 10
-11527592.92659416
 20
-4207339.8867279366
 10
-11527592.50292124
 20
-4207340.8700939314
 10
-11527592.50292124
 20
-4207340.8700939314
 10
-11527591.96997989
 20
-4207342.1296648951
  0
LWPOLYLINE
  5
5AF
100
AcDbEntity
  8
0
  6
CONTINUOUS
 62
             3
100
AcDbPolyline
 90
       42
 70
             0
 10
-11527588.200196659
 20
-4207317.0595480213
 10
-11527587.03323172
 20
-4207317.9835708747
 10
-11527587.03323172
 20
-4207317.9835708747
 10
-11527586.059272841
 20
-4207318.7678179126
 10
-11527586.059272841
 20
-4207318.7678179126
 10
-11527585.04823786
 20
-4207319.6074738121
 10
-11527585.04823786
 20
-4207319.6074738121
 10
-11527583.91706386
 20
-4207320.5939728711
 10
-11527583.91706386
 20
-4207320.5939728711
 10
-11527582.877693711
 20
-4207321.5582988281
 10
-11527582.877693711
 20
-4207321.5582988281
 10
-11527581.93012747
 20
-4207322.5004516831
 10
-11527581.93012747
 20
-4207322.5004516831
 10
-11527580.89938321
 20
-4207323.6197750159
 10
-11527580.89938321
 20
-4207323.6197750159
 10
-11527579.95222285
 20
-4207324.7788538067
 10
-11527579.95222285
 20
-4207324.7788538067
 10
-11527579.104257699
 20
-4207325.9886289109
 10
-11527579.104257699
 20
-4207325.9886289109
 10
-11527578.04313633
 20
-4207327.9730046038
 10
-11527578.04313633
 20
-4207327.9730046038
 10
-11527577.37726975
 20
-4207330.1132481517
 10
-11527577.37726975
 20
-4207330.1132481517
 10
-11527577.11965172
 20
-4207332.5497999592
 10
-11527577.11965172
 20
-4207332.5497999592
 10
-11527577.11991119
 20
-4207334.9587469632
 10
-11527577.11991119
 20
-4207334.9587469632
 10
-11527577.12692455
 20
-4207337.2309038797
 10
-11527577.12692455
 20
-4207337.2309038797
 10
-11527577.099918989
 20
-4207339.6577865314
 10
-11527577.099918989
 20
-4207339.6577865314
 10
-11527577.099368069
 20
-4207340.7190314876
 10
-11527577.099368069
 20
-4207340.7190314876
 10
-11527577.122849051
 20
-4207341.9294025423
 10
-11527577.122849051
 20
-4207341.9294025423
 10
-11527577.172600361
 20
-4207343.0733674569
 10
-11527577.172600361
 20
-4207343.0733674569
 10
-11527577.24943202
 20
-4207344.2846689336
 10
-11527577.24943202
 20
-4207344.2846689336
 10
-11527577.331281239
 20
-4207345.352286906
 10
-11527577.331281239
 20
-4207345.352286906
 10
-11527577.444736941
 20
-4207346.7152517969
  0
LWPOLYLINE
  5
5AD
100
AcDbEntity
  8
0
  6
CONTINUOUS
 62
             3
100
AcDbPolyline
 90
       40
 70
             0
 10
-11527589.12914359
 20
-4207318.2370517114
 10
-11527587.969387939
 20
-4207319.1553535126
 10
-11527587.969387939
 20
-4207319.1553535126
 10
-11527587.009173101
 20
-4207319.9284835961
 10
-11527587.009173101
 20
-4207319.9284835961
 10
-11527586.01792985
 20
-4207320.7516568517
 10
-11527586.01792985
 20
-4207320.7516568517
 10
-11527584.924103141
 20
-4207321.7054247614
 10
-11527584.924103141
 20
-4207321.7054247614
 10
-11527583.920632539
 20
-4207322.6361569026
 10
-11527583.920632539
 20
-4207322.6361569026
 10
-11527583.007518049
 20
-4207323.543853282
 10
-11527583.007518049
 20
-4207323.543853282
 10
-11527581.59716152
 20
-4207325.1166164586
 10
-11527581.59716152
 20
-4207325.1166164586
 10
-11527580.36790533
 20
-4207326.7964977631
 10
-11527580.36790533
 20
-4207326.7964977631
 10
-11527579.69272285
 20
-4207327.9802060584
 10
-11527579.69272285
 20
-4207327.9802060584
 10
-11527579.18466666
 20
-4207329.1713879686
 10
-11527579.18466666
 20
-4207329.1713879686
 10
-11527578.848581661
 20
-4207330.4042783389
 10
-11527578.848581661
 20
-4207330.4042783389
 10
-11527578.619915441
 20
-4207332.5632149363
 10
-11527578.619915441
 20
-4207332.5632149363
 10
-11527578.617506079
 20
-4207334.8624357162
 10
-11527578.617506079
 20
-4207334.8624357162
 10
-11527578.627732091
 20
-4207337.1264216993
 10
-11527578.627732091
 20
-4207337.1264216993
 10
-11527578.60079745
 20
-4207339.5136029748
 10
-11527578.60079745
 20
-4207339.5136029748
 10
-11527578.599698991
 20
-4207340.7741499078
 10
-11527578.599698991
 20
-4207340.7741499078
 10
-11527578.6312229
 20
-4207342.1522275768
 10
-11527578.6312229
 20
-4207342.1522275768
 10
-11527578.69805295
 20
-4207343.4684078032
 10
-11527578.69805295
 20
-4207343.4684078032
 10
-11527578.793463361
 20
-4207344.8203570014
 10
-11527578.793463361
 20
-4207344.8203570014
 10
-11527578.910321349
 20
-4207346.2471265206
  0
LWPOLYLINE
  5
5AB
100
AcDbEntity
  8
0
  6
CONTINUOUS
 62
             3
100
AcDbPolyline
 90
       40
 70
             0
 10
-11527585.430052919
 20
-4207429.0899413116
 10
-11527586.775872201
 20
-4207428.4758713879
 10
-11527586.775872201
 20
-4207428.4758713879
 10
-11527587.893207081
 20
-4207427.9550015088
 10
-11527587.893207081
 20
-4207427.9550015088
 10
-11527589.05264486
 20
-4207427.3929682104
 10
-11527589.05264486
 20
-4207427.3929682104
 10
-11527590.34293855
 20
-4207426.7286849264
 10
-11527590.34293855
 20
-4207426.7286849264
 10
-11527591.53998889
 20
-4207426.065144402
 10
-11527591.53998889
 20
-4207426.065144402
 10
-11527592.643795891
 20
-4207425.4023466296
 10
-11527592.643795891
 20
-4207425.4023466296
 10
-11527594.3895569
 20
-4207424.212805503
 10
-11527594.3895569
 20
-4207424.212805503
 10
-11527595.985115061
 20
-4207422.8759187674
 10
-11527595.985115061
 20
-4207422.8759187674
 10
-11527596.923957881
 20
-4207421.8881886164
 10
-11527596.923957881
 20
-4207421.8881886164
 10
-11527597.70231938
 20
-4207420.8532060944
 10
-11527597.70231938
 20
-4207420.8532060944
 10
-11527598.323688321
 20
-4207419.7365716817
 10
-11527598.323688321
 20
-4207419.7365716817
 10
-11527599.062377259
 20
-4207417.6950932648
 10
-11527599.062377259
 20
-4207417.6950932648
 10
-11527599.614956159
 20
-4207415.4632602632
 10
-11527599.614956159
 20
-4207415.4632602632
 10
-11527600.146834631
 20
-4207413.2626143508
 10
-11527600.146834631
 20
-4207413.2626143508
 10
-11527600.744276481
 20
-4207410.9512461098
 10
-11527600.744276481
 20
-4207410.9512461098
 10
-11527601.04701161
 20
-4207409.727591251
 10
-11527601.04701161
 20
-4207409.727591251
 10
-11527601.346199309
 20
-4207408.3820138546
 10
-11527601.346199309
 20
-4207408.3820138546
 10
-11527601.59629379
 20
-4207407.0880859587
 10
-11527601.59629379
 20
-4207407.0880859587
 10
-11527601.82719844
 20
-4207405.7525887387
 10
-11527601.82719844
 20
-4207405.7525887387
 10
-11527602.05518442
 20
-4207404.3393126056
  0
LWPOLYLINE
  5
5A9
100
AcDbEntity
  8
0
  6
CONTINUOUS
 62
             3
100
AcDbPolyline
 90
       42
 70
             0
 10
-11527586.05021129
 20
-4207430.455540441
 10
-11527587.404399481
 20
-4207429.8376409952
 10
-11527587.404399481
 20
-4207429.8376409952
 10
-11527588.537739471
 20
-4207429.3092663642
 10
-11527588.537739471
 20
-4207429.3092663642
 10
-11527589.72033843
 20
-4207428.7359658489
 10
-11527589.72033843
 20
-4207428.7359658489
 10
-11527591.05472726
 20
-4207428.0488403244
 10
-11527591.05472726
 20
-4207428.0488403244
 10
-11527592.294673501
 20
-4207427.3612734778
 10
-11527592.294673501
 20
-4207427.3612734778
 10
-11527593.44017712
 20
-4207426.6732653175
 10
-11527593.44017712
 20
-4207426.6732653175
 10
-11527594.708841439
 20
-4207425.8331407327
 10
-11527594.708841439
 20
-4207425.8331407327
 10
-11527595.905864749
 20
-4207424.9344129814
 10
-11527595.905864749
 20
-4207424.9344129814
 10
-11527597.018707691
 20
-4207423.9627230819
 10
-11527597.018707691
 20
-4207423.9627230819
 10
-11527598.52388699
 20
-4207422.2899527019
 10
-11527598.52388699
 20
-4207422.2899527019
 10
-11527599.68259852
 20
-4207420.3712530509
 10
-11527599.68259852
 20
-4207420.3712530509
 10
-11527600.51583563
 20
-4207418.067155038
 10
-11527600.51583563
 20
-4207418.067155038
 10
-11527601.09208248
 20
-4207415.7281455668
 10
-11527601.09208248
 20
-4207415.7281455668
 10
-11527601.629035659
 20
-4207413.5203349916
 10
-11527601.629035659
 20
-4207413.5203349916
 10
-11527602.236047501
 20
-4207411.1704359874
 10
-11527602.236047501
 20
-4207411.1704359874
 10
-11527602.490554949
 20
-4207410.1401607264
 10
-11527602.490554949
 20
-4207410.1401607264
 10
-11527602.757417049
 20
-4207408.959341486
 10
-11527602.757417049
 20
-4207408.959341486
 10
-11527602.98288016
 20
-4207407.8367118519
 10
-11527602.98288016
 20
-4207407.8367118519
 10
-11527603.19816448
 20
-4207406.6422215709
 10
-11527603.19816448
 20
-4207406.6422215709
 10
-11527603.374191361
 20
-4207405.5860388344
 10
-11527603.374191361
 20
-4207405.5860388344
 10
-11527603.590211339
 20
-4207404.2355275042
  0
LWPOLYLINE
  5
5A7
100
AcDbEntity
  8
0
  6
CONTINUOUS
 62
             3
100
AcDbPolyline
 90
       42
 70
             0
 10
-11527562.456095411
 20
-4207326.268671371
 10
-11527561.8522141
 20
-4207327.6291686231
 10
-11527561.8522141
 20
-4207327.6291686231
 10
-11527561.354274141
 20
-4207328.7762061423
 10
-11527561.354274141
 20
-4207328.7762061423
 10
-11527560.84925466
 20
-4207329.9895359036
 10
-11527560.84925466
 20
-4207329.9895359036
 10
-11527560.30609878
 20
-4207331.388720219
 10
-11527560.30609878
 20
-4207331.388720219
 10
-11527559.833926851
 20
-4207332.725607831
 10
-11527559.833926851
 20
-4207332.725607831
 10
-11527559.432738891
 20
-4207334.0001987424
 10
-11527559.432738891
 20
-4207334.0001987424
 10
-11527559.040235659
 20
-4207335.4703210741
 10
-11527559.040235659
 20
-4207335.4703210741
 10
-11527558.74021757
 20
-4207336.9368017446
 10
-11527558.74021757
 20
-4207336.9368017446
 10
-11527558.551592249
 20
-4207338.4020734448
 10
-11527558.551592249
 20
-4207338.4020734448
 10
-11527558.534201309
 20
-4207340.652278549
 10
-11527558.534201309
 20
-4207340.652278549
 10
-11527558.939226501
 20
-4207342.8568137344
 10
-11527558.939226501
 20
-4207342.8568137344
 10
-11527559.84343916
 20
-4207345.1339942766
 10
-11527559.84343916
 20
-4207345.1339942766
 10
-11527560.963162379
 20
-4207347.2668903423
 10
-11527560.963162379
 20
-4207347.2668903423
 10
-11527562.025296381
 20
-4207349.2755260998
 10
-11527562.025296381
 20
-4207349.2755260998
 10
-11527563.129212771
 20
-4207351.4369740719
 10
-11527563.129212771
 20
-4207351.4369740719
 10
-11527563.621910069
 20
-4207352.3769158386
 10
-11527563.621910069
 20
-4207352.3769158386
 10
-11527564.20518891
 20
-4207353.4377340283
 10
-11527564.20518891
 20
-4207353.4377340283
 10
-11527564.78086851
 20
-4207354.4275440732
 10
-11527564.78086851
 20
-4207354.4275440732
 10
-11527565.411819439
 20
-4207355.4643928073
 10
-11527565.411819439
 20
-4207355.4643928073
 10
-11527565.98044013
 20
-4207356.3716843463
 10
-11527565.98044013
 20
-4207356.3716843463
 10
-11527566.714301519
 20
-4207357.5258043343
  0
LWPOLYLINE
  5
5A5
100
AcDbEntity
  8
0
  6
CONTINUOUS
 62
             3
100
AcDbPolyline
 90
       40
 70
             0
 10
-11527563.825850319
 20
-4207326.87959594
 10
-11527563.225693811
 20
-4207328.2316771327
 10
-11527563.225693811
 20
-4207328.2316771327
 10
-11527562.734757271
 20
-4207329.3624839084
 10
-11527562.734757271
 20
-4207329.3624839084
 10
-11527562.23960264
 20
-4207330.5520213377
 10
-11527562.23960264
 20
-4207330.5520213377
 10
-11527561.714305241
 20
-4207331.9048674954
 10
-11527561.714305241
 20
-4207331.9048674954
 10
-11527561.258308951
 20
-4207333.1953259194
 10
-11527561.258308951
 20
-4207333.1953259194
 10
-11527560.871613771
 20
-4207334.4233966069
 10
-11527560.871613771
 20
-4207334.4233966069
 10
-11527560.35370457
 20
-4207336.4714346034
 10
-11527560.35370457
 20
-4207336.4714346034
 10
-11527560.04593201
 20
-4207338.5301594641
 10
-11527560.04593201
 20
-4207338.5301594641
 10
-11527559.99818432
 20
-4207339.8920540446
 10
-11527559.99818432
 20
-4207339.8920540446
 10
-11527560.10189274
 20
-4207341.18289873
 10
-11527560.10189274
 20
-4207341.18289873
 10
-11527560.37725698
 20
-4207342.4307554225
 10
-11527560.37725698
 20
-4207342.4307554225
 10
-11527561.17809095
 20
-4207344.448665332
 10
-11527561.17809095
 20
-4207344.448665332
 10
-11527562.24445875
 20
-4207346.4856439168
 10
-11527562.24445875
 20
-4207346.4856439168
 10
-11527563.30564018
 20
-4207348.4855516814
 10
-11527563.30564018
 20
-4207348.4855516814
 10
-11527564.391169179
 20
-4207350.6118128803
 10
-11527564.391169179
 20
-4207350.6118128803
 10
-11527564.976001929
 20
-4207351.7284822287
 10
-11527564.976001929
 20
-4207351.7284822287
 10
-11527565.64433958
 20
-4207352.9340595184
 10
-11527565.64433958
 20
-4207352.9340595184
 10
-11527566.315174101
 20
-4207354.0684217606
 10
-11527566.315174101
 20
-4207354.0684217606
 10
-11527567.027937951
 20
-4207355.2211738909
 10
-11527567.027937951
 20
-4207355.2211738909
 10
-11527567.7944634
 20
-4207356.4302089438
  0
LWPOLYLINE
  5
5A3
100
AcDbEntity
  8
0
  6
CONTINUOUS
 62
             3
100
AcDbPolyline
 90
       40
 70
             0
 10
-11527560.75919906
 20
-4207418.7797914669
 10
-11527562.23623536
 20
-4207418.8614929533
 10
-11527562.23623536
 20
-4207418.8614929533
 10
-11527563.46764655
 20
-4207418.9195369901
 10
-11527563.46764655
 20
-4207418.9195369901
 10
-11527564.755467631
 20
-4207418.9606988197
 10
-11527564.755467631
 20
-4207418.9606988197
 10
-11527566.20667378
 20
-4207418.9721345622
 10
-11527566.20667378
 20
-4207418.9721345622
 10
-11527567.574971881
 20
-4207418.9408956384
 10
-11527567.574971881
 20
-4207418.9408956384
 10
-11527568.86036193
 20
-4207418.8669820512
 10
-11527568.86036193
 20
-4207418.8669820512
 10
-11527570.958963851
 20
-4207418.624991281
 10
-11527570.958963851
 20
-4207418.624991281
 10
-11527572.993042691
 20
-4207418.1827297136
 10
-11527572.993042691
 20
-4207418.1827297136
 10
-11527574.2833678
 20
-4207417.7444401132
 10
-11527574.2833678
 20
-4207417.7444401132
 10
-11527575.453553051
 20
-4207417.189731231
 10
-11527575.453553051
 20
-4207417.189731231
 10
-11527576.52267381
 20
-4207416.4897651067
 10
-11527576.52267381
 20
-4207416.4897651067
 10
-11527578.1254727
 20
-4207415.0254116133
 10
-11527578.1254727
 20
-4207415.0254116133
 10
-11527579.651941551
 20
-4207413.3060178543
 10
-11527579.651941551
 20
-4207413.3060178543
 10
-11527581.145587681
 20
-4207411.6046189144
 10
-11527581.145587681
 20
-4207411.6046189144
 10
-11527582.74874253
 20
-4207409.8356490443
 10
-11527582.74874253
 20
-4207409.8356490443
 10
-11527583.585461959
 20
-4207408.8928445131
 10
-11527583.585461959
 20
-4207408.8928445131
 10
-11527584.475700511
 20
-4207407.8404343594
 10
-11527584.475700511
 20
-4207407.8404343594
 10
-11527585.29846644
 20
-4207406.8109427961
 10
-11527585.29846644
 20
-4207406.8109427961
 10
-11527586.12355886
 20
-4207405.7357254811
 10
-11527586.12355886
 20
-4207405.7357254811
 10
-11527586.982212599
 20
-4207404.5902819848
  0
LWPOLYLINE
  5
5A1
100
AcDbEntity
  8
0
  6
CONTINUOUS
 62
             3
100
AcDbPolyline
 90
       40
 70
             0
 10
-11527612.066374701
 20
-4207426.754008146
 10
-11527612.97266596
 20
-4207425.58484283
 10
-11527612.97266596
 20
-4207425.58484283
 10
-11527613.71995656
 20
-4207424.6043840507
 10
-11527613.71995656
 20
-4207424.6043840507
 10
-11527614.485397819
 20
-4207423.567910674
 10
-11527614.485397819
 20
-4207423.567910674
 10
-11527615.319188301
 20
-4207422.3800876634
 10
-11527615.319188301
 20
-4207422.3800876634
 10
-11527616.07076109
 20
-4207421.2362546744
 10
-11527616.07076109
 20
-4207421.2362546744
 10
-11527616.74011617
 20
-4207420.1364117004
 10
-11527616.74011617
 20
-4207420.1364117004
 10
-11527617.73310345
 20
-4207418.2718297513
 10
-11527617.73310345
 20
-4207418.2718297513
 10
-11527618.524617789
 20
-4207416.3465824844
 10
-11527618.524617789
 20
-4207416.3465824844
 10
-11527618.89690073
 20
-4207415.0356888594
 10
-11527618.89690073
 20
-4207415.0356888594
 10
-11527619.10512526
 20
-4207413.7575347256
 10
-11527619.10512526
 20
-4207413.7575347256
 10
-11527619.13639424
 20
-4207412.4800395081
 10
-11527619.13639424
 20
-4207412.4800395081
 10
-11527618.841748491
 20
-4207410.3291142713
 10
-11527618.841748491
 20
-4207410.3291142713
 10
-11527618.29384831
 20
-4207408.0961280698
 10
-11527618.29384831
 20
-4207408.0961280698
 10
-11527617.74211213
 20
-4207405.9003766477
 10
-11527617.74211213
 20
-4207405.9003766477
 10
-11527617.19697424
 20
-4207403.5761166411
 10
-11527617.19697424
 20
-4207403.5761166411
 10
-11527616.896372121
 20
-4207402.3519360349
 10
-11527616.896372121
 20
-4207402.3519360349
 10
-11527616.53596868
 20
-4207401.0214469628
 10
-11527616.53596868
 20
-4207401.0214469628
 10
-11527616.156098049
 20
-4207399.7595060179
 10
-11527616.156098049
 20
-4207399.7595060179
 10
-11527615.73991747
 20
-4207398.469675215
 10
-11527615.73991747
 20
-4207398.469675215
 10
-11527615.28500687
 20
-4207397.1123309759
  0
LWPOLYLINE
  5
59F
100
AcDbEntity
  8
0
  6
CONTINUOUS
 62
             3
100
AcDbPolyline
 90
       40
 70
             0
 10
-11527543.70560836
 20
-4207398.1854896909
 10
-11527544.97549049
 20
-4207398.9442457613
 10
-11527544.97549049
 20
-4207398.9442457613
 10
-11527546.03887655
 20
-4207399.5679065231
 10
-11527546.03887655
 20
-4207399.5679065231
 10
-11527547.16005661
 20
-4207400.2028338034
 10
-11527547.16005661
 20
-4207400.2028338034
 10
-11527548.4397214
 20
-4207400.8873687806
 10
-11527548.4397214
 20
-4207400.8873687806
 10
-11527549.66580664
 20
-4207401.4955879198
 10
-11527549.66580664
 20
-4207401.4955879198
 10
-11527550.838312371
 20
-4207402.0274912277
 10
-11527550.838312371
 20
-4207402.0274912277
 10
-11527552.808990801
 20
-4207402.7884879839
 10
-11527552.808990801
 20
-4207402.7884879839
 10
-11527554.81560735
 20
-4207403.3421683842
 10
-11527554.81560735
 20
-4207403.3421683842
 10
-11527556.16181685
 20
-4207403.5537261982
 10
-11527556.16181685
 20
-4207403.5537261982
 10
-11527557.45575048
 20
-4207403.6063680695
 10
-11527557.45575048
 20
-4207403.6063680695
 10
-11527558.727700381
 20
-4207403.4834240442
 10
-11527558.727700381
 20
-4207403.4834240442
 10
-11527560.827427341
 20
-4207402.9316612082
 10
-11527560.827427341
 20
-4207402.9316612082
 10
-11527562.97809048
 20
-4207402.1185990823
 10
-11527562.97809048
 20
-4207402.1185990823
 10
-11527565.09132795
 20
-4207401.3062171014
 10
-11527565.09132795
 20
-4207401.3062171014
 10
-11527567.332932379
 20
-4207400.4848952871
 10
-11527567.332932379
 20
-4207400.4848952871
 10
-11527568.511953751
 20
-4207400.038926241
 10
-11527568.511953751
 20
-4207400.038926241
 10
-11527569.78930022
 20
-4207399.5207778122
 10
-11527569.78930022
 20
-4207399.5207778122
 10
-11527570.996251849
 20
-4207398.9915666915
 10
-11527570.996251849
 20
-4207398.9915666915
 10
-11527572.226513309
 20
-4207398.422948611
 10
-11527572.226513309
 20
-4207398.422948611
 10
-11527573.519127579
 20
-4207397.8077450534
  0
LWPOLYLINE
  5
59D
100
AcDbEntity
  8
0
  6
CONTINUOUS
 62
             3
100
AcDbPolyline
 90
       40
 70
             0
 10
-11527538.176052989
 20
-4207372.0249423301
 10
-11527538.947866229
 20
-4207373.2869311133
 10
-11527538.947866229
 20
-4207373.2869311133
 10
-11527539.599618221
 20
-4207374.3333354341
 10
-11527539.599618221
 20
-4207374.3333354341
 10
-11527540.297308451
 20
-4207375.4165739799
 10
-11527540.297308451
 20
-4207375.4165739799
 10
-11527541.112276079
 20
-4207376.617389475
 10
-11527541.112276079
 20
-4207376.617389475
 10
-11527541.91526711
 20
-4207377.7257310059
 10
-11527541.91526711
 20
-4207377.7257310059
 10
-11527542.706281571
 20
-4207378.7415985698
 10
-11527542.706281571
 20
-4207378.7415985698
 10
-11527544.09757784
 20
-4207380.3312476669
 10
-11527544.09757784
 20
-4207380.3312476669
 10
-11527545.61704045
 20
-4207381.7540285233
 10
-11527545.61704045
 20
-4207381.7540285233
 10
-11527546.71073393
 20
-4207382.5669684084
 10
-11527546.71073393
 20
-4207382.5669684084
 10
-11527547.83199138
 20
-4207383.2149014203
 10
-11527547.83199138
 20
-4207383.2149014203
 10
-11527549.015382029
 20
-4207383.6971444832
 10
-11527549.015382029
 20
-4207383.6971444832
 10
-11527551.13101488
 20
-4207384.1843745252
 10
-11527551.13101488
 20
-4207384.1843745252
 10
-11527553.413181329
 20
-4207384.463906765
 10
-11527553.413181329
 20
-4207384.463906765
 10
-11527555.66189291
 20
-4207384.726648665
 10
-11527555.66189291
 20
-4207384.726648665
 10
-11527558.02842235
 20
-4207385.0411298349
 10
-11527558.02842235
 20
-4207385.0411298349
 10
-11527559.27964605
 20
-4207385.1941624051
 10
-11527559.27964605
 20
-4207385.1941624051
 10
-11527560.65147578
 20
-4207385.3289772654
 10
-11527560.65147578
 20
-4207385.3289772654
 10
-11527561.966115041
 20
-4207385.4212824814
 10
-11527561.966115041
 20
-4207385.4212824814
 10
-11527563.319707461
 20
-4207385.4895271808
 10
-11527563.319707461
 20
-4207385.4895271808
 10
-11527564.750159901
 20
-4207385.5454992829
  0
LWPOLYLINE
  5
59B
100
AcDbEntity
  8
0
  6
CONTINUOUS
 62
             3
100
AcDbPolyline
 90
       42
 70
             0
 10
-11527613.250123199
 20
-4207427.6749841645
 10
-11527614.16204511
 20
-4207426.4985387446
 10
-11527614.16204511
 20
-4207426.4985387446
 10
-11527614.92001991
 20
-4207425.5039968863
 10
-11527614.92001991
 20
-4207425.5039968863
 10
-11527615.70073323
 20
-4207424.4467833554
 10
-11527615.70073323
 20
-4207424.4467833554
 10
-11527616.56295271
 20
-4207423.2182425037
 10
-11527616.56295271
 20
-4207423.2182425037
 10
-11527617.34134233
 20
-4207422.0332005527
 10
-11527617.34134233
 20
-4207422.0332005527
 10
-11527618.03590209
 20
-4207420.8916575043
 10
-11527618.03590209
 20
-4207420.8916575043
 10
-11527618.76882318
 20
-4207419.558186424
 10
-11527618.76882318
 20
-4207419.558186424
 10
-11527619.411075089
 20
-4207418.2061180444
 10
-11527619.411075089
 20
-4207418.2061180444
 10
-11527619.944881771
 20
-4207416.828565469
 10
-11527619.944881771
 20
-4207416.828565469
 10
-11527620.500276679
 20
-4207414.6479091598
 10
-11527620.500276679
 20
-4207414.6479091598
 10
-11527620.6346006
 20
-4207412.4105048934
 10
-11527620.6346006
 20
-4207412.4105048934
 10
-11527620.301627699
 20
-4207409.9831028227
 10
-11527620.301627699
 20
-4207409.9831028227
 10
-11527619.72487702
 20
-4207407.6442175331
 10
-11527619.72487702
 20
-4207407.6442175331
 10
-11527619.17430472
 20
-4207405.439763776
 10
-11527619.17430472
 20
-4207405.439763776
 10
-11527618.6197345
 20
-4207403.0769390743
 10
-11527618.6197345
 20
-4207403.0769390743
 10
-11527618.366296859
 20
-4207402.0464001233
 10
-11527618.366296859
 20
-4207402.0464001233
 10
-11527618.05383745
 20
-4207400.876819618
 10
-11527618.05383745
 20
-4207400.876819618
 10
-11527617.73176311
 20
-4207399.7780025117
 10
-11527617.73176311
 20
-4207399.7780025117
 10
-11527617.36728061
 20
-4207398.6202862756
 10
-11527617.36728061
 20
-4207398.6202862756
 10
-11527617.03231208
 20
-4207397.6032791398
 10
-11527617.03231208
 20
-4207397.6032791398
 10
-11527616.595974371
 20
-4207396.3070712537
  0
LWPOLYLINE
  5
599
100
AcDbEntity
  8
0
  6
CONTINUOUS
 62
             3
100
AcDbPolyline
 90
       40
 70
             0
 10
-11527545.4372874
 20
-4207346.2912155194
 10
-11527545.534218671
 20
-4207347.7673305934
 10
-11527545.534218671
 20
-4207347.7673305934
 10
-11527545.62502805
 20
-4207348.9967598552
 10
-11527545.62502805
 20
-4207348.9967598552
 10
-11527545.73939601
 20
-4207350.2801527698
 10
-11527545.73939601
 20
-4207350.2801527698
 10
-11527545.90296722
 20
-4207351.7221564231
 10
-11527545.90296722
 20
-4207351.7221564231
 10
-11527546.09890848
 20
-4207353.076712653
 10
-11527546.09890848
 20
-4207353.076712653
 10
-11527546.32721982
 20
-4207354.3438214613
 10
-11527546.32721982
 20
-4207354.3438214613
 10
-11527546.82040471
 20
-4207356.3979534497
 10
-11527546.82040471
 20
-4207356.3979534497
 10
-11527547.5046228
 20
-4207358.363892816
 10
-11527547.5046228
 20
-4207358.363892816
 10
-11527548.09524828
 20
-4207359.5919800363
 10
-11527548.09524828
 20
-4207359.5919800363
 10
-11527548.78696296
 20
-4207360.6867705444
 10
-11527548.78696296
 20
-4207360.6867705444
 10
-11527549.610693811
 20
-4207361.6637246208
 10
-11527549.610693811
 20
-4207361.6637246208
 10
-11527551.257566581
 20
-4207363.0783290071
 10
-11527551.257566581
 20
-4207363.0783290071
 10
-11527553.148419511
 20
-4207364.3864181479
 10
-11527553.148419511
 20
-4207364.3864181479
 10
-11527555.01745248
 20
-4207365.66409293
 10
-11527555.01745248
 20
-4207365.66409293
 10
-11527556.966763521
 20
-4207367.0423332341
 10
-11527556.966763521
 20
-4207367.0423332341
 10
-11527558.00354933
 20
-4207367.759309507
 10
-11527558.00354933
 20
-4207367.759309507
 10
-11527559.155592641
 20
-4207368.5162031911
 10
-11527559.155592641
 20
-4207368.5162031911
 10
-11527560.276751511
 20
-4207369.2088787304
 10
-11527560.276751511
 20
-4207369.2088787304
 10
-11527561.443583179
 20
-4207369.8983521722
 10
-11527561.443583179
 20
-4207369.8983521722
 10
-11527562.684174379
 20
-4207370.6126774
  0
LWPOLYLINE
  5
597
100
AcDbEntity
  8
0
  6
CONTINUOUS
 62
             3
100
AcDbPolyline
 90
       42
 70
             0
 10
-11527543.94051886
 20
-4207346.3868255261
 10
-11527544.038063111
 20
-4207347.8721236493
 10
-11527544.038063111
 20
-4207347.8721236493
 10
-11527544.130214071
 20
-4207349.1191791771
 10
-11527544.130214071
 20
-4207349.1191791771
 10
-11527544.246904001
 20
-4207350.4282235689
 10
-11527544.246904001
 20
-4207350.4282235689
 10
-11527544.416196739
 20
-4207351.9195568776
 10
-11527544.416196739
 20
-4207351.9195568776
 10
-11527544.6193919
 20
-4207353.3227413073
 10
-11527544.6193919
 20
-4207353.3227413073
 10
-11527544.85648953
 20
-4207354.6377768572
 10
-11527544.85648953
 20
-4207354.6377768572
 10
-11527545.192145079
 20
-4207356.1219108813
 10
-11527545.192145079
 20
-4207356.1219108813
 10
-11527545.607999809
 20
-4207357.5598403802
 10
-11527545.607999809
 20
-4207357.5598403802
 10
-11527546.12192611
 20
-4207358.944932594
 10
-11527546.12192611
 20
-4207358.944932594
 10
-11527547.15224966
 20
-4207360.945472233
 10
-11527547.15224966
 20
-4207360.945472233
 10
-11527548.535380211
 20
-4207362.7092666104
 10
-11527548.535380211
 20
-4207362.7092666104
 10
-11527550.39427934
 20
-4207364.3054012703
 10
-11527550.39427934
 20
-4207364.3054012703
 10
-11527552.376951231
 20
-4207365.6736256154
 10
-11527552.376951231
 20
-4207365.6736256154
 10
-11527554.250883751
 20
-4207366.958585971
 10
-11527554.250883751
 20
-4207366.958585971
 10
-11527556.23282814
 20
-4207368.3594375756
 10
-11527556.23282814
 20
-4207368.3594375756
 10
-11527557.105902649
 20
-4207368.9627468241
 10
-11527557.105902649
 20
-4207368.9627468241
 10
-11527558.11535722
 20
-4207369.6309914831
 10
-11527558.11535722
 20
-4207369.6309914831
 10
-11527559.08508384
 20
-4207370.2398931077
 10
-11527559.08508384
 20
-4207370.2398931077
 10
-11527560.125610771
 20
-4207370.8647595467
 10
-11527560.125610771
 20
-4207370.8647595467
 10
-11527561.050738789
 20
-4207371.4038750967
 10
-11527561.050738789
 20
-4207371.4038750967
 10
-11527562.236887081
 20
-4207372.0847552028
  0
LWPOLYLINE
  5
595
100
AcDbEntity
  8
0
  6
CONTINUOUS
 62
             3
100
AcDbPolyline
 90
       40
 70
             0
 10
-11527634.56610403
 20
-4207412.3071261058
 10
-11527634.82524688
 20
-4207410.8507070839
 10
-11527634.82524688
 20
-4207410.8507070839
 10
-11527635.03129792
 20
-4207409.6352706905
 10
-11527635.03129792
 20
-4207409.6352706905
 10
-11527635.22738931
 20
-4207408.3618007991
 10
-11527635.22738931
 20
-4207408.3618007991
 10
-11527635.41366525
 20
-4207406.9225539956
 10
-11527635.41366525
 20
-4207406.9225539956
 10
-11527635.5475842
 20
-4207405.560466893
 10
-11527635.5475842
 20
-4207405.560466893
 10
-11527635.62914617
 20
-4207404.2755394913
 10
-11527635.62914617
 20
-4207404.2755394913
 10
-11527635.641878299
 20
-4207402.1630699737
 10
-11527635.641878299
 20
-4207402.1630699737
 10
-11527635.448022431
 20
-4207400.0905131251
 10
-11527635.448022431
 20
-4207400.0905131251
 10
-11527635.16845995
 20
-4207398.7567659561
 10
-11527635.16845995
 20
-4207398.7567659561
 10
-11527634.758845771
 20
-4207397.5282499157
 10
-11527634.758845771
 20
-4207397.5282499157
 10
-11527634.19285145
 20
-4207396.3825526517
 10
-11527634.19285145
 20
-4207396.3825526517
 10
-11527632.93237081
 20
-4207394.6149316505
 10
-11527632.93237081
 20
-4207394.6149316505
 10
-11527631.40950885
 20
-4207392.8923424752
 10
-11527631.40950885
 20
-4207392.8923424752
 10
-11527629.90055416
 20
-4207391.2045057341
 10
-11527629.90055416
 20
-4207391.2045057341
 10
-11527628.33772104
 20
-4207389.3998139184
 10
-11527628.33772104
 20
-4207389.3998139184
 10
-11527627.502645999
 20
-4207388.4555525901
 10
-11527627.502645999
 20
-4207388.4555525901
 10
-11527626.565215491
 20
-4207387.4449508525
 10
-11527626.565215491
 20
-4207387.4449508525
 10
-11527625.642403569
 20
-4207386.5040923236
 10
-11527625.642403569
 20
-4207386.5040923236
 10
-11527624.674479701
 20
-4207385.5554126278
 10
-11527624.674479701
 20
-4207385.5554126278
 10
-11527623.640887059
 20
-4207384.5649514878
  0
LWPOLYLINE
  5
593
100
AcDbEntity
  8
0
  6
CONTINUOUS
 62
             3
100
AcDbPolyline
 90
       42
 70
             0
 10
-11527636.042260179
 20
-4207412.5724945124
 10
-11527636.303005479
 20
-4207411.1070125811
 10
-11527636.303005479
 20
-4207411.1070125811
 10
-11527636.51197217
 20
-4207409.8741410542
 10
-11527636.51197217
 20
-4207409.8741410542
 10
-11527636.711947881
 20
-4207408.5752093839
 10
-11527636.711947881
 20
-4207408.5752093839
 10
-11527636.904473919
 20
-4207407.086697109
 10
-11527636.904473919
 20
-4207407.086697109
 10
-11527637.04298724
 20
-4207405.6756588817
 10
-11527637.04298724
 20
-4207405.6756588817
 10
-11527637.12748784
 20
-4207404.3420946999
 10
-11527637.12748784
 20
-4207404.3420946999
 10
-11527637.156762339
 20
-4207402.8207592787
 10
-11527637.156762339
 20
-4207402.8207592787
 10
-11527637.097110661
 20
-4207401.3250928456
 10
-11527637.097110661
 20
-4207401.3250928456
 10
-11527636.92959238
 20
-4207399.8572582826
 10
-11527636.92959238
 20
-4207399.8572582826
 10
-11527636.40796865
 20
-4207397.6682781251
 10
-11527636.40796865
 20
-4207397.6682781251
 10
-11527635.487132961
 20
-4207395.6247315994
 10
-11527635.487132961
 20
-4207395.6247315994
 10
-11527634.06423011
 20
-4207393.6301140338
 10
-11527634.06423011
 20
-4207393.6301140338
 10
-11527632.46660856
 20
-4207391.8271633601
 10
-11527632.46660856
 20
-4207391.8271633601
 10
-11527630.954640239
 20
-4207390.1310802093
 10
-11527630.954640239
 20
-4207390.1310802093
 10
-11527629.36553332
 20
-4207388.2966244714
 10
-11527629.36553332
 20
-4207388.2966244714
 10
-11527628.662210111
 20
-4207387.5019058846
 10
-11527628.662210111
 20
-4207387.5019058846
 10
-11527627.842009859
 20
-4207386.6115009114
 10
-11527627.842009859
 20
-4207386.6115009114
 10
-11527627.04618144
 20
-4207385.7882220913
 10
-11527627.04618144
 20
-4207385.7882220913
 10
-11527626.18543065
 20
-4207384.9324987382
 10
-11527626.18543065
 20
-4207384.9324987382
 10
-11527625.416203961
 20
-4207384.1876512803
 10
-11527625.416203961
 20
-4207384.1876512803
 10
-11527624.427468261
 20
-4207383.242692451
  0
LWPOLYLINE
  5
591
100
AcDbEntity
  8
0
  6
CONTINUOUS
 62
             3
100
AcDbPolyline
 90
       40
 70
             0
 10
-11527647.77482409
 20
-4207389.0589017654
 10
-11527647.327452021
 20
-4207387.6488770796
 10
-11527647.327452021
 20
-4207387.6488770796
 10
-11527646.9450597
 20
-4207386.4769049054
 10
-11527646.9450597
 20
-4207386.4769049054
 10
-11527646.526879041
 20
-4207385.2581751049
 10
-11527646.526879041
 20
-4207385.2581751049
 10
-11527646.02296686
 20
-4207383.8972186064
 10
-11527646.02296686
 20
-4207383.8972186064
 10
-11527645.508552769
 20
-4207382.628915133
 10
-11527645.508552769
 20
-4207382.628915133
 10
-11527644.983636759
 20
-4207381.4532646816
 10
-11527644.983636759
 20
-4207381.4532646816
 10
-11527644.013196969
 20
-4207379.5768489074
 10
-11527644.013196969
 20
-4207379.5768489074
 10
-11527642.878380921
 20
-4207377.8317802716
 10
-11527642.878380921
 20
-4207377.8317802716
 10
-11527642.011017419
 20
-4207376.7807249632
 10
-11527642.011017419
 20
-4207376.7807249632
 10
-11527641.077402219
 20
-4207375.8832852356
 10
-11527641.077402219
 20
-4207375.8832852356
 10
-11527640.04380708
 20
-4207375.1318513639
 10
-11527640.04380708
 20
-4207375.1318513639
 10
-11527638.106252439
 20
-4207374.1524752611
 10
-11527638.106252439
 20
-4207374.1524752611
 10
-11527635.95729804
 20
-4207373.3349075364
 10
-11527635.95729804
 20
-4207373.3349075364
 10
-11527633.83680819
 20
-4207372.5416485323
 10
-11527633.83680819
 20
-4207372.5416485323
 10
-11527631.614306079
 20
-4207371.6699580532
 10
-11527631.614306079
 20
-4207371.6699580532
 10
-11527630.436063729
 20
-4207371.2219348913
 10
-11527630.436063729
 20
-4207371.2219348913
 10
-11527629.1363602
 20
-4207370.7627371727
 10
-11527629.1363602
 20
-4207370.7627371727
 10
-11527627.882012051
 20
-4207370.3585004071
 10
-11527627.882012051
 20
-4207370.3585004071
 10
-11527626.58408458
 20
-4207369.9683029037
 10
-11527626.58408458
 20
-4207369.9683029037
 10
-11527625.208593501
 20
-4207369.5716275759
  0
LWPOLYLINE
  5
58F
100
AcDbEntity
  8
0
  6
CONTINUOUS
 62
             3
100
AcDbPolyline
 90
       42
 70
             0
 10
-11527649.2052183
 20
-4207388.6078698514
 10
-11527648.755053399
 20
-4207387.18907566
 10
-11527648.755053399
 20
-4207387.18907566
 10
-11527648.36714025
 20
-4207386.0003104713
 10
-11527648.36714025
 20
-4207386.0003104713
 10
-11527647.940566281
 20
-4207384.7572302576
 10
-11527647.940566281
 20
-4207384.7572302576
 10
-11527647.41929348
 20
-4207383.3497467851
 10
-11527647.41929348
 20
-4207383.3497467851
 10
-11527646.88619878
 20
-4207382.0359641304
 10
-11527646.88619878
 20
-4207382.0359641304
 10
-11527646.34128217
 20
-4207380.8158822991
 10
-11527646.34128217
 20
-4207380.8158822991
 10
-11527645.660203639
 20
-4207379.4552021474
 10
-11527645.660203639
 20
-4207379.4552021474
 10
-11527644.912313839
 20
-4207378.1585768154
 10
-11527644.912313839
 20
-4207378.1585768154
 10
-11527644.081847031
 20
-4207376.9367234772
 10
-11527644.081847031
 20
-4207376.9367234772
 10
-11527642.602702361
 20
-4207375.2408884466
 10
-11527642.602702361
 20
-4207375.2408884466
 10
-11527640.83765942
 20
-4207373.8593515409
 10
-11527640.83765942
 20
-4207373.8593515409
 10
-11527638.65079651
 20
-4207372.7544613257
 10
-11527638.65079651
 20
-4207372.7544613257
 10
-11527636.39829994
 20
-4207371.9004795402
 10
-11527636.39829994
 20
-4207371.9004795402
 10
-11527634.27130934
 20
-4207371.101319205
 10
-11527634.27130934
 20
-4207371.101319205
 10
-11527632.011710949
 20
-4207370.215484133
 10
-11527632.011710949
 20
-4207370.215484133
 10
-11527631.019625019
 20
-4207369.8386463616
 10
-11527631.019625019
 20
-4207369.8386463616
 10
-11527629.87958196
 20
-4207369.4313979708
 10
-11527629.87958196
 20
-4207369.4313979708
 10
-11527628.79231412
 20
-4207369.0722606909
 10
-11527628.79231412
 20
-4207369.0722606909
 10
-11527627.632482691
 20
-4207368.7145661302
 10
-11527627.632482691
 20
-4207368.7145661302
 10
-11527626.60521842
 20
-4207368.4125139248
 10
-11527626.60521842
 20
-4207368.4125139248
 10
-11527625.29059216
 20
-4207368.0352828261
  0
LWPOLYLINE
  5
58D
100
AcDbEntity
  8
0
  6
CONTINUOUS
 62
             3
100
AcDbPolyline
 90
       40
 70
             0
 10
-11527648.66657632
 20
-4207362.3352231449
 10
-11527647.615176881
 20
-4207361.2946124617
 10
-11527647.615176881
 20
-4207361.2946124617
 10
-11527646.73194268
 20
-4207360.434589209
 10
-11527646.73194268
 20
-4207360.434589209
 10
-11527645.795290099
 20
-4207359.5497958064
 10
-11527645.795290099
 20
-4207359.5497958064
 10
-11527644.716629989
 20
-4207358.5789083466
 10
-11527644.716629989
 20
-4207358.5789083466
 10
-11527643.67172892
 20
-4207357.694941543
 10
-11527643.67172892
 20
-4207357.694941543
 10
-11527642.660586881
 20
-4207356.8978953948
 10
-11527642.660586881
 20
-4207356.8978953948
 10
-11527640.92929123
 20
-4207355.6873976011
 10
-11527640.92929123
 20
-4207355.6873976011
 10
-11527639.113487691
 20
-4207354.6695913747
 10
-11527639.113487691
 20
-4207354.6695913747
 10
-11527637.85702572
 20
-4207354.1420120299
 10
-11527637.85702572
 20
-4207354.1420120299
 10
-11527636.61328944
 20
-4207353.7812412428
 10
-11527636.61328944
 20
-4207353.7812412428
 10
-11527635.348877661
 20
-4207353.5962152053
 10
-11527635.348877661
 20
-4207353.5962152053
 10
-11527633.178119469
 20
-4207353.6294472665
 10
-11527633.178119469
 20
-4207353.6294472665
 10
-11527630.89537218
 20
-4207353.9041959038
 10
-11527630.89537218
 20
-4207353.9041959038
 10
-11527628.64912582
 20
-4207354.1872407114
 10
-11527628.64912582
 20
-4207354.1872407114
 10
-11527626.27610318
 20
-4207354.448245354
 10
-11527626.27610318
 20
-4207354.448245354
 10
-11527625.02461464
 20
-4207354.5990970684
 10
-11527625.02461464
 20
-4207354.5990970684
 10
-11527623.6603845
 20
-4207354.7965000244
 10
-11527623.6603845
 20
-4207354.7965000244
 10
-11527622.36185619
 20
-4207355.0214907983
 10
-11527622.36185619
 20
-4207355.0214907983
 10
-11527621.03126468
 20
-4207355.2791650342
 10
-11527621.03126468
 20
-4207355.2791650342
 10
-11527619.628983591
 20
-4207355.5671490552
  0
LWPOLYLINE
  5
58B
100
AcDbEntity
  8
0
  6
CONTINUOUS
 62
             3
100
AcDbPolyline
 90
       42
 70
             0
 10
-11527560.67369644
 20
-4207420.2771713976
 10
-11527562.15992273
 20
-4207420.3593712514
 10
-11527562.15992273
 20
-4207420.3593712514
 10
-11527563.408993401
 20
-4207420.4182081018
 10
-11527563.408993401
 20
-4207420.4182081018
 10
-11527564.722558791
 20
-4207420.460156844
 10
-11527564.722558791
 20
-4207420.460156844
 10
-11527566.2234246
 20
-4207420.4718588199
 10
-11527566.2234246
 20
-4207420.4718588199
 10
-11527567.64087069
 20
-4207420.43928036
 10
-11527567.64087069
 20
-4207420.43928036
 10
-11527568.974897111
 20
-4207420.3624214679
 10
-11527568.974897111
 20
-4207420.3624214679
 10
-11527570.48866893
 20
-4207420.2081057951
 10
-11527570.48866893
 20
-4207420.2081057951
 10
-11527571.96624006
 20
-4207419.9686063686
 10
-11527571.96624006
 20
-4207419.9686063686
 10
-11527573.403180361
 20
-4207419.6253815917
 10
-11527573.403180361
 20
-4207419.6253815917
 10
-11527575.513325591
 20
-4207418.8437086754
 10
-11527575.513325591
 20
-4207418.8437086754
 10
-11527577.4309779
 20
-4207417.6832646048
 10
-11527577.4309779
 20
-4207417.6832646048
 10
-11527579.23954046
 20
-4207416.0303117372
 10
-11527579.23954046
 20
-4207416.0303117372
 10
-11527580.8367736
 20
-4207414.227016964
 10
-11527580.8367736
 20
-4207414.227016964
 10
-11527582.338242751
 20
-4207412.521632365
 10
-11527582.338242751
 20
-4207412.521632365
 10
-11527583.96777755
 20
-4207410.7229926074
 10
-11527583.96777755
 20
-4207410.7229926074
 10
-11527584.6719255
 20
-4207409.9290046832
 10
-11527584.6719255
 20
-4207409.9290046832
 10
-11527585.45697422
 20
-4207409.0074581681
 10
-11527585.45697422
 20
-4207409.0074581681
 10
-11527586.178323889
 20
-4207408.1181969214
 10
-11527586.178323889
 20
-4207408.1181969214
 10
-11527586.924055999
 20
-4207407.1605759226
 10
-11527586.924055999
 20
-4207407.1605759226
 10
-11527587.570752669
 20
-4207406.3071763273
 10
-11527587.570752669
 20
-4207406.3071763273
 10
-11527588.38964276
 20
-4207405.2117474163
  0
LWPOLYLINE
  5
589
100
AcDbEntity
  8
0
  6
CONTINUOUS
 62
             3
100
AcDbPolyline
 90
       42
 70
             0
 10
-11527649.723522499
 20
-4207361.2711168909
 10
-11527648.665574729
 20
-4207360.2240390899
 10
-11527648.665574729
 20
-4207360.2240390899
 10
-11527647.769647971
 20
-4207359.3517120164
 10
-11527647.769647971
 20
-4207359.3517120164
 10
-11527646.814247319
 20
-4207358.4492579577
 10
-11527646.814247319
 20
-4207358.4492579577
 10
-11527645.69859297
 20
-4207357.4452407844
 10
-11527645.69859297
 20
-4207357.4452407844
 10
-11527644.616015811
 20
-4207356.5296854796
 10
-11527644.616015811
 20
-4207356.5296854796
 10
-11527643.566515829
 20
-4207355.7025920413
 10
-11527643.566515829
 20
-4207355.7025920413
 10
-11527642.331111129
 20
-4207354.8142825859
 10
-11527642.331111129
 20
-4207354.8142825859
 10
-11527641.066315761
 20
-4207354.0137395924
 10
-11527641.066315761
 20
-4207354.0137395924
 10
-11527639.76315039
 20
-4207353.317779352
 10
-11527639.76315039
 20
-4207353.317779352
 10
-11527637.665338971
 20
-4207352.5035848152
 10
-11527637.665338971
 20
-4207352.5035848152
 10
-11527635.460438861
 20
-4207352.1005509868
 10
-11527635.460438861
 20
-4207352.1005509868
 10
-11527633.010599829
 20
-4207352.138505158
 10
-11527633.010599829
 20
-4207352.138505158
 10
-11527630.61924804
 20
-4207352.4291291907
 10
-11527630.61924804
 20
-4207352.4291291907
 10
-11527628.364503071
 20
-4207352.709969677
 10
-11527628.364503071
 20
-4207352.709969677
 10
-11527625.95205998
 20
-4207352.9756894112
 10
-11527625.95205998
 20
-4207352.9756894112
 10
-11527624.89848629
 20
-4207353.103061446
 10
-11527624.89848629
 20
-4207353.103061446
 10
-11527623.69977051
 20
-4207353.2722653346
 10
-11527623.69977051
 20
-4207353.2722653346
 10
-11527622.570143251
 20
-4207353.4595436212
 10
-11527622.570143251
 20
-4207353.4595436212
 10
-11527621.376934569
 20
-4207353.6818213621
 10
-11527621.376934569
 20
-4207353.6818213621
 10
-11527620.32696656
 20
-4207353.8917609332
 10
-11527620.32696656
 20
-4207353.8917609332
 10
-11527618.987614781
 20
-4207354.1686766641
  0
LWPOLYLINE
  5
587
100
AcDbEntity
  8
0
  6
CONTINUOUS
 62
             3
100
AcDbPolyline
 90
       42
 70
             0
 10
-11527542.93403241
 20
-4207399.4716187287
 10
-11527544.21182026
 20
-4207400.2350868797
 10
-11527544.21182026
 20
-4207400.2350868797
 10
-11527545.29047456
 20
-4207400.8676564051
 10
-11527545.29047456
 20
-4207400.8676564051
 10
-11527546.434084401
 20
-4207401.5152444504
 10
-11527546.434084401
 20
-4207401.5152444504
 10
-11527547.75759688
 20
-4207402.2230931474
 10
-11527547.75759688
 20
-4207402.2230931474
 10
-11527549.02782305
 20
-4207402.8529664064
 10
-11527549.02782305
 20
-4207402.8529664064
 10
-11527550.24476287
 20
-4207403.4048642255
 10
-11527550.24476287
 20
-4207403.4048642255
 10
-11527551.65685533
 20
-4207403.9717093278
 10
-11527551.65685533
 20
-4207403.9717093278
 10
-11527553.076480521
 20
-4207404.4463046556
 10
-11527553.076480521
 20
-4207404.4463046556
 10
-11527554.50833248
 20
-4207404.8101736642
 10
-11527554.50833248
 20
-4207404.8101736642
 10
-11527556.740034821
 20
-4207405.0986700561
 10
-11527556.740034821
 20
-4207405.0986700561
 10
-11527558.97731683
 20
-4207404.9623253169
 10
-11527558.97731683
 20
-4207404.9623253169
 10
-11527561.34688497
 20
-4207404.3391891764
 10
-11527561.34688497
 20
-4207404.3391891764
 10
-11527563.599197529
 20
-4207403.4847222017
 10
-11527563.599197529
 20
-4207403.4847222017
 10
-11527565.72121419
 20
-4207402.6724466421
 10
-11527565.72121419
 20
-4207402.6724466421
 10
-11527567.99996518
 20
-4207401.8371128188
 10
-11527567.99996518
 20
-4207401.8371128188
 10
-11527568.99244182
 20
-4207401.4613052942
 10
-11527568.99244182
 20
-4207401.4613052942
 10
-11527570.115831951
 20
-4207401.0101467008
 10
-11527570.115831951
 20
-4207401.0101467008
 10
-11527571.167815659
 20
-4207400.5579728829
 10
-11527571.167815659
 20
-4207400.5579728829
 10
-11527572.273157321
 20
-4207400.0566005977
 10
-11527572.273157321
 20
-4207400.0566005977
 10
-11527573.242373349
 20
-4207399.6014877018
 10
-11527573.242373349
 20
-4207399.6014877018
 10
-11527574.47653571
 20
-4207399.012090778
  0
LWPOLYLINE
  5
585
100
AcDbEntity
  8
0
  6
CONTINUOUS
 62
             3
100
AcDbPolyline
 90
       42
 70
             0
 10
-11527536.89516243
 20
-4207372.8051838139
 10
-11527537.67178604
 20
-4207374.0750189088
 10
-11527537.67178604
 20
-4207374.0750189088
 10
-11527538.33291728
 20
-4207375.1364070512
 10
-11527538.33291728
 20
-4207375.1364070512
 10
-11527539.04458433
 20
-4207376.2412797846
 10
-11527539.04458433
 20
-4207376.2412797846
 10
-11527539.88754273
 20
-4207377.4831155958
 10
-11527539.88754273
 20
-4207377.4831155958
 10
-11527540.71955546
 20
-4207378.6311442005
 10
-11527540.71955546
 20
-4207378.6311442005
 10
-11527541.54062245
 20
-4207379.6853655931
 10
-11527541.54062245
 20
-4207379.6853655931
 10
-11527542.527542179
 20
-4207380.8435140857
 10
-11527542.527542179
 20
-4207380.8435140857
 10
-11527543.564002421
 20
-4207381.9234800991
 10
-11527543.564002421
 20
-4207381.9234800991
 10
-11527544.66274599
 20
-4207382.9110848894
 10
-11527544.66274599
 20
-4207382.9110848894
 10
-11527546.5047493
 20
-4207384.203659541
 10
-11527546.5047493
 20
-4207384.203659541
 10
-11527548.54912672
 20
-4207385.1226490764
 10
-11527548.54912672
 20
-4207385.1226490764
 10
-11527550.93686091
 20
-4207385.6720826374
 10
-11527550.93686091
 20
-4207385.6720826374
 10
-11527553.328275239
 20
-4207385.9621915547
 10
-11527553.328275239
 20
-4207385.9621915547
 10
-11527555.58471095
 20
-4207386.2291075699
 10
-11527555.58471095
 20
-4207386.2291075699
 10
-11527557.99064373
 20
-4207386.5484445943
 10
-11527557.99064373
 20
-4207386.5484445943
 10
-11527559.04408462
 20
-4207386.676910446
 10
-11527559.04408462
 20
-4207386.676910446
 10
-11527560.24846101
 20
-4207386.7994947741
 10
-11527560.24846101
 20
-4207386.7994947741
 10
-11527561.390082
 20
-4207386.8879959537
 10
-11527561.390082
 20
-4207386.8879959537
 10
-11527562.601812759
 20
-4207386.9577307282
 10
-11527562.601812759
 20
-4207386.9577307282
 10
-11527563.671512419
 20
-4207387.005165413
 10
-11527563.671512419
 20
-4207387.005165413
 10
-11527565.038215339
 20
-4207387.0568242073
  0
LWPOLYLINE
  5
583
100
AcDbEntity
  8
0
  6
CONTINUOUS
 62
             3
100
AcDbPolyline
 90
        8
 70
             0
 10
-11527572.42711387
 20
-4207319.7647766247
 10
-11527572.46934239
 20
-4207319.6140478766
 10
-11527572.46934239
 20
-4207319.6140478766
 10
-11527572.436587671
 20
-4207319.4855477102
 10
-11527572.436587671
 20
-4207319.4855477102
 10
-11527572.34482896
 20
-4207319.4105558619
 10
-11527572.34482896
 20
-4207319.4105558619
 10
-11527572.268657871
 20
-4207319.3855058327
  0
LWPOLYLINE
  5
581
100
AcDbEntity
  8
0
  6
CONTINUOUS
 62
             3
100
AcDbPolyline
 90
        8
 70
             0
 10
-11527537.67943185
 20
-4207388.7893423354
 10
-11527537.53489216
 20
-4207388.7292533685
 10
-11527537.53489216
 20
-4207388.7292533685
 10
-11527537.403380761
 20
-4207388.7462802734
 10
-11527537.403380761
 20
-4207388.7462802734
 10
-11527537.3178754
 20
-4207388.8283306928
 10
-11527537.3178754
 20
-4207388.8283306928
 10
-11527537.28382661
 20
-4207388.9009269662
  0
LWPOLYLINE
  5
57F
100
AcDbEntity
  8
0
  6
CONTINUOUS
 62
             3
100
AcDbPolyline
 90
        4
 70
             0
 10
-11527602.01258762
 20
-4207431.6036165887
 10
-11527601.93390982
 20
-4207431.7447997853
 10
-11527601.93390982
 20
-4207431.7447997853
 10
-11527601.939701039
 20
-4207431.8810774321
  0
LWPOLYLINE
  5
57D
100
AcDbEntity
  8
0
  6
CONTINUOUS
 62
             3
100
AcDbPolyline
 90
        4
 70
             0
 10
-11527472.96341618
 20
-4207399.4872044679
 10
-11527473.10948718
 20
-4207399.8086544154
 10
-11527473.10948718
 20
-4207399.8086544154
 10
-11527473.21349385
 20
-4207400.5632903157
  0
LWPOLYLINE
  5
57B
100
AcDbEntity
  8
0
  6
CONTINUOUS
 62
             3
100
AcDbPolyline
 90
       14
 70
             0
 10
-11527463.808649
 20
-4207373.8530988703
 10
-11527464.1377322
 20
-4207378.612581877
 10
-11527464.1377322
 20
-4207378.612581877
 10
-11527465.11875798
 20
-4207383.3720648866
 10
-11527465.11875798
 20
-4207383.3720648866
 10
-11527466.368872469
 20
-4207387.1988590006
 10
-11527466.368872469
 20
-4207387.1988590006
 10
-11527467.95414274
 20
-4207390.9010221949
 10
-11527467.95414274
 20
-4207390.9010221949
 10
-11527469.87127929
 20
-4207394.563552252
 10
-11527469.87127929
 20
-4207394.563552252
 10
-11527472.028955691
 20
-4207398.0909516048
 10
-11527472.028955691
 20
-4207398.0909516048
 10
-11527472.96341618
 20
-4207399.4872044679
  0
LWPOLYLINE
  5
579
100
AcDbEntity
  8
0
  6
CONTINUOUS
 62
             3
100
AcDbPolyline
 90
       14
 70
             0
 10
-11527472.96341618
 20
-4207348.2189932754
 10
-11527469.858220341
 20
-4207353.1658537164
 10
-11527469.858220341
 20
-4207353.1658537164
 10
-11527467.214164291
 20
-4207358.4286577981
 10
-11527467.214164291
 20
-4207358.4286577981
 10
-11527466.060907271
 20
-4207361.3439161414
 10
-11527466.060907271
 20
-4207361.3439161414
 10
-11527465.114660701
 20
-4207364.3491233233
 10
-11527465.114660701
 20
-4207364.3491233233
 10
-11527464.398625631
 20
-4207367.4763619471
 10
-11527464.398625631
 20
-4207367.4763619471
 10
-11527463.955226639
 20
-4207370.6780617619
 10
-11527463.955226639
 20
-4207370.6780617619
 10
-11527463.808649
 20
-4207373.8530988703
  0
LWPOLYLINE
  5
577
100
AcDbEntity
  8
0
  6
CONTINUOUS
 62
             3
100
AcDbPolyline
 90
        4
 70
             0
 10
-11527473.21349385
 20
-4207347.1429074248
 10
-11527473.113089981
 20
-4207347.8857065113
 10
-11527473.113089981
 20
-4207347.8857065113
 10
-11527472.96341618
 20
-4207348.2189932754
  0
LWPOLYLINE
  5
575
100
AcDbEntity
  8
0
  6
CONTINUOUS
 62
             3
100
AcDbPolyline
 90
        6
 70
             0
 10
-11527463.808649
 20
-4207414.8725164076
 10
-11527464.674877141
 20
-4207415.2261974514
 10
-11527464.674877141
 20
-4207415.2261974514
 10
-11527468.1398002
 20
-4207416.640918876
 10
-11527468.1398002
 20
-4207416.640918876
 10
-11527472.96341618
 20
-4207418.6103746518
  0
LWPOLYLINE
  5
573
100
AcDbEntity
  8
0
  6
CONTINUOUS
 62
             3
100
AcDbPolyline
 90
        6
 70
             0
 10
-11527472.96341618
 20
-4207329.0958230915
 10
-11527472.34725612
 20
-4207329.3473967919
 10
-11527472.34725612
 20
-4207329.3473967919
 10
-11527468.882314149
 20
-4207330.7621132517
 10
-11527468.882314149
 20
-4207330.7621132517
 10
-11527463.808649
 20
-4207332.8336813394
  0
LWPOLYLINE
  5
571
100
AcDbEntity
  8
0
  6
CONTINUOUS
 62
             3
100
AcDbPolyline
 90
       16
 70
             0
 10
-11527473.21349385
 20
-4207418.9095304487
 10
-11527473.209214959
 20
-4207418.8644420858
 10
-11527473.209214959
 20
-4207418.8644420858
 10
-11527473.19645147
 20
-4207418.8201251989
 10
-11527473.19645147
 20
-4207418.8201251989
 10
-11527473.1754218
 20
-4207418.7773380596
 10
-11527473.1754218
 20
-4207418.7773380596
 10
-11527473.14648574
 20
-4207418.7368127694
 10
-11527473.14648574
 20
-4207418.7368127694
 10
-11527473.11013842
 20
-4207418.6992427278
 10
-11527473.11013842
 20
-4207418.6992427278
 10
-11527473.067001751
 20
-4207418.6652707634
 10
-11527473.067001751
 20
-4207418.6652707634
 10
-11527473.0178138
 20
-4207418.635478152
 10
-11527473.0178138
 20
-4207418.635478152
 10
-11527472.96341618
 20
-4207418.6103746518
  0
LWPOLYLINE
  5
56F
100
AcDbEntity
  8
0
  6
CONTINUOUS
 62
             3
100
AcDbPolyline
 90
       10
 70
             0
 10
-11527445.013076071
 20
-4207416.9872798463
 10
-11527445.18232137
 20
-4207416.2874448979
 10
-11527445.18232137
 20
-4207416.2874448979
 10
-11527445.6710047
 20
-4207415.6665773978
 10
-11527445.6710047
 20
-4207415.6665773978
 10
-11527446.42397435
 20
-4207415.1947395802
 10
-11527446.42397435
 20
-4207415.1947395802
 10
-11527447.35611118
 20
-4207414.9251298923
 10
-11527447.35611118
 20
-4207414.9251298923
 10
-11527448.014008131
 20
-4207414.8737218194
  0
LWPOLYLINE
  5
56D
100
AcDbEntity
  8
0
  6
CONTINUOUS
 62
             3
100
AcDbPolyline
 90
       10
 70
             0
 10
-11527448.014008131
 20
-4207332.832475923
 10
-11527447.020913109
 20
-4207332.7134078396
 10
-11527447.020913109
 20
-4207332.7134078396
 10
-11527446.139783479
 20
-4207332.369639094
 10
-11527446.139783479
 20
-4207332.369639094
 10
-11527445.46980265
 20
-4207331.8398413435
 10
-11527445.46980265
 20
-4207331.8398413435
 10
-11527445.0864655
 20
-4207331.1835416378
 10
-11527445.0864655
 20
-4207331.1835416378
 10
-11527445.013076071
 20
-4207330.718917896
  0
LWPOLYLINE
  5
56B
100
AcDbEntity
  8
0
  6
CONTINUOUS
 62
             3
100
AcDbPolyline
 90
       16
 70
             0
 10
-11527473.21349385
 20
-4207324.3402459528
 10
-11527473.20388351
 20
-4207324.4092422267
 10
-11527473.20388351
 20
-4207324.4092422267
 10
-11527473.1754218
 20
-4207324.4755870132
 10
-11527473.1754218
 20
-4207324.4755870132
 10
-11527473.129202491
 20
-4207324.5367307197
 10
-11527473.129202491
 20
-4207324.5367307197
 10
-11527473.067001751
 20
-4207324.5903236251
 10
-11527473.067001751
 20
-4207324.5903236251
 10
-11527472.99120992
 20
-4207324.6343061859
 10
-11527472.99120992
 20
-4207324.6343061859
 10
-11527472.90473968
 20
-4207324.6669881772
 10
-11527472.90473968
 20
-4207324.6669881772
 10
-11527472.810913989
 20
-4207324.6871136473
 10
-11527472.810913989
 20
-4207324.6871136473
 10
-11527472.713338509
 20
-4207324.6939091878
  0
LWPOLYLINE
  5
569
100
AcDbEntity
  8
0
  6
CONTINUOUS
 62
             3
100
AcDbPolyline
 90
       16
 70
             0
 10
-11527445.013076071
 20
-4207324.3402459528
 10
-11527445.022686411
 20
-4207324.4092422267
 10
-11527445.022686411
 20
-4207324.4092422267
 10
-11527445.05114813
 20
-4207324.4755870132
 10
-11527445.05114813
 20
-4207324.4755870132
 10
-11527445.097367451
 20
-4207324.5367307197
 10
-11527445.097367451
 20
-4207324.5367307197
 10
-11527445.15956817
 20
-4207324.5903236251
 10
-11527445.15956817
 20
-4207324.5903236251
 10
-11527445.235359989
 20
-4207324.6343061859
 10
-11527445.235359989
 20
-4207324.6343061859
 10
-11527445.32183026
 20
-4207324.6669881772
 10
-11527445.32183026
 20
-4207324.6669881772
 10
-11527445.41565595
 20
-4207324.6871136473
 10
-11527445.41565595
 20
-4207324.6871136473
 10
-11527445.51323143
 20
-4207324.6939091878
  0
LWPOLYLINE
  5
567
100
AcDbEntity
  8
0
  6
CONTINUOUS
 62
             3
100
AcDbPolyline
 90
       16
 70
             0
 10
-11527473.21349385
 20
-4207423.3659517895
 10
-11527473.20388351
 20
-4207423.2969555147
 10
-11527473.20388351
 20
-4207423.2969555147
 10
-11527473.1754218
 20
-4207423.2306107273
 10
-11527473.1754218
 20
-4207423.2306107273
 10
-11527473.129202491
 20
-4207423.1694670226
 10
-11527473.129202491
 20
-4207423.1694670226
 10
-11527473.067001751
 20
-4207423.1158741172
 10
-11527473.067001751
 20
-4207423.1158741172
 10
-11527472.99120992
 20
-4207423.0718915574
 10
-11527472.99120992
 20
-4207423.0718915574
 10
-11527472.90473968
 20
-4207423.0392095633
 10
-11527472.90473968
 20
-4207423.0392095633
 10
-11527472.810913989
 20
-4207423.0190840932
 10
-11527472.810913989
 20
-4207423.0190840932
 10
-11527472.713338509
 20
-4207423.0122885527
  0
LWPOLYLINE
  5
565
100
AcDbEntity
  8
0
  6
CONTINUOUS
 62
             3
100
AcDbPolyline
 90
       16
 70
             0
 10
-11527445.013076071
 20
-4207423.3659517895
 10
-11527445.022686411
 20
-4207423.2969555147
 10
-11527445.022686411
 20
-4207423.2969555147
 10
-11527445.05114813
 20
-4207423.2306107273
 10
-11527445.05114813
 20
-4207423.2306107273
 10
-11527445.097367451
 20
-4207423.1694670226
 10
-11527445.097367451
 20
-4207423.1694670226
 10
-11527445.15956817
 20
-4207423.1158741172
 10
-11527445.15956817
 20
-4207423.1158741172
 10
-11527445.235359989
 20
-4207423.0718915574
 10
-11527445.235359989
 20
-4207423.0718915574
 10
-11527445.32183026
 20
-4207423.0392095633
 10
-11527445.32183026
 20
-4207423.0392095633
 10
-11527445.41565595
 20
-4207423.0190840932
 10
-11527445.41565595
 20
-4207423.0190840932
 10
-11527445.51323143
 20
-4207423.0122885527
  0
LWPOLYLINE
  5
563
100
AcDbEntity
  8
0
  6
CONTINUOUS
 62
             3
100
AcDbPolyline
 90
       16
 70
             0
 10
-11527473.21349385
 20
-4207323.6329194829
 10
-11527473.20388351
 20
-4207323.7019157559
 10
-11527473.20388351
 20
-4207323.7019157559
 10
-11527473.1754218
 20
-4207323.7682605423
 10
-11527473.1754218
 20
-4207323.7682605423
 10
-11527473.129202491
 20
-4207323.829404247
 10
-11527473.129202491
 20
-4207323.829404247
 10
-11527473.067001751
 20
-4207323.8829971524
 10
-11527473.067001751
 20
-4207323.8829971524
 10
-11527472.99120992
 20
-4207323.9269797159
 10
-11527472.99120992
 20
-4207323.9269797159
 10
-11527472.90473968
 20
-4207323.9596617064
 10
-11527472.90473968
 20
-4207323.9596617064
 10
-11527472.810913989
 20
-4207323.9797871774
 10
-11527472.810913989
 20
-4207323.9797871774
 10
-11527472.713338509
 20
-4207323.9865827188
  0
LWPOLYLINE
  5
561
100
AcDbEntity
  8
0
  6
CONTINUOUS
 62
             3
100
AcDbPolyline
 90
       16
 70
             0
 10
-11527445.013076071
 20
-4207323.6329194829
 10
-11527445.022686411
 20
-4207323.7019157559
 10
-11527445.022686411
 20
-4207323.7019157559
 10
-11527445.05114813
 20
-4207323.7682605423
 10
-11527445.05114813
 20
-4207323.7682605423
 10
-11527445.097367451
 20
-4207323.829404247
 10
-11527445.097367451
 20
-4207323.829404247
 10
-11527445.15956817
 20
-4207323.8829971524
 10
-11527445.15956817
 20
-4207323.8829971524
 10
-11527445.235359989
 20
-4207323.9269797159
 10
-11527445.235359989
 20
-4207323.9269797159
 10
-11527445.32183026
 20
-4207323.9596617064
 10
-11527445.32183026
 20
-4207323.9596617064
 10
-11527445.41565595
 20
-4207323.9797871774
 10
-11527445.41565595
 20
-4207323.9797871774
 10
-11527445.51323143
 20
-4207323.9865827188
  0
LWPOLYLINE
  5
55F
100
AcDbEntity
  8
0
  6
CONTINUOUS
 62
             3
100
AcDbPolyline
 90
       16
 70
             0
 10
-11527473.21349385
 20
-4207328.7966672936
 10
-11527473.209214959
 20
-4207328.8417556575
 10
-11527473.209214959
 20
-4207328.8417556575
 10
-11527473.19645147
 20
-4207328.8860725434
 10
-11527473.19645147
 20
-4207328.8860725434
 10
-11527473.1754218
 20
-4207328.9288596809
 10
-11527473.1754218
 20
-4207328.9288596809
 10
-11527473.14648574
 20
-4207328.9693849711
 10
-11527473.14648574
 20
-4207328.9693849711
 10
-11527473.11013842
 20
-4207329.0069550136
 10
-11527473.11013842
 20
-4207329.0069550136
 10
-11527473.067001751
 20
-4207329.040926978
 10
-11527473.067001751
 20
-4207329.040926978
 10
-11527473.0178138
 20
-4207329.0707195885
 10
-11527473.0178138
 20
-4207329.0707195885
 10
-11527472.96341618
 20
-4207329.0958230915
  0
SPLINE
  5
55D
100
AcDbEntity
  8
1
  6
CONTINUOUS
 62
             2
100
AcDbSpline
210
0.0
220
0.0
230
1.0
 70
             0
 71
             3
 72
             9
 73
             5
 74
             5
 42
0.00000000001
 43
0.00000000001
 44
0.00000000001
 40
0.0
 40
0.0
 40
0.0
 40
0.0
 40
4.0311288741492746
 40
8.0622577482985491
 40
8.0622577482985491
 40
8.0622577482985491
 40
8.0622577482985491
 10
-11527686.98371903
 20
-4207335.2554899789
 30
0.0
 10
-11527688.88004343
 20
-4207334.0776947513
 30
0.0
 10
-11527686.98371903
 20
-4207332.6554514607
 30
0.0
 10
-11527685.08739466
 20
-4207332.2998906374
 30
0.0
 10
-11527686.98371903
 20
-4207330.0554129407
 30
0.0
 11
-11527686.98371903
 21
-4207335.2554899789
 31
0.0
 11
-11527688.050401505
 21
-4207333.8138019536
 31
0.0
 11
-11527686.983719038
 21
-4207332.922122078
 31
0.0
 11
-11527685.917036574
 21
-4207332.1637775097
 31
0.0
 11
-11527686.98371903
 21
-4207330.0554129407
 31
0.0
  0
SPLINE
  5
55C
100
AcDbEntity
  8
1
  6
CONTINUOUS
 62
             2
100
AcDbSpline
210
0.0
220
0.0
230
1.0
 70
             0
 71
             3
 72
             9
 73
             5
 74
             5
 42
0.00000000001
 43
0.00000000001
 44
0.00000000001
 40
0.0
 40
0.0
 40
0.0
 40
0.0
 40
4.0311288741492746
 40
8.0622577482985491
 40
8.0622577482985491
 40
8.0622577482985491
 40
8.0622577482985491
 10
-11527685.38369533
 20
-4207335.2554899789
 30
0.0
 10
-11527687.280019719
 20
-4207334.0776947513
 30
0.0
 10
-11527685.38369533
 20
-4207332.6554514607
 30
0.0
 10
-11527683.487370949
 20
-4207332.2998906374
 30
0.0
 10
-11527685.38369533
 20
-4207330.0554129407
 30
0.0
 11
-11527685.38369533
 21
-4207335.2554899789
 31
0.0
 11
-11527686.4503778
 21
-4207333.8138019536
 31
0.0
 11
-11527685.383695334
 21
-4207332.922122078
 31
0.0
 11
-11527684.317012867
 21
-4207332.1637775097
 31
0.0
 11
-11527685.38369533
 21
-4207330.0554129407
 31
0.0
  0
SPLINE
  5
55B
100
AcDbEntity
  8
1
  6
CONTINUOUS
 62
             3
100
AcDbSpline
210
0.0
220
0.0
230
1.0
 70
             0
 71
             1
 72
             4
 73
             2
 74
             3
 42
0.00000000001
 43
0.00000000001
 44
0.00000000001
 40
0.0
 40
0.0
 40
4.1091200131155698
 40
4.1091200131155698
 10
-11527601.93941522
 20
-4207340.46663306
 30
0.0
 10
-11527599.777601659
 20
-4207343.96119022
 30
0.0
 11
-11527601.93941522
 21
-4207340.46663306
 31
0.0
 11
-11527600.85850844
 21
-4207342.2139116395
 31
0.0
 11
-11527599.777601659
 21
-4207343.96119022
 31
0.0
  0
SPLINE
  5
55A
100
AcDbEntity
  8
1
  6
CONTINUOUS
 62
             3
100
AcDbSpline
210
0.0
220
0.0
230
1.0
 70
             0
 71
             1
 72
             4
 73
             2
 74
             3
 42
0.00000000001
 43
0.00000000001
 44
0.00000000001
 40
0.0
 40
0.0
 40
2.2268735334976908
 40
2.2268735334976908
 10
-11527606.966789121
 20
-4207344.6613362776
 30
0.0
 10
-11527605.60781257
 20
-4207346.4255061634
 30
0.0
 11
-11527606.966789121
 21
-4207344.6613362776
 31
0.0
 11
-11527606.287300846
 21
-4207345.54342122
 31
0.0
 11
-11527605.60781257
 21
-4207346.4255061634
 31
0.0
  0
SPLINE
  5
559
100
AcDbEntity
  8
1
  6
CONTINUOUS
 62
             3
100
AcDbSpline
210
0.0
220
0.0
230
1.0
 70
             0
 71
             3
 72
             8
 73
             4
 74
             3
 42
0.00000000001
 43
0.00000000001
 44
0.00000000001
 40
29.118397105831889
 40
29.118397105831889
 40
29.118397105831889
 40
29.118397105831889
 40
30.744707299924901
 40
30.744707299924901
 40
30.744707299924901
 40
30.744707299924901
 10
-11527630.343929309
 20
-4207329.6501647001
 30
0.0
 10
-11527630.88903627
 20
-4207329.7140002428
 30
0.0
 10
-11527631.434104711
 20
-4207329.7948735114
 30
0.0
 10
-11527631.978682751
 20
-4207329.8933781767
 30
0.0
 11
-11527630.343929309
 21
-4207329.6501647001
 31
0.0
 11
-11527631.161504377
 21
-4207329.7587705171
 31
0.0
 11
-11527631.978682751
 21
-4207329.8933781767
 31
0.0
  0
SPLINE
  5
558
100
AcDbEntity
  8
1
  6
CONTINUOUS
 62
             3
100
AcDbSpline
210
0.0
220
0.0
230
1.0
 70
             0
 71
             3
 72
             8
 73
             4
 74
             3
 42
0.00000000001
 43
0.00000000001
 44
0.00000000001
 40
0.0
 40
0.0
 40
0.0
 40
0.0
 40
11.92493041338339
 40
11.92493041338339
 40
11.92493041338339
 40
11.92493041338339
 10
-11527613.744461341
 20
-4207332.5592866633
 30
0.0
 10
-11527619.957533751
 20
-4207328.9269774323
 30
0.0
 10
-11527624.31192725
 20
-4207328.4922658047
 30
0.0
 10
-11527630.343929309
 20
-4207329.6501647001
 30
0.0
 11
-11527613.744461341
 21
-4207332.5592866633
 31
0.0
 11
-11527622.112096706
 21
-4207329.308397634
 31
0.0
 11
-11527630.343929309
 21
-4207329.6501647001
 31
0.0
  0
SPLINE
  5
557
100
AcDbEntity
  8
1
  6
CONTINUOUS
 62
             3
100
AcDbSpline
210
0.0
220
0.0
230
1.0
 70
             0
 71
             3
 72
            10
 73
             6
 74
             7
 42
0.00000000001
 43
0.00000000001
 44
0.00000000001
 40
0.0
 40
0.0
 40
0.0
 40
0.0
 40
3.1445827506822108
 40
4.6109354897643957
 40
6.9221566318159127
 40
6.9221566318159127
 40
6.9221566318159127
 40
6.9221566318159127
 10
-11527625.226497941
 20
-4207325.608834587
 30
0.0
 10
-11527626.10679709
 20
-4207326.1778463889
 30
0.0
 10
-11527627.37489002
 20
-4207327.0476525258
 30
0.0
 10
-11527629.223971499
 20
-4207328.4282493871
 30
0.0
 10
-11527630.20792296
 20
-4207329.2145851562
 30
0.0
 10
-11527630.79995705
 20
-4207329.7075586393
 30
0.0
 11
-11527625.226497941
 21
-4207325.608834587
 31
0.0
 11
-11527626.535155363
 21
-4207326.4803627217
 31
0.0
 11
-11527627.819506366
 21
-4207327.387408088
 31
0.0
 11
-11527628.409803146
 21
-4207327.8223061208
 31
0.0
 11
-11527628.994498953
 21
-4207328.2647030745
 31
0.0
 11
-11527629.904496249
 21
-4207328.9770585792
 31
0.0
 11
-11527630.79995705
 21
-4207329.7075586393
 31
0.0
  0
SPLINE
  5
556
100
AcDbEntity
  8
1
  6
CONTINUOUS
 62
             3
100
AcDbSpline
210
0.0
220
0.0
230
1.0
 70
             0
 71
             3
 72
            10
 73
             6
 74
             7
 42
0.00000000001
 43
0.00000000001
 44
0.00000000001
 40
0.0
 40
0.0
 40
0.0
 40
0.0
 40
3.0195802602211281
 40
4.9302391255638787
 40
7.5235050349192258
 40
7.5235050349192258
 40
7.5235050349192258
 40
7.5235050349192258
 10
-11527605.010511231
 20
-4207331.4906892926
 30
0.0
 10
-11527604.889995361
 20
-4207332.489988341
 30
0.0
 10
-11527604.67678434
 20
-4207334.1196386116
 30
0.0
 10
-11527604.31058713
 20
-4207336.6006966131
 30
0.0
 10
-11527604.069070499
 20
-4207338.0825440427
 30
0.0
 10
-11527603.922641831
 20
-4207338.9344851393
 30
0.0
 11
-11527605.010511231
 21
-4207331.4906892926
 31
0.0
 11
-11527604.822190328
 21
-4207332.9887095029
 31
0.0
 11
-11527604.618789658
 21
-4207334.4847639175
 31
0.0
 11
-11527604.482306652
 21
-4207335.4303131271
 31
0.0
 11
-11527604.339800123
 21
-4207336.3749729814
 31
0.0
 11
-11527604.136755707
 21
-4207337.6556339851
 31
0.0
 11
-11527603.922641831
 21
-4207338.9344851393
 31
0.0
  0
SPLINE
  5
555
100
AcDbEntity
  8
1
  6
CONTINUOUS
 62
             3
100
AcDbSpline
210
0.0
220
0.0
230
1.0
 70
             0
 71
             3
 72
             9
 73
             5
 74
             5
 42
0.00000000001
 43
0.00000000001
 44
0.00000000001
 40
0.0
 40
0.0
 40
0.0
 40
0.0
 40
2.8992997233345039
 40
6.3949158239997974
 40
6.3949158239997974
 40
6.3949158239997974
 40
6.3949158239997974
 10
-11527608.161306299
 20
-4207329.4458663343
 30
0.0
 10
-11527608.22307615
 20
-4207330.4104867186
 30
0.0
 10
-11527608.26681269
 20
-4207332.5435588034
 30
0.0
 10
-11527608.106071251
 20
-4207334.6730455328
 30
0.0
 10
-11527607.95759148
 20
-4207335.828657195
 30
0.0
 11
-11527608.161306299
 21
-4207329.4458663343
 31
0.0
 11
-11527608.222494302
 21
-4207330.8942440152
 31
0.0
 11
-11527608.220703963
 21
-4207332.3439160399
 31
0.0
 11
-11527608.134789806
 21
-4207334.0898448918
 31
0.0
 11
-11527607.95759148
 21
-4207335.828657195
 31
0.0
  0
SPLINE
  5
554
100
AcDbEntity
  8
1
  6
CONTINUOUS
 62
             3
100
AcDbSpline
210
0.0
220
0.0
230
1.0
 70
             0
 71
             2
 72
             6
 73
             3
 74
             3
 42
0.00000000001
 43
0.00000000001
 44
0.00000000001
 40
0.0
 40
0.0
 40
0.0
 40
0.5892166986288459
 40
0.5892166986288459
 40
0.5892166986288459
 10
-11527633.336251291
 20
-4207335.6132266754
 30
0.0
 10
-11527633.403455069
 20
-4207335.3263812391
 30
0.0
 10
-11527633.470658829
 20
-4207335.0395358037
 30
0.0
 11
-11527633.336251291
 21
-4207335.6132266754
 31
0.0
 11
-11527633.403455066
 21
-4207335.32638124
 31
0.0
 11
-11527633.470658829
 21
-4207335.0395358037
 31
0.0
  0
SPLINE
  5
553
100
AcDbEntity
  8
1
  6
CONTINUOUS
 62
             3
100
AcDbSpline
210
0.0
220
0.0
230
1.0
 70
             0
 71
             2
 72
             6
 73
             3
 74
             3
 42
0.00000000001
 43
0.00000000001
 44
0.00000000001
 40
0.0
 40
0.0
 40
0.0
 40
0.2258581366520345
 40
0.2258581366520345
 40
0.2258581366520345
 10
-11527631.19785214
 20
-4207335.0989746097
 30
0.0
 10
-11527631.232947331
 20
-4207334.9916355126
 30
0.0
 10
-11527631.268042499
 20
-4207334.8842964172
 30
0.0
 11
-11527631.19785214
 21
-4207335.0989746097
 31
0.0
 11
-11527631.232947323
 21
-4207334.9916355126
 31
0.0
 11
-11527631.268042499
 21
-4207334.8842964172
 31
0.0
  0
SPLINE
  5
552
100
AcDbEntity
  8
1
  6
CONTINUOUS
 62
             3
100
AcDbSpline
210
0.0
220
0.0
230
1.0
 70
             0
 71
             1
 72
             4
 73
             2
 74
             3
 42
0.00000000001
 43
0.00000000001
 44
0.00000000001
 40
0.0
 40
0.0
 40
3.0684117293934321
 40
3.0684117293934321
 10
-11527601.93941522
 20
-4207340.46663306
 30
0.0
 10
-11527600.2244871
 20
-4207343.0111273276
 30
0.0
 11
-11527601.93941522
 21
-4207340.46663306
 31
0.0
 11
-11527601.08195116
 21
-4207341.7388801938
 31
0.0
 11
-11527600.2244871
 21
-4207343.0111273276
 31
0.0
  0
SPLINE
  5
551
100
AcDbEntity
  8
1
  6
CONTINUOUS
 62
             3
100
AcDbSpline
210
0.0
220
0.0
230
1.0
 70
             0
 71
             1
 72
             4
 73
             2
 74
             3
 42
0.00000000001
 43
0.00000000001
 44
0.00000000001
 40
0.0
 40
0.0
 40
9.065188948088613
 40
9.065188948088613
 10
-11527638.48174574
 20
-4207335.3927149009
 30
0.0
 10
-11527629.43885434
 20
-4207334.7553760791
 30
0.0
 11
-11527638.48174574
 21
-4207335.3927149009
 31
0.0
 11
-11527633.960300039
 21
-4207335.0740454905
 31
0.0
 11
-11527629.43885434
 21
-4207334.7553760791
 31
0.0
  0
SPLINE
  5
550
100
AcDbEntity
  8
1
  6
CONTINUOUS
 62
             3
100
AcDbSpline
210
0.0
220
0.0
230
1.0
 70
             0
 71
             3
 72
             8
 73
             4
 74
             3
 42
0.00000000001
 43
0.00000000001
 44
0.00000000001
 40
0.0
 40
0.0
 40
0.0
 40
0.0
 40
12.10877545691382
 40
12.10877545691382
 40
12.10877545691382
 40
12.10877545691382
 10
-11527603.620971009
 20
-4207339.199331223
 30
0.0
 10
-11527606.61123565
 20
-4207336.5490543516
 30
0.0
 10
-11527610.0479072
 20
-4207334.2540258076
 30
0.0
 10
-11527613.744461341
 20
-4207332.5592866633
 30
0.0
 11
-11527603.620971009
 21
-4207339.199331223
 31
0.0
 11
-11527608.417857612
 21
-4207335.5209822953
 31
0.0
 11
-11527613.744461341
 21
-4207332.5592866633
 31
0.0
  0
CIRCLE
  5
54F
100
AcDbEntity
  8
0
  6
CONTINUOUS
 62
             3
100
AcDbCircle
 10
-11527646.403267911
 20
-4207321.4943911778
 40
2.24972864985466
  0
CIRCLE
  5
54E
100
AcDbEntity
  8
0
  6
CONTINUOUS
 62
             3
100
AcDbCircle
 10
-11527646.403267911
 20
-4207426.2817527698
 40
2.24972864985466
  0
CIRCLE
  5
54D
100
AcDbEntity
  8
0
  6
CONTINUOUS
 62
             3
100
AcDbCircle
 10
-11527541.615906321
 20
-4207321.4943911778
 40
2.24972864985466
  0
CIRCLE
  5
54C
100
AcDbEntity
  8
0
  6
CONTINUOUS
 62
             3
100
AcDbCircle
 10
-11527541.615906321
 20
-4207426.2817527698
 40
2.24972864985466
  0
CIRCLE
  5
54B
100
AcDbEntity
  8
1
  6
CONTINUOUS
 62
             3
100
AcDbCircle
 10
-11527593.945514111
 20
-4207373.8229461052
 40
28.99650272913277
  0
ARC
  5
54A
100
AcDbEntity
  8
0
  6
CONTINUOUS
 62
             3
100
AcDbCircle
 10
-11527462.79100883
 20
-4207328.1357407104
 40
0.20000296179205
100
AcDbArc
 50
90.0
 51
180.0
  0
ARC
  5
549
100
AcDbEntity
  8
0
  6
CONTINUOUS
 62
             3
100
AcDbCircle
 10
-11527440.213064119
 20
-4207314.5346751176
 40
0.20006212964654
100
AcDbArc
 50
0.0
 51
90.0
  0
ARC
  5
548
100
AcDbEntity
  8
0
  6
CONTINUOUS
 62
             3
100
AcDbCircle
 10
-11527440.213064119
 20
-4207433.1715226239
 40
0.20006214082241
100
AcDbArc
 50
-90.0
 51
0.0
  0
ARC
  5
547
100
AcDbEntity
  8
0
  6
CONTINUOUS
 62
             3
100
AcDbCircle
 10
-11527478.0135058
 20
-4207433.1715226239
 40
0.20006212964654
100
AcDbArc
 50
180.0
 51
-90.0
  0
ARC
  5
546
100
AcDbEntity
  8
0
  6
CONTINUOUS
 62
             3
100
AcDbCircle
 10
-11527478.0135058
 20
-4207314.5346751176
 40
0.20006213989109
100
AcDbArc
 50
90.0
 51
180.0
  0
ARC
  5
545
100
AcDbEntity
  8
0
  6
CONTINUOUS
 62
             3
100
AcDbCircle
 10
-11527445.51323143
 20
-4207424.366262476
 40
0.50015535950661
100
AcDbArc
 50
0.0
 51
90.0
  0
ARC
  5
544
100
AcDbEntity
  8
0
  6
CONTINUOUS
 62
             3
100
AcDbCircle
 10
-11527472.713338509
 20
-4207424.366262476
 40
0.5001553427428
100
AcDbArc
 50
90.0
 51
180.0
  0
ARC
  5
543
100
AcDbEntity
  8
0
  6
CONTINUOUS
 62
             3
100
AcDbCircle
 10
-11527594.009587109
 20
-4207373.8880719729
 40
57.99300546382346
100
AcDbArc
 50
178.59992003868817
 51
180.0
  0
ARC
  5
542
100
AcDbEntity
  8
0
  6
CONTINUOUS
 62
             3
100
AcDbCircle
 10
-11527594.009587109
 20
-4207373.8880719729
 40
57.99300545919687
100
AcDbArc
 50
-90.0
 51
-84.40528225387664
  0
ARC
  5
541
100
AcDbEntity
  8
0
  6
CONTINUOUS
 62
             3
100
AcDbCircle
 10
-11527594.009587109
 20
-4207373.8880719729
 40
57.99300546136927
100
AcDbArc
 50
-98.32315689089008
 51
-90.0
  0
ARC
  5
540
100
AcDbEntity
  8
0
  6
CONTINUOUS
 62
             3
100
AcDbCircle
 10
-11527594.009587109
 20
-4207373.8880719729
 40
57.99300546939178
100
AcDbArc
 50
-15.24623380414108
 51
-1.3283591845088
  0
ARC
  5
53F
100
AcDbEntity
  8
0
  6
CONTINUOUS
 62
             3
100
AcDbCircle
 10
-11527594.009587109
 20
-4207373.8880719729
 40
57.99300545081496
100
AcDbArc
 50
180.0
 51
-167.48220533665409
  0
ARC
  5
53E
100
AcDbEntity
  8
0
  6
CONTINUOUS
 62
             3
100
AcDbCircle
 10
-11527594.009587109
 20
-4207373.8880719729
 40
57.99300546455183
100
AcDbArc
 50
67.83068926103033
 51
81.74856390194356
  0
ARC
  5
53D
100
AcDbEntity
  8
0
  6
CONTINUOUS
 62
             3
100
AcDbCircle
 10
-11527594.009587109
 20
-4207373.8880719729
 40
57.99300546428093
100
AcDbArc
 50
-1.3283591845088
 51
0.0
  0
ARC
  5
53C
100
AcDbEntity
  8
0
  6
CONTINUOUS
 62
             3
100
AcDbCircle
 10
-11527594.009587109
 20
-4207373.8880719729
 40
57.99300545699723
100
AcDbArc
 50
128.32713495907882
 51
130.47548613931195
  0
ARC
  5
53B
100
AcDbEntity
  8
0
  6
CONTINUOUS
 62
             3
100
AcDbCircle
 10
-11527631.978682751
 20
-4207329.3934384733
 40
0.49993970338255
100
AcDbArc
 50
-90.0
 51
-49.52451256134891
  0
ARC
  5
53A
100
AcDbEntity
  8
0
  6
CONTINUOUS
 62
             3
100
AcDbCircle
 10
-11527594.009587109
 20
-4207373.8880719729
 40
57.99300545826554
100
AcDbArc
 50
0.0
 51
2.41222213771532
  0
ARC
  5
539
100
AcDbEntity
  8
0
  6
CONTINUOUS
 62
             3
100
AcDbCircle
 10
-11527594.009587109
 20
-4207373.8880719729
 40
57.99300545494877
100
AcDbArc
 50
-29.02066687922909
 51
-25.28008555544697
  0
ARC
  5
538
100
AcDbEntity
  8
0
  6
CONTINUOUS
 62
             3
100
AcDbCircle
 10
-11527594.009587109
 20
-4207373.8880719729
 40
57.99300545046315
100
AcDbArc
 50
164.82548696738471
 51
168.56606829608188
  0
ARC
  5
537
100
AcDbEntity
  8
0
  6
CONTINUOUS
 62
             3
100
AcDbCircle
 10
-11527594.009587109
 20
-4207373.8880719729
 40
57.99300546330731
100
AcDbArc
 50
-56.71297456450564
 51
-52.97239324817745
  0
ARC
  5
536
100
AcDbEntity
  8
0
  6
CONTINUOUS
 62
             3
100
AcDbCircle
 10
-11527594.009587109
 20
-4207373.8880719729
 40
57.99300545804157
100
AcDbArc
 50
-167.48220533665409
 51
-163.74162401326114
  0
ARC
  5
535
100
AcDbEntity
  8
0
  6
CONTINUOUS
 62
             3
100
AcDbCircle
 10
-11527532.366098341
 20
-4207387.2506613033
 40
5.18723703821407
100
AcDbArc
 50
-161.44954526644614
 51
-134.72810635189174
  0
ARC
  5
534
100
AcDbEntity
  8
0
  6
CONTINUOUS
 62
             3
100
AcDbCircle
 10
-11527594.009587109
 20
-4207373.8880719729
 40
57.99300547109637
100
AcDbArc
 50
-139.78989765140011
 51
-136.04931631664743
  0
ARC
  5
533
100
AcDbEntity
  8
0
  6
CONTINUOUS
 62
             3
100
AcDbCircle
 10
-11527594.009587109
 20
-4207373.8880719729
 40
57.99300546406917
100
AcDbArc
 50
26.36394850685235
 51
30.10452982846539
  0
ARC
  5
532
100
AcDbEntity
  8
0
  6
CONTINUOUS
 62
             3
100
AcDbCircle
 10
-11527594.009587109
 20
-4207373.8880719729
 40
57.99300546185183
100
AcDbArc
 50
-112.09758995628403
 51
-108.35700862720431
  0
ARC
  5
531
100
AcDbEntity
  8
0
  6
CONTINUOUS
 62
             3
100
AcDbCircle
 10
-11527572.463067669
 20
-4207316.1048965435
 40
3.28636462952046
100
AcDbArc
 50
-86.60860275700395
 51
3.6607497930885
  0
ARC
  5
530
100
AcDbEntity
  8
0
  6
CONTINUOUS
 62
             3
100
AcDbCircle
 10
-11527594.009587109
 20
-4207373.8880719729
 40
57.99300546147768
100
AcDbArc
 50
54.05625619814929
 51
57.79683752416167
  0
ARC
  5
52F
100
AcDbEntity
  8
0
  6
CONTINUOUS
 62
             3
100
AcDbCircle
 10
-11527594.009587109
 20
-4207373.8880719729
 40
57.99300546055807
100
AcDbArc
 50
-84.40528225387664
 51
-80.66470094328331
  0
ARC
  5
52E
100
AcDbEntity
  8
0
  6
CONTINUOUS
 62
             3
100
AcDbCircle
 10
-11527594.009587109
 20
-4207373.8880719729
 40
57.99300545896977
100
AcDbArc
 50
81.74856390194356
 51
85.489145217051
  0
ARC
  5
52D
100
AcDbEntity
  8
0
  6
CONTINUOUS
 62
             3
100
AcDbCircle
 10
-11527594.009587109
 20
-4207373.8880719729
 40
57.99300545785618
100
AcDbArc
 50
109.44087158874133
 51
113.18145290607018
  0
ARC
  5
52C
100
AcDbEntity
  8
0
  6
CONTINUOUS
 62
             3
100
AcDbCircle
 10
-11527594.009587109
 20
-4207373.8880719729
 40
33.99589975371928
100
AcDbArc
 50
90.93094844070814
 51
102.08706153238147
  0
ARC
  5
52B
100
AcDbEntity
  8
0
  6
CONTINUOUS
 62
             3
100
AcDbCircle
 10
-11527601.337624719
 20
-4207339.6681300746
 40
0.99987940499466
100
AcDbArc
 50
-127.00344795520466
 51
-77.91293862846194
  0
ARC
  5
52A
100
AcDbEntity
  8
0
  6
CONTINUOUS
 62
             3
100
AcDbCircle
 10
-11527607.56857961
 20
-4207345.4598392649
 40
0.99987940762432
100
AcDbArc
 50
24.58955443132196
 51
52.99655262046389
  0
ARC
  5
529
100
AcDbEntity
  8
0
  6
CONTINUOUS
 62
             3
100
AcDbCircle
 10
-11527594.009587109
 20
-4207373.8880719729
 40
57.99300546561967
100
AcDbArc
 50
139.49061077815944
 51
140.87376060592632
  0
ARC
  5
528
100
AcDbEntity
  8
0
  6
CONTINUOUS
 62
             3
100
AcDbCircle
 10
-11527638.48174574
 20
-4207335.8926546043
 40
0.49993970165985
100
AcDbArc
 50
-40.50938918549671
 51
90.0
  0
ARC
  5
527
100
AcDbEntity
  8
0
  6
CONTINUOUS
 62
             3
100
AcDbCircle
 10
-11527594.009587109
 20
-4207373.8880719729
 40
65.20901350180721
100
AcDbArc
 50
135.75946232968485
 51
137.57131779487224
  0
ARC
  5
526
100
AcDbEntity
  8
0
  6
CONTINUOUS
 62
             3
100
AcDbCircle
 10
-11527594.009587109
 20
-4207373.8880719729
 40
57.99300545858409
100
AcDbArc
 50
123.21530465143459
 51
128.32713495907882
  0
ARC
  5
525
100
AcDbEntity
  8
0
  6
CONTINUOUS
 62
             3
100
AcDbCircle
 10
-11527594.009587109
 20
-4207373.8880719729
 40
65.20901350469242
100
AcDbArc
 50
119.06407800826086
 51
123.6657667292999
  0
ARC
  5
524
100
AcDbEntity
  8
0
  6
CONTINUOUS
 62
             3
100
AcDbCircle
 10
-11527594.009587109
 20
-4207373.8880719729
 40
57.99300546107155
100
AcDbArc
 50
95.52299696482825
 51
109.44087158874133
  0
ARC
  5
523
100
AcDbEntity
  8
0
  6
CONTINUOUS
 62
             3
100
AcDbCircle
 10
-11527538.51628015
 20
-4207429.3813789217
 40
3.99951761867851
100
AcDbArc
 50
-90.0
 51
0.0
  0
ARC
  5
522
100
AcDbEntity
  8
0
  6
CONTINUOUS
 62
             3
100
AcDbCircle
 10
-11527538.51628015
 20
-4207318.3947650241
 40
3.99951759912074
100
AcDbArc
 50
0.0
 51
90.0
  0
ARC
  5
521
100
AcDbEntity
  8
0
  6
CONTINUOUS
 62
             3
100
AcDbCircle
 10
-11527594.009587109
 20
-4207373.8880719729
 40
65.20901350272023
100
AcDbArc
 50
143.81900430257508
 51
151.35807442700778
  0
ARC
  5
520
100
AcDbEntity
  8
0
  6
CONTINUOUS
 62
             3
100
AcDbCircle
 10
-11527594.009587109
 20
-4207373.8880719729
 40
57.99300546098584
100
AcDbArc
 50
150.90761234769136
 51
164.82548696738471
  0
ARC
  5
51F
100
AcDbEntity
  8
0
  6
CONTINUOUS
 62
             3
100
AcDbCircle
 10
-11527594.009587109
 20
-4207373.8880719729
 40
65.20901350067391
100
AcDbArc
 50
-47.08976815231654
 51
-42.48807941558262
  0
ARC
  5
51E
100
AcDbEntity
  8
0
  6
CONTINUOUS
 62
             3
100
AcDbCircle
 10
-11527594.009587109
 20
-4207373.8880719729
 40
57.99300546327215
100
AcDbArc
 50
-70.63084918425382
 51
-56.71297456450564
  0
ARC
  5
51D
100
AcDbEntity
  8
0
  6
CONTINUOUS
 62
             3
100
AcDbCircle
 10
-11527571.012177169
 20
-4207431.7291767504
 40
4.08636530576223
100
AcDbArc
 50
139.96740405419277
 51
-177.86967808777158
  0
ARC
  5
51C
100
AcDbEntity
  8
0
  6
CONTINUOUS
 62
             3
100
AcDbCircle
 10
-11527594.009587109
 20
-4207373.8880719729
 40
57.99300546523073
100
AcDbArc
 50
-42.93854149780727
 51
-29.02066687922909
  0
ARC
  5
51B
100
AcDbEntity
  8
0
  6
CONTINUOUS
 62
             3
100
AcDbCircle
 10
-11527649.502894061
 20
-4207429.3813789235
 40
3.99951761960983
100
AcDbArc
 50
180.0
 51
-90.0
  0
ARC
  5
51A
100
AcDbEntity
  8
0
  6
CONTINUOUS
 62
             3
100
AcDbCircle
 10
-11527594.009587109
 20
-4207373.8880719729
 40
57.99300546179266
100
AcDbArc
 50
40.30438593989654
 51
54.05625619814929
  0
ARC
  5
519
100
AcDbEntity
  8
0
  6
CONTINUOUS
 62
             3
100
AcDbCircle
 10
-11527594.009587109
 20
-4207373.8880719729
 40
65.20901349902677
100
AcDbArc
 50
35.98715492938598
 51
40.58884365915116
  0
ARC
  5
518
100
AcDbEntity
  8
0
  6
CONTINUOUS
 62
             3
100
AcDbCircle
 10
-11527594.009587109
 20
-4207373.8880719729
 40
57.99300545629756
100
AcDbArc
 50
12.44607388422564
 51
26.36394850685235
  0
ARC
  5
517
100
AcDbEntity
  8
0
  6
CONTINUOUS
 62
             3
100
AcDbCircle
 10
-11527532.33044247
 20
-4207356.0618232097
 40
6.53098397415948
100
AcDbArc
 50
-133.2408164827819
 51
-124.3611874354213
  0
ARC
  5
516
100
AcDbEntity
  8
0
  6
CONTINUOUS
 62
             3
100
AcDbCircle
 10
-11527649.502894061
 20
-4207318.3947650241
 40
3.99951761681587
100
AcDbArc
 50
90.0
 51
180.0
  0
ARC
  5
515
100
AcDbEntity
  8
0
  6
CONTINUOUS
 62
             3
100
AcDbCircle
 10
-11527594.009587109
 20
-4207373.8880719729
 40
57.99300545827705
100
AcDbArc
 50
-126.01546457251335
 51
-112.09758995628403
  0
ARC
  5
514
100
AcDbEntity
  8
0
  6
CONTINUOUS
 62
             3
100
AcDbCircle
 10
-11527594.009587109
 20
-4207373.8880719729
 40
65.20901350702708
100
AcDbArc
 50
-130.16669123224364
 51
-125.56500250274621
  0
ARC
  5
513
100
AcDbEntity
  8
0
  6
CONTINUOUS
 62
             3
100
AcDbCircle
 10
-11527594.009587109
 20
-4207373.8880719729
 40
57.99300547208514
100
AcDbArc
 50
-153.70777227563272
 51
-139.78989765140011
  0
ARC
  5
512
100
AcDbEntity
  8
0
  6
CONTINUOUS
 62
             3
100
AcDbCircle
 10
-11527607.56857961
 20
-4207345.4598392649
 40
0.99987940447456
100
AcDbArc
 50
-64.50095029479917
 51
-5.29173893459499
  0
ARC
  5
511
100
AcDbEntity
  8
0
  6
CONTINUOUS
 62
             3
100
AcDbCircle
 10
-11527594.009587109
 20
-4207373.8880719729
 40
30.49632183555828
100
AcDbArc
 50
115.49904941911166
 51
118.02319749846247
  0
ARC
  5
510
100
AcDbEntity
  8
0
  6
CONTINUOUS
 62
             3
100
AcDbCircle
 10
-11527598.881801041
 20
-4207342.770999101
 40
0.99987939826832
100
AcDbArc
 50
-127.00344744377573
 51
-81.10105957748145
  0
ARC
  5
50F
100
AcDbEntity
  8
0
  6
CONTINUOUS
 62
             3
100
AcDbCircle
 10
-11527594.009587109
 20
-4207373.8880719729
 40
30.49632183760766
100
AcDbArc
 50
93.71680253227771
 51
98.89894027295307
  0
ARC
  5
50E
100
AcDbEntity
  8
0
  6
CONTINUOUS
 62
             3
100
AcDbCircle
 10
-11527595.85687549
 20
-4207345.451447173
 40
1.99975881737574
100
AcDbArc
 50
18.21227222217345
 51
93.71680247824499
  0
ARC
  5
50D
100
AcDbEntity
  8
0
  6
CONTINUOUS
 62
             3
100
AcDbCircle
 10
-11527594.009587109
 20
-4207373.8880719729
 40
65.49765382213836
100
AcDbArc
 50
117.69661193331901
 51
137.80168720969442
  0
ARC
  5
50C
100
AcDbEntity
  8
0
  6
CONTINUOUS
 62
             3
100
AcDbCircle
 10
-11527594.009587109
 20
-4207373.8880719729
 40
65.49765382174662
100
AcDbArc
 50
27.69661193441901
 51
62.30338806812371
  0
ARC
  5
50B
100
AcDbEntity
  8
0
  6
CONTINUOUS
 62
             3
100
AcDbCircle
 10
-11527594.009587109
 20
-4207373.8880719729
 40
65.49765382127262
100
AcDbArc
 50
-62.30338806812371
 51
-27.69661193730442
  0
ARC
  5
50A
100
AcDbEntity
  8
0
  6
CONTINUOUS
 62
             3
100
AcDbCircle
 10
-11527594.009587109
 20
-4207373.8880719729
 40
65.4976538168812
100
AcDbArc
 50
-152.30338805966628
 51
-117.69661193331901
  0
ARC
  5
509
100
AcDbEntity
  8
0
  6
CONTINUOUS
 62
             3
100
AcDbCircle
 10
-11527594.009587109
 20
-4207373.8880719729
 40
65.49765382226795
100
AcDbArc
 50
144.00345776293415
 51
152.3033880625517
  0
ARC
  5
508
100
AcDbEntity
  8
0
  6
CONTINUOUS
 62
             3
100
AcDbCircle
 10
-11527607.56857961
 20
-4207345.4598392649
 40
0.99987940980764
100
AcDbArc
 50
-5.29173893459499
 51
24.58955443132196
  0
ARC
  5
507
100
AcDbEntity
  8
0
  6
CONTINUOUS
 62
             3
100
AcDbCircle
 10
-11527594.009587109
 20
-4207373.8880719729
 40
31.49620124034736
100
AcDbArc
 50
113.68005939840913
 51
117.17854387701959
  0
ARC
  5
506
100
AcDbEntity
  8
0
  6
CONTINUOUS
 62
             3
100
AcDbCircle
 10
-11527594.009587109
 20
-4207373.8880719729
 40
31.49620124213434
100
AcDbArc
 50
117.17848001238279
 51
141.41223973248225
  0
ARC
  5
505
100
AcDbEntity
  8
0
  6
CONTINUOUS
 62
             3
100
AcDbCircle
 10
-11527594.009587109
 20
-4207373.8880719729
 40
31.49620124118081
100
AcDbArc
 50
141.41223973248225
 51
144.43072484842821
  0
ARC
  5
504
100
AcDbEntity
  8
0
  6
CONTINUOUS
 62
             3
100
AcDbCircle
 10
-11527594.009587109
 20
-4207373.8880719729
 40
31.49620123891183
100
AcDbArc
 50
144.43064669148515
 51
169.10454742039528
  0
ARC
  5
503
100
AcDbEntity
  8
0
  6
CONTINUOUS
 62
             3
100
AcDbCircle
 10
-11527594.009587109
 20
-4207373.8880719729
 40
31.49620124919425
100
AcDbArc
 50
169.10454742039528
 51
172.12303253399594
  0
ARC
  5
502
100
AcDbEntity
  8
0
  6
CONTINUOUS
 62
             3
100
AcDbCircle
 10
-11527594.009587109
 20
-4207373.8880719729
 40
31.49620125307664
100
AcDbArc
 50
172.12295438916394
 51
-163.20314488401928
  0
ARC
  5
501
100
AcDbEntity
  8
0
  6
CONTINUOUS
 62
             3
100
AcDbCircle
 10
-11527594.009587109
 20
-4207373.8880719729
 40
31.49620123759202
100
AcDbArc
 50
-163.20314488401928
 51
-160.18465977763745
  0
ARC
  5
500
100
AcDbEntity
  8
0
  6
CONTINUOUS
 62
             3
100
AcDbCircle
 10
-11527594.009587109
 20
-4207373.8880719729
 40
31.4962012387933
100
AcDbArc
 50
-160.18473791840847
 51
-135.51083720389266
  0
ARC
  5
4FF
100
AcDbEntity
  8
0
  6
CONTINUOUS
 62
             3
100
AcDbCircle
 10
-11527594.009587109
 20
-4207373.8880719729
 40
31.49620124417482
100
AcDbArc
 50
-135.51083720389266
 51
-132.49235208468593
  0
ARC
  5
4FE
100
AcDbEntity
  8
0
  6
CONTINUOUS
 62
             3
100
AcDbCircle
 10
-11527594.009587109
 20
-4207373.8880719729
 40
31.49620123944396
100
AcDbArc
 50
-132.49243022552443
 51
-107.81852950105309
  0
ARC
  5
4FD
100
AcDbEntity
  8
0
  6
CONTINUOUS
 62
             3
100
AcDbCircle
 10
-11527594.009587109
 20
-4207373.8880719729
 40
31.4962012414498
100
AcDbArc
 50
-107.81852950105309
 51
-104.80012253330919
  0
ARC
  5
4FC
100
AcDbEntity
  8
0
  6
CONTINUOUS
 62
             3
100
AcDbCircle
 10
-11527594.009587109
 20
-4207373.8880719729
 40
31.49620123993659
100
AcDbArc
 50
-104.80012253330919
 51
-80.12622181541826
  0
ARC
  5
4FB
100
AcDbEntity
  8
0
  6
CONTINUOUS
 62
             3
100
AcDbCircle
 10
-11527594.009587109
 20
-4207373.8880719729
 40
31.49620124044841
100
AcDbArc
 50
-80.12622181541826
 51
-77.10773669550619
  0
ARC
  5
4FA
100
AcDbEntity
  8
0
  6
CONTINUOUS
 62
             3
100
AcDbCircle
 10
-11527594.009587109
 20
-4207373.8880719729
 40
31.49620123917206
100
AcDbArc
 50
-77.10781486927178
 51
-52.43391413521908
  0
ARC
  5
4F9
100
AcDbEntity
  8
0
  6
CONTINUOUS
 62
             3
100
AcDbCircle
 10
-11527594.009587109
 20
-4207373.8880719729
 40
31.49620123791474
100
AcDbArc
 50
-52.43391413521908
 51
-49.4154290047363
  0
ARC
  5
4F8
100
AcDbEntity
  8
0
  6
CONTINUOUS
 62
             3
100
AcDbCircle
 10
-11527594.009587109
 20
-4207373.8880719729
 40
31.49620123414213
100
AcDbArc
 50
-49.41550716817468
 51
-24.74160643790131
  0
ARC
  5
4F7
100
AcDbEntity
  8
0
  6
CONTINUOUS
 62
             3
100
AcDbCircle
 10
-11527594.009587109
 20
-4207373.8880719729
 40
31.49620123268533
100
AcDbArc
 50
-24.74160643790131
 51
-21.72312131941937
  0
ARC
  5
4F6
100
AcDbEntity
  8
0
  6
CONTINUOUS
 62
             3
100
AcDbCircle
 10
-11527594.009587109
 20
-4207373.8880719729
 40
31.49620123853619
100
AcDbArc
 50
-21.72319946075925
 51
2.95070126115135
  0
ARC
  5
4F5
100
AcDbEntity
  8
0
  6
CONTINUOUS
 62
             3
100
AcDbCircle
 10
-11527594.009587109
 20
-4207373.8880719729
 40
31.49620123949339
100
AcDbArc
 50
2.95070126115135
 51
5.96918637954803
  0
ARC
  5
4F4
100
AcDbEntity
  8
0
  6
CONTINUOUS
 62
             3
100
AcDbCircle
 10
-11527594.009587109
 20
-4207373.8880719729
 40
31.49620124844945
100
AcDbArc
 50
5.9691082321701
 51
30.64300895733692
  0
ARC
  5
4F3
100
AcDbEntity
  8
0
  6
CONTINUOUS
 62
             3
100
AcDbCircle
 10
-11527594.009587109
 20
-4207373.8880719729
 40
31.49620123738332
100
AcDbArc
 50
30.64300895733692
 51
33.66149407074902
  0
ARC
  5
4F2
100
AcDbEntity
  8
0
  6
CONTINUOUS
 62
             3
100
AcDbCircle
 10
-11527594.009587109
 20
-4207373.8880719729
 40
31.49620123794205
100
AcDbArc
 50
33.66141592956338
 51
58.33531664826342
  0
ARC
  5
4F1
100
AcDbEntity
  8
0
  6
CONTINUOUS
 62
             3
100
AcDbCircle
 10
-11527594.009587109
 20
-4207373.8880719729
 40
31.49620124119802
100
AcDbArc
 50
58.33531664826342
 51
61.35380177793373
  0
ARC
  5
4F0
100
AcDbEntity
  8
0
  6
CONTINUOUS
 62
             3
100
AcDbCircle
 10
-11527594.009587109
 20
-4207373.8880719729
 40
31.49620123648534
100
AcDbArc
 50
61.35372363033486
 51
86.02762433867842
  0
ARC
  5
4EF
100
AcDbEntity
  8
0
  6
CONTINUOUS
 62
             3
100
AcDbCircle
 10
-11527594.009587109
 20
-4207373.8880719729
 40
31.49620124049194
100
AcDbArc
 50
86.02762433867842
 51
101.38041258752241
  0
ARC
  5
4EE
100
AcDbEntity
  8
0
  6
CONTINUOUS
 62
             3
100
AcDbCircle
 10
-11527594.003070511
 20
-4207373.8706326773
 40
57.47445132810262
100
AcDbArc
 50
68.54658784250466
 51
84.74022185429453
  0
ARC
  5
4ED
100
AcDbEntity
  8
0
  6
CONTINUOUS
 62
             3
100
AcDbCircle
 10
-11527594.12283247
 20
-4207373.1745145144
 40
56.77057945821534
100
AcDbArc
 50
95.14438418514837
 51
99.13913251495754
  0
ARC
  5
4EC
100
AcDbEntity
  8
0
  6
CONTINUOUS
 62
             3
100
AcDbCircle
 10
-11527593.96684806
 20
-4207373.841179559
 40
57.42967621472793
100
AcDbArc
 50
39.80092671413721
 51
57.05314884672826
  0
ARC
  5
4EB
100
AcDbEntity
  8
0
  6
CONTINUOUS
 62
             3
100
AcDbCircle
 10
-11527594.851693271
 20
-4207373.692149967
 40
56.62847265629977
100
AcDbArc
 50
166.72606145080107
 51
167.82700513072422
  0
ARC
  5
4EA
100
AcDbEntity
  8
0
  6
CONTINUOUS
 62
             3
100
AcDbCircle
 10
-11527594.127186749
 20
-4207373.9076449703
 40
57.37391824185041
100
AcDbArc
 50
178.24629822048976
 51
-164.48277927606972
  0
ARC
  5
4E9
100
AcDbEntity
  8
0
  6
CONTINUOUS
 62
             3
100
AcDbCircle
 10
-11527594.03922756
 20
-4207373.7513944348
 40
57.35323091949464
100
AcDbArc
 50
101.27182761908247
 51
112.45000815357702
  0
ARC
  5
4E8
100
AcDbEntity
  8
0
  6
CONTINUOUS
 62
             3
100
AcDbCircle
 10
-11527594.08936885
 20
-4207373.9393767258
 40
57.39843518584828
100
AcDbArc
 50
-154.04772928994859
 51
-136.78701334160627
  0
ARC
  5
4E7
100
AcDbEntity
  8
0
  6
CONTINUOUS
 62
             3
100
AcDbCircle
 10
-11527593.720965279
 20
-4207373.7643321864
 40
57.17910555902223
100
AcDbArc
 50
12.05132873762908
 51
29.22452667479611
  0
ARC
  5
4E6
100
AcDbEntity
  8
0
  6
CONTINUOUS
 62
             3
100
AcDbCircle
 10
-11527592.270279219
 20
-4207374.8392795613
 40
55.51093497892065
100
AcDbArc
 50
-29.66924223220403
 51
-25.9416045344567
  0
ARC
  5
4E5
100
AcDbEntity
  8
0
  6
CONTINUOUS
 62
             3
100
AcDbCircle
 10
-11527593.949617021
 20
-4207373.8874076474
 40
57.4330929450723
100
AcDbArc
 50
-15.59367072002712
 51
0.95612660572301
  0
ARC
  5
4E4
100
AcDbEntity
  8
0
  6
CONTINUOUS
 62
             3
100
AcDbCircle
 10
-11527593.7585117
 20
-4207374.3485852452
 40
56.9686297650244
100
AcDbArc
 50
-62.37104534680498
 51
-53.66195063397851
  0
ARC
  5
4E3
100
AcDbEntity
  8
0
  6
CONTINUOUS
 62
             3
100
AcDbCircle
 10
-11527593.97206633
 20
-4207373.9114193926
 40
57.44887410398708
100
AcDbArc
 50
-43.27644307075384
 51
-31.77138868482121
  0
ARC
  5
4E2
100
AcDbEntity
  8
0
  6
CONTINUOUS
 62
             3
100
AcDbCircle
 10
-11527594.01866881
 20
-4207373.8855485357
 40
57.48364001878045
100
AcDbArc
 50
150.57674399337304
 51
164.59217469753546
  0
ARC
  5
4E1
100
AcDbEntity
  8
0
  6
CONTINUOUS
 62
             3
100
AcDbCircle
 10
-11527594.023442131
 20
-4207374.0800880669
 40
57.30057770288459
100
AcDbArc
 50
-95.09269692319025
 51
-81.38238352637039
  0
ARC
  5
4E0
100
AcDbEntity
  8
0
  6
CONTINUOUS
 62
             3
100
AcDbCircle
 10
-11527593.906310249
 20
-4207374.1057600947
 40
57.25212184054608
100
AcDbArc
 50
-70.98730548781219
 51
-64.49824756080746
  0
ARC
  5
4DF
100
AcDbEntity
  8
0
  6
CONTINUOUS
 62
             3
100
AcDbCircle
 10
-11527594.07941952
 20
-4207374.0152144041
 40
57.34907656191992
100
AcDbArc
 50
-126.36308144376814
 51
-109.08700130573459
  0
ARC
  5
4DE
100
AcDbEntity
  8
0
  6
CONTINUOUS
 62
             3
100
AcDbCircle
 10
-11527594.009587109
 20
-4207373.8880719757
 40
57.49306575503143
100
AcDbArc
 50
-98.70061998038212
 51
-97.22602690526912
  0
ARC
  5
4DD
100
AcDbEntity
  8
0
  6
CONTINUOUS
 62
             3
100
AcDbCircle
 10
-11527557.858077601
 20
-4207344.9115612814
 40
28.82044126140564
100
AcDbArc
 50
121.65257728103327
 51
138.13693986996111
  0
ARC
  5
4DC
100
AcDbEntity
  8
0
  6
CONTINUOUS
 62
             3
100
AcDbCircle
 10
-11527602.73164822
 20
-4207460.997469794
 40
82.97179618726766
100
AcDbArc
 50
51.30839021614258
 51
63.01609405718926
  0
ARC
  5
4DB
100
AcDbEntity
  8
0
  6
CONTINUOUS
 62
             3
100
AcDbCircle
 10
-11527635.662457461
 20
-4207393.7174908286
 40
26.31035829282952
100
AcDbArc
 50
-73.69059136630088
 51
-56.34571538354354
  0
ARC
  5
4DA
100
AcDbEntity
  8
0
  6
CONTINUOUS
 62
             3
100
AcDbCircle
 10
-11527634.113099519
 20
-4207406.30796423
 40
41.06738604364761
100
AcDbArc
 50
-36.82825063473404
 51
-25.4435666770423
  0
ARC
  5
4D9
100
AcDbEntity
  8
0
  6
CONTINUOUS
 62
             3
100
AcDbCircle
 10
-11527565.53695442
 20
-4207334.9032337163
 40
43.35690185265857
100
AcDbArc
 50
156.34102837470712
 51
163.76755315550065
  0
ARC
  5
4D8
100
AcDbEntity
  8
0
  6
CONTINUOUS
 62
             3
100
AcDbCircle
 10
-11527532.03378265
 20
-4207266.7459089952
 40
121.89045141993277
100
AcDbArc
 50
-142.26076854972351
 51
-134.75289653252992
  0
ARC
  5
4D7
100
AcDbEntity
  8
0
  6
CONTINUOUS
 62
             3
100
AcDbCircle
 10
-11527549.159387689
 20
-4207363.4960662182
 40
23.14240551046479
100
AcDbArc
 50
92.40690142825574
 51
107.91284759192136
  0
ARC
  5
4D6
100
AcDbEntity
  8
0
  6
CONTINUOUS
 62
             3
100
AcDbCircle
 10
-11527552.630040189
 20
-4207347.53286862
 40
32.04087222580035
100
AcDbArc
 50
126.32984353180471
 51
142.45062931589584
  0
ARC
  5
4D5
100
AcDbEntity
  8
0
  6
CONTINUOUS
 62
             3
100
AcDbCircle
 10
-11527640.345324351
 20
-4207377.1650628308
 40
17.22131980658975
100
AcDbArc
 50
-102.17642382299707
 51
-86.6704776411427
  0
ARC
  5
4D4
100
AcDbEntity
  8
0
  6
CONTINUOUS
 62
             3
100
AcDbCircle
 10
-11527635.442104369
 20
-4207397.1403919654
 40
20.92732565158824
100
AcDbArc
 50
-70.90266215259869
 51
-44.66469999746359
  0
ARC
  5
4D3
100
AcDbEntity
  8
0
  6
CONTINUOUS
 62
             3
100
AcDbCircle
 10
-11527548.32509678
 20
-4207362.793331149
 40
20.29319057538916
100
AcDbArc
 50
95.65418078337828
 51
127.40138152009698
  0
ARC
  5
4D2
100
AcDbEntity
  8
0
  6
CONTINUOUS
 62
             3
100
AcDbCircle
 10
-11527630.741215279
 20
-4207404.5177958636
 40
41.35280737443289
100
AcDbArc
 50
-40.10063229389139
 51
-30.52864744662282
  0
ARC
  5
4D1
100
AcDbEntity
  8
0
  6
CONTINUOUS
 62
             3
100
AcDbCircle
 10
-11527587.24390539
 20
-4207488.3248504037
 40
58.38881616713492
100
AcDbArc
 50
89.94583168602586
 51
101.72550101646246
  0
ARC
  5
4D0
100
AcDbEntity
  8
0
  6
CONTINUOUS
 62
             3
100
AcDbCircle
 10
-11527696.16436445
 20
-4207465.5426432043
 40
135.88933850946231
100
AcDbArc
 50
22.51025151717361
 51
28.66754918930119
  0
ARC
  5
4CF
100
AcDbEntity
  8
0
  6
CONTINUOUS
 62
             3
100
AcDbCircle
 10
-11527697.525032129
 20
-4207466.0960457716
 40
137.36058897623101
100
AcDbArc
 50
22.50547662233386
 51
28.59821050330059
  0
ARC
  5
4CE
100
AcDbEntity
  8
0
  6
CONTINUOUS
 62
             3
100
AcDbCircle
 10
-11527530.1226245
 20
-4207265.0865327315
 40
124.42634835084152
100
AcDbArc
 50
-142.19715472166314
 51
-134.83947459312773
  0
ARC
  5
4CD
100
AcDbEntity
  8
0
  6
CONTINUOUS
 62
             3
100
AcDbCircle
 10
-11527670.89542648
 20
-4207401.6864046967
 40
77.04455101706303
100
AcDbArc
 50
-8.82818344973948
 51
-2.75092910787916
  0
ARC
  5
4CC
100
AcDbEntity
  8
0
  6
CONTINUOUS
 62
             3
100
AcDbCircle
 10
-11527611.90885495
 20
-4207475.0927605564
 40
99.72720926572107
100
AcDbArc
 50
52.2546771320699
 51
61.97728898398712
  0
ARC
  5
4CB
100
AcDbEntity
  8
0
  6
CONTINUOUS
 62
             3
100
AcDbCircle
 10
-11527557.52055194
 20
-4207348.0111778434
 40
30.87889693764635
100
AcDbArc
 50
148.70948008373603
 51
170.71063367037314
  0
ARC
  5
4CA
100
AcDbEntity
  8
0
  6
CONTINUOUS
 62
             3
100
AcDbCircle
 10
-11527576.978609821
 20
-4207419.30971839
 40
37.38283321083273
100
AcDbArc
 50
41.12534315558339
 51
60.89672871077425
  0
ARC
  5
4C9
100
AcDbEntity
  8
0
  6
CONTINUOUS
 62
             3
100
AcDbCircle
 10
-11527621.07347082
 20
-4207331.1100096451
 40
41.86791509284689
100
AcDbArc
 50
-121.96645215543545
 51
-107.85799029073083
  0
ARC
  5
4C8
100
AcDbEntity
  8
0
  6
CONTINUOUS
 62
             3
100
AcDbCircle
 10
-11527600.940021399
 20
-4207420.0562713584
 40
33.89566572107663
100
AcDbArc
 50
10.73173996000679
 51
38.19959785955477
  0
ARC
  5
4C7
100
AcDbEntity
  8
0
  6
CONTINUOUS
 62
             3
100
AcDbCircle
 10
-11527600.126701679
 20
-4207327.2506046947
 40
34.30295763191378
100
AcDbArc
 50
-154.52584669530074
 51
-129.98419279487788
  0
ARC
  5
4C6
100
AcDbEntity
  8
0
  6
CONTINUOUS
 62
             3
100
AcDbCircle
 10
-11527642.905681411
 20
-4207384.0378500763
 40
38.74294992212344
100
AcDbArc
 50
-39.82702277759073
 51
-27.324380817974
  0
ARC
  5
4C5
100
AcDbEntity
  8
0
  6
CONTINUOUS
 62
             3
100
AcDbCircle
 10
-11527639.58480319
 20
-4207357.6011291873
 40
36.79656768384196
100
AcDbArc
 50
-89.63251967418151
 51
-81.81206883111422
  0
ARC
  5
4C4
100
AcDbEntity
  8
0
  6
CONTINUOUS
 62
             3
100
AcDbCircle
 10
-11527555.85955679
 20
-4207406.5315638762
 40
41.08456361892055
100
AcDbArc
 50
74.28096188383955
 51
84.99540273503241
  0
ARC
  5
4C3
100
AcDbEntity
  8
0
  6
CONTINUOUS
 62
             3
100
AcDbCircle
 10
-11527623.73116833
 20
-4207408.8941545179
 40
32.86116111864352
100
AcDbArc
 50
-18.12838179742143
 51
6.66212352145644
  0
ARC
  5
4C2
100
AcDbEntity
  8
0
  6
CONTINUOUS
 62
             3
100
AcDbCircle
 10
-11527621.65578793
 20
-4207333.8917551618
 40
1.00001481935343
100
AcDbArc
 50
-105.67506246428826
 51
-28.8600001581471
  0
ARC
  5
4C1
100
AcDbEntity
  8
0
  6
CONTINUOUS
 62
             3
100
AcDbCircle
 10
-11527618.85357183
 20
-4207332.9508327926
 40
1.00001480820878
100
AcDbArc
 50
61.14000085855354
 51
151.14000014613933
  0
ARC
  5
4C0
100
AcDbEntity
  8
0
  6
CONTINUOUS
 62
             3
100
AcDbCircle
 10
-11527616.22612779
 20
-4207334.3988674721
 40
1.00001482156024
100
AcDbArc
 50
-28.85999975561713
 51
61.13999980467584
  0
ARC
  5
4BF
100
AcDbEntity
  8
0
  6
CONTINUOUS
 62
             3
100
AcDbCircle
 10
-11527615.539737919
 20
-4207337.2970900629
 40
1.00001482200976
100
AcDbArc
 50
151.14000019765004
 51
-125.37479393350334
  0
ARC
  5
4BE
100
AcDbEntity
  8
0
  6
CONTINUOUS
 62
             3
100
AcDbCircle
 10
-11527607.39809897
 20
-4207348.7325188182
 40
1.99975881844886
100
AcDbArc
 50
118.02319789098559
 51
-165.1542845090612
  0
LINE
  5
4BD
100
AcDbEntity
  8
1
  6
CONTINUOUS
 62
             2
100
AcDbLine
 10
-11527708.487734331
 20
-4207334.2804755326
 11
-11527708.487734331
 21
-4207334.930485162
  0
LINE
  5
4BC
100
AcDbEntity
  8
1
  6
CONTINUOUS
 62
             2
100
AcDbLine
 10
-11527708.487734331
 20
-4207332.980456274
 11
-11527708.487734331
 21
-4207333.6304659033
  0
LINE
  5
4BB
100
AcDbEntity
  8
1
  6
CONTINUOUS
 62
             2
100
AcDbLine
 10
-11527708.487734331
 20
-4207331.6804370154
 11
-11527708.487734331
 21
-4207332.3304466447
  0
LINE
  5
4BA
100
AcDbEntity
  8
1
  6
CONTINUOUS
 62
             2
100
AcDbLine
 10
-11527708.487734331
 20
-4207330.380417753
 11
-11527708.487734331
 21
-4207331.0304273823
  0
LINE
  5
4B9
100
AcDbEntity
  8
1
  6
CONTINUOUS
 62
             2
100
AcDbLine
 10
-11527703.487660261
 20
-4207330.3804177539
 11
-11527708.487734331
 21
-4207330.380417753
  0
LINE
  5
4B8
100
AcDbEntity
  8
1
  6
CONTINUOUS
 62
             2
100
AcDbLine
 10
-11527703.487660261
 20
-4207331.0304273833
 11
-11527708.487734331
 21
-4207331.0304273823
  0
LINE
  5
4B7
100
AcDbEntity
  8
1
  6
CONTINUOUS
 62
             2
100
AcDbLine
 10
-11527703.487660261
 20
-4207331.6804370154
 11
-11527708.487734331
 21
-4207331.6804370154
  0
LINE
  5
4B6
100
AcDbEntity
  8
1
  6
CONTINUOUS
 62
             2
100
AcDbLine
 10
-11527703.487660261
 20
-4207332.3304466447
 11
-11527708.487734331
 21
-4207332.3304466447
  0
LINE
  5
4B5
100
AcDbEntity
  8
1
  6
CONTINUOUS
 62
             2
100
AcDbLine
 10
-11527703.487660261
 20
-4207332.980456274
 11
-11527708.487734331
 21
-4207332.980456274
  0
LINE
  5
4B4
100
AcDbEntity
  8
1
  6
CONTINUOUS
 62
             2
100
AcDbLine
 10
-11527703.487660261
 20
-4207333.6304659033
 11
-11527708.487734331
 21
-4207333.6304659033
  0
LINE
  5
4B3
100
AcDbEntity
  8
1
  6
CONTINUOUS
 62
             2
100
AcDbLine
 10
-11527708.487734331
 20
-4207334.2804755326
 11
-11527703.487660261
 21
-4207334.2804755326
  0
LINE
  5
4B2
100
AcDbEntity
  8
1
  6
CONTINUOUS
 62
             2
100
AcDbLine
 10
-11527703.487660261
 20
-4207334.9304851638
 11
-11527708.487734331
 21
-4207334.9304851638
  0
LINE
  5
4B1
100
AcDbEntity
  8
1
  6
CONTINUOUS
 62
             3
100
AcDbLine
 10
-11527703.487660261
 20
-4207330.0554129407
 11
-11527703.487660261
 21
-4207335.2554899789
  0
LINE
  5
4B0
100
AcDbEntity
  8
1
  6
CONTINUOUS
 62
             4
100
AcDbLine
 10
-11527708.48932267
 20
-4207334.930485162
 11
-11527708.024073839
 21
-4207334.930485162
  0
LINE
  5
4AF
100
AcDbEntity
  8
1
  6
CONTINUOUS
 62
             3
100
AcDbLine
 10
-11527660.990376649
 20
-4207332.6554514607
 11
-11527684.813221181
 21
-4207332.6554514607
  0
LINE
  5
4AE
100
AcDbEntity
  8
1
  6
CONTINUOUS
 62
             3
100
AcDbLine
 10
-11527660.990376649
 20
-4207331.3554321984
 11
-11527684.46612522
 21
-4207331.3554321984
  0
LINE
  5
4AD
100
AcDbEntity
  8
1
  6
CONTINUOUS
 62
             3
100
AcDbLine
 10
-11527660.990376649
 20
-4207333.9554707184
 11
-11527686.477116309
 21
-4207333.9554707184
  0
LINE
  5
4AC
100
AcDbEntity
  8
1
  6
CONTINUOUS
 62
             3
100
AcDbLine
 10
-11527685.38369533
 20
-4207335.2554899789
 11
-11527660.990376649
 21
-4207335.2554899789
  0
LINE
  5
4AB
100
AcDbEntity
  8
1
  6
CONTINUOUS
 62
             3
100
AcDbLine
 10
-11527660.990376649
 20
-4207330.0554129407
 11
-11527685.38369533
 21
-4207330.0554129407
  0
LINE
  5
4AA
100
AcDbEntity
  8
1
  6
CONTINUOUS
 62
             3
100
AcDbLine
 10
-11527686.98371903
 20
-4207335.2554899789
 11
-11527703.487660261
 21
-4207335.2554899789
  0
LINE
  5
4A9
100
AcDbEntity
  8
1
  6
CONTINUOUS
 62
             3
100
AcDbLine
 10
-11527703.487660261
 20
-4207333.9554707184
 11
-11527688.07714002
 21
-4207333.9554707184
  0
LINE
  5
4A8
100
AcDbEntity
  8
1
  6
CONTINUOUS
 62
             3
100
AcDbLine
 10
-11527686.41208173
 20
-4207332.6554514607
 11
-11527703.487660261
 21
-4207332.6554514607
  0
LINE
  5
4A7
100
AcDbEntity
  8
1
  6
CONTINUOUS
 62
             3
100
AcDbLine
 10
-11527703.487660261
 20
-4207331.3554321984
 11
-11527686.066148929
 21
-4207331.3554321984
  0
LINE
  5
4A6
100
AcDbEntity
  8
1
  6
CONTINUOUS
 62
             3
100
AcDbLine
 10
-11527686.98371903
 20
-4207330.0554129407
 11
-11527703.487660261
 21
-4207330.0554129407
  0
LINE
  5
4A5
100
AcDbEntity
  8
1
  6
CONTINUOUS
 62
             3
100
AcDbLine
 10
-11527660.990376649
 20
-4207335.3927149009
 11
-11527660.990376649
 21
-4207329.8933781767
  0
LINE
  5
4A4
100
AcDbEntity
  8
1
  6
CONTINUOUS
 62
             3
100
AcDbLine
 10
-11527653.50241168
 20
-4207329.8933781767
 11
-11527660.990376649
 21
-4207329.8933781767
  0
LINE
  5
4A3
100
AcDbEntity
  8
1
  6
CONTINUOUS
 62
             3
100
AcDbLine
 10
-11527653.50241168
 20
-4207335.3927149009
 11
-11527660.990376649
 21
-4207335.3927149009
  0
LINE
  5
4A2
100
AcDbEntity
  8
1
  6
CONTINUOUS
 62
             3
100
AcDbLine
 10
-11527602.88155164
 20
-4207344.8241563253
 11
-11527602.41241833
 21
-4207346.0901369611
  0
LINE
  5
4A1
100
AcDbEntity
  8
1
  6
CONTINUOUS
 62
             3
100
AcDbLine
 10
-11527600.078422351
 20
-4207343.474915605
 11
-11527598.21066351
 21
-4207345.1418430852
  0
LINE
  5
4A0
100
AcDbEntity
  8
1
  6
CONTINUOUS
 62
             3
100
AcDbLine
 10
-11527602.287473191
 20
-4207344.5382063137
 11
-11527600.984382439
 21
-4207345.6937530404
  0
LINE
  5
49F
100
AcDbEntity
  8
1
  6
CONTINUOUS
 62
             3
100
AcDbLine
 10
-11527604.06335495
 20
-4207345.3929981301
 11
-11527604.12803519
 21
-4207346.6731130574
  0
LINE
  5
49E
100
AcDbEntity
  8
1
  6
CONTINUOUS
 62
             3
100
AcDbLine
 10
-11527605.60781257
 20
-4207346.4255061634
 11
-11527605.60781257
 21
-4207347.2751031602
  0
LINE
  5
49D
100
AcDbEntity
  8
1
  6
CONTINUOUS
 62
             3
100
AcDbLine
 10
-11527605.77027919
 20
-4207346.2145983661
 11
-11527600.078422351
 21
-4207343.474915605
  0
LINE
  5
49C
100
AcDbEntity
  8
1
  6
CONTINUOUS
 62
             3
100
AcDbLine
 10
-11527637.37871588
 20
-4207335.3149738647
 11
-11527638.48174574
 21
-4207335.3927149009
  0
LINE
  5
49B
100
AcDbEntity
  8
1
  6
CONTINUOUS
 62
             3
100
AcDbLine
 10
-11527637.31006629
 20
-4207335.3101354726
 11
-11527638.101641821
 21
-4207336.2174017606
  0
LINE
  5
49A
100
AcDbEntity
  8
1
  6
CONTINUOUS
 62
             3
100
AcDbLine
 10
-11527636.591783769
 20
-4207335.2595112501
 11
-11527638.12734315
 21
-4207337.0245633777
  0
LINE
  5
499
100
AcDbEntity
  8
1
  6
CONTINUOUS
 62
             3
100
AcDbLine
 10
-11527473.21349385
 20
-4207323.8375645084
 11
-11527473.21349385
 21
-4207323.3399352646
  0
LINE
  5
498
100
AcDbEntity
  8
1
  6
CONTINUOUS
 62
             3
100
AcDbLine
 10
-11527473.21349385
 20
-4207318.335855728
 11
-11527473.21349385
 21
-4207323.3399352646
  0
LINE
  5
497
100
AcDbEntity
  8
0
  6
CONTINUOUS
 62
             3
100
AcDbLine
 10
-11527478.213567929
 20
-4207342.8434675671
 11
-11527478.213567929
 21
-4207329.8394286316
  0
LINE
  5
496
100
AcDbEntity
  8
0
  6
CONTINUOUS
 62
             3
100
AcDbLine
 10
-11527478.213567929
 20
-4207431.8711187318
 11
-11527478.213567929
 21
-4207404.8627301753
  0
LINE
  5
495
100
AcDbEntity
  8
0
  6
CONTINUOUS
 62
             3
100
AcDbLine
 10
-11527463.808649
 20
-4207433.3715847647
 11
-11527472.96341618
 21
-4207433.3715847647
  0
LINE
  5
494
100
AcDbEntity
  8
0
  6
CONTINUOUS
 62
             3
100
AcDbLine
 10
-11527463.808649
 20
-4207423.8661071332
 11
-11527463.808649
 21
-4207433.3715847647
  0
LINE
  5
493
100
AcDbEntity
  8
0
  6
CONTINUOUS
 62
             3
100
AcDbLine
 10
-11527472.96341618
 20
-4207314.3346129777
 11
-11527463.808649
 21
-4207314.3346129777
  0
LINE
  5
492
100
AcDbEntity
  8
0
  6
CONTINUOUS
 62
             3
100
AcDbLine
 10
-11527463.808649
 20
-4207314.3346129777
 11
-11527463.808649
 21
-4207323.8400906082
  0
LINE
  5
491
100
AcDbEntity
  8
0
  6
CONTINUOUS
 62
             3
100
AcDbLine
 10
-11527472.96341618
 20
-4207433.3715847647
 11
-11527473.21349385
 21
-4207433.3715847647
  0
LINE
  5
490
100
AcDbEntity
  8
0
  6
CONTINUOUS
 62
             3
100
AcDbLine
 10
-11527473.21349385
 20
-4207314.3346129777
 11
-11527472.96341618
 21
-4207314.3346129777
  0
LINE
  5
487
100
AcDbEntity
  8
0
  6
CONTINUOUS
 62
             3
100
AcDbLine
 10
-11527445.51323143
 20
-4207323.9865827188
 11
-11527472.713338509
 21
-4207323.9865827188
  0
LINE
  5
486
100
AcDbEntity
  8
0
  6
CONTINUOUS
 62
             3
100
AcDbLine
 10
-11527445.51323143
 20
-4207423.0122885527
 11
-11527472.713338509
 21
-4207423.0122885527
  0
LINE
  5
485
100
AcDbEntity
  8
0
  6
CONTINUOUS
 62
             3
100
AcDbLine
 10
-11527472.713338509
 20
-4207324.6939091878
 11
-11527445.51323143
 21
-4207324.6939091878
  0
LINE
  5
454
100
AcDbEntity
  8
0
  6
CONTINUOUS
 62
             3
100
AcDbLine
 10
-11527440.01300199
 20
-4207314.5346751176
 11
-11527440.01300199
 21
-4207318.335855728
  0
LINE
  5
453
100
AcDbEntity
  8
0
  6
CONTINUOUS
 62
             3
100
AcDbLine
 10
-11527440.01300199
 20
-4207318.335855728
 11
-11527440.01300199
 21
-4207429.3703420134
  0
LINE
  5
452
100
AcDbEntity
  8
0
  6
CONTINUOUS
 62
             3
100
AcDbLine
 10
-11527440.01300199
 20
-4207429.3703420134
 11
-11527440.01300199
 21
-4207433.1715226239
  0
LINE
  5
451
100
AcDbEntity
  8
0
  6
CONTINUOUS
 62
             3
100
AcDbLine
 10
-11527445.013076071
 20
-4207392.9901691368
 11
-11527445.013076071
 21
-4207429.3703420134
  0
LINE
  5
450
100
AcDbEntity
  8
0
  6
CONTINUOUS
 62
             3
100
AcDbLine
 10
-11527445.013076071
 20
-4207318.335855728
 11
-11527445.013076071
 21
-4207354.7160286056
  0
LINE
  5
44F
100
AcDbEntity
  8
0
  6
CONTINUOUS
 62
             3
100
AcDbLine
 10
-11527440.213064119
 20
-4207433.3715847647
 11
-11527445.013076071
 21
-4207433.3715847647
  0
LINE
  5
44E
100
AcDbEntity
  8
0
  6
CONTINUOUS
 62
             3
100
AcDbLine
 10
-11527445.013076071
 20
-4207433.3715847647
 11
-11527445.013076071
 21
-4207429.3703420134
  0
LINE
  5
44D
100
AcDbEntity
  8
0
  6
CONTINUOUS
 62
             3
100
AcDbLine
 10
-11527445.013076071
 20
-4207314.3346129777
 11
-11527440.213064119
 21
-4207314.3346129777
  0
LINE
  5
44C
100
AcDbEntity
  8
0
  6
CONTINUOUS
 62
             3
100
AcDbLine
 10
-11527445.013076071
 20
-4207318.335855728
 11
-11527445.013076071
 21
-4207314.3346129777
  0
LINE
  5
446
100
AcDbEntity
  8
0
  6
CONTINUOUS
 62
             3
100
AcDbLine
 10
-11527445.013076071
 20
-4207373.8530988703
 11
-11527445.013076071
 21
-4207392.9901691368
  0
LINE
  5
440
100
AcDbEntity
  8
0
  6
CONTINUOUS
 62
             3
100
AcDbLine
 10
-11527445.013076071
 20
-4207354.7160286056
 11
-11527445.013076071
 21
-4207373.8530988703
  0
LINE
  5
43F
100
AcDbEntity
  8
0
  6
CONTINUOUS
 62
             3
100
AcDbLine
 10
-11527463.808649
 20
-4207414.8737218194
 11
-11527448.014008131
 21
-4207414.8737218194
  0
LINE
  5
43E
100
AcDbEntity
  8
0
  6
CONTINUOUS
 62
             3
100
AcDbLine
 10
-11527463.808649
 20
-4207414.8725164076
 11
-11527463.808649
 21
-4207414.8737218194
  0
LINE
  5
43D
100
AcDbEntity
  8
0
  6
CONTINUOUS
 62
             3
100
AcDbLine
 10
-11527463.808649
 20
-4207332.832475923
 11
-11527463.808649
 21
-4207332.8336813394
  0
LINE
  5
43C
100
AcDbEntity
  8
0
  6
CONTINUOUS
 62
             3
100
AcDbLine
 10
-11527448.014008131
 20
-4207332.832475923
 11
-11527463.808649
 21
-4207332.832475923
  0
LINE
  5
430
100
AcDbEntity
  8
0
  6
CONTINUOUS
 62
             3
100
AcDbLine
 10
-11527463.808649
 20
-4207332.8336813394
 11
-11527463.808649
 21
-4207373.8530988703
  0
LINE
  5
42F
100
AcDbEntity
  8
0
  6
CONTINUOUS
 62
             3
100
AcDbLine
 10
-11527473.21349385
 20
-4207335.3411374101
 11
-11527473.21349385
 21
-4207323.8375645084
  0
LINE
  5
42E
100
AcDbEntity
  8
0
  6
CONTINUOUS
 62
             3
100
AcDbLine
 10
-11527478.213567929
 20
-4207433.1715226239
 11
-11527478.213567929
 21
-4207429.3703420134
  0
LINE
  5
42D
100
AcDbEntity
  8
0
  6
CONTINUOUS
 62
             3
100
AcDbLine
 10
-11527478.0135058
 20
-4207314.3346129777
 11
-11527473.21349385
 21
-4207314.3346129777
  0
LINE
  5
42C
100
AcDbEntity
  8
0
  6
CONTINUOUS
 62
             3
100
AcDbLine
 10
-11527473.21349385
 20
-4207314.3346129777
 11
-11527473.21349385
 21
-4207318.335855728
  0
LINE
  5
428
100
AcDbEntity
  8
0
  6
CONTINUOUS
 62
             3
100
AcDbLine
 10
-11527463.808649
 20
-4207373.8530988703
 11
-11527463.808649
 21
-4207414.8725164076
  0
LINE
  5
427
100
AcDbEntity
  8
0
  6
CONTINUOUS
 62
             3
100
AcDbLine
 10
-11527478.213567929
 20
-4207429.3703420134
 11
-11527478.213567929
 21
-4207335.3411374101
  0
LINE
  5
426
100
AcDbEntity
  8
0
  6
CONTINUOUS
 62
             3
100
AcDbLine
 10
-11527473.21349385
 20
-4207347.1429074248
 11
-11527473.21349385
 21
-4207335.3411374101
  0
LINE
  5
413
100
AcDbEntity
  8
0
  6
CONTINUOUS
 62
             3
100
AcDbLine
 10
-11527473.21349385
 20
-4207429.3703420134
 11
-11527473.21349385
 21
-4207400.5632903157
  0
LINE
  5
412
100
AcDbEntity
  8
0
  6
CONTINUOUS
 62
             3
100
AcDbLine
 10
-11527473.21349385
 20
-4207433.3715847647
 11
-11527478.0135058
 21
-4207433.3715847647
  0
LINE
  5
411
100
AcDbEntity
  8
0
  6
CONTINUOUS
 62
             3
100
AcDbLine
 10
-11527473.21349385
 20
-4207429.3703420134
 11
-11527473.21349385
 21
-4207433.3715847647
  0
LINE
  5
410
100
AcDbEntity
  8
0
  6
CONTINUOUS
 62
             3
100
AcDbLine
 10
-11527478.213567929
 20
-4207318.335855728
 11
-11527478.213567929
 21
-4207314.5346751176
  0
LINE
  5
40F
100
AcDbEntity
  8
0
  6
CONTINUOUS
 62
             3
100
AcDbLine
 10
-11527478.213567929
 20
-4207329.8394286316
 11
-11527478.213567929
 21
-4207318.335855728
  0
LINE
  5
40E
100
AcDbEntity
  8
0
  6
CONTINUOUS
 62
             3
100
AcDbLine
 10
-11527445.013076071
 20
-4207314.3346129777
 11
-11527463.808649
 21
-4207314.3346129777
  0
LINE
  5
40D
100
AcDbEntity
  8
0
  6
CONTINUOUS
 62
             3
100
AcDbLine
 10
-11527463.808649
 20
-4207433.3715847647
 11
-11527445.013076071
 21
-4207433.3715847647
  0
LINE
  5
40C
100
AcDbEntity
  8
0
  6
CONTINUOUS
 62
             3
100
AcDbLine
 10
-11527472.713338509
 20
-4207423.8661071332
 11
-11527445.51323143
 21
-4207423.8661071332
  0
LINE
  5
401
100
AcDbEntity
  8
0
  6
CONTINUOUS
 62
             3
100
AcDbLine
 10
-11527536.032166829
 20
-4207375.2324753664
 11
-11527536.016581651
 21
-4207375.2068898054
  0
LINE
  5
400
100
AcDbEntity
  8
0
  6
CONTINUOUS
 62
             3
100
AcDbLine
 10
-11527631.978682751
 20
-4207329.8933781767
 11
-11527642.14151372
 21
-4207329.8933781767
  0
LINE
  5
3FF
100
AcDbEntity
  8
0
  6
CONTINUOUS
 62
             3
100
AcDbLine
 10
-11527640.726444211
 20
-4207328.3935590684
 11
-11527629.97398586
 21
-4207328.3935590684
  0
LINE
  5
3E9
100
AcDbEntity
  8
0
  6
CONTINUOUS
 62
             3
100
AcDbLine
 10
-11527536.89516243
 20
-4207372.8051838139
 11
-11527536.06797073
 21
-4207371.4472169969
  0
LINE
  5
3E8
100
AcDbEntity
  8
0
  6
CONTINUOUS
 62
             3
100
AcDbLine
 10
-11527565.40459555
 20
-4207387.0700729592
 11
-11527565.038215339
 21
-4207387.0568242073
  0
LINE
  5
3D2
100
AcDbEntity
  8
0
  6
CONTINUOUS
 62
             3
100
AcDbLine
 10
-11527542.93403241
 20
-4207399.4716187287
 11
-11527541.570511879
 21
-4207398.6536139864
  0
LINE
  5
3D1
100
AcDbEntity
  8
0
  6
CONTINUOUS
 62
             3
100
AcDbLine
 10
-11527574.807106281
 20
-4207398.8535565957
 11
-11527574.47653571
 21
-4207399.012090778
  0
LINE
  5
3D0
100
AcDbEntity
  8
0
  6
CONTINUOUS
 62
             3
100
AcDbLine
 10
-11527543.297906389
 20
-4207402.0219327137
 11
-11527536.016581651
 21
-4207397.6537123481
  0
LINE
  5
3BA
100
AcDbEntity
  8
0
  6
CONTINUOUS
 62
             3
100
AcDbLine
 10
-11527649.723522499
 20
-4207361.2711168909
 11
-11527650.851660261
 21
-4207362.3916637283
  0
LINE
  5
3B9
100
AcDbEntity
  8
0
  6
CONTINUOUS
 62
             3
100
AcDbLine
 10
-11527649.98055212
 20
-4207358.7078296524
 11
-11527652.00259256
 21
-4207360.7162643494
  0
LINE
  5
3B8
100
AcDbEntity
  8
0
  6
CONTINUOUS
 62
             3
100
AcDbLine
 10
-11527618.62871029
 20
-4207354.2434934182
 11
-11527618.987614781
 21
-4207354.1686766641
  0
LINE
  5
3B7
100
AcDbEntity
  8
0
  6
CONTINUOUS
 62
             3
100
AcDbLine
 10
-11527648.66657632
 20
-4207362.3352231449
 11
-11527652.00259256
 21
-4207365.6487922799
  0
LINE
  5
3A1
100
AcDbEntity
  8
0
  6
CONTINUOUS
 62
             3
100
AcDbLine
 10
-11527560.67369644
 20
-4207420.2771713976
 11
-11527559.086213211
 21
-4207420.186523756
  0
LINE
  5
3A0
100
AcDbEntity
  8
0
  6
CONTINUOUS
 62
             3
100
AcDbLine
 10
-11527562.181080841
 20
-4207422.3662616173
 11
-11527549.611921029
 21
-4207421.6485440014
  0
LINE
  5
39F
100
AcDbEntity
  8
0
  6
CONTINUOUS
 62
             3
100
AcDbLine
 10
-11527588.608673951
 20
-4207404.9177485686
 11
-11527588.38964276
 21
-4207405.2117474163
  0
LINE
  5
38A
100
AcDbEntity
  8
0
  6
CONTINUOUS
 62
             3
100
AcDbLine
 10
-11527649.2052183
 20
-4207388.6078698514
 11
-11527649.683390589
 21
-4207390.1243365556
  0
LINE
  5
360
100
AcDbEntity
  8
0
  6
CONTINUOUS
 62
             3
100
AcDbLine
 10
-11527624.938028941
 20
-4207367.9347385382
 11
-11527625.29059216
 21
-4207368.0352828261
  0
LINE
  5
35F
100
AcDbEntity
  8
0
  6
CONTINUOUS
 62
             3
100
AcDbLine
 10
-11527650.62402571
 20
-4207386.4576393468
 11
-11527652.00259256
 21
-4207390.8296005744
  0
LINE
  5
35E
100
AcDbEntity
  8
0
  6
CONTINUOUS
 62
             3
100
AcDbLine
 10
-11527543.70560836
 20
-4207398.1854896909
 11
-11527536.016581651
 21
-4207393.572680302
  0
LINE
  5
35D
100
AcDbEntity
  8
0
  6
CONTINUOUS
 62
             3
100
AcDbLine
 10
-11527560.75919906
 20
-4207418.7797914669
 11
-11527545.92329463
 21
-4207417.9326393809
  0
LINE
  5
35C
100
AcDbEntity
  8
0
  6
CONTINUOUS
 62
             3
100
AcDbLine
 10
-11527647.77482409
 20
-4207389.0589017654
 11
-11527652.00259256
 21
-4207402.4667678634
  0
LINE
  5
346
100
AcDbEntity
  8
0
  6
CONTINUOUS
 62
             3
100
AcDbLine
 10
-11527638.297813701
 20
-4207411.327912637
 11
-11527636.070284249
 21
-4207423.7189178281
  0
LINE
  5
331
100
AcDbEntity
  8
0
  6
CONTINUOUS
 62
             3
100
AcDbLine
 10
-11527624.16201428
 20
-4207382.9898206033
 11
-11527624.427468261
 21
-4207383.242692451
  0
LINE
  5
330
100
AcDbEntity
  8
0
  6
CONTINUOUS
 62
             3
100
AcDbLine
 10
-11527636.042260179
 20
-4207412.5724945124
 11
-11527635.76092349
 21
-4207414.1374768382
  0
LINE
  5
32F
100
AcDbEntity
  8
0
  6
CONTINUOUS
 62
             3
100
AcDbLine
 10
-11527543.94051886
 20
-4207346.3868255261
 11
-11527543.839155611
 21
-4207344.7999904677
  0
LINE
  5
319
100
AcDbEntity
  8
0
  6
CONTINUOUS
 62
             3
100
AcDbLine
 10
-11527542.048355561
 20
-4207348.1350314002
 11
-11527541.245795419
 21
-4207335.5710036084
  0
LINE
  5
304
100
AcDbEntity
  8
0
  6
CONTINUOUS
 62
             3
100
AcDbLine
 10
-11527562.555143651
 20
-4207372.2667517588
 11
-11527562.236887081
 21
-4207372.0847552028
  0
LINE
  5
303
100
AcDbEntity
  8
0
  6
CONTINUOUS
 62
             3
100
AcDbLine
 10
-11527616.47844195
 20
-4207395.9598017409
 11
-11527616.595974371
 21
-4207396.3070712537
  0
LINE
  5
2ED
100
AcDbEntity
  8
0
  6
CONTINUOUS
 62
             3
100
AcDbLine
 10
-11527613.250123199
 20
-4207427.6749841645
 11
-11527612.273728389
 21
-4207428.9299635245
  0
LINE
  5
2EC
100
AcDbEntity
  8
0
  6
CONTINUOUS
 62
             3
100
AcDbLine
 10
-11527615.82570269
 20
-4207427.6211696267
 11
-11527612.51142358
 21
-4207431.8810774321
  0
LINE
  5
2D7
100
AcDbEntity
  8
0
  6
CONTINUOUS
 62
             3
100
AcDbLine
 10
-11527538.176052989
 20
-4207372.0249423301
 11
-11527536.016581651
 21
-4207368.4798265351
  0
LINE
  5
2C2
100
AcDbEntity
  8
0
  6
CONTINUOUS
 62
             3
100
AcDbLine
 10
-11527634.56610403
 20
-4207412.3071261058
 11
-11527631.93685798
 21
-4207426.9327471722
  0
LINE
  5
2C1
100
AcDbEntity
  8
0
  6
CONTINUOUS
 62
             3
100
AcDbLine
 10
-11527612.066374701
 20
-4207426.754008146
 11
-11527608.077429529
 21
-4207431.8810774321
  0
LINE
  5
284
100
AcDbEntity
  8
0
  6
CONTINUOUS
 62
             3
100
AcDbLine
 10
-11527566.911525691
 20
-4207357.8348554801
 11
-11527566.714301519
 21
-4207357.5258043343
  0
LINE
  5
26E
100
AcDbEntity
  8
0
  6
CONTINUOUS
 62
             3
100
AcDbLine
 10
-11527562.456095411
 20
-4207326.268671371
 11
-11527563.103781739
 21
-4207324.8164928611
  0
LINE
  5
26D
100
AcDbEntity
  8
0
  6
CONTINUOUS
 62
             3
100
AcDbLine
 10
-11527559.96823624
 20
-4207326.9372986732
 11
-11527564.893183669
 21
-4207315.8950665137
  0
LINE
  5
26C
100
AcDbEntity
  8
0
  6
CONTINUOUS
 62
             3
100
AcDbLine
 10
-11527563.825850319
 20
-4207326.87959594
 11
-11527568.725061741
 21
-4207315.8950665137
  0
LINE
  5
26B
100
AcDbEntity
  8
0
  6
CONTINUOUS
 62
             3
100
AcDbLine
 10
-11527545.4372874
 20
-4207346.2912155194
 11
-11527544.489992131
 21
-4207331.4613686483
  0
LINE
  5
26A
100
AcDbEntity
  8
0
  6
CONTINUOUS
 62
             3
100
AcDbLine
 10
-11527586.05021129
 20
-4207430.455540441
 11
-11527584.602438631
 21
-4207431.1130161807
  0
LINE
  5
269
100
AcDbEntity
  8
0
  6
CONTINUOUS
 62
             3
100
AcDbLine
 10
-11527588.355782511
 20
-4207431.6048214994
 11
-11527587.747462301
 21
-4207431.8810774321
  0
LINE
  5
268
100
AcDbEntity
  8
0
  6
CONTINUOUS
 62
             3
100
AcDbLine
 10
-11527585.430052919
 20
-4207429.0899413116
 11
-11527579.28392422
 21
-4207431.8810774321
  0
LINE
  5
267
100
AcDbEntity
  8
0
  6
CONTINUOUS
 62
             3
100
AcDbLine
 10
-11527603.647525741
 20
-4207403.8734155856
 11
-11527603.590211339
 21
-4207404.2355275042
  0
LINE
  5
23D
100
AcDbEntity
  8
0
  6
CONTINUOUS
 62
             3
100
AcDbLine
 10
-11527588.200196659
 20
-4207317.0595480213
 11
-11527589.448555419
 21
-4207316.0747026531
  0
LINE
  5
23C
100
AcDbEntity
  8
0
  6
CONTINUOUS
 62
             3
100
AcDbLine
 10
-11527589.12914359
 20
-4207318.2370517114
 11
-11527592.097769789
 21
-4207315.8950665137
  0
LINE
  5
227
100
AcDbEntity
  8
0
  6
CONTINUOUS
 62
             3
100
AcDbLine
 10
-11527577.47574703
 20
-4207347.0805576369
 11
-11527577.444736941
 21
-4207346.7152517969
  0
LINE
  5
1FC
100
AcDbEntity
  8
0
  6
CONTINUOUS
 62
             3
100
AcDbLine
 10
-11527591.82767188
 20
-4207342.4675382627
 11
-11527591.96997989
 21
-4207342.1296648951
  0
LINE
  5
1FB
100
AcDbEntity
  8
0
  6
CONTINUOUS
 62
             3
100
AcDbLine
 10
-11527615.27515923
 20
-4207320.8691546489
 11
-11527616.838206491
 21
-4207320.5772586279
  0
LINE
  5
1FA
100
AcDbEntity
  8
0
  6
CONTINUOUS
 62
             3
100
AcDbLine
 10
-11527613.31162467
 20
-4207319.2015102962
 11
-11527625.687308621
 21
-4207316.8903755099
  0
LINE
  5
1F9
100
AcDbEntity
  8
0
  6
CONTINUOUS
 62
             3
100
AcDbLine
 10
-11527615.550487651
 20
-4207322.3434855537
 11
-11527630.1580244
 21
-4207319.615556621
  0
LINE
  5
1E5
100
AcDbEntity
  8
0
  6
CONTINUOUS
 62
             3
100
AcDbLine
 10
-11527601.93941522
 20
-4207340.46663306
 11
-11527603.620971009
 21
-4207339.199331223
  0
LINE
  5
1E4
100
AcDbEntity
  8
0
  6
CONTINUOUS
 62
             3
100
AcDbLine
 10
-11527646.64344433
 20
-4207335.3927149009
 11
-11527638.48174574
 21
-4207335.3927149009
  0
LINE
  5
1E3
100
AcDbEntity
  8
0
  6
CONTINUOUS
 62
             3
100
AcDbLine
 10
-11527637.037071001
 20
-4207338.2581629651
 11
-11527651.23913422
 21
-4207342.6311626742
  0
LINE
  5
1D0
100
AcDbEntity
  8
0
  6
CONTINUOUS
 62
             3
100
AcDbLine
 10
-11527610.28056097
 20
-4207344.0584387891
 11
-11527608.395943999
 21
-4207345.8694455279
  0
LINE
  5
1CF
100
AcDbEntity
  8
0
  6
CONTINUOUS
 62
             3
100
AcDbLine
 10
-11527610.583904451
 20
-4207341.9353030808
 11
-11527606.966789121
 21
-4207344.6613362776
  0
LINE
  5
1BE
100
AcDbEntity
  8
0
  6
CONTINUOUS
 62
             3
100
AcDbLine
 10
-11527637.47843552
 20
-4207336.824756288
 11
-11527638.998095989
 21
-4207337.2926794784
  0
LINE
  5
1BD
100
AcDbEntity
  8
0
  6
CONTINUOUS
 62
             3
100
AcDbLine
 10
-11527642.531845661
 20
-4207329.8933781767
 11
-11527642.14151372
 21
-4207329.8933781767
  0
LINE
  5
1B0
100
AcDbEntity
  8
0
  6
CONTINUOUS
 62
             3
100
AcDbLine
 10
-11527538.51628015
 20
-4207433.3808965404
 11
-11527649.502894061
 21
-4207433.3808965404
  0
LINE
  5
1AF
100
AcDbEntity
  8
0
  6
CONTINUOUS
 62
             3
100
AcDbLine
 10
-11527646.64344433
 20
-4207335.3927149009
 11
-11527647.000625409
 21
-4207335.3927149009
  0
LINE
  5
1A2
100
AcDbEntity
  8
0
  6
CONTINUOUS
 62
             3
100
AcDbLine
 10
-11527653.50241168
 20
-4207335.3927149009
 11
-11527653.302435789
 21
-4207335.3927149009
  0
LINE
  5
1A1
100
AcDbEntity
  8
0
  6
CONTINUOUS
 62
             3
100
AcDbLine
 10
-11527653.50241168
 20
-4207429.3813789235
 11
-11527653.50241168
 21
-4207335.3927149009
  0
LINE
  5
180
100
AcDbEntity
  8
0
  6
CONTINUOUS
 62
             3
100
AcDbLine
 10
-11527653.302435789
 20
-4207329.8933781767
 11
-11527653.50241168
 21
-4207329.8933781767
  0
LINE
  5
17F
100
AcDbEntity
  8
0
  6
CONTINUOUS
 62
             3
100
AcDbLine
 10
-11527653.50241168
 20
-4207329.8933781767
 11
-11527653.50241168
 21
-4207318.3947650241
  0
LINE
  5
167
100
AcDbEntity
  8
0
  6
CONTINUOUS
 62
             3
100
AcDbLine
 10
-11527534.516762551
 20
-4207318.3947650241
 11
-11527534.516762551
 21
-4207429.3813789217
  0
LINE
  5
166
100
AcDbEntity
  8
0
  6
CONTINUOUS
 62
             3
100
AcDbLine
 10
-11527599.48359153
 20
-4207343.5695020864
 11
-11527599.68700788
 21
-4207343.4161976837
  0
LINE
  5
165
100
AcDbEntity
  8
0
  6
CONTINUOUS
 62
             3
100
AcDbLine
 10
-11527642.531845661
 20
-4207329.8933781767
 11
-11527653.302435789
 21
-4207329.8933781767
  0
LINE
  5
164
100
AcDbEntity
  8
0
  6
CONTINUOUS
 62
             3
100
AcDbLine
 10
-11527624.452221259
 20
-4207315.8950665137
 11
-11527563.566952961
 21
-4207315.8950665137
  0
LINE
  5
163
100
AcDbEntity
  8
0
  6
CONTINUOUS
 62
             3
100
AcDbLine
 10
-11527536.016581651
 20
-4207343.4454378216
 11
-11527536.016581651
 21
-4207404.3307061279
  0
LINE
  5
162
100
AcDbEntity
  8
0
  6
CONTINUOUS
 62
             3
100
AcDbLine
 10
-11527563.566952961
 20
-4207431.8810774321
 11
-11527624.452221259
 21
-4207431.8810774321
  0
LINE
  5
161
100
AcDbEntity
  8
0
  6
CONTINUOUS
 62
             3
100
AcDbLine
 10
-11527652.00259256
 20
-4207404.3307061279
 11
-11527652.00259256
 21
-4207343.4454378216
  0
LINE
  5
160
100
AcDbEntity
  8
0
  6
CONTINUOUS
 62
             3
100
AcDbLine
 10
-11527653.302435789
 20
-4207335.3927149009
 11
-11527647.000625409
 21
-4207335.3927149009
  0
LINE
  5
15F
100
AcDbEntity
  8
0
  6
CONTINUOUS
 62
             3
100
AcDbLine
 10
-11527649.502894061
 20
-4207314.3952474073
 11
-11527538.51628015
 21
-4207314.3952474054
  0
LINE
  5
15E
100
AcDbEntity
  8
0
  6
CONTINUOUS
 62
             3
100
AcDbLine
 10
-11527599.68700788
 20
-4207343.4161976837
 11
-11527600.2244871
 21
-4207343.0111273276
  0
LINE
  5
15B
100
AcDbEntity
  8
0
  6
CONTINUOUS
 62
             3
100
AcDbLine
 10
-11527544.895026891
 20
-4207400.6357487943
 11
-11527544.036974169
 21
-4207402.3167646388
  0
LINE
  5
15A
100
AcDbEntity
  8
0
  6
CONTINUOUS
 62
             3
100
AcDbLine
 10
-11527548.851494979
 20
-4207394.7458921401
 11
-11527548.625911159
 21
-4207395.0052813943
  0
LINE
  5
153
100
AcDbEntity
  8
0
  6
CONTINUOUS
 62
             3
100
AcDbLine
 10
-11527536.524520731
 20
-4207372.9290340981
 11
-11527536.87197772
 21
-4207372.7671224074
  0
LINE
  5
152
100
AcDbEntity
  8
0
  6
CONTINUOUS
 62
             3
100
AcDbLine
 10
-11527649.565448459
 20
-4207361.1146669816
 11
-11527649.967246359
 21
-4207360.6898531262
  0
LINE
  5
151
100
AcDbEntity
  8
0
  6
CONTINUOUS
 62
             3
100
AcDbLine
 10
-11527643.21478622
 20
-4207366.5976448348
 11
-11527644.649655931
 21
-4207365.6791687468
  0
LINE
  5
147
100
AcDbEntity
  8
0
  6
CONTINUOUS
 62
             3
100
AcDbLine
 10
-11527545.131576911
 20
-4207404.1600512527
 11
-11527546.70963618
 21
-4207401.6626166673
  0
LINE
  5
13F
100
AcDbEntity
  8
0
  6
CONTINUOUS
 62
             3
100
AcDbLine
 10
-11527649.43629658
 20
-4207358.6128473422
 11
-11527648.162289269
 21
-4207359.734010716
  0
LINE
  5
45
100
AcDbEntity
  8
0
  6
CONTINUOUS
 62
             3
100
AcDbLine
 10
-11527642.242641419
 20
-4207364.3354095677
 11
-11527642.0571214
 21
-4207364.4281052221
  0
LINE
  5
44
100
AcDbEntity
  8
0
  6
CONTINUOUS
 62
             3
100
AcDbLine
 10
-11527577.689877721
 20
-4207327.5054462152
 11
-11527577.808032099
 21
-4207327.6758859353
  0
LINE
  5
41
100
AcDbEntity
  8
0
  6
CONTINUOUS
 62
             3
100
AcDbLine
 10
-11527577.808032099
 20
-4207327.6758859353
 11
-11527578.034112191
 21
-4207328.00201027
  0
LINE
  5
40
100
AcDbEntity
  8
0
  6
CONTINUOUS
 62
             3
100
AcDbLine
 10
-11527555.204233211
 20
-4207343.6916252244
 11
-11527555.39577768
 21
-4207343.7711291481
  0
LINE
  5
3F
100
AcDbEntity
  8
0
  6
CONTINUOUS
 62
             3
100
AcDbLine
 10
-11527548.81914782
 20
-4207394.7227112791
 11
-11527548.58458421
 21
-4207394.9819492111
  0
LINE
  5
3E
100
AcDbEntity
  8
0
  6
CONTINUOUS
 62
             3
100
AcDbLine
 10
-11527620.36411606
 20
-4207415.1825188594
 11
-11527621.06342989
 21
-4207415.6534594232
  0
LINE
  5
39
100
AcDbEntity
  8
1
  6
DOT_CENTER
 62
             1
100
AcDbLine
 10
-11527646.403267911
 20
-4207325.799404175
 11
-11527646.403267911
 21
-4207317.0620847195
  0
LINE
  5
38
100
AcDbEntity
  8
1
  6
DOT_CENTER
 62
             1
100
AcDbLine
 10
-11527650.51777673
 20
-4207321.4943911778
 11
-11527642.33815852
 21
-4207321.4943911778
  0
LINE
  5
37
100
AcDbEntity
  8
1
  6
DOT_CENTER
 62
             1
100
AcDbLine
 10
-11527646.403267911
 20
-4207430.3962615803
 11
-11527646.403267911
 21
-4207422.216643367
  0
LINE
  5
36
100
AcDbEntity
  8
1
  6
DOT_CENTER
 62
             1
100
AcDbLine
 10
-11527642.0982549
 20
-4207426.2817527568
 11
-11527650.835574361
 21
-4207426.2817527568
  0
LINE
  5
35
100
AcDbEntity
  8
1
  6
DOT_CENTER
 62
             1
100
AcDbLine
 10
-11527537.5013975
 20
-4207426.2817527512
 11
-11527545.681015709
 21
-4207426.2817527512
  0
LINE
  5
34
100
AcDbEntity
  8
1
  6
DOT_CENTER
 62
             1
100
AcDbLine
 10
-11527537.5013975
 20
-4207426.2817527512
 11
-11527545.681015709
 21
-4207426.2817527512
  0
LINE
  5
33
100
AcDbEntity
  8
1
  6
DOT_CENTER
 62
             1
100
AcDbLine
 10
-11527541.615906321
 20
-4207421.9767397558
 11
-11527541.615906321
 21
-4207430.7140592122
  0
LINE
  5
32
100
AcDbEntity
  8
1
  6
DOT_CENTER
 62
             1
100
AcDbLine
 10
-11527541.615906321
 20
-4207317.3798823496
 11
-11527541.615906321
 21
-4207325.5595005639
  0
LINE
  5
31
100
AcDbEntity
  8
1
  6
DOT_CENTER
 62
             1
100
AcDbLine
 10
-11527541.615906321
 20
-4207317.3798823496
 11
-11527541.615906321
 21
-4207325.5595005639
  0
LINE
  5
30
100
AcDbEntity
  8
1
  6
DOT_CENTER
 62
             1
100
AcDbLine
 10
-11527545.92091932
 20
-4207321.494391175
 11
-11527537.183599859
 21
-4207321.494391175
  0
LINE
  5
2F
100
AcDbEntity
  8
1
  6
DOT_CENTER
 62
             1
100
AcDbLine
 10
-11527594.014638931
 20
-4207437.3809558023
 11
-11527594.014638931
 21
-4207310.3951881444
  0
LINE
  5
2E
100
AcDbEntity
  8
1
  6
DOT_CENTER
 62
             1
100
AcDbLine
 10
-11527530.521755099
 20
-4207373.8880719729
 11
-11527657.507522769
 21
-4207373.8880719729
  0
LINE
  5
2D
100
AcDbEntity
  8
1
  6
DOT_CENTER
 62
             1
100
AcDbLine
 10
-11527482.213627189
 20
-4207321.4347181655
 11
-11527436.01294273
 21
-4207321.4347181655
  0
LINE
  5
2C
100
AcDbEntity
  8
1
  6
DOT_CENTER
 62
             1
100
AcDbLine
 10
-11527482.213627189
 20
-4207373.8223857237
 11
-11527436.01294273
 21
-4207373.8223857237
  0
LINE
  5
2B
100
AcDbEntity
  8
1
  6
DOT_CENTER
 62
             1
100
AcDbLine
 10
-11527482.213627189
 20
-4207426.2362707825
 11
-11527436.01294273
 21
-4207426.2362707825
  0
LINE
  5
2A
100
AcDbEntity
  8
0
  6
CONTINUOUS
 62
             3
100
AcDbLine
 10
-11527619.72938652
 20
-4207332.4681545654
 11
-11527620.77997325
 21
-4207334.3744333899
  0
LINE
  5
29
100
AcDbEntity
  8
0
  6
CONTINUOUS
 62
             3
100
AcDbLine
 10
-11527616.415552611
 20
-4207336.8144118357
 11
-11527615.350313099
 21
-4207334.8815456983
  0
LINE
  5
28
100
AcDbEntity
  8
0
  6
CONTINUOUS
 62
             3
100
AcDbLine
 10
-11527618.37089362
 20
-4207332.0750181079
 11
-11527615.743449559
 21
-4207333.5230527883
  0
INSERT
  5
66C
100
AcDbEntity
  8
0
100
AcDbBlockReference
  2
*D6
 10
0.0
 20
0.0
  0
ENDSEC
  0
SECTION
  2
OBJECTS
  0
DICTIONARY
  5
19
100
AcDbDictionary
  3
ACAD_GROUP
350
1A
  3
ACAD_MLINESTYLE
350
1B
  0
DICTIONARY
  5
1A
102
{ACAD_REACTORS
330
19
102
}
100
AcDbDictionary
  0
DICTIONARY
  5
1B
102
{ACAD_REACTORS
330
19
102
}
100
AcDbDictionary
  3
STANDARD
350
1C
  0
MLINESTYLE
  5
1C
102
{ACAD_REACTORS
330
1B
102
}
100
AcDbMlineStyle
  2
STANDARD
 70
             0
  3

 62
             0
 51
90.0
 52
90.0
 71
             2
 49
0.5
 62
           256
  6
BYLAYER
 49
-0.5
 62
           256
  6
BYLAYER
  0
ENDSEC
  0
EOF
