  0
SECTION
  2
HEADER
  9
$ACADVER
  1
AC1014
  9
$ACADMAINTVER
 70
             0
  9
$DWGCODEPAGE
  3
ANSI_1252
  9
$INSBASE
 10
0.0
 20
0.0
 30
0.0
  9
$EXTMIN
 10
27.15255108676456
 20
12.63688397964835
 30
0.0
  9
$EXTMAX
 10
261.33782391847598
 20
149.40730415786069
 30
0.0
  9
$LIMMIN
 10
0.0
 20
0.0
  9
$LIMMAX
 10
0.0
 20
0.0
  9
$ORTHOMODE
 70
             0
  9
$REGENMODE
 70
             1
  9
$FILLMODE
 70
             1
  9
$QTEXTMODE
 70
             0
  9
$MIRRTEXT
 70
             1
  9
$DRAGMODE
 70
             2
  9
$LTSCALE
 40
1.0
  9
$OSMODE
 70
             0
  9
$ATTMODE
 70
             1
  9
$TEXTSIZE
 40
0.2
  9
$TRACEWID
 40
0.05
  9
$TEXTSTYLE
  7
STANDARD
  9
$CLAYER
  8
0
  9
$CELTYPE
  6
CONTINUOUS
  9
$CECOLOR
 62
           256
  9
$CELTSCALE
 40
1.0
  9
$DELOBJ
 70
             1
  9
$DISPSILH
 70
             0
  9
$DIMSCALE
 40
1.0
  9
$DIMASZ
 40
0.18
  9
$DIMEXO
 40
0.0625
  9
$DIMDLI
 40
0.38
  9
$DIMRND
 40
0.0
  9
$DIMDLE
 40
0.0
  9
$DIMEXE
 40
0.18
  9
$DIMTP
 40
0.0
  9
$DIMTM
 40
0.0
  9
$DIMTXT
 40
0.18
  9
$DIMCEN
 40
0.09
  9
$DIMTSZ
 40
0.0
  9
$DIMTOL
 70
             0
  9
$DIMLIM
 70
             0
  9
$DIMTIH
 70
             1
  9
$DIMTOH
 70
             1
  9
$DIMSE1
 70
             0
  9
$DIMSE2
 70
             0
  9
$DIMTAD
 70
             0
  9
$DIMZIN
 70
             0
  9
$DIMBLK
  1

  9
$DIMASO
 70
             1
  9
$DIMSHO
 70
             1
  9
$DIMPOST
  1

  9
$DIMAPOST
  1

  9
$DIMALT
 70
             0
  9
$DIMALTD
 70
             2
  9
$DIMALTF
 40
25.4
  9
$DIMLFAC
 40
1.0
  9
$DIMTOFL
 70
             0
  9
$DIMTVP
 40
0.0
  9
$DIMTIX
 70
             0
  9
$DIMSOXD
 70
             0
  9
$DIMSAH
 70
             0
  9
$DIMBLK1
  1

  9
$DIMBLK2
  1

  9
$DIMSTYLE
  2
STANDARD
  9
$DIMCLRD
 70
             0
  9
$DIMCLRE
 70
             0
  9
$DIMCLRT
 70
             0
  9
$DIMTFAC
 40
1.0
  9
$DIMGAP
 40
0.09
  9
$DIMJUST
 70
             0
  9
$DIMSD1
 70
             0
  9
$DIMSD2
 70
             0
  9
$DIMTOLJ
 70
             1
  9
$DIMTZIN
 70
             0
  9
$DIMALTZ
 70
             0
  9
$DIMALTTZ
 70
             0
  9
$DIMFIT
 70
             3
  9
$DIMUPT
 70
             0
  9
$DIMUNIT
 70
             2
  9
$DIMDEC
 70
             4
  9
$DIMTDEC
 70
             4
  9
$DIMALTU
 70
             2
  9
$DIMALTTD
 70
             2
  9
$DIMTXSTY
  7
STANDARD
  9
$DIMAUNIT
 70
             0
  9
$LUNITS
 70
             2
  9
$LUPREC
 70
             4
  9
$SKETCHINC
 40
0.1
  9
$FILLETRAD
 40
0.0
  9
$AUNITS
 70
             0
  9
$AUPREC
 70
             0
  9
$MENU
  1
acad
  9
$ELEVATION
 40
0.0
  9
$PELEVATION
 40
0.0
  9
$THICKNESS
 40
0.0
  9
$LIMCHECK
 70
             0
  9
$BLIPMODE
 70
             1
  9
$CHAMFERA
 40
0.0
  9
$CHAMFERB
 40
0.0
  9
$CHAMFERC
 40
0.0
  9
$CHAMFERD
 40
0.0
  9
$SKPOLY
 70
             0
  9
$TDCREATE
 40
0.000000000
  9
$TDUPDATE
 40
0.000000000
  9
$TDINDWG
 40
0.0000000000
  9
$TDUSRTIMER
 40
0.0000000000
  9
$USRTIMER
 70
             1
  9
$ANGBASE
 50
0.0
  9
$ANGDIR
 70
             0
  9
$PDMODE
 70
             0
  9
$PDSIZE
 40
0.0
  9
$PLINEWID
 40
0.0
  9
$COORDS
 70
             0
  9
$SPLFRAME
 70
             0
  9
$SPLINETYPE
 70
             6
  9
$SPLINESEGS
 70
             8
  9
$ATTDIA
 70
             0
  9
$ATTREQ
 70
             1
  9
$HANDLING
 70
             1
  9
$HANDSEED
  5
5F1
  9
$SURFTAB1
 70
             6
  9
$SURFTAB2
 70
             6
  9
$SURFTYPE
 70
             6
  9
$SURFU
 70
             6
  9
$SURFV
 70
             6
  9
$UCSNAME
  2

  9
$UCSORG
 10
0.0
 20
0.0
 30
0.0
  9
$UCSXDIR
 10
1.0
 20
0.0
 30
0.0
  9
$UCSYDIR
 10
0.0
 20
1.0
 30
0.0
  9
$PUCSNAME
  2

  9
$PUCSORG
 10
0.0
 20
0.0
 30
0.0
  9
$PUCSXDIR
 10
1.0
 20
0.0
 30
0.0
  9
$PUCSYDIR
 10
0.0
 20
1.0
 30
0.0
  9
$USERI1
 70
             0
  9
$USERI2
 70
             0
  9
$USERI3
 70
             0
  9
$USERI4
 70
             0
  9
$USERI5
 70
             0
  9
$USERR1
 40
12.01
  9
$USERR2
 40
0.0
  9
$USERR3
 40
0.0
  9
$USERR4
 40
0.0
  9
$USERR5
 40
0.0
  9
$WORLDVIEW
 70
             1
  9
$SHADEDGE
 70
             3
  9
$SHADEDIF
 70
            70
  9
$TILEMODE
 70
             1
  9
$MAXACTVP
 70
            16
  9
$PINSBASE
 10
0.0
 20
0.0
 30
0.0
  9
$PLIMCHECK
 70
             0
  9
$PEXTMIN
 10
1.00000000000000E+20
 20
1.00000000000000E+20
 30
1.00000000000000E+20
  9
$PEXTMAX
 10
-1.00000000000000E+20
 20
-1.00000000000000E+20
 30
-1.00000000000000E+20
  9
$PLIMMIN
 10
0.0
 20
0.0
  9
$PLIMMAX
 10
12.0
 20
9.0
  9
$UNITMODE
 70
             0
  9
$VISRETAIN
 70
             0
  9
$PLINEGEN
 70
             1
  9
$PSLTSCALE
 70
             0
  9
$TREEDEPTH
 70
          3020
  9
$PICKSTYLE
 70
             1
  9
$CMLSTYLE
  2
STANDARD
  9
$CMLJUST
 70
             0
  9
$CMLSCALE
 40
1.0
  9
$PROXYGRAPHICS
 70
             0
  9
$MEASUREMENT
 70
             1
  0
ENDSEC
  0
SECTION
  2
CLASSES
  0
CLASS
  1
LWPOLYLINE
  2
AcDbPolyline
  3
"AutoCAD"
 90
        0
280
             0
281
             1
  0
CLASS
  1
IMAGE
  2
AcDbRasterImage
  3
ISM
 90
      127
280
             0
281
             1
  0
CLASS
  1
OLE2FRAME
  2
AcDbOle2Frame
  3
""
 90
        0
280
             0
281
             1
  0
CLASS
  1
HATCH
  2
AcDbHatch
  3
"ACAD_SEDONA"
 90
        0
280
             0
281
             1
  0
CLASS
  1
DICTIONARYVAR
  2
AcDbDictionaryVar
  3
"AutoCAD"
 90
        0
280
             0
281
             0
  0
CLASS
  1
RASTERVARIABLES
  2
AcDbRasterVariables
  3
ISM
 90
        0
280
             0
281
             0
  0
CLASS
  1
IMAGEDEF
  2
AcDbRasterImageDef
  3
ISM
 90
        0
280
             0
281
             0
  0
CLASS
  1
IMAGEDEF_REACTOR
  2
AcDbRasterImageDefReactor
  3
ISM
 90
        1
280
             0
281
             0
  0
CLASS
  1
IDBUFFER
  2
AcDbIdBuffer
  3
"Acad"
 90
        0
280
             0
281
             0
  0
CLASS
  1
SPATIAL_FILTER
  2
AcDbSpatialFilter
  3
"Acad"
 90
        0
280
             0
281
             0
  0
CLASS
  1
XRECORD
  2
AcDbXrecord
  3
"<Built In>"
 90
        0
280
             0
281
             0
  0
CLASS
  1
SORTENTSTABLE
  2
AcDbSortentsTable
  3
"AutoCAD"
 90
        0
280
             0
281
             0
  0
CLASS
  1
LAYER_INDEX
  2
AcDbLayerIndex
  3
"Acad"
 90
        0
280
             0
281
             0
  0
CLASS
  1
SPATIAL_INDEX
  2
AcDbSpatialIndex
  3
"Acad"
 90
        0
280
             0
281
             0
  0
CLASS
  1
OBJECT_PTR
  2
CAseDLPNTableRecord
  3
"ASE-LPNTableRecord"
 90
        1
280
             0
281
             0
  0
CLASS
  1
LAYOUT
  2
AcDbLayout
  3
"AutoCAD 2000"
 90
        0
280
             0
281
             0
  0
CLASS
  1
PLOTSETTINGS
  2
AcDbPlotSettings
  3
"AutoCAD 2000"
 90
        0
280
             0
281
             0
  0
CLASS
  1
ACDBDICTIONARYWDFLT
  2
AcDbDictionaryWithDefault
  3
"AutoCAD 2000"
 90
        0
280
             0
281
             0
  0
CLASS
  1
ACDBPLACEHOLDER
  2
AcDbPlaceHolder
  3
"AutoCAD 2000"
 90
        0
280
             0
281
             0
  0
ENDSEC
  0
SECTION
  2
TABLES
  0
TABLE
  2
VPORT
  5
7
100
AcDbSymbolTable
 70
             1
  0
VPORT
  5
15
100
AcDbSymbolTableRecord
100
AcDbViewportTableRecord
  2
*ACTIVE
 70
             0
 10
0.0
 20
0.0
 11
1.0
 21
1.0
 12
144.24518750262027
 22
81.02209406875453
 13
0.0
 23
0.0
 14
1.0
 24
1.0
 15
0.0
 25
0.0
 16
0.0
 26
0.0
 36
1.0
 17
0.0
 27
0.0
 37
0.0
 40
160.73329032237805
 41
1.60267857142857
 42
50.0
 43
0.0
 44
0.0
 50
0.0
 51
0.0
 71
             0
 72
           100
 73
             1
 74
             1
 75
             0
 76
             0
 77
             0
 78
             0
  0
ENDTAB
  0
TABLE
  2
LTYPE
  5
4
100
AcDbSymbolTable
 70
            10
  0
LTYPE
  5
11
100
AcDbSymbolTableRecord
100
AcDbLinetypeTableRecord
  2
BYBLOCK
 70
            64
  3

 72
            65
 73
             0
 40
0.0
  0
LTYPE
  5
12
100
AcDbSymbolTableRecord
100
AcDbLinetypeTableRecord
  2
BYLAYER
 70
            64
  3

 72
            65
 73
             0
 40
0.0
  0
LTYPE
  5
13
100
AcDbSymbolTableRecord
100
AcDbLinetypeTableRecord
  2
CONTINUOUS
 70
            64
  3
Solid line
 72
            65
 73
             0
 40
0.0
  0
LTYPE
  5
1D
100
AcDbSymbolTableRecord
100
AcDbLinetypeTableRecord
  2
DASHED
 70
            64
  3
Dashed
 72
            65
 73
             2
 40
15.0
 49
7.0
 74
             0
 49
-8.0
 74
             0
  0
LTYPE
  5
1E
100
AcDbSymbolTableRecord
100
AcDbLinetypeTableRecord
  2
DOTTED
 70
            64
  3
Dotted
 72
            65
 73
             2
 40
1.0
 49
0.0
 74
             0
 49
-1.0
 74
             0
  0
LTYPE
  5
1F
100
AcDbSymbolTableRecord
100
AcDbLinetypeTableRecord
  2
DOT_CENTER
 70
            64
  3
Dot_Center
 72
            65
 73
             4
 40
14.0
 49
12.0
 74
             0
 49
-1.0
 74
             0
 49
0.0
 74
             0
 49
-1.0
 74
             0
  0
LTYPE
  5
20
100
AcDbSymbolTableRecord
100
AcDbLinetypeTableRecord
  2
LONG_DASHED
 70
            64
  3
Long_Dashed
 72
            65
 73
             2
 40
15.0
 49
10.0
 74
             0
 49
-5.0
 74
             0
  0
LTYPE
  5
21
100
AcDbSymbolTableRecord
100
AcDbLinetypeTableRecord
  2
DASH_CENTER
 70
            64
  3
Dash_Center
 72
            65
 73
             4
 40
14.0
 49
11.0
 74
             0
 49
-1.0
 74
             0
 49
1.0
 74
             0
 49
-1.0
 74
             0
  0
LTYPE
  5
22
100
AcDbSymbolTableRecord
100
AcDbLinetypeTableRecord
  2
PHANTOM
 70
            64
  3
Phantom
 72
            65
 73
             6
 40
13.0
 49
10.0
 74
             0
 49
-1.0
 74
             0
 49
0.0
 74
             0
 49
-1.0
 74
             0
 49
0.0
 74
             0
 49
-1.0
 74
             0
  0
LTYPE
  5
23
100
AcDbSymbolTableRecord
100
AcDbLinetypeTableRecord
  2
CENTER_DASH_DASH
 70
            64
  3
Center_Dash_Dash
 72
            65
 73
             6
 40
14.0
 49
9.0
 74
             0
 49
-1.0
 74
             0
 49
1.0
 74
             0
 49
-1.0
 74
             0
 49
1.0
 74
             0
 49
-1.0
 74
             0
  0
ENDTAB
  0
TABLE
  2
LAYER
  5
2
100
AcDbSymbolTable
 70
             3
  0
LAYER
  5
14
100
AcDbSymbolTableRecord
100
AcDbLayerTableRecord
  2
0
 70
             0
 62
             7
  6
CONTINUOUS
  0
LAYER
  5
24
100
AcDbSymbolTableRecord
100
AcDbLayerTableRecord
  2
1
 70
             0
 62
             7
  6
CONTINUOUS
  0
LAYER
  5
25
100
AcDbSymbolTableRecord
100
AcDbLayerTableRecord
  2
___C_____1
 70
             0
 62
             7
  6
CONTINUOUS
  0
ENDTAB
  0
TABLE
  2
STYLE
  5
3
100
AcDbSymbolTable
 70
             2
  0
STYLE
  5
17
100
AcDbSymbolTableRecord
100
AcDbTextStyleTableRecord
  2
STANDARD
 70
             0
 40
0.0
 41
1.0
 50
0.0
 71
             0
 42
0.0
  3
txt
  4

  0
STYLE
  5
596
100
AcDbSymbolTableRecord
100
AcDbTextStyleTableRecord
  2
CONVERTER_1
 70
             0
 40
0.0
 41
0.9
 50
0.0
 71
             0
 42
0.0
  3
txt.shx
  4

  0
ENDTAB
  0
TABLE
  2
VIEW
  5
5
100
AcDbSymbolTable
 70
             0
  0
ENDTAB
  0
TABLE
  2
UCS
  5
6
100
AcDbSymbolTable
 70
             0
  0
ENDTAB
  0
TABLE
  2
APPID
  5
8
100
AcDbSymbolTable
 70
             1
  0
APPID
  5
16
100
AcDbSymbolTableRecord
100
AcDbRegAppTableRecord
  2
ACAD
 70
             0
  0
ENDTAB
  0
TABLE
  2
DIMSTYLE
  5
9
100
AcDbSymbolTable
 70
             7
  0
DIMSTYLE
105
18
100
AcDbSymbolTableRecord
100
AcDbDimStyleTableRecord
  2
STANDARD
 70
             0
  3

  4

  5

  6

  7

 40
1.0
 41
0.18
 42
0.0625
 43
0.38
 44
0.18
 45
0.0
 46
0.0
 47
0.0
 48
0.0
 71
             0
 72
             0
 73
             1
 74
             1
 75
             0
 76
             0
 77
             0
 78
             0
140
0.18
141
0.09
142
0.0
143
25.4
144
1.0
145
0.0
146
1.0
147
0.09
170
             0
171
             2
172
             0
173
             0
174
             0
175
             0
176
             0
177
             0
178
             0
270
             2
271
             4
272
             4
273
             2
274
             2
275
             0
280
             0
281
             0
282
             0
283
             1
284
             0
285
             0
286
             0
287
             3
288
             0
340
17
  0
DIMSTYLE
105
5A2
100
AcDbSymbolTableRecord
100
AcDbDimStyleTableRecord
  2
ME10_DIM_0
 70
             0
  3

  4

  5

  6

  7

 40
1.0
 41
3.2
 42
1.0
 43
0.38
 44
1.5
 45
0.0
 46
0.0
 47
0.5
 48
0.5
 71
             1
 72
             0
 73
             1
 74
             1
 75
             0
 76
             0
 77
             1
 78
             8
140
3.2
141
0.09
142
0.0
143
25.4
144
1.0
145
0.0
146
0.6
147
0.625
170
             0
171
             2
172
             1
173
             1
174
             0
175
             0
176
             2
177
             2
178
             2
270
             2
271
             4
272
             1
273
             2
274
             2
275
             0
280
             0
281
             0
282
             0
283
             1
284
             0
285
             0
286
             0
287
             3
288
             0
340
596
  0
DIMSTYLE
105
5AF
100
AcDbSymbolTableRecord
100
AcDbDimStyleTableRecord
  2
ME10_DIM_1
 70
             0
  3

  4

  5

  6

  7

 40
1.0
 41
3.2
 42
1.0
 43
0.38
 44
1.5
 45
0.0
 46
0.0
 47
0.0
 48
0.0
 71
             0
 72
             0
 73
             1
 74
             1
 75
             0
 76
             0
 77
             1
 78
             8
140
3.2
141
0.09
142
0.0
143
25.4
144
1.0
145
0.0
146
1.0
147
0.625
170
             0
171
             2
172
             1
173
             1
174
             0
175
             0
176
             2
177
             2
178
             2
270
             2
271
             4
272
             4
273
             2
274
             2
275
             0
280
             0
281
             0
282
             0
283
             1
284
             0
285
             0
286
             0
287
             3
288
             0
340
596
  0
DIMSTYLE
105
5BC
100
AcDbSymbolTableRecord
100
AcDbDimStyleTableRecord
  2
ME10_DIM_2
 70
             0
  3

  4

  5

  6

  7

 40
1.0
 41
3.2
 42
1.0
 43
0.38
 44
1.5
 45
0.0
 46
0.0
 47
0.0
 48
0.0
 71
             0
 72
             0
 73
             1
 74
             1
 75
             0
 76
             0
 77
             1
 78
             8
140
3.2
141
0.09
142
0.0
143
25.4
144
1.0
145
0.0
146
1.0
147
0.625
170
             0
171
             2
172
             1
173
             1
174
             0
175
             0
176
             2
177
             2
178
             2
270
             2
271
             4
272
             4
273
             2
274
             2
275
             0
280
             0
281
             0
282
             0
283
             1
284
             0
285
             0
286
             0
287
             3
288
             0
340
596
  0
DIMSTYLE
105
5C7
100
AcDbSymbolTableRecord
100
AcDbDimStyleTableRecord
  2
ME10_DIM_3
 70
             0
  3
 <>
  4

  5

  6

  7

 40
1.0
 41
3.2
 42
1.0
 43
0.38
 44
1.5
 45
0.0
 46
0.0
 47
0.3
 48
0.3
 71
             1
 72
             0
 73
             1
 74
             1
 75
             0
 76
             0
 77
             1
 78
             8
140
3.2
141
0.09
142
0.0
143
25.4
144
1.0
145
0.0
146
0.6
147
0.625
170
             0
171
             2
172
             1
173
             1
174
             0
175
             0
176
             2
177
             2
178
             2
270
             2
271
             4
272
             1
273
             2
274
             2
275
             0
280
             0
281
             0
282
             0
283
             1
284
             0
285
             0
286
             0
287
             3
288
             0
340
596
  0
DIMSTYLE
105
5D2
100
AcDbSymbolTableRecord
100
AcDbDimStyleTableRecord
  2
ME10_DIM_4
 70
             0
  3
 <>
  4

  5

  6

  7

 40
1.0
 41
3.2
 42
1.0
 43
0.38
 44
1.5
 45
0.0
 46
0.0
 47
0.5
 48
0.5
 71
             1
 72
             0
 73
             1
 74
             1
 75
             0
 76
             0
 77
             1
 78
             8
140
3.2
141
0.09
142
0.0
143
25.4
144
1.0
145
0.0
146
0.6
147
0.625
170
             0
171
             2
172
             1
173
             1
174
             0
175
             0
176
             2
177
             2
178
             2
270
             2
271
             4
272
             1
273
             2
274
             2
275
             0
280
             0
281
             0
282
             0
283
             1
284
             0
285
             0
286
             0
287
             3
288
             0
340
596
  0
DIMSTYLE
105
5DD
100
AcDbSymbolTableRecord
100
AcDbDimStyleTableRecord
  2
ME10_DIM_5
 70
             0
  3

  4

  5

  6

  7

 40
1.0
 41
3.2
 42
1.0
 43
0.38
 44
1.5
 45
0.0
 46
0.0
 47
30.0
 48
30.0
 71
             1
 72
             0
 73
             1
 74
             1
 75
             0
 76
             0
 77
             1
 78
             8
140
3.2
141
0.09
142
0.0
143
25.4
144
1.0
145
0.0
146
0.6
147
0.625
170
             0
171
             2
172
             1
173
             1
174
             0
175
             0
176
             2
177
             2
178
             2
270
             2
271
             4
272
             0
273
             2
274
             2
275
             0
280
             0
281
             0
282
             0
283
             1
284
             0
285
             0
286
             0
287
             3
288
             0
340
596
  0
ENDTAB
  0
TABLE
  2
BLOCK_RECORD
  5
1
100
AcDbSymbolTable
 70
             7
  0
BLOCK_RECORD
  5
A
100
AcDbSymbolTableRecord
100
AcDbBlockTableRecord
  2
*MODEL_SPACE
  0
BLOCK_RECORD
  5
B
100
AcDbSymbolTableRecord
100
AcDbBlockTableRecord
  2
*PAPER_SPACE
  0
BLOCK_RECORD
  5
599
100
AcDbSymbolTableRecord
100
AcDbBlockTableRecord
  2
*D0
  0
BLOCK_RECORD
  5
5A4
100
AcDbSymbolTableRecord
100
AcDbBlockTableRecord
  2
*D1
  0
BLOCK_RECORD
  5
5B1
100
AcDbSymbolTableRecord
100
AcDbBlockTableRecord
  2
*D2
  0
BLOCK_RECORD
  5
5BE
100
AcDbSymbolTableRecord
100
AcDbBlockTableRecord
  2
*D3
  0
BLOCK_RECORD
  5
5C9
100
AcDbSymbolTableRecord
100
AcDbBlockTableRecord
  2
*D4
  0
BLOCK_RECORD
  5
5D4
100
AcDbSymbolTableRecord
100
AcDbBlockTableRecord
  2
*D5
  0
BLOCK_RECORD
  5
5DF
100
AcDbSymbolTableRecord
100
AcDbBlockTableRecord
  2
*D6
  0
ENDTAB
  0
ENDSEC
  0
SECTION
  2
BLOCKS
  0
BLOCK
  5
D
100
AcDbEntity
  8
0
100
AcDbBlockBegin
  2
*MODEL_SPACE
 70
             0
 10
0.0
 20
0.0
 30
0.0
  3
*MODEL_SPACE
  1

  0
ENDBLK
  5
E
100
AcDbEntity
  8
0
100
AcDbBlockEnd
  0
BLOCK
  5
F
100
AcDbEntity
 67
             1
  8
0
100
AcDbBlockBegin
  2
*PAPER_SPACE
 70
             0
 10
0.0
 20
0.0
 30
0.0
  3
*PAPER_SPACE
  1

  0
ENDBLK
  5
10
100
AcDbEntity
 67
             1
  8
0
100
AcDbBlockEnd
  0
BLOCK
  5
59A
100
AcDbEntity
  8
0
100
AcDbBlockBegin
  2
*D0
 70
             1
 10
0.0
 20
0.0
 30
0.0
  3
*D0
  1

  0
LINE
  5
59B
100
AcDbEntity
  8
0
  6
CONTINUOUS
 62
             2
100
AcDbLine
 10
251.22446268942201
 20
144.2073041578607
 11
212.72446268942201
 21
144.2073041578607
  0
LINE
  5
59C
100
AcDbEntity
  8
0
  6
CONTINUOUS
 62
             2
100
AcDbLine
 10
212.72446268942201
 20
125.00730415860571
 11
212.72446268942201
 21
145.7073041578607
  0
LINE
  5
59D
100
AcDbEntity
  8
0
  6
CONTINUOUS
 62
             2
100
AcDbLine
 10
251.22446268942201
 20
121.2073041578607
 11
251.22446268942201
 21
145.7073041578607
  0
SOLID
  5
59E
100
AcDbEntity
  8
0
 62
             2
100
AcDbTrace
 10
248.02446268942202
 20
143.78601616558103
 11
248.02446268942202
 21
144.62859215014038
 12
251.22446268942201
 22
144.2073041578607
 13
251.22446268942201
 23
144.2073041578607
  0
SOLID
  5
59F
100
AcDbEntity
  8
0
 62
             2
100
AcDbTrace
 10
215.924462689422
 20
144.62859215014038
 11
215.924462689422
 21
143.78601616558103
 12
212.72446268942201
 22
144.2073041578607
 13
212.72446268942201
 23
144.2073041578607
  0
MTEXT
  5
5A0
100
AcDbEntity
  8
0
 62
             2
100
AcDbMText
 10
224.51508009636601
 20
146.2073041578607
 30
0.0
 40
3.2
 41
0.0
 71
             7
 72
             1
  1
\C2;38.5\C2;\H1.920000;{\Fgdt;`}0.5
  7
CONVERTER_1
 11
0.99999999999706
 21
0.00000242406841
 31
0.0
  0
ENDBLK
  5
5A1
100
AcDbEntity
  8
0
100
AcDbBlockEnd
  0
BLOCK
  5
5A5
100
AcDbEntity
  8
0
100
AcDbBlockBegin
  2
*D1
 70
             1
 10
0.0
 20
0.0
 30
0.0
  3
*D1
  1

  0
LINE
  5
5A6
100
AcDbEntity
  8
0
  6
CONTINUOUS
 62
             2
100
AcDbLine
 10
251.22446268942201
 20
134.2073041578607
 11
261.33782391847598
 21
134.2073041578607
  0
LINE
  5
5A7
100
AcDbEntity
  8
0
  6
CONTINUOUS
 62
             2
100
AcDbLine
 10
246.22446268942201
 20
134.2073041578607
 11
251.22446268942201
 21
134.2073041578607
  0
LINE
  5
5A8
100
AcDbEntity
  8
0
  6
CONTINUOUS
 62
             2
100
AcDbLine
 10
239.82446268942201
 20
134.2073041578607
 11
246.22446268942201
 21
134.2073041578607
  0
LINE
  5
5A9
100
AcDbEntity
  8
0
  6
CONTINUOUS
 62
             2
100
AcDbLine
 10
251.22446268942201
 20
125.00730415860571
 11
251.22446268942201
 21
135.7073041578607
  0
LINE
  5
5AA
100
AcDbEntity
  8
0
  6
CONTINUOUS
 62
             2
100
AcDbLine
 10
246.22446268942201
 20
125.2073041578607
 11
246.22446268942201
 21
135.7073041578607
  0
SOLID
  5
5AB
100
AcDbEntity
  8
0
 62
             2
100
AcDbTrace
 10
243.02446268942202
 20
133.78601616558103
 11
243.02446268942202
 21
134.62859215014038
 12
246.22446268942201
 22
134.2073041578607
 13
246.22446268942201
 23
134.2073041578607
  0
SOLID
  5
5AC
100
AcDbEntity
  8
0
 62
             2
100
AcDbTrace
 10
254.424462689422
 20
134.62859215014038
 11
254.424462689422
 21
133.78601616558103
 12
251.22446268942201
 22
134.2073041578607
 13
251.22446268942201
 23
134.2073041578607
  0
MTEXT
  5
5AD
100
AcDbEntity
  8
0
 62
             2
100
AcDbMText
 10
256.53782391847602
 20
136.2073041578607
 30
0.0
 40
3.2
 41
0.0
 71
             7
 72
             1
  1
(5)
  7
CONVERTER_1
 11
0.99999999999706
 21
0.00000242406841
 31
0.0
  0
ENDBLK
  5
5AE
100
AcDbEntity
  8
0
100
AcDbBlockEnd
  0
BLOCK
  5
5B2
100
AcDbEntity
  8
0
100
AcDbBlockBegin
  2
*D2
 70
             1
 10
0.0
 20
0.0
 30
0.0
  3
*D2
  1

  0
LINE
  5
5B3
100
AcDbEntity
  8
0
  6
CONTINUOUS
 62
             2
100
AcDbLine
 10
212.72446268942201
 20
134.2073041578607
 11
202.87584494195198
 21
134.2073041578607
  0
LINE
  5
5B4
100
AcDbEntity
  8
0
  6
CONTINUOUS
 62
             2
100
AcDbLine
 10
217.72446268942201
 20
134.2073041578607
 11
212.72446268942201
 21
134.2073041578607
  0
LINE
  5
5B5
100
AcDbEntity
  8
0
  6
CONTINUOUS
 62
             2
100
AcDbLine
 10
224.12446268942202
 20
134.2073041578607
 11
217.72446268942201
 21
134.2073041578607
  0
LINE
  5
5B6
100
AcDbEntity
  8
0
  6
CONTINUOUS
 62
             2
100
AcDbLine
 10
212.72446268942201
 20
125.00730415860571
 11
212.72446268942201
 21
135.7073041578607
  0
LINE
  5
5B7
100
AcDbEntity
  8
0
  6
CONTINUOUS
 62
             2
100
AcDbLine
 10
217.72446268942201
 20
121.2073041578607
 11
217.72446268942201
 21
135.7073041578607
  0
SOLID
  5
5B8
100
AcDbEntity
  8
0
 62
             2
100
AcDbTrace
 10
220.924462689422
 20
134.62859215014038
 11
220.924462689422
 21
133.78601616558103
 12
217.72446268942201
 22
134.2073041578607
 13
217.72446268942201
 23
134.2073041578607
  0
SOLID
  5
5B9
100
AcDbEntity
  8
0
 62
             2
100
AcDbTrace
 10
209.52446268942202
 20
133.78601616558103
 11
209.52446268942202
 21
134.62859215014038
 12
212.72446268942201
 22
134.2073041578607
 13
212.72446268942201
 23
134.2073041578607
  0
MTEXT
  5
5BA
100
AcDbEntity
  8
0
 62
             2
100
AcDbMText
 10
202.87584494195198
 20
136.2073041578607
 30
0.0
 40
3.2
 41
0.0
 71
             7
 72
             1
  1
(5)
  7
CONVERTER_1
 11
0.99999999999706
 21
0.00000242406841
 31
0.0
  0
ENDBLK
  5
5BB
100
AcDbEntity
  8
0
100
AcDbBlockEnd
  0
BLOCK
  5
5BF
100
AcDbEntity
  8
0
100
AcDbBlockBegin
  2
*D3
 70
             1
 10
0.0
 20
0.0
 30
0.0
  3
*D3
  1

  0
LINE
  5
5C0
100
AcDbEntity
  8
0
  6
CONTINUOUS
 62
             2
100
AcDbLine
 10
165.10384887373442
 20
134.2073041578607
 11
82.60035947254288
 21
134.2073041578607
  0
LINE
  5
5C1
100
AcDbEntity
  8
0
  6
CONTINUOUS
 62
             2
100
AcDbLine
 10
82.60035947254288
 20
123.50914010832471
 11
82.60035947254288
 21
135.7073041578607
  0
LINE
  5
5C2
100
AcDbEntity
  8
0
  6
CONTINUOUS
 62
             2
100
AcDbLine
 10
165.10384887373442
 20
123.50914010832471
 11
165.10384887373442
 21
135.7073041578607
  0
SOLID
  5
5C3
100
AcDbEntity
  8
0
 62
             2
100
AcDbTrace
 10
161.90384887373443
 20
133.78601616558103
 11
161.90384887373443
 21
134.62859215014038
 12
165.10384887373442
 22
134.2073041578607
 13
165.10384887373442
 23
134.2073041578607
  0
SOLID
  5
5C4
100
AcDbEntity
  8
0
 62
             2
100
AcDbTrace
 10
85.80035947254288
 20
134.62859215014038
 11
85.80035947254288
 21
133.78601616558103
 12
82.60035947254288
 22
134.2073041578607
 13
82.60035947254288
 23
134.2073041578607
  0
MTEXT
  5
5C5
100
AcDbEntity
  8
0
 62
             2
100
AcDbMText
 10
112.98273776263871
 20
136.20729143634972
 30
0.0
 40
3.2
 41
0.0
 71
             7
 72
             1
  1
\C2; \C2;\C2;82.5\C2;\H1.920000;{\Fgdt;`}0.3
  7
CONVERTER_1
 11
0.99999999999706
 21
0.00000242406841
 31
0.0
  0
ENDBLK
  5
5C6
100
AcDbEntity
  8
0
100
AcDbBlockEnd
  0
BLOCK
  5
5CA
100
AcDbEntity
  8
0
100
AcDbBlockBegin
  2
*D4
 70
             1
 10
0.0
 20
0.0
 30
0.0
  3
*D4
  1

  0
LINE
  5
5CB
100
AcDbEntity
  8
0
  6
CONTINUOUS
 62
             2
100
AcDbLine
 10
77.85384887373434
 20
144.2073041578607
 11
169.85384887373442
 21
144.2073041578607
  0
LINE
  5
5CC
100
AcDbEntity
  8
0
  6
CONTINUOUS
 62
             2
100
AcDbLine
 10
169.85384887373442
 20
121.25565070713321
 11
169.85384887373442
 21
145.7073041578607
  0
LINE
  5
5CD
100
AcDbEntity
  8
0
  6
CONTINUOUS
 62
             2
100
AcDbLine
 10
77.85384887373434
 20
121.25565070713321
 11
77.85384887373434
 21
145.7073041578607
  0
SOLID
  5
5CE
100
AcDbEntity
  8
0
 62
             2
100
AcDbTrace
 10
81.05384887373434
 20
144.62859215014038
 11
81.05384887373434
 21
143.78601616558103
 12
77.85384887373434
 22
144.2073041578607
 13
77.85384887373434
 23
144.2073041578607
  0
SOLID
  5
5CF
100
AcDbEntity
  8
0
 62
             2
100
AcDbTrace
 10
166.65384887373443
 20
143.78601616558103
 11
166.65384887373443
 21
144.62859215014038
 12
169.85384887373442
 22
144.2073041578607
 13
169.85384887373442
 23
144.2073041578607
  0
MTEXT
  5
5D0
100
AcDbEntity
  8
0
 62
             2
100
AcDbMText
 10
115.04093812558031
 20
146.20729143634972
 30
0.0
 40
3.2
 41
0.0
 71
             7
 72
             1
  1
\C2; \C2;\C2;92\C2;\H1.920000;{\Fgdt;`}0.5
  7
CONVERTER_1
 11
0.99999999999706
 21
0.00000242406841
 31
0.0
  0
ENDBLK
  5
5D1
100
AcDbEntity
  8
0
100
AcDbBlockEnd
  0
BLOCK
  5
5D5
100
AcDbEntity
  8
0
100
AcDbBlockBegin
  2
*D5
 70
             1
 10
0.0
 20
0.0
 30
0.0
  3
*D5
  1

  0
LINE
  5
5D6
100
AcDbEntity
  8
0
  6
CONTINUOUS
 62
             2
100
AcDbLine
 10
77.85384887373434
 20
144.2073041578607
 11
27.15255108676456
 21
144.2073041578607
  0
LINE
  5
5D7
100
AcDbEntity
  8
0
  6
CONTINUOUS
 62
             2
100
AcDbLine
 10
27.15255108676456
 20
110.62609399630142
 11
27.15255108676456
 21
145.7073041578607
  0
LINE
  5
5D8
100
AcDbEntity
  8
0
  6
CONTINUOUS
 62
             2
100
AcDbLine
 10
77.85384887373434
 20
121.25565070713321
 11
77.85384887373434
 21
145.7073041578607
  0
SOLID
  5
5D9
100
AcDbEntity
  8
0
 62
             2
100
AcDbTrace
 10
74.65384887373433
 20
143.78601616558103
 11
74.65384887373433
 21
144.62859215014038
 12
77.85384887373434
 22
144.2073041578607
 13
77.85384887373434
 23
144.2073041578607
  0
SOLID
  5
5DA
100
AcDbEntity
  8
0
 62
             2
100
AcDbTrace
 10
30.35255108676456
 20
144.62859215014038
 11
30.35255108676456
 21
143.78601616558103
 12
27.15255108676456
 22
144.2073041578607
 13
27.15255108676456
 23
144.2073041578607
  0
MTEXT
  5
5DB
100
AcDbEntity
  8
0
 62
             2
100
AcDbMText
 10
45.9588074148412
 20
146.2073041578607
 30
0.0
 40
3.2
 41
0.0
 71
             7
 72
             1
  1
\C2;300\C2;\H1.920000;{\Fgdt;`}30
  7
CONVERTER_1
 11
0.99999999999706
 21
0.00000242406841
 31
0.0
  0
ENDBLK
  5
5DC
100
AcDbEntity
  8
0
100
AcDbBlockEnd
  0
BLOCK
  5
5E0
100
AcDbEntity
  8
0
100
AcDbBlockBegin
  2
*D6
 70
             1
 10
0.0
 20
0.0
 30
0.0
  3
*D6
  1

  0
LINE
  5
5E1
100
AcDbEntity
  8
0
  6
CONTINUOUS
 62
             2
100
AcDbLine
 10
64.6484736663072
 20
26.0911747050835
 11
37.3044736663072
 21
26.0911747050835
  0
LINE
  5
5E2
100
AcDbEntity
  8
0
  6
CONTINUOUS
 62
             2
100
AcDbLine
 10
80.68102883644895
 20
35.8337165713973
 11
64.6484736663072
 21
26.0911747050835
  0
SOLID
  5
5E3
100
AcDbEntity
  8
0
 62
             2
100
AcDbTrace
 10
78.16513000007996
 20
33.81190139250576
 11
77.72757290009504
 21
34.53195560852627
 12
80.68102883644895
 22
35.8337165713973
 13
80.68102883644895
 23
35.8337165713973
  0
MTEXT
  5
5E4
100
AcDbEntity
  8
0
 62
             2
100
AcDbMText
 10
39.03247366633033
 20
28.09115562281701
 30
0.0
 40
3.2
 41
0.0
 71
             7
 72
             1
  1
\C2;8x{\Fgdt;n}\C2;\C2;4.5\C2;\H1.920000;{\Fgdt;`}0.3
  7
CONVERTER_1
 11
0.99999999999706
 21
0.00000242406841
 31
0.0
  0
ENDBLK
  5
5E5
100
AcDbEntity
  8
0
100
AcDbBlockEnd
  0
ENDSEC
  0
SECTION
  2
ENTITIES
  0
HATCH
  5
5EF
100
AcDbEntity
  8
1
  6
CONTINUOUS
 62
             2
100
AcDbHatch
 10
0.0
 20
0.0
 30
0.0
210
0.0
220
0.0
230
1.0
  2
USER
 70
             0
 71
             1
 91
        1
 92
        1
 93
        4
 72
             1
 10
129.95461848294721
 20
89.065716161005327
 11
129.03733361428959
 21
87.209499204144009
 72
             1
 10
129.03733361428959
 20
87.209499204144009
 11
125.5263821213542
 21
94.247291871890553
 72
             1
 10
125.5263821213542
 20
94.247291871890553
 11
127.3513023025392
 21
94.247291871890553
 72
             1
 10
127.3513023025392
 20
94.247291871890553
 11
129.95461848294721
 21
89.065716161005327
 97
        1
330
4D7
 75
             1
 76
             0
 52
45.0
 41
0.01
 77
             0
 78
             1
 53
45.0
 43
0.0
 44
0.0
 45
-0.0070710678118655
 46
0.0070710678118655
 79
             0
 98
        1
 10
0.0
 20
0.0
  0
HATCH
  5
5EE
100
AcDbEntity
  8
1
  6
CONTINUOUS
 62
             2
100
AcDbHatch
 10
0.0
 20
0.0
 30
0.0
210
0.0
220
0.0
230
1.0
  2
USER
 70
             0
 71
             1
 91
        1
 92
        1
 93
        4
 72
             1
 10
130.66315181469909
 20
90.486127893984445
 11
130.27376082456101
 21
89.705995033107826
 72
             1
 10
130.27376082456101
 20
89.705995033107826
 11
128.0176349534689
 21
94.247291871890553
 72
             1
 10
128.0176349534689
 20
94.247291871890553
 11
128.78850423461191
 21
94.247291871890553
 72
             1
 10
128.78850423461191
 20
94.247291871890553
 11
130.66315181469909
 21
90.486127893984445
 97
        1
330
4D9
 75
             1
 76
             0
 52
45.0
 41
0.01
 77
             0
 78
             1
 53
45.0
 43
0.0
 44
0.0
 45
-0.0070710678118655
 46
0.0070710678118655
 79
             0
 98
        1
 10
0.0
 20
0.0
  0
HATCH
  5
5ED
100
AcDbEntity
  8
1
  6
CONTINUOUS
 62
             2
100
AcDbHatch
 10
0.0
 20
0.0
 30
0.0
210
0.0
220
0.0
230
1.0
  2
USER
 70
             0
 71
             1
 91
        1
 92
        1
 93
        3
 72
             1
 10
132.548992722392
 20
94.247291871890553
 11
131.97619626215089
 21
93.106523692220577
 72
             1
 10
131.97619626215089
 20
93.106523692220577
 11
131.41279204478849
 21
94.247291871890553
 72
             1
 10
131.41279204478849
 20
94.247291871890553
 11
132.548992722392
 21
94.247291871890553
 97
        1
330
4DB
 75
             1
 76
             0
 52
45.0
 41
0.01
 77
             0
 78
             1
 53
45.0
 43
0.0
 44
0.0
 45
-0.0070710678118655
 46
0.0070710678118655
 79
             0
 98
        1
 10
0.0
 20
0.0
  0
HATCH
  5
5EC
100
AcDbEntity
  8
1
  6
CONTINUOUS
 62
             2
100
AcDbHatch
 10
0.0
 20
0.0
 30
0.0
210
0.0
220
0.0
230
1.0
  2
USER
 70
             0
 71
             1
 91
        1
 92
        1
 93
        4
 72
             1
 10
131.73727374440421
 20
92.629675792142876
 11
131.42707333257781
 21
92.011108381286391
 72
             1
 10
131.42707333257781
 20
92.011108381286391
 11
130.32226579180349
 21
94.247291871890553
 72
             1
 10
130.32226579180349
 20
94.247291871890553
 11
130.9381635217963
 21
94.247291871890553
 72
             1
 10
130.9381635217963
 20
94.247291871890553
 11
131.73727374440421
 21
92.629675792142876
 97
        1
330
4DD
 75
             1
 76
             0
 52
45.0
 41
0.01
 77
             0
 78
             1
 53
45.0
 43
0.0
 44
0.0
 45
-0.0070710678118655
 46
0.0070710678118655
 79
             0
 98
        1
 10
0.0
 20
0.0
  0
HATCH
  5
5EB
100
AcDbEntity
  8
1
  6
CONTINUOUS
 62
             2
100
AcDbHatch
 10
0.0
 20
0.0
 30
0.0
210
0.0
220
0.0
230
1.0
  2
USER
 70
             0
 71
             1
 91
        1
 92
        1
 93
        4
 72
             1
 10
131.18744320338951
 20
91.534775109574326
 11
130.947555764675
 21
91.058377508618065
 72
             1
 10
130.947555764675
 20
91.058377508618065
 11
129.37049994161711
 21
94.247291871890553
 72
             1
 10
129.37049994161711
 20
94.247291871890553
 11
129.84686532160629
 21
94.247291871890553
 72
             1
 10
129.84686532160629
 20
94.247291871890553
 11
131.18744320338951
 21
91.534775109574326
 97
        1
330
4DF
 75
             1
 76
             0
 52
45.0
 41
0.01
 77
             0
 78
             1
 53
45.0
 43
0.0
 44
0.0
 45
-0.0070710678118655
 46
0.0070710678118655
 79
             0
 98
        1
 10
0.0
 20
0.0
  0
HATCH
  5
5EA
100
AcDbEntity
  8
1
  6
CONTINUOUS
 62
             2
100
AcDbHatch
 10
0.0
 20
0.0
 30
0.0
210
0.0
220
0.0
230
1.0
  2
USER
 70
             0
 71
             1
 91
        1
 92
        1
 93
       12
 72
             1
 10
120.2322445913254
 20
94.254979356736072
 11
119.5044765948354
 21
93.054705672510096
 72
             1
 10
119.5044765948354
 20
93.054705672510096
 11
117.16129582291831
 21
93.054705672510096
 72
             1
 10
117.16129582291831
 20
93.054705672510096
 11
117.16129582291831
 21
91.85825976411266
 72
             1
 10
117.16129582291831
 20
91.85825976411266
 11
120.0447219117581
 21
91.85825976411266
 72
             1
 10
120.0447219117581
 20
91.85825976411266
 11
120.0447219117581
 21
90.659401400558778
 72
             1
 10
120.0447219117581
 20
90.659401400558778
 11
117.16129582291831
 21
90.659401400558778
 72
             1
 10
117.16129582291831
 20
90.659401400558778
 11
117.16129582291831
 21
89.461829605125018
 72
             1
 10
117.16129582291831
 20
89.461829605125018
 11
120.0447219117581
 21
89.461829605125018
 72
             1
 10
120.0447219117581
 20
89.461829605125018
 11
120.0447219117581
 21
88.262488823928066
 72
             1
 10
120.0447219117581
 20
88.262488823928066
 11
115.6203453532456
 21
88.258661141231784
 72
             1
 10
115.6203453532456
 20
88.258661141231784
 11
115.6203453532456
 21
94.252084483005234
 72
             1
 10
115.6203453532456
 20
94.252084483005234
 11
120.2322445913254
 21
94.254979356736072
 97
        1
330
4E1
 75
             1
 76
             0
 52
45.0
 41
0.01
 77
             0
 78
             1
 53
45.0
 43
0.0
 44
0.0
 45
-0.0070710678118655
 46
0.0070710678118655
 79
             0
 98
        1
 10
0.0
 20
0.0
  0
HATCH
  5
5E9
100
AcDbEntity
  8
1
  6
CONTINUOUS
 62
             2
100
AcDbHatch
 10
0.0
 20
0.0
 30
0.0
210
0.0
220
0.0
230
1.0
  2
USER
 70
             0
 71
             1
 91
        2
 92
        1
 93
        1
 72
             2
 10
135.22538807159651
 20
91.194371602110692
 40
3.333753850310984
 50
0.0
 51
360.0
 73
             1
 97
        1
330
4CC
 92
       16
 93
        1
 72
             2
 10
135.22538807159651
 20
91.195079308547207
 40
1.888285581022501
 50
0.0
 51
360.0
 73
             1
 97
        1
330
4CB
 75
             1
 76
             0
 52
45.0
 41
0.01
 77
             0
 78
             1
 53
45.0
 43
0.0
 44
0.0
 45
-0.0070710678118655
 46
0.0070710678118655
 79
             0
 98
        1
 10
0.0
 20
0.0
  0
HATCH
  5
5E8
100
AcDbEntity
  8
1
  6
CONTINUOUS
 62
             2
100
AcDbHatch
 10
0.0
 20
0.0
 30
0.0
210
0.0
220
0.0
230
1.0
  2
USER
 70
             0
 71
             1
 91
        1
 92
        1
 93
        1
 72
             4
 94
        3
 73
             0
 74
             0
 95
       71
 96
       67
 40
0.0
 40
0.0
 40
0.0
 40
0.0
 40
0.81729447651357
 40
0.98465833137648
 40
1.17966868802013
 40
1.62891441863513
 40
2.12872884304941
 40
2.47550991274393
 40
2.86193918083522
 40
3.49091517813926
 40
4.24952409835619
 40
5.21459801346245
 40
6.25615413236735
 40
7.00656520960177
 40
7.5785076422842
 40
7.82447653180443
 40
8.10593801101573
 40
8.80959170904396
 40
9.72434151648068
 40
10.6390913239174
 40
11.34274502194564
 40
11.62420650115694
 40
11.80915594145646
 40
12.21604471011544
 40
12.62293347877442
 40
12.80788291907395
 40
13.12979555839386
 40
13.89743339061824
 40
14.81364628714409
 40
15.58128411936847
 40
15.90319675868836
 40
16.07985558007091
 40
16.44393256430761
 40
16.92547878812017
 40
17.39956650018019
 40
17.75810505981801
 40
17.93514007200058
 40
18.47774052041852
 40
19.10429796213785
 40
19.62178549139564
 40
19.83717620242888
 40
20.1407827474824
 40
20.66570403519945
 40
21.36257439233923
 40
22.38743847656597
 40
23.42125201651685
 40
24.19539498997232
 40
24.79833021342331
 40
25.05840434742006
 40
25.34354575420782
 40
26.05639927117725
 40
26.98310884323747
 40
27.9098184152977
 40
28.62267193226711
 40
28.90781333905487
 40
29.1277674436937
 40
29.61166647389907
 40
30.09556550410447
 40
30.31551960874328
 40
30.5876694617642
 40
31.23664218819864
 40
32.01122253910431
 40
32.66019526553879
 40
32.9323451185597
 40
33.08796216595116
 40
33.86845356190223
 40
33.86845356190223
 40
33.86845356190223
 40
33.86845356190223
 10
111.3534330829083
 20
92.487473798528441
 10
111.30890070704277
 20
92.167571175905181
 10
111.59641590106364
 20
91.902619020481637
 10
111.98669494866959
 20
91.842419027171417
 10
112.25774826785691
 20
91.856597799837303
 10
112.63885334395061
 20
91.853245265856089
 10
113.07063216593104
 20
91.853130941768427
 10
113.48239152699557
 20
91.859246293120947
 10
113.93253201065069
 20
91.783573765077861
 10
114.49033622316266
 20
91.566998295673073
 10
115.08970516690017
 20
91.009528860632074
 10
115.32518220516187
 20
90.080601815334475
 10
115.19990100387112
 20
89.123640761704976
 10
114.63737106410085
 20
88.514248467294721
 10
114.14546592823945
 20
88.314663245034069
 10
113.78395162425143
 20
88.243299745962176
 10
113.37234251484057
 20
88.264169546762091
 10
112.73779503325639
 20
88.248699769119639
 10
111.90477575009785
 20
88.26596001012436
 10
111.01831096035377
 20
88.222487148190424
 10
110.48551550092266
 20
88.322643854988755
 10
109.94694862182214
 20
88.175026509407985
 10
110.02178391198385
 20
88.538612150906147
 10
109.97768998411667
 20
88.846120688784936
 10
110.01985319272745
 20
89.157123670521599
 10
109.94749321781855
 20
89.531446970300138
 10
110.54383938928896
 20
89.361058509389693
 10
111.10046510522596
 20
89.47299020620531
 10
111.95996298554289
 20
89.427462507205689
 10
112.61881264883347
 20
89.446408962305469
 10
113.04278488121737
 20
89.430395520603156
 10
113.32811786839601
 20
89.461455022621607
 10
113.66083737339744
 20
89.609123467026606
 10
113.82661681835211
 20
90.069138839723109
 10
113.66117544570386
 20
90.532307739724644
 10
113.32190961615692
 20
90.662260896676372
 10
112.96402764109321
 20
90.674360982417738
 10
112.51447784617423
 20
90.668054809677017
 10
111.95236562586672
 20
90.667638279030939
 10
111.49973924680462
 20
90.675044480144379
 10
111.15317207791443
 20
90.660481298154281
 10
110.81087886070581
 20
90.737426775162959
 10
110.33776630370484
 20
90.95138609490688
 10
109.86660671737758
 20
91.581500320153239
 10
109.74615607541685
 20
92.516110203956984
 10
109.94573866564895
 20
93.490158295477613
 10
110.58546151426623
 20
94.044787027587176
 10
111.11084884652333
 20
94.216079940274128
 10
111.49197967155172
 20
94.262249578146026
 10
111.91150478535847
 20
94.249334066575372
 10
112.55595971155705
 20
94.259207446569704
 10
113.39443257734186
 20
94.246446501145101
 10
114.31110010982306
 20
94.280944195477844
 10
114.80668442058044
 20
94.200844395934055
 10
115.43435533632743
 20
94.32222390605169
 10
115.11648215345929
 20
93.967725350906335
 10
114.98065506441424
 20
93.660105968090733
 10
114.72670982489987
 20
93.353885755979661
 10
114.59830933829997
 20
93.001848997513292
 10
114.155196772016
 20
93.114046164994818
 10
113.62861065459848
 20
93.044749163075494
 10
112.92330883789505
 20
93.071578342600148
 10
112.36099405514781
 20
93.063749693306065
 10
112.0021013745821
 20
93.067710049102942
 10
111.59830764086792
 20
93.055852717531181
 10
111.31236965836803
 20
92.785803193638557
 10
111.3534330829083
 20
92.487473798528441
 97
        1
330
4D4
 75
             1
 76
             0
 52
45.0
 41
0.01
 77
             0
 78
             1
 53
45.0
 43
0.0
 44
0.0
 45
-0.0070710678118655
 46
0.0070710678118655
 79
             0
 98
        1
 10
0.0
 20
0.0
  0
HATCH
  5
5E7
100
AcDbEntity
  8
1
  6
CONTINUOUS
 62
             2
100
AcDbHatch
 10
0.0
 20
0.0
 30
0.0
210
0.0
220
0.0
230
1.0
  2
USER
 70
             0
 71
             1
 91
        1
 92
        1
 93
        1
 72
             4
 94
        3
 73
             0
 74
             0
 95
       69
 96
       65
 40
0.0
 40
0.0
 40
0.0
 40
0.0
 40
0.65270902347567
 40
1.20157797503474
 40
1.66144115066533
 40
1.8542869985104
 40
2.14426462336838
 40
2.86920868551333
 40
3.81163596630174
 40
4.75406324709017
 40
5.4790073092351
 40
5.76898493409308
 40
6.02365729644579
 40
6.58393649362179
 40
7.14421569079776
 40
7.39888805315049
 40
7.59723036948117
 40
8.01185423033648
 40
8.57485240760507
 40
9.12296980366335
 40
9.5148651262566
 40
9.79166125074794
 40
10.21687817652679
 40
10.87182554033277
 40
11.38946358055635
 40
11.6543853557934
 40
12.33760467087842
 40
13.27180250987224
 40
14.28965985683564
 40
15.22385769582946
 40
15.9070770109145
 40
16.17199878615154
 40
16.41268937498625
 40
16.9422086704226
 40
17.47172796585891
 40
17.71241855469364
 40
17.96994846278997
 40
18.64889094777119
 40
19.6087751506757
 40
20.70913021254184
 40
21.80948527440798
 40
22.76936947731249
 40
23.44831196229372
 40
23.70584187039005
 40
23.98171384925904
 40
24.67139379643152
 40
25.56797772775574
 40
26.46456165907994
 40
27.15424160625242
 40
27.43011358512141
 40
27.6059437577912
 40
28.03746490769727
 40
28.61461464695853
 40
29.31495542891574
 40
30.25381135770703
 40
31.24333822562069
 40
31.96165583946829
 40
32.54914228264688
 40
32.99171603803949
 40
33.17357106986218
 40
33.46497165991099
 40
34.15984999002736
 40
34.98922090016625
 40
35.97549982033141
 40
35.97549982033141
 40
35.97549982033141
 40
35.97549982033141
 10
125.9173812932371
 20
88.258661134712526
 10
125.69937251374942
 20
88.257857195641009
 10
125.30158248396801
 20
88.262866354471385
 10
124.73968091644844
 20
88.248058645177153
 10
124.358348252063
 20
88.283198909742282
 10
124.00777232839036
 20
88.216652624477902
 10
123.85966883980069
 20
88.682579888021806
 10
123.456355917325
 20
89.146626567256291
 10
123.02151608470952
 20
89.905239853016056
 10
122.48606455482081
 20
90.658698137563505
 10
122.2743008252305
 20
91.132559146028996
 10
121.82645313937722
 20
91.607368149594421
 10
122.36426815767749
 20
91.515214644123006
 10
122.73577138527261
 20
91.560428625297732
 10
123.2191333898119
 20
91.554236657521514
 10
123.55499939623846
 20
91.542035981503815
 10
123.84160757315246
 20
91.583702683334479
 10
124.21812452155672
 20
91.76876520351459
 10
124.38471035461401
 20
92.299079798270952
 10
124.24945959144243
 20
92.834083855717438
 10
123.8561960189805
 20
93.032977278004367
 10
123.49353465733532
 20
93.042741622462628
 10
123.02710127253383
 20
93.052112889854357
 10
122.57451801333505
 20
92.974089192008279
 10
121.8750568413744
 20
93.193941081186907
 10
121.98169533370168
 20
92.598776244056339
 10
121.92391556599699
 20
92.029077900415913
 10
121.95247348370094
 20
91.122086314211828
 10
121.9323566660568
 20
90.180216943921508
 10
121.97273988517483
 20
89.261081349240783
 10
121.88653328872824
 20
88.720575973890831
 10
122.01616347468726
 20
88.19355997428444
 10
121.56825168272867
 20
88.300259235238187
 10
121.17319474994859
 20
88.229875478005326
 10
120.77912571614097
 20
88.300803126426018
 10
120.3329211436037
 20
88.193419194395261
 10
120.45917112585101
 20
88.7131012737009
 10
120.37366424592375
 20
89.259241530106777
 10
120.41428709412989
 20
90.211732238585284
 10
120.39742905243313
 20
91.255149207733638
 10
120.41364343668258
 20
92.299850600356791
 10
120.37559613125512
 20
93.249286020654921
 10
120.45547884129809
 20
93.801849460899248
 10
120.33403226377791
 20
94.327296814808363
 10
120.87368959639281
 20
94.195747375874163
 10
121.41067774021511
 20
94.280005829497043
 10
122.2734278118383
 20
94.244893493763996
 10
123.09128082874957
 20
94.257624532135679
 10
123.71374605750384
 20
94.250796561982057
 10
124.09415338512633
 20
94.259321215563943
 10
124.3883139317863
 20
94.239240113285618
 10
124.77501431478569
 20
94.145285163247209
 10
125.28738587439668
 20
93.872244722581087
 10
125.75340990000835
 20
93.261755462253078
 10
125.89929263880119
 20
92.374228193571213
 10
125.7917234112148
 20
91.47632581895536
 10
125.34585497820672
 20
90.816745974874635
 10
124.79275674967698
 20
90.546637721639911
 10
124.46141515372931
 20
90.422156149325019
 10
124.03558040355806
 20
90.464716643643925
 10
124.52844649750594
 20
90.051187732986179
 10
124.75144611741379
 20
89.653657260378523
 10
125.34678882695147
 20
88.974391250938766
 10
125.70619225616089
 20
88.515267401363843
 10
125.9173812932371
 20
88.258661134712526
 97
        1
330
4D3
 75
             1
 76
             0
 52
45.0
 41
0.01
 77
             0
 78
             1
 53
45.0
 43
0.0
 44
0.0
 45
-0.0070710678118655
 46
0.0070710678118655
 79
             0
 98
        1
 10
0.0
 20
0.0
  0
DIMENSION
  5
5DE
100
AcDbEntity
  8
1
100
AcDbDimension
  2
*D5
 10
77.85384887373434
 20
144.2073041578607
 11
52.7108074148412
 21
147.8073041578607
 31
0.0
 53
0.00013888888889
  1
300
  3
ME10_DIM_5
100
AcDbAlignedDimension
 13
27.15255108676456
 23
109.62609399630141
 14
77.85384887373434
 24
120.2556507071332
100
AcDbRotatedDimension
  0
DIMENSION
  5
5D3
100
AcDbEntity
  8
1
100
AcDbDimension
  2
*D4
 10
77.85384887373434
 20
144.2073041578607
 11
123.87204923667601
 21
147.8073041578607
 31
0.0
 53
0.00013888888889
  1
<>
  3
ME10_DIM_4
100
AcDbAlignedDimension
 13
169.85384887373439
 23
120.2556507071332
 14
77.85384887373434
 24
120.2556507071332
100
AcDbRotatedDimension
  0
DIMENSION
  5
5C8
100
AcDbEntity
  8
1
100
AcDbDimension
  2
*D3
 10
165.10384887373442
 20
134.2073041578607
 11
123.85384887373441
 21
137.8073041578607
 31
0.0
 53
0.00013888888889
  1
 82.5
  3
ME10_DIM_3
100
AcDbAlignedDimension
 13
82.60035947254286
 23
122.5091401083247
 14
165.10384887373439
 24
122.5091401083247
100
AcDbRotatedDimension
  0
DIMENSION
  5
5BD
100
AcDbEntity
  8
1
100
AcDbDimension
  2
*D2
 10
217.72446268942201
 20
134.2073041578607
 11
205.27584494195199
 21
137.8073041578607
 31
0.0
 53
0.00013888888889
  1
(5)
  3
ME10_DIM_2
100
AcDbAlignedDimension
 13
212.72446268942201
 23
124.00730415860571
 14
217.72446268942201
 24
120.2073041578607
100
AcDbRotatedDimension
  0
DIMENSION
  5
5B0
100
AcDbEntity
  8
1
100
AcDbDimension
  2
*D1
 10
246.22446268942201
 20
134.2073041578607
 11
258.937823918476
 21
137.8073041578607
 31
0.0
 53
0.00013888888889
  1
(5)
  3
ME10_DIM_1
100
AcDbAlignedDimension
 13
251.22446268942201
 23
124.00730415860571
 14
246.22446268942201
 24
124.2073041578607
100
AcDbRotatedDimension
  0
DIMENSION
  5
5A3
100
AcDbEntity
  8
1
100
AcDbDimension
  2
*D0
 10
251.22446268942201
 20
144.2073041578607
 11
232.227080096366
 21
147.8073041578607
 31
0.0
 53
0.00013888888889
  1
<>
  3
ME10_DIM_0
100
AcDbAlignedDimension
 13
212.72446268942201
 23
124.00730415860571
 14
251.22446268942201
 24
120.2073041578607
100
AcDbRotatedDimension
  0
TEXT
  5
598
100
AcDbEntity
  8
1
 62
             2
100
AcDbText
 10
227.49594424810249
 20
18.25565071830911
 40
4.0
  1
%%d *
 41
0.9
  7
CONVERTER_1
100
AcDbText
  0
MTEXT
  5
597
100
AcDbEntity
  8
1
 62
             2
100
AcDbMText
 10
123.85384887373441
 20
18.25565071830911
 30
0.0
 40
4.0
 41
0.0
 71
             8
 72
             1
  1
%%p]«*
  7
CONVERTER_1
  0
LEADER
  5
595
100
AcDbEntity
  8
1
  6
CONTINUOUS
 62
             2
100
AcDbLeader
  3
Standard
 71
             0
 73
             3
 74
             0
 75
             0
 40
0.0
 76
             2
 10
214.79032008867699
 20
13.25565071830911
 30
0.0
 10
250.71695662807659
 20
13.25565071830911
 30
0.0
 77
             2
  0
LEADER
  5
593
100
AcDbEntity
  8
1
  6
CONTINUOUS
 62
             2
100
AcDbLeader
  3
Standard
 71
             0
 73
             3
 74
             0
 75
             0
 40
0.0
 76
             2
 10
99.25385466134534
 20
17.88124744398801
 30
0.0
 10
103.6081603334174
 20
16.71383860432339
 30
0.0
 77
             2
  0
LWPOLYLINE
  5
591
100
AcDbEntity
  8
0
  6
CONTINUOUS
 62
             7
100
AcDbPolyline
 90
        4
 70
             0
 10
89.71620469456897
 20
106.01564091870949
 10
89.7733736029862
 20
106.0858717864231
 10
89.7733736029862
 20
106.0858717864231
 10
89.83116917228686
 20
106.15649774725
  0
LWPOLYLINE
  5
58F
100
AcDbEntity
  8
0
  6
CONTINUOUS
 62
             3
100
AcDbPolyline
 90
       24
 70
             0
 10
104.03340312382571
 20
40.86124652212871
 10
103.61837844467151
 20
41.42586079853041
 10
103.61837844467151
 20
41.42586079853041
 10
103.21936234375821
 20
41.98638468662661
 10
103.21936234375821
 20
41.98638468662661
 10
102.82776113143549
 20
42.57547467349481
 10
102.82776113143549
 20
42.57547467349481
 10
102.5042615524529
 20
43.1139900429026
 10
102.5042615524529
 20
43.1139900429026
 10
101.9519273444115
 20
44.2813811344878
 10
101.9519273444115
 20
44.2813811344878
 10
101.6133534043132
 20
45.5397955557184
 10
101.6133534043132
 20
45.5397955557184
 10
101.4799671649037
 20
47.33081247711941
 10
101.4799671649037
 20
47.33081247711941
 10
101.58801694130879
 20
49.20512998996691
 10
101.58801694130879
 20
49.20512998996691
 10
101.8354177131353
 20
50.952707411334
 10
101.8354177131353
 20
50.952707411334
 10
102.3569990127383
 20
53.47256703915461
 10
102.3569990127383
 20
53.47256703915461
 10
102.9285140140949
 20
56.07827985713641
 10
102.9285140140949
 20
56.07827985713641
 10
103.4899664848147
 20
58.64050550533841
  0
LWPOLYLINE
  5
58D
100
AcDbEntity
  8
0
  6
CONTINUOUS
 62
             3
100
AcDbPolyline
 90
       24
 70
             0
 10
127.3967701039313
 20
36.08173408413691
 10
126.74237561142429
 20
36.3323385581226
 10
126.74237561142429
 20
36.3323385581226
 10
126.1036598115264
 20
36.58815687017901
 10
126.1036598115264
 20
36.58815687017901
 10
125.4557378134726
 20
36.8720153007508
 10
125.4557378134726
 20
36.8720153007508
 10
124.8924492626487
 20
37.15014618223921
 10
124.8924492626487
 20
37.15014618223921
 10
123.79665689459431
 20
37.8336036462189
 10
123.79665689459431
 20
37.8336036462189
 10
122.8314801632463
 20
38.7092023264469
 10
122.8314801632463
 20
38.7092023264469
 10
121.7509716629087
 20
40.14378759598741
 10
121.7509716629087
 20
40.14378759598741
 10
120.8285363643466
 20
41.7789799455405
 10
120.8285363643466
 20
41.7789799455405
 10
120.0918514533936
 20
43.3828905826287
 10
120.0918514533936
 20
43.3828905826287
 10
119.16829459285719
 20
45.78471953569361
 10
119.16829459285719
 20
45.78471953569361
 10
118.24032890340671
 20
48.28576898256701
 10
118.24032890340671
 20
48.28576898256701
 10
117.32740900209529
 20
50.7447944847719
  0
LWPOLYLINE
  5
58B
100
AcDbEntity
  8
0
  6
CONTINUOUS
 62
             3
100
AcDbPolyline
 90
       30
 70
             0
 10
85.38423246434319
 20
58.94128345379991
 10
85.3969163625537
 20
60.32161889465911
 10
85.3969163625537
 20
60.32161889465911
 10
85.50527149355398
 20
61.34965144245339
 10
85.50527149355398
 20
61.34965144245339
 10
85.72094444474566
 20
62.34248839280022
 10
85.72094444474566
 20
62.34248839280022
 10
86.07670277273643
 20
63.3459665398897
 10
86.07670277273643
 20
63.3459665398897
 10
86.59874745374906
 20
64.39897643270356
 10
86.59874745374906
 20
64.39897643270356
 10
87.2901172033547
 20
65.50753323974473
 10
87.2901172033547
 20
65.50753323974473
 10
88.02082547461973
 20
66.50688049344731
 10
88.02082547461973
 20
66.50688049344731
 10
88.71213506451235
 20
67.35683939660353
 10
88.71213506451235
 20
67.35683939660353
 10
89.46778676202879
 20
68.20877348313493
 10
89.46778676202879
 20
68.20877348313493
 10
90.50741506284462
 20
69.28806323146833
 10
90.50741506284462
 20
69.28806323146833
 10
91.68331898292885
 20
70.46126099450899
 10
91.68331898292885
 20
70.46126099450899
 10
92.79120947337137
 20
71.5654138164447
 10
92.79120947337137
 20
71.5654138164447
 10
93.89283943465338
 20
72.6637342847736
 10
93.89283943465338
 20
72.6637342847736
 10
94.99446961200223
 20
73.76205452772243
 10
94.99446961200223
 20
73.76205452772243
 10
96.0961000128685
 20
74.86037454529119
  0
LWPOLYLINE
  5
589
100
AcDbEntity
  8
0
  6
CONTINUOUS
 62
             3
100
AcDbPolyline
 90
       30
 70
             0
 10
81.0490128613113
 20
82.80561588200195
 10
81.80594892343866
 20
83.95997051576538
 10
81.80594892343866
 20
83.95997051576538
 10
82.45289941421137
 20
84.76622532455636
 10
82.45289941421137
 20
84.76622532455636
 10
83.17110322332368
 20
85.48485131243629
 10
83.17110322332368
 20
85.48485131243629
 10
84.01290741479384
 20
86.13669338131709
 10
84.01290741479384
 20
86.13669338131709
 10
85.02137948489175
 20
86.74030300563587
 10
85.02137948489175
 20
86.74030300563587
 10
86.20232778331624
 20
87.29909763167066
 10
86.20232778331624
 20
87.29909763167066
 10
87.35732661476718
 20
87.74475132169587
 10
87.35732661476718
 20
87.74475132169587
 10
88.3984157248436
 20
88.08603206983221
 10
88.3984157248436
 20
88.08603206983221
 10
89.49470073273764
 20
88.39418847727043
 10
89.49470073273764
 20
88.39418847727043
 10
90.95279980367408
 20
88.74007929636551
 10
90.95279980367408
 20
88.74007929636551
 10
92.5763117215632
 20
89.09129440931989
 10
92.5763117215632
 20
89.09129440931989
 10
94.10527860289798
 20
89.42119604310406
 10
94.10527860289798
 20
89.42119604310406
 10
95.62582556447374
 20
89.74957589766396
 10
95.62582556447374
 20
89.74957589766396
 10
97.14637260428057
 20
90.07795544116212
 10
97.14637260428057
 20
90.07795544116212
 10
98.66691970369207
 20
90.40633467452986
  0
LWPOLYLINE
  5
587
100
AcDbEntity
  8
0
  6
CONTINUOUS
 62
             3
100
AcDbPolyline
 90
       30
 70
             0
 10
101.9332834734617
 20
41.2091261591614
 10
101.1976881614922
 20
42.3771956587062
 10
101.1976881614922
 20
42.3771956587062
 10
100.73304593479619
 20
43.30061287487311
 10
100.73304593479619
 20
43.30061287487311
 10
100.37771339258541
 20
44.252442070827
 10
100.37771339258541
 20
44.252442070827
 10
100.1344750925003
 20
45.28895907530951
 10
100.1344750925003
 20
45.28895907530951
 10
100.0043469025789
 20
46.4570460362212
 10
100.0043469025789
 20
46.4570460362212
 10
99.98663308387982
 20
47.76340606956201
 10
99.98663308387982
 20
47.76340606956201
 10
100.06105608409629
 20
48.99916119555401
 10
100.06105608409629
 20
48.99916119555401
 10
100.18310024133309
 20
50.08794230742761
 10
100.18310024133309
 20
50.08794230742761
 10
100.35820456138239
 20
51.2131710188315
 10
100.35820456138239
 20
51.2131710188315
 10
100.6492874539493
 20
52.6831928282828
 10
100.6492874539493
 20
52.6831928282828
 10
101.0042421734928
 20
54.3058912452162
 10
101.0042421734928
 20
54.3058912452162
 10
101.3393088831602
 20
55.8337345314996
 10
101.3393088831602
 20
55.8337345314996
 10
101.6722621015309
 20
57.3532866254301
 10
101.6722621015309
 20
57.3532866254301
 10
102.00521563282599
 20
58.8728386504428
 10
102.00521563282599
 20
58.8728386504428
 10
102.33816946214419
 20
60.39239060840021
  0
LWPOLYLINE
  5
585
100
AcDbEntity
  8
0
  6
CONTINUOUS
 62
             3
100
AcDbPolyline
 90
       30
 70
             0
 10
110.2108712635039
 20
119.0824229406045
 10
111.575351773858
 20
118.87342593221381
 10
111.575351773858
 20
118.87342593221381
 10
112.577499891728
 20
118.6198694189863
 10
112.577499891728
 20
118.6198694189863
 10
113.5295377328097
 20
118.2650962719546
 10
113.5295377328097
 20
118.2650962719546
 10
114.4721722333728
 20
117.7701492305697
 10
114.4721722333728
 20
117.7701492305697
 10
115.4401693037747
 20
117.10355927011381
 10
115.4401693037747
 20
117.10355927011381
 10
116.43905042400939
 20
116.26146258933851
 10
116.43905042400939
 20
116.26146258933851
 10
117.3242351329921
 20
115.3959699306489
 10
117.3242351329921
 20
115.3959699306489
 10
118.0671590632795
 20
114.5907351109983
 10
118.0671590632795
 20
114.5907351109983
 10
118.8028812437354
 20
113.7215319961162
 10
118.8028812437354
 20
113.7215319961162
 10
119.72323084166629
 20
112.5388866649793
 10
119.72323084166629
 20
112.5388866649793
 10
120.7171385726928
 20
111.2079883009047
 10
120.7171385726928
 20
111.2079883009047
 10
121.6523834533094
 20
109.95423720645169
 10
121.6523834533094
 20
109.95423720645169
 10
122.5827463149129
 20
108.70751295572531
 10
122.5827463149129
 20
108.70751295572531
 10
123.5131089120208
 20
107.4607885150091
 10
123.5131089120208
 20
107.4607885150091
 10
124.4434712632595
 20
106.2140638843031
  0
LWPOLYLINE
  5
583
100
AcDbEntity
  8
0
  6
CONTINUOUS
 62
             3
100
AcDbPolyline
 90
       30
 70
             0
 10
125.4419591045975
 20
35.23897865096491
 10
124.1916309027969
 20
35.82392839583021
 10
124.1916309027969
 20
35.82392839583021
 10
123.3015119536816
 20
36.34955183936671
 10
123.3015119536816
 20
36.34955183936671
 10
122.48798947325341
 20
36.95817423573151
 10
122.48798947325341
 20
36.95817423573151
 10
121.7229809938966
 20
37.69864327235531
 10
121.7229809938966
 20
37.69864327235531
 10
120.9819947025775
 20
38.61094794383661
 10
120.9819947025775
 20
38.61094794383661
 10
120.26082133418311
 20
39.7003511251734
 10
120.26082133418311
 20
39.7003511251734
 10
119.65533028459539
 20
40.7801706014053
 10
119.65533028459539
 20
40.7801706014053
 10
119.169360852897
 20
41.7620936125369
 10
119.169360852897
 20
41.7620936125369
 10
118.70832341453421
 20
42.80336478313821
 10
118.70832341453421
 20
42.80336478313821
 10
118.1584441318213
 20
44.19739711618441
 10
118.1584441318213
 20
44.19739711618441
 10
117.5797540425359
 20
45.75440090949101
 10
117.5797540425359
 20
45.75440090949101
 10
117.0356156631409
 20
47.22085520679521
 10
117.0356156631409
 20
47.22085520679521
 10
116.49418184450261
 20
48.6791918720902
 10
116.49418184450261
 20
48.6791918720902
 10
115.9527483238875
 20
50.137528649144
 10
115.9527483238875
 20
50.137528649144
 10
115.4113151012956
 20
51.59586553609381
  0
LWPOLYLINE
  5
581
100
AcDbEntity
  8
0
  6
CONTINUOUS
 62
             3
100
AcDbPolyline
 90
       30
 70
             0
 10
134.44926527431599
 20
119.9772676495687
 10
135.48414701139919
 20
119.063754318826
 10
135.48414701139919
 20
119.063754318826
 10
136.19012465244521
 20
118.30864683034279
 10
136.19012465244521
 20
118.30864683034279
 10
136.7992250128685
 20
117.4954821510093
 10
136.7992250128685
 20
117.4954821510093
 10
137.32463103449331
 20
116.56947951725139
 10
137.32463103449331
 20
116.56947951725139
 10
137.77857624283419
 20
115.48536963349591
 10
137.77857624283419
 20
115.48536963349591
 10
138.16361668249951
 20
114.23691691885151
 10
138.16361668249951
 20
114.23691691885151
 10
138.44036079487191
 20
113.0302511775718
 10
138.44036079487191
 20
113.0302511775718
 10
138.6300053625404
 20
111.9511895371453
 10
138.6300053625404
 20
111.9511895371453
 10
138.7790075643955
 20
110.8222079068274
 10
138.7790075643955
 20
110.8222079068274
 10
138.91386857172839
 20
109.3297247826905
 10
138.91386857172839
 20
109.3297247826905
 10
139.03045899337519
 20
107.6727547483371
 10
139.03045899337519
 20
107.6727547483371
 10
139.13940802133069
 20
106.1124006524534
 10
139.13940802133069
 20
106.1124006524534
 10
139.24804905346019
 20
104.5605973346011
 10
139.24804905346019
 20
104.5605973346011
 10
139.35668975403891
 20
103.0087939943971
 10
139.35668975403891
 20
103.0087939943971
 10
139.46533015286909
 20
101.4569906327726
  0
LWPOLYLINE
  5
57F
100
AcDbEntity
  8
0
  6
CONTINUOUS
 62
             3
100
AcDbPolyline
 90
       30
 70
             0
 10
148.44642096301899
 20
42.9263205803783
 10
147.07833023285849
 20
42.74243315829351
 10
147.07833023285849
 20
42.74243315829351
 10
146.04534103265391
 20
42.7033811002822
 10
146.04534103265391
 20
42.7033811002822
 10
145.03191627478591
 20
42.7755633877442
 10
145.03191627478591
 20
42.7755633877442
 10
143.98802239364369
 20
42.98489076791721
 10
143.98802239364369
 20
42.98489076791721
 10
142.87143592452989
 20
43.3517628643514
 10
142.87143592452989
 20
43.3517628643514
 10
141.67577045327411
 20
43.87833137864631
 10
141.67577045327411
 20
43.87833137864631
 10
140.58260448193539
 20
44.459380152248
 10
140.58260448193539
 20
44.459380152248
 10
139.64291332206119
 20
45.0226914441065
 10
139.64291332206119
 20
45.0226914441065
 10
138.6921102433501
 20
45.64940883553041
 10
138.6921102433501
 20
45.64940883553041
 10
137.47585157221539
 20
46.5248562754915
 10
137.47585157221539
 20
46.5248562754915
 10
136.1472466914951
 20
47.5218277327569
 10
136.1472466914951
 20
47.5218277327569
 10
134.89666330358369
 20
48.46130417248621
 10
134.89666330358369
 20
48.46130417248621
 10
133.6527438639699
 20
49.3954138239698
 10
133.6527438639699
 20
49.3954138239698
 10
132.40882461434589
 20
50.32952372877311
 10
132.40882461434589
 20
50.32952372877311
 10
131.16490556216229
 20
51.26363388782751
  0
LWPOLYLINE
  5
57D
100
AcDbEntity
  8
0
  6
CONTINUOUS
 62
             3
100
AcDbPolyline
 90
       30
 70
             0
 10
155.3236894412934
 20
107.6257937695683
 10
155.70040476238719
 20
106.2977981461064
 10
155.70040476238719
 20
106.2977981461064
 10
155.8860690212845
 20
105.2808809732871
 10
155.8860690212845
 20
105.2808809732871
 10
155.95884683272229
 20
104.2674988020064
 10
155.95884683272229
 20
104.2674988020064
 10
155.9002116835712
 20
103.2044398696945
 10
155.9002116835712
 20
103.2044398696945
 10
155.69598064488159
 20
102.0470072911905
 10
155.69598064488159
 20
102.0470072911905
 10
155.34493277138461
 20
100.7885734584035
 10
155.34493277138461
 20
100.7885734584035
 10
154.9253719813226
 20
99.62384248020513
 10
154.9253719813226
 20
99.62384248020513
 10
154.5015263847111
 20
98.61354846654845
 10
154.5015263847111
 20
98.61354846654845
 10
154.01650145193921
 20
97.58323201125873
 10
154.01650145193921
 20
97.58323201125873
 10
153.3230564623176
 20
96.25476394182456
 10
153.3230564623176
 20
96.25476394182456
 10
152.52531292206041
 20
94.79779850745959
 10
152.52531292206041
 20
94.79779850745959
 10
151.77337557366479
 20
93.42624281773729
 10
151.77337557366479
 20
93.42624281773729
 10
151.02580200424779
 20
92.06204702014489
 10
151.02580200424779
 20
92.06204702014489
 10
150.2782281628846
 20
90.69785137715203
 10
150.2782281628846
 20
90.69785137715203
 10
149.530654034674
 20
89.33365588782741
  0
LWPOLYLINE
  5
57B
100
AcDbEntity
  8
0
  6
CONTINUOUS
 62
             3
100
AcDbPolyline
 90
       30
 70
             0
 10
163.6429149425625
 20
61.83047519958032
 10
162.5914208321868
 20
60.93613356965048
 10
162.5914208321868
 20
60.93613356965048
 10
161.74352815291269
 20
60.3448047606127
 10
161.74352815291269
 20
60.3448047606127
 10
160.85195630332819
 20
59.85762957258531
 10
160.85195630332819
 20
59.85762957258531
 10
159.86060596173991
 20
59.4693553341405
 10
159.86060596173991
 20
59.4693553341405
 10
158.7229276142119
 20
59.1743155555652
 10
158.7229276142119
 20
59.1743155555652
 10
157.43238538420189
 20
58.97086762132511
 10
157.43238538420189
 20
58.97086762132511
 10
156.19861697322119
 20
58.86866681145891
 10
156.19861697322119
 20
58.86866681145891
 10
155.10354938274611
 20
58.8345190282763
 10
155.10354938274611
 20
58.8345190282763
 10
153.9648539341091
 20
58.8477042974756
 10
153.9648539341091
 20
58.8477042974756
 10
152.46836941233269
 20
58.92661846762911
 10
152.46836941233269
 20
58.92661846762911
 10
150.81167240357391
 20
59.0470261998327
 10
150.81167240357391
 20
59.0470261998327
 10
149.25169539368139
 20
59.1612476469801
 10
149.25169539368139
 20
59.1612476469801
 10
147.700225963354
 20
59.2745570685567
 10
147.700225963354
 20
59.2745570685567
 10
146.14875656282891
 20
59.3878668077142
 10
146.14875656282891
 20
59.3878668077142
 10
144.5972871846555
 20
59.50117686352151
  0
LWPOLYLINE
  5
579
100
AcDbEntity
  8
0
  6
CONTINUOUS
 62
             3
100
AcDbPolyline
 90
       30
 70
             0
 10
166.20666158488379
 20
85.94950698836161
 10
165.80560604399429
 20
84.6286582970844
 10
165.80560604399429
 20
84.6286582970844
 10
165.41200982323281
 20
83.67279545830948
 10
165.41200982323281
 20
83.67279545830948
 10
164.92535864478339
 20
82.78093747476501
 10
164.92535864478339
 20
82.78093747476501
 10
164.30129857277859
 20
81.91833594309551
 10
164.30129857277859
 20
81.91833594309551
 10
163.5037331945299
 20
81.05505733525766
 10
163.5037331945299
 20
81.05505733525766
 10
162.528052232325
 20
80.18618623314811
 10
162.528052232325
 20
80.18618623314811
 10
161.54539412176601
 20
79.43318387641025
 10
161.54539412176601
 20
79.43318387641025
 10
160.64262633314721
 20
78.81241869887722
 10
160.64262633314721
 20
78.81241869887722
 10
159.677566274166
 20
78.20788561420901
 10
159.677566274166
 20
78.20788561420901
 10
158.3759791544675
 20
77.46521182412667
 10
158.3759791544675
 20
77.46521182412667
 10
156.91717961347089
 20
76.67082722911997
 10
156.91717961347089
 20
76.67082722911997
 10
155.5430906630157
 20
75.92352917751683
 10
155.5430906630157
 20
75.92352917751683
 10
154.17665183460699
 20
75.18006343076391
 10
154.17665183460699
 20
75.18006343076391
 10
152.81021284228549
 20
74.43659796154512
 10
152.81021284228549
 20
74.43659796154512
 10
151.44377370467771
 20
73.6931327717231
  0
LWPOLYLINE
  5
577
100
AcDbEntity
  8
0
  6
CONTINUOUS
 62
             3
100
AcDbPolyline
 90
       12
 70
             0
 10
243.22446268942201
 20
35.052664982699
 10
243.29011901985839
 20
34.46707406694451
 10
243.29011901985839
 20
34.46707406694451
 10
243.5952111385389
 20
33.69736740233761
 10
243.5952111385389
 20
33.69736740233761
 10
244.01369230967009
 20
33.15017527768771
 10
244.01369230967009
 20
33.15017527768771
 10
244.3947708695753
 20
32.82228176815821
 10
244.3947708695753
 20
32.82228176815821
 10
244.5658483594282
 20
32.70749207547321
 10
244.5658483594282
 20
32.70749207547321
 10
244.56172507029021
 20
32.7101337952391
  0
LWPOLYLINE
  5
575
100
AcDbEntity
  8
0
  6
CONTINUOUS
 62
             3
100
AcDbPolyline
 90
        4
 70
             0
 10
226.39433566998679
 20
110.00981133951259
 10
222.23691551905119
 20
111.70792927647391
 10
222.23691551905119
 20
111.70792927647391
 10
218.22446268942201
 20
113.34675753916071
  0
LWPOLYLINE
  5
573
100
AcDbEntity
  8
0
  6
CONTINUOUS
 62
             3
100
AcDbPolyline
 90
        4
 70
             0
 10
218.22446268942201
 20
43.0678507765607
 10
222.23691551905119
 20
44.7066790401788
 10
222.23691551905119
 20
44.7066790401788
 10
226.39433566998679
 20
46.40479697714011
  0
LWPOLYLINE
  5
571
100
AcDbEntity
  8
0
  6
CONTINUOUS
 62
             3
100
AcDbPolyline
 90
       16
 70
             0
 10
217.72446268942201
 20
112.9932041499616
 10
217.73407004918889
 20
113.0621789941416
 10
217.73407004918889
 20
113.0621789941416
 10
217.76252291869361
 20
113.1285031741337
 10
217.76252291869361
 20
113.1285031741337
 10
217.80872788053
 20
113.1896278891565
 10
217.80872788053
 20
113.1896278891565
 10
217.8709092899783
 20
113.2432041499616
 10
217.8709092899783
 20
113.2432041499616
 10
217.94667756702739
 20
113.2871730491371
 10
217.94667756702739
 20
113.2871730491371
 10
218.0331209689005
 20
113.3198448909299
 10
218.0331209689005
 20
113.3198448909299
 10
218.1269175201281
 20
113.3399641109483
 10
218.1269175201281
 20
113.3399641109483
 10
218.22446268942201
 20
113.34675753916071
  0
LWPOLYLINE
  5
56F
100
AcDbEntity
  8
0
  6
CONTINUOUS
 62
             3
100
AcDbPolyline
 90
       16
 70
             0
 10
218.22446268942201
 20
43.0678507765607
 10
218.1269175201281
 20
43.0746442057044
 10
218.1269175201281
 20
43.0746442057044
 10
218.0331209689005
 20
43.0947634257228
 10
218.0331209689005
 20
43.0947634257228
 10
217.94667756702739
 20
43.12743526565301
 10
217.94667756702739
 20
43.12743526565301
 10
217.8709092899783
 20
43.1714041666911
 10
217.8709092899783
 20
43.1714041666911
 10
217.80872788053
 20
43.22498042749631
 10
217.80872788053
 20
43.22498042749631
 10
217.76252291869361
 20
43.28610514158771
 10
217.76252291869361
 20
43.28610514158771
 10
217.73407004918889
 20
43.35242932157981
 10
217.73407004918889
 20
43.35242932157981
 10
217.72446268942201
 20
43.4214041666911
  0
LWPOLYLINE
  5
56D
100
AcDbEntity
  8
0
  6
CONTINUOUS
 62
             3
100
AcDbPolyline
 90
       16
 70
             0
 10
217.72446268942201
 20
114.26974999865899
 10
217.73407004918889
 20
114.33872484377039
 10
217.73407004918889
 20
114.33872484377039
 10
217.76252291869361
 20
114.4050490237625
 10
217.76252291869361
 20
114.4050490237625
 10
217.80872788053
 20
114.46617373785389
 10
217.80872788053
 20
114.46617373785389
 10
217.8709092899783
 20
114.51974999865899
 10
217.8709092899783
 20
114.51974999865899
 10
217.94667756702739
 20
114.56371889969719
 10
217.94667756702739
 20
114.56371889969719
 10
218.0331209689005
 20
114.5963907405586
 10
218.0331209689005
 20
114.5963907405586
 10
218.1269175201281
 20
114.61650996057701
 10
218.1269175201281
 20
114.61650996057701
 10
218.22446268942201
 20
114.6233033897207
  0
LWPOLYLINE
  5
56B
100
AcDbEntity
  8
0
  6
CONTINUOUS
 62
             3
100
AcDbPolyline
 90
       16
 70
             0
 10
218.22446268942201
 20
41.791304926932
 10
218.1269175201281
 20
41.7980983551444
 10
218.1269175201281
 20
41.7980983551444
 10
218.0331209689005
 20
41.81821757516281
 10
218.0331209689005
 20
41.81821757516281
 10
217.94667756702739
 20
41.85088941695551
 10
217.94667756702739
 20
41.85088941695551
 10
217.8709092899783
 20
41.89485831799371
 10
217.8709092899783
 20
41.89485831799371
 10
217.80872788053
 20
41.9484345778675
 10
217.80872788053
 20
41.9484345778675
 10
217.76252291869361
 20
42.0095592928902
 10
217.76252291869361
 20
42.0095592928902
 10
217.73407004918889
 20
42.07588347288231
 10
217.73407004918889
 20
42.07588347288231
 10
217.72446268942201
 20
42.14485831799371
  0
LWPOLYLINE
  5
569
100
AcDbEntity
  8
0
  6
CONTINUOUS
 62
             3
100
AcDbPolyline
 90
       16
 70
             0
 10
217.97446268942201
 20
43.71840069031731
 10
217.92008196707809
 20
43.69347838366791
 10
217.92008196707809
 20
43.69347838366791
 10
217.8709092899783
 20
43.6639008127005
 10
217.8709092899783
 20
43.6639008127005
 10
217.8277860186621
 20
43.63017405623951
 10
217.8277860186621
 20
43.63017405623951
 10
217.79144998040039
 20
43.59287518969191
 10
217.79144998040039
 20
43.59287518969191
 10
217.76252291869361
 20
43.5526424055771
 10
217.76252291869361
 20
43.5526424055771
 10
217.7414997681602
 20
43.51016409935811
 10
217.7414997681602
 20
43.51016409935811
 10
217.7287402502819
 20
43.46616708634811
 10
217.7287402502819
 20
43.46616708634811
 10
217.72446268942201
 20
43.4214041666911
  0
LWPOLYLINE
  5
567
100
AcDbEntity
  8
0
  6
CONTINUOUS
 62
             3
100
AcDbPolyline
 90
       16
 70
             0
 10
217.72446268942201
 20
112.9932041499616
 10
217.7287402502819
 20
112.9484412303047
 10
217.7287402502819
 20
112.9484412303047
 10
217.7414997681602
 20
112.9044442172946
 10
217.7414997681602
 20
112.9044442172946
 10
217.76252291869361
 20
112.86196591014431
 10
217.76252291869361
 20
112.86196591014431
 10
217.79144998040039
 20
112.82173312696079
 10
217.79144998040039
 20
112.82173312696079
 10
217.8277860186621
 20
112.78443426041321
 10
217.8277860186621
 20
112.78443426041321
 10
217.8709092899783
 20
112.7507075039522
 10
217.8709092899783
 20
112.7507075039522
 10
217.92008196707809
 20
112.72112993298479
 10
217.92008196707809
 20
112.72112993298479
 10
217.97446268942201
 20
112.69620762633539
  0
LWPOLYLINE
  5
565
100
AcDbEntity
  8
0
  6
CONTINUOUS
 62
             3
100
AcDbPolyline
 90
        4
 70
             0
 10
217.97446268942201
 20
57.89801697114871
 10
217.82623279985029
 20
57.57662076743701
 10
217.82623279985029
 20
57.57662076743701
 10
217.72446268942201
 20
56.8484242461474
  0
LWPOLYLINE
  5
563
100
AcDbEntity
  8
0
  6
CONTINUOUS
 62
             3
100
AcDbPolyline
 90
        4
 70
             0
 10
217.72446268942201
 20
99.56618406957401
 10
217.8287630281969
 20
98.82991233336193
 10
217.8287630281969
 20
98.82991233336193
 10
217.97446268942201
 20
98.51659134457273
  0
LWPOLYLINE
  5
561
100
AcDbEntity
  8
0
  6
CONTINUOUS
 62
             3
100
AcDbPolyline
 90
        6
 70
             0
 10
217.97446268942201
 20
112.69620762633539
 10
221.9307719185575
 20
111.0807509232165
 10
221.9307719185575
 20
111.0807509232165
 10
225.3944478273018
 20
109.6664245767371
 10
225.3944478273018
 20
109.6664245767371
 10
226.2603610694035
 20
109.3128415193261
  0
LWPOLYLINE
  5
55F
100
AcDbEntity
  8
0
  6
CONTINUOUS
 62
             3
100
AcDbPolyline
 90
       24
 70
             0
 10
217.97446268942201
 20
98.51659134457273
 10
220.13770897831759
 20
95.19129828511191
 10
220.13770897831759
 20
95.19129828511191
 10
222.03647891949851
 20
91.70329669731123
 10
222.03647891949851
 20
91.70329669731123
 10
223.58730060007409
 20
88.05978300942493
 10
223.58730060007409
 20
88.05978300942493
 10
224.5118886097892
 20
85.05664262695623
 10
224.5118886097892
 20
85.05664262695623
 10
225.12446601834139
 20
81.96702785564972
 10
225.12446601834139
 20
81.96702785564972
 10
225.3868152103945
 20
78.83934593813879
 10
225.3868152103945
 20
78.83934593813879
 10
225.27184919040641
 20
75.70601027140779
 10
225.27184919040641
 20
75.70601027140779
 10
224.79885096993289
 20
72.59502430780245
 10
224.79885096993289
 20
72.59502430780245
 10
223.99887002032241
 20
69.56028297970457
 10
223.99887002032241
 20
69.56028297970457
 10
222.4016888379677
 20
65.48131614884747
 10
222.4016888379677
 20
65.48131614884747
 10
220.35473377030331
 20
61.58894380329562
 10
220.35473377030331
 20
61.58894380329562
 10
217.97446268942201
 20
57.89801697114871
  0
LWPOLYLINE
  5
55D
100
AcDbEntity
  8
0
  6
CONTINUOUS
 62
             3
100
AcDbPolyline
 90
        6
 70
             0
 10
226.2603610694035
 20
47.1017667973266
 10
222.0541028394922
 20
45.38421683533501
 10
222.0541028394922
 20
45.38421683533501
 10
218.59039455052459
 20
43.96989880649761
 10
218.59039455052459
 20
43.96989880649761
 10
217.97446268942201
 20
43.71840069031731
  0
LWPOLYLINE
  5
55B
100
AcDbEntity
  8
0
  6
CONTINUOUS
 62
             3
100
AcDbPolyline
 90
       10
 70
             0
 10
243.22446268942201
 20
109.3144214941041
 10
243.8815642200037
 20
109.365655943364
 10
243.8815642200037
 20
109.365655943364
 10
244.8135351404174
 20
109.6347377007679
 10
244.8135351404174
 20
109.6347377007679
 10
245.566510660164
 20
110.1058725301028
 10
245.566510660164
 20
110.1058725301028
 10
246.05521572899059
 20
110.72593600171071
 10
246.05521572899059
 20
110.72593600171071
 10
246.22446268942201
 20
111.4249169887827
  0
LWPOLYLINE
  5
559
100
AcDbEntity
  8
0
  6
CONTINUOUS
 62
             3
100
AcDbPolyline
 90
       22
 70
             0
 10
243.22446268942201
 20
92.62698229829235
 10
243.29011901985839
 20
90.73895495066805
 10
243.29011901985839
 20
90.73895495066805
 10
243.5952111385389
 20
87.6474063811676
 10
243.5952111385389
 20
87.6474063811676
 10
244.01369230967009
 20
84.54016583839817
 10
244.01369230967009
 20
84.54016583839817
 10
244.3947708695753
 20
81.43991032483442
 10
244.3947708695753
 20
81.43991032483442
 10
244.5658483594282
 20
78.33807271214587
 10
244.5658483594282
 20
78.33807271214587
 10
244.4996099076792
 20
76.23826063571883
 10
244.4996099076792
 20
76.23826063571883
 10
244.30776384990651
 20
74.16133856734646
 10
244.30776384990651
 20
74.16133856734646
 10
243.96230162825429
 20
71.50189876610799
 10
243.96230162825429
 20
71.50189876610799
 10
243.608756279163
 20
68.8757058285029
 10
243.608756279163
 20
68.8757058285029
 10
243.33641353022301
 20
66.30741143094761
 10
243.33641353022301
 20
66.30741143094761
 10
243.22446268942201
 20
63.78762601836039
  0
LWPOLYLINE
  5
557
100
AcDbEntity
  8
0
  6
CONTINUOUS
 62
             3
100
AcDbPolyline
 90
       10
 70
             0
 10
246.22446268942201
 20
44.98969132787001
 10
246.15096485760051
 20
45.4540908099936
 10
246.15096485760051
 20
45.4540908099936
 10
245.76757616695011
 20
46.1093885196225
 10
245.76757616695011
 20
46.1093885196225
 10
245.09780191030339
 20
46.6382322177143
 10
245.09780191030339
 20
46.6382322177143
 10
244.21708911802611
 20
46.981343659185
 10
244.21708911802611
 20
46.981343659185
 10
243.22446268942201
 20
47.1001868216173
  0
LWPOLYLINE
  5
555
100
AcDbEntity
  8
0
  6
CONTINUOUS
 62
             3
100
AcDbPolyline
 90
        4
 70
             0
 10
246.16121056821191
 20
124.07633084113159
 10
246.15843600925049
 20
124.0704533947484
 10
246.15843600925049
 20
124.0704533947484
 10
246.16339779045421
 20
124.1593801468463
  0
LWPOLYLINE
  5
553
100
AcDbEntity
  8
0
  6
CONTINUOUS
 62
             3
100
AcDbPolyline
 90
        6
 70
             0
 10
246.1646727077289
 20
32.25201382542412
 10
246.1668971977754
 20
32.28160326796041
 10
246.1668971977754
 20
32.28160326796041
 10
246.1557375579699
 20
32.35502287799881
 10
246.1557375579699
 20
32.35502287799881
 10
246.1558575272187
 20
32.3547382751332
  0
LWPOLYLINE
  5
551
100
AcDbEntity
  8
0
  6
CONTINUOUS
 62
             3
100
AcDbPolyline
 90
       10
 70
             0
 10
151.45476506194461
 20
75.77355390655262
 10
151.50367233446229
 20
75.73755944760902
 10
151.50367233446229
 20
75.73755944760902
 10
151.62454479476801
 20
75.68069129212213
 10
151.62454479476801
 20
75.68069129212213
 10
151.75616521304829
 20
75.65784321500374
 10
151.75616521304829
 20
75.65784321500374
 10
151.88913795268519
 20
75.67064621167643
 10
151.88913795268519
 20
75.67064621167643
 10
152.01397081381069
 20
75.71818634828938
  0
LWPOLYLINE
  5
54F
100
AcDbEntity
  8
0
  6
CONTINUOUS
 62
             3
100
AcDbPolyline
 90
        6
 70
             0
 10
89.65561792170988
 20
105.9410439669938
 10
89.65836450374113
 20
105.9444363178538
 10
89.65836450374113
 20
105.9444363178538
 10
89.71516454136358
 20
106.01443728113929
 10
89.71516454136358
 20
106.01443728113929
 10
89.83116917228686
 20
106.15649774725
  0
LWPOLYLINE
  5
54D
100
AcDbEntity
  8
0
  6
CONTINUOUS
 62
             3
100
AcDbPolyline
 90
        4
 70
             0
 10
84.44485568171726
 20
110.9680319228993
 10
84.4005269846915
 20
111.0447022287027
 10
84.4005269846915
 20
111.0447022287027
 10
84.35504251262532
 20
111.221122357607
  0
LWPOLYLINE
  5
54B
100
AcDbEntity
  8
0
  6
CONTINUOUS
 62
             3
100
AcDbPolyline
 90
       14
 70
             0
 10
96.32802745243893
 20
84.12107339462651
 10
93.55537143266187
 20
83.63218656050427
 10
93.55537143266187
 20
83.63218656050427
 10
90.85321076130853
 20
83.02088542430116
 10
90.85321076130853
 20
83.02088542430116
 10
88.85138106262671
 20
82.43193187991543
 10
88.85138106262671
 20
82.43193187991543
 10
87.27761021172987
 20
81.69958311094356
 10
87.27761021172987
 20
81.69958311094356
 10
86.66225979393707
 20
81.17253521046055
 10
86.66225979393707
 20
81.17253521046055
 10
86.09895562297093
 20
80.47606109137101
 10
86.09895562297093
 20
80.47606109137101
 10
85.04983267477142
 20
78.74382666087163
  0
LWPOLYLINE
  5
549
100
AcDbEntity
  8
0
  6
CONTINUOUS
 62
             3
100
AcDbPolyline
 90
       10
 70
             0
 10
168.35384887373439
 20
102.5755369668679
 10
167.5949754147826
 20
100.70016353352381
 10
167.5949754147826
 20
100.70016353352381
 10
166.70981966248141
 20
99.4054294029103
 10
166.70981966248141
 20
99.4054294029103
 10
165.6125810436009
 20
98.51769649478061
 10
165.6125810436009
 20
98.51769649478061
 10
164.55466886153809
 20
98.14597947670532
 10
164.55466886153809
 20
98.14597947670532
 10
163.3898506938516
 20
98.11704946177466
  0
LWPOLYLINE
  5
547
100
AcDbEntity
  8
0
  6
CONTINUOUS
 62
             3
100
AcDbPolyline
 90
       14
 70
             0
 10
148.61220059460391
 20
64.8728988054992
 10
151.4102799027263
 20
64.56083481813235
 10
151.4102799027263
 20
64.56083481813235
 10
154.1752075023054
 20
64.38608732873959
 10
154.1752075023054
 20
64.38608732873959
 10
156.26187642207731
 20
64.38720351698262
 10
156.26187642207731
 20
64.38720351698262
 10
157.9782249919175
 20
64.64650452750189
 10
157.9782249919175
 20
64.64650452750189
 10
158.71713595381371
 20
64.9788390375526
 10
158.71713595381371
 20
64.9788390375526
 10
159.4538417748212
 20
65.48839993922425
 10
159.4538417748212
 20
65.48839993922425
 10
160.94849470174299
 20
66.85489461252851
  0
LWPOLYLINE
  5
545
100
AcDbEntity
  8
0
  6
CONTINUOUS
 62
             3
100
AcDbPolyline
 90
       14
 70
             0
 10
97.52656744337068
 20
68.30837567111863
 10
95.45837295344458
 20
66.39808687715245
 10
95.45837295344458
 20
66.39808687715245
 10
93.51566508328901
 20
64.42292928377552
 10
93.51566508328901
 20
64.42292928377552
 10
92.15003110384927
 20
62.84519918969286
 10
92.15003110384927
 20
62.84519918969286
 10
91.22202845206844
 20
61.3782634386645
 10
91.22202845206844
 20
61.3782634386645
 10
90.98930634474741
 20
60.60219897570474
 10
90.98930634474741
 20
60.60219897570474
 10
90.89196706479775
 20
59.71174243892
 10
90.89196706479775
 20
59.71174243892
 10
90.94590531206117
 20
57.6872954159827
  0
LWPOLYLINE
  5
543
100
AcDbEntity
  8
0
  6
CONTINUOUS
 62
             3
100
AcDbPolyline
 90
       14
 70
             0
 10
103.8687412842213
 20
98.07154085727794
 10
101.2719224347769
 20
99.15927409900738
 10
101.2719224347769
 20
99.15927409900738
 10
98.66822587242709
 20
100.1059132112042
 10
98.66822587242709
 20
100.1059132112042
 10
96.66576724416004
 20
100.6927248068006
 10
96.66576724416004
 20
100.6927248068006
 10
94.94588931193935
 20
100.927478579417
 10
94.94588931193935
 20
100.927478579417
 10
94.14327998375879
 20
100.8167812261583
 10
94.14327998375879
 20
100.8167812261583
 10
93.29285603305684
 20
100.53541513586801
 10
93.29285603305684
 20
100.53541513586801
 10
91.47376101380573
 20
99.64536549019081
  0
LWPOLYLINE
  5
541
100
AcDbEntity
  8
0
  6
CONTINUOUS
 62
             3
100
AcDbPolyline
 90
        4
 70
             0
 10
111.8251407734154
 20
33.5556507078783
 10
112.3229028313457
 20
34.6140884073303
 10
112.3229028313457
 20
34.6140884073303
 10
112.9735173649191
 20
35.36988399790981
  0
LWPOLYLINE
  5
53F
100
AcDbEntity
  8
0
  6
CONTINUOUS
 62
             3
100
AcDbPolyline
 90
       14
 70
             0
 10
121.96546056410661
 20
50.17526578212541
 10
122.8439613237082
 20
47.50040725114211
 10
122.8439613237082
 20
47.50040725114211
 10
123.8335978529452
 20
44.912747904271
 10
123.8335978529452
 20
44.912747904271
 10
124.70144677451241
 20
43.0151107735784
 10
124.70144677451241
 20
43.0151107735784
 10
125.6503122328817
 20
41.56158273255841
 10
125.6503122328817
 20
41.56158273255841
 10
126.25956903314579
 20
41.027502428353
 10
126.25956903314579
 20
41.027502428353
 10
127.0291205934285
 20
40.56905049140021
 10
127.0291205934285
 20
40.56905049140021
 10
128.8930291413366
 20
39.7771287631096
  0
LWPOLYLINE
  5
53D
100
AcDbEntity
  8
0
  6
CONTINUOUS
 62
             3
100
AcDbPolyline
 90
       14
 70
             0
 10
133.57690284317721
 20
104.6665622727798
 10
133.4875822617708
 20
107.48057250360409
 10
133.4875822617708
 20
107.48057250360409
 10
133.26706085270629
 20
110.2422262966485
 10
133.26706085270629
 20
110.2422262966485
 10
132.96899207225431
 20
112.3074970837535
 10
132.96899207225431
 20
112.3074970837535
 10
132.4680685020088
 20
113.9694733178095
 10
132.4680685020088
 20
113.9694733178095
 10
132.0339586838185
 20
114.65356709583109
 10
132.0339586838185
 20
114.65356709583109
 10
131.4247402130662
 20
115.31025623677679
 10
131.4247402130662
 20
115.31025623677679
 10
129.8594431943296
 20
116.5952232895271
  0
LWPOLYLINE
  5
53B
100
AcDbEntity
  8
0
  6
CONTINUOUS
 62
             3
100
AcDbPolyline
 90
       14
 70
             0
 10
117.7545855521261
 20
105.7306032102407
 10
116.15807551434619
 20
108.0496089082063
 10
116.15807551434619
 20
108.0496089082063
 10
114.4794983333944
 20
110.25363704150929
 10
114.4794983333944
 20
110.25363704150929
 10
113.1121772333084
 20
111.8299052394779
 10
113.1121772333084
 20
111.8299052394779
 10
111.7922413229047
 20
112.9572288902329
 10
111.7922413229047
 20
112.9572288902329
 10
111.0571958824097
 20
113.29802771153309
 10
111.0571958824097
 20
113.29802771153309
 10
110.1896557315289
 20
113.52110139614349
 10
110.1896557315289
 20
113.52110139614349
 10
108.17813845267879
 20
113.75582100877919
  0
LWPOLYLINE
  5
539
100
AcDbEntity
  8
0
  6
CONTINUOUS
 62
             3
100
AcDbPolyline
 90
        4
 70
             0
 10
79.15384887447939
 20
70.71276334355039
 10
79.83789893156276
 20
70.50950774325443
 10
79.83789893156276
 20
70.50950774325443
 10
80.32373027420032
 20
70.33735703731341
  0
LWPOLYLINE
  5
537
100
AcDbEntity
  8
0
  6
CONTINUOUS
 62
             3
100
AcDbPolyline
 90
       14
 70
             0
 10
151.91716165384639
 20
80.38273890091492
 10
154.43977028420559
 20
81.63296985214961
 10
154.43977028420559
 20
81.63296985214961
 10
156.86025102353079
 20
82.98079563266052
 10
156.86025102353079
 20
82.98079563266052
 10
158.61506516402949
 20
84.10987301970286
 10
158.61506516402949
 20
84.10987301970286
 10
159.91876075333349
 20
85.25593900455547
 10
159.91876075333349
 20
85.25593900455547
 10
160.36069861343489
 20
85.93500200992835
 10
160.36069861343489
 20
85.93500200992835
 10
160.704965564519
 20
86.7619651552142
 10
160.704965564519
 20
86.7619651552142
 10
161.22356482139219
 20
88.71960401030643
  0
LWPOLYLINE
  5
535
100
AcDbEntity
  8
0
  6
CONTINUOUS
 62
             3
100
AcDbPolyline
 90
       10
 70
             0
 10
148.14628479173771
 20
122.7556507071332
 10
148.51680634459839
 20
120.7854148248063
 10
148.51680634459839
 20
120.7854148248063
 10
148.47215206465111
 20
119.2176638344155
 10
148.47215206465111
 20
119.2176638344155
 10
148.02904083123789
 20
117.8776434013472
 10
148.02904083123789
 20
117.8776434013472
 10
147.3400338730811
 20
116.9929846428187
 10
147.3400338730811
 20
116.9929846428187
 10
146.37576722270239
 20
116.33889891820409
  0
LWPOLYLINE
  5
533
100
AcDbEntity
  8
0
  6
CONTINUOUS
 62
             3
100
AcDbPolyline
 90
       14
 70
             0
 10
137.44663779354079
 20
53.6119878819064
 10
139.631817362368
 20
51.83670706542591
 10
139.631817362368
 20
51.83670706542591
 10
141.86334686270339
 20
50.19486739913391
 10
141.86334686270339
 20
50.19486739913391
 10
143.61936791157709
 20
49.06766800823071
 10
143.61936791157709
 20
49.06766800823071
 10
145.20344092240919
 20
48.3578778054417
 10
145.20344092240919
 20
48.3578778054417
 10
146.00472598439441
 20
48.2379699624927
 10
146.00472598439441
 20
48.2379699624927
 10
146.89997177487601
 20
48.2683466333748
 10
146.89997177487601
 20
48.2683466333748
 10
148.8961366332172
 20
48.6098447214664
  0
LWPOLYLINE
  5
531
100
AcDbEntity
  8
0
  6
CONTINUOUS
 62
             3
100
AcDbPolyline
 90
       14
 70
             0
 10
107.0838332726656
 20
55.65386748927101
 10
106.37673744475831
 20
52.92867993059021
 10
106.37673744475831
 20
52.92867993059021
 10
105.8102784036695
 20
50.21676445713651
 10
105.8102784036695
 20
50.21676445713651
 10
105.5144192828833
 20
48.1511759707556
 10
105.5144192828833
 20
48.1511759707556
 10
105.5268191128074
 20
46.4153949735538
 10
105.5268191128074
 20
46.4153949735538
 10
105.7506129435299
 20
45.63670893254141
 10
105.7506129435299
 20
45.63670893254141
 10
106.1501430823504
 20
44.8349836371691
 10
106.1501430823504
 20
44.8349836371691
 10
107.2900175145863
 20
43.16107164750261
  0
LWPOLYLINE
  5
52F
100
AcDbEntity
  8
0
  6
CONTINUOUS
 62
             3
100
AcDbPolyline
 90
       14
 70
             0
 10
146.31221919423331
 20
95.21724352388097
 10
147.758446733564
 20
97.6328299218641
 10
147.758446733564
 20
97.6328299218641
 10
149.06599507397399
 20
100.07530380932999
 10
149.06599507397399
 20
100.07530380932999
 10
149.93181335470069
 20
101.9738683026136
 10
149.93181335470069
 20
101.9738683026136
 10
150.40894182315461
 20
103.64283140896271
 10
150.40894182315461
 20
103.64283140896271
 10
150.41359442389
 20
104.45302520281091
 10
150.41359442389
 20
104.45302520281091
 10
150.25612018173919
 20
105.33483563697349
 10
150.25612018173919
 20
105.33483563697349
 10
149.63401417350761
 20
107.2620821693764
  0
LWPOLYLINE
  5
52D
100
AcDbEntity
  8
0
  6
CONTINUOUS
 62
             3
100
AcDbPolyline
 90
       12
 70
             0
 10
165.58301883479939
 20
47.86804719230541
 10
163.92823666250689
 20
47.82031632734851
 10
163.92823666250689
 20
47.82031632734851
 10
162.44081651335941
 20
47.79111008027951
 10
162.44081651335941
 20
47.79111008027951
 10
160.89537793314449
 20
48.0584240766094
 10
160.89537793314449
 20
48.0584240766094
 10
159.63205828434221
 20
48.68772986213131
 10
159.63205828434221
 20
48.68772986213131
 10
158.85445998153079
 20
49.49562379399701
 10
158.85445998153079
 20
49.49562379399701
 10
158.34426136231411
 20
50.5431617084743
  0
LWPOLYLINE
  5
52B
100
AcDbEntity
  8
0
  6
CONTINUOUS
 62
             3
100
AcDbPolyline
 90
       12
 70
             0
 10
92.3955554246007
 20
118.96503290681549
 10
93.97737994334088
 20
118.7483999315501
 10
93.97737994334088
 20
118.7483999315501
 10
95.41277748262868
 20
118.35736843811731
 10
95.41277748262868
 20
118.35736843811731
 10
96.82030388256894
 20
117.66548217514909
 10
96.82030388256894
 20
117.66548217514909
 10
97.85515428251014
 20
116.7057494191305
 10
97.85515428251014
 20
116.7057494191305
 10
98.3736443623005
 20
115.71150611116001
 10
98.3736443623005
 20
115.71150611116001
 10
98.56805082327114
 20
114.5626612813995
  0
LWPOLYLINE
  5
529
100
AcDbEntity
  8
0
  6
CONTINUOUS
 62
             3
100
AcDbPolyline
 90
       12
 70
             0
 10
88.03581143459665
 20
41.32400818596051
 10
88.02512230268108
 20
42.9205620974154
 10
88.02512230268108
 20
42.9205620974154
 10
88.20789528182135
 20
44.3969989368544
 10
88.20789528182135
 20
44.3969989368544
 10
88.69242725437866
 20
45.8886644305513
 10
88.69242725437866
 20
45.8886644305513
 10
89.49511674335585
 20
47.0495657618941
 10
89.49511674335585
 20
47.0495657618941
 10
90.40545125222192
 20
47.7042739322261
 10
90.40545125222192
 20
47.7042739322261
 10
91.5149355820416
 20
48.06019927895081
  0
LWPOLYLINE
  5
527
100
AcDbEntity
  8
0
  6
CONTINUOUS
 62
             3
100
AcDbPolyline
 90
       38
 70
             0
 10
89.66144736400233
 20
103.1964751524703
 10
90.28077021157728
 20
103.5284042615296
 10
90.28077021157728
 20
103.5284042615296
 10
90.89376485264288
 20
103.84483468214439
 10
90.89376485264288
 20
103.84483468214439
 10
91.53418788230405
 20
104.14951857513201
 10
91.53418788230405
 20
104.14951857513201
 10
92.11506421408043
 20
104.393500874363
 10
92.11506421408043
 20
104.393500874363
 10
93.35462025469528
 20
104.7732224749254
 10
93.35462025469528
 20
104.7732224749254
 10
94.65817673420892
 20
104.9256855003388
 10
94.65817673420892
 20
104.9256855003388
 10
96.46302232435332
 20
104.7966684751065
 10
96.46302232435332
 20
104.7966684751065
 10
98.31218390455828
 20
104.4179012883307
 10
98.31218390455828
 20
104.4179012883307
 10
100.0015866412817
 20
103.92354461325721
 10
100.0015866412817
 20
103.92354461325721
 10
100.6024958818256
 20
103.71823255772161
 10
100.6024958818256
 20
103.71823255772161
 10
101.19194477340569
 20
103.5057127211095
 10
101.19194477340569
 20
103.5057127211095
 10
101.7662560521661
 20
103.2917941627876
 10
101.7662560521661
 20
103.2917941627876
 10
102.4368153839408
 20
103.0400869488568
 10
102.4368153839408
 20
103.0400869488568
 10
103.0106395437418
 20
102.82470424713949
 10
103.0106395437418
 20
102.82470424713949
 10
103.6506224825083
 20
102.58470216541011
 10
103.6506224825083
 20
102.58470216541011
 10
104.35676422259201
 20
102.3200807045998
 10
104.35676422259201
 20
102.3200807045998
 10
106.1069828338026
 20
101.66440063676249
 10
106.1069828338026
 20
101.66440063676249
 10
107.4156053840219
 20
101.1741469563769
 10
107.4156053840219
 20
101.1741469563769
 10
107.4860061324238
 20
101.14777212737511
  0
LWPOLYLINE
  5
525
100
AcDbEntity
  8
0
  6
CONTINUOUS
 62
             3
100
AcDbPolyline
 90
       38
 70
             0
 10
127.39609256303299
 20
36.0819912185745
 10
126.7396670720576
 20
36.3326768563912
 10
126.7396670720576
 20
36.3326768563912
 10
126.0990987933277
 20
36.5887294398473
 10
126.0990987933277
 20
36.5887294398473
 10
125.4494461744128
 20
36.8732033507751
 10
125.4494461744128
 20
36.8732033507751
 10
124.8846635623871
 20
37.15242596490691
 10
124.8846635623871
 20
37.15242596490691
 10
123.7859525448679
 20
37.8405551468806
 10
123.7859525448679
 20
37.8405551468806
 10
122.8170807241498
 20
38.725875354916
 10
122.8170807241498
 20
38.725875354916
 10
121.73266277378789
 20
40.17437482865911
 10
121.73266277378789
 20
40.17437482865911
 10
120.8079726128875
 20
41.8199176588879
 10
120.8079726128875
 20
41.8199176588879
 10
120.0752589321731
 20
43.42041783741131
 10
120.0752589321731
 20
43.42041783741131
 10
119.83691156199561
 20
44.00900554431991
 10
119.83691156199561
 20
44.00900554431991
 10
119.6115164040624
 20
44.59365218839061
 10
119.6115164040624
 20
44.59365218839061
 10
119.3970913617908
 20
45.1677745539547
 10
119.3970913617908
 20
45.1677745539547
 10
119.14819600349649
 20
45.8393826564626
 10
119.14819600349649
 20
45.8393826564626
 10
118.93519648453579
 20
46.4140956891553
 10
118.93519648453579
 20
46.4140956891553
 10
118.6974782525598
 20
47.0549304677026
 10
118.6974782525598
 20
47.0549304677026
 10
118.4350413112937
 20
47.76188699210451
 10
118.4350413112937
 20
47.76188699210451
 10
117.78442178210599
 20
49.51399314364801
 10
117.78442178210599
 20
49.51399314364801
 10
117.2979652612506
 20
50.82403198311491
 10
117.2979652612506
 20
50.82403198311491
 10
117.2717953613995
 20
50.89450909065471
  0
LWPOLYLINE
  5
523
100
AcDbEntity
  8
0
  6
CONTINUOUS
 62
             3
100
AcDbPolyline
 90
       38
 70
             0
 10
149.6345756343602
 20
44.69199219493581
 10
148.94682448273889
 20
44.54799195619681
 10
148.94682448273889
 20
44.54799195619681
 10
148.26951167276491
 20
44.4170797398166
 10
148.26951167276491
 20
44.4170797398166
 10
147.5691909148394
 20
44.3051657011585
 10
147.5691909148394
 20
44.3051657011585
 10
146.94310639342649
 20
44.2347181742863
 10
146.94310639342649
 20
44.2347181742863
 10
145.64678115314231
 20
44.2196012591795
 10
145.64678115314231
 20
44.2196012591795
 10
144.35307406178109
 20
44.4405683582501
 10
144.35307406178109
 20
44.4405683582501
 10
142.65768569251881
 20
45.07284305019691
 10
142.65768569251881
 20
45.07284305019691
 10
140.9901392041742
 20
45.957236524284
 10
140.9901392041742
 20
45.957236524284
 10
139.50844551166881
 20
46.9075280330927
 10
139.50844551166881
 20
46.9075280330927
 10
138.9897204144894
 20
47.27381920589521
 10
138.9897204144894
 20
47.27381920589521
 10
138.48402210241539
 20
47.6437974382044
 10
138.48402210241539
 20
47.6437974382044
 10
137.99324228158579
 20
48.01085297631481
 10
137.99324228158579
 20
48.01085297631481
 10
137.42075943490849
 20
48.44128267614561
 10
137.42075943490849
 20
48.44128267614561
 10
136.9308595127462
 20
48.8096058113353
 10
136.9308595127462
 20
48.8096058113353
 10
136.38441677308069
 20
49.2201901521386
 10
136.38441677308069
 20
49.2201901521386
 10
135.7814312121867
 20
49.67303570321211
 10
135.7814312121867
 20
49.67303570321211
 10
134.28683519279949
 20
50.7952496759446
 10
134.28683519279949
 20
50.7952496759446
 10
133.1693414739369
 20
51.6343262117208
 10
133.1693414739369
 20
51.6343262117208
 10
133.1092230743765
 20
51.67946687022611
  0
LWPOLYLINE
  5
521
100
AcDbEntity
  8
0
  6
CONTINUOUS
 62
             3
100
AcDbPolyline
 90
       38
 70
             0
 10
86.9628400533496
 20
57.51394120565071
 10
86.91818272238957
 20
58.2151854174064
 10
86.91818272238957
 20
58.2151854174064
 10
86.88499466246353
 20
58.90423490533991
 10
86.88499466246353
 20
58.90423490533991
 10
86.87388578346358
 20
59.61335444411651
 10
86.87388578346358
 20
59.61335444411651
 10
86.89325643247352
 20
60.24309205131991
 10
86.89325643247352
 20
60.24309205131991
 10
87.06277970141159
 20
61.52837393673522
 10
87.06277970141159
 20
61.52837393673522
 10
87.46561139366018
 20
62.7774660508932
 10
87.46561139366018
 20
62.7774660508932
 10
88.33272935366617
 20
64.36561574189378
 10
88.33272935366617
 20
64.36561574189378
 10
89.44543759441363
 20
65.89032669792337
 10
89.44543759441363
 20
65.89032669792337
 10
90.59692350319014
 20
67.22169830052567
 10
90.59692350319014
 20
67.22169830052567
 10
91.03330863183724
 20
67.68301486278338
 10
91.03330863183724
 20
67.68301486278338
 10
91.47148940256224
 20
68.13091250284029
 10
91.47148940256224
 20
68.13091250284029
 10
91.90465408480154
 20
68.5644594324605
 10
91.90465408480154
 20
68.5644594324605
 10
92.41217543473827
 20
69.06985870430631
 10
92.41217543473827
 20
69.06985870430631
 10
92.84646960264431
 20
69.50235430578155
 10
92.84646960264431
 20
69.50235430578155
 10
93.33064170470821
 20
69.98480280170602
 10
93.33064170470821
 20
69.98480280170602
 10
93.86469172230349
 20
70.51720419207973
 10
93.86469172230349
 20
70.51720419207973
 10
95.18818644350753
 20
71.83687975218905
 10
95.18818644350753
 20
71.83687975218905
 10
96.17775835385905
 20
72.82358597739054
 10
96.17775835385905
 20
72.82358597739054
 10
96.23099519228921
 20
72.8766681743638
  0
LWPOLYLINE
  5
51F
100
AcDbEntity
  8
0
  6
CONTINUOUS
 62
             3
100
AcDbPolyline
 90
       38
 70
             0
 10
104.0329721524416
 20
40.8618291444929
 10
103.61628277143819
 20
41.42760974036911
 10
103.61628277143819
 20
41.42760974036911
 10
103.215834922254
 20
41.98933223875621
 10
103.215834922254
 20
41.98933223875621
 10
102.82311057215919
 20
42.57987564111511
 10
102.82311057215919
 20
42.57987564111511
 10
102.49894434130179
 20
43.12011718990671
 10
102.49894434130179
 20
43.12011718990671
 10
101.94668054124701
 20
44.2930163159819
 10
101.94668054124701
 20
44.2930163159819
 10
101.6102539441584
 20
45.56160672249661
 10
101.6102539441584
 20
45.56160672249661
 10
101.4811014524697
 20
47.36644262968021
 10
101.4811014524697
 20
47.36644262968021
 10
101.59285020372261
 20
49.25068659482911
 10
101.59285020372261
 20
49.25068659482911
 10
101.8417479648291
 20
50.99324794354301
 10
101.8417479648291
 20
50.99324794354301
 10
101.95945193162549
 20
51.61725974696141
 10
101.95945193162549
 20
51.61725974696141
 10
102.08592130160319
 20
52.23095362315341
 10
102.08592130160319
 20
52.23095362315341
 10
102.2159294626711
 20
52.82986302355691
 10
102.2159294626711
 20
52.82986302355691
 10
102.36964411205039
 20
53.529418704644
 10
102.36964411205039
 20
53.529418704644
 10
102.501170843005
 20
54.12805430924901
 10
102.501170843005
 20
54.12805430924901
 10
102.64765098235
 20
54.7956790091322
 10
102.64765098235
 20
54.7956790091322
 10
102.80908452263461
 20
55.53229280336211
 10
102.80908452263461
 20
55.53229280336211
 10
103.20900864443171
 20
57.35800973473501
 10
103.20900864443171
 20
57.35800973473501
 10
103.5080358414947
 20
58.7230827776567
 10
103.5080358414947
 20
58.7230827776567
 10
103.5241231425701
 20
58.79652044976511
  0
LWPOLYLINE
  5
51D
100
AcDbEntity
  8
0
  6
CONTINUOUS
 62
             3
100
AcDbPolyline
 90
       38
 70
             0
 10
153.40689778244479
 20
108.55057347713419
 10
153.64730950361479
 20
107.89031600727149
 10
153.64730950361479
 20
107.89031600727149
 10
153.87328088200081
 20
107.23852802029261
 10
153.87328088200081
 20
107.23852802029261
 10
154.08372183433161
 20
106.5612625392006
 10
154.08372183433161
 20
106.5612625392006
 10
154.2425534232556
 20
105.9515763871224
 10
154.2425534232556
 20
105.9515763871224
 10
154.44200278362621
 20
104.6705972259717
 10
154.44200278362621
 20
104.6705972259717
 10
154.40739852479089
 20
103.35861131789549
 10
154.40739852479089
 20
103.35861131789549
 10
154.02283840170489
 20
101.5904974849747
 10
154.02283840170489
 20
101.5904974849747
 10
153.38476339271651
 20
99.81406190114481
 10
153.38476339271651
 20
99.81406190114481
 10
152.65501147425161
 20
98.21220913211269
 10
152.65501147425161
 20
98.21220913211269
 10
152.36627089148749
 20
97.64663523396862
 10
152.36627089148749
 20
97.64663523396862
 10
152.0720268814861
 20
97.09343080835802
 10
152.0720268814861
 20
97.09343080835802
 10
151.7785526915489
 20
96.55540897937877
 10
151.7785526915489
 20
96.55540897937877
 10
151.43397695487729
 20
95.92749664148701
 10
151.43397695487729
 20
95.92749664148701
 10
151.1391228429078
 20
95.39016534628732
 10
151.1391228429078
 20
95.39016534628732
 10
150.8104845612346
 20
94.79085236190272
 10
150.8104845612346
 20
94.79085236190272
 10
150.44806212475879
 20
94.1295576874019
 10
150.44806212475879
 20
94.1295576874019
 10
149.5499738446473
 20
92.49046676939739
 10
149.5499738446473
 20
92.49046676939739
 10
148.87847383236871
 20
91.26493447514636
 10
148.87847383236871
 20
91.26493447514636
 10
148.84234840339411
 20
91.19900385158522
  0
LWPOLYLINE
  5
51B
100
AcDbEntity
  8
0
  6
CONTINUOUS
 62
             3
100
AcDbPolyline
 90
       38
 70
             0
 10
165.0941274828314
 20
87.76377699671699
 10
164.93941255202881
 20
87.07835667914165
 10
164.93941255202881
 20
87.07835667914165
 10
164.77712858384839
 20
86.40786838027103
 10
164.77712858384839
 20
86.40786838027103
 10
164.58800541153539
 20
85.72434343358887
 10
164.58800541153539
 20
85.72434343358887
 10
164.3920018329321
 20
85.12557196485264
 10
164.3920018329321
 20
85.12557196485264
 10
163.8672396942078
 20
83.94011325164152
 10
163.8672396942078
 20
83.94011325164152
 10
163.12881560167659
 20
82.85510894524319
 10
163.12881560167659
 20
82.85510894524319
 10
161.84938853150589
 20
81.57558583708865
 10
161.84938853150589
 20
81.57558583708865
 10
160.35219208440171
 20
80.42612252531959
 10
160.35219208440171
 20
80.42612252531959
 10
158.87225872194759
 20
79.47309189623607
 10
158.87225872194759
 20
79.47309189623607
 10
158.32358235409839
 20
79.15340579634918
 10
158.32358235409839
 20
79.15340579634918
 10
157.77696364289511
 20
78.84710094387097
 10
157.77696364289511
 20
78.84710094387097
 10
157.23920088177911
 20
78.55315230654938
 10
157.23920088177911
 20
78.55315230654938
 10
156.6098502828776
 20
78.21121054476512
 10
156.6098502828776
 20
78.21121054476512
 10
156.07129999166719
 20
77.91858886050446
 10
156.07129999166719
 20
77.91858886050446
 10
155.47081882423149
 20
77.59208996089561
 10
155.47081882423149
 20
77.59208996089561
 10
154.80840676194421
 20
77.23171384593857
 10
154.80840676194421
 20
77.23171384593857
 10
153.16672734460221
 20
76.3383659846933
 10
153.16672734460221
 20
76.3383659846933
 10
151.93925279295431
 20
75.67042292336387
 10
151.93925279295431
 20
75.67042292336387
 10
151.8732174030541
 20
75.634489457667
  0
LWPOLYLINE
  5
519
100
AcDbEntity
  8
0
  6
CONTINUOUS
 62
             3
100
AcDbPolyline
 90
       38
 70
             0
 10
81.60534259220945
 20
80.75139947941912
 10
81.94689570283877
 20
81.36546722481413
 10
81.94689570283877
 20
81.36546722481413
 10
82.2915044046043
 20
81.96307535989595
 10
82.2915044046043
 20
81.96307535989595
 10
82.66553799352037
 20
82.56563058922453
 10
82.66553799352037
 20
82.56563058922453
 10
83.02229547417151
 20
83.08492701555056
 10
83.02229547417151
 20
83.08492701555056
 10
83.85978337293849
 20
84.07452374285472
 10
83.85978337293849
 20
84.07452374285472
 10
84.87397713130699
 20
84.90753964389128
 10
84.87397713130699
 20
84.90753964389128
 10
86.46206173217283
 20
85.77477681411816
 10
86.46206173217283
 20
85.77477681411816
 10
88.22245244225846
 20
86.45586980374915
 10
88.22245244225846
 20
86.45586980374915
 10
89.91093786349879
 20
86.95335058456672
 10
89.91093786349879
 20
86.95335058456672
 10
90.52745496398197
 20
87.10550715549303
 10
90.52745496398197
 20
87.10550715549303
 10
91.13822782328712
 20
87.24540422352416
 10
91.13822782328712
 20
87.24540422352416
 10
91.73702231338606
 20
87.37594059722883
 10
91.73702231338606
 20
87.37594059722883
 10
92.4372159234284
 20
87.5267227623464
 10
92.4372159234284
 20
87.5267227623464
 10
93.03639219245301
 20
87.65576406250162
 10
93.03639219245301
 20
87.65576406250162
 10
93.70453503271924
 20
87.79986236578239
 10
93.70453503271924
 20
87.79986236578239
 10
94.44164443305122
 20
87.95901767312003
 10
94.44164443305122
 20
87.95901767312003
 10
96.26850944301472
 20
88.35366412213458
 10
96.26850944301472
 20
88.35366412213458
 10
97.63444394162283
 20
88.64873125085993
 10
97.63444394162283
 20
88.64873125085993
 10
97.70792811280475
 20
88.66460484786344
  0
LWPOLYLINE
  5
517
100
AcDbEntity
  8
0
  6
CONTINUOUS
 62
             3
100
AcDbPolyline
 90
       38
 70
             0
 10
132.33678386276949
 20
119.71894603277011
 10
132.895993213266
 20
119.2934784913288
 10
132.895993213266
 20
119.2934784913288
 10
133.4384756228923
 20
118.8673288976626
 10
133.4384756228923
 20
118.8673288976626
 10
133.98166718250499
 20
118.41134988664101
 10
133.98166718250499
 20
118.41134988664101
 10
134.44490603274099
 20
117.9843200981469
 10
134.44490603274099
 20
117.9843200981469
 10
135.30524313366399
 20
117.0145223202036
 10
135.30524313366399
 20
117.0145223202036
 10
135.9854453123211
 20
115.8921010648684
 10
135.9854453123211
 20
115.8921010648684
 10
136.61784726297839
 20
114.19676015673591
 10
136.61784726297839
 20
114.19676015673591
 10
137.0414779848455
 20
112.35735804828271
 10
137.0414779848455
 20
112.35735804828271
 10
137.29359860262261
 20
110.6152600763218
 10
137.29359860262261
 20
110.6152600763218
 10
137.35646690344799
 20
109.98336409366139
 10
137.35646690344799
 20
109.98336409366139
 10
137.4080179846882
 20
109.3588985927255
 10
137.4080179846882
 20
109.3588985927255
 10
137.45200834339849
 20
108.7476217007117
 10
137.45200834339849
 20
108.7476217007117
 10
137.5016078232824
 20
108.0330965198429
 10
137.5016078232824
 20
108.0330965198429
 10
137.5440639919637
 20
107.4216545043365
 10
137.5440639919637
 20
107.4216545043365
 10
137.59160894444571
 20
106.7398050721587
 10
137.59160894444571
 20
106.7398050721587
 10
137.64424267327769
 20
105.9875482233094
 10
137.64424267327769
 20
105.9875482233094
 10
137.7748821928202
 20
104.1231139624344
 10
137.7748821928202
 20
104.1231139624344
 10
137.8725532247721
 20
102.7290902552979
 10
137.8725532247721
 20
102.7290902552979
 10
137.87780735185731
 20
102.65409507656859
  0
LWPOLYLINE
  5
515
100
AcDbEntity
  8
0
  6
CONTINUOUS
 62
             3
100
AcDbPolyline
 90
       38
 70
             0
 10
163.68786012297861
 20
63.95821759997321
 10
163.1871394320427
 20
63.46525054386271
 10
163.1871394320427
 20
63.46525054386271
 10
162.688124134302
 20
62.9889372294621
 10
162.688124134302
 20
62.9889372294621
 10
162.15948211318241
 20
62.51616715880496
 10
162.15948211318241
 20
62.51616715880496
 10
161.6708731046914
 20
62.118416082658
 10
161.6708731046914
 20
62.118416082658
 10
160.5885077334045
 20
61.4048525836171
 10
160.5885077334045
 20
61.4048525836171
 10
159.38070825403921
 20
60.89131108167035
 10
159.38070825403921
 20
60.89131108167035
 10
157.61262328466759
 20
60.50661824511749
 10
157.61262328466759
 20
60.50661824511749
 10
155.73165470278249
 20
60.34907368252441
 10
155.73165470278249
 20
60.34907368252441
 10
153.97140827319009
 20
60.34744568409781
 10
153.97140827319009
 20
60.34744568409781
 10
153.33699698290221
 20
60.3751454619543
 10
153.33699698290221
 20
60.3751454619543
 10
152.711551162511
 20
60.41298980879051
 10
152.711551162511
 20
60.41298980879051
 10
152.10023570349799
 20
60.45644097829623
 10
152.10023570349799
 20
60.45644097829623
 10
151.38592461413131
 20
60.50903388446582
 10
151.38592461413131
 20
60.50903388446582
 10
150.77466405472151
 20
60.55402712857736
 10
150.77466405472151
 20
60.55402712857736
 10
150.09298851257549
 20
60.60400340760512
 10
150.09298851257549
 20
60.60400340760512
 10
149.3408979914187
 20
60.65896272248043
 10
149.3408979914187
 20
60.65896272248043
 10
147.47684912300099
 20
60.79498957710726
 10
147.47684912300099
 20
60.79498957710726
 10
146.08311456358419
 20
60.89670296067757
 10
146.08311456358419
 20
60.89670296067757
 10
146.00813487461201
 20
60.90217524076266
  0
LWPOLYLINE
  5
513
100
AcDbEntity
  8
0
  6
CONTINUOUS
 62
             3
100
AcDbPolyline
 90
       30
 70
             0
 10
88.94947766429173
 20
104.5167399566473
 10
89.5790340929328
 20
104.85413667055229
 10
89.5790340929328
 20
104.85413667055229
 10
90.22307853317248
 20
105.1865424984918
 10
90.22307853317248
 20
105.1865424984918
 10
90.92758771321164
 20
105.5213983381019
 10
90.92758771321164
 20
105.5213983381019
 10
91.57297609290467
 20
105.7921217918248
 10
91.57297609290467
 20
105.7921217918248
 10
92.55839971369491
 20
106.120692701623
 10
92.55839971369491
 20
106.120692701623
 10
93.55769776469455
 20
106.3354126024843
 10
93.55769776469455
 20
106.3354126024843
 10
94.62580311214911
 20
106.4253361081557
 10
94.62580311214911
 20
106.4253361081557
 10
96.12109237453328
 20
106.35306552200031
 10
96.12109237453328
 20
106.35306552200031
 10
97.80706195449815
 20
106.0759594399334
 10
97.80706195449815
 20
106.0759594399334
 10
99.12012591129528
 20
105.7561369553061
 10
99.12012591129528
 20
105.7561369553061
 10
100.4715939714609
 20
105.3480070071147
 10
100.4715939714609
 20
105.3480070071147
 10
101.40768903410419
 20
105.02364161292481
 10
101.40768903410419
 20
105.02364161292481
 10
102.22657994469991
 20
104.7211271492617
 10
102.22657994469991
 20
104.7211271492617
 10
103.168016943246
 20
104.3677916793005
 10
103.168016943246
 20
104.3677916793005
 10
104.0604610024987
 20
104.0330011589305
  0
LWPOLYLINE
  5
511
100
AcDbEntity
  8
0
  6
CONTINUOUS
 62
             3
100
AcDbPolyline
 90
       38
 70
             0
 10
108.5733980230092
 20
117.72301528843499
 10
109.2738599843382
 20
117.6674206141235
 10
109.2738599843382
 20
117.6674206141235
 10
109.9606190948783
 20
117.6022088970841
 10
109.9606190948783
 20
117.6022088970841
 10
110.664101774901
 20
117.5122864708157
 10
110.664101774901
 20
117.5122864708157
 10
111.2846728331445
 20
117.40349198652819
 10
111.2846728331445
 20
117.40349198652819
 10
112.5327467239498
 20
117.05277953537561
 10
112.5327467239498
 20
117.05277953537561
 10
113.7117959513365
 20
116.4762837501095
 10
113.7117959513365
 20
116.4762837501095
 10
115.1603768124281
 20
115.39197452513881
 10
115.1603768124281
 20
115.39197452513881
 10
116.5112135215698
 20
114.0736030662284
 10
116.5112135215698
 20
114.0736030662284
 10
117.665160144776
 20
112.7443636875452
 10
117.665160144776
 20
112.7443636875452
 10
118.0596770933865
 20
112.2467681314648
 10
118.0596770933865
 20
112.2467681314648
 10
118.44065615451321
 20
111.7493049386741
 10
118.44065615451321
 20
111.7493049386741
 10
118.8081444419025
 20
111.2588490793334
 10
118.8081444419025
 20
111.2588490793334
 10
119.2361716619729
 20
110.684567746319
 10
119.2361716619729
 20
110.684567746319
 10
119.60245857304319
 20
110.1931435275675
 10
119.60245857304319
 20
110.1931435275675
 10
120.01109157419189
 20
109.64524002613879
 10
120.01109157419189
 20
109.64524002613879
 10
120.46207064306719
 20
109.0408572411017
 10
120.46207064306719
 20
109.0408572411017
 10
121.57996083340041
 20
107.5430244268702
 10
121.57996083340041
 20
107.5430244268702
 10
122.4157930343448
 20
106.4231020115168
 10
122.4157930343448
 20
106.4231020115168
 10
122.4607585846483
 20
106.36285260560371
  0
LWPOLYLINE
  5
50F
100
AcDbEntity
  8
0
  6
CONTINUOUS
 62
             3
100
AcDbPolyline
 90
        4
 70
             0
 10
110.0309345229565
 20
107.6695426447169
 10
113.1625920637547
 20
106.4961367394627
 10
113.1625920637547
 20
106.4961367394627
 10
117.3584938748776
 20
104.92699104695041
  0
LWPOLYLINE
  5
50D
100
AcDbEntity
  8
0
  6
CONTINUOUS
 62
             3
100
AcDbPolyline
 90
       10
 70
             0
 10
117.5607927023469
 20
103.99759010745601
 10
117.2878861344455
 20
104.0994388382734
 10
117.2878861344455
 20
104.0994388382734
 10
115.0922403737007
 20
104.91973072624219
 10
115.0922403737007
 20
104.91973072624219
 10
112.8970758720337
 20
105.741312161632
 10
112.8970758720337
 20
105.741312161632
 10
110.628207302749
 20
106.5913862572835
 10
110.628207302749
 20
106.5913862572835
 10
109.0438235431014
 20
107.1851019585357
  0
LWPOLYLINE
  5
50B
100
AcDbEntity
  8
0
  6
CONTINUOUS
 62
             3
100
AcDbPolyline
 90
        8
 70
             0
 10
151.27651538243879
 20
76.19473781956745
 10
151.28439387223111
 20
76.06143820712728
 10
151.28439387223111
 20
76.06143820712728
 10
151.3273018217682
 20
75.93497925771786
 10
151.3273018217682
 20
75.93497925771786
 10
151.4021762638389
 20
75.82438817674679
 10
151.4021762638389
 20
75.82438817674679
 10
151.45476506194461
 20
75.77355390655262
  0
LWPOLYLINE
  5
509
100
AcDbEntity
  8
0
  6
CONTINUOUS
 62
             3
100
AcDbPolyline
 90
        6
 70
             0
 10
115.10232619485249
 20
52.16779678276191
 10
115.08776120385519
 20
52.17708078546831
 10
115.08776120385519
 20
52.17708078546831
 10
115.0389970942436
 20
52.20338703839491
 10
115.0389970942436
 20
52.20338703839491
 10
114.9876204236447
 20
52.22413148599131
  0
LWPOLYLINE
  5
507
100
AcDbEntity
  8
0
  6
CONTINUOUS
 62
             3
100
AcDbPolyline
 90
        6
 70
             0
 10
102.4599330640434
 20
60.99749308785809
 10
102.45269953376039
 20
61.01317771299196
 10
102.45269953376039
 20
61.01317771299196
 10
102.3534065513908
 20
61.1047605281548
 10
102.3534065513908
 20
61.1047605281548
 10
102.3214010327159
 20
61.14998819547159
  0
LWPOLYLINE
  5
505
100
AcDbEntity
  8
0
  6
CONTINUOUS
 62
             3
100
AcDbPolyline
 90
        6
 70
             0
 10
99.2770032241045
 20
90.63078422340018
 10
99.28826554408656
 20
90.64387970658405
 10
99.28826554408656
 20
90.64387970658405
 10
99.32124389252053
 20
90.68840369450314
 10
99.32124389252053
 20
90.68840369450314
 10
99.34908885425315
 20
90.73630518613769
  0
LWPOLYLINE
  5
503
100
AcDbEntity
  8
0
  6
CONTINUOUS
 62
             3
100
AcDbPolyline
 90
        6
 70
             0
 10
150.92163760131589
 20
73.3058946175353
 10
150.9145209035872
 20
73.29015663227452
 10
150.9145209035872
 20
73.29015663227452
 10
150.89542227154959
 20
73.23814510329081
 10
150.89542227154959
 20
73.23814510329081
 10
150.8822006314098
 20
73.18433912618471
  0
LWPOLYLINE
  5
501
100
AcDbEntity
  8
0
  6
CONTINUOUS
 62
             3
100
AcDbPolyline
 90
        4
 70
             0
 10
159.75874476423849
 20
53.69779167564971
 10
159.75888530454031
 20
53.6979969251753
 10
159.75888530454031
 20
53.6979969251753
 10
159.7612857623993
 20
53.7015069337414
  0
LWPOLYLINE
  5
4FF
100
AcDbEntity
  8
0
  6
CONTINUOUS
 62
             3
100
AcDbPolyline
 90
        4
 70
             0
 10
84.6336711413263
 20
59.4400282591434
 10
84.63377863457787
 20
59.43980393240611
 10
84.63377863457787
 20
59.43980393240611
 10
84.63561815312492
 20
59.4359700703846
  0
LWPOLYLINE
  5
4FD
100
AcDbEntity
  8
0
  6
CONTINUOUS
 62
             3
100
AcDbPolyline
 90
        4
 70
             0
 10
98.5135656214355
 20
113.61268726325051
 10
98.51336336424934
 20
113.61254245655989
 10
98.51336336424934
 20
113.61254245655989
 10
98.50990717402087
 20
113.6100651319922
  0
LWPOLYLINE
  5
4FB
100
AcDbEntity
  8
0
  6
CONTINUOUS
 62
             3
100
AcDbPolyline
 90
        4
 70
             0
 10
151.05870076185451
 20
82.27386319971097
 10
154.72088594278679
 20
82.63915526548786
 10
154.72088594278679
 20
82.63915526548786
 10
156.72327462127791
 20
82.90452139227105
  0
LWPOLYLINE
  5
4F9
100
AcDbEntity
  8
0
  6
CONTINUOUS
 62
             3
100
AcDbPolyline
 90
        4
 70
             0
 10
161.55626749163849
 20
56.5582400239856
 10
159.9859235129355
 20
58.6232592711077
 10
159.9859235129355
 20
58.6232592711077
 10
159.3460856146215
 20
59.3434541361259
  0
LWPOLYLINE
  5
4F7
100
AcDbEntity
  8
0
  6
CONTINUOUS
 62
             3
100
AcDbPolyline
 90
        4
 70
             0
 10
153.83022309383739
 20
64.40789085122211
 10
153.3589969045519
 20
64.78241234885914
 10
153.3589969045519
 20
64.78241234885914
 10
149.10099254465089
 20
67.49917367713911
  0
LWPOLYLINE
  5
4F5
100
AcDbEntity
  8
0
  6
CONTINUOUS
 62
             3
100
AcDbPolyline
 90
       10
 70
             0
 10
113.7312970227598
 20
52.68645162282901
 10
112.21655664136991
 20
49.332260187328
 10
112.21655664136991
 20
49.332260187328
 10
110.8190643443762
 20
45.9502171451078
 10
110.8190643443762
 20
45.9502171451078
 10
109.85783283329
 20
43.8579039672242
 10
109.85783283329
 20
43.8579039672242
 10
108.74878679132451
 20
41.8910475425274
 10
108.74878679132451
 20
41.8910475425274
 10
108.4744060515462
 20
41.53746056797371
  0
LWPOLYLINE
  5
4F3
100
AcDbEntity
  8
0
  6
CONTINUOUS
 62
             3
100
AcDbPolyline
 90
        4
 70
             0
 10
85.29907476446019
 20
86.87970766013874
 10
83.48891087165463
 20
87.83455045575661
 10
83.48891087165463
 20
87.83455045575661
 10
81.71388363382206
 20
89.04793171639008
  0
LWPOLYLINE
  5
4F1
100
AcDbEntity
  8
0
  6
CONTINUOUS
 62
             3
100
AcDbPolyline
 90
       12
 70
             0
 10
133.22145151263459
 20
49.7194282799811
 10
133.53076288393129
 20
48.618740867436
 10
133.53076288393129
 20
48.618740867436
 10
134.63415703466521
 20
45.12965485228611
 10
134.63415703466521
 20
45.12965485228611
 10
135.24272396332009
 20
42.90898226442201
 10
135.24272396332009
 20
42.90898226442201
 10
135.65741635403029
 20
40.6894017761425
 10
135.65741635403029
 20
40.6894017761425
 10
135.7407473540901
 20
38.50913910249631
 10
135.7407473540901
 20
38.50913910249631
 10
135.63842284223429
 20
37.16580017151701
  0
LWPOLYLINE
  5
4EF
100
AcDbEntity
  8
0
  6
CONTINUOUS
 62
             3
100
AcDbPolyline
 90
       10
 70
             0
 10
124.63203410348279
 20
105.8948306381555
 10
124.8969443432091
 20
109.414935705796
 10
124.8969443432091
 20
109.414935705796
 10
125.0534306942521
 20
113.0709871133642
 10
125.0534306942521
 20
113.0709871133642
 10
125.2410796015559
 20
115.3658789057137
 10
125.2410796015559
 20
115.3658789057137
 10
125.6105374648272
 20
117.5934354593829
 10
125.6105374648272
 20
117.5934354593829
 10
126.1942613824307
 20
119.410303957373
  0
LWPOLYLINE
  5
4ED
100
AcDbEntity
  8
0
  6
CONTINUOUS
 62
             3
100
AcDbPolyline
 90
        8
 70
             0
 10
142.08947643181671
 20
98.78103800638033
 10
144.68170868149389
 20
101.4545589923711
 10
144.68170868149389
 20
101.4545589923711
 10
147.15164873293031
 20
104.154669364527
 10
147.15164873293031
 20
104.154669364527
 10
148.77052414333809
 20
105.7920400794448
 10
148.77052414333809
 20
105.7920400794448
 10
149.81871211445321
 20
106.68989919273569
  0
LWPOLYLINE
  5
4EB
100
AcDbEntity
  8
0
  6
CONTINUOUS
 62
             3
100
AcDbPolyline
 90
       14
 70
             0
 10
115.27262526294579
 20
51.97357686756561
 10
115.27291623419509
 20
51.97288642226171
 10
115.27291623419509
 20
51.97288642226171
 10
115.2703322648107
 20
51.97842075078201
 10
115.2703322648107
 20
51.97842075078201
 10
115.26464274442181
 20
51.9897053545193
 10
115.26464274442181
 20
51.9897053545193
 10
115.2509776121973
 20
52.0138112693877
 10
115.2509776121973
 20
52.0138112693877
 10
115.21696852436649
 20
52.0625824002401
 10
115.21696852436649
 20
52.0625824002401
 10
115.1555724247395
 20
52.1270774422066
 10
115.1555724247395
 20
52.1270774422066
 10
115.1005710541307
 20
52.16550215760631
  0
LWPOLYLINE
  5
4E9
100
AcDbEntity
  8
0
  6
CONTINUOUS
 62
             3
100
AcDbPolyline
 90
       14
 70
             0
 10
99.0605241014658
 20
90.48985892122997
 10
99.05979927173243
 20
90.48966917449994
 10
99.05979927173243
 20
90.48966917449994
 10
99.06564500471936
 20
90.49143923314674
 10
99.06564500471936
 20
90.49143923314674
 10
99.07762445425973
 20
90.49546486752493
 10
99.07762445425973
 20
90.49546486752493
 10
99.10342975249873
 20
90.50556027757389
 10
99.10342975249873
 20
90.50556027757389
 10
99.15654446473705
 20
90.53228234740359
 10
99.15654446473705
 20
90.53228234740359
 10
99.22912062248574
 20
90.58387492651505
 10
99.22912062248574
 20
90.58387492651505
 10
99.27498173257695
 20
90.63284805843992
  0
LWPOLYLINE
  5
4E7
100
AcDbEntity
  8
0
  6
CONTINUOUS
 62
             3
100
AcDbPolyline
 90
       14
 70
             0
 10
151.0896445541679
 20
73.50210067218555
 10
151.0902865632473
 20
73.50248693915469
 10
151.0902865632473
 20
73.50248693915469
 10
151.08517630314819
 20
73.4991416461618
 10
151.08517630314819
 20
73.4991416461618
 10
151.0748162633775
 20
73.49190407952679
 10
151.0748162633775
 20
73.49190407952679
 10
151.05290046250809
 20
73.47494741024835
 10
151.05290046250809
 20
73.47494741024835
 10
151.00946574202169
 20
73.43434362912936
 10
151.00946574202169
 20
73.43434362912936
 10
150.95436474224911
 20
73.36439384667588
 10
150.95436474224911
 20
73.36439384667588
 10
150.92415865427239
 20
73.30448390132202
  0
LWPOLYLINE
  5
4E5
100
AcDbEntity
  8
0
  6
CONTINUOUS
 62
             3
100
AcDbPolyline
 90
        4
 70
             0
 10
102.44364025360331
 20
98.64444091877354
 10
103.5252788915335
 20
97.29264157599224
 10
103.5252788915335
 20
97.29264157599224
 10
103.79759614458671
 20
97.01212140599651
  0
LWPOLYLINE
  5
4E3
100
AcDbEntity
  8
0
  6
CONTINUOUS
 62
             3
100
AcDbPolyline
 90
        4
 70
             0
 10
94.34701581215845
 20
80.11215333136184
 10
96.0445189542173
 20
79.77187886981679
 10
96.0445189542173
 20
79.77187886981679
 10
96.44709747201191
 20
79.71099216172857
  0
LWPOLYLINE
  5
4E1
102
{ACAD_REACTORS
330
5EA
330
5EA
330
5EA
330
5EA
330
5EA
330
5EA
330
5EA
330
5EA
330
5EA
330
5EA
330
5EA
330
5EA
102
}
100
AcDbEntity
  8
___C_____1
  6
CONTINUOUS
 62
             2
100
AcDbPolyline
 90
       24
 70
             1
 10
120.0447219117581
 20
88.26248882392807
 10
120.0447219117581
 20
89.46182960512502
 10
120.0447219117581
 20
89.46182960512502
 10
117.16129582291831
 20
89.46182960512502
 10
117.16129582291831
 20
89.46182960512502
 10
117.16129582291831
 20
90.65940140055878
 10
117.16129582291831
 20
90.65940140055878
 10
120.0447219117581
 20
90.65940140055878
 10
120.0447219117581
 20
90.65940140055878
 10
120.0447219117581
 20
91.85825976411266
 10
120.0447219117581
 20
91.85825976411266
 10
117.16129582291831
 20
91.85825976411266
 10
117.16129582291831
 20
91.85825976411266
 10
117.16129582291831
 20
93.0547056725101
 10
117.16129582291831
 20
93.0547056725101
 10
119.5044765948354
 20
93.0547056725101
 10
119.5044765948354
 20
93.0547056725101
 10
120.2322445913254
 20
94.25497935673607
 10
120.2322445913254
 20
94.25497935673607
 10
115.6203453532456
 20
94.25208448300523
 10
115.6203453532456
 20
94.25208448300523
 10
115.6203453532456
 20
88.25866114123178
 10
115.6203453532456
 20
88.25866114123178
 10
120.0447219117581
 20
88.26248882392807
  0
LWPOLYLINE
  5
4DF
102
{ACAD_REACTORS
330
5EB
330
5EB
330
5EB
330
5EB
102
}
100
AcDbEntity
  8
___C_____1
  6
CONTINUOUS
 62
             2
100
AcDbPolyline
 90
        8
 70
             1
 10
131.18744320338951
 20
91.53477510957433
 10
129.84686532160629
 20
94.24729187189055
 10
129.84686532160629
 20
94.24729187189055
 10
129.37049994161711
 20
94.24729187189055
 10
129.37049994161711
 20
94.24729187189055
 10
130.947555764675
 20
91.05837750861807
 10
130.947555764675
 20
91.05837750861807
 10
131.18744320338951
 20
91.53477510957433
  0
LWPOLYLINE
  5
4DD
102
{ACAD_REACTORS
330
5EC
330
5EC
330
5EC
330
5EC
102
}
100
AcDbEntity
  8
___C_____1
  6
CONTINUOUS
 62
             2
100
AcDbPolyline
 90
        8
 70
             1
 10
130.32226579180349
 20
94.24729187189055
 10
131.42707333257781
 20
92.01110838128639
 10
131.42707333257781
 20
92.01110838128639
 10
131.73727374440421
 20
92.62967579214288
 10
131.73727374440421
 20
92.62967579214288
 10
130.9381635217963
 20
94.24729187189055
 10
130.9381635217963
 20
94.24729187189055
 10
130.32226579180349
 20
94.24729187189055
  0
LWPOLYLINE
  5
4DB
102
{ACAD_REACTORS
330
5ED
330
5ED
330
5ED
102
}
100
AcDbEntity
  8
___C_____1
  6
CONTINUOUS
 62
             2
100
AcDbPolyline
 90
        6
 70
             1
 10
131.41279204478849
 20
94.24729187189055
 10
131.97619626215089
 20
93.10652369222058
 10
131.97619626215089
 20
93.10652369222058
 10
132.548992722392
 20
94.24729187189055
 10
132.548992722392
 20
94.24729187189055
 10
131.41279204478849
 20
94.24729187189055
  0
LWPOLYLINE
  5
4D9
102
{ACAD_REACTORS
330
5EE
330
5EE
330
5EE
330
5EE
102
}
100
AcDbEntity
  8
___C_____1
  6
CONTINUOUS
 62
             2
100
AcDbPolyline
 90
        8
 70
             1
 10
128.0176349534689
 20
94.24729187189055
 10
130.27376082456101
 20
89.70599503310783
 10
130.27376082456101
 20
89.70599503310783
 10
130.66315181469909
 20
90.48612789398445
 10
130.66315181469909
 20
90.48612789398445
 10
128.78850423461191
 20
94.24729187189055
 10
128.78850423461191
 20
94.24729187189055
 10
128.0176349534689
 20
94.24729187189055
  0
LWPOLYLINE
  5
4D7
102
{ACAD_REACTORS
330
5EF
330
5EF
330
5EF
330
5EF
102
}
100
AcDbEntity
  8
___C_____1
  6
CONTINUOUS
 62
             2
100
AcDbPolyline
 90
        8
 70
             1
 10
129.95461848294721
 20
89.06571616100533
 10
127.3513023025392
 20
94.24729187189055
 10
127.3513023025392
 20
94.24729187189055
 10
125.5263821213542
 20
94.24729187189055
 10
125.5263821213542
 20
94.24729187189055
 10
129.03733361428959
 20
87.20949920414401
 10
129.03733361428959
 20
87.20949920414401
 10
129.95461848294721
 20
89.06571616100533
  0
ARC
  5
4D5
100
AcDbEntity
  8
1
  6
CONTINUOUS
 62
             3
100
AcDbCircle
 10
83.15384887447939
 20
115.3204756673278
 40
1.19999999925494
100
AcDbArc
 50
0.0
 51
90.0
  0
SPLINE
  5
4D4
102
{ACAD_REACTORS
330
5E8
102
}
100
AcDbEntity
  8
___C_____1
  6
CONTINUOUS
 62
             2
100
AcDbSpline
210
0.0
220
0.0
230
1.0
 70
             1
 71
             3
 72
            53
 73
            49
 74
            67
 42
0.00000000001
 43
0.00000000001
 44
0.00000000001
 40
0.0
 40
0.0
 40
0.0
 40
0.0
 40
1.0
 40
1.0
 40
1.0
 40
2.0
 40
2.0
 40
2.0
 40
3.0
 40
3.0
 40
3.0
 40
4.0
 40
4.0
 40
4.0
 40
5.0
 40
5.0
 40
5.0
 40
6.0
 40
6.0
 40
6.0
 40
7.0
 40
7.0
 40
7.0
 40
8.0
 40
8.0
 40
8.0
 40
9.0
 40
9.0
 40
9.0
 40
10.0
 40
10.0
 40
10.0
 40
11.0
 40
11.0
 40
11.0
 40
12.0
 40
12.0
 40
12.0
 40
13.0
 40
13.0
 40
13.0
 40
14.0
 40
14.0
 40
14.0
 40
15.0
 40
15.0
 40
15.0
 40
16.0
 40
16.0
 40
16.0
 40
16.0
 10
111.3534330829083
 20
92.487473798528441
 30
0.0
 10
111.33823506450641
 20
91.862119534596928
 30
0.0
 10
111.97779022446259
 20
91.849124826103576
 30
0.0
 10
111.97779022446259
 20
91.849124826103576
 30
0.0
 10
111.97779022446259
 20
91.849124826103576
 30
0.0
 10
113.1988264313935
 20
91.862119534596928
 30
0.0
 10
113.46857921323171
 20
91.849124826103576
 30
0.0
 10
113.7383480734228
 20
91.833685568146535
 30
0.0
 10
115.17294459334001
 20
91.649765411935874
 30
0.0
 10
115.25805350309599
 20
90.101111376270779
 30
0.0
 10
115.35445236331211
 20
88.356507429465779
 30
0.0
 10
113.79499085164061
 20
88.254994310982653
 30
0.0
 10
113.79499085164061
 20
88.254994310982653
 30
0.0
 10
113.79499085164061
 20
88.254994310982653
 30
0.0
 10
109.99526088228809
 20
88.254994310982653
 30
0.0
 10
109.99526088228809
 20
88.254994310982653
 30
0.0
 10
109.99526088228809
 20
88.254994310982653
 30
0.0
 10
109.99526088228809
 20
89.438670728899666
 30
0.0
 10
109.99526088228809
 20
89.438670728899666
 30
0.0
 10
109.99526088228809
 20
89.438670728899666
 30
0.0
 10
113.0905747219025
 20
89.438670728899666
 30
0.0
 10
113.0905747219025
 20
89.438670728899666
 30
0.0
 10
113.0905747219025
 20
89.438670728899666
 30
0.0
 10
113.7665247126519
 20
89.433331318743654
 30
0.0
 10
113.7665247126519
 20
90.072677410751709
 30
0.0
 10
113.7665247126519
 20
90.714403721116611
 30
0.0
 10
113.0852835617064
 20
90.669565543145069
 30
0.0
 10
113.0852835617064
 20
90.669565543145069
 30
0.0
 10
112.5035773619114
 20
90.669565543145069
 30
0.0
 10
111.1832474312781
 20
90.669565543145069
 30
0.0
 10
111.1832474312781
 20
90.669565543145069
 30
0.0
 10
110.9971400416492
 20
90.698514150999614
 30
0.0
 10
109.7768436326681
 20
90.796842923000582
 30
0.0
 10
109.8047951228021
 20
92.515457451887556
 30
0.0
 10
109.833470332533
 20
94.233782495916017
 30
0.0
 10
111.4838465630113
 20
94.254979311101266
 30
0.0
 10
111.4838465630113
 20
94.254979311101266
 30
0.0
 10
111.4838465630113
 20
94.254979311101266
 30
0.0
 10
115.3332555546461
 20
94.254979311101266
 30
0.0
 10
115.3332555546461
 20
94.254979311101266
 30
0.0
 10
115.3332555546461
 20
94.254979311101266
 30
0.0
 10
114.5799323647319
 20
93.065802657589444
 30
0.0
 10
114.5799323647319
 20
93.065802657589444
 30
0.0
 10
114.5799323647319
 20
93.065802657589444
 30
0.0
 10
111.96310685491549
 20
93.065802657589444
 30
0.0
 10
111.96310685491549
 20
93.065802657589444
 30
0.0
 10
111.96310685491549
 20
93.065802657589444
 30
0.0
 10
111.36620263299331
 20
93.112570741757878
 30
0.0
 10
111.3534330829083
 20
92.487473798528441
 30
0.0
 11
111.3534330829083
 21
92.487473798528441
 31
0.0
 11
111.50854877809562
 21
92.044040688374665
 31
0.0
 11
111.81254251700736
 21
91.875655093636354
 31
0.0
 11
111.97779022446259
 21
91.849124826103576
 31
0.0
 11
112.17279201901177
 21
91.85095220698544
 31
0.0
 11
112.62202742565782
 21
91.853997841788583
 31
0.0
 11
113.12184147889855
 21
91.854606968749209
 31
0.0
 11
113.46857921323171
 21
91.849124826103576
 31
0.0
 11
113.85002486848167
 21
91.787263761381965
 31
0.0
 11
114.43256383957701
 21
91.550073642827698
 31
0.0
 11
114.98047906996577
 21
91.025405753453157
 31
0.0
 11
115.25805350309599
 21
90.101111376270779
 31
0.0
 11
115.07011823295977
 21
89.076650794761136
 31
0.0
 11
114.56267174994933
 21
88.523826363574841
 31
0.0
 11
114.03715048064839
 21
88.298115172414469
 31
0.0
 11
113.79499085164061
 21
88.254994310982653
 31
0.0
 11
113.5135293724293
 21
88.254994310982653
 31
0.0
 11
112.80987567440107
 21
88.254994310982653
 31
0.0
 11
111.89512586696435
 21
88.254994310982653
 31
0.0
 11
110.98037605952763
 21
88.254994310982653
 31
0.0
 11
110.2767223614994
 21
88.254994310982653
 31
0.0
 11
109.99526088228809
 21
88.254994310982653
 31
0.0
 11
109.99526088228808
 21
88.439943751282172
 31
0.0
 11
109.99526088228809
 21
88.846832519941159
 31
0.0
 11
109.99526088228808
 21
89.253721288600133
 31
0.0
 11
109.99526088228809
 21
89.438670728899666
 31
0.0
 11
110.317173521608
 21
89.438670728899652
 31
0.0
 11
111.08481135383238
 21
89.438670728899666
 31
0.0
 11
112.00102425035823
 21
89.438670728899666
 31
0.0
 11
112.76866208258261
 21
89.438670728899666
 31
0.0
 11
113.0905747219025
 21
89.438670728899666
 31
0.0
 11
113.26582101580051
 21
89.460965922266922
 31
0.0
 11
113.59127841875392
 21
89.624151489379088
 31
0.0
 11
113.7665247126519
 21
90.072677410751709
 31
0.0
 11
113.58990663648085
 21
90.512637879312166
 31
0.0
 11
113.26190163787746
 21
90.65742261482788
 31
0.0
 11
113.0852835617064
 21
90.669565543145069
 31
0.0
 11
112.54268311328846
 21
90.669565543145055
 31
0.0
 11
111.91612567156913
 21
90.669565543145069
 31
0.0
 11
111.39863814231134
 21
90.669565543145069
 31
0.0
 11
111.1832474312781
 21
90.669565543145069
 31
0.0
 11
110.88541952477894
 21
90.728518679699974
 31
0.0
 11
110.41374919712902
 21
90.958886777129152
 31
0.0
 11
109.98221490943465
 21
91.506067234751896
 31
0.0
 11
109.8047951228021
 21
92.515457451887556
 31
0.0
 11
110.07924426443999
 21
93.512176120339191
 31
0.0
 11
110.65507404655578
 21
94.029590273005084
 31
0.0
 11
111.22552722684702
 21
94.224818479915626
 31
0.0
 11
111.4838465630113
 21
94.254979311101266
 31
0.0
 11
111.76898796979906
 21
94.254979311101266
 31
0.0
 11
112.48184148676849
 21
94.25497931110128
 31
0.0
 11
113.40855105882871
 21
94.254979311101266
 31
0.0
 11
114.33526063088894
 21
94.254979311101266
 31
0.0
 11
115.04811414785834
 21
94.254979311101266
 31
0.0
 11
115.3332555546461
 21
94.254979311101266
 31
0.0
 11
115.215548806222
 21
94.06917045899003
 31
0.0
 11
114.956593959689
 21
93.660390984345355
 31
0.0
 11
114.69763911315599
 21
93.251611509700666
 31
0.0
 11
114.5799323647319
 21
93.065802657589444
 31
0.0
 11
114.30778251171098
 21
93.065802657589444
 31
0.0
 11
113.65880978527655
 21
93.065802657589458
 31
0.0
 11
112.88422943437088
 21
93.065802657589444
 31
0.0
 11
112.2352567079364
 21
93.065802657589444
 31
0.0
 11
111.96310685491549
 21
93.065802657589444
 31
0.0
 11
111.80788096219177
 21
93.054775977809797
 31
0.0
 11
111.51717200902203
 21
92.915231773794375
 31
0.0
 11
111.3534330829083
 21
92.487473798528441
 31
0.0
  0
SPLINE
  5
4D3
102
{ACAD_REACTORS
330
5E7
102
}
100
AcDbEntity
  8
___C_____1
  6
CONTINUOUS
 62
             2
100
AcDbSpline
210
0.0
220
0.0
230
1.0
 70
             1
 71
             3
 72
            44
 73
            40
 74
            65
 42
0.00000000001
 43
0.00000000001
 44
0.00000000001
 40
0.0
 40
0.0
 40
0.0
 40
0.0
 40
1.0
 40
1.0
 40
1.0
 40
2.0
 40
2.0
 40
2.0
 40
3.0
 40
3.0
 40
3.0
 40
4.0
 40
4.0
 40
4.0
 40
5.0
 40
5.0
 40
5.0
 40
6.0
 40
6.0
 40
6.0
 40
7.0
 40
7.0
 40
7.0
 40
8.0
 40
8.0
 40
8.0
 40
9.0
 40
9.0
 40
9.0
 40
10.0
 40
10.0
 40
10.0
 40
11.0
 40
11.0
 40
11.0
 40
12.0
 40
12.0
 40
12.0
 40
13.0
 40
13.0
 40
13.0
 40
13.0
 10
125.9173812932371
 20
88.258661134712526
 30
0.0
 10
125.9173812932371
 20
88.258661134712526
 30
0.0
 10
124.0630942947267
 20
88.258661134712526
 30
0.0
 10
124.0630942947267
 20
88.258661134712526
 30
0.0
 10
124.0630942947267
 20
88.258661134712526
 30
0.0
 10
121.9436058728992
 20
91.549957043104001
 30
0.0
 10
121.9436058728992
 20
91.549957043104001
 30
0.0
 10
121.9436058728992
 20
91.549957043104001
 30
0.0
 10
123.5735089919566
 20
91.549957043104001
 30
0.0
 10
123.5735089919566
 20
91.549957043104001
 30
0.0
 10
123.5735089919566
 20
91.549957043104001
 30
0.0
 10
124.3295179820656
 20
91.560539368152746
 30
0.0
 10
124.3295179820656
 20
92.306641493536659
 30
0.0
 10
124.3295179820656
 20
93.051585673898586
 30
0.0
 10
123.7019443242847
 20
93.041196340307721
 30
0.0
 10
123.5414082027076
 20
93.041196340307721
 30
0.0
 10
123.35340308314549
 20
93.041196340307721
 30
0.0
 10
122.2702426641284
 20
93.041196340307721
 30
0.0
 10
121.9436058728992
 20
93.041196340307721
 30
0.0
 10
121.9436058728992
 20
93.041196340307721
 30
0.0
 10
121.9436058728992
 20
88.258661134712526
 30
0.0
 10
121.9436058728992
 20
88.258661134712526
 30
0.0
 10
121.9436058728992
 20
88.258661134712526
 30
0.0
 10
120.4031861043571
 20
88.258661134712526
 30
0.0
 10
120.4031861043571
 20
88.258661134712526
 30
0.0
 10
120.4031861043571
 20
88.258661134712526
 30
0.0
 10
120.4031861043571
 20
94.252084450408944
 30
0.0
 10
120.4031861043571
 20
94.252084450408944
 30
0.0
 10
120.4031861043571
 20
94.252084450408944
 30
0.0
 10
124.1274566940068
 20
94.254979311101266
 30
0.0
 10
124.1274566940068
 20
94.254979311101266
 30
0.0
 10
124.1274566940068
 20
94.254979311101266
 30
0.0
 10
125.8104001014529
 20
94.27694808746142
 30
0.0
 10
125.85253641298399
 20
92.390592457339295
 30
0.0
 10
125.89763191258901
 20
90.378117390520998
 30
0.0
 10
124.1484926818906
 20
90.431640150569507
 30
0.0
 10
124.1484926818906
 20
90.431640150569507
 30
0.0
 10
124.1484926818906
 20
90.431640150569507
 30
0.0
 10
125.9173812932371
 20
88.258661134712526
 30
0.0
 10
125.9173812932371
 20
88.258661134712526
 30
0.0
 11
125.9173812932371
 21
88.258661134712526
 31
0.0
 11
125.72453544539201
 21
88.25866113471254
 31
0.0
 11
125.26467226976143
 21
88.258661134712526
 31
0.0
 11
124.71580331820236
 21
88.258661134712526
 31
0.0
 11
124.25594014257177
 21
88.258661134712526
 31
0.0
 11
124.0630942947267
 21
88.258661134712526
 31
0.0
 11
123.9060951523691
 21
88.502460831630415
 31
0.0
 11
123.51359729647511
 21
89.111960073925133
 31
0.0
 11
123.00335008381295
 21
89.904309088908263
 31
0.0
 11
122.49310287115077
 21
90.696658103891394
 31
0.0
 11
122.10060501525679
 21
91.306157346186112
 31
0.0
 11
121.9436058728992
 21
91.549957043104001
 31
0.0
 11
122.19827823525191
 21
91.549957043103987
 31
0.0
 11
122.75855743242791
 21
91.549957043104001
 31
0.0
 11
123.31883662960388
 21
91.549957043104001
 31
0.0
 11
123.5735089919566
 21
91.549957043104001
 31
0.0
 11
123.76951132272559
 21
91.580334020908637
 31
0.0
 11
124.13351565129661
 21
91.77886309880941
 31
0.0
 11
124.3295179820656
 21
92.306641493536659
 31
0.0
 11
124.16086791813805
 21
92.828167941378908
 31
0.0
 11
123.81708234768654
 21
93.016299346040086
 31
0.0
 11
123.5414082027076
 21
93.041196340307721
 31
0.0
 11
123.11619127692876
 21
93.041196340307721
 31
0.0
 11
122.46124391312277
 21
93.041196340307721
 31
0.0
 11
121.9436058728992
 21
93.041196340307721
 31
0.0
 11
121.9436058728992
 21
92.776274565070665
 31
0.0
 11
121.94360587289921
 21
92.093055249985653
 31
0.0
 11
121.94360587289921
 21
91.158857410991828
 31
0.0
 11
121.94360587289918
 21
90.141000064028432
 31
0.0
 11
121.94360587289921
 21
89.206802225034608
 31
0.0
 11
121.9436058728992
 21
88.523582909949567
 31
0.0
 11
121.9436058728992
 21
88.258661134712526
 31
0.0
 11
121.70291528406449
 21
88.258661134712511
 31
0.0
 11
121.17339598862814
 21
88.258661134712526
 31
0.0
 11
120.64387669319183
 21
88.258661134712526
 31
0.0
 11
120.4031861043571
 21
88.258661134712526
 31
0.0
 11
120.40318610435709
 21
88.516191042808856
 31
0.0
 11
120.4031861043571
 21
89.195133527790077
 31
0.0
 11
120.40318610435709
 21
90.155017730694595
 31
0.0
 11
120.4031861043571
 21
91.255372792560735
 31
0.0
 11
120.4031861043571
 21
92.355727854426874
 31
0.0
 11
120.4031861043571
 21
93.315612057331379
 31
0.0
 11
120.4031861043571
 21
93.994554542312613
 31
0.0
 11
120.4031861043571
 21
94.252084450408944
 31
0.0
 11
120.67905799988671
 21
94.252298884534312
 31
0.0
 11
121.36873773871073
 21
94.252834969847711
 31
0.0
 11
122.26532139918196
 21
94.253531880755105
 31
0.0
 11
123.16190505965317
 21
94.254228791662513
 31
0.0
 11
123.85158479847719
 21
94.254764876975912
 31
0.0
 11
124.1274566940068
 21
94.254979311101266
 31
0.0
 11
124.30281989887345
 21
94.242173218801739
 31
0.0
 11
124.7225494973658
 21
94.141985560052234
 31
0.0
 11
125.22710546532259
 21
93.861762262076269
 31
0.0
 11
125.65694777858243
 21
93.308849252097431
 31
0.0
 11
125.85253641298399
 21
92.390592457339295
 31
0.0
 11
125.69263253679861
 21
91.41407099177701
 31
0.0
 11
125.27219427546849
 21
90.831652016490821
 31
0.0
 11
124.76130357912173
 21
90.541598543308794
 31
0.0
 11
124.3300423978864
 21
90.44217358405902
 31
0.0
 11
124.1484926818906
 21
90.431640150569507
 31
0.0
 11
124.33245709747065
 21
90.205650332920385
 31
0.0
 11
124.77114147308458
 21
89.666751536987846
 31
0.0
 11
125.29473250204315
 21
89.023549748294187
 31
0.0
 11
125.73341687765708
 21
88.484650952361648
 31
0.0
 11
125.9173812932371
 21
88.258661134712526
 31
0.0
  0
SPLINE
  5
4D2
100
AcDbEntity
  8
1
  6
CONTINUOUS
 62
             3
100
AcDbSpline
210
0.0
220
0.0
230
1.0
 70
             0
 71
             3
 72
             9
 73
             5
 74
             5
 42
0.00000000001
 43
0.00000000001
 44
0.00000000001
 40
0.0
 40
0.0
 40
0.0
 40
0.0
 40
4.7895562271733212
 40
15.13841909407931
 40
15.13841909407931
 40
15.13841909407931
 40
15.13841909407931
 10
94.413910011857624
 20
110.9556507082508
 30
0.0
 10
96.025948031902175
 20
110.9498780794294
 30
0.0
 10
100.88990007257451
 20
109.4870402762518
 30
0.0
 10
105.84698607316599
 20
108.6564665581883
 30
0.0
 10
109.0438235431014
 20
107.185101959467
 30
0.0
 11
94.413910011857624
 21
110.9556507082508
 31
0.0
 11
96.787407012565666
 21
110.66924907241042
 31
0.0
 11
99.113025544768277
 21
110.08752958648239
 31
0.0
 11
104.13406727632967
 21
108.86435136362563
 31
0.0
 11
109.0438235431014
 21
107.185101959467
 31
0.0
  0
SPLINE
  5
4D1
100
AcDbEntity
  8
1
  6
CONTINUOUS
 62
             3
100
AcDbSpline
210
0.0
220
0.0
230
1.0
 70
             0
 71
             3
 72
            10
 73
             6
 74
             7
 42
0.00000000001
 43
0.00000000001
 44
0.00000000001
 40
8.4905702843787232
 40
8.4905702843787232
 40
8.4905702843787232
 40
8.4905702843787232
 40
14.605342790066571
 40
19.975302473978331
 40
24.671958871879841
 40
24.671958871879841
 40
24.671958871879841
 40
24.671958871879841
 10
97.753173432409625
 20
106.2823881437854
 30
0.0
 10
99.686767912566523
 20
105.7011534372197
 30
0.0
 10
103.24588183230151
 20
104.2077900288479
 30
0.0
 10
108.45493999412641
 20
102.73182859791829
 30
0.0
 10
111.2500002822875
 20
100.7035874506311
 30
0.0
 10
111.5615954428016
 20
98.868739164978393
 30
0.0
 11
97.753173432409625
 21
106.2823881437854
 31
0.0
 11
100.63431250621717
 21
105.29266344511581
 31
0.0
 11
103.51582246822605
 21
104.23731628136034
 31
0.0
 11
106.0665918324098
 21
103.37783267570117
 31
0.0
 11
108.5449012158922
 21
102.35454333492451
 31
0.0
 11
110.46179104507119
 21
101.03546015816039
 31
0.0
 11
111.5615954428016
 21
98.868739164978393
 31
0.0
  0
SPLINE
  5
4D0
100
AcDbEntity
  8
1
  6
CONTINUOUS
 62
             3
100
AcDbSpline
210
0.0
220
0.0
230
1.0
 70
             0
 71
             3
 72
            10
 73
             6
 74
             7
 42
0.00000000001
 43
0.00000000001
 44
0.00000000001
 40
0.0
 40
0.0
 40
0.0
 40
0.0
 40
3.887783100176569
 40
5.5310345150931619
 40
8.5222868938585812
 40
8.5222868938585812
 40
8.5222868938585812
 40
8.5222868938585812
 10
89.267001661568742
 20
106.5556507078783
 30
0.0
 10
90.550858284443493
 20
106.6515206355454
 30
0.0
 10
92.403596024125676
 20
106.8950374141188
 30
0.0
 10
95.231511402040582
 20
106.5790380868913
 30
0.0
 10
96.774258374333243
 20
106.4992403933631
 30
0.0
 10
97.753173432409625
 20
106.2823881437854
 30
0.0
 11
89.267001661568742
 21
106.5556507078783
 31
0.0
 11
91.203236575908022
 21
106.71881204235878
 31
0.0
 11
93.146854134783069
 21
106.7722154851717
 31
0.0
 11
93.966184794468674
 21
106.71691336461642
 31
0.0
 11
94.784825646341375
 21
106.6405927746701
 31
0.0
 11
96.274542400096308
 21
106.50911687399989
 31
0.0
 11
97.753173432409625
 21
106.2823881437854
 31
0.0
  0
SPLINE
  5
4CF
100
AcDbEntity
  8
1
  6
CONTINUOUS
 62
             3
100
AcDbSpline
210
0.0
220
0.0
230
1.0
 70
             0
 71
             3
 72
            10
 73
             6
 74
             7
 42
0.00000000001
 43
0.00000000001
 44
0.00000000001
 40
0.0
 40
0.0
 40
0.0
 40
0.0
 40
5.3186952481758771
 40
6.0635640283369776
 40
9.6230894000131411
 40
9.6230894000131411
 40
9.6230894000131411
 40
9.6230894000131411
 10
109.0438235431014
 20
107.1851019585357
 30
0.0
 10
110.7091042540072
 20
106.62219498081519
 30
0.0
 10
112.61001179283851
 20
105.6335614142792
 30
0.0
 10
114.6813742547332
 20
103.1758953254522
 30
0.0
 10
115.30704377135621
 20
101.85920711568011
 30
0.0
 10
116.1025049231051
 20
100.9694257598223
 30
0.0
 11
109.0438235431014
 21
107.1851019585357
 31
0.0
 11
111.48577054778417
 21
106.09671278601306
 31
0.0
 11
113.585534495356
 21
104.45698983843454
 31
0.0
 11
113.83277311976612
 21
104.17821891652048
 31
0.0
 11
114.06651250272213
 21
103.88822832672548
 31
0.0
 11
115.05738561793406
 21
102.40992610100835
 31
0.0
 11
116.1025049231051
 21
100.9694257598223
 31
0.0
  0
SPLINE
  5
4CE
100
AcDbEntity
  8
1
  6
CONTINUOUS
 62
             2
100
AcDbSpline
210
0.0
220
0.0
230
1.0
 70
             0
 71
             3
 72
             9
 73
             5
 74
             5
 42
0.00000000001
 43
0.00000000001
 44
0.00000000001
 40
0.0
 40
0.0
 40
0.0
 40
0.0
 40
2.0235211735448
 40
4.2566081072518074
 40
4.2566081072518074
 40
4.2566081072518074
 40
4.2566081072518074
 10
52.177781072100437
 20
110.22609399592891
 30
0.0
 10
53.219256241461089
 20
109.6548869252057
 30
0.0
 10
52.06009079202061
 20
108.5593093667031
 30
0.0
 10
50.732610770156441
 20
107.5205752352105
 30
0.0
 10
52.177781072100437
 20
107.0260939957426
 30
0.0
 11
52.177781072100437
 21
110.22609399592891
 31
0.0
 11
52.739912114997125
 21
109.402381390922
 31
0.0
 11
52.079122713655828
 21
108.62609399618529
 31
0.0
 11
51.342727782049529
 21
107.80130633250982
 31
0.0
 11
52.177781072100437
 21
107.0260939957426
 31
0.0
  0
SPLINE
  5
4CD
100
AcDbEntity
  8
1
  6
CONTINUOUS
 62
             2
100
AcDbSpline
210
0.0
220
0.0
230
1.0
 70
             0
 71
             3
 72
             9
 73
             5
 74
             5
 42
0.00000000001
 43
0.00000000001
 44
0.00000000001
 40
0.0
 40
0.0
 40
0.0
 40
0.0
 40
2.0235211735448
 40
4.2566081072518074
 40
4.2566081072518074
 40
4.2566081072518074
 40
4.2566081072518074
 10
50.340413138856938
 20
110.22609399592891
 30
0.0
 10
51.381888311942873
 20
109.6548869252057
 30
0.0
 10
50.222722869952968
 20
108.5593093667031
 30
0.0
 10
48.895242851814082
 20
107.5205752352105
 30
0.0
 10
50.340413138856938
 20
107.0260939957426
 30
0.0
 11
50.340413138856938
 21
110.22609399592891
 31
0.0
 11
50.902544187121677
 21
109.402381390922
 31
0.0
 11
50.241754790379503
 21
108.62609399618529
 31
0.0
 11
49.505359860494906
 21
107.80130633250982
 31
0.0
 11
50.340413138856938
 21
107.0260939957426
 31
0.0
  0
CIRCLE
  5
4CC
102
{ACAD_REACTORS
330
5E9
102
}
100
AcDbEntity
  8
___C_____1
  6
CONTINUOUS
 62
             2
100
AcDbCircle
 10
135.22538807159651
 20
91.19437160211069
 40
3.33375385031098
  0
CIRCLE
  5
4CB
102
{ACAD_REACTORS
330
5E9
102
}
100
AcDbEntity
  8
___C_____1
  6
CONTINUOUS
 62
             2
100
AcDbCircle
 10
135.22538807159651
 20
91.19507930854721
 40
1.8882855810225
  0
CIRCLE
  5
4CA
100
AcDbEntity
  8
0
  6
CONTINUOUS
 62
             3
100
AcDbCircle
 10
165.10384887373439
 20
119.5091401083247
 40
2.25
  0
CIRCLE
  5
4C9
100
AcDbEntity
  8
0
  6
CONTINUOUS
 62
             3
100
AcDbCircle
 10
165.10733827120049
 20
37.0056507071332
 40
2.25
  0
CIRCLE
  5
4C8
100
AcDbEntity
  8
0
  6
CONTINUOUS
 62
             3
100
AcDbCircle
 10
82.60384887373434
 20
37.00216130873571
 40
2.25
  0
CIRCLE
  5
4C7
100
AcDbEntity
  8
0
  6
CONTINUOUS
 62
             3
100
AcDbCircle
 10
82.60035947254286
 20
119.5056507071332
 40
2.25
  0
CIRCLE
  5
4C6
100
AcDbEntity
  8
1
  6
CONTINUOUS
 62
             3
100
AcDbCircle
 10
123.8538488923608
 20
78.25565069595737
 40
23.99997730761121
  0
ARC
  5
4C5
100
AcDbEntity
  8
0
  6
CONTINUOUS
 62
             3
100
AcDbCircle
 10
126.79378852470205
 20
119.79149635909305
 40
32.02894515578856
100
AcDbArc
 50
-165.06987986812237
 51
-163.71374951176279
  0
ARC
  5
4C4
100
AcDbEntity
  8
0
  6
CONTINUOUS
 62
             3
100
AcDbCircle
 10
120.70676090614501
 20
119.44205380334
 40
22.95021584028257
100
AcDbArc
 50
-165.27886293111797
 51
-155.44966250621843
  0
ARC
  5
4C3
100
AcDbEntity
  8
0
  6
CONTINUOUS
 62
             3
100
AcDbCircle
 10
124.48944317481943
 20
76.79791887887237
 40
28.06827946833818
100
AcDbArc
 50
104.29118028846297
 51
110.5612642590963
  0
ARC
  5
4C2
100
AcDbEntity
  8
0
  6
CONTINUOUS
 62
             3
100
AcDbCircle
 10
127.04644795683593
 20
70.28622926095625
 40
36.02184150796867
100
AcDbArc
 50
107.83862909671602
 51
111.12077979981545
  0
ARC
  5
4C1
100
AcDbEntity
  8
0
  6
CONTINUOUS
 62
             3
100
AcDbCircle
 10
108.72426633455217
 20
101.21966020547141
 40
0.99999999900604
100
AcDbArc
 50
-56.62155427009608
 51
33.82251226273407
  0
ARC
  5
4C0
100
AcDbEntity
  8
0
  6
CONTINUOUS
 62
             3
100
AcDbCircle
 10
158.38545791952038
 20
43.75563628322121
 40
43.18627185838223
100
AcDbArc
 50
86.88038823385998
 51
100.93394364861106
  0
ARC
  5
4BF
100
AcDbEntity
  8
0
  6
CONTINUOUS
 62
             3
100
AcDbCircle
 10
167.38376843729159
 20
78.95956387933025
 40
36.19547846246826
100
AcDbArc
 50
121.12943209899682
 51
139.14580676376855
  0
ARC
  5
4BE
100
AcDbEntity
  8
0
  6
CONTINUOUS
 62
             3
100
AcDbCircle
 10
86.06227615262597
 20
60.76239931181259
 40
32.75780022896604
100
AcDbArc
 50
-41.95121820430858
 51
-21.68422893226576
  0
ARC
  5
4BD
100
AcDbEntity
  8
0
  6
CONTINUOUS
 62
             3
100
AcDbCircle
 10
99.31300944253692
 20
108.16805989107158
 40
28.49618030485603
100
AcDbArc
 50
-113.44447287724199
 51
-99.39091744765284
  0
ARC
  5
4BC
100
AcDbEntity
  8
0
  6
CONTINUOUS
 62
             3
100
AcDbCircle
 10
215.52582275731038
 20
-179.85238371473864
 40
271.03960563097991
100
AcDbArc
 50
115.30723836857763
 51
117.32973075574354
  0
ARC
  5
4BB
100
AcDbEntity
  8
0
  6
CONTINUOUS
 62
             3
100
AcDbCircle
 10
152.89333258995472
 20
107.93120369429099
 40
32.20052684032604
100
AcDbArc
 50
155.31991628020472
 51
174.46209927085408
  0
ARC
  5
4BA
100
AcDbEntity
  8
0
  6
CONTINUOUS
 62
             3
100
AcDbCircle
 10
107.86745905368653
 20
40.3269366750315
 40
31.05952763401113
100
AcDbArc
 50
-5.40769830637975
 51
10.20816392009806
  0
ARC
  5
4B9
100
AcDbEntity
  8
0
  6
CONTINUOUS
 62
             3
100
AcDbCircle
 10
145.82237622459746
 20
45.21818951169321
 40
16.31747141988748
100
AcDbArc
 50
31.32498502154608
 51
56.6044398622991
  0
ARC
  5
4B8
100
AcDbEntity
  8
0
  6
CONTINUOUS
 62
             3
100
AcDbCircle
 10
79.77238923627409
 20
99.44237901056673
 40
43.6728037284681
100
AcDbArc
 50
-75.13961137014169
 51
-59.62206479800155
  0
ARC
  5
4B7
100
AcDbEntity
  8
0
  6
CONTINUOUS
 62
             3
100
AcDbCircle
 10
126.33431239522859
 20
76.49716872897714
 40
40.4594889253773
100
AcDbArc
 50
-36.23120375869043
 51
-35.02480371403923
  0
ARC
  5
4B6
100
AcDbEntity
  8
0
  6
CONTINUOUS
 62
             3
100
AcDbCircle
 10
123.85585884956797
 20
78.25035919158356
 40
43.49434004354708
100
AcDbArc
 50
-69.92014231388724
 51
-54.77533544322767
  0
ARC
  5
4B5
100
AcDbEntity
  8
0
  6
CONTINUOUS
 62
             3
100
AcDbCircle
 10
123.73315603187309
 20
78.28716767145006
 40
43.37526133284371
100
AcDbArc
 50
156.35586356425375
 51
165.63576193882574
  0
ARC
  5
4B4
100
AcDbEntity
  8
0
  6
CONTINUOUS
 62
             3
100
AcDbCircle
 10
123.72970179458646
 20
78.39954384701365
 40
43.30996786566688
100
AcDbArc
 50
130.07684998910705
 51
131.32504032032409
  0
ARC
  5
4B3
100
AcDbEntity
  8
0
  6
CONTINUOUS
 62
             3
100
AcDbCircle
 10
122.12441232562567
 20
80.75645170615732
 40
40.45948920986307
100
AcDbArc
 50
123.76879677733267
 51
124.97519678904467
  0
ARC
  5
4B2
100
AcDbEntity
  8
0
  6
CONTINUOUS
 62
             3
100
AcDbCircle
 10
123.85120556873261
 20
78.30079564120013
 40
43.45477781317197
100
AcDbArc
 50
90.92700374976261
 51
108.87512113218925
  0
ARC
  5
4B1
100
AcDbEntity
  8
0
  6
CONTINUOUS
 62
             3
100
AcDbCircle
 10
123.85099290387629
 20
78.23993046524743
 40
43.48408953033584
100
AcDbArc
 50
-105.55054057481075
 51
-87.49980303351481
  0
ARC
  5
4B0
100
AcDbEntity
  8
0
  6
CONTINUOUS
 62
             3
100
AcDbCircle
 10
124.16903029938553
 20
78.45392107667031
 40
43.12776036070613
100
AcDbArc
 50
25.41325501255306
 51
39.6590553580933
  0
ARC
  5
4AF
100
AcDbEntity
  8
0
  6
CONTINUOUS
 62
             3
100
AcDbCircle
 10
136.66771218467031
 20
80.60514015637465
 40
30.4727940134231
100
AcDbArc
 50
9.94737063914349
 51
10.80016491762854
  0
ARC
  5
4AE
100
AcDbEntity
  8
0
  6
CONTINUOUS
 62
             3
100
AcDbCircle
 10
126.88432448807384
 20
78.50298613934001
 40
40.45948907263946
100
AcDbArc
 50
3.76879685624206
 51
4.97519688750435
  0
ARC
  5
4AD
100
AcDbEntity
  8
0
  6
CONTINUOUS
 62
             3
100
AcDbCircle
 10
124.90907566120262
 20
78.16910477841302
 40
42.44123307947646
100
AcDbArc
 50
-7.31800220281844
 51
-0.29808152714764
  0
ARC
  5
4AC
100
AcDbEntity
  8
0
  6
CONTINUOUS
 62
             3
100
AcDbCircle
 10
124.04848388221157
 20
78.14680035108219
 40
43.27701200739585
100
AcDbArc
 50
-29.92367518044505
 51
-22.01308042674014
  0
ARC
  5
4AB
100
AcDbEntity
  8
0
  6
CONTINUOUS
 62
             3
100
AcDbCircle
 10
123.94303375284298
 20
78.46774235931238
 40
43.26993280366305
100
AcDbArc
 50
58.14998374358707
 51
76.17924524370478
  0
ARC
  5
4AA
100
AcDbEntity
  8
0
  6
CONTINUOUS
 62
             3
100
AcDbCircle
 10
121.090727096379
 20
76.98674765236626
 40
40.45948912251961
100
AcDbArc
 50
-156.23120328593026
 51
-155.0248032571439
  0
ARC
  5
4A9
100
AcDbEntity
  8
0
  6
CONTINUOUS
 62
             3
100
AcDbCircle
 10
123.28676633180294
 20
78.11644924540251
 40
42.91608729194002
100
AcDbArc
 50
-170.95551526436606
 51
-160.32602278154224
  0
ARC
  5
4A8
100
AcDbEntity
  8
0
  6
CONTINUOUS
 62
             3
100
AcDbCircle
 10
122.63089144294744
 20
78.45409448720584
 40
42.26114294821149
100
AcDbArc
 50
170.05933479018935
 51
174.4171629090319
  0
ARC
  5
4A7
100
AcDbEntity
  8
0
  6
CONTINUOUS
 62
             3
100
AcDbCircle
 10
123.72572979411584
 20
78.10555928028015
 40
43.30269371780958
100
AcDbArc
 50
-138.19911119654381
 51
-120.18525511951339
  0
ARC
  5
4A6
100
AcDbEntity
  8
0
  6
CONTINUOUS
 62
             3
100
AcDbCircle
 10
123.8538488722599
 20
78.25565070687688
 40
44.00000000138581
100
AcDbArc
 50
91.72288489650563
 51
108.00357438083765
  0
ARC
  5
4A5
100
AcDbEntity
  8
0
  6
CONTINUOUS
 62
             3
100
AcDbCircle
 10
94.96574290731005
 20
76.48241039002147
 40
1.95525326101811
100
AcDbArc
 50
-39.75194141753908
 51
-2.81590545684067
  0
ARC
  5
4A4
100
AcDbEntity
  8
0
  6
CONTINUOUS
 62
             3
100
AcDbCircle
 10
125.77293852103072
 20
77.99283610603486
 40
29.38001637762688
100
AcDbArc
 50
158.87506673941894
 51
-174.72656789519939
  0
ARC
  5
4A3
100
AcDbEntity
  8
0
  6
CONTINUOUS
 62
             3
100
AcDbCircle
 10
123.85384887416716
 20
78.25565070985194
 40
26.99999999374716
100
AcDbArc
 50
157.9416865674406
 51
-176.03005462661272
  0
ARC
  5
4A2
100
AcDbEntity
  8
0
  6
CONTINUOUS
 62
             3
100
AcDbCircle
 10
151.0570671431461
 20
88.09708538286776
 40
1.94084876592377
100
AcDbArc
 50
156.46961832599052
 51
-166.31019230893625
  0
ARC
  5
4A1
100
AcDbEntity
  8
0
  6
CONTINUOUS
 62
             3
100
AcDbCircle
 10
123.39511407579494
 20
78.16863046711063
 40
27.951185860463
100
AcDbArc
 50
-4.04955743281204
 51
22.34880793539113
  0
ARC
  5
4A0
100
AcDbEntity
  8
0
  6
CONTINUOUS
 62
             3
100
AcDbCircle
 10
123.85384887611249
 20
78.25565068861927
 40
27.0000000012396
100
AcDbArc
 50
-5.69467702473515
 51
20.33358177442628
  0
ARC
  5
49F
100
AcDbEntity
  8
0
  6
CONTINUOUS
 62
             3
100
AcDbCircle
 10
152.07136311267985
 20
71.81834238316677
 40
1.95525326239155
100
AcDbArc
 50
123.88442260305187
 51
160.82045843049613
  0
ARC
  5
49E
100
AcDbEntity
  8
0
  6
CONTINUOUS
 62
             3
100
AcDbCircle
 10
122.54811229328845
 20
78.94002090413876
 40
28.9127728639357
100
AcDbArc
 50
-37.88097833534379
 51
-11.48261296430157
  0
ARC
  5
49D
100
AcDbEntity
  8
0
  6
CONTINUOUS
 62
             3
100
AcDbCircle
 10
123.85384887267789
 20
78.25565070490902
 40
27.00000000385809
100
AcDbArc
 50
-38.42194978030226
 51
-12.39369098446381
  0
ARC
  5
49C
100
AcDbEntity
  8
0
  6
CONTINUOUS
 62
             3
100
AcDbCircle
 10
98.59294156274186
 20
92.38199524822099
 40
1.95525326308695
100
AcDbArc
 50
-72.47921368760756
 51
-35.54317792030895
  0
ARC
  5
49B
100
AcDbEntity
  8
0
  6
CONTINUOUS
 62
             3
100
AcDbCircle
 10
124.96097129130924
 20
77.29700198477887
 40
28.92375135606782
100
AcDbArc
 50
125.91432531401902
 51
152.31269067238807
  0
ARC
  5
49A
100
AcDbEntity
  8
0
  6
CONTINUOUS
 62
             3
100
AcDbCircle
 10
123.85384887349208
 20
78.25565070686196
 40
27.00000000248742
100
AcDbArc
 50
125.2144138423845
 51
151.24267264061814
  0
ARC
  5
499
100
AcDbEntity
  8
0
  6
CONTINUOUS
 62
             3
100
AcDbCircle
 10
129.72024629946486
 20
49.91394241011294
 40
1.95525326173719
100
AcDbArc
 50
58.429877092639
 51
95.36591302026039
  0
ARC
  5
498
100
AcDbEntity
  8
0
  6
CONTINUOUS
 62
             3
100
AcDbCircle
 10
123.84307319491741
 20
80.17715883957759
 40
29.35727181466718
100
AcDbArc
 50
-102.95556963770969
 51
-76.55720426117136
  0
ARC
  5
497
100
AcDbEntity
  8
0
  6
CONTINUOUS
 62
             3
100
AcDbCircle
 10
123.853848873307
 20
78.25565070713968
 40
26.99999999830289
100
AcDbArc
 50
-103.87649524571572
 51
-77.84823645298181
  0
ARC
  5
496
100
AcDbEntity
  8
0
  6
CONTINUOUS
 62
             3
100
AcDbCircle
 10
125.18986412164722
 20
78.85750535665505
 40
28.92270333256249
100
AcDbArc
 50
-168.64701645215024
 51
-142.24865108910853
  0
ARC
  5
495
100
AcDbEntity
  8
0
  6
CONTINUOUS
 62
             3
100
AcDbCircle
 10
123.85384887041243
 20
78.25565071470695
 40
26.99999999967712
100
AcDbArc
 50
-169.33104069062949
 51
-143.30278188689519
  0
ARC
  5
494
100
AcDbEntity
  8
0
  6
CONTINUOUS
 62
             3
100
AcDbCircle
 10
100.51031376260414
 20
61.14581679338507
 40
1.95525326444598
100
AcDbArc
 50
-7.02466842052241
 51
29.91136737472801
  0
ARC
  5
493
100
AcDbEntity
  8
0
  6
CONTINUOUS
 62
             3
100
AcDbCircle
 10
141.43140953661751
 20
101.24904995848618
 40
1.95525326299229
100
AcDbArc
 50
-170.66103215267154
 51
-133.72499637208742
  0
ARC
  5
492
100
AcDbEntity
  8
0
  6
CONTINUOUS
 62
             3
100
AcDbCircle
 10
122.39053143206021
 20
76.98408764245508
 40
29.37950781463343
100
AcDbArc
 50
27.94636544842506
 51
54.34473082822931
  0
ARC
  5
491
100
AcDbEntity
  8
0
  6
CONTINUOUS
 62
             3
100
AcDbCircle
 10
123.85384887187382
 20
78.25565070934692
 40
26.9999999989067
100
AcDbArc
 50
27.03259565778519
 51
53.06085446078893
  0
ARC
  5
490
100
AcDbEntity
  8
0
  6
CONTINUOUS
 62
             3
100
AcDbCircle
 10
144.10717053830385
 20
57.59729492152722
 40
1.94257722199221
100
AcDbArc
 50
91.03223896088352
 51
128.21809654136794
  0
ARC
  5
48F
100
AcDbEntity
  8
0
  6
CONTINUOUS
 62
             3
100
AcDbCircle
 10
122.8080225380161
 20
79.86890951464508
 40
29.35765760824879
100
AcDbArc
 50
-70.2340955831783
 51
-43.83573021891738
  0
ARC
  5
48E
100
AcDbEntity
  8
0
  6
CONTINUOUS
 62
             3
100
AcDbCircle
 10
123.85384887244514
 20
78.25565070633184
 40
26.99999999862985
100
AcDbArc
 50
-71.14922251971876
 51
-45.12096371951276
  0
ARC
  5
48D
100
AcDbEntity
  8
0
  6
CONTINUOUS
 62
             3
100
AcDbCircle
 10
124.65836338049647
 20
79.48121771674406
 40
28.92182599920325
100
AcDbArc
 50
-135.93291740389265
 51
-109.53455203788046
  0
ARC
  5
48C
100
AcDbEntity
  8
0
  6
CONTINUOUS
 62
             3
100
AcDbCircle
 10
123.85384887129918
 20
78.25565070875057
 40
27.00000000034333
100
AcDbArc
 50
-136.60376797655434
 51
-110.57550917372079
  0
ARC
  5
48B
100
AcDbEntity
  8
0
  6
CONTINUOUS
 62
             3
100
AcDbCircle
 10
113.47356606949027
 20
51.24854095798217
 40
1.94563695097537
100
AcDbArc
 50
25.60800182165174
 51
62.73324281218457
  0
ARC
  5
48A
100
AcDbEntity
  8
0
  6
CONTINUOUS
 62
             3
100
AcDbCircle
 10
123.31059174787029
 20
76.38994458978505
 40
29.38656093779768
100
AcDbArc
 50
60.67935968750318
 51
87.07772506195296
  0
ARC
  5
489
100
AcDbEntity
  8
0
  6
CONTINUOUS
 62
             3
100
AcDbCircle
 10
123.85384887445089
 20
78.2556507069111
 40
27.0000000017785
100
AcDbArc
 50
59.75986838476609
 51
85.78812718050793
  0
ARC
  5
488
100
AcDbEntity
  8
0
  6
CONTINUOUS
 62
             3
100
AcDbCircle
 10
126.20986371362991
 20
107.10207582808324
 40
1.95525326287216
100
AcDbArc
 50
-137.93375925965924
 51
-100.99772347502044
  0
ARC
  5
487
100
AcDbEntity
  8
0
  6
CONTINUOUS
 62
             3
100
AcDbCircle
 10
118.49991339063898
 20
109.79956459791734
 40
5.00447914487291
100
AcDbArc
 50
-103.18403508218702
 51
-83.598400847639
  0
ARC
  5
486
100
AcDbEntity
  8
0
  6
CONTINUOUS
 62
             3
100
AcDbCircle
 10
124.62604451363447
 20
73.43969746695029
 40
32.3631815145606
100
AcDbArc
 50
93.4885811723529
 51
103.12511291461823
  0
ARC
  5
485
100
AcDbEntity
  8
0
  6
CONTINUOUS
 62
             3
100
AcDbCircle
 10
123.85384886400286
 20
78.25565070604866
 40
27.0000000015407
100
AcDbArc
 50
92.48714109707218
 51
100.23162082082062
  0
ARC
  5
484
100
AcDbEntity
  8
0
  6
CONTINUOUS
 62
             3
100
AcDbCircle
 10
119.51563536391753
 20
51.2655870766198
 40
2.27441489210051
100
AcDbArc
 50
159.99559598067972
 51
-170.60914674690864
  0
ARC
  5
483
100
AcDbEntity
  8
0
  6
CONTINUOUS
 62
             3
100
AcDbCircle
 10
97.75589732175243
 20
86.39079399973633
 40
2.27441489985731
100
AcDbArc
 50
61.81377755229764
 51
91.20903484832243
  0
ARC
  5
482
100
AcDbEntity
  8
0
  6
CONTINUOUS
 62
             3
100
AcDbCircle
 10
97.50066441056725
 20
70.98975088054917
 40
2.27441489811584
100
AcDbArc
 50
94.54105043950476
 51
123.93630752224135
  0
ARC
  5
481
100
AcDbEntity
  8
0
  6
CONTINUOUS
 62
             3
100
AcDbCircle
 10
136.16056110879131
 20
102.54909608518267
 40
1.72055321981087
100
AcDbArc
 50
3.49895636432273
 51
8.9544161033576
  0
ARC
  5
480
100
AcDbEntity
  8
0
  6
CONTINUOUS
 62
             3
100
AcDbCircle
 10
135.62031389421011
 20
102.93021114952631
 40
2.27441490104708
100
AcDbArc
 50
-36.36804066251132
 51
-6.97278347067184
  0
ARC
  5
47F
100
AcDbEntity
  8
0
  6
CONTINUOUS
 62
             3
100
AcDbCircle
 10
151.06433714470259
 20
77.15293346027298
 40
1.7205532202032
100
AcDbArc
 50
-61.95559106302142
 51
-56.50013131701791
  0
ARC
  5
47E
100
AcDbEntity
  8
0
  6
CONTINUOUS
 62
             3
100
AcDbCircle
 10
151.18658474490633
 20
77.80268050138422
 40
2.27441489939169
100
AcDbArc
 50
-101.82258607797999
 51
-72.42732889975004
  0
ARC
  5
47D
100
AcDbEntity
  8
0
  6
CONTINUOUS
 62
             3
100
AcDbCircle
 10
120.41235461267352
 20
105.37464311952256
 40
2.27441489839289
100
AcDbArc
 50
-3.64076801909584
 51
25.75448914870697
  0
ARC
  5
47C
100
AcDbEntity
  8
0
  6
CONTINUOUS
 62
             3
100
AcDbCircle
 10
147.34094222099614
 20
92.03908656064294
 40
1.72055321840026
100
AcDbArc
 50
-29.22831893231779
 51
-23.77285910126394
  0
ARC
  5
47B
100
AcDbEntity
  8
0
  6
CONTINUOUS
 62
             3
100
AcDbCircle
 10
147.09250366530063
 20
92.65178058471273
 40
2.27441490061154
100
AcDbArc
 50
-69.09531341761209
 51
-39.70005622998323
  0
ARC
  5
47A
100
AcDbEntity
  8
0
  6
CONTINUOUS
 62
             3
100
AcDbCircle
 10
134.79624150339922
 20
53.20474901838497
 40
2.27441489792505
100
AcDbArc
 50
-167.27713155545518
 51
-137.88187436647439
  0
ARC
  5
479
100
AcDbEntity
  8
0
  6
CONTINUOUS
 62
             3
100
AcDbCircle
 10
106.29704543637899
 20
99.20898661138359
 40
2.27441490352195
100
AcDbArc
 50
29.08650465646056
 51
58.48176163581849
  0
ARC
  5
478
100
AcDbEntity
  8
0
  6
CONTINUOUS
 62
             3
100
AcDbCircle
 10
146.60271530751476
 20
63.09739525693548
 40
2.27441489908503
100
AcDbArc
 50
-134.54985887708148
 51
-105.15460182294733
  0
ARC
  5
477
100
AcDbEntity
  8
0
  6
CONTINUOUS
 62
             3
100
AcDbCircle
 10
105.201390466641
 20
58.41346196847773
 40
1.72055322657627
100
AcDbArc
 50
167.1353166787523
 51
172.59077645069584
  0
ARC
  5
476
100
AcDbEntity
  8
0
  6
CONTINUOUS
 62
             3
100
AcDbCircle
 10
105.6123813699144
 20
57.89557962144657
 40
2.27441489976723
100
AcDbArc
 50
127.26832331489673
 51
156.66358041730348
  0
ARC
  5
475
100
AcDbEntity
  8
0
  6
CONTINUOUS
 62
             3
100
AcDbCircle
 10
123.85384887216631
 20
78.25565070870135
 40
51.62102355405489
100
AcDbArc
 50
30.01135878597269
 51
59.9886412112012
  0
ARC
  5
474
100
AcDbEntity
  8
0
  6
CONTINUOUS
 62
             3
100
AcDbCircle
 10
123.85384887631876
 20
78.25565070951362
 40
51.62102355472494
100
AcDbArc
 50
125.37081334649395
 51
139.92408611646664
  0
ARC
  5
473
100
AcDbEntity
  8
0
  6
CONTINUOUS
 62
             3
100
AcDbCircle
 10
123.85384887986322
 20
78.25565071264671
 40
51.62102355472435
100
AcDbArc
 50
-59.98864122149619
 51
-36.06248577735246
  0
ARC
  5
472
100
AcDbEntity
  8
0
  6
CONTINUOUS
 62
             3
100
AcDbCircle
 10
123.85384886886104
 20
78.25565070400566
 40
51.62102355489923
100
AcDbArc
 50
120.01135878000105
 51
125.37081333620536
  0
ARC
  5
471
100
AcDbEntity
  8
0
  6
CONTINUOUS
 62
             3
100
AcDbCircle
 10
123.85384887661399
 20
78.25565070343204
 40
51.6210235527263
100
AcDbArc
 50
-149.98864121949092
 51
-134.24430396035334
  0
ARC
  5
470
100
AcDbEntity
  8
0
  6
CONTINUOUS
 62
             3
100
AcDbCircle
 10
123.85384885127294
 20
78.25565067259436
 40
51.62102355425853
100
AcDbArc
 50
-36.06248572273552
 51
-30.01135873999949
  0
ARC
  5
46F
100
AcDbEntity
  8
0
  6
CONTINUOUS
 62
             3
100
AcDbCircle
 10
123.85384887259859
 20
78.25565070799314
 40
51.62102355319212
100
AcDbArc
 50
-134.24430395362836
 51
-120.01135878588624
  0
ARC
  5
46E
100
AcDbEntity
  8
0
  6
CONTINUOUS
 62
             3
100
AcDbCircle
 10
80.35384887419997
 20
115.32047566779343
 40
1.19999999972057
100
AcDbArc
 50
90.00000002223233
 51
-179.99999997776766
  0
ARC
  5
46D
100
AcDbEntity
  8
0
  6
CONTINUOUS
 62
             3
100
AcDbCircle
 10
81.85384887373434
 20
120.2556507071332
 40
3.8000000007451
100
AcDbArc
 50
90.0
 51
180.0
  0
ARC
  5
46C
100
AcDbEntity
  8
0
  6
CONTINUOUS
 62
             3
100
AcDbCircle
 10
165.85384887466569
 20
36.2556507080645
 40
3.7999999998137
100
AcDbArc
 50
-90.0000000140419
 51
-0.00000001404201
  0
ARC
  5
46B
100
AcDbEntity
  8
0
  6
CONTINUOUS
 62
             3
100
AcDbCircle
 10
81.85384887280301
 20
36.25565070806453
 40
3.79999999981374
100
AcDbArc
 50
-179.99999998595757
 51
-89.99999998595767
  0
ARC
  5
46A
100
AcDbEntity
  8
0
  6
CONTINUOUS
 62
             3
100
AcDbCircle
 10
109.01708540239383
 20
97.75232862186888
 40
1.99999999684675
100
AcDbArc
 50
127.27074678656386
 51
-154.38826047466046
  0
ARC
  5
469
100
AcDbEntity
  8
0
  6
CONTINUOUS
 62
             3
100
AcDbCircle
 10
118.0412379047869
 20
102.0561455279441
 40
2.00000000091345
100
AcDbArc
 50
25.49999999702466
 51
103.72425616916874
  0
ARC
  5
468
100
AcDbEntity
  8
0
  6
CONTINUOUS
 62
             3
100
AcDbCircle
 10
123.85384889966727
 20
78.25565071986023
 40
32.50000000050809
100
AcDbArc
 50
115.17094805216705
 51
117.10953759334909
  0
ARC
  5
467
100
AcDbEntity
  8
0
  6
CONTINUOUS
 62
             3
100
AcDbCircle
 10
123.85384893061934
 20
78.25565074744669
 40
26.49999999952973
100
AcDbArc
 50
123.37844591877607
 51
127.27074707216724
  0
ARC
  5
466
100
AcDbEntity
  8
0
  6
CONTINUOUS
 62
             3
100
AcDbCircle
 10
141.73135303176065
 20
35.36589701773158
 40
3.95560850425572
100
AcDbArc
 50
166.40790608741071
 51
-152.76504782779375
  0
ARC
  5
465
100
AcDbEntity
  8
0
  6
CONTINUOUS
 62
             3
100
AcDbCircle
 10
90.48147607482005
 20
70.25730567296128
 40
12.84668372543662
100
AcDbArc
 50
150.0184938763027
 51
151.85479425326528
  0
ARC
  5
464
100
AcDbEntity
  8
0
  6
CONTINUOUS
 62
             3
100
AcDbCircle
 10
123.15680655083506
 20
116.24129404495693
 40
8.31403037410598
100
AcDbArc
 50
51.58563965332134
 51
53.86146918989488
  0
ARC
  5
463
100
AcDbEntity
  8
0
  6
CONTINUOUS
 62
             3
100
AcDbCircle
 10
81.16350487535947
 20
94.00818915787139
 40
4.05496007464774
100
AcDbArc
 50
116.50539485520025
 51
119.70961217845711
  0
ARC
  5
462
100
AcDbEntity
  8
0
  6
CONTINUOUS
 62
             3
100
AcDbCircle
 10
79.80664444503836
 20
93.02476841160947
 40
3.78490434250787
100
AcDbArc
 50
33.76763438284333
 51
99.93166284712822
  0
ARC
  5
461
100
AcDbEntity
  8
0
  6
CONTINUOUS
 62
             3
100
AcDbCircle
 10
165.85384887373439
 20
120.2556507071332
 40
4.0
100
AcDbArc
 50
0.0
 51
90.0
  0
ARC
  5
460
100
AcDbEntity
  8
0
  6
CONTINUOUS
 62
             3
100
AcDbCircle
 10
81.85384887373434
 20
36.2556507071332
 40
4.0
100
AcDbArc
 50
180.0
 51
-90.0
  0
ARC
  5
45F
100
AcDbEntity
  8
0
  6
CONTINUOUS
 62
             3
100
AcDbCircle
 10
165.85384887373439
 20
36.2556507071332
 40
3.99999999999999
100
AcDbArc
 50
-90.0
 51
0.0
  0
ARC
  5
45E
100
AcDbEntity
  8
0
  6
CONTINUOUS
 62
             3
100
AcDbCircle
 10
81.85384887373434
 20
120.2556507071332
 40
4.0
100
AcDbArc
 50
90.0
 51
180.0
  0
ARC
  5
45D
100
AcDbEntity
  8
0
  6
CONTINUOUS
 62
             3
100
AcDbCircle
 10
123.85384886403024
 20
78.25565069976605
 40
43.99999999887678
100
AcDbArc
 50
124.39788754053318
 51
130.01206327770944
  0
ARC
  5
45C
100
AcDbEntity
  8
0
  6
CONTINUOUS
 62
             3
100
AcDbCircle
 10
123.85384891192004
 20
78.25565075196818
 40
51.21687836339167
100
AcDbArc
 50
138.85352963081905
 51
140.30481604596818
  0
ARC
  5
45B
100
AcDbEntity
  8
0
  6
CONTINUOUS
 62
             3
100
AcDbCircle
 10
123.85384887312506
 20
78.25565070612095
 40
44.00000000060425
100
AcDbArc
 50
-39.18620600315343
 51
-22.90551652400489
  0
ARC
  5
45A
100
AcDbEntity
  8
0
  6
CONTINUOUS
 62
             3
100
AcDbCircle
 10
123.85384886677679
 20
78.25565072848946
 40
43.99999999866788
100
AcDbArc
 50
-170.09529688925664
 51
-153.81460740597493
  0
ARC
  5
459
100
AcDbEntity
  8
0
  6
CONTINUOUS
 62
             3
100
AcDbCircle
 10
123.85384886907639
 20
78.2556507048385
 40
43.99999999871945
100
AcDbArc
 50
-71.91347872483955
 51
-55.63278924930268
  0
ARC
  5
458
100
AcDbEntity
  8
0
  6
CONTINUOUS
 62
             3
100
AcDbCircle
 10
123.8538488684264
 20
78.25565071485437
 40
43.99999999978186
100
AcDbArc
 50
26.2683394377872
 51
42.74604828290817
  0
ARC
  5
457
100
AcDbEntity
  8
0
  6
CONTINUOUS
 62
             3
100
AcDbCircle
 10
80.4900654646997
 20
103.5687547509675
 40
1.51922309252693
100
AcDbArc
 50
-151.58685316684284
 51
-95.14416288355325
  0
ARC
  5
456
100
AcDbEntity
  8
0
  6
CONTINUOUS
 62
             3
100
AcDbCircle
 10
123.85384887851561
 20
78.25565071341823
 40
44.19999999742156
100
AcDbArc
 50
141.00788144956431
 51
144.46927979324585
  0
ARC
  5
455
100
AcDbEntity
  8
0
  6
CONTINUOUS
 62
             3
100
AcDbCircle
 10
123.85384894997942
 20
78.25565080639218
 40
43.99999999909074
100
AcDbArc
 50
141.00788160460738
 51
143.93332081061956
  0
ARC
  5
454
100
AcDbEntity
  8
0
  6
CONTINUOUS
 62
             3
100
AcDbCircle
 10
89.26700166215737
 20
106.25565070589933
 40
0.30000000197899
100
AcDbArc
 50
-38.99211796664961
 51
90.00000011241963
  0
ARC
  5
453
100
AcDbEntity
  8
0
  6
CONTINUOUS
 62
             3
100
AcDbCircle
 10
83.35384887373434
 20
103.2556507071332
 40
1.1999999992549
100
AcDbArc
 50
-90.0
 51
0.0
  0
ARC
  5
452
100
AcDbEntity
  8
0
  6
CONTINUOUS
 62
             3
100
AcDbCircle
 10
84.85384887373434
 20
106.2556507071332
 40
0.3000000007451
100
AcDbArc
 50
90.0
 51
180.0
  0
ARC
  5
451
100
AcDbEntity
  8
0
  6
CONTINUOUS
 62
             3
100
AcDbCircle
 10
84.85384896892037
 20
111.2556505760875
 40
0.49999999863901
100
AcDbArc
 50
-144.88374729100727
 51
-143.1301211681828
  0
ARC
  5
450
100
AcDbEntity
  8
0
  6
CONTINUOUS
 62
             3
100
AcDbCircle
 10
123.85384879687153
 20
78.2556506403069
 40
44.00000000123747
100
AcDbArc
 50
130.01206316094758
 51
131.99683219064661
  0
ARC
  5
44F
100
AcDbEntity
  8
0
  6
CONTINUOUS
 62
             3
100
AcDbCircle
 10
96.48890886075104
 20
83.68836443480123
 40
0.46144127649745
100
AcDbArc
 50
0.0513136361699
 51
110.39562799961625
  0
ARC
  5
44E
100
AcDbEntity
  8
0
  6
CONTINUOUS
 62
             3
100
AcDbCircle
 10
133.11747155116558
 20
104.58017498447744
 40
0.46727465696364
100
AcDbArc
 50
-99.69550814189397
 51
10.64880610285325
  0
ARC
  5
44D
100
AcDbEntity
  8
0
  6
CONTINUOUS
 62
             3
100
AcDbCircle
 10
145.87793584675026
 20
95.38407767020134
 40
0.46501863204835
100
AcDbArc
 50
-131.35883418723407
 51
-21.01452028242684
  0
ARC
  5
44C
100
AcDbEntity
  8
0
  6
CONTINUOUS
 62
             3
100
AcDbCircle
 10
148.61190422977839
 20
65.35565331050498
 40
0.48254703678551
100
AcDbArc
 50
159.68958799524179
 51
-89.96609927582313
  0
ARC
  5
44B
100
AcDbEntity
  8
0
  6
CONTINUOUS
 62
             3
100
AcDbCircle
 10
122.35329689667661
 20
50.36855697849496
 40
0.43312637644598
100
AcDbArc
 50
96.14608894518176
 51
-153.5095969368744
  0
ARC
  5
44A
100
AcDbEntity
  8
0
  6
CONTINUOUS
 62
             3
100
AcDbCircle
 10
103.77629529173605
 20
97.63100047873485
 40
0.44992787050833
100
AcDbArc
 50
-32.19498267479921
 51
78.14933060007616
  0
ARC
  5
449
100
AcDbEntity
  8
0
  6
CONTINUOUS
 62
             3
100
AcDbCircle
 10
117.43691573244382
 20
105.43587554744036
 40
0.43312638293426
100
AcDbArc
 50
-67.49027471883136
 51
42.8540378500473
  0
ARC
  5
448
100
AcDbEntity
  8
0
  6
CONTINUOUS
 62
             3
100
AcDbCircle
 10
137.71516820327412
 20
54.01787030126662
 40
0.48646407974296
100
AcDbArc
 50
126.16560124357413
 51
-123.49008564929976
  0
ARC
  5
447
100
AcDbEntity
  8
0
  6
CONTINUOUS
 62
             3
100
AcDbCircle
 10
151.67064301830123
 20
80.73911941899836
 40
0.43312637511848
100
AcDbArc
 50
-165.67209346526494
 51
-55.32777997320936
  0
ARC
  5
446
100
AcDbEntity
  8
0
  6
CONTINUOUS
 62
             3
100
AcDbCircle
 10
97.88564025622799
 20
68.02153059304784
 40
0.45937175117417
100
AcDbArc
 50
31.03578300581775
 51
141.38009696788276
  0
ARC
  5
445
100
AcDbEntity
  8
0
  6
CONTINUOUS
 62
             3
100
AcDbCircle
 10
107.5402036939638
 20
55.6123900980843
 40
0.45804355550997
100
AcDbArc
 50
64.46260513448453
 51
174.80691870709882
  0
ARC
  5
444
100
AcDbEntity
  8
0
  6
CONTINUOUS
 62
             3
100
AcDbCircle
 10
123.85384888134953
 20
78.25565070392212
 40
44.00000000024281
100
AcDbArc
 50
58.99561218570469
 51
75.27630166916175
  0
ARC
  5
443
100
AcDbEntity
  8
0
  6
CONTINUOUS
 62
             3
100
AcDbCircle
 10
123.85384891943917
 20
78.25565076206604
 40
43.99999999622656
100
AcDbArc
 50
139.83229028708587
 51
140.64598218842926
  0
ARC
  5
442
100
AcDbEntity
  8
0
  6
CONTINUOUS
 62
             3
100
AcDbCircle
 10
123.85384887420454
 20
78.25565069111704
 40
44.00000000125243
100
AcDbArc
 50
-6.45893325676036
 51
9.82175622233389
  0
ARC
  5
441
100
AcDbEntity
  8
0
  6
CONTINUOUS
 62
             3
100
AcDbCircle
 10
123.85384903166988
 20
78.25565093982904
 40
43.50000000666935
100
AcDbArc
 50
-35.04642161931388
 51
-34.36501497090222
  0
ARC
  5
440
100
AcDbEntity
  8
0
  6
CONTINUOUS
 62
             3
100
AcDbCircle
 10
126.08247035769814
 20
76.55079912547791
 40
40.69446938822811
100
AcDbArc
 50
-40.16087385461002
 51
-36.0825386476262
  0
ARC
  5
43F
100
AcDbEntity
  8
0
  6
CONTINUOUS
 62
             3
100
AcDbCircle
 10
123.85384884062252
 20
78.25565068369369
 40
43.49999999926691
100
AcDbArc
 50
124.95357868976721
 51
125.63498533606982
  0
ARC
  5
43E
100
AcDbEntity
  8
0
  6
CONTINUOUS
 62
             3
100
AcDbCircle
 10
125.60093216863034
 20
79.85963549450041
 40
41.12859483012429
100
AcDbArc
 50
39.42455309780647
 51
43.45362675062168
  0
ARC
  5
43D
100
AcDbEntity
  8
0
  6
CONTINUOUS
 62
             3
100
AcDbCircle
 10
123.85384886878443
 20
78.25565076055034
 40
43.50000000228106
100
AcDbArc
 50
4.95357867774467
 51
5.63498532366992
  0
ARC
  5
43C
100
AcDbEntity
  8
0
  6
CONTINUOUS
 62
             3
100
AcDbCircle
 10
126.22321385206489
 20
78.36137084265167
 40
41.12859485031166
100
AcDbArc
 50
-0.5754469001578
 51
3.90511616521419
  0
ARC
  5
43B
100
AcDbEntity
  8
0
  6
CONTINUOUS
 62
             3
100
AcDbCircle
 10
123.85384906407688
 20
78.25565035494711
 40
43.50000001945675
100
AcDbArc
 50
-155.04642177574735
 51
-154.36501513586805
  0
ARC
  5
43A
100
AcDbEntity
  8
0
  6
CONTINUOUS
 62
             3
100
AcDbCircle
 10
121.66353246978872
 20
77.3459358079409
 40
41.12859484380712
100
AcDbArc
 50
-160.57544677892741
 51
-156.09488370882124
  0
ARC
  5
439
100
AcDbEntity
  8
0
  6
CONTINUOUS
 62
             3
100
AcDbCircle
 10
245.72446268942201
 20
39.7306447556095
 40
0.5
100
AcDbArc
 50
0.0
 51
90.0
  0
ARC
  5
438
100
AcDbEntity
  8
0
  6
CONTINUOUS
 62
             3
100
AcDbCircle
 10
218.22446268942201
 20
39.7306447556095
 40
0.5
100
AcDbArc
 50
90.0
 51
180.0
  0
ARC
  5
437
100
AcDbEntity
  8
0
  6
CONTINUOUS
 62
             3
100
AcDbCircle
 10
245.72446268942201
 20
116.68396356011191
 40
0.5
100
AcDbArc
 50
-90.0
 51
0.0
  0
ARC
  5
436
100
AcDbEntity
  8
0
  6
CONTINUOUS
 62
             3
100
AcDbCircle
 10
218.22446268942201
 20
116.68396356011191
 40
0.5
100
AcDbArc
 50
180.0
 51
-90.0
  0
ARC
  5
435
100
AcDbEntity
  8
0
  6
CONTINUOUS
 62
             3
100
AcDbCircle
 10
244.5826506430646
 20
29.7415711396213
 40
2.96204840042261
100
AcDbArc
 50
58.13045920538021
 51
90.41022672791689
  0
ARC
  5
434
100
AcDbEntity
  8
0
  6
CONTINUOUS
 62
             3
100
AcDbCircle
 10
244.58616203633969
 20
126.66596054993565
 40
2.95413678789893
100
AcDbArc
 50
-90.48171049010841
 51
-58.11584080398285
  0
ARC
  5
433
100
AcDbEntity
  8
0
  6
CONTINUOUS
 62
             3
100
AcDbCircle
 10
251.02446269016701
 20
124.00730415860571
 40
0.199999999255
100
AcDbArc
 50
0.0
 51
90.0
  0
ARC
  5
432
100
AcDbEntity
  8
0
  6
CONTINUOUS
 62
             3
100
AcDbCircle
 10
251.02446269016701
 20
32.4073041571156
 40
0.19999999925489
100
AcDbArc
 50
-90.0
 51
0.0
  0
ARC
  5
431
100
AcDbEntity
  8
0
  6
CONTINUOUS
 62
             3
100
AcDbCircle
 10
212.9244626886769
 20
124.00730415860571
 40
0.199999999255
100
AcDbArc
 50
90.0
 51
180.0
  0
ARC
  5
430
100
AcDbEntity
  8
0
  6
CONTINUOUS
 62
             3
100
AcDbCircle
 10
212.9244626886769
 20
32.4073041571156
 40
0.19999999925489
100
AcDbArc
 50
180.0
 51
-90.0
  0
ARC
  5
42F
100
AcDbEntity
  8
0
  6
CONTINUOUS
 62
             3
100
AcDbCircle
 10
243.4877371752103
 20
44.12573069327222
 40
2.29422243497235
100
AcDbArc
 50
12.85444614046538
 51
96.589518925886
  0
ARC
  5
42E
100
AcDbEntity
  8
0
  6
CONTINUOUS
 62
             3
100
AcDbCircle
 10
243.58525526176248
 20
112.15103578334832
 40
2.17140816041933
100
AcDbArc
 50
-99.56439752508719
 51
-9.87956754126384
  0
ARC
  5
42D
100
AcDbEntity
  8
0
  6
CONTINUOUS
 62
             3
100
AcDbCircle
 10
246.02807334090753
 20
121.31442997076991
 40
2.80401323192385
100
AcDbArc
 50
121.53009001593796
 51
179.02908964872421
  0
ARC
  5
42C
100
AcDbEntity
  8
1
  6
CONTINUOUS
 62
             2
100
AcDbCircle
 10
124.2178276265463
 20
96.94375267249419
 40
82.91006982999623
100
AcDbArc
 50
-107.52350315700123
 51
-74.64402562676797
  0
ARC
  5
42B
100
AcDbEntity
  8
0
  6
CONTINUOUS
 62
             3
100
AcDbCircle
 10
165.85384887466569
 20
36.2556507080645
 40
3.7999999998137
100
AcDbArc
 50
-90.0000000140419
 51
-0.00000001404201
  0
ARC
  5
42A
100
AcDbEntity
  8
0
  6
CONTINUOUS
 62
             3
100
AcDbCircle
 10
165.85384887373439
 20
36.2556507071332
 40
3.99999999999999
100
AcDbArc
 50
-90.0
 51
0.0
  0
ARC
  5
429
100
AcDbEntity
  8
0
  6
CONTINUOUS
 62
             3
100
AcDbCircle
 10
165.85384887373439
 20
120.2556507071332
 40
3.800000000745
100
AcDbArc
 50
0.0
 51
90.0
  0
ARC
  5
428
100
AcDbEntity
  8
0
  6
CONTINUOUS
 62
             3
100
AcDbCircle
 10
81.85384887280301
 20
36.25565070806453
 40
3.79999999981374
100
AcDbArc
 50
-179.99999998595757
 51
-89.99999998595767
  0
ARC
  5
427
100
AcDbEntity
  8
0
  6
CONTINUOUS
 62
             3
100
AcDbCircle
 10
81.85384887373434
 20
120.2556507071332
 40
3.8000000007451
100
AcDbArc
 50
90.0
 51
180.0
  0
ARC
  5
426
100
AcDbEntity
  8
0
  6
CONTINUOUS
 62
             3
100
AcDbCircle
 10
165.85384887373439
 20
120.2556507071332
 40
4.0
100
AcDbArc
 50
0.0
 51
90.0
  0
ARC
  5
425
100
AcDbEntity
  8
0
  6
CONTINUOUS
 62
             3
100
AcDbCircle
 10
123.85384885607326
 20
78.25565068654984
 40
51.21687836438174
100
AcDbArc
 50
138.85352953460239
 51
139.88537584028268
  0
ARC
  5
424
100
AcDbEntity
  8
0
  6
CONTINUOUS
 62
             3
100
AcDbCircle
 10
123.85384886547652
 20
78.25565071432843
 40
43.99999999931543
100
AcDbArc
 50
-137.34872643755889
 51
-124.7833454182736
  0
ARC
  5
423
100
AcDbEntity
  8
0
  6
CONTINUOUS
 62
             3
100
AcDbCircle
 10
81.85384887373434
 20
36.2556507071332
 40
4.0
100
AcDbArc
 50
180.0
 51
-90.0
  0
ARC
  5
422
100
AcDbEntity
  8
0
  6
CONTINUOUS
 62
             3
100
AcDbCircle
 10
81.85384887373434
 20
120.2556507071332
 40
4.0
100
AcDbArc
 50
90.0
 51
180.0
  0
ARC
  5
421
100
AcDbEntity
  8
0
  6
CONTINUOUS
 62
             7
100
AcDbCircle
 10
123.85384812560619
 20
78.25564978205098
 40
44.00000000289037
100
AcDbArc
 50
141.00787989242968
 51
141.0661198240355
  0
ARC
  5
420
100
AcDbEntity
  8
0
  6
CONTINUOUS
 62
             7
100
AcDbCircle
 10
118.26122081909975
 20
101.59494176076755
 40
1.9999999982175
100
AcDbArc
 50
25.50000278896917
 51
28.66901944345606
  0
ARC
  5
41F
100
AcDbEntity
  8
0
  6
CONTINUOUS
 62
             3
100
AcDbCircle
 10
123.85384887373441
 20
78.25565070713324
 40
44.00000000257112
100
AcDbArc
 50
-26.60152724787644
 51
-22.70849715815994
  0
ARC
  5
41E
100
AcDbEntity
  8
0
  6
CONTINUOUS
 62
             3
100
AcDbCircle
 10
163.98176577083274
 20
61.46278657549792
 40
0.49999999988043
100
AcDbArc
 50
-22.70849730603361
 51
132.66273905409039
  0
ARC
  5
41D
100
AcDbEntity
  8
0
  6
CONTINUOUS
 62
             3
100
AcDbCircle
 10
123.8538488948501
 20
78.25565057437136
 40
43.99999999993706
100
AcDbArc
 50
8.05553926689938
 51
10.0187757421566
  0
ARC
  5
41C
100
AcDbEntity
  8
0
  6
CONTINUOUS
 62
             3
100
AcDbCircle
 10
166.6905085169499
 20
85.82338422142864
 40
0.49999999841478
100
AcDbArc
 50
10.018775482518
 51
165.39001156791832
  0
ARC
  5
41B
100
AcDbEntity
  8
0
  6
CONTINUOUS
 62
             3
100
AcDbCircle
 10
155.79891450358238
 20
107.78127994880521
 40
0.49999999742386
100
AcDbArc
 50
42.74604834020833
 51
-161.88271551959667
  0
ARC
  5
41A
100
AcDbEntity
  8
0
  6
CONTINUOUS
 62
             3
100
AcDbCircle
 10
123.85384894783358
 20
78.25565075455393
 40
44.00000000057009
100
AcDbArc
 50
-59.32880009575289
 51
-55.43576999630378
  0
ARC
  5
419
100
AcDbEntity
  8
0
  6
CONTINUOUS
 62
             3
100
AcDbCircle
 10
148.53269293493537
 20
42.43380463625996
 40
0.50000000215121
100
AcDbArc
 50
-55.43576953407443
 51
99.93546677502522
  0
ARC
  5
418
100
AcDbEntity
  8
0
  6
CONTINUOUS
 62
             3
100
AcDbCircle
 10
123.85384888592357
 20
78.25565070352886
 40
44.00000000151604
100
AcDbArc
 50
71.58029094447404
 51
75.47332103826001
  0
ARC
  5
417
100
AcDbEntity
  8
0
  6
CONTINUOUS
 62
             3
100
AcDbCircle
 10
134.76498786268627
 20
120.36499701013368
 40
0.49999999990911
100
AcDbArc
 50
75.47332126482338
 51
-129.15544282574487
  0
ARC
  5
416
100
AcDbEntity
  8
0
  6
CONTINUOUS
 62
             3
100
AcDbCircle
 10
123.85384887616078
 20
78.25565070712861
 40
43.99999999865029
100
AcDbArc
 50
-92.0560727127947
 51
-88.16304261699074
  0
ARC
  5
415
100
AcDbEntity
  8
0
  6
CONTINUOUS
 62
             3
100
AcDbCircle
 10
125.24826148456344
 20
34.77800572332996
 40
0.50000000026288
100
AcDbArc
 50
-88.16304276786013
 51
67.2081931435913
  0
ARC
  5
414
100
AcDbEntity
  8
0
  6
CONTINUOUS
 62
             3
100
AcDbCircle
 10
110.26685169267016
 20
119.57929415107478
 40
0.49999999971668
100
AcDbArc
 50
108.20059357821944
 51
-96.42817038236943
  0
ARC
  5
413
100
AcDbEntity
  8
0
  6
CONTINUOUS
 62
             3
100
AcDbCircle
 10
123.85384883390549
 20
78.25565073283747
 40
43.9999999965067
100
AcDbArc
 50
-124.78334537075885
 51
-120.89031527367931
  0
ARC
  5
412
100
AcDbEntity
  8
0
  6
CONTINUOUS
 62
             3
100
AcDbCircle
 10
101.52111388210213
 20
40.92605189206739
 40
0.49999999604322
100
AcDbArc
 50
-120.89031479924971
 51
34.48092099768277
  0
ARC
  5
411
100
AcDbEntity
  8
0
  6
CONTINUOUS
 62
             3
100
AcDbCircle
 10
123.85384887427067
 20
78.25565071081303
 40
44.00000000235517
100
AcDbArc
 50
169.76210911533056
 51
173.65513920582958
  0
ARC
  5
410
100
AcDbEntity
  8
0
  6
CONTINUOUS
 62
             3
100
AcDbCircle
 10
80.62029802026233
 20
83.06294522502792
 40
0.50000000244108
100
AcDbArc
 50
173.65513926245947
 51
-30.97362460161433
  0
ARC
  5
40F
100
AcDbEntity
  8
0
  6
CONTINUOUS
 62
             3
100
AcDbCircle
 10
123.85384887373441
 20
78.25565070713324
 40
43.99999999698212
100
AcDbArc
 50
-157.51061816018202
 51
-153.61758806963979
  0
ARC
  5
40E
100
AcDbEntity
  8
0
  6
CONTINUOUS
 62
             3
100
AcDbCircle
 10
84.88445184397203
 20
58.92598192845982
 40
0.49999999757343
100
AcDbArc
 50
-153.6175878782617
 51
1.75364799832488
  0
ARC
  5
40D
100
AcDbEntity
  8
0
  6
CONTINUOUS
 62
             3
100
AcDbCircle
 10
123.85384886735881
 20
78.25565070164726
 40
43.99999999957605
100
AcDbArc
 50
130.01206328260417
 51
131.40962209784468
  0
ARC
  5
40C
100
AcDbEntity
  8
0
  6
CONTINUOUS
 62
             3
100
AcDbCircle
 10
123.85384886831505
 20
78.25565070962614
 40
44.00000000129499
100
AcDbArc
 50
59.01490990864853
 51
71.58029092021062
  0
ARC
  5
40B
100
AcDbEntity
  8
0
  6
CONTINUOUS
 62
             3
100
AcDbCircle
 10
123.8538488654544
 20
78.25565070337926
 40
43.99999999857681
100
AcDbArc
 50
-71.89418098040842
 51
-59.32879996949408
  0
ARC
  5
40A
100
AcDbEntity
  8
0
  6
CONTINUOUS
 62
             3
100
AcDbCircle
 10
123.8538488643656
 20
78.25565067554638
 40
43.99999999887595
100
AcDbArc
 50
157.19672805039133
 51
169.76210906784587
  0
ARC
  5
409
100
AcDbEntity
  8
0
  6
CONTINUOUS
 62
             3
100
AcDbCircle
 10
123.85384887373441
 20
78.25565070713324
 40
43.99999999864998
100
AcDbArc
 50
-104.62145372223314
 51
-92.05607270963694
  0
ARC
  5
408
100
AcDbEntity
  8
0
  6
CONTINUOUS
 62
             3
100
AcDbCircle
 10
165.85384887373439
 20
120.2556507071332
 40
3.800000000745
100
AcDbArc
 50
0.0
 51
90.0
  0
LINE
  5
407
100
AcDbEntity
  8
1
  6
CONTINUOUS
 62
             2
100
AcDbLine
 10
112.68217666363699
 20
65.42128342258198
 11
112.68217666363699
 21
63.51557268442971
  0
LINE
  5
406
100
AcDbEntity
  8
1
  6
CONTINUOUS
 62
             2
100
AcDbLine
 10
128.87649746155731
 20
61.8149864939825
 11
118.70566726392499
 21
61.8149864939825
  0
LINE
  5
405
100
AcDbEntity
  8
1
  6
CONTINUOUS
 62
             2
100
AcDbLine
 10
128.87649746155731
 20
59.09903281981511
 11
128.87649746155731
 21
61.8149864939825
  0
LINE
  5
404
100
AcDbEntity
  8
1
  6
CONTINUOUS
 62
             2
100
AcDbLine
 10
118.70566726392499
 20
59.09903281981511
 11
128.87649746155731
 21
59.09903281981511
  0
LINE
  5
403
100
AcDbEntity
  8
1
  6
CONTINUOUS
 62
             2
100
AcDbLine
 10
118.70566726392499
 20
61.8149864939825
 11
118.70566726392499
 21
59.09903281981511
  0
LINE
  5
402
100
AcDbEntity
  8
1
  6
CONTINUOUS
 62
             2
100
AcDbLine
 10
112.68217666363699
 20
65.42128342258198
 11
135.13383129155619
 21
65.42128342258198
  0
LINE
  5
401
100
AcDbEntity
  8
1
  6
CONTINUOUS
 62
             2
100
AcDbLine
 10
135.13383129155619
 20
65.42128342258198
 11
135.13383129155619
 21
63.51557268442971
  0
LINE
  5
400
100
AcDbEntity
  8
1
  6
CONTINUOUS
 62
             2
100
AcDbLine
 10
135.13383129155619
 20
63.51557268442971
 11
112.68217666363699
 21
63.51557268442971
  0
LINE
  5
3FF
100
AcDbEntity
  8
1
  6
CONTINUOUS
 62
             4
100
AcDbLine
 10
108.8443043149112
 20
88.25499431098265
 11
138.1010803124903
 21
88.25499431098265
  0
LINE
  5
3DF
100
AcDbEntity
  8
0
  6
CONTINUOUS
 62
             4
100
AcDbLine
 10
77.85384887373434
 20
109.46731097212449
 11
77.85384887373434
 21
110.9556507082508
  0
LINE
  5
3DE
100
AcDbEntity
  8
1
  6
CONTINUOUS
 62
             3
100
AcDbLine
 10
83.35384887373434
 20
112.0056507071332
 11
83.35384887373434
 21
105.5056507071332
  0
LINE
  5
3DD
100
AcDbEntity
  8
1
  6
CONTINUOUS
 62
             3
100
AcDbLine
 10
79.85384887373434
 20
112.0056507071332
 11
79.85384887373434
 21
105.5056507071332
  0
LINE
  5
3DC
100
AcDbEntity
  8
1
  6
DASH_CENTER
 62
             1
100
AcDbLine
 10
79.60035947254286
 20
37.0056507071332
 11
85.60035947254286
 21
37.0056507071332
  0
LINE
  5
3DB
100
AcDbEntity
  8
1
  6
DASH_CENTER
 62
             1
100
AcDbLine
 10
82.60035947254286
 20
40.0056507071332
 11
82.60035947254286
 21
34.0056507071332
  0
LINE
  5
3DA
100
AcDbEntity
  8
1
  6
DASH_CENTER
 62
             1
100
AcDbLine
 10
82.60035947254286
 20
122.5091401083247
 11
82.60035947254286
 21
116.5091401083247
  0
LINE
  5
3D9
100
AcDbEntity
  8
1
  6
DASH_CENTER
 62
             1
100
AcDbLine
 10
79.60035947254286
 20
119.5091401083247
 11
85.60035947254286
 21
119.5091401083247
  0
LINE
  5
3D8
100
AcDbEntity
  8
1
  6
DASH_CENTER
 62
             1
100
AcDbLine
 10
162.10384887373439
 20
37.0056507071332
 11
168.10384887373439
 21
37.0056507071332
  0
LINE
  5
3D7
100
AcDbEntity
  8
1
  6
DASH_CENTER
 62
             1
100
AcDbLine
 10
165.10384887373439
 20
40.0056507071332
 11
165.10384887373439
 21
34.0056507071332
  0
LINE
  5
3D6
100
AcDbEntity
  8
1
  6
DASH_CENTER
 62
             1
100
AcDbLine
 10
162.10384887373439
 20
119.5091401083247
 11
168.10384887373439
 21
119.5091401083247
  0
LINE
  5
3D5
100
AcDbEntity
  8
1
  6
DASH_CENTER
 62
             1
100
AcDbLine
 10
165.10384887373439
 20
122.5091401083247
 11
165.10384887373439
 21
116.5091401083247
  0
LINE
  5
3D4
100
AcDbEntity
  8
1
  6
CONTINUOUS
 62
             2
100
AcDbLine
 10
27.15255108676456
 20
108.0260939957426
 11
33.15255108676456
 21
108.0260939957426
  0
LINE
  5
3D3
100
AcDbEntity
  8
1
  6
CONTINUOUS
 62
             2
100
AcDbLine
 10
27.15255108676456
 20
108.4260939961151
 11
27.15255108676456
 21
108.0260939957426
  0
LINE
  5
3D2
100
AcDbEntity
  8
1
  6
CONTINUOUS
 62
             2
100
AcDbLine
 10
33.15255108676456
 20
108.4260939961151
 11
27.15255108676456
 21
108.4260939961151
  0
LINE
  5
3D1
100
AcDbEntity
  8
1
  6
CONTINUOUS
 62
             2
100
AcDbLine
 10
27.15255108676456
 20
108.8260939964877
 11
33.15255108676456
 21
108.8260939964877
  0
LINE
  5
3D0
100
AcDbEntity
  8
1
  6
CONTINUOUS
 62
             2
100
AcDbLine
 10
27.15255108676456
 20
109.22609399592891
 11
27.15255108676456
 21
108.8260939964877
  0
LINE
  5
3CF
100
AcDbEntity
  8
1
  6
CONTINUOUS
 62
             2
100
AcDbLine
 10
33.15255108676456
 20
109.22609399592891
 11
27.15255108676456
 21
109.22609399592891
  0
LINE
  5
3CE
100
AcDbEntity
  8
1
  6
CONTINUOUS
 62
             2
100
AcDbLine
 10
33.15255108676456
 20
110.22609399592891
 11
33.15255108676456
 21
107.0260939957426
  0
LINE
  5
3CD
100
AcDbEntity
  8
1
  6
CONTINUOUS
 62
             2
100
AcDbLine
 10
49.51299807115441
 20
107.8260939964877
 11
33.15255108676456
 21
107.8260939964877
  0
LINE
  5
3CC
100
AcDbEntity
  8
1
  6
CONTINUOUS
 62
             2
100
AcDbLine
 10
50.24175478949195
 20
108.62609399630141
 11
33.15255108676456
 21
108.62609399630141
  0
LINE
  5
3CB
100
AcDbEntity
  8
1
  6
CONTINUOUS
 62
             2
100
AcDbLine
 10
50.90925424977189
 20
109.4260939961151
 11
33.15255108676455
 21
109.4260939961151
  0
LINE
  5
3CA
100
AcDbEntity
  8
1
  6
CONTINUOUS
 62
             2
100
AcDbLine
 10
69.20301104253517
 20
107.8260939964877
 11
51.35036600067263
 21
107.8260939964877
  0
LINE
  5
3C9
100
AcDbEntity
  8
1
  6
CONTINUOUS
 62
             2
100
AcDbLine
 10
69.20301104253517
 20
108.62609399630141
 11
52.07912271155959
 21
108.62609399630141
  0
LINE
  5
3C8
100
AcDbEntity
  8
1
  6
CONTINUOUS
 62
             2
100
AcDbLine
 10
69.20301104253517
 20
109.4260939961151
 11
52.74662217183953
 21
109.4260939961151
  0
LINE
  5
3C7
100
AcDbEntity
  8
1
  6
CONTINUOUS
 62
             3
100
AcDbLine
 10
69.20301104253517
 20
106.5556507078783
 11
77.85384887373434
 21
106.5556507078783
  0
LINE
  5
3C6
100
AcDbEntity
  8
1
  6
CONTINUOUS
 62
             3
100
AcDbLine
 10
69.20301104253517
 20
110.9556507082508
 11
69.20301104253517
 21
106.5556507078783
  0
LINE
  5
3C5
100
AcDbEntity
  8
1
  6
CONTINUOUS
 62
             3
100
AcDbLine
 10
77.85384887373434
 20
110.9556507082508
 11
69.20301104253517
 21
110.9556507082508
  0
LINE
  5
3C4
100
AcDbEntity
  8
0
  6
CONTINUOUS
 62
             3
100
AcDbLine
 10
120.2889364539682
 20
101.9893885018156
 11
119.8464084743558
 21
102.9171677218602
  0
LINE
  5
3C3
100
AcDbEntity
  8
1
  6
DASH_CENTER
 62
             1
100
AcDbLine
 10
207.72446268942201
 20
78.25565070713324
 11
256.22446268942201
 21
78.25565070713324
  0
LINE
  5
3C2
100
AcDbEntity
  8
1
  6
DASH_CENTER
 62
             1
100
AcDbLine
 10
72.85384887373434
 20
78.25565070713324
 11
174.85384887373439
 21
78.25565070713324
  0
LINE
  5
3C1
100
AcDbEntity
  8
1
  6
DASH_CENTER
 62
             1
100
AcDbLine
 10
123.85384887373441
 20
129.25565070713321
 11
123.85384887373441
 21
27.25565070713323
  0
LINE
  5
3C0
100
AcDbEntity
  8
0
  6
CONTINUOUS
 62
             3
100
AcDbLine
 10
139.42824521204821
 20
101.9865763407053
 11
140.21504384195791
 21
102.881066413209
  0
LINE
  5
3BB
100
AcDbEntity
  8
0
  6
CONTINUOUS
 62
             3
100
AcDbLine
 10
81.71498327246295
 20
89.0522247232349
 11
82.01220071232307
 21
88.84400676338387
  0
LINE
  5
3A5
100
AcDbEntity
  8
0
  6
CONTINUOUS
 62
             3
100
AcDbLine
 10
166.21345856329791
 20
85.97521875014914
 11
166.68240390262
 21
85.86911736576272
  0
LINE
  5
395
100
AcDbEntity
  8
0
  6
CONTINUOUS
 62
             3
100
AcDbLine
 10
82.48261500439035
 20
84.79866341835273
 11
81.00421280330406
 21
85.7495607999937
  0
LINE
  5
394
100
AcDbEntity
  8
0
  6
CONTINUOUS
 62
             3
100
AcDbLine
 10
84.63561815312492
 20
59.43597007317851
 11
85.37586091375339
 21
59.50912666188941
  0
LINE
  5
388
100
AcDbEntity
  8
0
  6
CONTINUOUS
 62
             3
100
AcDbLine
 10
167.14364075204719
 20
82.52694083525253
 11
165.07561840406049
 21
83.05622276066256
  0
LINE
  5
37F
100
AcDbEntity
  8
0
  6
CONTINUOUS
 62
             3
100
AcDbLine
 10
122.2111338033377
 20
122.46958615126471
 11
122.47171452185501
 21
122.9556507082508
  0
LINE
  5
369
100
AcDbEntity
  8
0
  6
CONTINUOUS
 62
             3
100
AcDbLine
 10
84.35384887373434
 20
111.2556507071332
 11
84.35384887373434
 21
111.48936962018171
  0
LINE
  5
368
100
AcDbEntity
  8
0
  6
CONTINUOUS
 62
             3
100
AcDbLine
 10
84.35504251262532
 20
111.221122357607
 11
84.35384887373434
 21
111.2556507071332
  0
LINE
  5
367
100
AcDbEntity
  8
0
  6
CONTINUOUS
 62
             3
100
AcDbLine
 10
88.03796908175931
 20
41.28923690559731
 11
88.03789531356082
 21
41.289150538467
  0
LINE
  5
366
100
AcDbEntity
  8
0
  6
CONTINUOUS
 62
             3
100
AcDbLine
 10
88.03796908175931
 20
41.28923690559731
 11
88.03799058413492
 21
41.28926207831511
  0
LINE
  5
365
100
AcDbEntity
  8
0
  6
CONTINUOUS
 62
             3
100
AcDbLine
 10
87.83686727201925
 20
41.2758304128275
 11
87.99196267417059
 21
41.2861070405544
  0
LINE
  5
364
100
AcDbEntity
  8
0
  6
CONTINUOUS
 62
             3
100
AcDbLine
 10
87.99196267417059
 20
41.2861070405544
 11
88.03789531356082
 21
41.289150538467
  0
LINE
  5
363
100
AcDbEntity
  8
0
  6
CONTINUOUS
 62
             3
100
AcDbLine
 10
92.36083100280152
 20
118.96784568911799
 11
92.36075601270782
 21
118.96793099733451
  0
LINE
  5
362
100
AcDbEntity
  8
0
  6
CONTINUOUS
 62
             3
100
AcDbLine
 10
92.36083100280152
 20
118.96784568911799
 11
92.360852862805
 21
118.9678208246679
  0
LINE
  5
361
100
AcDbEntity
  8
0
  6
CONTINUOUS
 62
             3
100
AcDbLine
 10
92.37618074482666
 20
119.16880851293369
 11
92.36428039437519
 21
119.0138292495013
  0
LINE
  5
360
100
AcDbEntity
  8
0
  6
CONTINUOUS
 62
             3
100
AcDbLine
 10
92.36428039437519
 20
119.0138292495013
 11
92.36075601270782
 21
118.96793099733451
  0
LINE
  5
34A
100
AcDbEntity
  8
0
  6
CONTINUOUS
 62
             3
100
AcDbLine
 10
92.36075601270782
 20
118.96793099733451
 11
108.5733980230092
 21
117.72301528843499
  0
LINE
  5
349
100
AcDbEntity
  8
0
  6
CONTINUOUS
 62
             3
100
AcDbLine
 10
79.15384887447939
 20
110.9556507082508
 11
79.15384887447939
 21
115.3204756673278
  0
LINE
  5
348
100
AcDbEntity
  8
0
  6
CONTINUOUS
 62
             3
100
AcDbLine
 10
77.85384887373434
 20
110.9556507082508
 11
79.15384887447939
 21
110.9556507082508
  0
LINE
  5
347
100
AcDbEntity
  8
0
  6
CONTINUOUS
 62
             3
100
AcDbLine
 10
78.05384887298928
 20
120.2556507071332
 11
78.05384887298928
 21
110.9556507082508
  0
LINE
  5
346
100
AcDbEntity
  8
0
  6
CONTINUOUS
 62
             3
100
AcDbLine
 10
169.65384887447939
 20
36.2556507071332
 11
169.65384887447939
 21
120.2556507071332
  0
LINE
  5
345
100
AcDbEntity
  8
0
  6
CONTINUOUS
 62
             3
100
AcDbLine
 10
81.85384887373434
 20
32.4556507082508
 11
165.85384887373439
 21
32.4556507082508
  0
LINE
  5
344
100
AcDbEntity
  8
0
  6
CONTINUOUS
 62
             3
100
AcDbLine
 10
78.05384887298928
 20
106.5746531957613
 11
78.05384887298928
 21
36.2556507071332
  0
LINE
  5
343
100
AcDbEntity
  8
0
  6
CONTINUOUS
 62
             3
100
AcDbLine
 10
79.15384887447939
 20
106.5746531957613
 11
78.05384887298928
 21
106.5746531957613
  0
LINE
  5
342
100
AcDbEntity
  8
0
  6
CONTINUOUS
 62
             3
100
AcDbLine
 10
79.15384887447939
 20
99.23432174565656
 11
79.15384887447939
 21
106.5746531957613
  0
LINE
  5
341
100
AcDbEntity
  8
0
  6
CONTINUOUS
 62
             3
100
AcDbLine
 10
79.15384887447939
 20
99.23432174565656
 11
88.28722339412556
 21
104.1596108605937
  0
LINE
  5
340
100
AcDbEntity
  8
0
  6
CONTINUOUS
 62
             3
100
AcDbLine
 10
88.28722339412556
 20
104.1596108605937
 11
88.94947766429173
 21
104.5167399566473
  0
LINE
  5
330
100
AcDbEntity
  8
0
  6
CONTINUOUS
 62
             3
100
AcDbLine
 10
104.0604610024987
 20
104.0330011589305
 11
108.4858684717714
 21
102.3766383934618
  0
LINE
  5
32F
100
AcDbEntity
  8
0
  6
CONTINUOUS
 62
             3
100
AcDbLine
 10
107.2135974532961
 20
96.88778758475942
 11
107.6558981529473
 21
95.9651199994461
  0
LINE
  5
31B
100
AcDbEntity
  8
0
  6
CONTINUOUS
 62
             3
100
AcDbLine
 10
168.55384887298931
 20
68.773509783283
 11
163.68786012297861
 21
63.95821759997321
  0
LINE
  5
31A
100
AcDbEntity
  8
0
  6
CONTINUOUS
 62
             3
100
AcDbLine
 10
168.55384887298931
 20
104.07502468822911
 11
168.55384887298931
 21
68.773509783283
  0
LINE
  5
306
100
AcDbEntity
  8
0
  6
CONTINUOUS
 62
             3
100
AcDbLine
 10
128.32419217294441
 20
122.7556507071332
 11
132.33678386276949
 21
119.71894603277011
  0
LINE
  5
305
100
AcDbEntity
  8
0
  6
CONTINUOUS
 62
             3
100
AcDbLine
 10
128.059919404894
 20
122.9556507082508
 11
128.32419217294441
 21
122.7556507071332
  0
LINE
  5
304
100
AcDbEntity
  8
0
  6
CONTINUOUS
 62
             3
100
AcDbLine
 10
98.03447489356981
 20
122.9556507082508
 11
128.059919404894
 21
122.9556507082508
  0
LINE
  5
2F0
100
AcDbEntity
  8
0
  6
CONTINUOUS
 62
             3
100
AcDbLine
 10
79.35384887373434
 20
76.67894168811304
 11
81.60534259220945
 21
80.75139947941912
  0
LINE
  5
2EF
100
AcDbEntity
  8
0
  6
CONTINUOUS
 62
             3
100
AcDbLine
 10
79.15384887447939
 20
76.31718560176356
 11
79.35384887373434
 21
76.67894168811304
  0
LINE
  5
2EE
100
AcDbEntity
  8
0
  6
CONTINUOUS
 62
             3
100
AcDbLine
 10
79.15384887447939
 20
52.4362767288313
 11
79.15384887447939
 21
76.31718560176356
  0
LINE
  5
2DA
100
AcDbEntity
  8
0
  6
CONTINUOUS
 62
             3
100
AcDbLine
 10
168.35384887373439
 20
102.3795723613204
 11
165.0941274828314
 21
87.76377699671699
  0
LINE
  5
2C6
100
AcDbEntity
  8
0
  6
CONTINUOUS
 62
             3
100
AcDbLine
 10
148.19324655374871
 20
122.7556507071332
 11
153.40689778244479
 21
108.55057347713419
  0
LINE
  5
2C5
100
AcDbEntity
  8
0
  6
CONTINUOUS
 62
             3
100
AcDbLine
 10
148.11984109422551
 20
122.9556507082508
 11
148.19324655374871
 21
122.7556507071332
  0
LINE
  5
2C4
100
AcDbEntity
  8
0
  6
CONTINUOUS
 62
             3
100
AcDbLine
 10
128.059919404894
 20
122.9556507082508
 11
149.67322285389889
 21
122.9556507082508
  0
LINE
  5
2B0
100
AcDbEntity
  8
0
  6
CONTINUOUS
 62
             3
100
AcDbLine
 10
109.4428427136539
 20
33.5556507078783
 11
104.0329721524416
 21
40.8618291444929
  0
LINE
  5
2AF
100
AcDbEntity
  8
0
  6
CONTINUOUS
 62
             3
100
AcDbLine
 10
134.06264750203479
 20
33.5556507078783
 11
109.4428427136539
 21
33.5556507078783
  0
LINE
  5
2AE
100
AcDbEntity
  8
0
  6
CONTINUOUS
 62
             3
100
AcDbLine
 10
111.8251407734154
 20
33.5556507078783
 11
98.03447489356981
 21
33.5556507078783
  0
LINE
  5
29A
100
AcDbEntity
  8
0
  6
CONTINUOUS
 62
             3
100
AcDbLine
 10
88.03789531356082
 20
41.289150538467
 11
86.9628400533496
 21
57.51394120565071
  0
LINE
  5
299
100
AcDbEntity
  8
0
  6
CONTINUOUS
 62
             3
100
AcDbLine
 10
168.55384887298931
 20
68.773509783283
 11
168.55384887298931
 21
52.4362767288313
  0
LINE
  5
285
100
AcDbEntity
  8
0
  6
CONTINUOUS
 62
             3
100
AcDbLine
 10
165.58301883479939
 20
47.86804719230541
 11
149.6345756343602
 21
44.69199219493581
  0
LINE
  5
271
100
AcDbEntity
  8
0
  6
CONTINUOUS
 62
             3
100
AcDbLine
 10
134.06264750203479
 20
33.5556507078783
 11
127.39609256303299
 21
36.0819912185745
  0
LINE
  5
270
100
AcDbEntity
  8
0
  6
CONTINUOUS
 62
             3
100
AcDbLine
 10
149.67322285389889
 20
33.5556507078783
 11
134.06264750203479
 21
33.5556507078783
  0
LINE
  5
25C
100
AcDbEntity
  8
0
  6
CONTINUOUS
 62
             3
100
AcDbLine
 10
79.35384887373434
 20
97.63797073027504
 11
89.66144736400233
 21
103.1964751524703
  0
LINE
  5
25B
100
AcDbEntity
  8
0
  6
CONTINUOUS
 62
             3
100
AcDbLine
 10
79.15384887447939
 20
97.53011816980703
 11
79.35384887373434
 21
97.63797073027504
  0
LINE
  5
25A
100
AcDbEntity
  8
0
  6
CONTINUOUS
 62
             3
100
AcDbLine
 10
79.15384887447939
 20
76.31718560176356
 11
79.15384887447939
 21
97.53011816980703
  0
LINE
  5
259
100
AcDbEntity
  8
0
  6
CONTINUOUS
 62
             3
100
AcDbLine
 10
84.35384887373434
 20
111.48936962018171
 11
84.35384887373434
 21
115.3204756673278
  0
LINE
  5
258
100
AcDbEntity
  8
0
  6
CONTINUOUS
 62
             3
100
AcDbLine
 10
168.35384887373439
 20
104.4182207785399
 11
168.35384887373439
 21
102.3795723613204
  0
LINE
  5
257
100
AcDbEntity
  8
0
  6
CONTINUOUS
 62
             3
100
AcDbLine
 10
144.59724620273701
 20
59.5011798577235
 11
144.0721750213801
 21
59.53955689592671
  0
LINE
  5
256
100
AcDbEntity
  8
0
  6
CONTINUOUS
 62
             3
100
AcDbLine
 10
124.4434958427249
 20
106.2140309508742
 11
124.7583409129678
 21
105.79207701849209
  0
LINE
  5
255
100
AcDbEntity
  8
0
  6
CONTINUOUS
 62
             3
100
AcDbLine
 10
96.0961291222869
 20
74.86040355785204
 11
96.46898104166971
 21
75.23209425954534
  0
LINE
  5
254
100
AcDbEntity
  8
0
  6
CONTINUOUS
 62
             3
100
AcDbLine
 10
151.4437376028894
 20
73.69311313385529
 11
150.98127143374069
 21
73.44152304212017
  0
LINE
  5
253
100
AcDbEntity
  8
0
  6
CONTINUOUS
 62
             3
100
AcDbLine
 10
139.46533302134259
 20
101.45694964060949
 11
139.50207202425591
 21
100.93176131097989
  0
LINE
  5
252
100
AcDbEntity
  8
0
  6
CONTINUOUS
 62
             3
100
AcDbLine
 10
131.16487270137659
 20
51.2636585641505
 11
130.74390291339151
 21
51.57981829213361
  0
LINE
  5
251
100
AcDbEntity
  8
0
  6
CONTINUOUS
 62
             3
100
AcDbLine
 10
115.41130080363141
 20
51.59590406025211
 11
115.2280873312651
 21
52.0894679982067
  0
LINE
  5
250
100
AcDbEntity
  8
0
  6
CONTINUOUS
 62
             3
100
AcDbLine
 10
98.66695987349735
 20
90.406343347937
 11
99.18157403460131
 21
90.51745049430443
  0
LINE
  5
24F
100
AcDbEntity
  8
0
  6
CONTINUOUS
 62
             3
100
AcDbLine
 10
102.33817826127989
 20
60.3924307484032
 11
102.45089009320721
 21
60.90669583397371
  0
LINE
  5
24E
100
AcDbEntity
  8
0
  6
CONTINUOUS
 62
             3
100
AcDbLine
 10
149.5306342831849
 20
89.33361985216303
 11
149.2776028542815
 21
88.87194070926321
  0
LINE
  5
24D
100
AcDbEntity
  8
0
  6
CONTINUOUS
 62
             3
100
AcDbLine
 10
90.94590531206117
 20
57.6872954159827
 11
91.51493557459102
 21
48.0601992901267
  0
LINE
  5
246
100
AcDbEntity
  8
0
  6
CONTINUOUS
 62
             3
100
AcDbLine
 10
108.17813845267879
 20
113.75582100877919
 11
98.56805083444701
 21
114.5626612813995
  0
LINE
  5
23F
100
AcDbEntity
  8
0
  6
CONTINUOUS
 62
             3
100
AcDbLine
 10
148.8961366332172
 20
48.6098447214664
 11
158.34426134368769
 21
50.54316170474901
  0
LINE
  5
231
100
AcDbEntity
  8
0
  6
CONTINUOUS
 62
             3
100
AcDbLine
 10
128.8930291413366
 20
39.7771287631096
 11
137.8865275113879
 21
36.29549663568301
  0
LINE
  5
21D
100
AcDbEntity
  8
0
  6
CONTINUOUS
 62
             3
100
AcDbLine
 10
149.63401417350761
 20
107.2620821693764
 11
146.37576722270239
 21
116.3388989079596
  0
LINE
  5
215
100
AcDbEntity
  8
0
  6
CONTINUOUS
 62
             3
100
AcDbLine
 10
85.04983267477142
 20
78.74382666087163
 11
80.32373027420032
 21
70.33735704662664
  0
LINE
  5
20B
100
AcDbEntity
  8
0
  6
CONTINUOUS
 62
             3
100
AcDbLine
 10
129.8594431943296
 20
116.5952232895271
 11
122.2111338145136
 21
122.46958614474551
  0
LINE
  5
1FC
100
AcDbEntity
  8
0
  6
CONTINUOUS
 62
             3
100
AcDbLine
 10
107.2900175145863
 20
43.16107164750261
 11
112.9735173537432
 21
35.36988400722311
  0
LINE
  5
1F9
100
AcDbEntity
  8
0
  6
CONTINUOUS
 62
             3
100
AcDbLine
 10
91.47376101380573
 20
99.64536549019081
 11
82.95303006386745
 21
95.12851709368093
  0
LINE
  5
1E3
100
AcDbEntity
  8
0
  6
CONTINUOUS
 62
             3
100
AcDbLine
 10
161.22356482139219
 20
88.71960401030643
 11
163.3898506938516
 21
98.11704945153011
  0
LINE
  5
1DD
100
AcDbEntity
  8
0
  6
CONTINUOUS
 62
             3
100
AcDbLine
 10
160.94849470174299
 20
66.85489461252851
 11
167.85153292408569
 21
73.58934622778011
  0
LINE
  5
1DC
100
AcDbEntity
  8
0
  6
CONTINUOUS
 62
             3
100
AcDbLine
 10
167.8515329315363
 20
73.58934623523069
 11
168.55384887298931
 21
73.12771544753028
  0
LINE
  5
1D4
100
AcDbEntity
  8
0
  6
CONTINUOUS
 62
             3
100
AcDbLine
 10
79.15384887447939
 20
106.5746531957613
 11
79.35384887373434
 21
106.5746531957613
  0
LINE
  5
1D3
100
AcDbEntity
  8
0
  6
CONTINUOUS
 62
             3
100
AcDbLine
 10
165.85384887373439
 20
32.25565070713321
 11
81.85384887373434
 21
32.25565070713321
  0
LINE
  5
1D2
100
AcDbEntity
  8
0
  6
CONTINUOUS
 62
             3
100
AcDbLine
 10
81.85384887373434
 20
124.2556507071332
 11
165.85384887373439
 21
124.2556507071332
  0
LINE
  5
1D1
100
AcDbEntity
  8
0
  6
CONTINUOUS
 62
             3
100
AcDbLine
 10
77.85384887373434
 20
36.2556507071332
 11
77.85384887373434
 21
106.5746531957613
  0
LINE
  5
1D0
100
AcDbEntity
  8
0
  6
CONTINUOUS
 62
             3
100
AcDbLine
 10
78.05384887298928
 20
106.5746531957613
 11
77.85384887373434
 21
106.5746531957613
  0
LINE
  5
1CF
100
AcDbEntity
  8
0
  6
CONTINUOUS
 62
             3
100
AcDbLine
 10
77.85384887373434
 20
110.9556507082508
 11
77.85384887373434
 21
120.2556507071332
  0
LINE
  5
1CE
100
AcDbEntity
  8
0
  6
CONTINUOUS
 62
             3
100
AcDbLine
 10
169.85384887373439
 20
120.2556507071332
 11
169.85384887373439
 21
36.2556507071332
  0
LINE
  5
1CB
100
AcDbEntity
  8
0
  6
CONTINUOUS
 62
             3
100
AcDbLine
 10
83.35384887373434
 20
102.0556507078783
 11
80.35384887373434
 21
102.0556507078783
  0
LINE
  5
1CA
100
AcDbEntity
  8
0
  6
CONTINUOUS
 62
             3
100
AcDbLine
 10
84.55384887298928
 20
106.2556507071332
 11
84.55384887298928
 21
103.2556507071332
  0
LINE
  5
1C9
100
AcDbEntity
  8
0
  6
CONTINUOUS
 62
             3
100
AcDbLine
 10
84.45384887149918
 20
110.9556507082508
 11
94.41391001185762
 21
110.9556507082508
  0
LINE
  5
1C8
100
AcDbEntity
  8
0
  6
CONTINUOUS
 62
             3
100
AcDbLine
 10
95.56409808164821
 20
111.9556507082508
 11
85.28600437483178
 21
111.9556507082508
  0
LINE
  5
1C7
100
AcDbEntity
  8
0
  6
CONTINUOUS
 62
             3
100
AcDbLine
 10
83.35384887373434
 20
105.5056507071332
 11
83.35384887373434
 21
104.7556507071332
  0
LINE
  5
1C6
100
AcDbEntity
  8
0
  6
CONTINUOUS
 62
             3
100
AcDbLine
 10
79.85384887373434
 20
105.5056507071332
 11
83.35384887373434
 21
105.5056507071332
  0
LINE
  5
1C5
100
AcDbEntity
  8
0
  6
CONTINUOUS
 62
             3
100
AcDbLine
 10
79.85384887373434
 20
104.7556507071332
 11
79.85384887373434
 21
105.5056507071332
  0
LINE
  5
1C4
100
AcDbEntity
  8
0
  6
CONTINUOUS
 62
             3
100
AcDbLine
 10
89.26700166156874
 20
106.5556507078783
 11
83.35384887373434
 21
106.5556507078783
  0
LINE
  5
1C3
100
AcDbEntity
  8
0
  6
CONTINUOUS
 62
             3
100
AcDbLine
 10
79.15384887447939
 20
110.9556507082508
 11
79.85384887373434
 21
110.9556507082508
  0
LINE
  5
1C2
100
AcDbEntity
  8
0
  6
CONTINUOUS
 62
             3
100
AcDbLine
 10
83.35384887373434
 20
112.7556507071332
 11
83.35384887373434
 21
112.0056507071332
  0
LINE
  5
1C1
100
AcDbEntity
  8
0
  6
CONTINUOUS
 62
             3
100
AcDbLine
 10
83.35384887373434
 20
112.0056507071332
 11
79.85384887373434
 21
112.0056507071332
  0
LINE
  5
1C0
100
AcDbEntity
  8
0
  6
CONTINUOUS
 62
             3
100
AcDbLine
 10
79.85384887373434
 20
112.0056507071332
 11
79.85384887373434
 21
112.7556507071332
  0
LINE
  5
1BF
100
AcDbEntity
  8
0
  6
CONTINUOUS
 62
             3
100
AcDbLine
 10
79.85384887373434
 20
104.0056507071332
 11
83.35384887373434
 21
104.0056507071332
  0
LINE
  5
1BE
100
AcDbEntity
  8
0
  6
CONTINUOUS
 62
             3
100
AcDbLine
 10
83.35384887373434
 20
104.0056507071332
 11
83.35384887373434
 21
104.7556507071332
  0
LINE
  5
1BD
100
AcDbEntity
  8
0
  6
CONTINUOUS
 62
             3
100
AcDbLine
 10
79.85384887373434
 20
104.7556507071332
 11
79.85384887373434
 21
104.0056507071332
  0
LINE
  5
1BC
100
AcDbEntity
  8
0
  6
CONTINUOUS
 62
             3
100
AcDbLine
 10
83.35384887373434
 20
113.5056507071332
 11
79.85384887373434
 21
113.5056507071332
  0
LINE
  5
1BB
100
AcDbEntity
  8
0
  6
CONTINUOUS
 62
             3
100
AcDbLine
 10
83.35384887373434
 20
112.7556507071332
 11
83.35384887373434
 21
113.5056507071332
  0
LINE
  5
1BA
100
AcDbEntity
  8
0
  6
CONTINUOUS
 62
             3
100
AcDbLine
 10
79.85384887373434
 20
113.5056507071332
 11
79.85384887373434
 21
112.7556507071332
  0
LINE
  5
1B1
100
AcDbEntity
  8
0
  6
CONTINUOUS
 62
             3
100
AcDbLine
 10
218.22446268942201
 20
40.2306447556095
 11
245.72446268942201
 21
40.2306447556095
  0
LINE
  5
1B0
100
AcDbEntity
  8
0
  6
CONTINUOUS
 62
             3
100
AcDbLine
 10
245.72446268942201
 20
116.18396356011191
 11
218.22446268942201
 21
116.18396356011191
  0
LINE
  5
1AF
100
AcDbEntity
  8
0
  6
CONTINUOUS
 62
             3
100
AcDbLine
 10
225.39433566998679
 20
32.20730415786071
 11
226.2603610694035
 21
32.70730415786071
  0
LINE
  5
1AE
100
AcDbEntity
  8
0
  6
CONTINUOUS
 62
             3
100
AcDbLine
 10
226.2603610694035
 20
123.7073041578607
 11
225.39433566998679
 21
124.2073041578607
  0
LINE
  5
1AD
100
AcDbEntity
  8
0
  6
CONTINUOUS
 62
             3
100
AcDbLine
 10
226.2603610694035
 20
32.70730415786071
 11
244.56172507029021
 21
32.70730415786071
  0
LINE
  5
1AC
100
AcDbEntity
  8
0
  6
CONTINUOUS
 62
             3
100
AcDbLine
 10
244.56172507029021
 20
123.7073041578607
 11
226.2603610694035
 21
123.7073041578607
  0
LINE
  5
1A6
100
AcDbEntity
  8
0
  6
CONTINUOUS
 62
             3
100
AcDbLine
 10
251.02446269016701
 20
120.2073041578607
 11
251.02446269016701
 21
124.2073041578607
  0
LINE
  5
1A5
100
AcDbEntity
  8
0
  6
CONTINUOUS
 62
             3
100
AcDbLine
 10
251.22446268942201
 20
124.00730415860571
 11
251.22446268942201
 21
120.2073041578607
  0
LINE
  5
1A4
100
AcDbEntity
  8
0
  6
CONTINUOUS
 62
             3
100
AcDbLine
 10
246.22446268942201
 20
32.20730415786071
 11
246.22446268942201
 21
36.20730415786071
  0
LINE
  5
1A3
100
AcDbEntity
  8
0
  6
CONTINUOUS
 62
             3
100
AcDbLine
 10
246.22446268942201
 20
36.20730415786071
 11
251.02446269016701
 21
36.20730415786071
  0
LINE
  5
1A2
100
AcDbEntity
  8
0
  6
CONTINUOUS
 62
             3
100
AcDbLine
 10
251.02446269016701
 20
32.20730415786071
 11
251.02446269016701
 21
36.20730415786071
  0
LINE
  5
1A1
100
AcDbEntity
  8
0
  6
CONTINUOUS
 62
             3
100
AcDbLine
 10
251.02446269016701
 20
32.20730415786071
 11
246.22446268942201
 21
32.20730415786071
  0
LINE
  5
1A0
100
AcDbEntity
  8
0
  6
CONTINUOUS
 62
             3
100
AcDbLine
 10
251.02446269016701
 20
36.20730415786071
 11
251.02446269016701
 21
120.2073041578607
  0
LINE
  5
19F
100
AcDbEntity
  8
0
  6
CONTINUOUS
 62
             3
100
AcDbLine
 10
251.22446268942201
 20
120.2073041578607
 11
251.22446268942201
 21
36.20730415786071
  0
LINE
  5
19E
100
AcDbEntity
  8
0
  6
CONTINUOUS
 62
             3
100
AcDbLine
 10
251.22446268942201
 20
36.20730415786071
 11
251.22446268942201
 21
32.4073041571156
  0
LINE
  5
19D
100
AcDbEntity
  8
0
  6
CONTINUOUS
 62
             3
100
AcDbLine
 10
246.22446268942201
 20
62.83687800968451
 11
246.22446268942201
 21
36.20730415786071
  0
LINE
  5
19C
100
AcDbEntity
  8
0
  6
CONTINUOUS
 62
             3
100
AcDbLine
 10
246.22446268942201
 20
93.57773030696822
 11
246.22446268942201
 21
62.83687800968451
  0
LINE
  5
19B
100
AcDbEntity
  8
0
  6
CONTINUOUS
 62
             3
100
AcDbLine
 10
246.22446268942201
 20
120.2073041578607
 11
246.22446268942201
 21
93.57773030696822
  0
LINE
  5
19A
100
AcDbEntity
  8
0
  6
CONTINUOUS
 62
             3
100
AcDbLine
 10
251.02446269016701
 20
120.2073041578607
 11
246.22446268942201
 21
120.2073041578607
  0
LINE
  5
199
100
AcDbEntity
  8
0
  6
CONTINUOUS
 62
             3
100
AcDbLine
 10
246.22446268942201
 20
120.2073041578607
 11
246.22446268942201
 21
124.2073041578607
  0
LINE
  5
198
100
AcDbEntity
  8
0
  6
CONTINUOUS
 62
             3
100
AcDbLine
 10
246.22446268942201
 20
124.2073041578607
 11
251.02446269016701
 21
124.2073041578607
  0
LINE
  5
192
100
AcDbEntity
  8
0
  6
CONTINUOUS
 62
             3
100
AcDbLine
 10
243.22446268942201
 20
47.1001868216173
 11
243.22446268942201
 21
63.78762601836039
  0
LINE
  5
186
100
AcDbEntity
  8
0
  6
CONTINUOUS
 62
             3
100
AcDbLine
 10
243.22446268942201
 20
92.62698229829235
 11
243.22446268942201
 21
109.3144214941041
  0
LINE
  5
180
100
AcDbEntity
  8
0
  6
CONTINUOUS
 62
             3
100
AcDbLine
 10
226.2603610694035
 20
109.3128415193261
 11
226.2603610694035
 21
47.1017667973266
  0
LINE
  5
16D
100
AcDbEntity
  8
0
  6
CONTINUOUS
 62
             3
100
AcDbLine
 10
217.72446268942201
 20
99.56618406957401
 11
217.72446268942201
 21
120.2073041578607
  0
LINE
  5
168
100
AcDbEntity
  8
0
  6
CONTINUOUS
 62
             3
100
AcDbLine
 10
217.72446268942201
 20
36.20730415786071
 11
217.72446268942201
 21
56.8484242461474
  0
LINE
  5
167
100
AcDbEntity
  8
0
  6
CONTINUOUS
 62
             3
100
AcDbLine
 10
212.9244626886769
 20
36.20730415786071
 11
217.72446268942201
 21
36.20730415786071
  0
LINE
  5
166
100
AcDbEntity
  8
0
  6
CONTINUOUS
 62
             3
100
AcDbLine
 10
212.9244626886769
 20
120.2073041578607
 11
212.9244626886769
 21
36.20730415786071
  0
LINE
  5
165
100
AcDbEntity
  8
0
  6
CONTINUOUS
 62
             3
100
AcDbLine
 10
217.72446268942201
 20
120.2073041578607
 11
212.9244626886769
 21
120.2073041578607
  0
LINE
  5
164
100
AcDbEntity
  8
0
  6
CONTINUOUS
 62
             3
100
AcDbLine
 10
217.72446268942201
 20
32.20730415786071
 11
212.9244626886769
 21
32.20730415786071
  0
LINE
  5
163
100
AcDbEntity
  8
0
  6
CONTINUOUS
 62
             3
100
AcDbLine
 10
212.9244626886769
 20
36.20730415786071
 11
212.9244626886769
 21
32.20730415786071
  0
LINE
  5
162
100
AcDbEntity
  8
0
  6
CONTINUOUS
 62
             3
100
AcDbLine
 10
217.72446268942201
 20
36.20730415786071
 11
217.72446268942201
 21
32.20730415786071
  0
LINE
  5
159
100
AcDbEntity
  8
0
  6
CONTINUOUS
 62
             3
100
AcDbLine
 10
212.9244626886769
 20
124.2073041578607
 11
212.9244626886769
 21
120.2073041578607
  0
LINE
  5
158
100
AcDbEntity
  8
0
  6
CONTINUOUS
 62
             3
100
AcDbLine
 10
212.9244626886769
 20
124.2073041578607
 11
217.72446268942201
 21
124.2073041578607
  0
LINE
  5
157
100
AcDbEntity
  8
0
  6
CONTINUOUS
 62
             3
100
AcDbLine
 10
217.72446268942201
 20
124.2073041578607
 11
217.72446268942201
 21
120.2073041578607
  0
LINE
  5
14E
100
AcDbEntity
  8
0
  6
CONTINUOUS
 62
             3
100
AcDbLine
 10
212.72446268942201
 20
120.2073041578607
 11
212.72446268942201
 21
124.00730415860571
  0
LINE
  5
14D
100
AcDbEntity
  8
0
  6
CONTINUOUS
 62
             3
100
AcDbLine
 10
212.72446268942201
 20
36.20730415786071
 11
212.72446268942201
 21
120.2073041578607
  0
LINE
  5
14C
100
AcDbEntity
  8
0
  6
CONTINUOUS
 62
             3
100
AcDbLine
 10
212.72446268942201
 20
32.4073041571156
 11
212.72446268942201
 21
36.20730415786071
  0
LINE
  5
14B
100
AcDbEntity
  8
0
  6
CONTINUOUS
 62
             3
100
AcDbLine
 10
226.2603610694035
 20
47.1001868216173
 11
243.22446268942201
 21
47.1001868216173
  0
LINE
  5
14A
100
AcDbEntity
  8
0
  6
CONTINUOUS
 62
             3
100
AcDbLine
 10
226.2603610694035
 20
109.3144214941041
 11
226.2603610694035
 21
109.3128415193261
  0
LINE
  5
149
100
AcDbEntity
  8
0
  6
CONTINUOUS
 62
             3
100
AcDbLine
 10
243.22446268942201
 20
109.3144214941041
 11
226.2603610694035
 21
109.3144214941041
  0
LINE
  5
148
100
AcDbEntity
  8
0
  6
CONTINUOUS
 62
             3
100
AcDbLine
 10
245.72446268942201
 20
41.791304926932
 11
245.72446268942201
 21
41.0841981457399
  0
LINE
  5
13F
100
AcDbEntity
  8
0
  6
CONTINUOUS
 62
             3
100
AcDbLine
 10
245.72446268942201
 20
115.3304101709129
 11
245.72446268942201
 21
114.6233033897207
  0
LINE
  5
136
100
AcDbEntity
  8
0
  6
CONTINUOUS
 62
             3
100
AcDbLine
 10
245.72446268942201
 20
41.791304926932
 11
245.72446268942201
 21
44.63613793773961
  0
LINE
  5
135
100
AcDbEntity
  8
0
  6
CONTINUOUS
 62
             3
100
AcDbLine
 10
245.72446268942201
 20
40.37709136454771
 11
245.72446268942201
 21
41.0841981457399
  0
LINE
  5
12C
100
AcDbEntity
  8
0
  6
CONTINUOUS
 62
             3
100
AcDbLine
 10
245.72446268942201
 20
111.7784703789131
 11
245.72446268942201
 21
114.6233033897207
  0
LINE
  5
12B
100
AcDbEntity
  8
0
  6
CONTINUOUS
 62
             3
100
AcDbLine
 10
245.72446268942201
 20
115.3304101709129
 11
245.72446268942201
 21
116.03751695210499
  0
LINE
  5
122
100
AcDbEntity
  8
0
  6
CONTINUOUS
 62
             3
100
AcDbLine
 10
218.22446268942201
 20
41.791304926932
 11
245.72446268942201
 21
41.791304926932
  0
LINE
  5
121
100
AcDbEntity
  8
0
  6
CONTINUOUS
 62
             3
100
AcDbLine
 10
245.72446268942201
 20
114.6233033897207
 11
218.22446268942201
 21
114.6233033897207
  0
LINE
  5
120
100
AcDbEntity
  8
0
  6
CONTINUOUS
 62
             3
100
AcDbLine
 10
243.22446268942201
 20
46.40479697714011
 11
226.39433566998679
 21
46.40479697714011
  0
LINE
  5
11D
100
AcDbEntity
  8
0
  6
CONTINUOUS
 62
             3
100
AcDbLine
 10
226.39433566998679
 20
110.00981133951259
 11
243.22446268942201
 21
110.00981133951259
  0
LINE
  5
11A
100
AcDbEntity
  8
0
  6
CONTINUOUS
 62
             3
100
AcDbLine
 10
217.97446268942201
 20
32.20730415786071
 11
217.72446268942201
 21
32.20730415786071
  0
LINE
  5
119
100
AcDbEntity
  8
0
  6
CONTINUOUS
 62
             3
100
AcDbLine
 10
217.72446268942201
 20
124.2073041578607
 11
217.97446268942201
 21
124.2073041578607
  0
LINE
  5
118
100
AcDbEntity
  8
0
  6
CONTINUOUS
 62
             3
100
AcDbLine
 10
226.2603610694035
 20
40.2306447556095
 11
226.2603610694035
 21
32.70730415786071
  0
LINE
  5
117
100
AcDbEntity
  8
0
  6
CONTINUOUS
 62
             3
100
AcDbLine
 10
217.97446268942201
 20
32.20730415786071
 11
225.3868152103945
 21
32.20730415786071
  0
LINE
  5
116
100
AcDbEntity
  8
0
  6
CONTINUOUS
 62
             3
100
AcDbLine
 10
226.2603610694035
 20
123.7073041578607
 11
226.2603610694035
 21
116.18396356011191
  0
LINE
  5
115
100
AcDbEntity
  8
0
  6
CONTINUOUS
 62
             3
100
AcDbLine
 10
217.97446268942201
 20
124.2073041578607
 11
225.3487508795782
 21
124.2073041578607
  0
LINE
  5
10E
100
AcDbEntity
  8
0
  6
CONTINUOUS
 62
             3
100
AcDbLine
 10
245.72446268942201
 20
40.37709136454771
 11
245.72446268942201
 21
40.2306447556095
  0
LINE
  5
10D
100
AcDbEntity
  8
0
  6
CONTINUOUS
 62
             3
100
AcDbLine
 10
245.72446268942201
 20
116.18396356011191
 11
245.72446268942201
 21
116.03751695210499
  0
LINE
  5
10C
100
AcDbEntity
  8
0
  6
CONTINUOUS
 62
             3
100
AcDbLine
 10
243.22446268942201
 20
35.052664982699
 11
243.22446268942201
 21
40.2306447556095
  0
LINE
  5
10B
100
AcDbEntity
  8
0
  6
CONTINUOUS
 62
             3
100
AcDbLine
 10
243.22446268942201
 20
116.18396356011191
 11
243.22446268942201
 21
121.3619433339537
  0
LINE
  5
10A
100
AcDbEntity
  8
0
  6
CONTINUOUS
 62
             4
100
AcDbLine
 10
79.85384887373434
 20
110.9556507082508
 11
83.35384887373434
 21
110.9556507082508
  0
LINE
  5
109
100
AcDbEntity
  8
0
  6
CONTINUOUS
 62
             3
100
AcDbLine
 10
83.35384887373434
 20
110.9556507082508
 11
84.45384887149918
 21
110.9556507082508
  0
LINE
  5
108
100
AcDbEntity
  8
0
  6
CONTINUOUS
 62
             4
100
AcDbLine
 10
83.35384887373434
 20
106.5556507078783
 11
79.85384887373434
 21
106.5556507078783
  0
LINE
  5
107
100
AcDbEntity
  8
0
  6
CONTINUOUS
 62
             3
100
AcDbLine
 10
79.85384887373434
 20
106.5556507078783
 11
79.35384887373434
 21
106.5556507078783
  0
LINE
  5
106
100
AcDbEntity
  8
1
  6
CONTINUOUS
 62
             3
100
AcDbLine
 10
83.15384887447939
 20
116.52047566751401
 11
80.35384887373434
 21
116.52047566751401
  0
LINE
  5
105
100
AcDbEntity
  8
0
  6
CONTINUOUS
 62
             3
100
AcDbLine
 10
169.65384887447939
 20
36.2556507071332
 11
169.65384887447939
 21
120.2556507071332
  0
LINE
  5
104
100
AcDbEntity
  8
0
  6
CONTINUOUS
 62
             3
100
AcDbLine
 10
169.85384887373439
 20
120.2556507071332
 11
169.85384887373439
 21
36.2556507071332
  0
LINE
  5
103
100
AcDbEntity
  8
0
  6
CONTINUOUS
 62
             3
100
AcDbLine
 10
165.85384887373439
 20
124.0556507078783
 11
81.85384887373434
 21
124.0556507078783
  0
LINE
  5
102
100
AcDbEntity
  8
0
  6
CONTINUOUS
 62
             3
100
AcDbLine
 10
81.85384887373434
 20
32.4556507082508
 11
165.85384887373439
 21
32.4556507082508
  0
LINE
  5
101
100
AcDbEntity
  8
0
  6
CONTINUOUS
 62
             3
100
AcDbLine
 10
84.35384887373434
 20
111.309728237413
 11
84.35384887373434
 21
114.2556507071332
  0
LINE
  5
100
100
AcDbEntity
  8
0
  6
CONTINUOUS
 62
             3
100
AcDbLine
 10
165.85384887373439
 20
32.25565070713321
 11
81.85384887373434
 21
32.25565070713321
  0
LINE
  5
FF
100
AcDbEntity
  8
0
  6
CONTINUOUS
 62
             3
100
AcDbLine
 10
81.85384887373434
 20
124.2556507071332
 11
165.85384887373439
 21
124.2556507071332
  0
LINE
  5
FE
100
AcDbEntity
  8
0
  6
CONTINUOUS
 62
             3
100
AcDbLine
 10
84.35384887373434
 20
111.309728237413
 11
84.35384887373434
 21
111.2556507071332
  0
LINE
  5
FD
100
AcDbEntity
  8
0
  6
CONTINUOUS
 62
             3
100
AcDbLine
 10
77.85384887373434
 20
110.7556507071332
 11
77.85384887373434
 21
120.2556507071332
  0
LINE
  5
66
100
AcDbEntity
  8
0
  6
CONTINUOUS
 62
             7
100
AcDbLine
 10
104.61408440312729
 20
103.8257790446134
 11
104.61407791367159
 21
103.8257741588951
  0
LINE
  5
65
100
AcDbEntity
  8
0
  6
CONTINUOUS
 62
             3
100
AcDbLine
 10
163.1961101322471
 20
58.5532021462769
 11
168.35384887373439
 21
58.5532021462769
  0
LINE
  5
64
100
AcDbEntity
  8
0
  6
CONTINUOUS
 62
             7
100
AcDbLine
 10
144.5972871846555
 20
59.50117686352151
 11
144.0066608740984
 21
59.54431274122011
  0
LINE
  5
63
100
AcDbEntity
  8
0
  6
CONTINUOUS
 62
             3
100
AcDbLine
 10
167.41968756458149
 20
84.42150015065832
 11
168.55384887298931
 21
84.42150015065832
  0
LINE
  5
62
100
AcDbEntity
  8
0
  6
CONTINUOUS
 62
             7
100
AcDbLine
 10
151.44377370467771
 20
73.6931327717231
 11
150.92358622243989
 21
73.41010429298891
  0
LINE
  5
61
100
AcDbEntity
  8
0
  6
CONTINUOUS
 62
             3
100
AcDbLine
 10
158.1191924429535
 20
105.8579373895974
 11
166.9964310816525
 21
105.8579373895974
  0
LINE
  5
60
100
AcDbEntity
  8
0
  6
CONTINUOUS
 62
             7
100
AcDbLine
 10
149.530654034674
 20
89.33365588782741
 11
149.2460612236558
 21
88.81432259416593
  0
LINE
  5
5F
100
AcDbEntity
  8
0
  6
CONTINUOUS
 62
             3
100
AcDbLine
 10
146.29871724462501
 20
40.4108639644311
 11
146.29871724462501
 21
33.5556507078783
  0
LINE
  5
5E
100
AcDbEntity
  8
0
  6
CONTINUOUS
 62
             3
100
AcDbLine
 10
137.75676737269751
 20
120.00141525136689
 11
137.75676737269751
 21
122.9556507082508
  0
LINE
  5
5D
100
AcDbEntity
  8
0
  6
CONTINUOUS
 62
             7
100
AcDbLine
 10
139.46533015286909
 20
101.4569906327726
 11
139.50668822145451
 21
100.8662371761949
  0
LINE
  5
5C
100
AcDbEntity
  8
0
  6
CONTINUOUS
 62
             3
100
AcDbLine
 10
122.27523724278799
 20
34.28397817591591
 11
122.27523724278799
 21
33.5556507078783
  0
LINE
  5
4F
100
AcDbEntity
  8
0
  6
CONTINUOUS
 62
             7
100
AcDbLine
 10
115.4113151012956
 20
51.59586553609381
 11
115.2051978438197
 21
52.1510374123083
  0
LINE
  5
4E
100
AcDbEntity
  8
0
  6
CONTINUOUS
 62
             3
100
AcDbLine
 10
112.98026391407841
 20
120.89090783110269
 11
112.98026391407841
 21
122.9556507082508
  0
LINE
  5
4D
100
AcDbEntity
  8
0
  6
CONTINUOUS
 62
             7
100
AcDbLine
 10
124.4434712632595
 20
106.2140638843031
 11
124.7976493231057
 21
105.73945031276359
  0
LINE
  5
4C
100
AcDbEntity
  8
0
  6
CONTINUOUS
 62
             3
100
AcDbLine
 10
98.75295528313504
 20
42.1177877267675
 11
98.75295528313504
 21
33.5556507078783
  0
LINE
  5
3F
100
AcDbEntity
  8
0
  6
CONTINUOUS
 62
             7
100
AcDbLine
 10
102.33816946214419
 20
60.39239060840021
 11
102.4649211644231
 21
60.97086631374819
  0
LINE
  5
3E
100
AcDbEntity
  8
0
  6
CONTINUOUS
 62
             3
100
AcDbLine
 10
80.5544044218062
 20
86.0760158100949
 11
79.15384887447939
 21
86.0760158100949
  0
LINE
  5
3D
100
AcDbEntity
  8
0
  6
CONTINUOUS
 62
             7
100
AcDbLine
 10
79.35384887373434
 20
76.68821791055066
 11
81.60499165123687
 21
80.75076542849106
  0
LINE
  5
3C
100
AcDbEntity
  8
0
  6
CONTINUOUS
 62
             7
100
AcDbLine
 10
98.66691970369207
 20
90.40633467452986
 11
99.24577427199469
 21
90.53134476261599
  0
LINE
  5
3B
100
AcDbEntity
  8
0
  6
CONTINUOUS
 62
             3
100
AcDbLine
 10
83.20002968153344
 20
61.42511343637867
 11
79.15384887447939
 21
61.42511343637867
  0
LINE
  5
3A
100
AcDbEntity
  8
0
  6
CONTINUOUS
 62
             3
100
AcDbLine
 10
95.56409808164821
 20
111.9556507082508
 11
85.28600437483178
 21
111.9556507082508
  0
LINE
  5
37
100
AcDbEntity
  8
1
  6
CONTINUOUS
 62
             3
100
AcDbLine
 10
163.1961101322471
 20
58.5532021462769
 11
168.55384887298931
 21
58.5532021462769
  0
LINE
  5
36
100
AcDbEntity
  8
1
  6
CONTINUOUS
 62
             3
100
AcDbLine
 10
158.1191924429535
 20
105.8579373895974
 11
167.4754472217559
 21
105.8579373895974
  0
LINE
  5
35
100
AcDbEntity
  8
1
  6
CONTINUOUS
 62
             3
100
AcDbLine
 10
148.11984109422551
 20
122.9556507082508
 11
148.14628479173771
 21
122.7556507071332
  0
LINE
  5
34
100
AcDbEntity
  8
1
  6
CONTINUOUS
 62
             3
100
AcDbLine
 10
110.254490564674
 20
120.1012891145275
 11
110.1106793127059
 21
120.05427855866409
  0
LINE
  5
33
100
AcDbEntity
  8
1
  6
CONTINUOUS
 62
             2
100
AcDbLine
 10
69.20301104253517
 20
110.22609399592891
 11
52.17778107210044
 21
110.22609399592891
  0
LINE
  5
32
100
AcDbEntity
  8
1
  6
CONTINUOUS
 62
             2
100
AcDbLine
 10
50.34041313885694
 20
110.22609399592891
 11
33.15255108676456
 21
110.22609399592891
  0
LINE
  5
31
100
AcDbEntity
  8
1
  6
CONTINUOUS
 62
             2
100
AcDbLine
 10
27.15255108676456
 20
109.62609399630141
 11
33.15255108676456
 21
109.62609399630141
  0
LINE
  5
30
100
AcDbEntity
  8
1
  6
CONTINUOUS
 62
             2
100
AcDbLine
 10
27.15255108676456
 20
110.0260939957426
 11
27.15255108676456
 21
109.62609399630141
  0
LINE
  5
2F
100
AcDbEntity
  8
1
  6
CONTINUOUS
 62
             2
100
AcDbLine
 10
33.15255108676456
 20
110.0260939957426
 11
27.15255108676456
 21
110.0260939957426
  0
LINE
  5
2E
100
AcDbEntity
  8
1
  6
CONTINUOUS
 62
             2
100
AcDbLine
 10
69.20301104253517
 20
107.0260939957426
 11
52.17778107210044
 21
107.0260939957426
  0
LINE
  5
2D
100
AcDbEntity
  8
1
  6
CONTINUOUS
 62
             2
100
AcDbLine
 10
50.34041313885694
 20
107.0260939957426
 11
33.15255108676456
 21
107.0260939957426
  0
LINE
  5
2C
100
AcDbEntity
  8
1
  6
CONTINUOUS
 62
             2
100
AcDbLine
 10
27.15255108676456
 20
107.22609399592891
 11
33.15255108676456
 21
107.22609399592891
  0
LINE
  5
2B
100
AcDbEntity
  8
1
  6
CONTINUOUS
 62
             2
100
AcDbLine
 10
33.15255108676456
 20
107.62609399630141
 11
27.15255108676456
 21
107.62609399630141
  0
LINE
  5
2A
100
AcDbEntity
  8
1
  6
CONTINUOUS
 62
             2
100
AcDbLine
 10
27.15255108676456
 20
107.62609399630141
 11
27.15255108676456
 21
107.22609399592891
  0
LINE
  5
29
100
AcDbEntity
  8
0
  6
CONTINUOUS
 62
             3
100
AcDbLine
 10
165.85384887373439
 20
124.0556507078783
 11
81.85384887373434
 21
124.0556507078783
  0
SOLID
  5
592
100
AcDbEntity
  8
1
 62
             2
100
AcDbTrace
 10
103.75376878449006
 20
17.28815927029631
 11
103.44693541419727
 21
16.14370478335692
 12
99.25385466134534
 22
17.88124744398801
 13
99.25385466134534
 23
17.88124744398801
  0
SOLID
  5
594
100
AcDbEntity
  8
1
 62
             2
100
AcDbTrace
 10
219.49032008867698
 20
13.87441745696987
 11
219.49032008867698
 21
12.63688397964835
 12
214.79032008867699
 22
13.25565071830911
 13
214.79032008867699
 23
13.25565071830911
  0
INSERT
  5
5E6
100
AcDbEntity
  8
0
100
AcDbBlockReference
  2
*D6
 10
0.0
 20
0.0
  0
ENDSEC
  0
SECTION
  2
OBJECTS
  0
DICTIONARY
  5
19
100
AcDbDictionary
  3
ACAD_GROUP
350
1A
  3
ACAD_MLINESTYLE
350
1B
  0
DICTIONARY
  5
1A
102
{ACAD_REACTORS
330
19
102
}
100
AcDbDictionary
  0
DICTIONARY
  5
1B
102
{ACAD_REACTORS
330
19
102
}
100
AcDbDictionary
  3
STANDARD
350
1C
  0
MLINESTYLE
  5
1C
102
{ACAD_REACTORS
330
1B
102
}
100
AcDbMlineStyle
  2
STANDARD
 70
             0
  3

 62
             0
 51
90.0
 52
90.0
 71
             2
 49
0.5
 62
           256
  6
BYLAYER
 49
-0.5
 62
           256
  6
BYLAYER
  0
ENDSEC
  0
EOF
