  0
SECTION
  2
HEADER
  9
$ACADVER
  1
AC1009
  9
$INSBASE
 10
0
 20
0
  9
$EXTMIN
 10
932.6181224411628
 20
461.743575290757
  9
$EXTMAX
 10
1218.93920785619
 20
651.9841788851878
  9
$LIMMIN
 10
932.6181224411628
 20
461.743575290757
  9
$LIMMAX
 10
1218.93920785619
 20
651.9841788851878
  9
$VIEWCTR
 10
10
 20
10
  9
$VIEWSIZE
 40
10
  9
$SNAPMODE
 70
0
  9
$SNAPUNIT
 10
1
 20
1
  9
$SNAPBASE
 10
0
 20
0
  9
$SNAPANG
 50
0
  9
$SNAPSTYLE
 70
0
  9
$SNAPISOPAIR
 70
0
  9
$GRIDMODE
 70
0
  9
$GRIDUNIT
 10
0
 20
0
  9
$ORTHOMODE
 70
0
  9
$REGENMODE
 70
1
  9
$FILLMODE
 70
1
  9
$QTEXTMODE
 70
0
  9
$DRAGMODE
 70
2
  9
$LTSCALE
 40
1
  9
$OSMODE
 70
0
  9
$ATTMODE
 70
1
  9
$TEXTSIZE
 40
3.5
  9
$TRACEWID
 40
0.5
  9
$TEXTSTYLE
  7
STANDARD
  9
$CLAYER
  8
0
  9
$CELTYPE
  6
BYLAYER
  9
$CECOLOR
 62
256
  9
$DIMSCALE
 40
1
  9
$DIMASZ
 40
0.18
  9
$DIMEXO
 40
0.0625
  9
$DIMDLI
 40
0.38
  9
$DIMRND
 40
0
  9
$DIMDLE
 40
0
  9
$DIMEXE
 40
0.18
  9
$DIMTP
 40
0
  9
$DIMTM
 40
0
  9
$DIMTXT
 40
0.18
  9
$DIMCEN
 40
0.09
  9
$DIMTSZ
 40
0
  9
$DIMTOL
 70
0
  9
$DIMLIM
 70
0
  9
$DIMTIH
 70
1
  9
$DIMTOH
 70
1
  9
$DIMSE1
 70
0
  9
$DIMSE2
 70
0
  9
$DIMTAD
 70
0
  9
$DIMZIN
 70
0
  9
$DIMBLK
  1

  9
$DIMASO
 70
1
  9
$DIMSHO
 70
1
  9
$DIMPOST
  1

  9
$DIMAPOST
  1

  9
$DIMALT
 70
0
  9
$DIMALTD
 70
2
  9
$DIMALTF
 40
25.4
  9
$DIMLFAC
 40
1
  9
$DIMTOFL
 70
0
  9
$DIMTVP
 40
0
  9
$DIMTIX
 70
0
  9
$DIMSOXD
 70
0
  9
$DIMSAH
 70
0
  9
$DIMBLK1
  1

  9
$DIMBLK2
  1

  9
$DIMSTYLE
  2
*UNNAMED
  9
$DIMCLRD
 70
0
  9
$DIMCLRE
 70
0
  9
$DIMCLRT
 70
0
  9
$DIMTFAC
 40
1
  9
$DIMGAP
 40
0.09
  9
$LUNITS
 70
2
  9
$LUPREC
 70
4
  9
$AXISMODE
 70
0
  9
$AXISUNIT
 10
0
 20
0
  9
$SKETCHINC
 40
0.1
  9
$FILLETRAD
 40
2
  9
$AUNITS
 70
0
  9
$AUPREC
 70
0
  9
$MENU
  1
ACAD
  9
$ELEVATION
 40
0
  9
$THICKNESS
 40
0
  9
$VIEWDIR
 10
0
 20
0
 30
1
  9
$LIMCHECK
 70
0
  9
$BLIPMODE
 70
1
  9
$CHAMFERA
 40
0
  9
$CHAMFERB
 40
0
  9
$FASTZOOM
 70
1
  9
$SKPOLY
 70
0
  9
$ANGBASE
 50
0
  9
$ANGDIR
 70
0
  9
$PDMODE
 70
0
  9
$PDSIZE
 40
0
  9
$PLINEWID
 40
0
  9
$COORDS
 70
2
  0
ENDSEC
  0
SECTION
  2
TABLES
  0
TABLE
  2
DIMSTYLE
 70
5
  0
DIMSTYLE
  2
DMST_1
 70
0
  3

  4

  5

  6

  7

 40
1
 41
3.2
 42
1
 43
7
 44
1.5
 45
0
 46
0
 47
20
 48
0
140
3.2
141
0
142
0
143
25.4
144
1
145
0
146
0.6
147
0.09
 71
1
 72
0
 73
0
 74
0
 75
0
 76
0
 77
1
 78
9
170
0
171
2
172
0
173
0
174
0
175
0
176
2
177
2
178
2
  0
DIMSTYLE
  2
DMST_2
 70
0
  3

  4

  5

  6

  7

 40
1
 41
3.2
 42
1
 43
7
 44
1.5
 45
0
 46
0
 47
0
 48
0
140
3.2
141
0
142
0
143
25.4
144
1
145
0
146
1
147
0.09
 71
0
 72
0
 73
0
 74
0
 75
0
 76
0
 77
1
 78
9
170
0
171
2
172
0
173
0
174
0
175
0
176
2
177
2
178
2
  0
DIMSTYLE
  2
DMST_3
 70
0
  3

  4

  5

  6

  7

 40
1
 41
3.2
 42
1
 43
7
 44
1.5
 45
0
 46
0
 47
0
 48
0
140
3.2
141
0
142
0
143
25.4
144
1
145
0
146
1
147
0.09
 71
0
 72
0
 73
1
 74
1
 75
0
 76
0
 77
1
 78
9
170
0
171
2
172
0
173
0
174
0
175
0
176
2
177
2
178
2
  0
DIMSTYLE
  2
DMST_4
 70
0
  3
以下
  4

  5

  6

  7

 40
1
 41
3.2
 42
1
 43
7
 44
1.5
 45
0
 46
0
 47
0
 48
0
140
3.2
141
0
142
0
143
25.4
144
1
145
0
146
1
147
0.09
 71
0
 72
0
 73
0
 74
0
 75
0
 76
0
 77
1
 78
9
170
0
171
2
172
0
173
0
174
0
175
0
176
2
177
2
178
2
  0
DIMSTYLE
  2
DMST_5
 70
0
  3
穴　HOLES
  4

  5

  6

  7

 40
1
 41
3.2
 42
1
 43
7
 44
1.5
 45
0
 46
0
 47
0
 48
0
140
3.2
141
0
142
0
143
25.4
144
1
145
0
146
1
147
0.09
 71
0
 72
0
 73
1
 74
1
 75
0
 76
0
 77
1
 78
9
170
0
171
2
172
1
173
0
174
0
175
0
176
2
177
2
178
2
  0
ENDTAB
  0
TABLE
  2
LTYPE
 70
9
  0
LTYPE
  2
CONTINUOUS
 70
64
  3
Solid line
 72
65
 73
0
 40
0
  0
LTYPE
  2
BORDER
 70
64
  3
__ __ . __ __ .
 72
65
 73
6
 40
13.18583945990257
 49
3.767382702829306
 49
-1.883691351414653
 49
3.767382702829306
 49
-1.883691351414653
 49
0
 49
-1.883691351414653
  0
LTYPE
  2
CENTER
 70
64
  3
____ _ ____ _
 72
65
 73
4
 40
15.06953081131722
 49
9.418456757073265
 49
-1.883691351414653
 49
1.883691351414653
 49
-1.883691351414653
  0
LTYPE
  2
DASHDOT
 70
64
  3
__ . __ . __ .
 72
65
 73
4
 40
7.534765405658612
 49
3.767382702829306
 49
-1.883691351414653
 49
0
 49
-1.883691351414653
  0
LTYPE
  2
DASHED
 70
64
  3
__ __ __ __ __
 72
65
 73
2
 40
5.651074054243959
 49
3.767382702829306
 49
-1.883691351414653
  0
LTYPE
  2
DIVIDE
 70
64
  3
__ . . __ . . 
 72
65
 73
6
 40
9.418456757073265
 49
3.767382702829306
 49
-1.883691351414653
 49
0
 49
-1.883691351414653
 49
0
 49
-1.883691351414653
  0
LTYPE
  2
DOT
 70
64
  3
..............
 72
65
 73
4
 40
3.767382702829306
 49
0
 49
-1.883691351414653
 49
0
 49
-1.883691351414653
  0
LTYPE
  2
HIDDEN
 70
64
  3
_ _ _ _ _ _ _
 72
65
 73
2
 40
2.82553702712198
 49
1.883691351414653
 49
-0.9418456757073265
  0
LTYPE
  2
PHANTOM
 70
64
  3
_____ _ _ _____ _ _ 
 72
65
 73
6
 40
18.83691351414653
 49
9.418456757073265
 49
-1.883691351414653
 49
1.883691351414653
 49
-1.883691351414653
 49
1.883691351414653
 49
-1.883691351414653
  0
ENDTAB
  0
TABLE
  2
LAYER
 70
3
  0
LAYER
  2
1
 70
0
 62
7
  6
CONTINUOUS
  0
LAYER
  2
0
 70
0
 62
7
  6
CONTINUOUS
  0
ENDTAB
  0
TABLE
  2
STYLE
 70
4
  0
STYLE
  2
STANDARD
 70
0
 40
0
 41
1
 50
0
 71
0
 42
3.5
  3
txt
  4

  0
STYLE
  2
SIMPLEX
 70
0
 40
0
 41
1
 50
0
 71
0
 42
3.5
  3
simplex
  4

  0
STYLE
  2
COMPLEX
 70
0
 40
0
 41
1
 50
0
 71
0
 42
3.5
  3
complex
  4

  0
STYLE
  2
ITALIC
 70
0
 40
0
 41
1
 50
0
 71
0
 42
3.5
  3
italic
  4

  0
ENDTAB
  0
TABLE
  2
VIEW
 70
0
  0
ENDTAB
  0
ENDSEC
  0
SECTION
  2
BLOCKS
  0
BLOCK
  8
1
  2
*D0
 70
1
 10
0
 20
0
 30
0
  0
LINE
  8
1
 62
2
 10
967.554871420103
 20
632.9176599270111
 30
0
 11
1023.400989819747
 21
632.9176599270111
 31
0
  0
LINE
  8
1
 62
2
 10
967.554871420103
 20
626.917659927011
 30
0
 11
967.554871420103
 21
634.4176599270111
 31
0
  0
LINE
  8
1
 62
2
 10
1023.400989819747
 20
628.3181736479868
 30
0
 11
1023.400989819747
 21
634.4176599270111
 31
0
  0
SOLID
  8
1
 62
2
 10
1023.400989819747
 20
632.9176599270111
 30
0
 11
1020.200989819747
 21
632.501659927011
 31
0
 12
1020.200989819747
 22
633.3336599270111
 32
0
 13
1020.200989819747
 23
633.3336599270111
 33
0
  0
SOLID
  8
1
 62
2
 10
967.554871420103
 20
632.9176599270111
 30
0
 11
970.7548714201031
 21
633.3336599270111
 31
0
 12
970.7548714201031
 22
632.501659927011
 32
0
 13
970.7548714201031
 23
632.501659927011
 33
0
  0
TEXT
  8
1
 62
2
 10
986.9496988387569
 20
635.717659927011
 30
0
 40
3.2
  1
300
 41
0.9
  0
TEXT
  8
1
 62
2
 10
996.2296988387569
 20
637.7976599270111
 30
0
 40
1.92
  1
+20
 41
0.9
  0
TEXT
  8
1
 62
2
 10
996.2296988387569
 20
634.9176599270111
 30
0
 40
1.92
  1
 0
 41
0.9
  0
ENDBLK
  8
0
  0
BLOCK
  8
1
  2
*D1
 70
1
 10
0
 20
0
 30
0
  0
LINE
  8
1
 62
2
 10
957.554871420103
 20
632.9176599270111
 30
0
 11
967.554871420103
 21
632.9176599270111
 31
0
  0
LINE
  8
1
 62
2
 10
957.554871420103
 20
626.7376599270111
 30
0
 11
957.554871420103
 21
634.4176599270111
 31
0
  0
LINE
  8
1
 62
2
 10
967.554871420103
 20
626.9176599270111
 30
0
 11
967.554871420103
 21
634.4176599270111
 31
0
  0
SOLID
  8
1
 62
2
 10
967.554871420103
 20
632.9176599270111
 30
0
 11
964.354871420103
 21
632.501659927011
 31
0
 12
964.354871420103
 22
633.3336599270111
 32
0
 13
964.354871420103
 23
633.3336599270111
 33
0
  0
SOLID
  8
1
 62
2
 10
957.554871420103
 20
632.9176599270111
 30
0
 11
960.7548714201031
 21
633.3336599270111
 31
0
 12
960.7548714201031
 22
632.501659927011
 32
0
 13
960.7548714201031
 23
632.501659927011
 33
0
  0
TEXT
  8
1
 62
2
 10
959.4240311098968
 20
634.9176599270111
 30
0
 40
3.2
  1
(10)
 41
0.9
  0
ENDBLK
  8
0
  0
BLOCK
  8
0
  2
GI76475-15_FYD815SD3-X1_______
 70
0
 10
914.5492226295538
 20
504.4914798237737
 30
0
  0
LINE
  8
1
 62
3
 10
991.4113075012389
 20
606.9376599270111
 30
0
 11
967.5548714201028
 21
606.9376599270111
 31
0
  0
LINE
  8
1
 62
3
 10
991.0146401217941
 20
607.917659927011
 30
0
 11
967.5548714201028
 21
607.917659927011
 31
0
  0
LINE
  8
1
 62
3
 10
990.7590442823959
 20
608.9376599270111
 30
0
 11
967.5548714201028
 21
608.9376599270111
 31
0
  0
LINE
  8
1
 62
3
 10
990.653232335597
 20
609.917659927011
 30
0
 11
967.5548714201028
 21
609.917659927011
 31
0
  0
LINE
  8
1
 62
3
 10
990.674793739394
 20
610.9376599270111
 30
0
 11
967.5548714201028
 21
610.9376599270111
 31
0
  0
LINE
  8
1
 62
3
 10
990.8073076283059
 20
611.917659927011
 30
0
 11
967.5548714201028
 21
611.917659927011
 31
0
  0
LINE
  8
1
 62
3
 10
991.0444021606137
 20
612.9376599270111
 30
0
 11
967.5548714201028
 21
612.9376599270111
 31
0
  0
LINE
  8
1
 62
3
 10
991.3497794200968
 20
613.917659927011
 30
0
 11
967.5548714201028
 21
613.917659927011
 31
0
  0
LINE
  8
1
 62
3
 10
991.7284424445467
 20
614.9376599270111
 30
0
 11
967.5548714201028
 21
614.9376599270111
 31
0
  0
LINE
  8
1
 62
3
 10
992.1308779472748
 20
615.917659927011
 30
0
 11
967.5548714201028
 21
615.917659927011
 31
0
  0
LINE
  8
1
 62
3
 10
992.5683885280547
 20
616.9376599270112
 30
0
 11
967.5548714201028
 21
616.9376599270111
 31
0
  0
LINE
  8
1
 62
3
 10
992.9859469602048
 20
617.917659927011
 30
0
 11
967.5548714201028
 21
617.917659927011
 31
0
  0
LINE
  8
1
 62
3
 10
993.3958617758709
 20
618.9376599270111
 30
0
 11
967.5548714201028
 21
618.9376599270111
 31
0
  0
LINE
  8
1
 62
3
 10
993.745744738652
 20
619.917659927011
 30
0
 11
967.5548714201028
 21
619.917659927011
 31
0
  0
LINE
  8
1
 62
3
 10
994.0435860311446
 20
620.9376599270111
 30
0
 11
967.5548714201028
 21
620.9376599270111
 31
0
  0
LINE
  8
1
 62
3
 10
994.2475478362491
 20
621.917659927011
 30
0
 11
967.5548714201028
 21
621.917659927011
 31
0
  0
LINE
  8
1
 62
3
 10
994.356133518712
 20
622.9376599270111
 30
0
 11
967.5548714201028
 21
622.9376599270111
 31
0
  0
LINE
  8
1
 62
3
 10
994.3450906030777
 20
623.917659927011
 30
0
 11
967.5548714201028
 21
623.917659927011
 31
0
  0
LINE
  8
1
 62
3
 10
994.1986156271238
 20
624.9376599270111
 30
0
 11
967.5548714201028
 21
624.9376599270111
 31
0
  0
LINE
  8
1
 62
3
 10
993.9157601148901
 20
625.917659927011
 30
0
 11
967.5548714201028
 21
625.917659927011
 31
0
  0
LINE
  8
1
 62
3
 10
1023.400989819747
 20
606.9376599270111
 30
0
 11
992.4113075012389
 21
606.9376599270111
 31
0
  0
LINE
  8
1
 62
3
 10
967.5548714201028
 20
607.917659927011
 30
0
 11
967.5548714201028
 21
606.9376599270111
 31
0
  0
LINE
  8
1
 62
3
 10
1023.400989819747
 20
607.917659927011
 30
0
 11
992.0146401217941
 21
607.917659927011
 31
0
  0
LINE
  8
1
 62
3
 10
1023.400989819747
 20
608.9376599270111
 30
0
 11
991.7590442823959
 21
608.9376599270111
 31
0
  0
LINE
  8
1
 62
3
 10
967.5548714201028
 20
609.917659927011
 30
0
 11
967.5548714201028
 21
608.9376599270111
 31
0
  0
LINE
  8
1
 62
3
 10
1023.400989819747
 20
609.917659927011
 30
0
 11
991.653232335597
 21
609.917659927011
 31
0
  0
LINE
  8
1
 62
3
 10
1023.400989819747
 20
610.9376599270111
 30
0
 11
991.674793739394
 21
610.9376599270111
 31
0
  0
LINE
  8
1
 62
3
 10
967.5548714201028
 20
611.917659927011
 30
0
 11
967.5548714201028
 21
610.9376599270111
 31
0
  0
LINE
  8
1
 62
3
 10
1023.400989819747
 20
611.917659927011
 30
0
 11
991.8073076283059
 21
611.917659927011
 31
0
  0
LINE
  8
1
 62
3
 10
1023.400989819747
 20
612.9376599270111
 30
0
 11
992.0444021606137
 21
612.9376599270111
 31
0
  0
LINE
  8
1
 62
3
 10
967.5548714201028
 20
613.917659927011
 30
0
 11
967.5548714201028
 21
612.9376599270111
 31
0
  0
LINE
  8
1
 62
3
 10
1023.400989819747
 20
613.917659927011
 30
0
 11
992.3497794200968
 21
613.917659927011
 31
0
  0
LINE
  8
1
 62
3
 10
1023.400989819747
 20
614.9376599270111
 30
0
 11
992.7284424445467
 21
614.9376599270111
 31
0
  0
LINE
  8
1
 62
3
 10
967.5548714201028
 20
615.917659927011
 30
0
 11
967.5548714201028
 21
614.9376599270111
 31
0
  0
LINE
  8
1
 62
3
 10
1023.400989819747
 20
615.917659927011
 30
0
 11
993.1308779472748
 21
615.917659927011
 31
0
  0
LINE
  8
1
 62
3
 10
1023.400989819747
 20
616.9376599270111
 30
0
 11
993.5683885280547
 21
616.9376599270112
 31
0
  0
LINE
  8
1
 62
3
 10
967.5548714201028
 20
617.917659927011
 30
0
 11
967.5548714201028
 21
616.9376599270111
 31
0
  0
LINE
  8
1
 62
3
 10
1023.400989819747
 20
617.917659927011
 30
0
 11
993.9859469602048
 21
617.917659927011
 31
0
  0
LINE
  8
1
 62
3
 10
1023.400989819747
 20
618.9376599270111
 30
0
 11
994.3958617758709
 21
618.9376599270111
 31
0
  0
LINE
  8
1
 62
3
 10
967.5548714201028
 20
619.917659927011
 30
0
 11
967.5548714201028
 21
618.9376599270111
 31
0
  0
LINE
  8
1
 62
3
 10
1023.400989819747
 20
619.917659927011
 30
0
 11
994.745744738652
 21
619.917659927011
 31
0
  0
LINE
  8
1
 62
3
 10
1023.400989819747
 20
620.9376599270111
 30
0
 11
995.0435860311446
 21
620.9376599270111
 31
0
  0
LINE
  8
1
 62
3
 10
967.5548714201028
 20
621.917659927011
 30
0
 11
967.5548714201028
 21
620.9376599270111
 31
0
  0
LINE
  8
1
 62
3
 10
1023.400989819747
 20
621.917659927011
 30
0
 11
995.2475478362491
 21
621.917659927011
 31
0
  0
LINE
  8
1
 62
3
 10
1023.400989819747
 20
622.9376599270111
 30
0
 11
995.356133518712
 21
622.9376599270111
 31
0
  0
LINE
  8
1
 62
3
 10
967.5548714201028
 20
623.917659927011
 30
0
 11
967.5548714201028
 21
622.9376599270111
 31
0
  0
LINE
  8
1
 62
3
 10
1023.400989819747
 20
623.917659927011
 30
0
 11
995.3450906030777
 21
623.917659927011
 31
0
  0
LINE
  8
1
 62
3
 10
1023.400989819747
 20
624.9376599270111
 30
0
 11
995.1986156271238
 21
624.9376599270111
 31
0
  0
LINE
  8
1
 62
3
 10
967.5548714201028
 20
625.917659927011
 30
0
 11
967.5548714201028
 21
624.9376599270111
 31
0
  0
LINE
  8
1
 62
3
 10
1023.400989819747
 20
625.917659927011
 30
0
 11
994.9157601148901
 21
625.917659927011
 31
0
  0
LINE
  8
1
 62
3
 10
1023.400989819747
 20
605.3181736479868
 30
0
 11
1023.400989819747
 21
627.3181736479868
 31
0
  0
LINE
  8
1
 62
3
 10
967.5548714201028
 20
607.117659927011
 30
0
 11
957.5548714201028
 21
607.117659927011
 31
0
  0
LINE
  8
1
 62
3
 10
957.5548714201028
 20
607.737659927011
 30
0
 11
967.5548714201028
 21
607.737659927011
 31
0
  0
LINE
  8
1
 62
3
 10
957.5548714201028
 20
607.737659927011
 30
0
 11
957.5548714201028
 21
607.117659927011
 31
0
  0
LINE
  8
1
 62
3
 10
967.5548714201028
 20
609.117659927011
 30
0
 11
957.5548714201028
 21
609.117659927011
 31
0
  0
LINE
  8
1
 62
3
 10
957.5548714201028
 20
609.737659927011
 30
0
 11
967.5548714201028
 21
609.737659927011
 31
0
  0
LINE
  8
1
 62
3
 10
957.5548714201028
 20
609.737659927011
 30
0
 11
957.5548714201028
 21
609.117659927011
 31
0
  0
LINE
  8
1
 62
3
 10
967.5548714201028
 20
611.117659927011
 30
0
 11
957.5548714201028
 21
611.117659927011
 31
0
  0
LINE
  8
1
 62
3
 10
957.5548714201028
 20
611.737659927011
 30
0
 11
967.5548714201028
 21
611.737659927011
 31
0
  0
LINE
  8
1
 62
3
 10
957.5548714201028
 20
611.737659927011
 30
0
 11
957.5548714201028
 21
611.117659927011
 31
0
  0
LINE
  8
1
 62
3
 10
967.5548714201028
 20
613.117659927011
 30
0
 11
957.5548714201028
 21
613.117659927011
 31
0
  0
LINE
  8
1
 62
3
 10
957.5548714201028
 20
613.737659927011
 30
0
 11
967.5548714201028
 21
613.737659927011
 31
0
  0
LINE
  8
1
 62
3
 10
957.5548714201028
 20
613.737659927011
 30
0
 11
957.5548714201028
 21
613.117659927011
 31
0
  0
LINE
  8
1
 62
3
 10
967.5548714201028
 20
615.117659927011
 30
0
 11
957.5548714201028
 21
615.117659927011
 31
0
  0
LINE
  8
1
 62
3
 10
957.5548714201028
 20
615.737659927011
 30
0
 11
967.5548714201028
 21
615.737659927011
 31
0
  0
LINE
  8
1
 62
3
 10
957.5548714201028
 20
615.737659927011
 30
0
 11
957.5548714201028
 21
615.117659927011
 31
0
  0
LINE
  8
1
 62
3
 10
967.5548714201028
 20
617.117659927011
 30
0
 11
957.5548714201028
 21
617.117659927011
 31
0
  0
LINE
  8
1
 62
3
 10
957.5548714201028
 20
617.737659927011
 30
0
 11
967.5548714201028
 21
617.737659927011
 31
0
  0
LINE
  8
1
 62
3
 10
957.5548714201028
 20
617.737659927011
 30
0
 11
957.5548714201028
 21
617.117659927011
 31
0
  0
LINE
  8
1
 62
3
 10
967.5548714201028
 20
619.117659927011
 30
0
 11
957.5548714201028
 21
619.117659927011
 31
0
  0
LINE
  8
1
 62
3
 10
957.5548714201028
 20
619.737659927011
 30
0
 11
967.5548714201028
 21
619.737659927011
 31
0
  0
LINE
  8
1
 62
3
 10
957.5548714201028
 20
619.737659927011
 30
0
 11
957.5548714201028
 21
619.117659927011
 31
0
  0
LINE
  8
1
 62
3
 10
967.5548714201028
 20
621.117659927011
 30
0
 11
957.5548714201028
 21
621.117659927011
 31
0
  0
LINE
  8
1
 62
3
 10
957.5548714201028
 20
621.737659927011
 30
0
 11
967.5548714201028
 21
621.737659927011
 31
0
  0
LINE
  8
1
 62
3
 10
957.5548714201028
 20
621.737659927011
 30
0
 11
957.5548714201028
 21
621.117659927011
 31
0
  0
LINE
  8
1
 62
3
 10
967.5548714201028
 20
623.117659927011
 30
0
 11
957.5548714201028
 21
623.117659927011
 31
0
  0
LINE
  8
1
 62
3
 10
957.5548714201028
 20
623.737659927011
 30
0
 11
967.5548714201028
 21
623.737659927011
 31
0
  0
LINE
  8
1
 62
3
 10
957.5548714201028
 20
623.737659927011
 30
0
 11
957.5548714201028
 21
623.117659927011
 31
0
  0
LINE
  8
1
 62
3
 10
967.5548714201028
 20
625.117659927011
 30
0
 11
957.5548714201028
 21
625.117659927011
 31
0
  0
LINE
  8
1
 62
3
 10
957.5548714201028
 20
625.737659927011
 30
0
 11
967.5548714201028
 21
625.737659927011
 31
0
  0
LINE
  8
1
 62
3
 10
957.5548714201028
 20
625.737659927011
 30
0
 11
957.5548714201028
 21
625.117659927011
 31
0
  0
LINE
  8
1
 62
3
 10
1023.400989819747
 20
627.3181736479868
 30
0
 11
1030.000989819747
 21
627.3181736479868
 31
0
  0
LINE
  8
1
 62
3
 10
1030.000989819747
 20
627.3181736479868
 30
0
 11
1030.000989819747
 21
605.3181736479868
 31
0
  0
LINE
  8
1
 62
3
 10
1030.000989819747
 20
605.3181736479868
 30
0
 11
1023.400989819747
 21
605.3181736479868
 31
0
  0
POLYLINE
  8
1
 62
2
 66
1
  0
VERTEX
  8
1
 10
993.4779306199249
 20
628.4404026150775
 30
0
 42
-0.05992044886758882
  0
VERTEX
  8
1
 10
994.7212693511517
 20
626.401923498702
 30
0
 42
-0.06693166901948638
  0
VERTEX
  8
1
 10
995.2911302080125
 20
624.4192414772363
 30
0
 42
-0.06026598557150571
  0
VERTEX
  8
1
 10
995.3217380765685
 20
622.481337822191
 30
0
 42
-0.0435580574375792
  0
VERTEX
  8
1
 10
994.9473178428806
 20
620.5771938050771
 30
0
 42
-0.02506437060948572
  0
VERTEX
  8
1
 10
994.3020943930098
 20
618.6957906974052
 30
0
 42
-0.008222686658771882
  0
VERTEX
  8
1
 10
993.5202926130174
 20
616.8261097706857
 30
0
 42
0.007575450182900533
  0
VERTEX
  8
1
 10
992.7361373889643
 20
614.9571322964298
 30
0
 42
0.02411243161847434
  0
VERTEX
  8
1
 10
992.0838536069114
 20
613.0778395461479
 30
0
 42
0.04249624583446591
  0
VERTEX
  8
1
 10
991.6976661529203
 20
611.1772127913508
 30
0
 42
0.0605544443599855
  0
VERTEX
  8
1
 10
991.711799913051
 20
609.2442333035489
 30
0
 42
0.07056965154293023
  0
VERTEX
  8
1
 10
992.2604797733657
 20
607.2678823542535
 30
0
 42
0.06615971116377749
  0
VERTEX
  8
1
 10
993.4779306199249
 20
605.2371412149751
 30
0
  0
SEQEND
  8
1
  0
POLYLINE
  8
1
 62
2
 66
1
  0
VERTEX
  8
1
 10
992.4779306199249
 20
628.4404026150775
 30
0
 42
-0.05992044886754838
  0
VERTEX
  8
1
 10
993.7212693511518
 20
626.401923498702
 30
0
 42
-0.06693166901943887
  0
VERTEX
  8
1
 10
994.2911302080125
 20
624.4192414772363
 30
0
 42
-0.06026598557150571
  0
VERTEX
  8
1
 10
994.3217380765685
 20
622.481337822191
 30
0
 42
-0.04355805743763652
  0
VERTEX
  8
1
 10
993.9473178428805
 20
620.5771938050771
 30
0
 42
-0.02506437060954128
  0
VERTEX
  8
1
 10
993.3020943930098
 20
618.6957906974052
 30
0
 42
-0.008222686658875975
  0
VERTEX
  8
1
 10
992.5202926130174
 20
616.8261097706857
 30
0
 42
0.007575450182745928
  0
VERTEX
  8
1
 10
991.7361373889642
 20
614.9571322964298
 30
0
 42
0.02411243161842199
  0
VERTEX
  8
1
 10
991.0838536069114
 20
613.0778395461479
 30
0
 42
0.04249624583446591
  0
VERTEX
  8
1
 10
990.6976661529203
 20
611.1772127913508
 30
0
 42
0.06055444435986827
  0
VERTEX
  8
1
 10
990.711799913051
 20
609.2442333035489
 30
0
 42
0.07056965154293023
  0
VERTEX
  8
1
 10
991.2604797733657
 20
607.2678823542535
 30
0
 42
0.06615971116377749
  0
VERTEX
  8
1
 10
992.4779306199249
 20
605.2371412149751
 30
0
  0
SEQEND
  8
1
  0
DIMENSION
  8
1
  6
CONTINUOUS
 62
2
  2
*D0
  3
DMST_1
 10
967.554871420103
 20
632.9176599270111
 30
0
 11
993.7976988387569
 21
637.3176599270111
 31
0
 12
0
 22
0
 32
0
 70
0
  1
300
 13
1023.400989819747
 23
627.3181736479868
 33
0
 14
967.5548714201028
 24
625.917659927011
 34
0
 53
0
  0
DIMENSION
  8
1
  6
CONTINUOUS
 62
2
  2
*D1
  3
DMST_2
 10
967.554871420103
 20
632.9176599270111
 30
0
 11
962.7840311098968
 21
636.5176599270111
 31
0
 12
0
 22
0
 32
0
 70
0
  1
(10)
 13
957.5548714201028
 23
625.737659927011
 33
0
 14
967.5548714201028
 24
625.917659927011
 34
0
 53
0
  0
ENDBLK
  8
0
  0
BLOCK
  8
1
  2
*D2
 70
1
 10
0
 20
0
 30
0
  0
LINE
  8
1
 62
2
 10
1058.7145383193
 20
629.9616592929281
 30
0
 11
1115.027587829026
 21
629.9616592929281
 31
0
  0
LINE
  8
1
 62
2
 10
1058.7145383193
 20
623.9616592929281
 30
0
 11
1058.7145383193
 21
631.4616592929281
 31
0
  0
LINE
  8
1
 62
2
 10
1115.027587829026
 20
625.9616592929281
 30
0
 11
1115.027587829026
 21
631.4616592929281
 31
0
  0
SOLID
  8
1
 62
2
 10
1115.027587829026
 20
629.9616592929281
 30
0
 11
1111.827587829026
 21
629.545659292928
 31
0
 12
1111.827587829026
 22
630.3776592929281
 32
0
 13
1111.827587829026
 23
630.3776592929281
 33
0
  0
SOLID
  8
1
 62
2
 10
1058.7145383193
 20
629.9616592929281
 30
0
 11
1061.9145383193
 21
630.3776592929281
 31
0
 12
1061.9145383193
 22
629.545659292928
 32
0
 13
1061.9145383193
 23
629.545659292928
 33
0
  0
TEXT
  8
1
 62
2
 10
1081.022640237283
 20
632.761659292928
 30
0
 40
3.2
  1
290
 41
0.9
  0
TEXT
  8
1
 62
2
 10
1090.302640237283
 20
634.8416592929281
 30
0
 40
1.92
  1
+20
 41
0.9
  0
TEXT
  8
1
 62
2
 10
1090.302640237283
 20
631.9616592929281
 30
0
 40
1.92
  1
 0
 41
0.9
  0
ENDBLK
  8
0
  0
BLOCK
  8
1
  2
*D3
 70
1
 10
0
 20
0
 30
0
  0
LINE
  8
1
 62
2
 10
1048.7145383193
 20
629.9616592929278
 30
0
 11
1058.7145383193
 21
629.9616592929278
 31
0
  0
LINE
  8
1
 62
2
 10
1048.7145383193
 20
623.5616592929279
 30
0
 11
1048.7145383193
 21
631.4616592929278
 31
0
  0
LINE
  8
1
 62
2
 10
1058.7145383193
 20
623.9616592929278
 30
0
 11
1058.7145383193
 21
631.4616592929278
 31
0
  0
SOLID
  8
1
 62
2
 10
1048.7145383193
 20
629.9616592929278
 30
0
 11
1051.9145383193
 21
630.3776592929279
 31
0
 12
1051.9145383193
 22
629.5456592929278
 32
0
 13
1051.9145383193
 23
629.5456592929278
 33
0
  0
SOLID
  8
1
 62
2
 10
1058.7145383193
 20
629.9616592929278
 30
0
 11
1055.5145383193
 21
629.5456592929278
 31
0
 12
1055.5145383193
 22
630.3776592929279
 32
0
 13
1055.5145383193
 23
630.3776592929279
 33
0
  0
TEXT
  8
1
 62
2
 10
1050.747604834843
 20
631.9616592929278
 30
0
 40
3.2
  1
(10)
 41
0.9
  0
ENDBLK
  8
0
  0
BLOCK
  8
0
  2
AT22734-01_DB
 70
0
 10
1192.839615702143
 20
600.5132546833139
 30
0
  0
LINE
  8
1
 62
3
 10
1115.027587829026
 20
624.961659292928
 30
0
 11
1125.827587829026
 21
624.961659292928
 31
0
  0
LINE
  8
1
 62
3
 10
1115.027587829026
 20
622.961659292928
 30
0
 11
1086.847303321761
 21
622.961659292928
 31
0
  0
LINE
  8
1
 62
3
 10
1115.027587829026
 20
621.461659292928
 30
0
 11
1086.219916759896
 21
621.461659292928
 31
0
  0
LINE
  8
1
 62
3
 10
1115.027587829026
 20
618.7616592929279
 30
0
 11
1086.807140319436
 21
618.7616592929279
 31
0
  0
LINE
  8
1
 62
3
 10
1115.027587829026
 20
617.2616592929279
 30
0
 11
1086.947950875817
 21
617.2616592929279
 31
0
  0
LINE
  8
1
 62
3
 10
1058.7145383193
 20
622.961659292928
 30
0
 11
1058.7145383193
 21
621.461659292928
 31
0
  0
LINE
  8
1
 62
3
 10
1058.7145383193
 20
622.5616592929279
 30
0
 11
1048.7145383193
 21
622.5616592929279
 31
0
  0
LINE
  8
1
 62
3
 10
1048.7145383193
 20
622.5616592929279
 30
0
 11
1048.7145383193
 21
621.861659292928
 31
0
  0
LINE
  8
1
 62
3
 10
1048.7145383193
 20
621.861659292928
 30
0
 11
1058.7145383193
 21
621.861659292928
 31
0
  0
LINE
  8
1
 62
3
 10
1058.7145383193
 20
622.961659292928
 30
0
 11
1085.887034001939
 21
622.961659292928
 31
0
  0
LINE
  8
1
 62
3
 10
1085.259647440078
 20
621.461659292928
 30
0
 11
1058.7145383193
 21
621.461659292928
 31
0
  0
LINE
  8
1
 62
3
 10
1134.627587829026
 20
620.461659292928
 30
0
 11
1134.627587829026
 21
623.961659292928
 31
0
  0
LINE
  8
1
 62
3
 10
1125.827587829026
 20
616.2616592929279
 30
0
 11
1134.627587829026
 21
616.2616592929279
 31
0
  0
LINE
  8
1
 62
3
 10
1134.627587829026
 20
623.961659292928
 30
0
 11
1125.827587829026
 21
623.961659292928
 31
0
  0
LINE
  8
1
 62
3
 10
1134.627587829026
 20
616.2616592929279
 30
0
 11
1134.627587829026
 21
619.7616592929279
 31
0
  0
LINE
  8
1
 62
3
 10
1115.027587829026
 20
624.961659292928
 30
0
 11
1115.027587829026
 21
615.2616592929279
 31
0
  0
LINE
  8
1
 62
3
 10
1125.827587829026
 20
615.2616592929279
 30
0
 11
1125.827587829026
 21
624.961659292928
 31
0
  0
LINE
  8
1
 62
3
 10
1134.627587829026
 20
619.7616592929279
 30
0
 11
1125.827587829026
 21
619.7616592929279
 31
0
  0
LINE
  8
1
 62
3
 10
1134.627587829026
 20
620.461659292928
 30
0
 11
1125.827587829026
 21
620.461659292928
 31
0
  0
LINE
  8
1
 62
3
 10
1129.127587829026
 20
626.461659292928
 30
0
 11
1129.127587829026
 21
624.961659292928
 31
0
  0
LINE
  8
1
 62
3
 10
1125.040598700038
 20
626.461659292928
 30
0
 11
1129.127587829026
 21
626.461659292928
 31
0
  0
LINE
  8
1
 62
3
 10
1125.040598700038
 20
625.461659292928
 30
0
 11
1125.040598700038
 21
626.461659292928
 31
0
  0
LINE
  8
1
 62
3
 10
1130.695847291895
 20
624.961659292928
 30
0
 11
1129.127587829026
 21
624.961659292928
 31
0
  0
LINE
  8
1
 62
3
 10
1132.127587829026
 20
626.461659292928
 30
0
 11
1130.695847291895
 21
624.961659292928
 31
0
  0
LINE
  8
1
 62
3
 10
1131.615399908457
 20
628.461659292928
 30
0
 11
1132.127587829026
 21
627.905507770658
 31
0
  0
LINE
  8
1
 62
3
 10
1117.327587829026
 20
628.8710380180479
 30
0
 11
1119.063506692385
 21
628.8710380180479
 31
0
  0
LINE
  8
1
 62
3
 10
1117.327587829026
 20
628.461659292928
 30
0
 11
1117.327587829026
 21
628.8710380180479
 31
0
  0
LINE
  8
1
 62
3
 10
1119.063506692385
 20
628.8710380180479
 30
0
 11
1119.063506692385
 21
628.0894182939699
 31
0
  0
LINE
  8
1
 62
3
 10
1119.385350108182
 20
627.6296419856889
 30
0
 11
1119.063506692385
 21
628.0894182939699
 31
0
  0
LINE
  8
1
 62
3
 10
1125.040598700038
 20
627.6296419856889
 30
0
 11
1119.385350108182
 21
627.6296419856889
 31
0
  0
LINE
  8
1
 62
3
 10
1125.040598700038
 20
626.461659292928
 30
0
 11
1125.040598700038
 21
627.6296419856889
 31
0
  0
LINE
  8
1
 62
3
 10
1122.925627681946
 20
626.461659292928
 30
0
 11
1117.327587829026
 21
627.12388804658
 31
0
  0
LINE
  8
1
 62
3
 10
1123.085403990227
 20
626.461659292928
 30
0
 11
1122.925627681946
 21
626.461659292928
 31
0
  0
LINE
  8
1
 62
3
 10
1123.385403990227
 20
625.461659292928
 30
0
 11
1123.385403990227
 21
626.161659292928
 31
0
  0
LINE
  8
1
 62
3
 10
1125.827587829026
 20
624.961659292928
 30
0
 11
1125.540598700038
 21
624.961659292928
 31
0
  0
LINE
  8
1
 62
3
 10
1132.127587829026
 20
627.905507770658
 30
0
 11
1132.127587829026
 21
626.461659292928
 31
0
  0
LINE
  8
1
 62
3
 10
1119.063506692385
 20
628.461659292928
 30
0
 11
1131.615399908457
 21
628.461659292928
 31
0
  0
LINE
  8
1
 62
3
 10
1117.327587829026
 20
627.12388804658
 30
0
 11
1117.327587829026
 21
628.461659292928
 31
0
  0
LINE
  8
1
 62
3
 10
1125.827587829026
 20
615.2616592929279
 30
0
 11
1115.027587829026
 21
615.2616592929279
 31
0
  0
LINE
  8
1
 62
3
 10
1085.259647440078
 20
617.2616592929279
 30
0
 11
1058.7145383193
 21
617.2616592929279
 31
0
  0
LINE
  8
1
 62
3
 10
1058.7145383193
 20
618.7616592929279
 30
0
 11
1085.887034001939
 21
618.7616592929279
 31
0
  0
LINE
  8
1
 62
3
 10
1058.7145383193
 20
618.7616592929279
 30
0
 11
1058.7145383193
 21
617.2616592929279
 31
0
  0
LINE
  8
1
 62
3
 10
1058.7145383193
 20
618.361659292928
 30
0
 11
1048.7145383193
 21
618.361659292928
 31
0
  0
LINE
  8
1
 62
3
 10
1048.7145383193
 20
618.361659292928
 30
0
 11
1048.7145383193
 21
617.661659292928
 31
0
  0
LINE
  8
1
 62
3
 10
1048.7145383193
 20
617.661659292928
 30
0
 11
1058.7145383193
 21
617.661659292928
 31
0
  0
POLYLINE
  8
1
 62
2
 66
1
  0
VERTEX
  8
1
 10
1084.818464098232
 20
624.4106292507709
 30
0
 42
-0.00532960986842562
  0
VERTEX
  8
1
 10
1085.125459184205
 20
624.1316591707526
 30
0
 42
-0.01721803191454726
  0
VERTEX
  8
1
 10
1085.409133993871
 20
623.8499831128468
 30
0
 42
-0.03309656202093513
  0
VERTEX
  8
1
 10
1085.64616825092
 20
623.5628950991656
 30
0
 42
-0.05582201936408348
  0
VERTEX
  8
1
 10
1085.813241679045
 20
623.267689151822
 30
0
 42
-0.08329269170881283
  0
VERTEX
  8
1
 10
1085.887034001939
 20
622.961659292928
 30
0
 42
-0.1042059785966914
  0
VERTEX
  8
1
 10
1085.800857753925
 20
622.4758784517589
 30
0
 42
-0.03970357177291084
  0
VERTEX
  8
1
 10
1085.554422918221
 20
621.9690779134073
 30
0
 42
0.0008403655795168366
  0
VERTEX
  8
1
 10
1085.253717615297
 20
621.4511320273741
 30
0
 42
0.03861007055529499
  0
VERTEX
  8
1
 10
1085.004729965624
 20
620.9319151431598
 30
0
 42
0.09683480673913136
  0
VERTEX
  8
1
 10
1084.913448089673
 20
620.421301610265
 30
0
 42
0.1250610905300437
  0
VERTEX
  8
1
 10
1085.043520566885
 20
619.9420014405051
 30
0
 42
0.01535819576975371
  0
VERTEX
  8
1
 10
1085.326446602599
 20
619.4748341377174
 30
0
 42
0.03147894984102983
  0
VERTEX
  8
1
 10
1085.66781558858
 20
619.0146061407804
 30
0
 42
-0.03164132440826122
  0
VERTEX
  8
1
 10
1085.973216916592
 20
618.5561238885722
 30
0
 42
-0.08519901686138762
  0
VERTEX
  8
1
 10
1086.1482399784
 20
618.094193819971
 30
0
 42
-0.0869795160389548
  0
VERTEX
  8
1
 10
1086.14321091529
 20
617.7162529731614
 30
0
 42
-0.06000537360855351
  0
VERTEX
  8
1
 10
1086.021221505095
 20
617.3338159140019
 30
0
 42
-0.03581699523588961
  0
VERTEX
  8
1
 10
1085.811511834587
 20
616.9480066955798
 30
0
 42
-0.01861822024611238
  0
VERTEX
  8
1
 10
1085.543321990536
 20
616.5599493709826
 30
0
 42
-0.005754684647658477
  0
VERTEX
  8
1
 10
1085.245892059715
 20
616.170767993298
 30
0
  0
SEQEND
  8
1
  0
POLYLINE
  8
1
 62
2
 66
1
  0
VERTEX
  8
1
 10
1085.778733418054
 20
624.4106292507709
 30
0
 42
-0.005329609868434169
  0
VERTEX
  8
1
 10
1086.085728504027
 20
624.1316591707526
 30
0
 42
-0.01721803191534919
  0
VERTEX
  8
1
 10
1086.369403313692
 20
623.8499831128468
 30
0
 42
-0.03309656202141005
  0
VERTEX
  8
1
 10
1086.606437570742
 20
623.5628950991656
 30
0
 42
-0.05582201936466382
  0
VERTEX
  8
1
 10
1086.773510998867
 20
623.267689151822
 30
0
 42
-0.08329269170812485
  0
VERTEX
  8
1
 10
1086.847303321761
 20
622.961659292928
 30
0
 42
-0.1042059785962377
  0
VERTEX
  8
1
 10
1086.761127073747
 20
622.4758784517589
 30
0
 42
-0.0397035717729551
  0
VERTEX
  8
1
 10
1086.514692238043
 20
621.9690779134074
 30
0
 42
0.0008403655786701798
  0
VERTEX
  8
1
 10
1086.213986935119
 20
621.4511320273742
 30
0
 42
0.03861007055636306
  0
VERTEX
  8
1
 10
1085.964999285447
 20
620.9319151431598
 30
0
 42
0.09683480673761695
  0
VERTEX
  8
1
 10
1085.873717409495
 20
620.421301610265
 30
0
 42
0.1250610905315504
  0
VERTEX
  8
1
 10
1086.003789886707
 20
619.942001440505
 30
0
 42
0.01535819576883929
  0
VERTEX
  8
1
 10
1086.286715922421
 20
619.4748341377175
 30
0
 42
0.03147894984175886
  0
VERTEX
  8
1
 10
1086.628084908402
 20
619.0146061407804
 30
0
 42
-0.0316413244081342
  0
VERTEX
  8
1
 10
1086.933486236414
 20
618.5561238885721
 30
0
 42
-0.08519901686237394
  0
VERTEX
  8
1
 10
1087.108509298222
 20
618.094193819971
 30
0
 42
-0.08697951604014725
  0
VERTEX
  8
1
 10
1087.103480235111
 20
617.7162529731614
 30
0
 42
-0.06000537361015454
  0
VERTEX
  8
1
 10
1086.981490824917
 20
617.3338159140018
 30
0
 42
-0.03581699523620932
  0
VERTEX
  8
1
 10
1086.771781154408
 20
616.9480066955798
 30
0
 42
-0.01861822024492214
  0
VERTEX
  8
1
 10
1086.503591310358
 20
616.5599493709826
 30
0
 42
-0.005754684647651815
  0
VERTEX
  8
1
 10
1086.206161379536
 20
616.170767993298
 30
0
  0
SEQEND
  8
1
  0
ARC
  8
1
 62
3
 10
1123.085403990227
 20
626.161659292928
 30
0
 40
0.2999999999999545
 50
0
 51
90
  0
ARC
  8
1
 62
3
 10
1122.885403990227
 20
625.461659292928
 30
0
 40
0.5
 50
270
 51
0
  0
ARC
  8
1
 62
3
 10
1125.540598700038
 20
625.461659292928
 30
0
 40
0.5
 50
180
 51
270
  0
DIMENSION
  8
1
  6
CONTINUOUS
 62
2
  2
*D2
  3
DMST_1
 10
1115.027587829026
 20
629.9616592929281
 30
0
 11
1087.870640237283
 21
634.361659292928
 31
0
 12
0
 22
0
 32
0
 70
0
  1
290
 13
1058.7145383193
 23
622.961659292928
 33
0
 14
1115.027587829026
 24
624.961659292928
 34
0
 53
0
  0
DIMENSION
  8
1
  6
CONTINUOUS
 62
2
  2
*D3
  3
DMST_2
 10
1058.7145383193
 20
629.9616592929278
 30
0
 11
1054.107604834843
 21
633.5616592929279
 31
0
 12
0
 22
0
 32
0
 70
0
  1
(10)
 13
1048.7145383193
 23
622.5616592929279
 33
0
 14
1058.7145383193
 24
622.961659292928
 34
0
 53
0
  0
ENDBLK
  8
0
  0
BLOCK
  8
0
  2
MOJINOMUKI
 70
0
 10
1186.92710021217
 20
536.1105038741409
 30
0
  0
LINE
  8
1
 62
2
 10
1186.92710021217
 20
534.6105038741409
 30
0
 11
1186.92710021217
 21
532.1105038741409
 31
0
  0
LINE
  8
1
 62
2
 10
1189.42710021217
 20
533.1105038741409
 30
0
 11
1186.92710021217
 21
534.6105038741409
 31
0
  0
LINE
  8
1
 62
2
 10
1182.148421500738
 20
533.1105038741409
 30
0
 11
1189.42710021217
 21
533.1105038741409
 31
0
  0
LINE
  8
1
 62
2
 10
1189.92710021217
 20
530.1105038741409
 30
0
 11
1181.648421500738
 21
530.1105038741409
 31
0
  0
LINE
  8
1
 62
2
 10
1181.648421500738
 20
536.1105038741409
 30
0
 11
1189.92710021217
 21
536.1105038741409
 31
0
  0
LINE
  8
1
 62
2
 10
1181.648421500738
 20
510.110503874141
 30
0
 11
1181.648421500738
 21
536.1105038741409
 31
0
  0
LINE
  8
1
 62
2
 10
1189.92710021217
 20
510.110503874141
 30
0
 11
1181.648421500738
 21
510.110503874141
 31
0
  0
LINE
  8
1
 62
2
 10
1189.92710021217
 20
536.1105038741409
 30
0
 11
1189.92710021217
 21
510.110503874141
 31
0
  0
TEXT
  8
1
 62
2
 10
1186.480249395016
 20
535.7611729031926
 30
0
 40
3
  1
文字ノ向キ
 50
270
 41
0.9
 72
1
 73
2
 11
1187.980249395016
 21
522.2611729031926
 31
0
  0
TEXT
  8
1
 62
2
 10
1182.740616004598
 20
530.5157769622754
 30
0
 40
3
  1
LETTER DIR.
 50
270
 41
0.6300000000000001
 72
1
 73
2
 11
1184.240616004598
 21
520.1207769622754
 31
0
  0
ENDBLK
  8
0
  0
BLOCK
  8
1
  2
*X0
 70
1
 10
0
 20
0
 30
0
  0
LINE
  8
1
 62
2
 10
955.0227952810523
 20
482.6754654484384
 30
0
 11
955.0909051233708
 21
482.743575290757
 31
0
  0
LINE
  8
1
 62
2
 10
955.0227952810523
 20
479.8470383236922
 30
0
 11
957.919332248117
 21
482.743575290757
 31
0
  0
LINE
  8
1
 62
2
 10
958.4975389643264
 20
480.4933548822202
 30
0
 11
960.7477593728632
 21
482.743575290757
 31
0
  0
LINE
  8
1
 62
2
 10
955.0227952810523
 20
477.018611198946
 30
0
 11
956.7730156895892
 21
478.768831607483
 31
0
  0
LINE
  8
1
 62
2
 10
960.1692093943763
 20
479.3365981875238
 30
0
 11
962.5227952810526
 21
481.6901840742002
 31
0
  0
LINE
  8
1
 62
2
 10
956.0761864976093
 20
475.243575290757
 30
0
 11
957.9297723842855
 21
477.097161177433
 31
0
  0
LINE
  8
1
 62
2
 10
958.9046136223556
 20
475.243575290757
 30
0
 11
962.5227952810526
 21
478.8617569494539
 31
0
  0
LINE
  8
1
 62
2
 10
961.7330407471018
 20
475.243575290757
 30
0
 11
962.5227952810526
 21
476.0333298247077
 31
0
  0
ENDBLK
  8
0
  0
BLOCK
  8
1
  2
*X1
 70
1
 10
0
 20
0
 30
0
  0
LINE
  8
1
 62
2
 10
974.5227952810525
 20
482.3764755752154
 30
0
 11
974.8898949965941
 21
482.743575290757
 31
0
  0
LINE
  8
1
 62
2
 10
974.5227952810525
 20
479.5480484504691
 30
0
 11
977.7183221213403
 21
482.743575290757
 31
0
  0
LINE
  8
1
 62
2
 10
978.2797905358443
 20
480.4766165805148
 30
0
 11
980.5467492460865
 21
482.743575290757
 31
0
  0
LINE
  8
1
 62
2
 10
974.5227952810525
 20
476.7196213257229
 30
0
 11
976.7897539912947
 21
478.9865800359651
 31
0
  0
LINE
  8
1
 62
2
 10
980.1106885935905
 20
479.4790875135147
 30
0
 11
982.5227952810524
 21
481.8911942009767
 31
0
  0
LINE
  8
1
 62
2
 10
975.8751763708327
 20
475.243575290757
 30
0
 11
977.7872830582948
 21
477.155681978219
 31
0
  0
LINE
  8
1
 62
2
 10
978.7036034955789
 20
475.243575290757
 30
0
 11
982.5227952810524
 21
479.0627670762304
 31
0
  0
LINE
  8
1
 62
2
 10
981.5320306203251
 20
475.243575290757
 30
0
 11
982.5227952810524
 21
476.2343399514842
 31
0
  0
ENDBLK
  8
0
  0
BLOCK
  8
1
  2
*X2
 70
1
 10
0
 20
0
 30
0
  0
LINE
  8
1
 62
2
 10
1032.522795281052
 20
480.9795059555448
 30
0
 11
1034.286864616264
 21
482.7435752907571
 31
0
  0
LINE
  8
1
 62
2
 10
1032.522795281052
 20
478.1510788307986
 30
0
 11
1037.11529174101
 21
482.7435752907571
 31
0
  0
LINE
  8
1
 62
2
 10
1037.436295518443
 20
480.2361519434435
 30
0
 11
1039.943718865757
 21
482.7435752907571
 31
0
  0
LINE
  8
1
 62
2
 10
1032.522795281052
 20
475.3226517060523
 30
0
 11
1035.030218628366
 21
477.830075053366
 31
0
  0
LINE
  8
1
 62
2
 10
1038.163463452039
 20
478.1348927522932
 30
0
 11
1040.022795281052
 21
479.9942245813061
 31
0
  0
LINE
  8
1
 62
2
 10
1035.272145990503
 20
475.243575290757
 30
0
 11
1037.131477819516
 21
477.1029071197702
 31
0
  0
LINE
  8
1
 62
2
 10
1038.100573115249
 20
475.243575290757
 30
0
 11
1040.022795281052
 21
477.1657974565599
 31
0
  0
ENDBLK
  8
0
  0
BLOCK
  8
1
  2
*X3
 70
1
 10
0
 20
0
 30
0
  0
LINE
  8
1
 62
2
 10
1032.522795281052
 20
579.9744553216613
 30
0
 11
1032.791915250147
 21
580.243575290757
 31
0
  0
LINE
  8
1
 62
2
 10
1032.522795281052
 20
577.146028196915
 30
0
 11
1035.620342374894
 21
580.243575290757
 31
0
  0
LINE
  8
1
 62
2
 10
1036.690635315303
 20
578.4854411064197
 30
0
 11
1038.44876949964
 21
580.243575290757
 31
0
  0
LINE
  8
1
 62
2
 10
1032.522795281052
 20
574.3176010721688
 30
0
 11
1034.780929465389
 21
576.5757352565059
 31
0
  0
LINE
  8
1
 62
2
 10
1038.216651295089
 20
577.1830299614596
 30
0
 11
1040.022795281052
 21
578.9891739474228
 31
0
  0
LINE
  8
1
 62
2
 10
1033.777196624386
 20
572.743575290757
 30
0
 11
1036.083340610349
 21
575.0497192767201
 31
0
  0
LINE
  8
1
 62
2
 10
1036.605623749132
 20
572.743575290757
 30
0
 11
1040.022795281052
 21
576.1607468226766
 31
0
  0
LINE
  8
1
 62
2
 10
1039.434050873879
 20
572.743575290757
 30
0
 11
1040.022795281052
 21
573.3323196979304
 31
0
  0
ENDBLK
  8
0
  0
BLOCK
  8
1
  2
*X4
 70
1
 10
0
 20
0
 30
0
  0
LINE
  8
1
 62
2
 10
974.5227952810524
 20
578.5429978165856
 30
0
 11
976.2233727552236
 21
580.243575290757
 31
0
  0
LINE
  8
1
 62
2
 10
974.5227952810524
 20
575.7145706918394
 30
0
 11
979.0517998799699
 21
580.243575290757
 31
0
  0
LINE
  8
1
 62
2
 10
979.6868532616991
 20
578.0502015477399
 30
0
 11
981.8802270047161
 21
580.243575290757
 31
0
  0
LINE
  8
1
 62
2
 10
974.5227952810524
 20
572.8861435670932
 30
0
 11
977.2161690240698
 21
575.5795173101107
 31
0
  0
LINE
  8
1
 62
2
 10
977.2086541294623
 20
572.743575290757
 30
0
 11
982.5227952810524
 21
578.0577164423471
 31
0
  0
LINE
  8
1
 62
2
 10
980.0370812542085
 20
572.743575290757
 30
0
 11
982.5227952810524
 21
575.2292893176009
 31
0
  0
ENDBLK
  8
0
  0
BLOCK
  8
1
  2
*X5
 70
1
 10
0
 20
0
 30
0
  0
LINE
  8
1
 62
2
 10
955.0227952810524
 20
578.841987689809
 30
0
 11
956.4243828820002
 21
580.2435752907568
 31
0
  0
LINE
  8
1
 62
2
 10
955.0227952810524
 20
576.0135605650628
 30
0
 11
959.2528100067464
 21
580.2435752907568
 31
0
  0
LINE
  8
1
 62
2
 10
959.7890649466032
 20
577.9514031058675
 30
0
 11
962.0812371314926
 21
580.2435752907568
 31
0
  0
LINE
  8
1
 62
2
 10
955.0227952810524
 20
573.1851334403166
 30
0
 11
957.3149674659419
 21
575.4773056252061
 31
0
  0
LINE
  8
1
 62
2
 10
957.409664256239
 20
572.7435752907571
 30
0
 11
962.5227952810524
 21
577.8567063155705
 31
0
  0
LINE
  8
1
 62
2
 10
960.2380913809852
 20
572.7435752907571
 30
0
 11
962.5227952810524
 21
575.0282791908243
 31
0
  0
ENDBLK
  8
0
  0
BLOCK
  8
1
  2
*X6
 70
1
 10
0
 20
0
 30
0
  0
LINE
  8
1
 62
2
 10
1032.022795281052
 20
539.8764755752146
 30
0
 11
1034.489867947285
 21
542.3435482414477
 31
0
  0
LINE
  8
1
 62
2
 10
1032.022795281052
 20
537.0480484504684
 30
0
 11
1037.318295072031
 21
542.3435482414477
 31
0
  0
LINE
  8
1
 62
2
 10
1037.320621948046
 20
539.5174479927166
 30
0
 11
1040.022795281052
 21
542.2196213257224
 31
0
  0
LINE
  8
1
 62
2
 10
1032.146722196777
 20
534.3435482414477
 30
0
 11
1034.848895529783
 21
537.0457215744536
 31
0
  0
LINE
  8
1
 62
2
 10
1034.975149321523
 20
534.3435482414477
 30
0
 11
1040.022795281052
 21
539.3911942009762
 31
0
  0
LINE
  8
1
 62
2
 10
1037.80357644627
 20
534.3435482414477
 30
0
 11
1040.022795281052
 21
536.56276707623
 31
0
  0
ENDBLK
  8
0
  0
BLOCK
  8
1
  2
*D4
 70
1
 10
0
 20
0
 30
0
  0
LINE
  8
1
 62
2
 10
1116.43920785619
 20
533.883154947664
 30
0
 11
1107.96960604665
 21
533.883154947664
 31
0
  0
LINE
  8
1
 62
2
 10
1116.43920785619
 20
533.883154947664
 30
0
 11
1120.43920785619
 21
533.883154947664
 31
0
  0
LINE
  8
1
 62
2
 10
1126.83920785619
 20
533.883154947664
 30
0
 11
1120.43920785619
 21
533.883154947664
 31
0
  0
LINE
  8
1
 62
2
 10
1120.43920785619
 20
534.9435482414476
 30
0
 11
1120.43920785619
 21
532.383154947664
 31
0
  0
LINE
  8
1
 62
2
 10
1116.43920785619
 20
530.8936169123367
 30
0
 11
1116.43920785619
 21
535.383154947664
 31
0
  0
SOLID
  8
1
 62
2
 10
1116.43920785619
 20
533.883154947664
 30
0
 11
1113.23920785619
 21
533.467154947664
 31
0
 12
1113.23920785619
 22
534.2991549476641
 32
0
 13
1113.23920785619
 23
534.2991549476641
 33
0
  0
SOLID
  8
1
 62
2
 10
1120.43920785619
 20
533.883154947664
 30
0
 11
1123.63920785619
 21
534.2991549476641
 31
0
 12
1123.63920785619
 22
533.467154947664
 32
0
 13
1123.63920785619
 23
533.467154947664
 33
0
  0
TEXT
  8
1
 62
2
 10
1107.96960604665
 20
535.883154947664
 30
0
 40
3.2
  1
4
 41
0.9
  0
ENDBLK
  8
0
  0
BLOCK
  8
1
  2
*D5
 70
1
 10
0
 20
0
 30
0
  0
LINE
  8
1
 62
2
 10
1113.23920785619
 20
500.867326891917
 30
0
 11
1104.72169164357
 21
500.867326891917
 31
0
  0
LINE
  8
1
 62
2
 10
1113.23920785619
 20
500.867326891917
 30
0
 11
1116.43920785619
 21
500.867326891917
 31
0
  0
LINE
  8
1
 62
2
 10
1122.83920785619
 20
500.867326891917
 30
0
 11
1116.43920785619
 21
500.867326891917
 31
0
  0
LINE
  8
1
 62
2
 10
1116.43920785619
 20
501.5936169123368
 30
0
 11
1116.43920785619
 21
499.367326891917
 31
0
  0
LINE
  8
1
 62
2
 10
1113.23920785619
 20
501.5936169123368
 30
0
 11
1113.23920785619
 21
499.367326891917
 31
0
  0
SOLID
  8
1
 62
2
 10
1116.43920785619
 20
500.867326891917
 30
0
 11
1119.63920785619
 21
501.283326891917
 31
0
 12
1119.63920785619
 22
500.451326891917
 32
0
 13
1119.63920785619
 23
500.451326891917
 33
0
  0
SOLID
  8
1
 62
2
 10
1113.23920785619
 20
500.867326891917
 30
0
 11
1110.03920785619
 21
500.451326891917
 31
0
 12
1110.03920785619
 22
501.283326891917
 32
0
 13
1110.03920785619
 23
501.283326891917
 33
0
  0
TEXT
  8
1
 62
2
 10
1104.72169164357
 20
502.867326891917
 30
0
 40
3.2
  1
3.2
 41
0.9
  0
ENDBLK
  8
0
  0
BLOCK
  8
1
  2
*D6
 70
1
 10
0
 20
0
 30
0
  0
LINE
  8
1
 62
2
 10
1148.93920785619
 20
475.2435752907569
 30
0
 11
1148.93920785619
 21
538.3435482414476
 31
0
  0
LINE
  8
1
 62
2
 10
1118.43920785619
 20
475.2435752907569
 30
0
 11
1150.43920785619
 21
475.2435752907569
 31
0
  0
LINE
  8
1
 62
2
 10
1123.690214471804
 20
538.3435482414476
 30
0
 11
1150.43920785619
 21
538.3435482414476
 31
0
  0
SOLID
  8
1
 62
2
 10
1148.93920785619
 20
475.2435752907569
 30
0
 11
1148.52320785619
 21
478.4435752907569
 31
0
 12
1149.35520785619
 22
478.4435752907569
 32
0
 13
1149.35520785619
 23
478.4435752907569
 33
0
  0
SOLID
  8
1
 62
2
 10
1148.93920785619
 20
538.3435482414476
 30
0
 11
1149.35520785619
 21
535.1435482414476
 31
0
 12
1148.52320785619
 22
535.1435482414476
 32
0
 13
1148.52320785619
 23
535.1435482414476
 33
0
  0
TEXT
  8
1
 62
2
 10
1146.93920785619
 20
504.645313218619
 30
0
 40
3.2
  1
63.1
 50
90
 41
0.9
  0
ENDBLK
  8
0
  0
BLOCK
  8
1
  2
*D7
 70
1
 10
0
 20
0
 30
0
  0
LINE
  8
1
 62
2
 10
1078.231001568621
 20
463.243575290757
 30
0
 11
1092.557937122075
 21
463.243575290757
 31
0
  0
LINE
  8
1
 62
2
 10
1063.231001568621
 20
463.243575290757
 30
0
 11
1078.231001568621
 21
463.243575290757
 31
0
  0
LINE
  8
1
 62
2
 10
1078.231001568621
 20
474.243575290757
 30
0
 11
1078.231001568621
 21
461.743575290757
 31
0
  0
LINE
  8
1
 62
2
 10
1063.231001568621
 20
474.243575290757
 30
0
 11
1063.231001568621
 21
461.743575290757
 31
0
  0
SOLID
  8
1
 62
2
 10
1063.231001568621
 20
463.243575290757
 30
0
 11
1066.431001568621
 21
463.659575290757
 31
0
 12
1066.431001568621
 22
462.827575290757
 32
0
 13
1066.431001568621
 23
462.827575290757
 33
0
  0
SOLID
  8
1
 62
2
 10
1078.231001568621
 20
463.243575290757
 30
0
 11
1075.031001568621
 21
462.827575290757
 31
0
 12
1075.031001568621
 22
463.659575290757
 32
0
 13
1075.031001568621
 23
463.659575290757
 33
0
  0
TEXT
  8
1
 62
2
 10
1081.438982873709
 20
465.243575290757
 30
0
 40
3.2
  1
15以下
 41
0.9
  0
ENDBLK
  8
0
  0
BLOCK
  8
1
  2
*D8
 70
1
 10
0
 20
0
 30
0
  0
LINE
  8
1
 62
2
 10
1069.631001568621
 20
463.243575290757
 30
0
 11
1063.231001568621
 21
463.243575290757
 31
0
  0
LINE
  8
1
 62
2
 10
1062.231001568621
 20
463.243575290757
 30
0
 11
1063.231001568621
 21
463.243575290757
 31
0
  0
LINE
  8
1
 62
2
 10
1062.231001568621
 20
463.243575290757
 30
0
 11
1050.170153683334
 21
463.243575290757
 31
0
  0
LINE
  8
1
 62
2
 10
1062.231001568621
 20
549.7935752907573
 30
0
 11
1062.231001568621
 21
461.743575290757
 31
0
  0
LINE
  8
1
 62
2
 10
1063.231001568621
 20
474.243575290757
 30
0
 11
1063.231001568621
 21
461.743575290757
 31
0
  0
SOLID
  8
1
 62
2
 10
1062.231001568621
 20
463.243575290757
 30
0
 11
1059.031001568621
 21
462.827575290757
 31
0
 12
1059.031001568621
 22
463.659575290757
 32
0
 13
1059.031001568621
 23
463.659575290757
 33
0
  0
SOLID
  8
1
 62
2
 10
1063.231001568621
 20
463.243575290757
 30
0
 11
1066.431001568621
 21
463.659575290757
 31
0
 12
1066.431001568621
 22
462.827575290757
 32
0
 13
1066.431001568621
 23
462.827575290757
 33
0
  0
TEXT
  8
1
 62
2
 10
1050.170153683334
 20
465.243575290757
 30
0
 40
3.2
  1
3以下
 41
0.9
  0
ENDBLK
  8
0
  0
BLOCK
  8
1
  2
*D9
 70
1
 10
0
 20
0
 30
0
  0
LINE
  8
1
 62
2
 10
1126.33920785619
 20
466.243575290757
 30
0
 11
1119.93920785619
 21
466.243575290757
 31
0
  0
LINE
  8
1
 62
2
 10
1116.43920785619
 20
466.243575290757
 30
0
 11
1119.93920785619
 21
466.243575290757
 31
0
  0
LINE
  8
1
 62
2
 10
1116.43920785619
 20
466.243575290757
 30
0
 11
1104.51920785619
 21
466.243575290757
 31
0
  0
LINE
  8
1
 62
2
 10
1116.43920785619
 20
475.243575290757
 30
0
 11
1116.43920785619
 21
464.743575290757
 31
0
  0
LINE
  8
1
 62
2
 10
1119.93920785619
 20
475.343575290757
 30
0
 11
1119.93920785619
 21
464.743575290757
 31
0
  0
SOLID
  8
1
 62
2
 10
1116.43920785619
 20
466.243575290757
 30
0
 11
1113.23920785619
 21
465.827575290757
 31
0
 12
1113.23920785619
 22
466.659575290757
 32
0
 13
1113.23920785619
 23
466.659575290757
 33
0
  0
SOLID
  8
1
 62
2
 10
1119.93920785619
 20
466.243575290757
 30
0
 11
1123.13920785619
 21
466.659575290757
 31
0
 12
1123.13920785619
 22
465.827575290757
 32
0
 13
1123.13920785619
 23
465.827575290757
 33
0
  0
TEXT
  8
1
 62
2
 10
1104.51920785619
 20
468.243575290757
 30
0
 40
3.2
  1
3.5
 41
0.9
  0
ENDBLK
  8
0
  0
BLOCK
  8
1
  2
*D10
 70
1
 10
0
 20
0
 30
0
  0
LINE
  8
1
 62
2
 10
1126.33920785619
 20
586.5781083431592
 30
0
 11
1119.93920785619
 21
586.5781083431592
 31
0
  0
LINE
  8
1
 62
2
 10
1116.43920785619
 20
586.5781083431592
 30
0
 11
1119.93920785619
 21
586.5781083431592
 31
0
  0
LINE
  8
1
 62
2
 10
1116.43920785619
 20
586.5781083431592
 30
0
 11
1102.174840007062
 21
586.5781083431592
 31
0
  0
LINE
  8
1
 62
2
 10
1116.43920785619
 20
580.243575290757
 30
0
 11
1116.43920785619
 21
588.0781083431592
 31
0
  0
LINE
  8
1
 62
2
 10
1119.93920785619
 20
580.1435752907569
 30
0
 11
1119.93920785619
 21
588.0781083431592
 31
0
  0
SOLID
  8
1
 62
2
 10
1119.93920785619
 20
586.5781083431592
 30
0
 11
1123.13920785619
 21
586.9941083431593
 31
0
 12
1123.13920785619
 22
586.1621083431592
 32
0
 13
1123.13920785619
 23
586.1621083431592
 33
0
  0
SOLID
  8
1
 62
2
 10
1116.43920785619
 20
586.5781083431592
 30
0
 11
1113.23920785619
 21
586.1621083431592
 31
0
 12
1113.23920785619
 22
586.9941083431593
 32
0
 13
1113.23920785619
 23
586.9941083431593
 33
0
  0
TEXT
  8
1
 62
2
 10
1102.174840007062
 20
588.5781083431592
 30
0
 40
3.2
  1
3.5
 41
0.9
  0
ENDBLK
  8
0
  0
BLOCK
  8
1
  2
*D11
 70
1
 10
0
 20
0
 30
0
  0
LINE
  8
1
 62
2
 10
1116.43920785619
 20
603.7000274830651
 30
0
 11
1201.43920785619
 21
603.7000274830651
 31
0
  0
LINE
  8
1
 62
2
 10
1116.43920785619
 20
580.243575290757
 30
0
 11
1116.43920785619
 21
605.2000274830651
 31
0
  0
LINE
  8
1
 62
2
 10
1201.43920785619
 20
580.243575290757
 30
0
 11
1201.43920785619
 21
605.2000274830651
 31
0
  0
SOLID
  8
1
 62
2
 10
1116.43920785619
 20
603.7000274830651
 30
0
 11
1119.63920785619
 21
604.1160274830652
 31
0
 12
1119.63920785619
 22
603.2840274830651
 32
0
 13
1119.63920785619
 23
603.2840274830651
 33
0
  0
SOLID
  8
1
 62
2
 10
1201.43920785619
 20
603.7000274830651
 30
0
 11
1198.23920785619
 21
603.2840274830651
 31
0
 12
1198.23920785619
 22
604.1160274830652
 32
0
 13
1198.23920785619
 23
604.1160274830652
 33
0
  0
TEXT
  8
1
 62
2
 10
1156.569453386602
 20
605.7000274830651
 30
0
 40
3.2
  1
85
 41
0.9
  0
ENDBLK
  8
0
  0
BLOCK
  8
1
  2
*D12
 70
1
 10
0
 20
0
 30
0
  0
LINE
  8
1
 62
2
 10
1217.43920785619
 20
475.243575290757
 30
0
 11
1217.43920785619
 21
580.2435752907571
 31
0
  0
LINE
  8
1
 62
2
 10
1201.43920785619
 20
475.243575290757
 30
0
 11
1218.93920785619
 21
475.243575290757
 31
0
  0
LINE
  8
1
 62
2
 10
1201.43920785619
 20
580.2435752907571
 30
0
 11
1218.93920785619
 21
580.2435752907571
 31
0
  0
SOLID
  8
1
 62
2
 10
1217.43920785619
 20
580.2435752907571
 30
0
 11
1217.85520785619
 21
577.0435752907571
 31
0
 12
1217.02320785619
 22
577.0435752907571
 32
0
 13
1217.02320785619
 23
577.0435752907571
 33
0
  0
SOLID
  8
1
 62
2
 10
1217.43920785619
 20
475.243575290757
 30
0
 11
1217.02320785619
 21
478.443575290757
 31
0
 12
1217.85520785619
 22
478.443575290757
 32
0
 13
1217.85520785619
 23
478.443575290757
 33
0
  0
TEXT
  8
1
 62
2
 10
1215.43920785619
 20
524.383575290757
 30
0
 40
3.2
  1
105
 50
90
 41
0.9
  0
ENDBLK
  8
0
  0
BLOCK
  8
1
  2
*D13
 70
1
 10
0
 20
0
 30
0
  0
LINE
  8
1
 62
2
 10
1210.43920785619
 20
485.143575290757
 30
0
 11
1210.43920785619
 21
478.743575290757
 31
0
  0
LINE
  8
1
 62
2
 10
1210.43920785619
 20
475.243575290757
 30
0
 11
1210.43920785619
 21
478.743575290757
 31
0
  0
LINE
  8
1
 62
2
 10
1210.43920785619
 20
475.243575290757
 30
0
 11
1210.43920785619
 21
467.2011205223721
 31
0
  0
LINE
  8
1
 62
2
 10
1201.43920785619
 20
475.243575290757
 30
0
 11
1211.93920785619
 21
475.243575290757
 31
0
  0
LINE
  8
1
 62
2
 10
1123.190214471804
 20
478.743575290757
 30
0
 11
1211.93920785619
 21
478.743575290757
 31
0
  0
SOLID
  8
1
 62
2
 10
1210.43920785619
 20
478.743575290757
 30
0
 11
1210.02320785619
 21
481.943575290757
 31
0
 12
1210.85520785619
 22
481.943575290757
 32
0
 13
1210.85520785619
 23
481.943575290757
 33
0
  0
SOLID
  8
1
 62
2
 10
1210.43920785619
 20
475.243575290757
 30
0
 11
1210.85520785619
 21
472.043575290757
 31
0
 12
1210.02320785619
 22
472.043575290757
 32
0
 13
1210.02320785619
 23
472.043575290757
 33
0
  0
TEXT
  8
1
 62
2
 10
1208.43920785619
 20
467.2011205223721
 30
0
 40
3.2
  1
3.5
 50
90
 41
0.9
  0
ENDBLK
  8
0
  0
BLOCK
  8
1
  2
*D14
 70
1
 10
0
 20
0
 30
0
  0
LINE
  8
1
 62
2
 10
1122.83920785619
 20
572.9284105861453
 30
0
 11
1116.43920785619
 21
572.9284105861453
 31
0
  0
LINE
  8
1
 62
2
 10
1111.439207856191
 20
572.9284105861453
 30
0
 11
1116.43920785619
 21
572.9284105861453
 31
0
  0
LINE
  8
1
 62
2
 10
1111.439207856191
 20
572.9284105861453
 30
0
 11
1104.522677308412
 21
572.9284105861453
 31
0
  0
LINE
  8
1
 62
2
 10
1111.439207856191
 20
567.543575290757
 30
0
 11
1111.439207856191
 21
574.4284105861453
 31
0
  0
LINE
  8
1
 62
2
 10
1116.43920785619
 20
567.543575290757
 30
0
 11
1116.43920785619
 21
574.4284105861453
 31
0
  0
SOLID
  8
1
 62
2
 10
1111.439207856191
 20
572.9284105861453
 30
0
 11
1108.239207856191
 21
572.5124105861453
 31
0
 12
1108.239207856191
 22
573.3444105861454
 32
0
 13
1108.239207856191
 23
573.3444105861454
 33
0
  0
SOLID
  8
1
 62
2
 10
1116.43920785619
 20
572.9284105861453
 30
0
 11
1119.63920785619
 21
573.3444105861454
 31
0
 12
1119.63920785619
 22
572.5124105861453
 32
0
 13
1119.63920785619
 23
572.5124105861453
 33
0
  0
TEXT
  8
1
 62
2
 10
1104.522677308412
 20
574.9284105861453
 30
0
 40
3.2
  1
5
 41
0.9
  0
ENDBLK
  8
0
  0
BLOCK
  8
1
  2
*D15
 70
1
 10
0
 20
0
 30
0
  0
LINE
  8
1
 62
2
 10
1122.83920785619
 20
482.3272439892123
 30
0
 11
1116.43920785619
 21
482.3272439892123
 31
0
  0
LINE
  8
1
 62
2
 10
1111.439207856191
 20
482.3272439892123
 30
0
 11
1116.43920785619
 21
482.3272439892123
 31
0
  0
LINE
  8
1
 62
2
 10
1111.439207856191
 20
482.3272439892123
 30
0
 11
1104.686809856592
 21
482.3272439892123
 31
0
  0
LINE
  8
1
 62
2
 10
1111.439207856191
 20
488.043575290757
 30
0
 11
1111.439207856191
 21
480.8272439892123
 31
0
  0
LINE
  8
1
 62
2
 10
1116.43920785619
 20
488.043575290757
 30
0
 11
1116.43920785619
 21
480.8272439892123
 31
0
  0
SOLID
  8
1
 62
2
 10
1111.439207856191
 20
482.3272439892123
 30
0
 11
1108.239207856191
 21
481.9112439892123
 31
0
 12
1108.239207856191
 22
482.7432439892123
 32
0
 13
1108.239207856191
 23
482.7432439892123
 33
0
  0
SOLID
  8
1
 62
2
 10
1116.43920785619
 20
482.3272439892123
 30
0
 11
1119.63920785619
 21
482.7432439892123
 31
0
 12
1119.63920785619
 22
481.9112439892123
 32
0
 13
1119.63920785619
 23
481.9112439892123
 33
0
  0
TEXT
  8
1
 62
2
 10
1104.686809856592
 20
484.3272439892123
 30
0
 40
3.2
  1
5
 41
0.9
  0
ENDBLK
  8
0
  0
BLOCK
  8
1
  2
*D16
 70
1
 10
0
 20
0
 30
0
  0
LINE
  8
1
 62
2
 10
1119.93920785619
 20
586.5781083431592
 30
0
 11
1177.93920785619
 21
586.5781083431592
 31
0
  0
LINE
  8
1
 62
2
 10
1119.93920785619
 20
580.1435752907569
 30
0
 11
1119.93920785619
 21
588.0781083431592
 31
0
  0
LINE
  8
1
 62
2
 10
1177.93920785619
 20
482.1435752907569
 30
0
 11
1177.93920785619
 21
588.0781083431592
 31
0
  0
SOLID
  8
1
 62
2
 10
1119.93920785619
 20
586.5781083431592
 30
0
 11
1123.13920785619
 21
586.9941083431593
 31
0
 12
1123.13920785619
 22
586.1621083431592
 32
0
 13
1123.13920785619
 23
586.1621083431592
 33
0
  0
SOLID
  8
1
 62
2
 10
1177.93920785619
 20
586.5781083431592
 30
0
 11
1174.73920785619
 21
586.1621083431592
 31
0
 12
1174.73920785619
 22
586.9941083431593
 32
0
 13
1174.73920785619
 23
586.9941083431593
 33
0
  0
TEXT
  8
1
 62
2
 10
1144.279946902302
 20
588.5781083431592
 30
0
 40
3.2
  1
58
 41
0.9
  0
ENDBLK
  8
0
  0
BLOCK
  8
1
  2
*D17
 70
1
 10
0
 20
0
 30
0
  0
LINE
  8
1
 62
2
 10
1210.43920785619
 20
478.743575290757
 30
0
 11
1210.43920785619
 21
576.7435752907571
 31
0
  0
LINE
  8
1
 62
2
 10
1123.190214471804
 20
478.743575290757
 30
0
 11
1211.93920785619
 21
478.743575290757
 31
0
  0
LINE
  8
1
 62
2
 10
1123.190214471804
 20
576.7435752907571
 30
0
 11
1211.93920785619
 21
576.7435752907571
 31
0
  0
SOLID
  8
1
 62
2
 10
1210.43920785619
 20
478.743575290757
 30
0
 11
1210.02320785619
 21
481.943575290757
 31
0
 12
1210.85520785619
 22
481.943575290757
 32
0
 13
1210.85520785619
 23
481.943575290757
 33
0
  0
SOLID
  8
1
 62
2
 10
1210.43920785619
 20
576.7435752907571
 30
0
 11
1210.85520785619
 21
573.5435752907571
 31
0
 12
1210.02320785619
 22
573.5435752907571
 32
0
 13
1210.02320785619
 23
573.5435752907571
 33
0
  0
TEXT
  8
1
 62
2
 10
1208.43920785619
 20
525.1556485164903
 30
0
 40
3.2
  1
98
 50
90
 41
0.9
  0
ENDBLK
  8
0
  0
BLOCK
  8
1
  2
*D18
 70
1
 10
0
 20
0
 30
0
  0
LINE
  8
1
 62
2
 10
1021.98781528338
 20
542.3435482414477
 30
0
 11
1021.98781528338
 21
548.7435482414477
 31
0
  0
LINE
  8
1
 62
2
 10
1021.98781528338
 20
534.3435482414477
 30
0
 11
1021.98781528338
 21
527.9435482414477
 31
0
  0
LINE
  8
1
 62
2
 10
1021.98781528338
 20
534.3435482414477
 30
0
 11
1021.98781528338
 21
542.3435482414477
 31
0
  0
LINE
  8
1
 62
2
 10
1031.022795281052
 20
542.3435482414477
 30
0
 11
1020.48781528338
 21
542.3435482414477
 31
0
  0
LINE
  8
1
 62
2
 10
1031.022795281052
 20
534.3435482414477
 30
0
 11
1020.48781528338
 21
534.3435482414477
 31
0
  0
SOLID
  8
1
 62
2
 10
1021.98781528338
 20
534.3435482414477
 30
0
 11
1022.40381528338
 21
531.1435482414477
 31
0
 12
1021.57181528338
 22
531.1435482414477
 32
0
 13
1021.57181528338
 23
531.1435482414477
 33
0
  0
SOLID
  8
1
 62
2
 10
1021.98781528338
 20
542.3435482414477
 30
0
 11
1021.57181528338
 21
545.5435482414478
 31
0
 12
1022.40381528338
 22
545.5435482414478
 32
0
 13
1022.40381528338
 23
545.5435482414478
 33
0
  0
TEXT
  8
1
 62
2
 10
1019.98781528338
 20
532.4987463894868
 30
0
 40
3.2
  1
8
 50
90
 41
0.9
  0
TEXT
  8
1
 62
2
 10
1019.98781528338
 20
536.0187463894868
 30
0
 40
3.2
  1
以下
 50
90
 41
0.9
  0
ENDBLK
  8
0
  0
BLOCK
  8
1
  2
*D19
 70
1
 10
0
 20
0
 30
0
  0
LINE
  8
1
 62
2
 10
948.5122980888621
 20
482.743575290757
 30
0
 11
948.5122980888621
 21
489.143575290757
 31
0
  0
LINE
  8
1
 62
2
 10
948.5122980888621
 20
475.243575290757
 30
0
 11
948.5122980888621
 21
468.843575290757
 31
0
  0
LINE
  8
1
 62
2
 10
948.5122980888621
 20
475.243575290757
 30
0
 11
948.5122980888621
 21
482.743575290757
 31
0
  0
LINE
  8
1
 62
2
 10
1031.522795281052
 20
482.743575290757
 30
0
 11
947.0122980888621
 21
482.743575290757
 31
0
  0
LINE
  8
1
 62
2
 10
961.5227952810524
 20
475.243575290757
 30
0
 11
947.0122980888621
 21
475.243575290757
 31
0
  0
SOLID
  8
1
 62
2
 10
948.5122980888621
 20
482.743575290757
 30
0
 11
948.096298088862
 21
485.943575290757
 31
0
 12
948.9282980888621
 22
485.943575290757
 32
0
 13
948.9282980888621
 23
485.943575290757
 33
0
  0
SOLID
  8
1
 62
2
 10
948.5122980888621
 20
475.243575290757
 30
0
 11
948.9282980888621
 21
472.043575290757
 31
0
 12
948.096298088862
 22
472.043575290757
 32
0
 13
948.096298088862
 23
472.043575290757
 33
0
  0
TEXT
  8
1
 62
2
 10
946.5122980888621
 20
475.0991992456807
 30
0
 40
3.2
  1
7.5
 50
90
 41
0.9
  0
TEXT
  8
1
 62
2
 10
946.5122980888621
 20
469.0191992456807
 30
0
 40
3.2
  1
2-
 50
90
 41
0.9
  0
TEXT
  8
1
 62
2
 10
946.5122980888621
 20
482.6991992456808
 30
0
 40
3.2
  1
以下
 50
90
 41
0.9
  0
ENDBLK
  8
0
  0
BLOCK
  8
1
  2
*D20
 70
1
 10
0
 20
0
 30
0
  0
LINE
  8
1
 62
2
 10
955.0227952810524
 20
493.165484815875
 30
0
 11
932.6181224411628
 21
493.165484815875
 31
0
  0
LINE
  8
1
 62
2
 10
955.0227952810524
 20
493.165484815875
 30
0
 11
962.5227952810524
 21
493.165484815875
 31
0
  0
LINE
  8
1
 62
2
 10
968.9227952810523
 20
493.165484815875
 30
0
 11
962.5227952810524
 21
493.165484815875
 31
0
  0
LINE
  8
1
 62
2
 10
962.5227952810524
 20
483.743575290757
 30
0
 11
962.5227952810524
 21
494.665484815875
 31
0
  0
LINE
  8
1
 62
2
 10
955.0227952810524
 20
483.743575290757
 30
0
 11
955.0227952810524
 21
494.665484815875
 31
0
  0
SOLID
  8
1
 62
2
 10
962.5227952810524
 20
493.165484815875
 30
0
 11
965.7227952810524
 21
493.581484815875
 31
0
 12
965.7227952810524
 22
492.749484815875
 32
0
 13
965.7227952810524
 23
492.749484815875
 33
0
  0
SOLID
  8
1
 62
2
 10
955.0227952810524
 20
493.165484815875
 30
0
 11
951.8227952810523
 21
492.749484815875
 31
0
 12
951.8227952810523
 22
493.581484815875
 32
0
 13
951.8227952810523
 23
493.581484815875
 33
0
  0
TEXT
  8
1
 62
2
 10
938.6981224411627
 20
495.165484815875
 30
0
 40
3.2
  1
7.5
 41
0.9
  0
TEXT
  8
1
 62
2
 10
932.6181224411628
 20
495.165484815875
 30
0
 40
3.2
  1
2-
 41
0.9
  0
TEXT
  8
1
 62
2
 10
946.2981224411627
 20
495.165484815875
 30
0
 40
3.2
  1
以下
 41
0.9
  0
ENDBLK
  8
0
  0
BLOCK
  8
1
  2
*D21
 70
1
 10
0
 20
0
 30
0
  0
LINE
  8
1
 62
2
 10
982.5227952810524
 20
485.706847001313
 30
0
 11
1000.135746074132
 21
485.706847001313
 31
0
  0
LINE
  8
1
 62
2
 10
974.5227952810524
 20
485.706847001313
 30
0
 11
982.5227952810524
 21
485.706847001313
 31
0
  0
LINE
  8
1
 62
2
 10
968.1227952810524
 20
485.706847001313
 30
0
 11
974.5227952810524
 21
485.706847001313
 31
0
  0
LINE
  8
1
 62
2
 10
982.5227952810524
 20
483.743575290757
 30
0
 11
982.5227952810524
 21
487.206847001313
 31
0
  0
LINE
  8
1
 62
2
 10
974.5227952810524
 20
483.743575290757
 30
0
 11
974.5227952810524
 21
487.206847001313
 31
0
  0
SOLID
  8
1
 62
2
 10
982.5227952810524
 20
485.706847001313
 30
0
 11
985.7227952810524
 21
486.122847001313
 31
0
 12
985.7227952810524
 22
485.290847001313
 32
0
 13
985.7227952810524
 23
485.290847001313
 33
0
  0
SOLID
  8
1
 62
2
 10
974.5227952810524
 20
485.706847001313
 30
0
 11
971.3227952810523
 21
485.290847001313
 31
0
 12
971.3227952810523
 22
486.122847001313
 32
0
 13
971.3227952810523
 23
486.122847001313
 33
0
  0
TEXT
  8
1
 62
2
 10
989.9333931329559
 20
487.706847001313
 30
0
 40
3.2
  1
8
 41
0.9
  0
TEXT
  8
1
 62
2
 10
983.8533931329558
 20
487.706847001313
 30
0
 40
3.2
  1
2-
 41
0.9
  0
TEXT
  8
1
 62
2
 10
993.4533931329559
 20
487.706847001313
 30
0
 40
3.2
  1
以下
 41
0.9
  0
ENDBLK
  8
0
  0
BLOCK
  8
1
  2
*D22
 70
1
 10
0
 20
0
 30
0
  0
LINE
  8
1
 62
2
 10
1040.022795281052
 20
545.693338360983
 30
0
 11
1046.422795281052
 21
545.693338360983
 31
0
  0
LINE
  8
1
 62
2
 10
1032.022795281052
 20
545.693338360983
 30
0
 11
1025.622795281052
 21
545.693338360983
 31
0
  0
LINE
  8
1
 62
2
 10
1032.022795281052
 20
545.693338360983
 30
0
 11
1040.022795281052
 21
545.693338360983
 31
0
  0
LINE
  8
1
 62
2
 10
1040.022795281052
 20
543.3435482414477
 30
0
 11
1040.022795281052
 21
547.193338360983
 31
0
  0
LINE
  8
1
 62
2
 10
1032.022795281052
 20
543.3435482414477
 30
0
 11
1032.022795281052
 21
547.193338360983
 31
0
  0
SOLID
  8
1
 62
2
 10
1032.022795281052
 20
545.693338360983
 30
0
 11
1028.822795281052
 21
545.277338360983
 31
0
 12
1028.822795281052
 22
546.1093383609831
 32
0
 13
1028.822795281052
 23
546.1093383609831
 33
0
  0
SOLID
  8
1
 62
2
 10
1040.022795281052
 20
545.693338360983
 30
0
 11
1043.222795281052
 21
546.1093383609831
 31
0
 12
1043.222795281052
 22
545.277338360983
 32
0
 13
1043.222795281052
 23
545.277338360983
 33
0
  0
TEXT
  8
1
 62
2
 10
1024.980054313702
 20
547.693338360983
 30
0
 40
3.2
  1
8
 41
0.9
  0
TEXT
  8
1
 62
2
 10
1028.500054313702
 20
547.693338360983
 30
0
 40
3.2
  1
以下
 41
0.9
  0
ENDBLK
  8
0
  0
BLOCK
  8
1
  2
*D23
 70
1
 10
0
 20
0
 30
0
  0
LINE
  8
1
 62
2
 10
1032.522795281052
 20
485.706847001313
 30
0
 11
1011.965333234382
 21
485.706847001313
 31
0
  0
LINE
  8
1
 62
2
 10
1032.522795281052
 20
485.706847001313
 30
0
 11
1040.022795281052
 21
485.706847001313
 31
0
  0
LINE
  8
1
 62
2
 10
1046.422795281052
 20
485.706847001313
 30
0
 11
1040.022795281052
 21
485.706847001313
 31
0
  0
LINE
  8
1
 62
2
 10
1040.022795281052
 20
483.743575290757
 30
0
 11
1040.022795281052
 21
487.206847001313
 31
0
  0
LINE
  8
1
 62
2
 10
1032.522795281052
 20
483.743575290757
 30
0
 11
1032.522795281052
 21
487.206847001313
 31
0
  0
SOLID
  8
1
 62
2
 10
1032.522795281052
 20
485.706847001313
 30
0
 11
1029.322795281052
 21
485.290847001313
 31
0
 12
1029.322795281052
 22
486.122847001313
 32
0
 13
1029.322795281052
 23
486.122847001313
 33
0
  0
SOLID
  8
1
 62
2
 10
1040.022795281052
 20
485.706847001313
 30
0
 11
1043.222795281052
 21
486.122847001313
 31
0
 12
1043.222795281052
 22
485.290847001313
 32
0
 13
1043.222795281052
 23
485.290847001313
 33
0
  0
TEXT
  8
1
 62
2
 10
1018.045333234382
 20
487.706847001313
 30
0
 40
3.2
  1
7.5
 41
0.9
  0
TEXT
  8
1
 62
2
 10
1011.965333234382
 20
487.706847001313
 30
0
 40
3.2
  1
2-
 41
0.9
  0
TEXT
  8
1
 62
2
 10
1025.645333234382
 20
487.706847001313
 30
0
 40
3.2
  1
以下
 41
0.9
  0
ENDBLK
  8
0
  0
BLOCK
  8
1
  2
*D24
 70
1
 10
0
 20
0
 30
0
  0
LINE
  8
1
 62
2
 10
1119.93920785619
 20
594.2076984389233
 30
0
 11
1197.93920785619
 21
594.2076984389233
 31
0
  0
LINE
  8
1
 62
2
 10
1119.93920785619
 20
580.1435752907569
 30
0
 11
1119.93920785619
 21
595.7076984389233
 31
0
  0
LINE
  8
1
 62
2
 10
1197.93920785619
 20
524.86717007868
 30
0
 11
1197.93920785619
 21
595.7076984389233
 31
0
  0
SOLID
  8
1
 62
2
 10
1119.93920785619
 20
594.2076984389233
 30
0
 11
1123.13920785619
 21
594.6236984389234
 31
0
 12
1123.13920785619
 22
593.7916984389233
 32
0
 13
1123.13920785619
 23
593.7916984389233
 33
0
  0
SOLID
  8
1
 62
2
 10
1197.93920785619
 20
594.2076984389233
 30
0
 11
1194.73920785619
 21
593.7916984389233
 31
0
 12
1194.73920785619
 22
594.6236984389234
 32
0
 13
1194.73920785619
 23
594.6236984389234
 33
0
  0
TEXT
  8
1
 62
2
 10
1153.83612750589
 20
596.2076984389233
 30
0
 40
3.2
  1
78
 41
0.9
  0
ENDBLK
  8
0
  0
BLOCK
  8
1
  2
*D25
 70
1
 10
0
 20
0
 30
0
  0
LINE
  8
1
 62
2
 10
1200.842356752178
 20
463.5594921943574
 30
0
 11
1156.465886163943
 21
463.5594921943574
 31
0
  0
LINE
  8
1
 62
2
 10
1196.709149815851
 20
485.1770391491615
 30
0
 11
1200.842356752178
 21
463.5594921943574
 31
0
  0
SOLID
  8
1
 62
2
 10
1198.267849317349
 20
477.024710901107
 30
0
 11
1199.277392324095
 21
473.9597673587996
 31
0
 12
1198.460195082844
 22
473.8035218184084
 32
0
 13
1198.460195082844
 23
473.8035218184084
 33
0
  0
SOLID
  8
1
 62
2
 10
1197.610566395031
 20
480.462439680407
 30
0
 11
1196.601023388285
 21
483.5273832227144
 31
0
 12
1197.418220629536
 22
483.6836287631056
 32
0
 13
1197.418220629536
 23
483.6836287631056
 33
0
  0
TEXT
  8
1
 62
2
 10
1165.952944987472
 20
466.4128255276906
 30
0
 40
3.2
  1
3.5
 41
0.9
  0
TEXT
  8
1
 62
2
 10
1156.465886163943
 20
466.4128255276906
 30
0
 40
3.2
  1
7-φ
 41
0.9
  0
TEXT
  8
1
 62
2
 10
1173.392944987472
 20
466.4128255276906
 30
0
 40
3.2
  1
穴　HOLES
 41
0.9
  0
ENDBLK
  8
0
  0
ENDSEC
  0
SECTION
  2
ENTITIES
  0
INSERT
  8
1
  2
*X0
 10
0
 20
0
 30
0
  0
INSERT
  8
1
  2
*X1
 10
0
 20
0
 30
0
  0
INSERT
  8
1
  2
*X2
 10
0
 20
0
 30
0
  0
INSERT
  8
1
  2
*X3
 10
0
 20
0
 30
0
  0
INSERT
  8
1
  2
*X4
 10
0
 20
0
 30
0
  0
INSERT
  8
1
  2
*X5
 10
0
 20
0
 30
0
  0
INSERT
  8
1
  2
*X6
 10
0
 20
0
 30
0
  0
LINE
  8
1
 62
3
 10
1116.43920785619
 20
529.8936169123367
 30
0
 11
1116.43920785619
 21
534.3435482414477
 31
0
  0
LINE
  8
1
 62
7
 10
1119.23920785619
 20
510.9936169123366
 30
0
 11
1120.13920785619
 21
510.9936169123366
 31
0
  0
LINE
  8
1
 62
7
 10
1120.13920785619
 20
510.9936169123366
 30
0
 11
1120.13920785619
 21
511.4936169123366
 31
0
  0
LINE
  8
1
 62
7
 10
1120.13920785619
 20
511.4936169123366
 30
0
 11
1119.23920785619
 21
511.4936169123366
 31
0
  0
LINE
  8
1
 62
7
 10
1119.23920785619
 20
512.7936169123366
 30
0
 11
1120.518998016344
 21
512.7936169123366
 31
0
  0
LINE
  8
1
 62
7
 10
1120.518998016344
 20
512.7936169123366
 30
0
 11
1120.518998016344
 21
511.6936169123367
 31
0
  0
LINE
  8
1
 62
7
 10
1120.518998016344
 20
511.6936169123367
 30
0
 11
1119.23920785619
 21
511.6936169123367
 31
0
  0
LINE
  8
1
 62
7
 10
1120.518998016344
 20
512.7936169123366
 30
0
 11
1121.18920785619
 21
512.5936169123365
 31
0
  0
LINE
  8
1
 62
7
 10
1121.18920785619
 20
511.8936169123367
 30
0
 11
1120.518998016344
 21
511.6936169123367
 31
0
  0
LINE
  8
1
 62
7
 10
1121.18920785619
 20
512.5936169123365
 30
0
 11
1121.18920785619
 21
511.8936169123367
 31
0
  0
LINE
  8
1
 62
2
 10
1062.231001568621
 20
515.4936169123366
 30
0
 11
1063.231001568621
 21
515.4936169123366
 31
0
  0
LINE
  8
1
 62
2
 10
1062.231001568621
 20
514.9936169123366
 30
0
 11
1062.231001568621
 21
515.4936169123366
 31
0
  0
LINE
  8
1
 62
2
 10
1063.231001568621
 20
514.9936169123366
 30
0
 11
1062.231001568621
 21
514.9936169123366
 31
0
  0
LINE
  8
1
 62
2
 10
1066.081001568622
 20
515.4936169123366
 30
0
 11
1066.581001568622
 21
515.4936169123366
 31
0
  0
LINE
  8
1
 62
2
 10
1066.081001568622
 20
514.9936169123366
 30
0
 11
1066.081001568622
 21
515.4936169123366
 31
0
  0
LINE
  8
1
 62
2
 10
1066.581001568622
 20
514.9936169123366
 30
0
 11
1066.081001568622
 21
514.9936169123366
 31
0
  0
LINE
  8
1
 62
2
 10
1066.581001568622
 20
515.4936169123366
 30
0
 11
1066.581001568622
 21
514.9936169123366
 31
0
  0
LINE
  8
1
 62
6
 10
1064.931001568622
 20
514.4436169123367
 30
0
 11
1064.931001568622
 21
514.0436169123368
 31
0
  0
LINE
  8
1
 62
6
 10
1064.931001568622
 20
514.4436169123367
 30
0
 11
1065.331001568622
 21
514.4436169123367
 31
0
  0
LINE
  8
1
 62
6
 10
1065.331001568622
 20
514.0436169123368
 30
0
 11
1064.931001568622
 21
514.0436169123368
 31
0
  0
LINE
  8
1
 62
2
 10
1145.853899130844
 20
540.3298563324636
 30
0
 11
1175.103376465758
 21
540.3298563324636
 31
0
  0
LINE
  8
1
 62
6
 10
1130.419709008859
 20
515.6706291604903
 30
0
 11
1129.844429458446
 21
514.9209102539153
 31
0
  0
LINE
  8
1
 62
6
 10
1129.570268109685
 20
520.3700669736411
 30
0
 11
1129.570268109685
 21
513.9700669736412
 31
0
  0
LINE
  8
1
 62
7
 10
1134.770268109685
 20
520.3700669736411
 30
0
 11
1128.370268109685
 21
520.3700669736411
 31
0
  0
LINE
  8
1
 62
7
 10
1134.770268109685
 20
513.9700669736412
 30
0
 11
1134.770268109685
 21
520.3700669736411
 31
0
  0
LINE
  8
1
 62
7
 10
1128.370268109685
 20
513.9700669736412
 30
0
 11
1134.770268109685
 21
513.9700669736412
 31
0
  0
LINE
  8
1
 62
7
 10
1128.370268109685
 20
520.3700669736411
 30
0
 11
1128.370268109685
 21
513.9700669736412
 31
0
  0
LINE
  8
1
 62
6
 10
1133.752933505243
 20
518.0741565826036
 30
0
 11
1134.189466584355
 21
518.2549745043957
 31
0
  0
LINE
  8
1
 62
6
 10
1133.444565376123
 20
518.6082658496739
 30
0
 11
1133.819424829411
 21
518.8959056248807
 31
0
  0
LINE
  8
1
 62
6
 10
1133.008466985719
 20
519.0443642400792
 30
0
 11
1133.296106760925
 21
519.4192236933666
 31
0
  0
LINE
  8
1
 62
6
 10
1132.474357718648
 20
519.352732369199
 30
0
 11
1132.65517564044
 21
519.7892654483107
 31
0
  0
LINE
  8
1
 62
6
 10
1131.878636238805
 20
519.5123554586367
 30
0
 11
1131.940309864629
 21
519.9808131556356
 31
0
  0
LINE
  8
1
 62
6
 10
1131.261899980565
 20
519.5123554586367
 30
0
 11
1131.200226354742
 21
519.9808131556358
 31
0
  0
LINE
  8
1
 62
6
 10
1130.666178500723
 20
519.352732369199
 30
0
 11
1130.48536057893
 21
519.7892654483107
 31
0
  0
LINE
  8
1
 62
6
 10
1130.419709008858
 20
518.6695047867916
 30
0
 11
1129.844429458446
 21
519.4192236933668
 31
0
  0
LINE
  8
1
 62
6
 10
1130.666178500722
 20
514.9874015780829
 30
0
 11
1130.48536057893
 21
514.5508684989718
 31
0
  0
LINE
  8
1
 62
6
 10
1131.261899980565
 20
514.8277784886457
 30
0
 11
1131.200226354741
 21
514.3593207916465
 31
0
  0
LINE
  8
1
 62
6
 10
1131.878636238805
 20
514.8277784886457
 30
0
 11
1131.940309864629
 21
514.3593207916465
 31
0
  0
LINE
  8
1
 62
6
 10
1133.008466985718
 20
515.2957697072029
 30
0
 11
1133.296106760925
 21
514.9209102539153
 31
0
  0
LINE
  8
1
 62
6
 10
1132.474357718648
 20
514.9874015780829
 30
0
 11
1132.65517564044
 21
514.5508684989718
 31
0
  0
LINE
  8
1
 62
6
 10
1133.752933505243
 20
516.2659773646788
 30
0
 11
1134.189466584355
 21
516.0851594428862
 31
0
  0
LINE
  8
1
 62
6
 10
1133.444565376123
 20
515.7318680976075
 30
0
 11
1133.819424829411
 21
515.4442283224014
 31
0
  0
LINE
  8
1
 62
6
 10
1133.912556594681
 20
517.4784351027611
 30
0
 11
1134.38101429168
 21
517.540108728585
 31
0
  0
LINE
  8
1
 62
6
 10
1133.912556594681
 20
516.8616988445212
 30
0
 11
1134.38101429168
 21
516.8000252186971
 31
0
  0
LINE
  8
1
 62
6
 10
1131.192268109685
 20
516.7920669736411
 30
0
 11
1129.718453864141
 21
516.7920669736411
 31
0
  0
LINE
  8
1
 62
6
 10
1131.192268109685
 20
517.548066973641
 30
0
 11
1129.718453864141
 21
517.548066973641
 31
0
  0
LINE
  8
1
 62
6
 10
1131.948268109685
 20
516.0360669736413
 30
0
 11
1133.422082355229
 21
516.7920669736411
 31
0
  0
LINE
  8
1
 62
6
 10
1131.948268109685
 20
517.548066973641
 30
0
 11
1133.422082355229
 21
517.548066973641
 31
0
  0
LINE
  8
1
 62
6
 10
1131.948268109685
 20
516.0360669736413
 30
0
 11
1131.948268109685
 21
515.3182527280974
 31
0
  0
LINE
  8
1
 62
6
 10
1131.948268109685
 20
519.0218812191854
 30
0
 11
1131.948268109685
 21
517.548066973641
 31
0
  0
LINE
  8
1
 62
6
 10
1131.192268109685
 20
517.548066973641
 30
0
 11
1131.192268109685
 21
519.0218812191854
 31
0
  0
LINE
  8
1
 62
6
 10
1131.192268109685
 20
515.3182527280974
 30
0
 11
1131.192268109685
 21
516.7920669736411
 31
0
  0
LINE
  8
1
 62
3
 10
1063.231001568621
 20
475.243575290757
 30
0
 11
1064.831001568622
 21
475.243575290757
 31
0
  0
LINE
  8
1
 62
2
  6
DASHED
 10
1064.831001568622
 20
580.243575290757
 30
0
 11
1078.231001568621
 21
580.243575290757
 31
0
  0
LINE
  8
1
 62
2
  6
DASHED
 10
1078.231001568621
 20
580.243575290757
 30
0
 11
1078.231001568621
 21
475.243575290757
 31
0
  0
LINE
  8
1
 62
2
  6
DASHED
 10
1078.231001568621
 20
475.243575290757
 30
0
 11
1064.831001568622
 21
475.243575290757
 31
0
  0
LINE
  8
1
 62
6
 10
1064.931001568622
 20
522.4436169123367
 30
0
 11
1064.931001568622
 21
522.0436169123368
 31
0
  0
LINE
  8
1
 62
6
 10
1064.931001568622
 20
522.4436169123367
 30
0
 11
1065.331001568622
 21
522.4436169123367
 31
0
  0
LINE
  8
1
 62
6
 10
1065.331001568622
 20
522.0436169123368
 30
0
 11
1064.931001568622
 21
522.0436169123368
 31
0
  0
LINE
  8
1
 62
2
 10
1062.231001568621
 20
521.4936169123366
 30
0
 11
1063.231001568621
 21
521.4936169123366
 31
0
  0
LINE
  8
1
 62
2
 10
1062.231001568621
 20
520.9936169123366
 30
0
 11
1062.231001568621
 21
521.4936169123366
 31
0
  0
LINE
  8
1
 62
2
 10
1063.231001568621
 20
520.9936169123366
 30
0
 11
1062.231001568621
 21
520.9936169123366
 31
0
  0
LINE
  8
1
 62
2
 10
1066.081001568622
 20
521.4936169123366
 30
0
 11
1066.581001568622
 21
521.4936169123366
 31
0
  0
LINE
  8
1
 62
2
 10
1066.081001568622
 20
520.9936169123366
 30
0
 11
1066.081001568622
 21
521.4936169123366
 31
0
  0
LINE
  8
1
 62
2
 10
1066.581001568622
 20
520.9936169123366
 30
0
 11
1066.081001568622
 21
520.9936169123366
 31
0
  0
LINE
  8
1
 62
2
 10
1066.581001568622
 20
521.4936169123366
 30
0
 11
1066.581001568622
 21
520.9936169123366
 31
0
  0
LINE
  8
1
 62
6
 10
1064.931001568622
 20
520.4436169123367
 30
0
 11
1064.931001568622
 21
520.0436169123368
 31
0
  0
LINE
  8
1
 62
6
 10
1064.931001568622
 20
520.4436169123367
 30
0
 11
1065.331001568622
 21
520.4436169123367
 31
0
  0
LINE
  8
1
 62
6
 10
1065.331001568622
 20
520.0436169123368
 30
0
 11
1064.931001568622
 21
520.0436169123368
 31
0
  0
LINE
  8
1
 62
2
 10
1062.231001568621
 20
519.4936169123366
 30
0
 11
1063.231001568621
 21
519.4936169123366
 31
0
  0
LINE
  8
1
 62
2
 10
1062.231001568621
 20
518.9936169123366
 30
0
 11
1062.231001568621
 21
519.4936169123366
 31
0
  0
LINE
  8
1
 62
2
 10
1063.231001568621
 20
518.9936169123366
 30
0
 11
1062.231001568621
 21
518.9936169123366
 31
0
  0
LINE
  8
1
 62
2
 10
1066.081001568622
 20
519.4936169123366
 30
0
 11
1066.581001568622
 21
519.4936169123366
 31
0
  0
LINE
  8
1
 62
2
 10
1066.081001568622
 20
518.9936169123366
 30
0
 11
1066.081001568622
 21
519.4936169123366
 31
0
  0
LINE
  8
1
 62
2
 10
1066.581001568622
 20
518.9936169123366
 30
0
 11
1066.081001568622
 21
518.9936169123366
 31
0
  0
LINE
  8
1
 62
2
 10
1066.581001568622
 20
519.4936169123366
 30
0
 11
1066.581001568622
 21
518.9936169123366
 31
0
  0
LINE
  8
1
 62
6
 10
1064.931001568622
 20
518.4436169123367
 30
0
 11
1064.931001568622
 21
518.0436169123368
 31
0
  0
LINE
  8
1
 62
6
 10
1064.931001568622
 20
518.4436169123367
 30
0
 11
1065.331001568622
 21
518.4436169123367
 31
0
  0
LINE
  8
1
 62
6
 10
1065.331001568622
 20
518.0436169123368
 30
0
 11
1064.931001568622
 21
518.0436169123368
 31
0
  0
LINE
  8
1
 62
2
 10
1062.231001568621
 20
517.4936169123366
 30
0
 11
1063.231001568621
 21
517.4936169123366
 31
0
  0
LINE
  8
1
 62
2
 10
1062.231001568621
 20
516.9936169123366
 30
0
 11
1062.231001568621
 21
517.4936169123366
 31
0
  0
LINE
  8
1
 62
2
 10
1063.231001568621
 20
516.9936169123366
 30
0
 11
1062.231001568621
 21
516.9936169123366
 31
0
  0
LINE
  8
1
 62
2
 10
1066.081001568622
 20
517.4936169123366
 30
0
 11
1066.581001568622
 21
517.4936169123366
 31
0
  0
LINE
  8
1
 62
2
 10
1066.081001568622
 20
516.9936169123366
 30
0
 11
1066.081001568622
 21
517.4936169123366
 31
0
  0
LINE
  8
1
 62
2
 10
1066.581001568622
 20
516.9936169123366
 30
0
 11
1066.081001568622
 21
516.9936169123366
 31
0
  0
LINE
  8
1
 62
2
 10
1066.581001568622
 20
517.4936169123366
 30
0
 11
1066.581001568622
 21
516.9936169123366
 31
0
  0
LINE
  8
1
 62
7
 10
1064.831001568622
 20
506.993616912338
 30
0
 11
1064.831001568622
 21
502.5936169123368
 31
0
  0
LINE
  8
1
 62
6
 10
1064.931001568622
 20
508.4436169123367
 30
0
 11
1064.931001568622
 21
508.0436169123369
 31
0
  0
LINE
  8
1
 62
6
 10
1065.331001568622
 20
508.0436169123369
 30
0
 11
1064.931001568622
 21
508.0436169123369
 31
0
  0
LINE
  8
1
 62
6
 10
1064.931001568622
 20
508.4436169123367
 30
0
 11
1065.331001568622
 21
508.4436169123367
 31
0
  0
LINE
  8
1
 62
6
 10
1064.931001568622
 20
510.4436169123367
 30
0
 11
1064.931001568622
 21
510.0436169123369
 31
0
  0
LINE
  8
1
 62
6
 10
1064.931001568622
 20
510.4436169123367
 30
0
 11
1065.331001568622
 21
510.4436169123367
 31
0
  0
LINE
  8
1
 62
6
 10
1065.331001568622
 20
510.0436169123369
 30
0
 11
1064.931001568622
 21
510.0436169123369
 31
0
  0
LINE
  8
1
 62
6
 10
1064.931001568622
 20
512.4436169123367
 30
0
 11
1064.931001568622
 21
512.0436169123368
 31
0
  0
LINE
  8
1
 62
6
 10
1064.931001568622
 20
512.4436169123367
 30
0
 11
1065.331001568622
 21
512.4436169123367
 31
0
  0
LINE
  8
1
 62
6
 10
1065.331001568622
 20
512.0436169123368
 30
0
 11
1064.931001568622
 21
512.0436169123368
 31
0
  0
LINE
  8
1
 62
6
 10
1064.931001568622
 20
516.4436169123367
 30
0
 11
1064.931001568622
 21
516.0436169123368
 31
0
  0
LINE
  8
1
 62
6
 10
1064.931001568622
 20
516.4436169123367
 30
0
 11
1065.331001568622
 21
516.4436169123367
 31
0
  0
LINE
  8
1
 62
6
 10
1065.331001568622
 20
516.0436169123368
 30
0
 11
1064.931001568622
 21
516.0436169123368
 31
0
  0
LINE
  8
1
 62
6
 10
1065.731001568622
 20
506.4436169123367
 30
0
 11
1065.331001568622
 21
506.4436169123367
 31
0
  0
LINE
  8
1
 62
6
 10
1065.731001568622
 20
506.0436169123369
 30
0
 11
1065.731001568622
 21
506.4436169123367
 31
0
  0
LINE
  8
1
 62
6
 10
1065.331001568622
 20
506.0436169123369
 30
0
 11
1065.731001568622
 21
506.0436169123369
 31
0
  0
LINE
  8
1
 62
6
 10
1065.731001568622
 20
526.0436169123368
 30
0
 11
1065.331001568622
 21
526.0436169123368
 31
0
  0
LINE
  8
1
 62
6
 10
1065.731001568622
 20
526.4436169123367
 30
0
 11
1065.731001568622
 21
526.0436169123368
 31
0
  0
LINE
  8
1
 62
6
 10
1065.331001568622
 20
526.4436169123367
 30
0
 11
1065.731001568622
 21
526.4436169123367
 31
0
  0
LINE
  8
1
 62
6
 10
1065.331001568622
 20
506.993616912338
 30
0
 11
1064.831001568622
 21
506.993616912338
 31
0
  0
LINE
  8
1
 62
6
 10
1069.681001568622
 20
505.9436169123379
 30
0
 11
1069.181001568622
 21
505.9436169123379
 31
0
  0
LINE
  8
1
 62
6
 10
1065.331001568622
 20
525.4936169123369
 30
0
 11
1064.831001568622
 21
525.4936169123369
 31
0
  0
LINE
  8
1
 62
6
 10
1069.681001568622
 20
526.5436169123368
 30
0
 11
1069.181001568622
 21
526.5436169123368
 31
0
  0
LINE
  8
1
 62
2
 10
1062.231001568621
 20
527.4936169123366
 30
0
 11
1063.231001568621
 21
527.4936169123366
 31
0
  0
LINE
  8
1
 62
2
 10
1062.231001568621
 20
526.9936169123366
 30
0
 11
1062.231001568621
 21
527.4936169123366
 31
0
  0
LINE
  8
1
 62
2
 10
1063.231001568621
 20
526.9936169123366
 30
0
 11
1062.231001568621
 21
526.9936169123366
 31
0
  0
LINE
  8
1
 62
2
 10
1062.231001568621
 20
525.4936169123366
 30
0
 11
1063.231001568621
 21
525.4936169123366
 31
0
  0
LINE
  8
1
 62
2
 10
1062.231001568621
 20
524.9936169123366
 30
0
 11
1062.231001568621
 21
525.4936169123366
 31
0
  0
LINE
  8
1
 62
2
 10
1063.231001568621
 20
524.9936169123366
 30
0
 11
1062.231001568621
 21
524.9936169123366
 31
0
  0
LINE
  8
1
 62
2
 10
1062.231001568621
 20
513.4936169123366
 30
0
 11
1063.231001568621
 21
513.4936169123366
 31
0
  0
LINE
  8
1
 62
2
 10
1062.231001568621
 20
512.9936169123366
 30
0
 11
1062.231001568621
 21
513.4936169123366
 31
0
  0
LINE
  8
1
 62
2
 10
1063.231001568621
 20
512.9936169123366
 30
0
 11
1062.231001568621
 21
512.9936169123366
 31
0
  0
LINE
  8
1
 62
2
 10
1062.231001568621
 20
511.4936169123366
 30
0
 11
1063.231001568621
 21
511.4936169123366
 31
0
  0
LINE
  8
1
 62
2
 10
1062.231001568621
 20
510.9936169123366
 30
0
 11
1062.231001568621
 21
511.4936169123366
 31
0
  0
LINE
  8
1
 62
2
 10
1063.231001568621
 20
510.9936169123366
 30
0
 11
1062.231001568621
 21
510.9936169123366
 31
0
  0
LINE
  8
1
 62
2
 10
1062.231001568621
 20
509.4936169123367
 30
0
 11
1063.231001568621
 21
509.4936169123367
 31
0
  0
LINE
  8
1
 62
2
 10
1062.231001568621
 20
508.9936169123367
 30
0
 11
1062.231001568621
 21
509.4936169123367
 31
0
  0
LINE
  8
1
 62
2
 10
1063.231001568621
 20
508.9936169123367
 30
0
 11
1062.231001568621
 21
508.9936169123367
 31
0
  0
LINE
  8
1
 62
2
 10
1062.231001568621
 20
507.4936169123367
 30
0
 11
1063.231001568621
 21
507.4936169123367
 31
0
  0
LINE
  8
1
 62
2
 10
1062.231001568621
 20
506.9936169123367
 30
0
 11
1062.231001568621
 21
507.4936169123367
 31
0
  0
LINE
  8
1
 62
2
 10
1063.231001568621
 20
506.9936169123367
 30
0
 11
1062.231001568621
 21
506.9936169123367
 31
0
  0
LINE
  8
1
 62
2
 10
1062.231001568621
 20
492.3135752907568
 30
0
 11
1063.231001568621
 21
492.3135752907568
 31
0
  0
LINE
  8
1
 62
2
 10
1062.231001568621
 20
491.1735752907571
 30
0
 11
1062.231001568621
 21
492.3135752907568
 31
0
  0
LINE
  8
1
 62
2
 10
1063.231001568621
 20
491.1735752907571
 30
0
 11
1062.231001568621
 21
491.1735752907571
 31
0
  0
LINE
  8
1
 62
2
 10
1062.231001568621
 20
505.4936169123367
 30
0
 11
1063.231001568621
 21
505.4936169123367
 31
0
  0
LINE
  8
1
 62
2
 10
1062.231001568621
 20
504.9936169123367
 30
0
 11
1062.231001568621
 21
505.4936169123367
 31
0
  0
LINE
  8
1
 62
2
 10
1063.231001568621
 20
504.9936169123367
 30
0
 11
1062.231001568621
 21
504.9936169123367
 31
0
  0
LINE
  8
1
 62
2
 10
1062.231001568621
 20
550.7935752907572
 30
0
 11
1063.231001568621
 21
550.7935752907572
 31
0
  0
LINE
  8
1
 62
2
 10
1062.231001568621
 20
551.6935752907573
 30
0
 11
1062.231001568621
 21
550.7935752907572
 31
0
  0
LINE
  8
1
 62
2
 10
1063.231001568621
 20
551.6935752907573
 30
0
 11
1062.231001568621
 21
551.6935752907573
 31
0
  0
LINE
  8
1
 62
3
 10
1064.831001568622
 20
580.243575290757
 30
0
 11
1063.231001568621
 21
580.243575290757
 31
0
  0
LINE
  8
1
 62
3
 10
1064.831001568622
 20
475.243575290757
 30
0
 11
1064.831001568622
 21
580.243575290757
 31
0
  0
LINE
  8
1
 62
3
 10
1063.231001568621
 20
475.243575290757
 30
0
 11
1064.831001568622
 21
475.243575290757
 31
0
  0
LINE
  8
1
 62
3
 10
1063.231001568621
 20
580.243575290757
 30
0
 11
1063.231001568621
 21
475.243575290757
 31
0
  0
LINE
  8
1
 62
2
 10
1066.081001568622
 20
527.4936169123366
 30
0
 11
1066.581001568622
 21
527.4936169123366
 31
0
  0
LINE
  8
1
 62
2
 10
1066.081001568622
 20
526.9936169123366
 30
0
 11
1066.081001568622
 21
527.4936169123366
 31
0
  0
LINE
  8
1
 62
2
 10
1066.581001568622
 20
526.9936169123366
 30
0
 11
1066.081001568622
 21
526.9936169123366
 31
0
  0
LINE
  8
1
 62
2
 10
1066.581001568622
 20
527.4936169123366
 30
0
 11
1066.581001568622
 21
526.9936169123366
 31
0
  0
LINE
  8
1
 62
2
 10
1066.081001568622
 20
525.4936169123366
 30
0
 11
1066.581001568622
 21
525.4936169123366
 31
0
  0
LINE
  8
1
 62
2
 10
1066.081001568622
 20
524.9936169123366
 30
0
 11
1066.081001568622
 21
525.4936169123366
 31
0
  0
LINE
  8
1
 62
2
 10
1066.581001568622
 20
524.9936169123366
 30
0
 11
1066.081001568622
 21
524.9936169123366
 31
0
  0
LINE
  8
1
 62
2
 10
1066.581001568622
 20
525.4936169123366
 30
0
 11
1066.581001568622
 21
524.9936169123366
 31
0
  0
LINE
  8
1
 62
2
 10
1066.081001568622
 20
513.4936169123366
 30
0
 11
1066.581001568622
 21
513.4936169123366
 31
0
  0
LINE
  8
1
 62
2
 10
1066.081001568622
 20
512.9936169123366
 30
0
 11
1066.081001568622
 21
513.4936169123366
 31
0
  0
LINE
  8
1
 62
2
 10
1066.581001568622
 20
512.9936169123366
 30
0
 11
1066.081001568622
 21
512.9936169123366
 31
0
  0
LINE
  8
1
 62
2
 10
1066.581001568622
 20
513.4936169123366
 30
0
 11
1066.581001568622
 21
512.9936169123366
 31
0
  0
LINE
  8
1
 62
2
 10
1066.081001568622
 20
511.4936169123366
 30
0
 11
1066.581001568622
 21
511.4936169123366
 31
0
  0
LINE
  8
1
 62
2
 10
1066.081001568622
 20
510.9936169123366
 30
0
 11
1066.081001568622
 21
511.4936169123366
 31
0
  0
LINE
  8
1
 62
2
 10
1066.581001568622
 20
510.9936169123366
 30
0
 11
1066.081001568622
 21
510.9936169123366
 31
0
  0
LINE
  8
1
 62
2
 10
1066.581001568622
 20
511.4936169123366
 30
0
 11
1066.581001568622
 21
510.9936169123366
 31
0
  0
LINE
  8
1
 62
2
 10
1066.081001568622
 20
509.4936169123367
 30
0
 11
1066.581001568622
 21
509.4936169123367
 31
0
  0
LINE
  8
1
 62
2
 10
1066.081001568622
 20
508.9936169123367
 30
0
 11
1066.081001568622
 21
509.4936169123367
 31
0
  0
LINE
  8
1
 62
2
 10
1066.581001568622
 20
508.9936169123367
 30
0
 11
1066.081001568622
 21
508.9936169123367
 31
0
  0
LINE
  8
1
 62
2
 10
1066.581001568622
 20
509.4936169123367
 30
0
 11
1066.581001568622
 21
508.9936169123367
 31
0
  0
LINE
  8
1
 62
2
 10
1066.081001568622
 20
507.4936169123367
 30
0
 11
1066.581001568622
 21
507.4936169123367
 31
0
  0
LINE
  8
1
 62
2
 10
1066.081001568622
 20
506.9936169123367
 30
0
 11
1066.081001568622
 21
507.4936169123367
 31
0
  0
LINE
  8
1
 62
2
 10
1066.581001568622
 20
506.9936169123367
 30
0
 11
1066.081001568622
 21
506.9936169123367
 31
0
  0
LINE
  8
1
 62
2
 10
1066.581001568622
 20
507.4936169123367
 30
0
 11
1066.581001568622
 21
506.9936169123367
 31
0
  0
LINE
  8
1
 62
2
 10
1066.081001568622
 20
505.4936169123367
 30
0
 11
1066.581001568622
 21
505.4936169123367
 31
0
  0
LINE
  8
1
 62
2
 10
1066.081001568622
 20
504.9936169123367
 30
0
 11
1066.081001568622
 21
505.4936169123367
 31
0
  0
LINE
  8
1
 62
2
 10
1066.581001568622
 20
504.9936169123367
 30
0
 11
1066.081001568622
 21
504.9936169123367
 31
0
  0
LINE
  8
1
 62
2
 10
1066.581001568622
 20
505.4936169123367
 30
0
 11
1066.581001568622
 21
504.9936169123367
 31
0
  0
LINE
  8
1
 62
6
 10
1069.181001568622
 20
503.0936169123368
 30
0
 11
1069.181001568622
 21
529.3936169123367
 31
0
  0
LINE
  8
1
 62
6
 10
1065.331001568622
 20
503.0936169123369
 30
0
 11
1069.181001568622
 21
503.0936169123368
 31
0
  0
LINE
  8
1
 62
6
 10
1065.331001568622
 20
529.3936169123367
 30
0
 11
1065.331001568622
 21
503.0936169123369
 31
0
  0
LINE
  8
1
 62
6
 10
1069.181001568622
 20
529.3936169123367
 30
0
 11
1065.331001568622
 21
529.3936169123367
 31
0
  0
LINE
  8
1
 62
7
 10
1069.681001568622
 20
529.8936169123367
 30
0
 11
1064.831001568622
 21
529.8936169123367
 31
0
  0
LINE
  8
1
 62
7
 10
1069.681001568622
 20
502.5936169123368
 30
0
 11
1069.681001568622
 21
529.8936169123367
 31
0
  0
LINE
  8
1
 62
7
 10
1064.831001568622
 20
502.5936169123368
 30
0
 11
1069.681001568622
 21
502.5936169123368
 31
0
  0
LINE
  8
1
 62
7
 10
1064.831001568622
 20
529.8936169123367
 30
0
 11
1064.831001568622
 21
525.4936169123369
 31
0
  0
LINE
  8
1
 62
7
 10
1066.431001568622
 20
488.4406050412511
 30
0
 11
1066.431001568622
 21
486.0435791471059
 31
0
  0
LINE
  8
1
 62
7
 10
1064.831001568622
 20
488.4406050412511
 30
0
 11
1066.431001568622
 21
488.4406050412511
 31
0
  0
LINE
  8
1
 62
7
 10
1066.431001568622
 20
486.0435791471059
 30
0
 11
1064.831001568622
 21
486.0435791471059
 31
0
  0
LINE
  8
1
 62
7
 10
1066.431001568622
 20
488.4406050412511
 30
0
 11
1066.431001568622
 21
486.0435791471059
 31
0
  0
LINE
  8
1
 62
7
 10
1069.531001568621
 20
488.4406050412511
 30
0
 11
1067.931001568622
 21
488.4406050412511
 31
0
  0
LINE
  8
1
 62
7
 10
1067.931001568622
 20
486.0435791471059
 30
0
 11
1069.531001568621
 21
486.0435791471059
 31
0
  0
LINE
  8
1
 62
7
 10
1067.931001568622
 20
488.4406050412511
 30
0
 11
1067.931001568622
 21
486.0435791471059
 31
0
  0
LINE
  8
1
 62
7
 10
1066.431001568622
 20
495.0435791471059
 30
0
 11
1064.831001568622
 21
495.0435791471059
 31
0
  0
LINE
  8
1
 62
7
 10
1066.431001568622
 20
497.4406050412513
 30
0
 11
1066.431001568622
 21
495.0435791471059
 31
0
  0
LINE
  8
1
 62
7
 10
1064.831001568622
 20
497.4406050412513
 30
0
 11
1066.431001568622
 21
497.4406050412513
 31
0
  0
LINE
  8
1
 62
7
 10
1067.931001568622
 20
495.0435791471059
 30
0
 11
1069.531001568621
 21
495.0435791471059
 31
0
  0
LINE
  8
1
 62
7
 10
1067.931001568622
 20
497.4406050412513
 30
0
 11
1067.931001568622
 21
495.0435791471059
 31
0
  0
LINE
  8
1
 62
7
 10
1069.531001568621
 20
497.4406050412513
 30
0
 11
1067.931001568622
 21
497.4406050412513
 31
0
  0
LINE
  8
1
 62
7
 10
1070.331001568621
 20
490.6435752907571
 30
0
 11
1070.331001568621
 21
492.843575290757
 31
0
  0
LINE
  8
1
 62
7
 10
1071.231001568621
 20
493.743575290757
 30
0
 11
1074.131001568621
 21
493.743575290757
 31
0
  0
LINE
  8
1
 62
7
 10
1070.331001568621
 20
490.6435752907571
 30
0
 11
1071.231001568621
 21
489.743575290757
 31
0
  0
LINE
  8
1
 62
7
 10
1071.231001568621
 20
493.743575290757
 30
0
 11
1070.331001568621
 21
492.843575290757
 31
0
  0
LINE
  8
1
 62
2
 10
1067.381001568621
 20
492.1935752907571
 30
0
 11
1068.281001568621
 21
492.1935752907571
 31
0
  0
LINE
  8
1
 62
2
 10
1067.381001568621
 20
491.293575290757
 30
0
 11
1067.381001568621
 21
492.1935752907571
 31
0
  0
LINE
  8
1
 62
2
 10
1068.281001568621
 20
491.293575290757
 30
0
 11
1067.381001568621
 21
491.293575290757
 31
0
  0
LINE
  8
1
 62
2
 10
1068.281001568621
 20
492.1935752907571
 30
0
 11
1068.281001568621
 21
491.293575290757
 31
0
  0
LINE
  8
1
 62
2
 10
1071.781001568621
 20
492.1935752907571
 30
0
 11
1072.681001568622
 21
492.1935752907571
 31
0
  0
LINE
  8
1
 62
2
 10
1071.781001568621
 20
491.293575290757
 30
0
 11
1071.781001568621
 21
492.1935752907571
 31
0
  0
LINE
  8
1
 62
2
 10
1072.681001568622
 20
491.293575290757
 30
0
 11
1071.781001568621
 21
491.293575290757
 31
0
  0
LINE
  8
1
 62
2
 10
1072.681001568622
 20
492.1935752907571
 30
0
 11
1072.681001568622
 21
491.293575290757
 31
0
  0
LINE
  8
1
 62
7
 10
1065.931001568622
 20
493.743575290757
 30
0
 11
1069.731001568621
 21
493.743575290757
 31
0
  0
LINE
  8
1
 62
7
 10
1065.931001568622
 20
489.743575290757
 30
0
 11
1065.931001568622
 21
493.743575290757
 31
0
  0
LINE
  8
1
 62
7
 10
1069.731001568621
 20
489.743575290757
 30
0
 11
1065.931001568622
 21
489.743575290757
 31
0
  0
LINE
  8
1
 62
7
 10
1069.731001568621
 20
493.743575290757
 30
0
 11
1069.731001568621
 21
489.743575290757
 31
0
  0
LINE
  8
1
 62
7
 10
1074.131001568621
 20
489.743575290757
 30
0
 11
1071.231001568621
 21
489.743575290757
 31
0
  0
LINE
  8
1
 62
7
 10
1074.131001568621
 20
493.743575290757
 30
0
 11
1074.131001568621
 21
489.743575290757
 31
0
  0
LINE
  8
1
 62
7
 10
1076.231001568621
 20
490.043575290757
 30
0
 11
1074.831001568622
 21
490.043575290757
 31
0
  0
LINE
  8
1
 62
7
 10
1076.231001568621
 20
493.4435752907571
 30
0
 11
1076.231001568621
 21
490.043575290757
 31
0
  0
LINE
  8
1
 62
7
 10
1074.831001568622
 20
493.4435752907571
 30
0
 11
1076.231001568621
 21
493.4435752907571
 31
0
  0
LINE
  8
1
 62
7
 10
1074.831001568622
 20
489.043575290757
 30
0
 11
1074.831001568622
 21
494.4435752907571
 31
0
  0
LINE
  8
1
 62
7
 10
1065.231001568621
 20
494.4435752907571
 30
0
 11
1065.231001568621
 21
489.043575290757
 31
0
  0
LINE
  8
1
 62
7
 10
1064.831001568622
 20
499.4435752907571
 30
0
 11
1064.831001568622
 21
494.4435752907571
 31
0
  0
LINE
  8
1
 62
7
 10
1074.831001568622
 20
494.4435752907571
 30
0
 11
1064.831001568622
 21
494.4435752907571
 31
0
  0
LINE
  8
1
 62
7
 10
1069.531001568621
 20
499.4435752907571
 30
0
 11
1064.831001568622
 21
499.4435752907571
 31
0
  0
LINE
  8
1
 62
7
 10
1069.531001568621
 20
499.4435752907571
 30
0
 11
1069.531001568621
 21
494.4435752907571
 31
0
  0
LINE
  8
1
 62
1
 10
1117.72590893157
 20
478.743575290757
 30
0
 11
1122.190214471804
 21
478.743575290757
 31
0
  0
LINE
  8
1
 62
1
 10
1119.93920785619
 20
476.343575290757
 30
0
 11
1119.93920785619
 21
481.1435752907571
 31
0
  0
LINE
  8
1
 62
1
 10
1175.72590893157
 20
478.743575290757
 30
0
 11
1180.190214471804
 21
478.743575290757
 31
0
  0
LINE
  8
1
 62
1
 10
1177.93920785619
 20
476.343575290757
 30
0
 11
1177.93920785619
 21
481.1435752907571
 31
0
  0
LINE
  8
1
 62
1
 10
1117.72590893157
 20
576.743575290757
 30
0
 11
1122.190214471804
 21
576.743575290757
 31
0
  0
LINE
  8
1
 62
1
 10
1119.93920785619
 20
574.3435752907569
 30
0
 11
1119.93920785619
 21
579.1435752907569
 31
0
  0
LINE
  8
1
 62
1
 10
1195.72590893157
 20
576.743575290757
 30
0
 11
1200.190214471804
 21
576.743575290757
 31
0
  0
LINE
  8
1
 62
1
 10
1197.93920785619
 20
574.3435752907569
 30
0
 11
1197.93920785619
 21
579.1435752907569
 31
0
  0
LINE
  8
1
 62
4
 10
1130.839207856191
 20
490.682918642202
 30
0
 11
1130.839207856191
 21
492.8042319393119
 31
0
  0
LINE
  8
1
 62
4
 10
1131.899864504746
 20
491.743575290757
 30
0
 11
1129.778551207636
 21
491.743575290757
 31
0
  0
LINE
  8
1
 62
4
 10
1126.399864504746
 20
491.743575290757
 30
0
 11
1124.278551207636
 21
491.743575290757
 31
0
  0
LINE
  8
1
 62
4
 10
1125.339207856191
 20
490.682918642202
 30
0
 11
1125.339207856191
 21
492.8042319393119
 31
0
  0
LINE
  8
1
 62
7
 10
1130.839207856191
 20
492.3135752907568
 30
0
 11
1124.239207856191
 21
492.3135752907568
 31
0
  0
LINE
  8
1
 62
7
 10
1124.239207856191
 20
491.1735752907571
 30
0
 11
1130.839207856191
 21
491.1735752907571
 31
0
  0
LINE
  8
1
 62
7
 10
1118.039207856191
 20
499.4435752907569
 30
0
 11
1118.039207856191
 21
494.4435752907569
 31
0
  0
LINE
  8
1
 62
7
 10
1124.239207856191
 20
499.4435752907569
 30
0
 11
1118.039207856191
 21
499.4435752907569
 31
0
  0
LINE
  8
1
 62
7
 10
1118.039207856191
 20
484.043575290757
 30
0
 11
1124.239207856191
 21
484.043575290757
 31
0
  0
LINE
  8
1
 62
7
 10
1118.039207856191
 20
489.043575290757
 30
0
 11
1118.039207856191
 21
484.043575290757
 31
0
  0
LINE
  8
1
 62
7
 10
1111.439207856191
 20
494.4435752907569
 30
0
 11
1111.439207856191
 21
489.043575290757
 31
0
  0
LINE
  8
1
 62
7
 10
1124.239207856191
 20
494.4435752907569
 30
0
 11
1111.439207856191
 21
494.4435752907569
 31
0
  0
LINE
  8
1
 62
7
 10
1124.239207856191
 20
484.043575290757
 30
0
 11
1124.239207856191
 21
499.4435752907569
 31
0
  0
LINE
  8
1
 62
7
 10
1111.439207856191
 20
489.043575290757
 30
0
 11
1124.239207856191
 21
489.043575290757
 31
0
  0
LINE
  8
1
 62
3
 10
1200.43920785619
 20
475.243575290757
 30
0
 11
1193.93920785619
 21
475.243575290757
 31
0
  0
LINE
  8
1
 62
3
 10
1116.43920785619
 20
476.243575290757
 30
0
 11
1116.43920785619
 21
482.743575290757
 31
0
  0
LINE
  8
1
 62
3
 10
1201.43920785619
 20
579.243575290757
 30
0
 11
1201.43920785619
 21
482.743575290757
 31
0
  0
LINE
  8
1
 62
3
 10
1117.43920785619
 20
580.243575290757
 30
0
 11
1200.43920785619
 21
580.243575290757
 31
0
  0
LINE
  8
1
 62
1
 10
1118.22590893157
 20
538.3435482414477
 30
0
 11
1122.690214471804
 21
538.3435482414477
 31
0
  0
LINE
  8
1
 62
1
 10
1120.43920785619
 20
535.9435482414476
 30
0
 11
1120.43920785619
 21
540.7435482414476
 31
0
  0
LINE
  8
1
 62
7
 10
1111.434945473933
 20
493.4435752907571
 30
0
 11
1113.868881022424
 21
493.4435752907571
 31
0
  0
LINE
  8
1
 62
7
 10
1114.434945473933
 20
493.4435752907571
 30
0
 11
1114.434945473933
 21
490.043575290757
 31
0
  0
LINE
  8
1
 62
7
 10
1114.434945473933
 20
490.043575290757
 30
0
 11
1113.868881022424
 21
490.043575290757
 31
0
  0
LINE
  8
1
 62
7
 10
1113.868881022424
 20
493.4435752907571
 30
0
 11
1113.868881022424
 21
490.043575290757
 31
0
  0
LINE
  8
1
 62
7
 10
1113.868881022424
 20
493.4435752907571
 30
0
 11
1114.434945473933
 21
493.4435752907571
 31
0
  0
LINE
  8
1
 62
7
 10
1113.868881022424
 20
490.043575290757
 30
0
 11
1111.434945473933
 21
490.043575290757
 31
0
  0
LINE
  8
1
 62
7
 10
1121.142250095799
 20
486.0435791471059
 30
0
 11
1118.039207856191
 21
486.0435791471059
 31
0
  0
LINE
  8
1
 62
7
 10
1121.223586623854
 20
488.4406050412511
 30
0
 11
1118.039207856191
 21
488.4406050412511
 31
0
  0
LINE
  8
1
 62
7
 10
1121.223586623854
 20
497.4406050412513
 30
0
 11
1118.039207856191
 21
497.4406050412513
 31
0
  0
LINE
  8
1
 62
7
 10
1121.142250095799
 20
495.0435791471059
 30
0
 11
1118.039207856191
 21
495.0435791471059
 31
0
  0
LINE
  8
1
 62
3
 10
1116.43920785619
 20
494.4435752907569
 30
0
 11
1116.43920785619
 21
502.5936169123368
 31
0
  0
LINE
  8
1
 62
3
 10
1116.43920785619
 20
566.543575290757
 30
0
 11
1116.43920785619
 21
579.243575290757
 31
0
  0
LINE
  8
1
 62
7
 10
1064.831001568622
 20
489.043575290757
 30
0
 11
1064.831001568622
 21
484.043575290757
 31
0
  0
LINE
  8
1
 62
7
 10
1064.831001568622
 20
489.043575290757
 30
0
 11
1074.831001568622
 21
489.043575290757
 31
0
  0
LINE
  8
1
 62
7
 10
1064.831001568622
 20
484.043575290757
 30
0
 11
1069.531001568621
 21
484.043575290757
 31
0
  0
LINE
  8
1
 62
7
 10
1069.531001568621
 20
489.043575290757
 30
0
 11
1069.531001568621
 21
484.043575290757
 31
0
  0
LINE
  8
1
 62
3
 10
1116.43920785619
 20
579.243575290757
 30
0
 11
1117.43920785619
 21
580.243575290757
 31
0
  0
LINE
  8
1
 62
3
 10
1201.43920785619
 20
476.243575290757
 30
0
 11
1200.43920785619
 21
475.243575290757
 31
0
  0
LINE
  8
1
 62
3
 10
1116.43920785619
 20
476.243575290757
 30
0
 11
1117.43920785619
 21
475.243575290757
 31
0
  0
LINE
  8
1
 62
3
 10
1200.43920785619
 20
580.243575290757
 30
0
 11
1201.43920785619
 21
579.243575290757
 31
0
  0
LINE
  8
1
 62
4
 10
1126.399864504746
 20
551.2435752907572
 30
0
 11
1124.278551207636
 21
551.2435752907572
 31
0
  0
LINE
  8
1
 62
7
 10
1130.839207856191
 20
551.8135752907569
 30
0
 11
1124.239207856191
 21
551.8135752907569
 31
0
  0
LINE
  8
1
 62
7
 10
1124.239207856191
 20
550.6735752907573
 30
0
 11
1130.839207856191
 21
550.6735752907573
 31
0
  0
LINE
  8
1
 62
7
 10
1118.039207856191
 20
571.543575290757
 30
0
 11
1118.039207856191
 21
566.543575290757
 31
0
  0
LINE
  8
1
 62
7
 10
1124.239207856191
 20
571.543575290757
 30
0
 11
1118.039207856191
 21
571.543575290757
 31
0
  0
LINE
  8
1
 62
7
 10
1118.039207856191
 20
543.5435752907572
 30
0
 11
1124.239207856191
 21
543.5435752907572
 31
0
  0
LINE
  8
1
 62
7
 10
1118.039207856191
 20
548.5435752907572
 30
0
 11
1118.039207856191
 21
543.5435752907572
 31
0
  0
LINE
  8
1
 62
7
 10
1111.439207856191
 20
566.543575290757
 30
0
 11
1111.439207856191
 21
548.5435752907572
 31
0
  0
LINE
  8
1
 62
7
 10
1124.239207856191
 20
566.543575290757
 30
0
 11
1111.439207856191
 21
566.543575290757
 31
0
  0
LINE
  8
1
 62
7
 10
1124.239207856191
 20
543.5435752907572
 30
0
 11
1124.239207856191
 21
571.543575290757
 31
0
  0
LINE
  8
1
 62
7
 10
1111.439207856191
 20
548.5435752907572
 30
0
 11
1124.239207856191
 21
548.5435752907572
 31
0
  0
LINE
  8
1
 62
7
 10
1111.434945473933
 20
559.243575290757
 30
0
 11
1113.868881022424
 21
559.243575290757
 31
0
  0
LINE
  8
1
 62
7
 10
1114.434945473933
 20
559.243575290757
 30
0
 11
1114.434945473933
 21
555.8435752907571
 31
0
  0
LINE
  8
1
 62
7
 10
1114.434945473933
 20
555.8435752907571
 30
0
 11
1113.868881022424
 21
555.8435752907571
 31
0
  0
LINE
  8
1
 62
7
 10
1113.868881022424
 20
559.243575290757
 30
0
 11
1113.868881022424
 21
555.8435752907571
 31
0
  0
LINE
  8
1
 62
7
 10
1113.868881022424
 20
559.243575290757
 30
0
 11
1114.434945473933
 21
559.243575290757
 31
0
  0
LINE
  8
1
 62
7
 10
1113.868881022424
 20
555.8435752907571
 30
0
 11
1111.434945473933
 21
555.8435752907571
 31
0
  0
LINE
  8
1
 62
7
 10
1121.142250095799
 20
545.5435791471059
 30
0
 11
1118.039207856191
 21
545.5435791471059
 31
0
  0
LINE
  8
1
 62
7
 10
1121.223586623854
 20
547.9406050412513
 30
0
 11
1118.039207856191
 21
547.9406050412513
 31
0
  0
LINE
  8
1
 62
7
 10
1121.223586623854
 20
569.5406050412512
 30
0
 11
1118.039207856191
 21
569.5406050412512
 31
0
  0
LINE
  8
1
 62
7
 10
1121.142250095799
 20
567.1435791471058
 30
0
 11
1118.039207856191
 21
567.1435791471058
 31
0
  0
LINE
  8
1
 62
4
 10
1126.399864504746
 20
555.4435752907573
 30
0
 11
1124.278551207636
 21
555.4435752907573
 31
0
  0
LINE
  8
1
 62
7
 10
1130.839207856191
 20
556.013575290757
 30
0
 11
1124.239207856191
 21
556.013575290757
 31
0
  0
LINE
  8
1
 62
7
 10
1124.239207856191
 20
554.8735752907573
 30
0
 11
1130.839207856191
 21
554.8735752907573
 31
0
  0
LINE
  8
1
 62
4
 10
1126.399864504746
 20
559.6435752907571
 30
0
 11
1124.278551207636
 21
559.6435752907571
 31
0
  0
LINE
  8
1
 62
7
 10
1130.839207856191
 20
560.213575290757
 30
0
 11
1124.239207856191
 21
560.213575290757
 31
0
  0
LINE
  8
1
 62
7
 10
1124.239207856191
 20
559.0735752907572
 30
0
 11
1130.839207856191
 21
559.0735752907572
 31
0
  0
LINE
  8
1
 62
4
 10
1126.399864504746
 20
563.8435752907571
 30
0
 11
1124.278551207636
 21
563.8435752907571
 31
0
  0
LINE
  8
1
 62
7
 10
1130.839207856191
 20
564.4135752907571
 30
0
 11
1124.239207856191
 21
564.4135752907571
 31
0
  0
LINE
  8
1
 62
7
 10
1124.239207856191
 20
563.2735752907572
 30
0
 11
1130.839207856191
 21
563.2735752907572
 31
0
  0
LINE
  8
1
 62
7
 10
1119.23920785619
 20
529.8936169123367
 30
0
 11
1113.23920785619
 21
529.8936169123367
 31
0
  0
LINE
  8
1
 62
7
 10
1113.23920785619
 20
529.8936169123367
 30
0
 11
1113.23920785619
 21
502.5936169123368
 31
0
  0
LINE
  8
1
 62
7
 10
1113.23920785619
 20
502.5936169123368
 30
0
 11
1119.23920785619
 21
502.5936169123368
 31
0
  0
LINE
  8
1
 62
7
 10
1119.23920785619
 20
502.5936169123368
 30
0
 11
1119.23920785619
 21
529.8936169123367
 31
0
  0
LINE
  8
1
 62
7
 10
1119.23920785619
 20
504.9936169123367
 30
0
 11
1120.13920785619
 21
504.9936169123367
 31
0
  0
LINE
  8
1
 62
7
 10
1120.13920785619
 20
504.9936169123367
 30
0
 11
1120.13920785619
 21
505.4936169123367
 31
0
  0
LINE
  8
1
 62
7
 10
1120.13920785619
 20
505.4936169123367
 30
0
 11
1119.23920785619
 21
505.4936169123367
 31
0
  0
LINE
  8
1
 62
7
 10
1119.23920785619
 20
506.9936169123367
 30
0
 11
1120.13920785619
 21
506.9936169123367
 31
0
  0
LINE
  8
1
 62
7
 10
1120.13920785619
 20
506.9936169123367
 30
0
 11
1120.13920785619
 21
507.4936169123367
 31
0
  0
LINE
  8
1
 62
7
 10
1120.13920785619
 20
507.4936169123367
 30
0
 11
1119.23920785619
 21
507.4936169123367
 31
0
  0
LINE
  8
1
 62
7
 10
1119.23920785619
 20
508.9936169123367
 30
0
 11
1120.13920785619
 21
508.9936169123367
 31
0
  0
LINE
  8
1
 62
7
 10
1120.13920785619
 20
508.9936169123367
 30
0
 11
1120.13920785619
 21
509.4936169123367
 31
0
  0
LINE
  8
1
 62
7
 10
1120.13920785619
 20
509.4936169123367
 30
0
 11
1119.23920785619
 21
509.4936169123367
 31
0
  0
LINE
  8
1
 62
7
 10
1119.23920785619
 20
512.9936169123366
 30
0
 11
1120.13920785619
 21
512.9936169123366
 31
0
  0
LINE
  8
1
 62
7
 10
1120.13920785619
 20
512.9936169123366
 30
0
 11
1120.13920785619
 21
513.4936169123366
 31
0
  0
LINE
  8
1
 62
7
 10
1120.13920785619
 20
513.4936169123366
 30
0
 11
1119.23920785619
 21
513.4936169123366
 31
0
  0
LINE
  8
1
 62
7
 10
1119.23920785619
 20
514.9936169123366
 30
0
 11
1120.13920785619
 21
514.9936169123366
 31
0
  0
LINE
  8
1
 62
7
 10
1120.13920785619
 20
514.9936169123366
 30
0
 11
1120.13920785619
 21
515.4936169123366
 31
0
  0
LINE
  8
1
 62
7
 10
1120.13920785619
 20
515.4936169123366
 30
0
 11
1119.23920785619
 21
515.4936169123366
 31
0
  0
LINE
  8
1
 62
7
 10
1119.23920785619
 20
516.9936169123366
 30
0
 11
1120.13920785619
 21
516.9936169123366
 31
0
  0
LINE
  8
1
 62
7
 10
1120.13920785619
 20
516.9936169123366
 30
0
 11
1120.13920785619
 21
517.4936169123366
 31
0
  0
LINE
  8
1
 62
7
 10
1120.13920785619
 20
517.4936169123366
 30
0
 11
1119.23920785619
 21
517.4936169123366
 31
0
  0
LINE
  8
1
 62
7
 10
1119.23920785619
 20
518.9936169123366
 30
0
 11
1120.13920785619
 21
518.9936169123366
 31
0
  0
LINE
  8
1
 62
7
 10
1120.13920785619
 20
518.9936169123366
 30
0
 11
1120.13920785619
 21
519.4936169123366
 31
0
  0
LINE
  8
1
 62
7
 10
1120.13920785619
 20
519.4936169123366
 30
0
 11
1119.23920785619
 21
519.4936169123366
 31
0
  0
LINE
  8
1
 62
7
 10
1119.23920785619
 20
522.9936169123366
 30
0
 11
1120.13920785619
 21
522.9936169123366
 31
0
  0
LINE
  8
1
 62
7
 10
1120.13920785619
 20
522.9936169123366
 30
0
 11
1120.13920785619
 21
523.4936169123366
 31
0
  0
LINE
  8
1
 62
7
 10
1120.13920785619
 20
523.4936169123366
 30
0
 11
1119.23920785619
 21
523.4936169123366
 31
0
  0
LINE
  8
1
 62
7
 10
1119.23920785619
 20
524.9936169123366
 30
0
 11
1120.13920785619
 21
524.9936169123366
 31
0
  0
LINE
  8
1
 62
7
 10
1120.13920785619
 20
524.9936169123366
 30
0
 11
1120.13920785619
 21
525.4936169123366
 31
0
  0
LINE
  8
1
 62
7
 10
1120.13920785619
 20
525.4936169123366
 30
0
 11
1119.23920785619
 21
525.4936169123366
 31
0
  0
LINE
  8
1
 62
7
 10
1119.23920785619
 20
526.9936169123366
 30
0
 11
1120.13920785619
 21
526.9936169123366
 31
0
  0
LINE
  8
1
 62
7
 10
1120.13920785619
 20
526.9936169123366
 30
0
 11
1120.13920785619
 21
527.4936169123366
 31
0
  0
LINE
  8
1
 62
7
 10
1120.13920785619
 20
527.4936169123366
 30
0
 11
1119.23920785619
 21
527.4936169123366
 31
0
  0
LINE
  8
1
 62
7
 10
1119.23920785619
 20
506.7936169123366
 30
0
 11
1120.518998016344
 21
506.7936169123366
 31
0
  0
LINE
  8
1
 62
7
 10
1120.518998016344
 20
506.7936169123366
 30
0
 11
1120.518998016344
 21
505.6936169123367
 31
0
  0
LINE
  8
1
 62
7
 10
1120.518998016344
 20
505.6936169123367
 30
0
 11
1119.23920785619
 21
505.6936169123367
 31
0
  0
LINE
  8
1
 62
7
 10
1120.518998016344
 20
506.7936169123366
 30
0
 11
1121.18920785619
 21
506.5936169123366
 31
0
  0
LINE
  8
1
 62
7
 10
1121.18920785619
 20
505.8936169123368
 30
0
 11
1120.518998016344
 21
505.6936169123367
 31
0
  0
LINE
  8
1
 62
7
 10
1121.18920785619
 20
506.5936169123366
 30
0
 11
1121.18920785619
 21
505.8936169123368
 31
0
  0
LINE
  8
1
 62
7
 10
1119.23920785619
 20
508.7936169123366
 30
0
 11
1120.518998016344
 21
508.7936169123366
 31
0
  0
LINE
  8
1
 62
7
 10
1120.518998016344
 20
508.7936169123366
 30
0
 11
1120.518998016344
 21
507.6936169123367
 31
0
  0
LINE
  8
1
 62
7
 10
1120.518998016344
 20
507.6936169123367
 30
0
 11
1119.23920785619
 21
507.6936169123367
 31
0
  0
LINE
  8
1
 62
7
 10
1120.518998016344
 20
508.7936169123366
 30
0
 11
1121.18920785619
 21
508.5936169123366
 31
0
  0
LINE
  8
1
 62
7
 10
1121.18920785619
 20
507.8936169123368
 30
0
 11
1120.518998016344
 21
507.6936169123367
 31
0
  0
LINE
  8
1
 62
7
 10
1121.18920785619
 20
508.5936169123366
 30
0
 11
1121.18920785619
 21
507.8936169123368
 31
0
  0
LINE
  8
1
 62
7
 10
1119.23920785619
 20
510.7936169123366
 30
0
 11
1120.518998016344
 21
510.7936169123366
 31
0
  0
LINE
  8
1
 62
7
 10
1120.518998016344
 20
510.7936169123366
 30
0
 11
1120.518998016344
 21
509.6936169123367
 31
0
  0
LINE
  8
1
 62
7
 10
1120.518998016344
 20
509.6936169123367
 30
0
 11
1119.23920785619
 21
509.6936169123367
 31
0
  0
LINE
  8
1
 62
7
 10
1120.518998016344
 20
510.7936169123366
 30
0
 11
1121.18920785619
 21
510.5936169123366
 31
0
  0
LINE
  8
1
 62
7
 10
1121.18920785619
 20
509.8936169123368
 30
0
 11
1120.518998016344
 21
509.6936169123367
 31
0
  0
LINE
  8
1
 62
7
 10
1121.18920785619
 20
510.5936169123366
 30
0
 11
1121.18920785619
 21
509.8936169123368
 31
0
  0
LINE
  8
1
 62
7
 10
1119.23920785619
 20
514.7936169123366
 30
0
 11
1120.518998016344
 21
514.7936169123366
 31
0
  0
LINE
  8
1
 62
7
 10
1120.518998016344
 20
514.7936169123366
 30
0
 11
1120.518998016344
 21
513.6936169123367
 31
0
  0
LINE
  8
1
 62
7
 10
1120.518998016344
 20
513.6936169123367
 30
0
 11
1119.23920785619
 21
513.6936169123367
 31
0
  0
LINE
  8
1
 62
7
 10
1120.518998016344
 20
514.7936169123366
 30
0
 11
1121.18920785619
 21
514.5936169123365
 31
0
  0
LINE
  8
1
 62
7
 10
1121.18920785619
 20
513.8936169123367
 30
0
 11
1120.518998016344
 21
513.6936169123367
 31
0
  0
LINE
  8
1
 62
7
 10
1121.18920785619
 20
514.5936169123365
 30
0
 11
1121.18920785619
 21
513.8936169123367
 31
0
  0
LINE
  8
1
 62
7
 10
1119.23920785619
 20
516.7936169123366
 30
0
 11
1120.518998016344
 21
516.7936169123366
 31
0
  0
LINE
  8
1
 62
7
 10
1120.518998016344
 20
516.7936169123366
 30
0
 11
1120.518998016344
 21
515.6936169123367
 31
0
  0
LINE
  8
1
 62
7
 10
1120.518998016344
 20
515.6936169123367
 30
0
 11
1119.23920785619
 21
515.6936169123367
 31
0
  0
LINE
  8
1
 62
7
 10
1120.518998016344
 20
516.7936169123366
 30
0
 11
1121.18920785619
 21
516.5936169123365
 31
0
  0
LINE
  8
1
 62
7
 10
1121.18920785619
 20
515.8936169123367
 30
0
 11
1120.518998016344
 21
515.6936169123367
 31
0
  0
LINE
  8
1
 62
7
 10
1121.18920785619
 20
516.5936169123365
 30
0
 11
1121.18920785619
 21
515.8936169123367
 31
0
  0
LINE
  8
1
 62
7
 10
1119.23920785619
 20
518.7936169123366
 30
0
 11
1120.518998016344
 21
518.7936169123366
 31
0
  0
LINE
  8
1
 62
7
 10
1120.518998016344
 20
518.7936169123366
 30
0
 11
1120.518998016344
 21
517.6936169123367
 31
0
  0
LINE
  8
1
 62
7
 10
1120.518998016344
 20
517.6936169123367
 30
0
 11
1119.23920785619
 21
517.6936169123367
 31
0
  0
LINE
  8
1
 62
7
 10
1120.518998016344
 20
518.7936169123366
 30
0
 11
1121.18920785619
 21
518.5936169123365
 31
0
  0
LINE
  8
1
 62
7
 10
1121.18920785619
 20
517.8936169123367
 30
0
 11
1120.518998016344
 21
517.6936169123367
 31
0
  0
LINE
  8
1
 62
7
 10
1121.18920785619
 20
518.5936169123365
 30
0
 11
1121.18920785619
 21
517.8936169123367
 31
0
  0
LINE
  8
1
 62
7
 10
1119.23920785619
 20
520.7936169123366
 30
0
 11
1120.518998016344
 21
520.7936169123366
 31
0
  0
LINE
  8
1
 62
7
 10
1120.518998016344
 20
520.7936169123366
 30
0
 11
1120.518998016344
 21
519.6936169123367
 31
0
  0
LINE
  8
1
 62
7
 10
1120.518998016344
 20
519.6936169123367
 30
0
 11
1119.23920785619
 21
519.6936169123367
 31
0
  0
LINE
  8
1
 62
7
 10
1120.518998016344
 20
520.7936169123366
 30
0
 11
1121.18920785619
 21
520.5936169123365
 31
0
  0
LINE
  8
1
 62
7
 10
1121.18920785619
 20
519.8936169123367
 30
0
 11
1120.518998016344
 21
519.6936169123367
 31
0
  0
LINE
  8
1
 62
7
 10
1121.18920785619
 20
520.5936169123365
 30
0
 11
1121.18920785619
 21
519.8936169123367
 31
0
  0
LINE
  8
1
 62
7
 10
1119.23920785619
 20
524.7936169123366
 30
0
 11
1120.518998016344
 21
524.7936169123366
 31
0
  0
LINE
  8
1
 62
7
 10
1120.518998016344
 20
524.7936169123366
 30
0
 11
1120.518998016344
 21
523.6936169123367
 31
0
  0
LINE
  8
1
 62
7
 10
1120.518998016344
 20
523.6936169123367
 30
0
 11
1119.23920785619
 21
523.6936169123367
 31
0
  0
LINE
  8
1
 62
7
 10
1120.518998016344
 20
524.7936169123366
 30
0
 11
1121.18920785619
 21
524.5936169123365
 31
0
  0
LINE
  8
1
 62
7
 10
1121.18920785619
 20
523.8936169123367
 30
0
 11
1120.518998016344
 21
523.6936169123367
 31
0
  0
LINE
  8
1
 62
7
 10
1121.18920785619
 20
524.5936169123365
 30
0
 11
1121.18920785619
 21
523.8936169123367
 31
0
  0
LINE
  8
1
 62
7
 10
1119.23920785619
 20
526.7936169123366
 30
0
 11
1120.518998016344
 21
526.7936169123366
 31
0
  0
LINE
  8
1
 62
7
 10
1120.518998016344
 20
526.7936169123366
 30
0
 11
1120.518998016344
 21
525.6936169123367
 31
0
  0
LINE
  8
1
 62
7
 10
1120.518998016344
 20
525.6936169123367
 30
0
 11
1119.23920785619
 21
525.6936169123367
 31
0
  0
LINE
  8
1
 62
7
 10
1120.518998016344
 20
526.7936169123366
 30
0
 11
1121.18920785619
 21
526.5936169123365
 31
0
  0
LINE
  8
1
 62
7
 10
1121.18920785619
 20
525.8936169123367
 30
0
 11
1120.518998016344
 21
525.6936169123367
 31
0
  0
LINE
  8
1
 62
7
 10
1121.18920785619
 20
526.5936169123365
 30
0
 11
1121.18920785619
 21
525.8936169123367
 31
0
  0
LINE
  8
1
 62
7
 10
1119.23920785619
 20
528.7936169123366
 30
0
 11
1120.518998016344
 21
528.7936169123366
 31
0
  0
LINE
  8
1
 62
7
 10
1120.518998016344
 20
528.7936169123366
 30
0
 11
1120.518998016344
 21
527.6936169123367
 31
0
  0
LINE
  8
1
 62
7
 10
1120.518998016344
 20
527.6936169123367
 30
0
 11
1119.23920785619
 21
527.6936169123367
 31
0
  0
LINE
  8
1
 62
7
 10
1120.518998016344
 20
528.7936169123366
 30
0
 11
1121.18920785619
 21
528.5936169123365
 31
0
  0
LINE
  8
1
 62
7
 10
1121.18920785619
 20
527.8936169123367
 30
0
 11
1120.518998016344
 21
527.6936169123367
 31
0
  0
LINE
  8
1
 62
7
 10
1121.18920785619
 20
528.5936169123365
 30
0
 11
1121.18920785619
 21
527.8936169123367
 31
0
  0
LINE
  8
1
 62
7
 10
1119.23920785619
 20
504.7936169123366
 30
0
 11
1120.518998016344
 21
504.7936169123366
 31
0
  0
LINE
  8
1
 62
7
 10
1120.518998016344
 20
504.7936169123366
 30
0
 11
1120.518998016344
 21
503.6936169123367
 31
0
  0
LINE
  8
1
 62
7
 10
1120.518998016344
 20
503.6936169123367
 30
0
 11
1119.23920785619
 21
503.6936169123367
 31
0
  0
LINE
  8
1
 62
7
 10
1120.518998016344
 20
504.7936169123366
 30
0
 11
1121.18920785619
 21
504.5936169123366
 31
0
  0
LINE
  8
1
 62
7
 10
1121.18920785619
 20
503.8936169123368
 30
0
 11
1120.518998016344
 21
503.6936169123367
 31
0
  0
LINE
  8
1
 62
7
 10
1121.18920785619
 20
504.5936169123366
 30
0
 11
1121.18920785619
 21
503.8936169123368
 31
0
  0
LINE
  8
1
 62
7
 10
1119.23920785619
 20
504.5681912358674
 30
0
 11
1115.144904122
 21
504.5681912358674
 31
0
  0
LINE
  8
1
 62
7
 10
1115.144904122
 20
504.5681912358674
 30
0
 11
1115.144904122
 21
503.6936169123367
 31
0
  0
LINE
  8
1
 62
7
 10
1115.144904122
 20
503.6936169123367
 30
0
 11
1119.23920785619
 21
503.6936169123367
 31
0
  0
LINE
  8
1
 62
7
 10
1117.47013871852
 20
504.5681912358674
 30
0
 11
1117.47013871852
 21
503.6936169123367
 31
0
  0
LINE
  8
1
 62
7
 10
1115.144904122
 20
504.0544766157064
 30
0
 11
1117.47013871852
 21
504.0544766157064
 31
0
  0
LINE
  8
1
 62
7
 10
1115.144904122
 20
527.9190425888062
 30
0
 11
1119.23920785619
 21
527.9190425888062
 31
0
  0
LINE
  8
1
 62
7
 10
1115.144904122
 20
528.7936169123366
 30
0
 11
1115.144904122
 21
527.9190425888062
 31
0
  0
LINE
  8
1
 62
7
 10
1119.23920785619
 20
528.7936169123366
 30
0
 11
1115.144904122
 21
528.7936169123366
 31
0
  0
LINE
  8
1
 62
7
 10
1117.47013871852
 20
528.7936169123366
 30
0
 11
1117.47013871852
 21
527.9190425888062
 31
0
  0
LINE
  8
1
 62
7
 10
1117.47013871852
 20
528.4327572089671
 30
0
 11
1115.144904122
 21
528.4327572089671
 31
0
  0
LINE
  8
1
 62
1
 10
1195.72590893157
 20
478.743575290757
 30
0
 11
1200.190214471804
 21
478.743575290757
 31
0
  0
LINE
  8
1
 62
1
 10
1197.93920785619
 20
476.343575290757
 30
0
 11
1197.93920785619
 21
481.1435752907571
 31
0
  0
LINE
  8
1
 62
1
 10
1197.93920785619
 20
574.3435752907569
 30
0
 11
1197.93920785619
 21
579.1435752907569
 31
0
  0
LINE
  8
1
 62
1
 10
1197.93920785619
 20
574.3435752907569
 30
0
 11
1197.93920785619
 21
579.1435752907569
 31
0
  0
LINE
  8
1
 62
1
 10
1175.72590893157
 20
576.743575290757
 30
0
 11
1180.190214471804
 21
576.743575290757
 31
0
  0
LINE
  8
1
 62
1
 10
1177.93920785619
 20
574.3435752907569
 30
0
 11
1177.93920785619
 21
579.1435752907569
 31
0
  0
LINE
  8
1
 62
1
 10
1177.93920785619
 20
574.3435752907569
 30
0
 11
1177.93920785619
 21
579.1435752907569
 31
0
  0
LINE
  8
1
 62
1
 10
1177.93920785619
 20
574.3435752907569
 30
0
 11
1177.93920785619
 21
579.1435752907569
 31
0
  0
LINE
  8
1
 62
7
 10
1066.431001568622
 20
547.9406050412513
 30
0
 11
1066.431001568622
 21
545.5435791471061
 31
0
  0
LINE
  8
1
 62
7
 10
1064.831001568622
 20
547.9406050412513
 30
0
 11
1066.431001568622
 21
547.9406050412513
 31
0
  0
LINE
  8
1
 62
7
 10
1066.431001568622
 20
545.5435791471061
 30
0
 11
1064.831001568622
 21
545.5435791471061
 31
0
  0
LINE
  8
1
 62
7
 10
1066.431001568622
 20
547.9406050412513
 30
0
 11
1066.431001568622
 21
545.5435791471061
 31
0
  0
LINE
  8
1
 62
7
 10
1069.531001568621
 20
547.9406050412513
 30
0
 11
1067.931001568622
 21
547.9406050412513
 31
0
  0
LINE
  8
1
 62
7
 10
1067.931001568622
 20
545.5435791471061
 30
0
 11
1069.531001568621
 21
545.5435791471061
 31
0
  0
LINE
  8
1
 62
7
 10
1067.931001568622
 20
547.9406050412513
 30
0
 11
1067.931001568622
 21
545.5435791471061
 31
0
  0
LINE
  8
1
 62
7
 10
1066.431001568622
 20
567.143579147106
 30
0
 11
1064.831001568622
 21
567.143579147106
 31
0
  0
LINE
  8
1
 62
7
 10
1066.431001568622
 20
569.5406050412514
 30
0
 11
1066.431001568622
 21
567.143579147106
 31
0
  0
LINE
  8
1
 62
7
 10
1064.831001568622
 20
569.5406050412514
 30
0
 11
1066.431001568622
 21
569.5406050412514
 31
0
  0
LINE
  8
1
 62
7
 10
1067.931001568622
 20
567.143579147106
 30
0
 11
1069.531001568621
 21
567.143579147106
 31
0
  0
LINE
  8
1
 62
7
 10
1067.931001568622
 20
569.5406050412514
 30
0
 11
1067.931001568622
 21
567.143579147106
 31
0
  0
LINE
  8
1
 62
7
 10
1069.531001568621
 20
569.5406050412514
 30
0
 11
1067.931001568622
 21
569.5406050412514
 31
0
  0
LINE
  8
1
 62
7
 10
1070.331001568621
 20
550.1435752907573
 30
0
 11
1070.331001568621
 21
552.3435752907574
 31
0
  0
LINE
  8
1
 62
7
 10
1071.231001568621
 20
553.0435752907572
 30
0
 11
1074.131001568621
 21
553.0435752907572
 31
0
  0
LINE
  8
1
 62
7
 10
1070.331001568621
 20
550.1435752907573
 30
0
 11
1071.231001568621
 21
549.4435752907571
 31
0
  0
LINE
  8
1
 62
7
 10
1071.231001568621
 20
553.0435752907572
 30
0
 11
1070.331001568621
 21
552.3435752907574
 31
0
  0
LINE
  8
1
 62
2
 10
1067.381001568621
 20
551.6935752907573
 30
0
 11
1068.281001568621
 21
551.6935752907573
 31
0
  0
LINE
  8
1
 62
2
 10
1067.381001568621
 20
550.7935752907572
 30
0
 11
1067.381001568621
 21
551.6935752907573
 31
0
  0
LINE
  8
1
 62
2
 10
1068.281001568621
 20
550.7935752907572
 30
0
 11
1067.381001568621
 21
550.7935752907572
 31
0
  0
LINE
  8
1
 62
2
 10
1068.281001568621
 20
551.6935752907573
 30
0
 11
1068.281001568621
 21
550.7935752907572
 31
0
  0
LINE
  8
1
 62
2
 10
1071.781001568621
 20
551.6935752907573
 30
0
 11
1072.681001568622
 21
551.6935752907573
 31
0
  0
LINE
  8
1
 62
2
 10
1071.781001568621
 20
550.7935752907572
 30
0
 11
1071.781001568621
 21
551.6935752907573
 31
0
  0
LINE
  8
1
 62
2
 10
1072.681001568622
 20
550.7935752907572
 30
0
 11
1071.781001568621
 21
550.7935752907572
 31
0
  0
LINE
  8
1
 62
2
 10
1072.681001568622
 20
551.6935752907573
 30
0
 11
1072.681001568622
 21
550.7935752907572
 31
0
  0
LINE
  8
1
 62
7
 10
1065.931001568622
 20
553.0435752907572
 30
0
 11
1069.731001568621
 21
553.0435752907572
 31
0
  0
LINE
  8
1
 62
7
 10
1065.931001568622
 20
549.4435752907573
 30
0
 11
1065.931001568622
 21
553.0435752907572
 31
0
  0
LINE
  8
1
 62
7
 10
1069.731001568621
 20
549.4435752907573
 30
0
 11
1065.931001568622
 21
549.4435752907573
 31
0
  0
LINE
  8
1
 62
7
 10
1069.731001568621
 20
553.0435752907572
 30
0
 11
1069.731001568621
 21
549.4435752907573
 31
0
  0
LINE
  8
1
 62
7
 10
1074.131001568621
 20
549.4435752907573
 30
0
 11
1071.231001568621
 21
549.4435752907571
 31
0
  0
LINE
  8
1
 62
7
 10
1074.131001568621
 20
553.0435752907572
 30
0
 11
1074.131001568621
 21
549.4435752907573
 31
0
  0
LINE
  8
1
 62
7
 10
1076.231001568621
 20
555.8435752907571
 30
0
 11
1074.831001568622
 21
555.8435752907571
 31
0
  0
LINE
  8
1
 62
7
 10
1076.231001568621
 20
559.243575290757
 30
0
 11
1076.231001568621
 21
555.8435752907571
 31
0
  0
LINE
  8
1
 62
7
 10
1074.831001568622
 20
559.243575290757
 30
0
 11
1076.231001568621
 21
559.243575290757
 31
0
  0
LINE
  8
1
 62
7
 10
1074.831001568622
 20
548.5435752907572
 30
0
 11
1074.831001568621
 21
566.543575290757
 31
0
  0
LINE
  8
1
 62
7
 10
1065.231001568621
 20
566.5435752907572
 30
0
 11
1065.231001568621
 21
548.5435752907572
 31
0
  0
LINE
  8
1
 62
7
 10
1064.831001568622
 20
571.5435752907572
 30
0
 11
1064.831001568622
 21
566.5435752907572
 31
0
  0
LINE
  8
1
 62
7
 10
1074.831001568621
 20
566.543575290757
 30
0
 11
1064.831001568622
 21
566.5435752907572
 31
0
  0
LINE
  8
1
 62
7
 10
1069.531001568621
 20
571.5435752907572
 30
0
 11
1064.831001568622
 21
571.5435752907572
 31
0
  0
LINE
  8
1
 62
7
 10
1069.531001568621
 20
571.5435752907572
 30
0
 11
1069.531001568621
 21
566.5435752907572
 31
0
  0
LINE
  8
1
 62
7
 10
1064.831001568622
 20
548.5435752907572
 30
0
 11
1064.831001568622
 21
543.5435752907572
 31
0
  0
LINE
  8
1
 62
7
 10
1064.831001568622
 20
548.5435752907572
 30
0
 11
1074.831001568622
 21
548.5435752907572
 31
0
  0
LINE
  8
1
 62
7
 10
1064.831001568622
 20
543.5435752907572
 30
0
 11
1069.531001568621
 21
543.5435752907572
 31
0
  0
LINE
  8
1
 62
7
 10
1069.531001568621
 20
548.5435752907572
 30
0
 11
1069.531001568621
 21
543.5435752907572
 31
0
  0
LINE
  8
1
 62
7
 10
1065.931001568621
 20
554.4435752907573
 30
0
 11
1065.931001568621
 21
556.5435752907574
 31
0
  0
LINE
  8
1
 62
7
 10
1066.831001568621
 20
557.2435752907572
 30
0
 11
1069.731001568621
 21
557.2435752907572
 31
0
  0
LINE
  8
1
 62
7
 10
1065.931001568621
 20
554.4435752907573
 30
0
 11
1066.831001568621
 21
553.6435752907573
 31
0
  0
LINE
  8
1
 62
7
 10
1066.831001568621
 20
557.2435752907572
 30
0
 11
1065.931001568621
 21
556.5435752907574
 31
0
  0
LINE
  8
1
 62
2
 10
1071.781001568621
 20
555.8935752907573
 30
0
 11
1072.681001568622
 21
555.8935752907573
 31
0
  0
LINE
  8
1
 62
2
 10
1071.781001568621
 20
554.9935752907572
 30
0
 11
1071.781001568621
 21
555.8935752907573
 31
0
  0
LINE
  8
1
 62
2
 10
1072.681001568622
 20
554.9935752907572
 30
0
 11
1071.781001568621
 21
554.9935752907572
 31
0
  0
LINE
  8
1
 62
2
 10
1072.681001568622
 20
555.8935752907573
 30
0
 11
1072.681001568622
 21
554.9935752907572
 31
0
  0
LINE
  8
1
 62
2
 10
1067.381001568621
 20
555.8935752907573
 30
0
 11
1068.281001568621
 21
555.8935752907573
 31
0
  0
LINE
  8
1
 62
2
 10
1067.381001568621
 20
554.9935752907572
 30
0
 11
1067.381001568621
 21
555.8935752907573
 31
0
  0
LINE
  8
1
 62
2
 10
1068.281001568621
 20
554.9935752907572
 30
0
 11
1067.381001568621
 21
554.9935752907572
 31
0
  0
LINE
  8
1
 62
2
 10
1068.281001568621
 20
555.8935752907573
 30
0
 11
1068.281001568621
 21
554.9935752907572
 31
0
  0
LINE
  8
1
 62
7
 10
1070.331001568621
 20
557.2435752907572
 30
0
 11
1074.131001568621
 21
557.2435752907572
 31
0
  0
LINE
  8
1
 62
7
 10
1070.331001568621
 20
553.6435752907573
 30
0
 11
1070.331001568621
 21
557.2435752907572
 31
0
  0
LINE
  8
1
 62
7
 10
1074.131001568621
 20
553.6435752907573
 30
0
 11
1070.331001568621
 21
553.6435752907573
 31
0
  0
LINE
  8
1
 62
7
 10
1074.131001568621
 20
557.2435752907572
 30
0
 11
1074.131001568621
 21
553.6435752907573
 31
0
  0
LINE
  8
1
 62
7
 10
1069.731001568621
 20
553.6435752907573
 30
0
 11
1066.831001568621
 21
553.6435752907573
 31
0
  0
LINE
  8
1
 62
7
 10
1069.731001568621
 20
557.2435752907572
 30
0
 11
1069.731001568621
 21
553.6435752907573
 31
0
  0
LINE
  8
1
 62
7
 10
1065.931001568621
 20
558.6435752907573
 30
0
 11
1065.931001568621
 21
560.6435752907573
 31
0
  0
LINE
  8
1
 62
7
 10
1066.831001568621
 20
561.4435752907573
 30
0
 11
1069.731001568621
 21
561.4435752907571
 31
0
  0
LINE
  8
1
 62
7
 10
1065.931001568621
 20
558.6435752907573
 30
0
 11
1066.831001568621
 21
557.8435752907571
 31
0
  0
LINE
  8
1
 62
7
 10
1066.831001568621
 20
561.4435752907573
 30
0
 11
1065.931001568621
 21
560.6435752907573
 31
0
  0
LINE
  8
1
 62
2
 10
1071.781001568621
 20
560.0935752907571
 30
0
 11
1072.681001568622
 21
560.0935752907571
 31
0
  0
LINE
  8
1
 62
2
 10
1071.781001568621
 20
559.1935752907573
 30
0
 11
1071.781001568621
 21
560.0935752907571
 31
0
  0
LINE
  8
1
 62
2
 10
1072.681001568622
 20
559.1935752907573
 30
0
 11
1071.781001568621
 21
559.1935752907573
 31
0
  0
LINE
  8
1
 62
2
 10
1072.681001568622
 20
560.0935752907571
 30
0
 11
1072.681001568622
 21
559.1935752907573
 31
0
  0
LINE
  8
1
 62
2
 10
1067.381001568621
 20
560.0935752907571
 30
0
 11
1068.281001568621
 21
560.0935752907571
 31
0
  0
LINE
  8
1
 62
2
 10
1067.381001568621
 20
559.1935752907573
 30
0
 11
1067.381001568621
 21
560.0935752907571
 31
0
  0
LINE
  8
1
 62
2
 10
1068.281001568621
 20
559.1935752907573
 30
0
 11
1067.381001568621
 21
559.1935752907573
 31
0
  0
LINE
  8
1
 62
2
 10
1068.281001568621
 20
560.0935752907571
 30
0
 11
1068.281001568621
 21
559.1935752907573
 31
0
  0
LINE
  8
1
 62
7
 10
1070.331001568621
 20
561.4435752907571
 30
0
 11
1074.131001568621
 21
561.4435752907571
 31
0
  0
LINE
  8
1
 62
7
 10
1070.331001568621
 20
557.8435752907571
 30
0
 11
1070.331001568621
 21
561.4435752907571
 31
0
  0
LINE
  8
1
 62
7
 10
1074.131001568621
 20
557.8435752907571
 30
0
 11
1070.331001568621
 21
557.8435752907571
 31
0
  0
LINE
  8
1
 62
7
 10
1074.131001568621
 20
561.4435752907571
 30
0
 11
1074.131001568621
 21
557.8435752907571
 31
0
  0
LINE
  8
1
 62
7
 10
1069.731001568621
 20
557.8435752907571
 30
0
 11
1066.831001568621
 21
557.8435752907571
 31
0
  0
LINE
  8
1
 62
7
 10
1069.731001568621
 20
561.4435752907571
 30
0
 11
1069.731001568621
 21
557.8435752907571
 31
0
  0
LINE
  8
1
 62
7
 10
1070.331001568621
 20
562.8435752907574
 30
0
 11
1070.331001568621
 21
564.9435752907573
 31
0
  0
LINE
  8
1
 62
7
 10
1071.231001568621
 20
565.6435752907573
 30
0
 11
1074.131001568621
 21
565.6435752907571
 31
0
  0
LINE
  8
1
 62
7
 10
1070.331001568621
 20
562.8435752907574
 30
0
 11
1071.231001568621
 21
562.0435752907572
 31
0
  0
LINE
  8
1
 62
7
 10
1071.231001568621
 20
565.6435752907573
 30
0
 11
1070.331001568621
 21
564.9435752907573
 31
0
  0
LINE
  8
1
 62
2
 10
1067.381001568621
 20
564.2935752907572
 30
0
 11
1068.281001568621
 21
564.2935752907572
 31
0
  0
LINE
  8
1
 62
2
 10
1067.381001568621
 20
563.3935752907573
 30
0
 11
1067.381001568621
 21
564.2935752907572
 31
0
  0
LINE
  8
1
 62
2
 10
1068.281001568621
 20
563.3935752907573
 30
0
 11
1067.381001568621
 21
563.3935752907573
 31
0
  0
LINE
  8
1
 62
2
 10
1068.281001568621
 20
564.2935752907572
 30
0
 11
1068.281001568621
 21
563.3935752907573
 31
0
  0
LINE
  8
1
 62
2
 10
1071.781001568621
 20
564.2935752907572
 30
0
 11
1072.681001568622
 21
564.2935752907572
 31
0
  0
LINE
  8
1
 62
2
 10
1071.781001568621
 20
563.3935752907573
 30
0
 11
1071.781001568621
 21
564.2935752907572
 31
0
  0
LINE
  8
1
 62
2
 10
1072.681001568622
 20
563.3935752907573
 30
0
 11
1071.781001568621
 21
563.3935752907573
 31
0
  0
LINE
  8
1
 62
2
 10
1072.681001568622
 20
564.2935752907572
 30
0
 11
1072.681001568622
 21
563.3935752907573
 31
0
  0
LINE
  8
1
 62
7
 10
1065.931001568622
 20
565.6435752907571
 30
0
 11
1069.731001568621
 21
565.6435752907571
 31
0
  0
LINE
  8
1
 62
7
 10
1065.931001568622
 20
562.0435752907572
 30
0
 11
1065.931001568622
 21
565.6435752907571
 31
0
  0
LINE
  8
1
 62
7
 10
1069.731001568621
 20
562.0435752907572
 30
0
 11
1065.931001568622
 21
562.0435752907572
 31
0
  0
LINE
  8
1
 62
7
 10
1069.731001568621
 20
565.6435752907571
 30
0
 11
1069.731001568621
 21
562.0435752907572
 31
0
  0
LINE
  8
1
 62
7
 10
1074.131001568621
 20
562.0435752907572
 30
0
 11
1071.231001568621
 21
562.0435752907572
 31
0
  0
LINE
  8
1
 62
7
 10
1074.131001568621
 20
565.6435752907571
 30
0
 11
1074.131001568621
 21
562.0435752907572
 31
0
  0
LINE
  8
1
 62
2
 10
1062.231001568621
 20
554.9935752907572
 30
0
 11
1063.231001568621
 21
554.9935752907572
 31
0
  0
LINE
  8
1
 62
2
 10
1062.231001568621
 20
555.8935752907573
 30
0
 11
1062.231001568621
 21
554.9935752907572
 31
0
  0
LINE
  8
1
 62
2
 10
1063.231001568621
 20
555.8935752907573
 30
0
 11
1062.231001568621
 21
555.8935752907573
 31
0
  0
LINE
  8
1
 62
2
 10
1062.231001568621
 20
559.1935752907573
 30
0
 11
1063.231001568621
 21
559.1935752907573
 31
0
  0
LINE
  8
1
 62
2
 10
1062.231001568621
 20
560.0935752907571
 30
0
 11
1062.231001568621
 21
559.1935752907573
 31
0
  0
LINE
  8
1
 62
2
 10
1063.231001568621
 20
560.0935752907571
 30
0
 11
1062.231001568621
 21
560.0935752907571
 31
0
  0
LINE
  8
1
 62
2
 10
1062.231001568621
 20
563.3935752907573
 30
0
 11
1063.231001568621
 21
563.3935752907573
 31
0
  0
LINE
  8
1
 62
2
 10
1062.231001568621
 20
564.2935752907572
 30
0
 11
1062.231001568621
 21
563.3935752907573
 31
0
  0
LINE
  8
1
 62
2
 10
1063.231001568621
 20
564.2935752907572
 30
0
 11
1062.231001568621
 21
564.2935752907572
 31
0
  0
LINE
  8
1
 62
3
 10
1181.93920785619
 20
475.243575290757
 30
0
 11
1173.93920785619
 21
475.243575290757
 31
0
  0
LINE
  8
1
 62
3
 10
1173.93920785619
 20
475.243575290757
 30
0
 11
1123.93920785619
 21
475.243575290757
 31
0
  0
LINE
  8
1
 62
3
 10
1193.93920785619
 20
475.243575290757
 30
0
 11
1181.93920785619
 21
475.243575290757
 31
0
  0
LINE
  8
1
 62
3
 10
1201.43920785619
 20
482.743575290757
 30
0
 11
1201.43920785619
 21
476.243575290757
 31
0
  0
LINE
  8
1
 62
3
 10
1123.93920785619
 20
475.243575290757
 30
0
 11
1117.43920785619
 21
475.243575290757
 31
0
  0
LINE
  8
1
 62
3
 10
1116.43920785619
 20
482.743575290757
 30
0
 11
1116.43920785619
 21
489.043575290757
 31
0
  0
LINE
  8
1
 62
3
 10
1116.43920785619
 20
534.3435482414477
 30
0
 11
1116.43920785619
 21
542.3435482414477
 31
0
  0
LINE
  8
1
 62
3
 10
1116.43920785619
 20
542.3435482414477
 30
0
 11
1116.43920785619
 21
548.5435752907572
 31
0
  0
LINE
  8
1
 62
1
 10
1034.271788665438
 20
478.743575290757
 30
0
 11
1038.736094205672
 21
478.743575290757
 31
0
  0
LINE
  8
1
 62
1
 10
1036.522795281052
 20
481.1435752907571
 30
0
 11
1036.522795281052
 21
476.343575290757
 31
0
  0
LINE
  8
1
 62
1
 10
976.2717886654382
 20
478.743575290757
 30
0
 11
980.7360942056721
 21
478.743575290757
 31
0
  0
LINE
  8
1
 62
1
 10
978.5227952810524
 20
481.1435752907571
 30
0
 11
978.5227952810524
 21
476.343575290757
 31
0
  0
LINE
  8
1
 62
1
 10
1034.271788665438
 20
576.743575290757
 30
0
 11
1038.736094205672
 21
576.743575290757
 31
0
  0
LINE
  8
1
 62
1
 10
1036.522795281052
 20
579.1435752907569
 30
0
 11
1036.522795281052
 21
574.3435752907569
 31
0
  0
LINE
  8
1
 62
1
 10
956.2717886654382
 20
576.743575290757
 30
0
 11
960.7360942056721
 21
576.743575290757
 31
0
  0
LINE
  8
1
 62
1
 10
958.5227952810524
 20
579.1435752907569
 30
0
 11
958.5227952810524
 21
574.3435752907569
 31
0
  0
LINE
  8
1
 62
7
 10
1045.022795281051
 20
489.043575290757
 30
0
 11
1045.022795281051
 21
494.4435752907569
 31
0
  0
LINE
  8
1
 62
7
 10
1045.022795281051
 20
494.4435752907569
 30
0
 11
1040.022795281052
 21
494.4435752907569
 31
0
  0
LINE
  8
1
 62
3
 10
962.5227952810524
 20
475.243575290757
 30
0
 11
956.0227952810524
 21
475.243575290757
 31
0
  0
LINE
  8
1
 62
3
 10
1040.022795281052
 20
482.743575290757
 30
0
 11
1040.022795281052
 21
476.243575290757
 31
0
  0
LINE
  8
1
 62
3
 10
955.0227952810524
 20
482.743575290757
 30
0
 11
955.0227952810524
 21
572.743575290757
 31
0
  0
LINE
  8
1
 62
3
 10
956.0227952810524
 20
580.243575290757
 30
0
 11
962.5227952810524
 21
580.243575290757
 31
0
  0
LINE
  8
1
 62
1
 10
1033.771788665438
 20
538.3435482414477
 30
0
 11
1038.236094205672
 21
538.3435482414477
 31
0
  0
LINE
  8
1
 62
1
 10
1036.022795281052
 20
540.7435482414476
 30
0
 11
1036.022795281052
 21
535.9435482414476
 31
0
  0
LINE
  8
1
 62
7
 10
1042.593122114818
 20
493.4435752907571
 30
0
 11
1045.027057663309
 21
493.4435752907571
 31
0
  0
LINE
  8
1
 62
7
 10
1042.027057663309
 20
490.043575290757
 30
0
 11
1042.027057663309
 21
493.4435752907571
 31
0
  0
LINE
  8
1
 62
7
 10
1042.593122114818
 20
490.043575290757
 30
0
 11
1042.027057663309
 21
490.043575290757
 31
0
  0
LINE
  8
1
 62
7
 10
1042.593122114818
 20
490.043575290757
 30
0
 11
1042.593122114818
 21
493.4435752907571
 31
0
  0
LINE
  8
1
 62
7
 10
1042.027057663309
 20
493.4435752907571
 30
0
 11
1042.593122114818
 21
493.4435752907571
 31
0
  0
LINE
  8
1
 62
7
 10
1045.027057663309
 20
490.043575290757
 30
0
 11
1042.593122114818
 21
490.043575290757
 31
0
  0
LINE
  8
1
 62
3
 10
1040.022795281052
 20
579.243575290757
 30
0
 11
1040.022795281052
 21
572.743575290757
 31
0
  0
LINE
  8
1
 62
3
 10
1039.022795281052
 20
580.243575290757
 30
0
 11
1040.022795281052
 21
579.243575290757
 31
0
  0
LINE
  8
1
 62
3
 10
956.0227952810524
 20
475.243575290757
 30
0
 11
955.0227952810524
 21
476.243575290757
 31
0
  0
LINE
  8
1
 62
3
 10
1039.022795281052
 20
475.243575290757
 30
0
 11
1040.022795281052
 21
476.243575290757
 31
0
  0
LINE
  8
1
 62
3
 10
955.0227952810524
 20
579.243575290757
 30
0
 11
956.0227952810524
 21
580.243575290757
 31
0
  0
LINE
  8
1
 62
7
 10
1045.022795281051
 20
548.5435752907572
 30
0
 11
1045.022795281051
 21
566.543575290757
 31
0
  0
LINE
  8
1
 62
7
 10
1045.022795281051
 20
566.543575290757
 30
0
 11
1040.022795281052
 21
566.543575290757
 31
0
  0
LINE
  8
1
 62
7
 10
1042.593122114818
 20
559.243575290757
 30
0
 11
1045.027057663309
 21
559.243575290757
 31
0
  0
LINE
  8
1
 62
7
 10
1042.027057663309
 20
555.8435752907571
 30
0
 11
1042.027057663309
 21
559.243575290757
 31
0
  0
LINE
  8
1
 62
7
 10
1042.593122114818
 20
555.8435752907571
 30
0
 11
1042.027057663309
 21
555.8435752907571
 31
0
  0
LINE
  8
1
 62
7
 10
1042.593122114818
 20
555.8435752907571
 30
0
 11
1042.593122114818
 21
559.243575290757
 31
0
  0
LINE
  8
1
 62
7
 10
1042.027057663309
 20
559.243575290757
 30
0
 11
1042.593122114818
 21
559.243575290757
 31
0
  0
LINE
  8
1
 62
7
 10
1045.027057663309
 20
555.8435752907571
 30
0
 11
1042.593122114818
 21
555.8435752907571
 31
0
  0
LINE
  8
1
 62
7
 10
1042.122795281052
 20
529.8936169123367
 30
0
 11
1040.022795281052
 21
529.8936169123367
 31
0
  0
LINE
  8
1
 62
7
 10
1042.122795281052
 20
502.5936169123368
 30
0
 11
1042.122795281052
 21
529.8936169123367
 31
0
  0
LINE
  8
1
 62
1
 10
956.2717886654382
 20
478.743575290757
 30
0
 11
960.7360942056721
 21
478.743575290757
 31
0
  0
LINE
  8
1
 62
1
 10
958.5227952810524
 20
481.1435752907571
 30
0
 11
958.5227952810524
 21
476.343575290757
 31
0
  0
LINE
  8
1
 62
1
 10
958.5227952810524
 20
579.1435752907569
 30
0
 11
958.5227952810524
 21
574.3435752907569
 31
0
  0
LINE
  8
1
 62
1
 10
958.5227952810524
 20
579.1435752907569
 30
0
 11
958.5227952810524
 21
574.3435752907569
 31
0
  0
LINE
  8
1
 62
1
 10
976.2717886654382
 20
576.743575290757
 30
0
 11
980.7360942056721
 21
576.743575290757
 31
0
  0
LINE
  8
1
 62
1
 10
978.5227952810524
 20
579.1435752907569
 30
0
 11
978.5227952810524
 21
574.3435752907569
 31
0
  0
LINE
  8
1
 62
1
 10
978.5227952810524
 20
579.1435752907569
 30
0
 11
978.5227952810524
 21
574.3435752907569
 31
0
  0
LINE
  8
1
 62
1
 10
978.5227952810524
 20
579.1435752907569
 30
0
 11
978.5227952810524
 21
574.3435752907569
 31
0
  0
LINE
  8
1
 62
2
 10
982.5227952810524
 20
482.743575290757
 30
0
 11
982.5227952810524
 21
475.243575290757
 31
0
  0
LINE
  8
1
 62
2
 10
974.5227952810524
 20
482.743575290757
 30
0
 11
982.5227952810524
 21
482.743575290757
 31
0
  0
LINE
  8
1
 62
2
 10
974.5227952810524
 20
475.243575290757
 30
0
 11
974.5227952810524
 21
482.743575290757
 31
0
  0
LINE
  8
1
 62
3
 10
982.5227952810524
 20
475.243575290757
 30
0
 11
974.5227952810524
 21
475.243575290757
 31
0
  0
LINE
  8
1
 62
3
 10
1032.522795281052
 20
475.243575290757
 30
0
 11
982.5227952810524
 21
475.243575290757
 31
0
  0
LINE
  8
1
 62
2
 10
962.5227952810524
 20
482.743575290757
 30
0
 11
955.0227952810524
 21
482.743575290757
 31
0
  0
LINE
  8
1
 62
2
 10
962.5227952810524
 20
475.243575290757
 30
0
 11
962.5227952810524
 21
482.743575290757
 31
0
  0
LINE
  8
1
 62
3
 10
974.5227952810524
 20
475.243575290757
 30
0
 11
962.5227952810524
 21
475.243575290757
 31
0
  0
LINE
  8
1
 62
3
 10
955.0227952810524
 20
476.243575290757
 30
0
 11
955.0227952810524
 21
482.743575290757
 31
0
  0
LINE
  8
1
 62
2
 10
1032.522795281052
 20
482.743575290757
 30
0
 11
1040.022795281052
 21
482.743575290757
 31
0
  0
LINE
  8
1
 62
2
 10
1032.522795281052
 20
475.243575290757
 30
0
 11
1032.522795281052
 21
482.743575290757
 31
0
  0
LINE
  8
1
 62
3
 10
1039.022795281052
 20
475.243575290757
 30
0
 11
1032.522795281052
 21
475.243575290757
 31
0
  0
LINE
  8
1
 62
2
 10
1032.022795281052
 20
542.3435482414477
 30
0
 11
1040.022795281052
 21
542.3435482414477
 31
0
  0
LINE
  8
1
 62
2
 10
1032.022795281052
 20
534.3435482414477
 30
0
 11
1032.022795281052
 21
542.3435482414477
 31
0
  0
LINE
  8
1
 62
2
 10
1040.022795281052
 20
534.3435482414477
 30
0
 11
1032.022795281052
 21
534.3435482414477
 31
0
  0
LINE
  8
1
 62
7
 10
1040.022795281052
 20
548.5435752907572
 30
0
 11
1045.022795281051
 21
548.5435752907572
 31
0
  0
LINE
  8
1
 62
7
 10
1040.022795281052
 20
502.5936169123368
 30
0
 11
1042.122795281052
 21
502.5936169123368
 31
0
  0
LINE
  8
1
 62
7
 10
1040.022795281052
 20
489.043575290757
 30
0
 11
1045.022795281051
 21
489.043575290757
 31
0
  0
LINE
  8
1
 62
3
 10
1032.522795281052
 20
580.243575290757
 30
0
 11
1039.022795281052
 21
580.243575290757
 31
0
  0
LINE
  8
1
 62
3
 10
1040.022795281052
 20
572.743575290757
 30
0
 11
1040.022795281052
 21
542.3435482414477
 31
0
  0
LINE
  8
1
 62
3
 10
955.0227952810524
 20
572.743575290757
 30
0
 11
955.0227952810524
 21
579.243575290757
 31
0
  0
LINE
  8
1
 62
3
 10
962.5227952810524
 20
580.243575290757
 30
0
 11
974.5227952810524
 21
580.243575290757
 31
0
  0
LINE
  8
1
 62
2
 10
955.0227952810524
 20
572.743575290757
 30
0
 11
962.5227952810524
 21
572.743575290757
 31
0
  0
LINE
  8
1
 62
2
 10
962.5227952810524
 20
572.743575290757
 30
0
 11
962.5227952810524
 21
580.243575290757
 31
0
  0
LINE
  8
1
 62
2
 10
974.5227952810524
 20
580.243575290757
 30
0
 11
974.5227952810524
 21
572.743575290757
 31
0
  0
LINE
  8
1
 62
2
 10
974.5227952810524
 20
572.743575290757
 30
0
 11
982.5227952810524
 21
572.743575290757
 31
0
  0
LINE
  8
1
 62
2
 10
982.5227952810524
 20
572.743575290757
 30
0
 11
982.5227952810524
 21
580.243575290757
 31
0
  0
LINE
  8
1
 62
2
 10
1032.522795281052
 20
580.243575290757
 30
0
 11
1032.522795281052
 21
572.743575290757
 31
0
  0
LINE
  8
1
 62
2
 10
1032.522795281052
 20
572.743575290757
 30
0
 11
1040.022795281052
 21
572.743575290757
 31
0
  0
LINE
  8
1
 62
3
 10
982.5227952810524
 20
580.243575290757
 30
0
 11
1032.522795281052
 21
580.243575290757
 31
0
  0
LINE
  8
1
 62
3
 10
974.5227952810524
 20
580.243575290757
 30
0
 11
982.5227952810524
 21
580.243575290757
 31
0
  0
LINE
  8
1
 62
3
 10
1040.022795281052
 20
542.3435482414477
 30
0
 11
1040.022795281052
 21
534.3435482414477
 31
0
  0
LINE
  8
1
 62
3
 10
1040.022795281052
 20
534.3435482414477
 30
0
 11
1040.022795281052
 21
482.743575290757
 31
0
  0
LINE
  8
1
 62
7
 10
1119.23920785619
 20
520.9936169123366
 30
0
 11
1120.13920785619
 21
520.9936169123366
 31
0
  0
LINE
  8
1
 62
7
 10
1120.13920785619
 20
520.9936169123366
 30
0
 11
1120.13920785619
 21
521.4936169123366
 31
0
  0
LINE
  8
1
 62
7
 10
1120.13920785619
 20
521.4936169123366
 30
0
 11
1119.23920785619
 21
521.4936169123366
 31
0
  0
LINE
  8
1
 62
7
 10
1119.23920785619
 20
522.7936169123366
 30
0
 11
1120.518998016344
 21
522.7936169123366
 31
0
  0
LINE
  8
1
 62
7
 10
1120.518998016344
 20
522.7936169123366
 30
0
 11
1120.518998016344
 21
521.6936169123367
 31
0
  0
LINE
  8
1
 62
7
 10
1120.518998016344
 20
521.6936169123367
 30
0
 11
1119.23920785619
 21
521.6936169123367
 31
0
  0
LINE
  8
1
 62
7
 10
1120.518998016344
 20
522.7936169123366
 30
0
 11
1121.18920785619
 21
522.5936169123365
 31
0
  0
LINE
  8
1
 62
7
 10
1121.18920785619
 20
521.8936169123367
 30
0
 11
1120.518998016344
 21
521.6936169123367
 31
0
  0
LINE
  8
1
 62
7
 10
1121.18920785619
 20
522.5936169123365
 30
0
 11
1121.18920785619
 21
521.8936169123367
 31
0
  0
LINE
  8
1
 62
6
 10
1064.931001568622
 20
524.4436169123367
 30
0
 11
1064.931001568622
 21
524.0436169123368
 31
0
  0
LINE
  8
1
 62
6
 10
1064.931001568622
 20
524.4436169123367
 30
0
 11
1065.331001568622
 21
524.4436169123367
 31
0
  0
LINE
  8
1
 62
6
 10
1065.331001568622
 20
524.0436169123368
 30
0
 11
1064.931001568622
 21
524.0436169123368
 31
0
  0
LINE
  8
1
 62
2
 10
1062.231001568621
 20
523.4936169123366
 30
0
 11
1063.231001568621
 21
523.4936169123366
 31
0
  0
LINE
  8
1
 62
2
 10
1062.231001568621
 20
522.9936169123366
 30
0
 11
1062.231001568621
 21
523.4936169123366
 31
0
  0
LINE
  8
1
 62
2
 10
1063.231001568621
 20
522.9936169123366
 30
0
 11
1062.231001568621
 21
522.9936169123366
 31
0
  0
LINE
  8
1
 62
2
 10
1066.081001568622
 20
523.4936169123366
 30
0
 11
1066.581001568622
 21
523.4936169123366
 31
0
  0
LINE
  8
1
 62
2
 10
1066.081001568622
 20
522.9936169123366
 30
0
 11
1066.081001568622
 21
523.4936169123366
 31
0
  0
LINE
  8
1
 62
2
 10
1066.581001568622
 20
522.9936169123366
 30
0
 11
1066.081001568622
 21
522.9936169123366
 31
0
  0
LINE
  8
1
 62
2
 10
1066.581001568622
 20
523.4936169123366
 30
0
 11
1066.581001568622
 21
522.9936169123366
 31
0
  0
LINE
  8
1
 62
2
 10
1194.43920785619
 20
501.243575290757
 30
0
 11
1199.43920785619
 21
501.243575290757
 31
0
  0
LINE
  8
1
 62
2
 10
1199.43920785619
 20
501.243575290757
 30
0
 11
1199.43920785619
 21
522.243575290757
 31
0
  0
LINE
  8
1
 62
2
 10
1199.43920785619
 20
522.243575290757
 30
0
 11
1194.43920785619
 21
522.243575290757
 31
0
  0
LINE
  8
1
 62
2
 10
1194.43920785619
 20
522.243575290757
 30
0
 11
1194.43920785619
 21
501.243575290757
 31
0
  0
LINE
  8
1
 62
2
 10
1197.93920785619
 20
498.69952019045
 30
0
 11
1197.93920785619
 21
482.390351524141
 31
0
  0
LINE
  8
1
 62
4
 10
1197.93920785619
 20
498.69952019045
 30
0
 11
1197.93920785619
 21
523.86717007868
 31
0
  0
LINE
  8
1
 62
2
 10
1149.90379999044
 20
483.014268192777
 30
0
 11
1175.280688753685
 21
483.014268192777
 31
0
  0
LINE
  8
1
 62
2
 10
1175.280688753685
 20
483.014268192777
 30
0
 11
1179.859868360078
 21
488.6447007972329
 31
0
  0
LINE
  8
1
 62
2
 10
1150.05938997557
 20
500.829321490184
 30
0
 11
1189.83477579056
 21
500.829321490184
 31
0
  0
LINE
  8
1
 62
2
 10
1149.90379999044
 20
494.7293086691971
 30
0
 11
1184.808424579034
 21
494.7293086691971
 31
0
  0
ARC
  8
1
 62
6
 10
1131.570268109684
 20
517.170066973641
 30
0
 40
2.362500000001352
 50
7.499999999999464
 51
22.49999999999134
  0
ARC
  8
1
 62
6
 10
1131.570268109684
 20
517.170066973641
 30
0
 40
2.362500000000464
 50
37.49999999998386
 51
52.4999999999667
  0
ARC
  8
1
 62
6
 10
1131.570268109684
 20
517.170066973641
 30
0
 40
2.362500000000538
 50
67.49999999996966
 51
82.49999999997435
  0
ARC
  8
1
 62
6
 10
1131.570268109684
 20
517.170066973641
 30
0
 40
2.362499999999881
 50
97.49999999998192
 51
112.4999999999692
  0
ARC
  8
1
 62
6
 10
1131.570268109684
 20
517.170066973641
 30
0
 40
2.362500000000052
 50
247.5000000000125
 51
262.5000000000174
  0
ARC
  8
1
 62
6
 10
1131.570268109684
 20
517.170066973641
 30
0
 40
2.362499999999893
 50
277.5000000000264
 51
292.5000000000283
  0
ARC
  8
1
 62
6
 10
1131.570268109684
 20
517.170066973641
 30
0
 40
2.362500000000615
 50
307.5000000000158
 51
322.5000000000031
  0
ARC
  8
1
 62
6
 10
1131.570268109684
 20
517.170066973641
 30
0
 40
2.362500000000769
 50
337.5000000000138
 51
352.500000000006
  0
ARC
  8
1
 62
6
 10
1131.570268109687
 20
517.170066973641
 30
0
 40
2.834999999998367
 50
22.50000000000565
 51
37.50000000001995
  0
ARC
  8
1
 62
6
 10
1131.570268109687
 20
517.170066973641
 30
0
 40
2.834999999998896
 50
52.50000000002515
 51
67.50000000004239
  0
ARC
  8
1
 62
6
 10
1131.570268109687
 20
517.170066973641
 30
0
 40
2.83499999999954
 50
82.50000000003857
 51
97.50000000002463
  0
ARC
  8
1
 62
6
 10
1131.570268109687
 20
517.170066973641
 30
0
 40
2.835000000000918
 50
112.500000000034
 51
127.5000000000195
  0
ARC
  8
1
 62
6
 10
1131.570268109687
 20
517.170066973641
 30
0
 40
2.835000000000876
 50
232.4999999999806
 51
247.4999999999625
  0
ARC
  8
1
 62
6
 10
1131.570268109687
 20
517.170066973641
 30
0
 40
2.835000000000075
 50
262.4999999999565
 51
277.4999999999614
  0
ARC
  8
1
 62
6
 10
1131.570268109687
 20
517.170066973641
 30
0
 40
2.834999999998932
 50
292.4999999999611
 51
307.4999999999721
  0
ARC
  8
1
 62
6
 10
1131.570268109687
 20
517.170066973641
 30
0
 40
2.834999999998602
 50
322.4999999999801
 51
337.4999999999901
  0
ARC
  8
1
 62
6
 10
1131.570268109687
 20
517.170066973641
 30
0
 40
2.834999999998229
 50
352.4999999999934
 51
7.500000000006637
  0
ARC
  8
1
 62
6
 10
1131.570268109684
 20
517.170066973641
 30
0
 40
1.889999999998908
 50
168.46304096718
 51
191.5369590328201
  0
ARC
  8
1
 62
6
 10
1131.570268109684
 20
517.170066973641
 30
0
 40
1.890000000000063
 50
101.5369590327848
 51
168.46304096718
  0
ARC
  8
1
 62
6
 10
1131.570268109684
 20
517.170066973641
 30
0
 40
1.889999999999758
 50
281.536959032843
 51
348.463040967191
  0
ARC
  8
1
 62
6
 10
1131.570268109684
 20
517.170066973641
 30
0
 40
1.89000000000069
 50
348.463040967191
 51
11.53695903280902
  0
ARC
  8
1
 62
6
 10
1131.570268109684
 20
517.170066973641
 30
0
 40
1.889999999999394
 50
258.4630409672111
 51
281.536959032843
  0
ARC
  8
1
 62
6
 10
1131.570268109684
 20
517.170066973641
 30
0
 40
1.89000000000069
 50
11.53695903280902
 51
78.46304096716122
  0
ARC
  8
1
 62
6
 10
1131.570268109684
 20
517.170066973641
 30
0
 40
1.889999999998908
 50
191.5369590328201
 51
258.4630409672111
  0
ARC
  8
1
 62
6
 10
1131.570268109684
 20
517.170066973641
 30
0
 40
1.890000000000427
 50
78.46304096716122
 51
101.5369590327848
  0
ARC
  8
1
 62
7
 10
1130.839207856191
 20
491.743575290757
 30
0
 40
0.5699999999998795
 50
270
 51
90
  0
ARC
  8
1
 62
7
 10
1130.839207856191
 20
551.2435752907572
 30
0
 40
0.5699999999999363
 50
270
 51
90
  0
ARC
  8
1
 62
7
 10
1130.839207856191
 20
555.4435752907573
 30
0
 40
0.5699999999999363
 50
270
 51
90
  0
ARC
  8
1
 62
7
 10
1130.839207856191
 20
559.6435752907571
 30
0
 40
0.5699999999999363
 50
270
 51
90
  0
ARC
  8
1
 62
7
 10
1130.839207856191
 20
563.8435752907571
 30
0
 40
0.5699999999999363
 50
270
 51
90
  0
CIRCLE
  8
1
 62
6
 10
1132.515268109685
 20
518.115066973641
 30
0
 40
0.3149999999998272
  0
CIRCLE
  8
1
 62
6
 10
1132.515268109685
 20
516.2250669736411
 30
0
 40
0.3149999999998272
  0
CIRCLE
  8
1
 62
3
 10
1119.93920785619
 20
478.743575290757
 30
0
 40
1.75
  0
CIRCLE
  8
1
 62
3
 10
1177.93920785619
 20
478.743575290757
 30
0
 40
1.75
  0
CIRCLE
  8
1
 62
3
 10
1119.93920785619
 20
576.743575290757
 30
0
 40
1.75
  0
CIRCLE
  8
1
 62
3
 10
1197.93920785619
 20
576.743575290757
 30
0
 40
1.75
  0
CIRCLE
  8
1
 62
4
 10
1125.339207856191
 20
491.743575290757
 30
0
 40
0.8999999999998636
  0
CIRCLE
  8
1
 62
4
 10
1130.839207856191
 20
491.743575290757
 30
0
 40
0.8999999999998636
  0
CIRCLE
  8
1
 62
7
 10
1121.139207856191
 20
496.243575290757
 30
0
 40
1.200000000000046
  0
CIRCLE
  8
1
 62
7
 10
1121.139207856191
 20
487.2435752907568
 30
0
 40
1.200000000000046
  0
CIRCLE
  8
1
 62
3
 10
1120.43920785619
 20
538.3435482414477
 30
0
 40
1.75
  0
CIRCLE
  8
1
 62
2
 10
1092.056626055365
 20
503.8606153060445
 30
0
 40
4
  0
CIRCLE
  8
1
 62
2
 10
1092.171298119589
 20
529.7279395123792
 30
0
 40
4
  0
CIRCLE
  8
1
 62
2
 10
1092.056626055365
 20
569.7290963684213
 30
0
 40
4
  0
CIRCLE
  8
1
 62
2
 10
1037.032986965191
 20
642.3701777034858
 30
0
 40
4
  0
CIRCLE
  8
1
 62
2
 10
1131.362270695862
 20
644.3363219045738
 30
0
 40
4
  0
CIRCLE
  8
1
 62
7
 10
1121.139207856191
 20
568.3435752907569
 30
0
 40
1.200000000000046
  0
CIRCLE
  8
1
 62
7
 10
1121.139207856191
 20
546.7435752907568
 30
0
 40
1.200000000000046
  0
CIRCLE
  8
1
 62
3
 10
1197.93920785619
 20
478.743575290757
 30
0
 40
1.75
  0
CIRCLE
  8
1
 62
3
 10
1177.93920785619
 20
576.743575290757
 30
0
 40
1.75
  0
CIRCLE
  8
1
 62
3
 10
1036.522795281052
 20
478.743575290757
 30
0
 40
1.75
  0
CIRCLE
  8
1
 62
3
 10
978.5227952810524
 20
478.743575290757
 30
0
 40
1.75
  0
CIRCLE
  8
1
 62
3
 10
1036.522795281052
 20
576.743575290757
 30
0
 40
1.75
  0
CIRCLE
  8
1
 62
3
 10
958.5227952810524
 20
576.743575290757
 30
0
 40
1.75
  0
CIRCLE
  8
1
 62
3
 10
1036.022795281052
 20
538.3435482414477
 30
0
 40
1.75
  0
CIRCLE
  8
1
 62
3
 10
958.5227952810524
 20
478.743575290757
 30
0
 40
1.75
  0
CIRCLE
  8
1
 62
3
 10
978.5227952810524
 20
576.743575290757
 30
0
 40
1.75
  0
POLYLINE
  8
1
 62
2
 66
1
 70
1
  0
VERTEX
  8
1
 10
950.7066709211186
 20
641.8170840403493
 30
0
  0
VERTEX
  8
1
 10
960.7066709211186
 20
641.8170840403493
 30
0
  0
VERTEX
  8
1
 10
960.7066709211186
 20
651.8170840403493
 30
0
  0
VERTEX
  8
1
 10
950.7066709211186
 20
651.8170840403493
 30
0
  0
SEQEND
  8
1
  0
POLYLINE
  8
1
 62
2
 66
1
 70
1
  0
VERTEX
  8
1
 10
1046.094537503418
 20
641.9841788851878
 30
0
  0
VERTEX
  8
1
 10
1056.094537503418
 20
641.9841788851878
 30
0
  0
VERTEX
  8
1
 10
1056.094537503418
 20
651.9841788851878
 30
0
  0
VERTEX
  8
1
 10
1046.094537503418
 20
651.9841788851878
 30
0
  0
SEQEND
  8
1
  0
LINE
  8
1
 62
2
 10
1164.643778976138
 20
545.9966588199911
 30
0
 11
1149.844445324448
 21
545.9966588199911
 31
0
  0
LINE
  8
1
 62
2
 10
1149.844445324448
 20
545.9966588199911
 30
0
 11
1131.570268109685
 21
520.3700669736411
 31
0
  0
SOLID
  8
1
 62
2
 10
1133.085165039647
 20
523.2200794059003
 30
0
 11
1133.771183674749
 21
522.7308834103637
 31
0
 12
1131.570268109685
 22
520.3700669736411
 32
0
 13
1131.570268109685
 23
520.3700669736411
 33
0
  0
LINE
  8
1
 62
2
 10
1149.90379999044
 20
488.6447007972329
 30
0
 11
1179.859868360078
 21
488.6447007972329
 31
0
  0
LINE
  8
1
 62
2
 10
1179.859868360078
 20
488.6447007972329
 30
0
 11
1194.479266313183
 21
506.62030821341
 31
0
  0
SOLID
  8
1
 62
2
 10
1192.787028384818
 20
503.8718878732432
 30
0
 11
1192.133346465967
 21
504.4035214300504
 31
0
 12
1194.479266313183
 22
506.62030821341
 32
0
 13
1194.479266313183
 23
506.62030821341
 33
0
  0
LINE
  8
1
 62
2
 10
1034.730930588041
 20
639.3181736479868
 30
0
 11
1026.328440129525
 21
627.3181736479868
 31
0
  0
SOLID
  8
1
 62
2
 10
1027.818785805738
 20
630.1811010550009
 30
0
 11
1028.508983645959
 21
629.6978193244223
 31
0
 12
1026.328440129525
 22
627.3181736479868
 32
0
 13
1026.328440129525
 23
627.3181736479868
 33
0
  0
LINE
  8
1
 62
2
 10
1130.36879717034
 20
640.461659292928
 30
0
 11
1121.966306711824
 21
628.461659292928
 31
0
  0
SOLID
  8
1
 62
2
 10
1123.456652388037
 20
631.3245866999421
 30
0
 11
1124.146850228258
 21
630.8413049693635
 31
0
 12
1121.966306711824
 22
628.461659292928
 32
0
 13
1121.966306711824
 23
628.461659292928
 33
0
  0
LINE
  8
1
 62
2
 10
1095.520727670502
 20
567.7290963684213
 30
0
 11
1111.439207856191
 21
557.5957046833582
 31
0
  0
SOLID
  8
1
 62
2
 10
1108.513522087543
 20
558.9587330600141
 30
0
 11
1108.965990115541
 21
559.6695121912464
 31
0
 12
1111.439207856191
 22
557.5957046833582
 32
0
 13
1111.439207856191
 23
557.5957046833582
 33
0
  0
LINE
  8
1
 62
2
 10
1095.635399734726
 20
527.7279395123792
 30
0
 11
1114.33920785619
 21
514.9864379938151
 31
0
  0
SOLID
  8
1
 62
2
 10
1111.457364364201
 20
516.4398689898097
 30
0
 11
1111.93173642246
 21
517.136220510307
 31
0
 12
1114.33920785619
 22
514.9864379938151
 32
0
 13
1114.33920785619
 23
514.9864379938151
 33
0
  0
LINE
  8
1
 62
2
 10
1095.520727670502
 20
501.8606153060445
 30
0
 11
1111.439207856191
 21
491.7272236209813
 31
0
  0
SOLID
  8
1
 62
2
 10
1108.513522087543
 20
493.0902519976371
 30
0
 11
1108.965990115541
 21
493.8010311288696
 31
0
 12
1111.439207856191
 22
491.7272236209813
 32
0
 13
1111.439207856191
 23
491.7272236209813
 33
0
  0
TEXT
  8
1
 62
2
 10
1149.286216759661
 20
541.7298563324636
 30
0
 40
3.200000000000001
  1
Variable Resistor
 41
0.4229999999999999
 73
2
 11
1149.286216759661
 21
543.3298563324636
 31
0
  0
TEXT
  8
1
 62
2
 10
1150.325736679357
 20
547.2466588199911
 30
0
 40
3.5
  1
可変抵抗器
 41
0.675
 73
2
 11
1150.325736679357
 21
548.9966588199911
 31
0
  0
TEXT
  8
1
 62
2
 10
1076.531001568621
 20
495.80046872358
 30
0
 40
4
  1
電子部品
 50
90
 41
0.9
 73
2
 11
1074.531001568621
 21
495.80046872358
 31
0
  0
TEXT
  8
1
 62
2
 10
1076.127250898486
 20
514.9672992365257
 30
0
 40
3.5
  1
Electronic Parts
 50
90
 41
0.4950000000000001
 72
1
 73
2
 11
1074.377250898486
 21
528.8272992365257
 31
0
  0
TEXT
  8
1
 62
2
 10
1150.242284659135
 20
489.892936113286
 30
0
 40
3.200000000000001
  1
Shows Driver Model
 41
0.4050000000000002
  0
TEXT
  8
1
 62
2
 10
1150.242284659135
 20
484.292936113286
 30
0
 40
3.200000000000001
  1
Code and Lot No.
 41
0.4050000000000002
  0
TEXT
  8
1
 62
2
 10
1150.561836820636
 20
495.9481014563943
 30
0
 40
3.200000000000001
  1
ドライバ型式，Ｌｏｔ　Ｎｏ．を表示する
 41
0.4050000000000002
 73
2
 11
1150.561836820636
 21
497.5481014563943
 31
0
  0
TEXT
  8
1
 62
2
 10
953.5191709211186
 20
644.3170840403493
 30
0
 40
5
  1
A
 41
0.9
  7
COMPLEX
  0
TEXT
  8
1
 62
2
 10
1049.157037503418
 20
644.4841788851878
 30
0
 40
5
  1
B
 41
0.9
  7
COMPLEX
  0
TEXT
  8
1
 62
2
 10
1089.909381256016
 20
502.2606153060445
 30
0
 40
3.2
  1
1
 41
0.9
 72
1
 73
2
 11
1091.349381256016
 21
503.8606153060445
 31
0
  0
TEXT
  8
1
 62
2
 10
1090.731298119589
 20
528.1279395123792
 30
0
 40
3.2
  1
3
 41
0.9
 72
1
 73
2
 11
1092.171298119589
 21
529.7279395123792
 31
0
  0
TEXT
  8
1
 62
2
 10
1090.616626055365
 20
568.1290963684213
 30
0
 40
3.2
  1
5
 41
0.9
 72
1
 73
2
 11
1092.056626055365
 21
569.7290963684213
 31
0
  0
TEXT
  8
1
 62
2
 10
1035.592986965191
 20
640.1296639825099
 30
0
 40
3.2
  1
4
 41
0.9
 72
1
 73
2
 11
1037.032986965191
 21
641.7296639825099
 31
0
  0
TEXT
  8
1
 62
2
 10
1129.922270695862
 20
642.7363219045737
 30
0
 40
3.2
  1
2
 41
0.9
 72
1
 73
2
 11
1131.362270695862
 21
644.3363219045738
 31
0
  0
TEXT
  8
1
 62
2
 10
1150.394085382523
 20
501.6663521262082
 30
0
 40
3.200000000000001
  1
ﾈｰﾑﾌﾚｰﾄ Name Plate
 41
0.4050000000000002
 73
2
 11
1150.394085382523
 21
503.2663521262082
 31
0
  0
DIMENSION
  8
1
  6
CONTINUOUS
 62
2
  2
*D4
  3
DMST_2
 10
1116.43920785619
 20
533.883154947664
 30
0
 11
1108.92960604665
 21
537.4831549476641
 31
0
 12
0
 22
0
 32
0
 70
0
 13
1120.43920785619
 23
535.9435482414476
 33
0
 14
1116.43920785619
 24
529.8936169123367
 34
0
 53
0
  0
DIMENSION
  8
1
  6
CONTINUOUS
 62
2
  2
*D5
  3
DMST_2
 10
1113.23920785619
 20
500.867326891917
 30
0
 11
1107.72169164357
 21
504.467326891917
 31
0
 12
0
 22
0
 32
0
 70
0
 13
1116.43920785619
 23
502.5936169123368
 33
0
 14
1113.23920785619
 24
502.5936169123368
 34
0
 53
0
  0
DIMENSION
  8
1
  6
CONTINUOUS
 62
2
  2
*D7
  3
DMST_3
 10
1078.231001568621
 20
463.243575290757
 30
0
 11
1087.180159344297
 21
466.843575290757
 31
0
 12
0
 22
0
 32
0
 70
0
  1
15以下
 13
1063.231001568621
 23
475.243575290757
 33
0
 14
1078.231001568621
 24
475.243575290757
 34
0
 53
0
  0
DIMENSION
  8
1
  6
CONTINUOUS
 62
2
  2
*D8
  3
DMST_3
 10
1062.231001568621
 20
463.243575290757
 30
0
 11
1054.951330153922
 21
466.843575290757
 31
0
 12
0
 22
0
 32
0
 70
0
  1
3以下
 13
1063.231001568621
 23
475.243575290757
 33
0
 14
1062.231001568621
 24
550.7935752907572
 34
0
 53
0
  0
DIMENSION
  8
1
  6
CONTINUOUS
 62
2
  2
*D9
  3
DMST_3
 10
1116.43920785619
 20
466.243575290757
 30
0
 11
1107.43920785619
 21
469.843575290757
 31
0
 12
0
 22
0
 32
0
 70
0
 13
1119.93920785619
 23
476.343575290757
 33
0
 14
1116.43920785619
 24
476.243575290757
 34
0
 53
0
  0
DIMENSION
  8
1
  6
CONTINUOUS
 62
2
  2
*D10
  3
DMST_3
 10
1116.43920785619
 20
586.5781083431592
 30
0
 11
1105.094840007062
 21
590.1781083431592
 31
0
 12
0
 22
0
 32
0
 70
0
 13
1119.93920785619
 23
579.1435752907569
 33
0
 14
1116.43920785619
 24
579.243575290757
 34
0
 53
0
  0
DIMENSION
  8
1
  6
CONTINUOUS
 62
2
  2
*D11
  3
DMST_3
 10
1201.43920785619
 20
603.7000274830651
 30
0
 11
1158.969453386602
 21
607.3000274830652
 31
0
 12
0
 22
0
 32
0
 70
0
 13
1116.43920785619
 23
579.243575290757
 33
0
 14
1201.43920785619
 24
579.243575290757
 34
0
 53
0
  0
DIMENSION
  8
1
  6
CONTINUOUS
 62
2
  2
*D14
  3
DMST_2
 10
1111.439207856191
 20
572.9284105861453
 30
0
 11
1105.482677308412
 21
576.5284105861454
 31
0
 12
0
 22
0
 32
0
 70
0
 13
1116.43920785619
 23
566.543575290757
 33
0
 14
1111.439207856191
 24
566.543575290757
 34
0
 53
0
  0
DIMENSION
  8
1
  6
CONTINUOUS
 62
2
  2
*D15
  3
DMST_2
 10
1111.439207856191
 20
482.3272439892123
 30
0
 11
1105.646809856592
 21
485.9272439892123
 31
0
 12
0
 22
0
 32
0
 70
0
 13
1116.43920785619
 23
489.043575290757
 33
0
 14
1111.439207856191
 24
489.043575290757
 34
0
 53
0
  0
DIMENSION
  8
1
  6
CONTINUOUS
 62
2
  2
*D16
  3
DMST_2
 10
1119.93920785619
 20
586.5781083431592
 30
0
 11
1146.679946902302
 21
590.1781083431592
 31
0
 12
0
 22
0
 32
0
 70
0
 13
1177.93920785619
 23
481.1435752907571
 33
0
 14
1119.93920785619
 24
579.1435752907569
 34
0
 53
0
  0
DIMENSION
  8
1
  6
CONTINUOUS
 62
2
  2
*D17
  3
DMST_2
 10
1210.43920785619
 20
478.743575290757
 30
0
 11
1206.83920785619
 21
527.5556485164902
 31
0
 12
0
 22
0
 32
0
 70
0
 13
1122.190214471804
 23
576.743575290757
 33
0
 14
1122.190214471804
 24
478.743575290757
 34
0
 50
90
 53
0
  0
DIMENSION
  8
1
  6
CONTINUOUS
 62
2
  2
*D18
  3
DMST_4
 10
1021.98781528338
 20
534.3435482414477
 30
0
 11
1018.38781528338
 21
537.599922860075
 31
0
 12
0
 22
0
 32
0
 70
0
 13
1032.022795281052
 23
542.3435482414477
 33
0
 14
1032.022795281052
 24
534.3435482414477
 34
0
 50
90
 53
0
  0
DIMENSION
  8
1
  6
CONTINUOUS
 62
2
  2
*D19
  3
DMST_4
 10
948.5122980888621
 20
482.743575290757
 30
0
 11
944.912298088862
 21
479.200375716269
 31
0
 12
0
 22
0
 32
0
 70
0
  1
2-<>
 13
962.5227952810524
 23
475.243575290757
 33
0
 14
1032.522795281052
 24
482.743575290757
 34
0
 50
90
 53
0
  0
DIMENSION
  8
1
  6
CONTINUOUS
 62
2
  2
*D20
  3
DMST_4
 10
955.0227952810524
 20
493.165484815875
 30
0
 11
942.799298911751
 21
496.765484815875
 31
0
 12
0
 22
0
 32
0
 70
0
  1
2-<>
 13
962.5227952810524
 23
482.743575290757
 33
0
 14
955.0227952810524
 24
482.743575290757
 34
0
 53
0
  0
DIMENSION
  8
1
  6
CONTINUOUS
 62
2
  2
*D21
  3
DMST_4
 10
982.5227952810524
 20
485.706847001313
 30
0
 11
991.9945696035441
 21
489.306847001313
 31
0
 12
0
 22
0
 32
0
 70
0
  1
2-<>
 13
974.5227952810524
 23
482.743575290757
 33
0
 14
982.5227952810524
 24
482.743575290757
 34
0
 53
0
  0
DIMENSION
  8
1
  6
CONTINUOUS
 62
2
  2
*D22
  3
DMST_4
 10
1032.022795281052
 20
545.693338360983
 30
0
 11
1030.08123078429
 21
549.2933383609831
 31
0
 12
0
 22
0
 32
0
 70
0
 13
1040.022795281052
 23
542.3435482414477
 33
0
 14
1032.022795281052
 24
542.3435482414477
 34
0
 53
0
  0
DIMENSION
  8
1
  6
CONTINUOUS
 62
2
  2
*D23
  3
DMST_4
 10
1032.522795281052
 20
485.706847001313
 30
0
 11
1022.14650970497
 21
489.306847001313
 31
0
 12
0
 22
0
 32
0
 70
0
  1
2-<>
 13
1040.022795281052
 23
482.743575290757
 33
0
 14
1032.522795281052
 24
482.743575290757
 34
0
 53
0
  0
DIMENSION
  8
1
  6
CONTINUOUS
 62
2
  2
*D24
  3
DMST_2
 10
1119.93920785619
 20
594.2076984389233
 30
0
 11
1156.23612750589
 21
597.8076984389234
 31
0
 12
0
 22
0
 32
0
 70
0
 13
1197.93920785619
 23
523.86717007868
 33
0
 14
1119.93920785619
 24
579.1435752907569
 34
0
 53
0
  0
DIMENSION
  8
1
  6
CONTINUOUS
 62
2
  2
*D25
  3
DMST_5
 10
1197.610566395031
 20
480.462439680407
 30
0
 11
1176.05412145806
 21
467.586158861024
 31
0
 12
0
 22
0
 32
0
 70
3
  1
7-φ<>
 15
1198.267849317349
 25
477.0247109011069
 35
0
 40
0
 53
0
  0
INSERT
  8
0
  2
GI76475-15_FYD815SD3-X1_______
 10
914.5492226295538
 20
504.4914798237737
 30
0
  0
INSERT
  8
0
  2
AT22734-01_DB
 10
1192.839615702143
 20
600.5132546833139
 30
0
  0
INSERT
  8
0
  2
MOJINOMUKI
 10
1186.92710021217
 20
536.1105038741409
 30
0
  0
INSERT
  8
1
  2
*D6
 10
0
 20
0
 30
0
  0
INSERT
  8
1
  2
*D12
 10
0
 20
0
 30
0
  0
INSERT
  8
1
  2
*D13
 10
0
 20
0
 30
0
  0
ENDSEC
  0
EOF
