  0
SECTION
  2
HEADER
  9
$ACADVER
  1
AC1009
  9
$INSBASE
 10
0
 20
0
  9
$EXTMIN
 10
7.07946424993877
 20
45.36236298043885
  9
$EXTMAX
 10
347.570073108059
 20
224.5364414031385
  9
$LIMMIN
 10
7.07946424993877
 20
45.36236298043885
  9
$LIMMAX
 10
347.570073108059
 20
224.5364414031385
  9
$VIEWCTR
 10
10
 20
10
  9
$VIEWSIZE
 40
10
  9
$SNAPMODE
 70
0
  9
$SNAPUNIT
 10
1
 20
1
  9
$SNAPBASE
 10
0
 20
0
  9
$SNAPANG
 50
0
  9
$SNAPSTYLE
 70
0
  9
$SNAPISOPAIR
 70
0
  9
$GRIDMODE
 70
0
  9
$GRIDUNIT
 10
0
 20
0
  9
$ORTHOMODE
 70
0
  9
$REGENMODE
 70
1
  9
$FILLMODE
 70
1
  9
$QTEXTMODE
 70
0
  9
$DRAGMODE
 70
2
  9
$LTSCALE
 40
1
  9
$OSMODE
 70
0
  9
$ATTMODE
 70
1
  9
$TEXTSIZE
 40
3.5
  9
$TRACEWID
 40
0.5
  9
$TEXTSTYLE
  7
STANDARD
  9
$CLAYER
  8
0
  9
$CELTYPE
  6
BYLAYER
  9
$CECOLOR
 62
256
  9
$DIMSCALE
 40
1
  9
$DIMASZ
 40
0.18
  9
$DIMEXO
 40
0.0625
  9
$DIMDLI
 40
0.38
  9
$DIMRND
 40
0
  9
$DIMDLE
 40
0
  9
$DIMEXE
 40
0.18
  9
$DIMTP
 40
0
  9
$DIMTM
 40
0
  9
$DIMTXT
 40
0.18
  9
$DIMCEN
 40
0.09
  9
$DIMTSZ
 40
0
  9
$DIMTOL
 70
0
  9
$DIMLIM
 70
0
  9
$DIMTIH
 70
1
  9
$DIMTOH
 70
1
  9
$DIMSE1
 70
0
  9
$DIMSE2
 70
0
  9
$DIMTAD
 70
0
  9
$DIMZIN
 70
0
  9
$DIMBLK
  1

  9
$DIMASO
 70
1
  9
$DIMSHO
 70
1
  9
$DIMPOST
  1

  9
$DIMAPOST
  1

  9
$DIMALT
 70
0
  9
$DIMALTD
 70
2
  9
$DIMALTF
 40
25.4
  9
$DIMLFAC
 40
1
  9
$DIMTOFL
 70
0
  9
$DIMTVP
 40
0
  9
$DIMTIX
 70
0
  9
$DIMSOXD
 70
0
  9
$DIMSAH
 70
0
  9
$DIMBLK1
  1

  9
$DIMBLK2
  1

  9
$DIMSTYLE
  2
*UNNAMED
  9
$DIMCLRD
 70
0
  9
$DIMCLRE
 70
0
  9
$DIMCLRT
 70
0
  9
$DIMTFAC
 40
1
  9
$DIMGAP
 40
0.09
  9
$LUNITS
 70
2
  9
$LUPREC
 70
4
  9
$AXISMODE
 70
0
  9
$AXISUNIT
 10
0
 20
0
  9
$SKETCHINC
 40
0.1
  9
$FILLETRAD
 40
2
  9
$AUNITS
 70
0
  9
$AUPREC
 70
0
  9
$MENU
  1
ACAD
  9
$ELEVATION
 40
0
  9
$THICKNESS
 40
0
  9
$VIEWDIR
 10
0
 20
0
 30
1
  9
$LIMCHECK
 70
0
  9
$BLIPMODE
 70
1
  9
$CHAMFERA
 40
0
  9
$CHAMFERB
 40
0
  9
$FASTZOOM
 70
1
  9
$SKPOLY
 70
0
  9
$ANGBASE
 50
0
  9
$ANGDIR
 70
0
  9
$PDMODE
 70
0
  9
$PDSIZE
 40
0
  9
$PLINEWID
 40
0
  9
$COORDS
 70
2
  0
ENDSEC
  0
SECTION
  2
TABLES
  0
TABLE
  2
DIMSTYLE
 70
9
  0
DIMSTYLE
  2
DMST_1
 70
0
  3
)
  4

  5

  6

  7

 40
1
 41
3.2
 42
1
 43
7
 44
1.5
 45
0
 46
0
 47
0
 48
0
140
3.2
141
0
142
0
143
25.4
144
1
145
0
146
1
147
0.09
 71
0
 72
0
 73
0
 74
0
 75
0
 76
0
 77
1
 78
9
170
0
171
2
172
0
173
0
174
0
175
0
176
2
177
2
178
2
  0
DIMSTYLE
  2
DMST_2
 70
0
  3

  4

  5

  6

  7

 40
1
 41
3.2
 42
1
 43
7
 44
1.5
 45
0
 46
0
 47
20
 48
0
140
3.2
141
0
142
0
143
25.4
144
1
145
0
146
0.6
147
0.09
 71
1
 72
0
 73
0
 74
0
 75
0
 76
0
 77
1
 78
9
170
0
171
2
172
0
173
0
174
0
175
0
176
2
177
2
178
2
  0
DIMSTYLE
  2
DMST_3
 70
0
  3

  4

  5

  6

  7

 40
1
 41
3.2
 42
1
 43
7
 44
1.5
 45
0
 46
0
 47
0
 48
0.02
140
3.2
141
0
142
0
143
25.4
144
1
145
0
146
0.6
147
0.09
 71
1
 72
0
 73
0
 74
0
 75
0
 76
0
 77
1
 78
9
170
0
171
2
172
0
173
0
174
0
175
0
176
2
177
2
178
2
  0
DIMSTYLE
  2
DMST_4
 70
0
  3

  4

  5

  6

  7

 40
1
 41
3.2
 42
1
 43
7
 44
1.5
 45
0
 46
0
 47
0
 48
0
140
3.2
141
0
142
0
143
25.4
144
1
145
0
146
1
147
0.09
 71
0
 72
0
 73
0
 74
0
 75
0
 76
0
 77
1
 78
9
170
0
171
2
172
0
173
0
174
0
175
0
176
2
177
2
178
2
  0
DIMSTYLE
  2
DMST_5
 70
0
  3

  4

  5

  6

  7

 40
1
 41
3.2
 42
1
 43
7
 44
1.5
 45
0
 46
0
 47
0
 48
0.03
140
3.2
141
0
142
0
143
25.4
144
1
145
0
146
0.6
147
0.09
 71
1
 72
0
 73
0
 74
0
 75
0
 76
0
 77
1
 78
9
170
0
171
2
172
0
173
0
174
0
175
0
176
2
177
2
178
2
  0
DIMSTYLE
  2
DMST_6
 70
0
  3

  4

  5

  6

  7

 40
1
 41
3.2
 42
1
 43
7
 44
1.5
 45
0
 46
0
 47
0.3
 48
0.3
140
3.2
141
0
142
0
143
25.4
144
1
145
0
146
0.6
147
0.09
 71
1
 72
0
 73
0
 74
0
 75
0
 76
0
 77
1
 78
9
170
0
171
2
172
0
173
0
174
0
175
0
176
2
177
2
178
2
  0
DIMSTYLE
  2
DMST_7
 70
0
  3

  4

  5

  6

  7

 40
1
 41
4.800000000000001
 42
1
 43
7
 44
1.5
 45
0
 46
0
 47
0
 48
0
140
3.2
141
0
142
0
143
25.4
144
1
145
0
146
1
147
0.09
 71
0
 72
0
 73
0
 74
0
 75
0
 76
0
 77
1
 78
9
170
0
171
2
172
0
173
0
174
0
175
0
176
2
177
2
178
2
  0
DIMSTYLE
  2
DMST_8
 70
0
  3
）
  4

  5

  6

  7

 40
1
 41
3.2
 42
1
 43
7
 44
1.5
 45
0
 46
0
 47
0
 48
0
140
3.2
141
0
142
0
143
25.4
144
1
145
0
146
1
147
0.09
 71
0
 72
0
 73
1
 74
1
 75
0
 76
0
 77
1
 78
9
170
0
171
2
172
1
173
0
174
0
175
0
176
2
177
2
178
2
  0
DIMSTYLE
  2
DMST_9
 70
0
  3
穴 HOLES
  4

  5

  6

  7

 40
1
 41
3.2
 42
1
 43
7
 44
1.5
 45
0
 46
0
 47
0
 48
0
140
3.2
141
0
142
0
143
25.4
144
1
145
0
146
1
147
0.09
 71
0
 72
0
 73
1
 74
1
 75
0
 76
0
 77
1
 78
9
170
0
171
2
172
1
173
0
174
0
175
0
176
2
177
2
178
2
  0
ENDTAB
  0
TABLE
  2
LTYPE
 70
9
  0
LTYPE
  2
CONTINUOUS
 70
64
  3
Solid line
 72
65
 73
0
 40
0
  0
LTYPE
  2
BORDER
 70
64
  3
__ __ . __ __ .
 72
65
 73
6
 40
15.68048856583448
 49
4.480139590238424
 49
-2.240069795119212
 49
4.480139590238424
 49
-2.240069795119212
 49
0
 49
-2.240069795119212
  0
LTYPE
  2
CENTER
 70
64
  3
____ _ ____ _
 72
65
 73
4
 40
17.9205583609537
 49
11.20034897559606
 49
-2.240069795119212
 49
2.240069795119212
 49
-2.240069795119212
  0
LTYPE
  2
DASHDOT
 70
64
  3
__ . __ . __ .
 72
65
 73
4
 40
8.960279180476848
 49
4.480139590238424
 49
-2.240069795119212
 49
0
 49
-2.240069795119212
  0
LTYPE
  2
DASHED
 70
64
  3
__ __ __ __ __
 72
65
 73
2
 40
6.720209385357636
 49
4.480139590238424
 49
-2.240069795119212
  0
LTYPE
  2
DIVIDE
 70
64
  3
__ . . __ . . 
 72
65
 73
6
 40
11.20034897559606
 49
4.480139590238424
 49
-2.240069795119212
 49
0
 49
-2.240069795119212
 49
0
 49
-2.240069795119212
  0
LTYPE
  2
DOT
 70
64
  3
..............
 72
65
 73
4
 40
4.480139590238424
 49
0
 49
-2.240069795119212
 49
0
 49
-2.240069795119212
  0
LTYPE
  2
HIDDEN
 70
64
  3
_ _ _ _ _ _ _
 72
65
 73
2
 40
3.360104692678818
 49
2.240069795119212
 49
-1.120034897559606
  0
LTYPE
  2
PHANTOM
 70
64
  3
_____ _ _ _____ _ _ 
 72
65
 73
6
 40
22.40069795119212
 49
11.20034897559606
 49
-2.240069795119212
 49
2.240069795119212
 49
-2.240069795119212
 49
2.240069795119212
 49
-2.240069795119212
  0
ENDTAB
  0
TABLE
  2
LAYER
 70
3
  0
LAYER
  2
1
 70
0
 62
7
  6
CONTINUOUS
  0
LAYER
  2
0
 70
0
 62
7
  6
CONTINUOUS
  0
ENDTAB
  0
TABLE
  2
STYLE
 70
4
  0
STYLE
  2
STANDARD
 70
0
 40
0
 41
1
 50
0
 71
0
 42
3.5
  3
txt
  4

  0
STYLE
  2
SIMPLEX
 70
0
 40
0
 41
1
 50
0
 71
0
 42
3.5
  3
simplex
  4

  0
STYLE
  2
COMPLEX
 70
0
 40
0
 41
1
 50
0
 71
0
 42
3.5
  3
complex
  4

  0
STYLE
  2
ITALIC
 70
0
 40
0
 41
1
 50
0
 71
0
 42
3.5
  3
italic
  4

  0
ENDTAB
  0
TABLE
  2
VIEW
 70
0
  0
ENDTAB
  0
ENDSEC
  0
SECTION
  2
BLOCKS
  0
BLOCK
  8
0
  2
HENKOU_A
 70
0
 10
341.5656968122499
 20
186.143050712647
 30
0
  0
LINE
  8
1
 62
2
 10
341.5656968122499
 20
186.143050712647
 30
0
 11
345.8958238311722
 21
186.143050712647
 31
0
  0
LINE
  8
1
 62
2
 10
345.8958238311722
 20
186.143050712647
 30
0
 11
343.7307603217111
 21
189.893050712647
 31
0
  0
LINE
  8
1
 62
2
 10
343.7307603217111
 20
189.893050712647
 30
0
 11
341.5656968122499
 21
186.143050712647
 31
0
  0
TEXT
  8
1
 62
2
 10
342.8307603217111
 20
186.393050712647
 30
0
 40
2
  1
A
 41
0.9
 72
1
 73
2
 11
343.7307603217111
 21
187.393050712647
 31
0
  0
ENDBLK
  8
0
  0
BLOCK
  8
0
  2
_4__S
 70
0
 10
358.485516850894
 20
139.384668731707
 30
0
  0
LINE
  8
1
 62
2
 10
329.5032335165636
 20
149.9174818384584
 30
0
 11
355.5032335165636
 21
149.9174818384584
 31
0
  0
LINE
  8
1
 62
2
 10
355.5032335165636
 20
149.9174818384584
 30
0
 11
355.5032335165636
 21
141.6388031270261
 31
0
  0
LINE
  8
1
 62
2
 10
355.5032335165636
 20
141.6388031270261
 30
0
 11
329.5032335165636
 21
141.6388031270261
 31
0
  0
LINE
  8
1
 62
2
 10
329.5032335165636
 20
141.6388031270261
 30
0
 11
329.5032335165636
 21
149.9174818384584
 31
0
  0
LINE
  8
1
 62
2
 10
335.5032335165636
 20
149.9174818384584
 30
0
 11
335.5032335165636
 21
141.6388031270261
 31
0
  0
LINE
  8
1
 62
2
 10
332.5032335165636
 20
142.1388031270261
 30
0
 11
332.5032335165636
 21
149.4174818384584
 31
0
  0
LINE
  8
1
 62
2
 10
332.5032335165636
 20
149.4174818384584
 30
0
 11
331.0032335165636
 21
146.9174818384584
 31
0
  0
LINE
  8
1
 62
2
 10
331.0032335165636
 20
146.9174818384584
 30
0
 11
333.5032335165636
 21
146.9174818384584
 31
0
  0
TEXT
  8
1
 62
2
 10
335.0979604284289
 20
142.7309976308869
 30
0
 40
3
  1
LETTER DIR.
 41
0.6300000000000001
 72
1
 73
2
 11
345.4929604284289
 21
144.2309976308869
 31
0
  0
TEXT
  8
1
 62
2
 10
329.8525644875119
 20
146.4706310213048
 30
0
 40
3
  1
文字の向き
 41
0.9
 72
1
 73
2
 11
343.3525644875119
 21
147.9706310213048
 31
0
  0
ENDBLK
  8
0
  0
BLOCK
  8
1
  2
*D0
 70
1
 10
0
 20
0
 30
0
  0
LINE
  8
1
 62
2
 10
281.402964385421
 20
172.4495644708099
 30
0
 11
291.402964385421
 21
172.4495644708099
 31
0
  0
LINE
  8
1
 62
2
 10
291.402964385421
 20
167.414210414331
 30
0
 11
291.402964385421
 21
173.9495644708099
 31
0
  0
LINE
  8
1
 62
2
 10
281.402964385421
 20
167.414210414331
 30
0
 11
281.402964385421
 21
173.9495644708099
 31
0
  0
SOLID
  8
1
 62
2
 10
281.402964385421
 20
172.4495644708099
 30
0
 11
284.602964385421
 21
172.8655644708099
 31
0
 12
284.602964385421
 22
172.0335644708099
 32
0
 13
284.602964385421
 23
172.0335644708099
 33
0
  0
SOLID
  8
1
 62
2
 10
291.402964385421
 20
172.4495644708099
 30
0
 11
288.202964385421
 21
172.0335644708099
 31
0
 12
288.202964385421
 22
172.8655644708099
 32
0
 13
288.202964385421
 23
172.8655644708099
 33
0
  0
TEXT
  8
1
 62
2
 10
284.3589773245631
 20
174.4495644708099
 30
0
 40
3.2
  1
10
 41
0.9
  0
TEXT
  8
1
 62
2
 10
282.2789773245631
 20
174.4495644708099
 30
0
 40
3.2
  1
(
 41
0.9
  0
TEXT
  8
1
 62
2
 10
289.7989773245631
 20
174.4495644708099
 30
0
 40
3.2
  1
)
 41
0.9
  0
ENDBLK
  8
0
  0
BLOCK
  8
1
  2
*D1
 70
1
 10
0
 20
0
 30
0
  0
LINE
  8
1
 62
2
 10
291.4029643854211
 20
172.5280650727109
 30
0
 11
327.2490827850652
 21
172.5280650727109
 31
0
  0
LINE
  8
1
 62
2
 10
327.2490827850652
 20
168.9042104143309
 30
0
 11
327.2490827850652
 21
174.0280650727109
 31
0
  0
LINE
  8
1
 62
2
 10
291.4029643854211
 20
167.594210414331
 30
0
 11
291.4029643854211
 21
174.0280650727109
 31
0
  0
SOLID
  8
1
 62
2
 10
327.2490827850652
 20
172.5280650727109
 30
0
 11
324.0490827850653
 21
172.1120650727109
 31
0
 12
324.0490827850653
 22
172.9440650727109
 32
0
 13
324.0490827850653
 23
172.9440650727109
 33
0
  0
SOLID
  8
1
 62
2
 10
291.4029643854211
 20
172.5280650727109
 30
0
 11
294.6029643854211
 21
172.9440650727109
 31
0
 12
294.6029643854211
 22
172.1120650727109
 32
0
 13
294.6029643854211
 23
172.1120650727109
 33
0
  0
TEXT
  8
1
 62
2
 10
302.0391506718981
 20
175.3280650727109
 30
0
 40
3.2
  1
300
 41
0.9
  0
TEXT
  8
1
 62
2
 10
311.3191506718981
 20
177.4080650727109
 30
0
 40
1.92
  1
+20
 41
0.9
  0
TEXT
  8
1
 62
2
 10
311.3191506718981
 20
174.5280650727109
 30
0
 40
1.92
  1
 0
 41
0.9
  0
ENDBLK
  8
0
  0
BLOCK
  8
1
  2
*D2
 70
1
 10
0
 20
0
 30
0
  0
LINE
  8
1
 62
2
 10
180.481170833234
 20
162.1331355063601
 30
0
 11
180.481170833234
 21
168.5331355063601
 31
0
  0
LINE
  8
1
 62
2
 10
180.481170833234
 20
156.13313550636
 30
0
 11
180.481170833234
 21
149.73313550636
 31
0
  0
LINE
  8
1
 62
2
 10
180.481170833234
 20
156.13313550636
 30
0
 11
180.481170833234
 21
162.1331355063601
 31
0
  0
LINE
  8
1
 62
2
 10
185.8120791445306
 20
162.1331355063601
 30
0
 11
178.981170833234
 21
162.1331355063601
 31
0
  0
LINE
  8
1
 62
2
 10
185.8120791445306
 20
156.13313550636
 30
0
 11
178.981170833234
 21
156.13313550636
 31
0
  0
SOLID
  8
1
 62
2
 10
180.481170833234
 20
162.1331355063601
 30
0
 11
180.065170833234
 21
165.3331355063601
 31
0
 12
180.897170833234
 22
165.3331355063601
 32
0
 13
180.897170833234
 23
165.3331355063601
 33
0
  0
SOLID
  8
1
 62
2
 10
180.481170833234
 20
156.13313550636
 30
0
 11
180.897170833234
 21
152.93313550636
 31
0
 12
180.065170833234
 22
152.93313550636
 32
0
 13
180.065170833234
 23
152.93313550636
 33
0
  0
TEXT
  8
1
 62
2
 10
177.6278374999006
 20
155.5461615426572
 30
0
 40
3.2
  1
6
 50
90
 41
0.9
  0
TEXT
  8
1
 62
2
 10
175.5478374999007
 20
159.0661615426572
 30
0
 40
1.92
  1
 0
 50
90
 41
0.9
  0
TEXT
  8
1
 62
2
 10
178.4278374999007
 20
159.0661615426572
 30
0
 40
1.92
  1
-0.02
 50
90
 41
0.9
  0
TEXT
  8
1
 62
2
 10
177.6278374999006
 20
151.4991027191278
 30
0
 40
3.2
  1
φ
 50
90
 41
0.9
  0
ENDBLK
  8
0
  0
BLOCK
  8
1
  2
*D3
 70
1
 10
0
 20
0
 30
0
  0
LINE
  8
1
 62
2
 10
210.8120791445305
 20
219.3364414031385
 30
0
 11
259.3120791445305
 21
219.3364414031385
 31
0
  0
LINE
  8
1
 62
2
 10
259.3120791445305
 20
187.8259007206795
 30
0
 11
259.3120791445305
 21
220.8364414031385
 31
0
  0
LINE
  8
1
 62
2
 10
210.8120791445305
 20
190.6331355063601
 30
0
 11
210.8120791445305
 21
220.8364414031385
 31
0
  0
SOLID
  8
1
 62
2
 10
210.8120791445305
 20
219.3364414031385
 30
0
 11
214.0120791445305
 21
219.7524414031385
 31
0
 12
214.0120791445305
 22
218.9204414031385
 32
0
 13
214.0120791445305
 23
218.9204414031385
 33
0
  0
SOLID
  8
1
 62
2
 10
259.3120791445305
 20
219.3364414031385
 30
0
 11
256.1120791445305
 21
218.9204414031385
 31
0
 12
256.1120791445305
 22
219.7524414031385
 32
0
 13
256.1120791445305
 23
219.7524414031385
 33
0
  0
TEXT
  8
1
 62
2
 10
228.4279044116399
 20
221.3364414031385
 30
0
 40
3.2
  1
48.5
 41
0.9
  0
ENDBLK
  8
0
  0
BLOCK
  8
1
  2
*D4
 70
1
 10
0
 20
0
 30
0
  0
LINE
  8
1
 62
2
 10
129.2535589368369
 20
119.1331355063584
 30
0
 11
129.2535589368369
 21
159.1331355063601
 31
0
  0
LINE
  8
1
 62
2
 10
121.4635133979687
 20
159.1331355063601
 30
0
 11
130.7535589368369
 21
159.1331355063601
 31
0
  0
LINE
  8
1
 62
2
 10
111.7135133979687
 20
119.1331355063584
 30
0
 11
130.7535589368369
 21
119.1331355063584
 31
0
  0
SOLID
  8
1
 62
2
 10
129.2535589368369
 20
159.1331355063601
 30
0
 11
129.6695589368369
 21
155.9331355063601
 31
0
 12
128.8375589368369
 22
155.9331355063601
 32
0
 13
128.8375589368369
 23
155.9331355063601
 33
0
  0
SOLID
  8
1
 62
2
 10
129.2535589368369
 20
119.1331355063584
 30
0
 11
128.8375589368369
 21
122.3331355063584
 31
0
 12
129.6695589368369
 22
122.3331355063584
 32
0
 13
129.6695589368369
 23
122.3331355063584
 33
0
  0
TEXT
  8
1
 62
2
 10
127.2535589368369
 20
137.4523484319695
 30
0
 40
3.2
  1
40
 50
90
 41
0.9
  0
ENDBLK
  8
0
  0
BLOCK
  8
1
  2
*D5
 70
1
 10
0
 20
0
 30
0
  0
LINE
  8
1
 62
2
 10
62.21351339796875
 20
108.9353449542355
 30
0
 11
112.7135133979688
 21
108.9353449542355
 31
0
  0
LINE
  8
1
 62
2
 10
112.7135133979688
 20
120.1331355063584
 30
0
 11
112.7135133979688
 21
107.4353449542355
 31
0
  0
LINE
  8
1
 62
2
 10
62.21351339796875
 20
120.1331355063601
 30
0
 11
62.21351339796875
 21
107.4353449542355
 31
0
  0
SOLID
  8
1
 62
2
 10
62.21351339796875
 20
108.9353449542355
 30
0
 11
65.41351339796876
 21
109.3513449542355
 31
0
 12
65.41351339796876
 22
108.5193449542355
 32
0
 13
65.41351339796876
 23
108.5193449542355
 33
0
  0
SOLID
  8
1
 62
2
 10
112.7135133979688
 20
108.9353449542355
 30
0
 11
109.5135133979688
 21
108.5193449542355
 31
0
 12
109.5135133979688
 22
109.3513449542355
 32
0
 13
109.5135133979688
 23
109.3513449542355
 33
0
  0
TEXT
  8
1
 62
2
 10
82.79256125230995
 20
110.9353449542355
 30
0
 40
3.2
  1
50.5
 41
0.9
  0
ENDBLK
  8
0
  0
BLOCK
  8
1
  2
*D6
 70
1
 10
0
 20
0
 30
0
  0
LINE
  8
1
 62
2
 10
39.33297839948165
 20
128.6331355063598
 30
0
 11
39.33297839948165
 21
189.6331355063601
 31
0
  0
LINE
  8
1
 62
2
 10
61.46351339796874
 20
189.6331355063601
 30
0
 11
37.83297839948165
 21
189.6331355063601
 31
0
  0
LINE
  8
1
 62
2
 10
61.46351339796874
 20
128.6331355063598
 30
0
 11
37.83297839948165
 21
128.6331355063598
 31
0
  0
SOLID
  8
1
 62
2
 10
39.33297839948165
 20
189.6331355063601
 30
0
 11
39.74897839948165
 21
186.4331355063601
 31
0
 12
38.91697839948165
 22
186.4331355063601
 32
0
 13
38.91697839948165
 23
186.4331355063601
 33
0
  0
SOLID
  8
1
 62
2
 10
39.33297839948165
 20
128.6331355063598
 30
0
 11
38.91697839948165
 21
131.8331355063598
 31
0
 12
39.74897839948165
 22
131.8331355063598
 32
0
 13
39.74897839948165
 23
131.8331355063598
 33
0
  0
TEXT
  8
1
 62
2
 10
37.33297839948165
 20
156.6567308198935
 30
0
 40
3.2
  1
61
 50
90
 41
0.9
  0
ENDBLK
  8
0
  0
BLOCK
  8
1
  2
*D7
 70
1
 10
0
 20
0
 30
0
  0
LINE
  8
1
 62
2
 10
210.8120791445306
 20
198.5492795830603
 30
0
 11
216.8120791445306
 21
198.5492795830603
 31
0
  0
LINE
  8
1
 62
2
 10
216.8120791445306
 20
190.5331355063602
 30
0
 11
216.8120791445306
 21
200.0492795830603
 31
0
  0
LINE
  8
1
 62
2
 10
210.8120791445306
 20
190.6331355063601
 30
0
 11
210.8120791445306
 21
200.0492795830603
 31
0
  0
SOLID
  8
1
 62
2
 10
216.8120791445306
 20
198.5492795830603
 30
0
 11
213.6120791445306
 21
198.1332795830603
 31
0
 12
213.6120791445306
 22
198.9652795830603
 32
0
 13
213.6120791445306
 23
198.9652795830603
 33
0
  0
TEXT
  8
1
 62
2
 10
213.7630285017645
 20
200.5492795830603
 30
0
 40
3.2
  1
6
 41
0.9
  0
ENDBLK
  8
0
  0
BLOCK
  8
1
  2
*D8
 70
1
 10
0
 20
0
 30
0
  0
LINE
  8
1
 62
2
 10
208.8120791445306
 20
198.5492795830603
 30
0
 11
202.4120791445306
 21
198.5492795830603
 31
0
  0
LINE
  8
1
 62
2
 10
208.8120791445306
 20
198.5492795830603
 30
0
 11
210.8120791445306
 21
198.5492795830603
 31
0
  0
LINE
  8
1
 62
2
 10
210.8120791445306
 20
198.5492795830603
 30
0
 11
210.8120791445306
 21
198.5492795830603
 31
0
  0
LINE
  8
1
 62
2
 10
210.8120791445306
 20
190.6331355063601
 30
0
 11
210.8120791445306
 21
200.0492795830603
 31
0
  0
LINE
  8
1
 62
2
 10
208.8120791445306
 20
187.1331355063601
 30
0
 11
208.8120791445306
 21
200.0492795830603
 31
0
  0
SOLID
  8
1
 62
2
 10
208.8120791445306
 20
198.5492795830603
 30
0
 11
205.6120791445306
 21
198.1332795830603
 31
0
 12
205.6120791445306
 22
198.9652795830603
 32
0
 13
205.6120791445306
 23
198.9652795830603
 33
0
  0
TEXT
  8
1
 62
2
 10
203.6955121994705
 20
200.5492795830603
 30
0
 40
3.2
  1
2
 41
0.9
  0
ENDBLK
  8
0
  0
BLOCK
  8
1
  2
*D9
 70
1
 10
0
 20
0
 30
0
  0
LINE
  8
1
 62
2
 10
167.6224039473275
 20
132.1331355063599
 30
0
 11
167.6224039473275
 21
186.1331355063601
 31
0
  0
LINE
  8
1
 62
2
 10
207.8120791445306
 20
132.1331355063599
 30
0
 11
166.1224039473275
 21
132.1331355063599
 31
0
  0
LINE
  8
1
 62
2
 10
207.8120791445306
 20
186.1331355063601
 30
0
 11
166.1224039473275
 21
186.1331355063601
 31
0
  0
SOLID
  8
1
 62
2
 10
167.6224039473275
 20
186.1331355063601
 30
0
 11
168.0384039473275
 21
182.9331355063601
 31
0
 12
167.2064039473275
 22
182.9331355063601
 32
0
 13
167.2064039473275
 23
182.9331355063601
 33
0
  0
SOLID
  8
1
 62
2
 10
167.6224039473275
 20
132.1331355063599
 30
0
 11
167.2064039473275
 21
135.3331355063599
 31
0
 12
168.0384039473275
 22
135.3331355063599
 32
0
 13
168.0384039473275
 23
135.3331355063599
 33
0
  0
TEXT
  8
1
 62
2
 10
164.7690706139941
 20
151.4341244745941
 30
0
 40
3.2
  1
54h7
 50
90
 41
0.9
  0
TEXT
  8
1
 62
2
 10
162.6890706139942
 20
163.5941244745941
 30
0
 40
1.92
  1
 0
 50
90
 41
0.9
  0
TEXT
  8
1
 62
2
 10
165.5690706139941
 20
163.5941244745941
 30
0
 40
1.92
  1
-0.03
 50
90
 41
0.9
  0
TEXT
  8
1
 62
2
 10
164.7690706139941
 20
147.3870656510647
 30
0
 40
3.2
  1
φ
 50
90
 41
0.9
  0
ENDBLK
  8
0
  0
BLOCK
  8
1
  2
*D10
 70
1
 10
0
 20
0
 30
0
  0
LINE
  8
1
 62
2
 10
56.96351339796874
 20
208.6599103259065
 30
0
 11
117.9635133979688
 21
208.6599103259065
 31
0
  0
LINE
  8
1
 62
2
 10
56.96351339796874
 20
185.1331355063601
 30
0
 11
56.96351339796874
 21
210.1599103259065
 31
0
  0
LINE
  8
1
 62
2
 10
117.9635133979688
 20
185.1331355063601
 30
0
 11
117.9635133979688
 21
210.1599103259065
 31
0
  0
SOLID
  8
1
 62
2
 10
56.96351339796874
 20
208.6599103259065
 30
0
 11
60.16351339796874
 21
209.0759103259065
 31
0
 12
60.16351339796874
 22
208.2439103259065
 32
0
 13
60.16351339796874
 23
208.2439103259065
 33
0
  0
SOLID
  8
1
 62
2
 10
117.9635133979688
 20
208.6599103259065
 30
0
 11
114.7635133979688
 21
208.2439103259065
 31
0
 12
114.7635133979688
 22
209.0759103259065
 32
0
 13
114.7635133979688
 23
209.0759103259065
 33
0
  0
TEXT
  8
1
 62
2
 10
84.64342746424795
 20
210.6599103259065
 30
0
 40
3.2
  1
61
 41
0.9
  0
ENDBLK
  8
0
  0
BLOCK
  8
1
  2
*D11
 70
1
 10
0
 20
0
 30
0
  0
LINE
  8
1
 62
2
 10
62.71351339796874
 20
197.7737696301645
 30
0
 11
112.2135133979689
 21
197.7737696301645
 31
0
  0
LINE
  8
1
 62
2
 10
62.71351339796874
 20
188.7135228433765
 30
0
 11
62.71351339796874
 21
199.2737696301645
 31
0
  0
LINE
  8
1
 62
2
 10
112.2135133979689
 20
188.7135228433765
 30
0
 11
112.2135133979689
 21
199.2737696301645
 31
0
  0
SOLID
  8
1
 62
2
 10
62.71351339796874
 20
197.7737696301645
 30
0
 11
65.91351339796874
 21
198.1897696301645
 31
0
 12
65.91351339796874
 22
197.3577696301645
 32
0
 13
65.91351339796874
 23
197.3577696301645
 33
0
  0
SOLID
  8
1
 62
2
 10
112.2135133979689
 20
197.7737696301645
 30
0
 11
109.0135133979689
 21
197.3577696301645
 31
0
 12
109.0135133979689
 22
198.1897696301645
 32
0
 13
109.0135133979689
 23
198.1897696301645
 33
0
  0
TEXT
  8
1
 62
2
 10
79.94004153382295
 20
199.7737696301645
 30
0
 40
3.2
  1
49.5
 41
0.9
  0
TEXT
  8
1
 62
2
 10
90.42004153382295
 20
200.4137696301645
 30
0
 40
1.92
  1
%%p0.3
 41
0.9
  0
ENDBLK
  8
0
  0
BLOCK
  8
1
  2
*D12
 70
1
 10
0
 20
0
 30
0
  0
LINE
  8
1
 62
2
 10
48.82480638567586
 20
134.3831355063601
 30
0
 11
48.82480638567586
 21
183.8831355063602
 31
0
  0
LINE
  8
1
 62
2
 10
57.88312606095235
 20
134.3831355063601
 30
0
 11
47.32480638567586
 21
134.3831355063601
 31
0
  0
LINE
  8
1
 62
2
 10
57.88312606095235
 20
183.8831355063602
 30
0
 11
47.32480638567586
 21
183.8831355063602
 31
0
  0
SOLID
  8
1
 62
2
 10
48.82480638567586
 20
183.8831355063602
 30
0
 11
49.24080638567585
 21
180.6831355063602
 31
0
 12
48.40880638567586
 22
180.6831355063602
 32
0
 13
48.40880638567586
 23
180.6831355063602
 33
0
  0
SOLID
  8
1
 62
2
 10
48.82480638567586
 20
134.3831355063601
 30
0
 11
48.40880638567585
 21
137.5831355063601
 31
0
 12
49.24080638567585
 22
137.5831355063601
 32
0
 13
49.24080638567585
 23
137.5831355063601
 33
0
  0
TEXT
  8
1
 62
2
 10
46.82480638567586
 20
151.5974058385425
 30
0
 40
3.2
  1
49.5
 50
90
 41
0.9
  0
TEXT
  8
1
 62
2
 10
46.18480638567586
 20
162.0774058385425
 30
0
 40
1.92
  1
%%p0.3
 50
90
 41
0.9
  0
ENDBLK
  8
0
  0
BLOCK
  8
1
  2
*D13
 70
1
 10
0
 20
0
 30
0
  0
LINE
  8
1
 62
2
 10
186.8120791445306
 20
219.3364414031385
 30
0
 11
210.8120791445306
 21
219.3364414031385
 31
0
  0
LINE
  8
1
 62
2
 10
210.8120791445306
 20
190.6331355063601
 30
0
 11
210.8120791445306
 21
220.8364414031385
 31
0
  0
LINE
  8
1
 62
2
 10
186.8120791445306
 20
163.1331355063601
 30
0
 11
186.8120791445306
 21
220.8364414031385
 31
0
  0
SOLID
  8
1
 62
2
 10
186.8120791445306
 20
219.3364414031385
 30
0
 11
191.6120791445306
 21
219.9604414031385
 31
0
 12
191.6120791445306
 22
218.7124414031385
 32
0
 13
191.6120791445306
 23
218.7124414031385
 33
0
  0
SOLID
  8
1
 62
2
 10
210.8120791445306
 20
219.3364414031385
 30
0
 11
206.0120791445306
 21
218.7124414031385
 31
0
 12
206.0120791445306
 22
219.9604414031385
 32
0
 13
206.0120791445306
 23
219.9604414031385
 33
0
  0
TEXT
  8
1
 62
2
 10
196.333840419551
 20
221.3364414031385
 30
0
 40
3.2
  1
24
 41
0.9
  0
ENDBLK
  8
0
  0
BLOCK
  8
1
  2
*D14
 70
1
 10
0
 20
0
 30
0
  0
LINE
  8
1
 62
2
 10
114.8856986090648
 20
180.8851183642134
 30
0
 11
35.76369186116196
 21
118.1235068729845
 31
0
  0
LINE
  8
1
 62
2
 10
35.76369186116196
 20
118.1235068729845
 30
0
 11
14.46957421410314
 21
118.1235068729845
 31
0
  0
SOLID
  8
1
 62
2
 10
60.04132818687266
 20
137.3811526485069
 30
0
 11
62.28984683536386
 21
139.6957195383131
 31
0
 12
62.80689616276146
 22
139.0438882771437
 32
0
 13
62.80689616276146
 23
139.0438882771437
 33
0
  0
SOLID
  8
1
 62
2
 10
114.8856986090648
 20
180.8851183642134
 30
0
 11
112.6371799605736
 21
178.5705514744072
 31
0
 12
112.120130633176
 22
179.2223827355766
 32
0
 13
112.120130633176
 23
179.2223827355766
 33
0
  0
TEXT
  8
1
 62
2
 10
22.28133891998549
 20
120.9768402063179
 30
0
 40
3.2
  1
70
 41
0.9
  0
TEXT
  8
1
 62
2
 10
14.46957421410314
 20
120.9768402063179
 30
0
 40
3.2
  1
（φ
 41
0.9
  0
TEXT
  8
1
 62
2
 10
28.68133891998549
 20
120.9768402063179
 30
0
 40
3.2
  1
）
 41
0.9
  0
ENDBLK
  8
0
  0
BLOCK
  8
1
  2
*D15
 70
1
 10
0
 20
0
 30
0
  0
LINE
  8
1
 62
2
 10
65.19130515058971
 20
140.9833664137333
 30
0
 11
50.41122895582114
 21
101.6128601511095
 31
0
  0
LINE
  8
1
 62
2
 10
50.41122895582114
 20
101.6128601511095
 30
0
 11
7.07946424993877
 21
101.6128601511095
 31
0
  0
SOLID
  8
1
 62
2
 10
61.92272879606843
 20
132.2766788337943
 30
0
 11
61.18751779593794
 21
129.134622057527
 31
0
 12
60.40859692857135
 22
129.4270366303186
 32
0
 13
60.40859692857135
 23
129.4270366303186
 33
0
  0
SOLID
  8
1
 62
2
 10
63.50429799986905
 20
136.489592178926
 30
0
 11
64.23950899999954
 21
139.6316489551933
 31
0
 12
65.01842986736612
 22
139.3392343824017
 32
0
 13
65.01842986736612
 23
139.3392343824017
 33
0
  0
TEXT
  8
1
 62
2
 10
16.56652307346818
 20
104.4661934844429
 30
0
 40
3.2
  1
4.5
 41
0.9
  0
TEXT
  8
1
 62
2
 10
7.07946424993877
 20
104.4661934844429
 30
0
 40
3.2
  1
4-φ
 41
0.9
  0
TEXT
  8
1
 62
2
 10
24.16652307346818
 20
104.4661934844429
 30
0
 40
3.2
  1
穴 HOLES
 41
0.9
  0
ENDBLK
  8
0
  0
ENDSEC
  0
SECTION
  2
ENTITIES
  0
LINE
  8
1
 62
40
 10
308.6786932916388
 20
157.614210414331
 30
0
 11
327.2490827850652
 21
157.614210414331
 31
0
  0
LINE
  8
1
 62
40
 10
308.6569180273106
 20
158.594210414331
 30
0
 11
327.2490827850652
 21
158.594210414331
 31
0
  0
LINE
  8
1
 62
40
 10
308.7424342722703
 20
159.614210414331
 30
0
 11
327.2490827850652
 21
159.614210414331
 31
0
  0
LINE
  8
1
 62
40
 10
308.9046542786222
 20
160.594210414331
 30
0
 11
327.2490827850652
 21
160.594210414331
 31
0
  0
LINE
  8
1
 62
40
 10
309.1156747822244
 20
161.614210414331
 30
0
 11
327.2490827850652
 21
161.614210414331
 31
0
  0
LINE
  8
1
 62
40
 10
309.3191970216908
 20
162.594210414331
 30
0
 11
327.2490827850652
 21
162.594210414331
 31
0
  0
LINE
  8
1
 62
40
 10
309.4898368142671
 20
163.614210414331
 30
0
 11
327.2490827850652
 21
163.614210414331
 31
0
  0
LINE
  8
1
 62
40
 10
309.5749947651874
 20
164.594210414331
 30
0
 11
327.2490827850652
 21
164.594210414331
 31
0
  0
LINE
  8
1
 62
40
 10
309.5415747863948
 20
165.614210414331
 30
0
 11
327.2490827850652
 21
165.614210414331
 31
0
  0
LINE
  8
1
 62
40
 10
309.3560646652565
 20
166.594210414331
 30
0
 11
327.2490827850652
 21
166.594210414331
 31
0
  0
LINE
  8
1
 62
40
 10
291.402964385421
 20
157.614210414331
 30
0
 11
307.6786932916388
 21
157.614210414331
 31
0
  0
LINE
  8
1
 62
40
 10
291.402964385421
 20
158.594210414331
 30
0
 11
307.6569180273106
 21
158.594210414331
 31
0
  0
LINE
  8
1
 62
40
 10
291.402964385421
 20
160.594210414331
 30
0
 11
307.9046542786222
 21
160.5942104143309
 31
0
  0
LINE
  8
1
 62
40
 10
291.402964385421
 20
159.614210414331
 30
0
 11
307.7424342722703
 21
159.614210414331
 31
0
  0
LINE
  8
1
 62
40
 10
291.402964385421
 20
162.594210414331
 30
0
 11
308.3191970216908
 21
162.594210414331
 31
0
  0
LINE
  8
1
 62
40
 10
291.402964385421
 20
161.614210414331
 30
0
 11
308.1156747822244
 21
161.614210414331
 31
0
  0
LINE
  8
1
 62
40
 10
291.402964385421
 20
164.594210414331
 30
0
 11
308.5749947651874
 21
164.594210414331
 31
0
  0
LINE
  8
1
 62
40
 10
291.402964385421
 20
163.614210414331
 30
0
 11
308.4898368142671
 21
163.614210414331
 31
0
  0
LINE
  8
1
 62
40
 10
291.402964385421
 20
165.614210414331
 30
0
 11
308.5415747863948
 21
165.614210414331
 31
0
  0
LINE
  8
1
 62
40
 10
291.402964385421
 20
166.594210414331
 30
0
 11
308.3560646652565
 21
166.594210414331
 31
0
  0
LINE
  8
1
 62
40
 10
291.402964385421
 20
158.594210414331
 30
0
 11
291.402964385421
 21
157.614210414331
 31
0
  0
LINE
  8
1
 62
40
 10
291.402964385421
 20
157.794210414331
 30
0
 11
281.402964385421
 21
157.794210414331
 31
0
  0
LINE
  8
1
 62
40
 10
281.402964385421
 20
158.4142104143309
 30
0
 11
291.402964385421
 21
158.414210414331
 31
0
  0
LINE
  8
1
 62
40
 10
281.402964385421
 20
158.4142104143309
 30
0
 11
281.402964385421
 21
157.794210414331
 31
0
  0
LINE
  8
1
 62
40
 10
291.402964385421
 20
160.594210414331
 30
0
 11
291.402964385421
 21
159.614210414331
 31
0
  0
LINE
  8
1
 62
40
 10
291.402964385421
 20
162.594210414331
 30
0
 11
291.402964385421
 21
161.614210414331
 31
0
  0
LINE
  8
1
 62
40
 10
291.402964385421
 20
164.594210414331
 30
0
 11
291.402964385421
 21
163.614210414331
 31
0
  0
LINE
  8
1
 62
40
 10
291.402964385421
 20
166.594210414331
 30
0
 11
291.402964385421
 21
165.614210414331
 31
0
  0
LINE
  8
1
 62
40
 10
291.402964385421
 20
159.794210414331
 30
0
 11
281.402964385421
 21
159.794210414331
 31
0
  0
LINE
  8
1
 62
40
 10
281.402964385421
 20
160.414210414331
 30
0
 11
291.402964385421
 21
160.414210414331
 31
0
  0
LINE
  8
1
 62
40
 10
281.402964385421
 20
160.414210414331
 30
0
 11
281.402964385421
 21
159.794210414331
 31
0
  0
LINE
  8
1
 62
40
 10
291.402964385421
 20
161.794210414331
 30
0
 11
281.402964385421
 21
161.794210414331
 31
0
  0
LINE
  8
1
 62
40
 10
281.402964385421
 20
162.414210414331
 30
0
 11
291.402964385421
 21
162.414210414331
 31
0
  0
LINE
  8
1
 62
40
 10
281.402964385421
 20
162.414210414331
 30
0
 11
281.402964385421
 21
161.794210414331
 31
0
  0
LINE
  8
1
 62
40
 10
291.402964385421
 20
163.794210414331
 30
0
 11
281.402964385421
 21
163.794210414331
 31
0
  0
LINE
  8
1
 62
40
 10
281.402964385421
 20
164.414210414331
 30
0
 11
291.402964385421
 21
164.414210414331
 31
0
  0
LINE
  8
1
 62
40
 10
281.402964385421
 20
164.414210414331
 30
0
 11
281.402964385421
 21
163.794210414331
 31
0
  0
LINE
  8
1
 62
40
 10
291.402964385421
 20
165.794210414331
 30
0
 11
281.402964385421
 21
165.794210414331
 31
0
  0
LINE
  8
1
 62
40
 10
281.402964385421
 20
166.414210414331
 30
0
 11
291.402964385421
 21
166.414210414331
 31
0
  0
LINE
  8
1
 62
40
 10
281.402964385421
 20
166.414210414331
 30
0
 11
281.402964385421
 21
165.794210414331
 31
0
  0
LINE
  8
1
 62
40
 10
327.2490827850652
 20
156.3126180344079
 30
0
 11
327.2490827850652
 21
167.9042104143309
 31
0
  0
LINE
  8
1
 62
40
 10
327.8429641591242
 20
165.5690606319379
 30
0
 11
332.1923769459151
 21
165.5690606319379
 31
0
  0
LINE
  8
1
 62
40
 10
332.1923769459151
 20
165.5690606319379
 30
0
 11
332.1923769459151
 21
166.1638521241484
 31
0
  0
LINE
  8
1
 62
40
 10
332.1923769459151
 20
166.1638521241484
 30
0
 11
330.1106067231777
 21
166.7216607741581
 31
0
  0
LINE
  8
1
 62
40
 10
330.1106067231777
 20
166.7216607741581
 30
0
 11
330.1106067231777
 21
166.1638521241484
 31
0
  0
LINE
  8
1
 62
40
 10
330.1106067231777
 20
166.1638521241484
 30
0
 11
327.2490827850652
 21
166.1638521241484
 31
0
  0
LINE
  8
1
 62
40
 10
332.1923769459151
 20
158.6477678168009
 30
0
 11
327.8429641591242
 21
158.6477678168009
 31
0
  0
LINE
  8
1
 62
40
 10
332.1923769459151
 20
158.0529763245904
 30
0
 11
332.1923769459151
 21
158.6477678168009
 31
0
  0
LINE
  8
1
 62
40
 10
330.1106067231777
 20
157.4951676745807
 30
0
 11
332.1923769459151
 21
158.0529763245904
 31
0
  0
LINE
  8
1
 62
40
 10
330.1106067231777
 20
158.0529763245904
 30
0
 11
330.1106067231777
 21
157.4951676745807
 31
0
  0
LINE
  8
1
 62
40
 10
327.2490827850652
 20
158.0529763245904
 30
0
 11
330.1106067231777
 21
158.0529763245904
 31
0
  0
LINE
  8
1
 62
40
 10
327.2490827850652
 20
167.9042104143309
 30
0
 11
327.8429641591242
 21
167.9042104143309
 31
0
  0
LINE
  8
1
 62
40
 10
327.8429641591242
 20
167.9042104143309
 30
0
 11
327.8429641591242
 21
167.3292737679186
 31
0
  0
LINE
  8
1
 62
40
 10
327.8429641591242
 20
167.3292737679186
 30
0
 11
333.4563088668631
 21
167.3292737679186
 31
0
  0
LINE
  8
1
 62
40
 10
333.4563088668631
 20
167.3292737679186
 30
0
 11
333.4563088668631
 21
156.7587116535659
 31
0
  0
LINE
  8
1
 62
40
 10
333.4563088668631
 20
156.7587116535659
 30
0
 11
327.8429641591242
 21
156.7587116535659
 31
0
  0
LINE
  8
1
 62
40
 10
327.8429641591242
 20
156.7587116535659
 30
0
 11
327.8429641591242
 21
156.3126180344079
 31
0
  0
LINE
  8
1
 62
40
 10
327.8429641591242
 20
156.3126180344079
 30
0
 11
327.2490827850652
 21
156.3126180344079
 31
0
  0
LINE
  8
1
 62
40
 10
327.8429641591242
 20
165.5690606319379
 30
0
 11
327.8429641591242
 21
158.6477678168009
 31
0
  0
LINE
  8
1
 62
2
 10
202.0284249935543
 20
50.0837205020668
 30
0
 11
231.1164017020865
 21
50.08372050206676
 31
0
  0
LINE
  8
1
 62
40
 10
222.8120791445306
 20
70.90853190979925
 30
0
 11
222.8120791445306
 21
85.80853190979934
 31
0
  0
LINE
  8
1
 62
40
 10
222.8120791445306
 20
85.80853190979934
 30
0
 11
216.7120791445306
 21
85.80853190979934
 31
0
  0
LINE
  8
1
 62
40
 10
216.7120791445306
 20
85.80853190979934
 30
0
 11
216.7120791445306
 21
70.90853190979925
 31
0
  0
LINE
  8
1
 62
40
 10
216.7120791445306
 20
70.90853190979925
 30
0
 11
222.8120791445306
 21
70.90853190979925
 31
0
  0
LINE
  8
1
 62
3
 10
216.2120791445306
 20
86.30853190979934
 30
0
 11
223.3120791445306
 21
86.30853190979934
 31
0
  0
LINE
  8
1
 62
3
 10
223.3120791445306
 20
86.30853190979934
 30
0
 11
223.3120791445306
 21
70.40853190979925
 31
0
  0
LINE
  8
1
 62
3
 10
223.3120791445306
 20
70.40853190979925
 30
0
 11
216.2120791445306
 21
70.40853190979925
 31
0
  0
LINE
  8
1
 62
3
 10
216.2120791445306
 20
91.55853190979934
 30
0
 11
216.2120791445305
 21
58.7402172972528
 31
0
  0
LINE
  8
1
 62
40
 10
222.0120791445306
 20
85.00853190979933
 30
0
 11
217.5120791445306
 21
85.00853190979933
 31
0
  0
LINE
  8
1
 62
40
 10
217.5120791445306
 20
85.00853190979933
 30
0
 11
217.5120791445306
 21
71.70853190979926
 31
0
  0
LINE
  8
1
 62
40
 10
217.5120791445306
 20
71.70853190979926
 30
0
 11
222.0120791445306
 21
71.70853190979926
 31
0
  0
LINE
  8
1
 62
40
 10
222.0120791445306
 20
71.70853190979926
 30
0
 11
222.0120791445306
 21
85.00853190979933
 31
0
  0
LINE
  8
1
 62
40
 10
219.3920791445306
 20
83.03853190979936
 30
0
 11
220.0320791445306
 21
83.03853190979936
 31
0
  0
LINE
  8
1
 62
40
 10
220.0320791445306
 20
83.03853190979936
 30
0
 11
220.0320791445306
 21
83.67853190979935
 31
0
  0
LINE
  8
1
 62
40
 10
220.0320791445306
 20
83.67853190979935
 30
0
 11
219.3920791445306
 21
83.67853190979935
 31
0
  0
LINE
  8
1
 62
40
 10
219.3920791445306
 20
83.67853190979935
 30
0
 11
219.3920791445306
 21
83.03853190979936
 31
0
  0
LINE
  8
1
 62
40
 10
219.3920791445306
 20
80.53853190979936
 30
0
 11
220.0320791445306
 21
80.53853190979936
 31
0
  0
LINE
  8
1
 62
40
 10
220.0320791445306
 20
80.53853190979936
 30
0
 11
220.0320791445306
 21
81.17853190979935
 31
0
  0
LINE
  8
1
 62
40
 10
220.0320791445306
 20
81.17853190979935
 30
0
 11
219.3920791445306
 21
81.17853190979935
 31
0
  0
LINE
  8
1
 62
40
 10
219.3920791445306
 20
81.17853190979935
 30
0
 11
219.3920791445306
 21
80.53853190979936
 31
0
  0
LINE
  8
1
 62
40
 10
219.3920791445306
 20
78.03853190979936
 30
0
 11
220.0320791445306
 21
78.03853190979936
 31
0
  0
LINE
  8
1
 62
40
 10
220.0320791445306
 20
78.03853190979936
 30
0
 11
220.0320791445306
 21
78.67853190979935
 31
0
  0
LINE
  8
1
 62
40
 10
220.0320791445306
 20
78.67853190979935
 30
0
 11
219.3920791445306
 21
78.67853190979935
 31
0
  0
LINE
  8
1
 62
40
 10
219.3920791445306
 20
78.67853190979935
 30
0
 11
219.3920791445306
 21
78.03853190979936
 31
0
  0
LINE
  8
1
 62
40
 10
219.3920791445306
 20
75.53853190979936
 30
0
 11
220.0320791445306
 21
75.53853190979936
 31
0
  0
LINE
  8
1
 62
40
 10
220.0320791445306
 20
75.53853190979936
 30
0
 11
220.0320791445306
 21
76.17853190979935
 31
0
  0
LINE
  8
1
 62
40
 10
220.0320791445306
 20
76.17853190979935
 30
0
 11
219.3920791445306
 21
76.17853190979935
 31
0
  0
LINE
  8
1
 62
40
 10
219.3920791445306
 20
76.17853190979935
 30
0
 11
219.3920791445306
 21
75.53853190979936
 31
0
  0
LINE
  8
1
 62
40
 10
219.3920791445306
 20
73.03853190979936
 30
0
 11
220.0320791445306
 21
73.03853190979936
 31
0
  0
LINE
  8
1
 62
40
 10
220.0320791445306
 20
73.03853190979936
 30
0
 11
220.0320791445306
 21
73.67853190979935
 31
0
  0
LINE
  8
1
 62
40
 10
220.0320791445306
 20
73.67853190979935
 30
0
 11
219.3920791445306
 21
73.67853190979935
 31
0
  0
LINE
  8
1
 62
40
 10
219.3920791445306
 20
73.67853190979935
 30
0
 11
219.3920791445306
 21
73.03853190979936
 31
0
  0
LINE
  8
1
 62
40
 10
216.7120791445306
 20
83.90853190979937
 30
0
 11
217.5120791445306
 21
83.90853190979935
 31
0
  0
LINE
  8
1
 62
40
 10
217.5120791445306
 20
82.65853190979937
 30
0
 11
216.7120791445306
 21
82.65853190979937
 31
0
  0
LINE
  8
1
 62
40
 10
217.5120791445306
 20
74.05853190979923
 30
0
 11
216.7120791445306
 21
74.05853190979923
 31
0
  0
LINE
  8
1
 62
40
 10
216.7120791445306
 20
72.80853190979923
 30
0
 11
217.5120791445306
 21
72.80853190979923
 31
0
  0
LINE
  8
1
 62
40
 10
218.6120791445306
 20
71.70853190979926
 30
0
 11
218.6120791445306
 21
70.90853190979925
 31
0
  0
LINE
  8
1
 62
40
 10
218.6120791445306
 20
85.00853190979933
 30
0
 11
218.6120791445305
 21
85.80853190979933
 31
0
  0
LINE
  8
1
 62
40
 10
217.5120791445306
 20
85.80853190979934
 30
0
 11
217.5120791445306
 21
85.00853190979933
 31
0
  0
LINE
  8
1
 62
40
 10
217.5120791445306
 20
71.70853190979926
 30
0
 11
217.5120791445306
 21
70.90853190979925
 31
0
  0
LINE
  8
1
 62
3
 10
208.8120791445306
 20
75.50853190979939
 30
0
 11
205.1702071947641
 21
75.50853190979939
 31
0
  0
LINE
  8
1
 62
3
 10
208.8120791445306
 20
69.50853190979939
 30
0
 11
204.7810153092482
 21
69.50853190979939
 31
0
  0
LINE
  8
1
 62
3
 10
211.3120791445306
 20
58.49529196216668
 30
0
 11
211.3120791445306
 21
92.72354477325149
 31
0
  0
LINE
  8
1
 62
3
 10
210.8120791445306
 20
58.58373016280359
 30
0
 11
210.8120791445306
 21
92.75395365365679
 31
0
  0
LINE
  8
1
 62
3
 10
208.8120791445306
 20
59.22848926208798
 30
0
 11
208.8120791445306
 21
92.73086889335315
 31
0
  0
LINE
  8
1
 62
1
 10
228.6612918144956
 20
72.50853190979939
 30
0
 11
205.2256959258025
 21
72.50853190979937
 31
0
  0
LINE
  8
1
 62
3
 10
241.6120791445305
 20
129.1660211165799
 30
0
 11
216.8120791445306
 21
128.7331355063603
 31
0
  0
LINE
  8
1
 62
3
 10
238.1120791445305
 20
125.5331355063601
 30
0
 11
238.1120791445305
 21
119.6048237252235
 31
0
  0
LINE
  8
1
 62
3
 10
241.6120791445305
 20
125.5331355063602
 30
0
 11
238.1120791445305
 21
125.5331355063601
 31
0
  0
LINE
  8
1
 62
3
 10
259.3120791445306
 20
179.1911355063603
 30
0
 11
216.8120791445306
 21
179.9331355063603
 31
0
  0
LINE
  8
1
 62
3
 10
259.3120791445306
 20
139.62513550636
 30
0
 11
216.8120791445306
 21
138.8831355063603
 31
0
  0
LINE
  8
1
 62
3
 10
241.6120791445305
 20
134.3831355063601
 30
0
 11
241.6120791445305
 21
120.6486013453226
 31
0
  0
LINE
  8
1
 62
3
 10
216.8120791445306
 20
119.2331355063599
 30
0
 11
240.6295266394045
 21
119.6487535644466
 31
0
  0
LINE
  8
1
 62
3
 10
257.3469839574054
 20
129.4406749017279
 30
0
 11
243.5771743316554
 21
129.2003219806613
 31
0
  0
LINE
  8
1
 62
3
 10
216.8120791445306
 20
189.5331355063602
 30
0
 11
257.3469839574054
 21
188.8255961109923
 31
0
  0
LINE
  8
1
 62
3
 10
259.3120791445306
 20
131.4403702920406
 30
0
 11
259.3120791445306
 21
186.8259007206794
 31
0
  0
LINE
  8
1
 62
3
 10
86.84989265182155
 20
119.3331915083816
 30
0
 11
101.7498926518216
 21
119.3331915083816
 31
0
  0
LINE
  8
1
 62
3
 10
86.84989265182155
 20
119.3331915083816
 30
0
 11
86.84989265182155
 21
119.93313550636
 31
0
  0
LINE
  8
1
 62
3
 10
101.7498926518216
 20
119.93313550636
 30
0
 11
101.7498926518216
 21
119.3331915083816
 31
0
  0
LINE
  8
1
 62
3
 10
62.46351339796874
 20
128.6331355063598
 30
0
 11
61.69093304770273
 21
128.63313550636
 31
0
  0
LINE
  8
1
 62
3
 10
112.4635133979688
 20
128.63313550636
 30
0
 11
113.2360937482348
 21
128.63313550636
 31
0
  0
LINE
  8
1
 62
3
 10
112.7135133979688
 20
121.1331355063584
 30
0
 11
112.7135133979688
 21
127.7544600952735
 31
0
  0
LINE
  8
1
 62
3
 10
104.5720920417328
 20
119.1331355063585
 30
0
 11
110.7135133979688
 21
119.1331355063584
 31
0
  0
LINE
  8
1
 62
3
 10
103.7720920417317
 20
119.93313550636
 30
0
 11
104.5720920417328
 21
119.1331355063585
 31
0
  0
LINE
  8
1
 62
3
 10
71.15493475420668
 20
119.93313550636
 30
0
 11
103.7720920417317
 21
119.93313550636
 31
0
  0
LINE
  8
1
 62
3
 10
70.35493475420581
 20
119.1331355063599
 30
0
 11
71.15493475420668
 21
119.93313550636
 31
0
  0
LINE
  8
1
 62
3
 10
64.21351339796875
 20
119.13313550636
 30
0
 11
70.35493475420581
 21
119.1331355063599
 31
0
  0
LINE
  8
1
 62
3
 10
62.21351339796875
 20
127.7544600952735
 30
0
 11
62.21351339796875
 21
121.13313550636
 31
0
  0
LINE
  8
1
 62
3
 10
62.46351339796874
 20
128.6331355063598
 30
0
 11
112.4635133979688
 21
128.63313550636
 31
0
  0
LINE
  8
1
 62
3
 10
216.8120791445306
 20
119.2331355063585
 30
0
 11
216.8120791445306
 21
119.9331355063601
 31
0
  0
LINE
  8
1
 62
3
 10
260.287065346377
 20
165.7287171578499
 30
0
 11
260.287065346377
 21
149.9483905364244
 31
0
  0
LINE
  8
1
 62
3
 10
216.8120791445306
 20
189.5331355063602
 30
0
 11
216.8120791445306
 21
119.9331355063601
 31
0
  0
LINE
  8
1
 62
4
 10
237.7957631947634
 20
122.4331355063601
 30
0
 11
241.2915201336534
 21
122.4331355063601
 31
0
  0
LINE
  8
1
 62
3
 10
238.1120791445305
 20
119.9331355063601
 30
0
 11
238.1120791445305
 21
124.9331355063601
 31
0
  0
LINE
  8
1
 62
3
 10
238.6120791445305
 20
119.9331355063601
 30
0
 11
238.1120791445305
 21
119.9331355063601
 31
0
  0
LINE
  8
1
 62
3
 10
238.6120791445305
 20
124.9331355063601
 30
0
 11
238.6120791445305
 21
119.9331355063601
 31
0
  0
LINE
  8
1
 62
3
 10
238.1120791445305
 20
124.9331355063601
 30
0
 11
238.6120791445305
 21
124.9331355063601
 31
0
  0
LINE
  8
1
 62
3
 10
239.2120791445304
 20
124.68313550636
 30
0
 11
239.9058252333894
 21
124.68313550636
 31
0
  0
LINE
  8
1
 62
3
 10
239.9058252333894
 20
120.18313550636
 30
0
 11
239.2120791445304
 21
120.18313550636
 31
0
  0
LINE
  8
1
 62
3
 10
239.2120791445304
 20
124.68313550636
 30
0
 11
239.2120791445304
 21
120.18313550636
 31
0
  0
LINE
  8
1
 62
3
 10
239.2120791445304
 20
120.18313550636
 30
0
 11
238.6120791445305
 21
120.18313550636
 31
0
  0
LINE
  8
1
 62
3
 10
238.6120791445305
 20
120.18313550636
 30
0
 11
238.6120791445305
 21
124.68313550636
 31
0
  0
LINE
  8
1
 62
3
 10
238.6120791445305
 20
124.68313550636
 30
0
 11
239.2120791445304
 21
124.68313550636
 31
0
  0
LINE
  8
1
 62
3
 10
210.8120791445306
 20
128.6331355063601
 30
0
 11
216.8120791445306
 21
128.6331355063601
 31
0
  0
LINE
  8
1
 62
3
 10
56.96351339796874
 20
184.1331355063601
 30
0
 11
56.96351339796874
 21
134.1331355063598
 31
0
  0
LINE
  8
1
 62
3
 10
112.4635133979688
 20
189.6331355063601
 30
0
 11
62.46351339796874
 21
189.6331355063601
 31
0
  0
LINE
  8
1
 62
1
 10
87.46351339796875
 20
192.1331355063601
 30
0
 11
87.46351339796875
 21
115.7664169568275
 31
0
  0
LINE
  8
1
 62
1
 10
120.4635133979688
 20
159.1331355063601
 30
0
 11
54.46351339796874
 21
159.1331355063601
 31
0
  0
LINE
  8
1
 62
3
 10
117.9635133979688
 20
134.1331355063598
 30
0
 11
117.9635133979688
 21
184.1331355063601
 31
0
  0
LINE
  8
1
 62
3
 10
211.3120791445306
 20
119.1331355063585
 30
0
 11
216.8120791445306
 21
119.2331355063585
 31
0
  0
LINE
  8
1
 62
3
 10
210.8120791445306
 20
128.6331355063601
 30
0
 11
210.8120791445306
 21
186.1331355063601
 31
0
  0
LINE
  8
1
 62
3
 10
210.8120791445306
 20
186.1331355063601
 30
0
 11
210.8120791445306
 21
189.6331355063601
 31
0
  0
LINE
  8
1
 62
3
 10
208.8120791445306
 20
186.1331355063601
 30
0
 11
210.8120791445306
 21
186.1331355063601
 31
0
  0
LINE
  8
1
 62
3
 10
208.8120791445306
 20
132.1331355063599
 30
0
 11
208.8120791445306
 21
186.1331355063601
 31
0
  0
LINE
  8
1
 62
3
 10
210.8120791445306
 20
132.1331355063599
 30
0
 11
208.8120791445306
 21
132.1331355063599
 31
0
  0
LINE
  8
1
 62
1
 10
184.2042841477206
 20
159.1331355063601
 30
0
 11
261.3763208862603
 21
159.1331355063601
 31
0
  0
LINE
  8
1
 62
3
 10
210.8120791445306
 20
189.6331355063601
 30
0
 11
216.8120791445306
 21
189.5331355063602
 31
0
  0
LINE
  8
1
 62
3
 10
216.8120791445306
 20
189.5331355063602
 30
0
 11
216.8120791445306
 21
119.9331355063601
 31
0
  0
LINE
  8
1
 62
3
 10
211.3120791445306
 20
128.6331355063601
 30
0
 11
211.3120791445306
 21
119.1331355063585
 31
0
  0
LINE
  8
1
 62
1
 10
58.88312606095235
 20
134.3831355063601
 30
0
 11
66.54390073498513
 21
134.3831355063601
 31
0
  0
LINE
  8
1
 62
1
 10
62.71351339796874
 20
138.2135228433765
 30
0
 11
62.71351339796874
 21
130.5527481693437
 31
0
  0
LINE
  8
1
 62
1
 10
112.2135133979688
 20
130.5527481693437
 30
0
 11
112.2135133979688
 21
138.2135228433764
 31
0
  0
LINE
  8
1
 62
1
 10
116.0439007349851
 20
183.8831355063601
 30
0
 11
108.3831260609525
 21
183.8831355063601
 31
0
  0
LINE
  8
1
 62
1
 10
62.71351339796874
 20
187.7135228433765
 30
0
 11
62.71351339796874
 21
180.0527481693438
 31
0
  0
LINE
  8
1
 62
1
 10
108.3831260609524
 20
134.3831355063601
 30
0
 11
116.0439007349851
 21
134.3831355063601
 31
0
  0
LINE
  8
1
 62
1
 10
112.2135133979688
 20
180.0527481693437
 30
0
 11
112.2135133979688
 21
187.7135228433765
 31
0
  0
LINE
  8
1
 62
1
 10
66.54390073498513
 20
183.8831355063602
 30
0
 11
58.88312606095235
 21
183.8831355063602
 31
0
  0
LINE
  8
1
 62
3
 10
186.8120791445306
 20
156.1331355063599
 30
0
 11
186.8120791445306
 21
162.1331355063601
 31
0
  0
LINE
  8
1
 62
3
 10
186.8120791445306
 20
162.1331355063601
 30
0
 11
208.8120791445306
 21
162.1331355063601
 31
0
  0
LINE
  8
1
 62
3
 10
208.8120791445306
 20
156.1331355063601
 30
0
 11
186.8120791445306
 21
156.1331355063599
 31
0
  0
ARC
  8
1
 62
3
 10
234.9120791445296
 20
122.4331355063601
 30
0
 40
5.999999999999975
 50
343.8086483613824
 51
16.1913516386185
  0
ARC
  8
1
 62
1
 10
87.46351339796875
 20
159.1331355063601
 30
0
 40
35.00178566873409
 50
212.3481082805889
 51
231.273242443366
  0
ARC
  8
1
 62
1
 10
87.46351339796875
 20
159.1331355063601
 30
0
 40
35.00178566873418
 50
32.34810828058878
 51
51.27324244336603
  0
CIRCLE
  8
1
 62
2
 10
343.570073108059
 20
180.288447751435
 30
0
 40
4
  0
CIRCLE
  8
1
 62
2
 10
232.9221966849369
 20
98.77800056128518
 30
0
 40
4
  0
CIRCLE
  8
1
 62
3
 10
87.46351339796875
 20
159.1331355063601
 30
0
 40
3
  0
CIRCLE
  8
1
 62
3
 10
87.46351339796875
 20
159.1331355063601
 30
0
 40
24.00000000000004
  0
CIRCLE
  8
1
 62
3
 10
87.46351339796875
 20
159.1331355063601
 30
0
 40
27.00000000000004
  0
CIRCLE
  8
1
 62
3
 10
112.2135133979688
 20
134.3831355063601
 30
0
 40
2.25
  0
CIRCLE
  8
1
 62
3
 10
62.71351339796874
 20
134.3831355063601
 30
0
 40
2.25
  0
CIRCLE
  8
1
 62
3
 10
62.71351339796874
 20
183.8831355063601
 30
0
 40
2.25
  0
CIRCLE
  8
1
 62
3
 10
112.2135133979688
 20
183.8831355063601
 30
0
 40
2.25
  0
CIRCLE
  8
1
 62
3
 10
87.46351339796875
 20
159.1331355063601
 30
0
 40
9.5
  0
CIRCLE
  8
1
 62
4
 10
87.46351339796875
 20
159.1331355063601
 30
0
 40
35.00178566873412
  0
CIRCLE
  8
1
 62
3
 10
210.8120791445306
 20
198.5492795830603
 30
0
 40
0.3000000000000114
  0
CIRCLE
  8
1
 62
3
 10
210.8120791445306
 20
198.5492795830603
 30
0
 40
0.5
  0
CIRCLE
  8
1
 62
3
 10
210.8120791445306
 20
198.5492795830603
 30
0
 40
0.6999999999999886
  0
POLYLINE
  8
1
 62
2
 66
1
  0
VERTEX
  8
1
 10
309.1272125801142
 20
167.9297455794159
 30
0
 42
0.04099742079446715
  0
VERTEX
  8
1
 10
309.3164745980327
 20
166.769059154185
 30
0
 42
-0.02548743389074103
  0
VERTEX
  8
1
 10
309.5415747863948
 20
165.614210414331
 30
0
 42
-0.03916193694911786
  0
VERTEX
  8
1
 10
309.5749947651875
 20
164.594210414331
 30
0
 42
-0.02336685384982826
  0
VERTEX
  8
1
 10
309.4898368142671
 20
163.614210414331
 30
0
 42
-0.0153128261302231
  0
VERTEX
  8
1
 10
309.3191970216908
 20
162.594210414331
 30
0
 42
-0.004569214571411209
  0
VERTEX
  8
1
 10
309.1156747822244
 20
161.614210414331
 30
0
 42
0.005049116612327179
  0
VERTEX
  8
1
 10
308.9046542786222
 20
160.5942104143311
 30
0
 42
0.0151508665504677
  0
VERTEX
  8
1
 10
308.7424342722703
 20
159.614210414331
 30
0
 42
0.02404801277851464
  0
VERTEX
  8
1
 10
308.6569180273107
 20
158.5942104143311
 30
0
 42
0.04033656677788262
  0
VERTEX
  8
1
 10
308.7123739866137
 20
157.2953383487242
 30
0
 42
0.0537747999294684
  0
VERTEX
  8
1
 10
309.0108033880671
 20
156.0269056926139
 30
0
  0
SEQEND
  8
1
  0
POLYLINE
  8
1
 62
2
 66
1
  0
VERTEX
  8
1
 10
308.1377344477148
 20
167.813336387369
 30
0
 42
0.0350092609745266
  0
VERTEX
  8
1
 10
308.329391923702
 20
166.7120995762876
 30
0
 42
-0.02562194032183369
  0
VERTEX
  8
1
 10
308.5415747863948
 20
165.614210414331
 30
0
 42
-0.03919673753394017
  0
VERTEX
  8
1
 10
308.5749947651875
 20
164.594210414331
 30
0
 42
-0.02335703340185279
  0
VERTEX
  8
1
 10
308.4898368142671
 20
163.614210414331
 30
0
 42
-0.01531757685003434
  0
VERTEX
  8
1
 10
308.3191970216909
 20
162.594210414331
 30
0
 42
-0.004560305830893941
  0
VERTEX
  8
1
 10
308.1156747822245
 20
161.614210414331
 30
0
 42
0.005017909784536177
  0
VERTEX
  8
1
 10
307.9046542786222
 20
160.594210414331
 30
0
 42
0.01526677363059619
  0
VERTEX
  8
1
 10
307.7424342722704
 20
159.614210414331
 30
0
 42
0.02360103658260486
  0
VERTEX
  8
1
 10
307.6569180273107
 20
158.594210414331
 30
0
 42
0.03390775734274954
  0
VERTEX
  8
1
 10
307.6860555150049
 20
157.5366301521146
 30
0
 42
0.04982852026031857
  0
VERTEX
  8
1
 10
307.8909996453938
 20
156.4998113432553
 30
0
  0
VERTEX
  8
1
 10
308.0795298516913
 20
155.9978033946024
 30
0
  0
SEQEND
  8
1
  0
POLYLINE
  8
1
 62
2
 66
1
  0
VERTEX
  8
1
 10
219.526352352073
 20
92.69814831865489
 30
0
 42
-0.04422915108479442
  0
VERTEX
  8
1
 10
217.95781677648
 20
91.88638915635623
 30
0
 42
-0.1078528014702278
  0
VERTEX
  8
1
 10
216.2120791445307
 20
91.55853190979936
 30
0
 42
-0.07495944109458662
  0
VERTEX
  8
1
 10
214.6985887473812
 20
91.97108513324928
 30
0
 42
0.05711221457585648
  0
VERTEX
  8
1
 10
212.9183236058227
 20
92.52104607976587
 30
0
 42
0.03583818559228249
  0
VERTEX
  8
1
 10
210.8120791445306
 20
92.75395365365679
 30
0
 42
0.05337751113375433
  0
VERTEX
  8
1
 10
208.4188800459538
 20
92.67763759683575
 30
0
 42
0.04356975271743822
  0
VERTEX
  8
1
 10
206.738777773704
 20
92.14661699318377
 30
0
 42
-0.07504328036238042
  0
VERTEX
  8
1
 10
205.713090681739
 20
91.82391796806378
 30
0
 42
-0.1531968651172422
  0
VERTEX
  8
1
 10
204.6945355845787
 20
92.05723060279171
 30
0
 42
0.06951735347481948
  0
VERTEX
  8
1
 10
203.845053216538
 20
92.41912164364537
 30
0
 42
0.3763989928834608
  0
VERTEX
  8
1
 10
203.3606590616135
 20
91.93475850895972
 30
0
 42
0.07371004191776857
  0
VERTEX
  8
1
 10
203.2542497607088
 20
90.72449989842092
 30
0
 42
0.0182744824167016
  0
VERTEX
  8
1
 10
203.342805201521
 20
89.2940228835389
 30
0
 42
-0.001485826114710267
  0
VERTEX
  8
1
 10
203.5631799673491
 20
87.06199492496295
 30
0
 42
-0.04689033569547247
  0
VERTEX
  8
1
 10
203.566026541529
 20
85.22023342840001
 30
0
 42
-0.01729870181713844
  0
VERTEX
  8
1
 10
203.1505325259358
 20
82.8285612329436
 30
0
 42
0.07423363154977902
  0
VERTEX
  8
1
 10
203.00797319151
 20
80.36516928323461
 30
0
 42
0.08497445127211747
  0
VERTEX
  8
1
 10
203.7676003621296
 20
78.14604575518617
 30
0
 42
0.003148180959657443
  0
VERTEX
  8
1
 10
204.8193176337555
 20
76.21323301230973
 30
0
 42
-0.05027494135179828
  0
VERTEX
  8
1
 10
205.5691309915788
 20
74.46050834225731
 30
0
 42
-0.1110346376171989
  0
VERTEX
  8
1
 10
205.7182854063655
 20
72.54643303814333
 30
0
 42
-0.05783437243785963
  0
VERTEX
  8
1
 10
205.1832839174129
 20
70.51716834957978
 30
0
 42
-0.0116413817822629
  0
VERTEX
  8
1
 10
204.2027225018852
 20
68.13577227084883
 30
0
 42
0.05721787416476767
  0
VERTEX
  8
1
 10
203.286999866519
 20
65.13031282771539
 30
0
 42
0.04658124544187153
  0
VERTEX
  8
1
 10
203.0995790294556
 20
62.90206876446496
 30
0
 42
0.0739346331160726
  0
VERTEX
  8
1
 10
203.4082205617584
 20
60.82393527307012
 30
0
 42
0.1740663819897252
  0
VERTEX
  8
1
 10
204.403106566557
 20
59.49397399252339
 30
0
 42
0.1329551896481745
  0
VERTEX
  8
1
 10
205.9949420898999
 20
59.23444809156931
 30
0
 42
-0.00903210173735512
  0
VERTEX
  8
1
 10
207.8896111728889
 20
59.31381528710512
 30
0
 42
-0.1118841224378237
  0
VERTEX
  8
1
 10
209.8208835600173
 20
58.91261379481764
 30
0
 42
0.02384704390981585
  0
VERTEX
  8
1
 10
211.0606284448962
 20
58.53383705581775
 30
0
 42
0.07690368453832759
  0
VERTEX
  8
1
 10
212.9422503041586
 20
58.39249805742088
 30
0
 42
0.04479680870740703
  0
VERTEX
  8
1
 10
216.2120791445305
 20
58.74021729725276
 30
0
 42
0.05431971676813842
  0
VERTEX
  8
1
 10
219.4705470170711
 20
59.66138999752909
 30
0
 42
0.0563026872213276
  0
VERTEX
  8
1
 10
222.4332009697002
 20
61.4313011051163
 30
0
 42
0.00465158626193274
  0
VERTEX
  8
1
 10
224.7263440319721
 20
63.15460531602081
 30
0
 42
0.09810136241809528
  0
VERTEX
  8
1
 10
226.0555765472951
 20
64.6280648126983
 30
0
 42
0.1256782968919745
  0
VERTEX
  8
1
 10
226.4096765846409
 20
66.42355332823254
 30
0
 42
0.03828745689145847
  0
VERTEX
  8
1
 10
226.1725710301342
 20
68.4524236736689
 30
0
 42
-0.05023619112320139
  0
VERTEX
  8
1
 10
225.7583218657384
 20
72.01346660072399
 30
0
 42
-0.03870192836165837
  0
VERTEX
  8
1
 10
225.999771212293
 20
76.90523851311669
 30
0
 42
0.003639906356751877
  0
VERTEX
  8
1
 10
226.368987364089
 20
80.02868655649932
 30
0
 42
0.03607999267972304
  0
VERTEX
  8
1
 10
226.4904612893582
 20
83.14754452279718
 30
0
 42
0.07426785022209581
  0
VERTEX
  8
1
 10
225.943965877291
 20
86.1131187884305
 30
0
 42
0.08064929458716486
  0
VERTEX
  8
1
 10
224.4102880564663
 20
88.81719922675121
 30
0
 42
0.05939012145066219
  0
VERTEX
  8
1
 10
222.1416809921371
 20
91.06155837064154
 30
0
 42
0.05228774033509122
  0
VERTEX
  8
1
 10
219.526352352073
 20
92.69814831865489
 30
0
  0
SEQEND
  8
1
  0
ARC
  8
1
 62
3
 10
240.6120791445305
 20
120.6486013453226
 30
0
 40
1.00000000000003
 50
270.9997185452984
 51
0
  0
ARC
  8
1
 62
3
 10
243.6120791445305
 20
127.2006265903485
 30
0
 40
2.000000000000021
 50
91.00000000001478
 51
180
  0
ARC
  8
1
 62
3
 10
257.3120791445306
 20
131.4403702920407
 30
0
 40
2.000000000000031
 50
271.0000000000067
 51
0
  0
ARC
  8
1
 62
3
 10
257.3120791445306
 20
186.8259007206794
 30
0
 40
2
 50
0
 51
88.99999999999341
  0
ARC
  8
1
 62
3
 10
110.7135133979688
 20
121.1331355063584
 30
0
 40
2
 50
270
 51
0
  0
ARC
  8
1
 62
3
 10
64.21351339796875
 20
121.13313550636
 30
0
 40
2.000000000000007
 50
180
 51
270
  0
ARC
  8
1
 62
3
 10
113.7135133979688
 20
127.7544600952735
 30
0
 40
1.000000000000077
 50
101.087489210993
 51
180
  0
ARC
  8
1
 62
3
 10
61.21351339796875
 20
127.7544600952735
 30
0
 40
1
 50
0
 51
78.91251078900736
  0
ARC
  8
1
 62
3
 10
62.46351339796875
 20
134.1331355063601
 30
0
 40
5.500000000000007
 50
180
 51
258.9125107890335
  0
ARC
  8
1
 62
3
 10
112.4635133979688
 20
134.1331355063601
 30
0
 40
5.499999999999989
 50
281.0874892109664
 51
0
  0
ARC
  8
1
 62
3
 10
239.9058252333894
 20
123.8831355063601
 30
0
 40
0.7999999999997485
 50
16.19135163863525
 51
90
  0
ARC
  8
1
 62
3
 10
239.9058252333894
 20
120.9831355063601
 30
0
 40
0.8000000000000966
 50
270
 51
343.8086483613716
  0
ARC
  8
1
 62
3
 10
62.46351339796874
 20
184.1331355063601
 30
0
 40
5.5
 50
90
 51
180
  0
ARC
  8
1
 62
3
 10
112.4635133979688
 20
184.1331355063601
 30
0
 40
5.5
 50
0
 51
90
  0
POLYLINE
  8
1
 62
2
 66
1
 70
1
  0
VERTEX
  8
1
 10
275.9319697333329
 20
186.3404322694013
 30
0
  0
VERTEX
  8
1
 10
285.9319697333329
 20
186.3404322694013
 30
0
  0
VERTEX
  8
1
 10
285.9319697333329
 20
196.3404322694013
 30
0
  0
VERTEX
  8
1
 10
275.9319697333329
 20
196.3404322694013
 30
0
  0
SEQEND
  8
1
  0
LINE
  8
1
 62
2
 10
340.648478857323
 20
177.5563630100571
 30
0
 11
333.4717172359461
 21
167.3068852056243
 31
0
  0
SOLID
  8
1
 62
2
 10
334.9620629121591
 20
170.1698126126383
 30
0
 11
335.6522607523797
 21
169.6865308820598
 31
0
 12
333.4717172359461
 22
167.3068852056243
 32
0
 13
333.4717172359461
 23
167.3068852056243
 33
0
  0
LINE
  8
1
 62
2
 10
230.0006024342009
 20
96.04591581990729
 30
0
 11
222.823840812824
 21
85.79643801547451
 31
0
  0
SOLID
  8
1
 62
2
 10
224.314186489037
 20
88.65936542248855
 30
0
 11
225.0043843292576
 21
88.17608369191002
 31
0
 12
222.823840812824
 22
85.79643801547451
 32
0
 13
222.823840812824
 23
85.79643801547451
 33
0
  0
LINE
  8
1
 62
2
 10
255.6252097822787
 20
207.1722218711255
 30
0
 11
224.3641282859683
 21
207.1722218711255
 31
0
  0
LINE
  8
1
 62
2
 10
224.3641282859683
 20
207.1722218711255
 30
0
 11
216.8120791445306
 21
203.6720423030274
 31
0
  0
SOLID
  8
1
 62
2
 10
219.5382532580382
 20
205.3998901769099
 30
0
 11
219.892561064529
 21
204.6354294074679
 31
0
 12
216.8120791445306
 22
203.6720423030274
 32
0
 13
216.8120791445306
 23
203.6720423030274
 33
0
  0
LINE
  8
1
 62
2
 10
219.303375926297
 20
103.4615097914072
 30
0
 11
219.303375926297
 21
117.7575551139362
 31
0
  0
SOLID
  8
1
 62
2
 10
219.7246639185767
 20
114.5575551139362
 30
0
 11
218.8820879340173
 21
114.5575551139362
 31
0
 12
219.303375926297
 22
117.7575551139362
 32
0
 13
219.303375926297
 23
117.7575551139362
 33
0
  0
LINE
  8
1
 62
2
 10
306.2203772110304
 20
125.2032092865384
 30
0
 11
274.7081396169634
 21
125.2032092865384
 31
0
  0
LINE
  8
1
 62
2
 10
274.7081396169634
 20
125.2032092865384
 30
0
 11
260.287065346377
 21
155.5166117547444
 31
0
  0
SOLID
  8
1
 62
2
 10
262.0422060862416
 20
152.8079285773117
 30
0
 11
261.2813423223159
 21
152.4459608681152
 31
0
 12
260.287065346377
 22
155.5166117547444
 32
0
 13
260.287065346377
 23
155.5166117547444
 33
0
  0
TEXT
  8
1
 62
2
 10
342.130073108059
 20
178.688447751435
 30
0
 40
3.2
  1
2
 41
0.9
 72
1
 73
2
 11
343.570073108059
 21
180.288447751435
 31
0
  0
TEXT
  8
1
 62
2
 10
202.0192024452953
 20
45.36236298043885
 30
0
 40
3.2
  1
VIEWED FROM A
 41
0.6300000000000001
 73
2
 11
202.0192024452953
 21
46.96236298043885
 31
0
  0
TEXT
  8
1
 62
2
 10
207.6618205389733
 20
52.00551325262785
 30
0
 40
4
  1
A矢視図
 41
0.9
  7
COMPLEX
 73
2
 11
207.6618205389733
 21
54.00551325262785
 31
0
  0
TEXT
  8
1
 62
2
 10
221.4005565026929
 20
65.20081202297573
 30
0
 40
3
  1
1
 50
90
 41
0.9
 72
1
 73
2
 11
219.9005565026929
 21
66.55081202297572
 31
0
  0
TEXT
  8
1
 62
2
 10
220.9295516689359
 20
87.71229655881635
 30
0
 40
3
  1
5
 50
90
 41
0.9
 72
1
 73
2
 11
219.4295516689359
 21
89.06229655881634
 31
0
  0
TEXT
  8
1
 62
2
 10
231.4821966849369
 20
97.17800056128517
 30
0
 40
3.2
  1
1
 41
0.9
 72
1
 73
2
 11
232.9221966849369
 21
98.77800056128518
 31
0
  0
TEXT
  8
1
 62
2
 10
278.7444697333329
 20
188.8404322694013
 30
0
 40
5
  1
A
 41
0.9
  7
COMPLEX
  0
TEXT
  8
1
 62
2
 10
225.5670796944564
 20
202.1722218711255
 30
0
 40
4
  1
ＷＩＤＴＨ　ＯＦ　ＦＬＡＮＧＥ
 41
0.45
 73
2
 11
225.5670796944564
 21
204.1722218711255
 31
0
  0
TEXT
  8
1
 62
2
 10
225.5670796944564
 20
208.3722218711255
 30
0
 40
3.6
  1
モータ取付部肉厚
 41
0.9
 73
2
 11
225.5670796944564
 21
210.1722218711255
 31
0
  0
TEXT
  8
1
 62
2
 10
275.7214804450973
 20
118.7882504691204
 30
0
 40
4
  1
ＮＡＭＥ　ＰＬＡＴＥ
 41
0.63
 73
2
 11
275.7214804450973
 21
120.7882504691204
 31
0
  0
TEXT
  8
1
 62
2
 10
274.8642047791572
 20
126.0464110957904
 30
0
 40
4
  1
ネームプレート
 41
0.9
 73
2
 11
274.8642047791572
 21
128.0464110957904
 31
0
  0
TEXT
  8
1
 62
2
 10
217.303375926297
 20
104.6615097914072
 30
0
 40
4
  1
A
 50
90
 41
0.9
  7
COMPLEX
 72
1
 73
2
 11
215.303375926297
 21
106.4615097914072
 31
0
  0
DIMENSION
  8
1
  6
CONTINUOUS
 62
2
  2
*D0
  3
DMST_1
 10
281.402964385421
 20
172.4495644708099
 30
0
 11
286.2789773245631
 21
176.0495644708099
 31
0
 12
0
 22
0
 32
0
 70
0
  1
(<>
 13
291.402964385421
 23
166.414210414331
 33
0
 14
281.402964385421
 24
166.414210414331
 34
0
 53
0
  0
DIMENSION
  8
1
  6
CONTINUOUS
 62
2
  2
*D1
  3
DMST_2
 10
291.4029643854211
 20
172.5280650727109
 30
0
 11
308.8871506718981
 21
176.9280650727109
 31
0
 12
0
 22
0
 32
0
 70
0
  1
300
 13
327.2490827850652
 23
167.9042104143309
 33
0
 14
291.402964385421
 24
166.594210414331
 34
0
 53
0
  0
DIMENSION
  8
1
  6
CONTINUOUS
 62
2
  2
*D2
  3
DMST_3
 10
180.481170833234
 20
156.13313550636
 30
0
 11
176.0545041665673
 21
158.7146321308925
 31
0
 12
0
 22
0
 32
0
 70
0
  1
φ<>
 13
186.8120791445306
 23
162.1331355063601
 33
0
 14
186.8120791445306
 24
156.1331355063599
 34
0
 50
90
 53
0
  0
DIMENSION
  8
1
  6
CONTINUOUS
 62
2
  2
*D3
  3
DMST_4
 10
210.8120791445305
 20
219.3364414031385
 30
0
 11
232.8679044116399
 21
222.9364414031385
 31
0
 12
0
 22
0
 32
0
 70
0
 13
259.3120791445306
 23
186.8259007206794
 33
0
 14
210.8120791445306
 24
189.6331355063601
 34
0
 53
0
  0
DIMENSION
  8
1
  6
CONTINUOUS
 62
2
  2
*D4
  3
DMST_4
 10
129.2535589368369
 20
159.1331355063601
 30
0
 11
125.6535589368369
 21
139.8523484319695
 31
0
 12
0
 22
0
 32
0
 70
0
 13
110.7135133979688
 23
119.1331355063584
 33
0
 14
120.4635133979688
 24
159.1331355063601
 34
0
 50
90
 53
0
  0
DIMENSION
  8
1
  6
CONTINUOUS
 62
2
  2
*D5
  3
DMST_4
 10
62.21351339796875
 20
108.9353449542355
 30
0
 11
87.23256125230995
 21
112.5353449542355
 31
0
 12
0
 22
0
 32
0
 70
0
 13
112.7135133979688
 23
121.1331355063584
 33
0
 14
62.21351339796875
 24
121.13313550636
 34
0
 53
0
  0
DIMENSION
  8
1
  6
CONTINUOUS
 62
2
  2
*D6
  3
DMST_4
 10
39.33297839948165
 20
128.6331355063598
 30
0
 11
35.73297839948165
 21
158.5767308198935
 31
0
 12
0
 22
0
 32
0
 70
0
 13
62.46351339796874
 23
189.6331355063601
 33
0
 14
62.46351339796874
 24
128.6331355063598
 34
0
 50
90
 53
0
  0
DIMENSION
  8
1
  6
CONTINUOUS
 62
2
  2
*D9
  3
DMST_5
 10
167.6224039473275
 20
132.1331355063599
 30
0
 11
163.1957372806608
 21
158.9225950628294
 31
0
 12
0
 22
0
 32
0
 70
0
  1
54h7
 13
208.8120791445306
 23
186.1331355063601
 33
0
 14
208.8120791445306
 24
132.1331355063599
 34
0
 50
90
 53
0
  0
DIMENSION
  8
1
  6
CONTINUOUS
 62
2
  2
*D10
  3
DMST_4
 10
56.96351339796874
 20
208.6599103259065
 30
0
 11
86.56342746424795
 21
212.2599103259065
 31
0
 12
0
 22
0
 32
0
 70
0
 13
117.9635133979688
 23
184.1331355063601
 33
0
 14
56.96351339796874
 24
184.1331355063601
 34
0
 53
0
  0
DIMENSION
  8
1
  6
CONTINUOUS
 62
2
  2
*D11
  3
DMST_6
 10
112.2135133979689
 20
197.7737696301645
 30
0
 11
87.65204153382295
 21
201.3737696301645
 31
0
 12
0
 22
0
 32
0
 70
0
 13
62.71351339796874
 23
187.7135228433765
 33
0
 14
112.2135133979688
 24
187.7135228433765
 34
0
 53
0
  0
DIMENSION
  8
1
  6
CONTINUOUS
 62
2
  2
*D12
  3
DMST_6
 10
48.82480638567586
 20
183.8831355063602
 30
0
 11
45.22480638567586
 21
159.3094058385425
 31
0
 12
0
 22
0
 32
0
 70
0
 13
58.88312606095235
 23
134.3831355063601
 33
0
 14
58.88312606095235
 24
183.8831355063602
 34
0
 50
90
 53
0
  0
DIMENSION
  8
1
  6
CONTINUOUS
 62
2
  2
*D13
  3
DMST_7
 10
186.8120791445306
 20
219.3364414031385
 30
0
 11
198.733840419551
 21
222.9364414031385
 31
0
 12
0
 22
0
 32
0
 70
0
 13
210.8120791445306
 23
189.6331355063601
 33
0
 14
186.8120791445306
 24
162.1331355063601
 34
0
 53
0
  0
DIMENSION
  8
1
  6
CONTINUOUS
 62
2
  2
*D14
  3
DMST_8
 10
114.8856986090648
 20
180.8851183642134
 30
0
 11
22.51663303763255
 21
122.1501735396512
 31
0
 12
0
 22
0
 32
0
 70
3
  1
70
 15
60.04132818687264
 25
137.3811526485069
 35
0
 40
0
 53
0
  0
DIMENSION
  8
1
  6
CONTINUOUS
 62
2
  2
*D15
  3
DMST_9
 10
63.50429799986905
 20
136.489592178926
 30
0
 11
26.14534660287995
 21
105.6395268177762
 31
0
 12
0
 22
0
 32
0
 70
3
  1
4-φ<>
 15
61.92272879606843
 25
132.2766788337942
 35
0
 40
0
 53
0
  0
INSERT
  8
0
  2
HENKOU_A
 10
341.5656968122499
 20
186.143050712647
 30
0
  0
INSERT
  8
0
  2
_4__S
 10
305.128729028223
 20
104.7121749452737
 30
0
  0
INSERT
  8
1
  2
*D7
 10
0
 20
0
 30
0
  0
INSERT
  8
1
  2
*D8
 10
0
 20
0
 30
0
  0
ENDSEC
  0
EOF
