  0
SECTION
  2
HEADER
  9
$ACADVER
  1
AC1009
  9
$INSBASE
 10
0
 20
0
  9
$EXTMIN
 10
421.180223107302
 20
575.8318954585768
  9
$EXTMAX
 10
805.8232355777519
 20
807.7904272696177
  9
$LIMMIN
 10
421.180223107302
 20
575.8318954585768
  9
$LIMMAX
 10
805.8232355777519
 20
807.7904272696177
  9
$VIEWCTR
 10
10
 20
10
  9
$VIEWSIZE
 40
10
  9
$SNAPMODE
 70
0
  9
$SNAPUNIT
 10
1
 20
1
  9
$SNAPBASE
 10
0
 20
0
  9
$SNAPANG
 50
0
  9
$SNAPSTYLE
 70
0
  9
$SNAPISOPAIR
 70
0
  9
$GRIDMODE
 70
0
  9
$GRIDUNIT
 10
0
 20
0
  9
$ORTHOMODE
 70
0
  9
$REGENMODE
 70
1
  9
$FILLMODE
 70
1
  9
$QTEXTMODE
 70
0
  9
$DRAGMODE
 70
2
  9
$LTSCALE
 40
1
  9
$OSMODE
 70
0
  9
$ATTMODE
 70
1
  9
$TEXTSIZE
 40
3.5
  9
$TRACEWID
 40
0.5
  9
$TEXTSTYLE
  7
STANDARD
  9
$CLAYER
  8
0
  9
$CELTYPE
  6
BYLAYER
  9
$CECOLOR
 62
256
  9
$DIMSCALE
 40
1
  9
$DIMASZ
 40
0.18
  9
$DIMEXO
 40
0.0625
  9
$DIMDLI
 40
0.38
  9
$DIMRND
 40
0
  9
$DIMDLE
 40
0
  9
$DIMEXE
 40
0.18
  9
$DIMTP
 40
0
  9
$DIMTM
 40
0
  9
$DIMTXT
 40
0.18
  9
$DIMCEN
 40
0.09
  9
$DIMTSZ
 40
0
  9
$DIMTOL
 70
0
  9
$DIMLIM
 70
0
  9
$DIMTIH
 70
1
  9
$DIMTOH
 70
1
  9
$DIMSE1
 70
0
  9
$DIMSE2
 70
0
  9
$DIMTAD
 70
0
  9
$DIMZIN
 70
0
  9
$DIMBLK
  1

  9
$DIMASO
 70
1
  9
$DIMSHO
 70
1
  9
$DIMPOST
  1

  9
$DIMAPOST
  1

  9
$DIMALT
 70
0
  9
$DIMALTD
 70
2
  9
$DIMALTF
 40
25.4
  9
$DIMLFAC
 40
1
  9
$DIMTOFL
 70
0
  9
$DIMTVP
 40
0
  9
$DIMTIX
 70
0
  9
$DIMSOXD
 70
0
  9
$DIMSAH
 70
0
  9
$DIMBLK1
  1

  9
$DIMBLK2
  1

  9
$DIMSTYLE
  2
*UNNAMED
  9
$DIMCLRD
 70
0
  9
$DIMCLRE
 70
0
  9
$DIMCLRT
 70
0
  9
$DIMTFAC
 40
1
  9
$DIMGAP
 40
0.09
  9
$LUNITS
 70
2
  9
$LUPREC
 70
4
  9
$AXISMODE
 70
0
  9
$AXISUNIT
 10
0
 20
0
  9
$SKETCHINC
 40
0.1
  9
$FILLETRAD
 40
2
  9
$AUNITS
 70
0
  9
$AUPREC
 70
0
  9
$MENU
  1
ACAD
  9
$ELEVATION
 40
0
  9
$THICKNESS
 40
0
  9
$VIEWDIR
 10
0
 20
0
 30
1
  9
$LIMCHECK
 70
0
  9
$BLIPMODE
 70
1
  9
$CHAMFERA
 40
0
  9
$CHAMFERB
 40
0
  9
$FASTZOOM
 70
1
  9
$SKPOLY
 70
0
  9
$ANGBASE
 50
0
  9
$ANGDIR
 70
0
  9
$PDMODE
 70
0
  9
$PDSIZE
 40
0
  9
$PLINEWID
 40
0
  9
$COORDS
 70
2
  0
ENDSEC
  0
SECTION
  2
TABLES
  0
TABLE
  2
DIMSTYLE
 70
4
  0
DIMSTYLE
  2
DMST_1
 70
0
  3

  4

  5

  6

  7

 40
1
 41
3.2
 42
1
 43
7
 44
1.5
 45
0
 46
0
 47
20
 48
0
140
3.2
141
0
142
0
143
25.4
144
1
145
0
146
0.6
147
0.09
 71
1
 72
0
 73
0
 74
0
 75
0
 76
0
 77
1
 78
9
170
0
171
2
172
0
173
0
174
0
175
0
176
2
177
2
178
2
  0
DIMSTYLE
  2
DMST_2
 70
0
  3

  4

  5

  6

  7

 40
1
 41
3.2
 42
1
 43
7
 44
1.5
 45
0
 46
0
 47
0
 48
0
140
3.2
141
0
142
0
143
25.4
144
1
145
0
146
1
147
0.09
 71
0
 72
0
 73
0
 74
0
 75
0
 76
0
 77
1
 78
9
170
0
171
2
172
0
173
0
174
0
175
0
176
2
177
2
178
2
  0
DIMSTYLE
  2
DMST_3
 70
0
  3

  4

  5

  6

  7

 40
1
 41
3.2
 42
1
 43
7
 44
1.5
 45
0
 46
0
 47
0
 48
0
140
3.2
141
0
142
0
143
25.4
144
1
145
0
146
1
147
0.09
 71
0
 72
0
 73
1
 74
1
 75
0
 76
0
 77
1
 78
9
170
0
171
2
172
0
173
0
174
0
175
0
176
2
177
2
178
2
  0
DIMSTYLE
  2
DMST_4
 70
0
  3
îè
  4

  5

  6

  7

 40
1
 41
3.2
 42
1
 43
7
 44
1.5
 45
0
 46
0
 47
0
 48
0
140
3.2
141
0
142
0
143
25.4
144
1
145
0
146
1
147
0.09
 71
0
 72
0
 73
1
 74
1
 75
0
 76
0
 77
1
 78
9
170
0
171
2
172
1
173
0
174
0
175
0
176
2
177
2
178
2
  0
ENDTAB
  0
TABLE
  2
LTYPE
 70
9
  0
LTYPE
  2
CONTINUOUS
 70
64
  3
Solid line
 72
65
 73
0
 40
0
  0
LTYPE
  2
BORDER
 70
64
  3
__ __ . __ __ .
 72
65
 73
6
 40
17.71382294271809
 49
5.061092269348025
 49
-2.530546134674013
 49
5.061092269348025
 49
-2.530546134674013
 49
0
 49
-2.530546134674013
  0
LTYPE
  2
CENTER
 70
64
  3
____ _ ____ _
 72
65
 73
4
 40
20.2443690773921
 49
12.65273067337006
 49
-2.530546134674013
 49
2.530546134674013
 49
-2.530546134674013
  0
LTYPE
  2
DASHDOT
 70
64
  3
__ . __ . __ .
 72
65
 73
4
 40
10.12218453869605
 49
5.061092269348025
 49
-2.530546134674013
 49
0
 49
-2.530546134674013
  0
LTYPE
  2
DASHED
 70
64
  3
__ __ __ __ __
 72
65
 73
2
 40
7.591638404022038
 49
5.061092269348025
 49
-2.530546134674013
  0
LTYPE
  2
DIVIDE
 70
64
  3
__ . . __ . . 
 72
65
 73
6
 40
12.65273067337006
 49
5.061092269348025
 49
-2.530546134674013
 49
0
 49
-2.530546134674013
 49
0
 49
-2.530546134674013
  0
LTYPE
  2
DOT
 70
64
  3
..............
 72
65
 73
4
 40
5.061092269348025
 49
0
 49
-2.530546134674013
 49
0
 49
-2.530546134674013
  0
LTYPE
  2
HIDDEN
 70
64
  3
_ _ _ _ _ _ _
 72
65
 73
2
 40
3.795819202011019
 49
2.530546134674013
 49
-1.265273067337006
  0
LTYPE
  2
PHANTOM
 70
64
  3
_____ _ _ _____ _ _ 
 72
65
 73
6
 40
25.30546134674012
 49
12.65273067337006
 49
-2.530546134674013
 49
2.530546134674013
 49
-2.530546134674013
 49
2.530546134674013
 49
-2.530546134674013
  0
ENDTAB
  0
TABLE
  2
LAYER
 70
3
  0
LAYER
  2
1
 70
0
 62
7
  6
CONTINUOUS
  0
LAYER
  2
0
 70
0
 62
7
  6
CONTINUOUS
  0
ENDTAB
  0
TABLE
  2
STYLE
 70
4
  0
STYLE
  2
STANDARD
 70
0
 40
0
 41
1
 50
0
 71
0
 42
3.5
  3
txt
  4

  0
STYLE
  2
SIMPLEX
 70
0
 40
0
 41
1
 50
0
 71
0
 42
3.5
  3
simplex
  4

  0
STYLE
  2
COMPLEX
 70
0
 40
0
 41
1
 50
0
 71
0
 42
3.5
  3
complex
  4

  0
STYLE
  2
ITALIC
 70
0
 40
0
 41
1
 50
0
 71
0
 42
3.5
  3
italic
  4

  0
ENDTAB
  0
TABLE
  2
VIEW
 70
0
  0
ENDTAB
  0
ENDSEC
  0
SECTION
  2
BLOCKS
  0
BLOCK
  8
1
  2
*D0
 70
1
 10
0
 20
0
 30
0
  0
LINE
  8
1
 62
2
 10
728.0678665249683
 20
663.8395498561256
 30
0
 11
784.3809160346942
 21
663.8395498561256
 31
0
  0
LINE
  8
1
 62
2
 10
784.3809160346942
 20
659.8395498561256
 30
0
 11
784.3809160346942
 21
665.3395498561256
 31
0
  0
LINE
  8
1
 62
2
 10
728.0678665249683
 20
657.8395498561256
 30
0
 11
728.0678665249683
 21
665.3395498561256
 31
0
  0
SOLID
  8
1
 62
2
 10
784.3809160346942
 20
663.8395498561256
 30
0
 11
781.1809160346942
 21
663.4235498561255
 31
0
 12
781.1809160346942
 22
664.2555498561256
 32
0
 13
781.1809160346942
 23
664.2555498561256
 33
0
  0
SOLID
  8
1
 62
2
 10
728.0678665249683
 20
663.8395498561256
 30
0
 11
731.2678665249683
 21
664.2555498561256
 31
0
 12
731.2678665249683
 22
663.4235498561255
 32
0
 13
731.2678665249683
 23
663.4235498561255
 33
0
  0
TEXT
  8
1
 62
2
 10
750.3759684429512
 20
666.6395498561255
 30
0
 40
3.2
  1
290
 41
0.9
  0
TEXT
  8
1
 62
2
 10
759.6559684429511
 20
668.7195498561256
 30
0
 40
1.92
  1
+20
 41
0.9
  0
TEXT
  8
1
 62
2
 10
759.6559684429511
 20
665.8395498561256
 30
0
 40
1.92
  1
 0
 41
0.9
  0
ENDBLK
  8
0
  0
BLOCK
  8
1
  2
*D1
 70
1
 10
0
 20
0
 30
0
  0
LINE
  8
1
 62
2
 10
718.0678665249681
 20
663.8395498561255
 30
0
 11
728.0678665249681
 21
663.8395498561255
 31
0
  0
LINE
  8
1
 62
2
 10
728.0678665249681
 20
657.8395498561255
 30
0
 11
728.0678665249681
 21
665.3395498561255
 31
0
  0
LINE
  8
1
 62
2
 10
718.0678665249681
 20
657.4395498561255
 30
0
 11
718.0678665249681
 21
665.3395498561255
 31
0
  0
SOLID
  8
1
 62
2
 10
718.0678665249681
 20
663.8395498561255
 30
0
 11
721.2678665249681
 21
664.2555498561255
 31
0
 12
721.2678665249681
 22
663.4235498561254
 32
0
 13
721.2678665249681
 23
663.4235498561254
 33
0
  0
SOLID
  8
1
 62
2
 10
728.0678665249681
 20
663.8395498561255
 30
0
 11
724.867866524968
 21
663.4235498561254
 31
0
 12
724.867866524968
 22
664.2555498561255
 32
0
 13
724.867866524968
 23
664.2555498561255
 33
0
  0
TEXT
  8
1
 62
2
 10
720.1009330405111
 20
665.8395498561255
 30
0
 40
3.2
  1
(10)
 41
0.9
  0
ENDBLK
  8
0
  0
BLOCK
  8
1
  2
*D2
 70
1
 10
0
 20
0
 30
0
  0
LINE
  8
1
 62
2
 10
732.5460662080699
 20
725.2474538613366
 30
0
 11
788.3921846077141
 21
725.2474538613366
 31
0
  0
LINE
  8
1
 62
2
 10
788.3921846077141
 20
720.5574538613365
 30
0
 11
788.3921846077141
 21
726.7474538613366
 31
0
  0
LINE
  8
1
 62
2
 10
732.5460662080699
 20
719.2474538613366
 30
0
 11
732.5460662080699
 21
726.7474538613366
 31
0
  0
SOLID
  8
1
 62
2
 10
788.3921846077141
 20
725.2474538613366
 30
0
 11
785.192184607714
 21
724.8314538613365
 31
0
 12
785.192184607714
 22
725.6634538613366
 32
0
 13
785.192184607714
 23
725.6634538613366
 33
0
  0
SOLID
  8
1
 62
2
 10
732.5460662080699
 20
725.2474538613366
 30
0
 11
735.7460662080699
 21
725.6634538613366
 31
0
 12
735.7460662080699
 22
724.8314538613365
 32
0
 13
735.7460662080699
 23
724.8314538613365
 33
0
  0
TEXT
  8
1
 62
2
 10
751.940893626724
 20
728.0474538613365
 30
0
 40
3.2
  1
300
 41
0.9
  0
TEXT
  8
1
 62
2
 10
761.220893626724
 20
730.1274538613366
 30
0
 40
1.92
  1
+20
 41
0.9
  0
TEXT
  8
1
 62
2
 10
761.220893626724
 20
727.2474538613366
 30
0
 40
1.92
  1
 0
 41
0.9
  0
ENDBLK
  8
0
  0
BLOCK
  8
1
  2
*D3
 70
1
 10
0
 20
0
 30
0
  0
LINE
  8
1
 62
2
 10
722.5460662080703
 20
725.2474538613366
 30
0
 11
732.5460662080703
 21
725.2474538613366
 31
0
  0
LINE
  8
1
 62
2
 10
732.5460662080703
 20
719.2474538613366
 30
0
 11
732.5460662080703
 21
726.7474538613366
 31
0
  0
LINE
  8
1
 62
2
 10
722.5460662080703
 20
719.0674538613366
 30
0
 11
722.5460662080703
 21
726.7474538613366
 31
0
  0
SOLID
  8
1
 62
2
 10
732.5460662080703
 20
725.2474538613366
 30
0
 11
729.3460662080703
 21
724.8314538613365
 31
0
 12
729.3460662080703
 22
725.6634538613366
 32
0
 13
729.3460662080703
 23
725.6634538613366
 33
0
  0
SOLID
  8
1
 62
2
 10
722.5460662080703
 20
725.2474538613366
 30
0
 11
725.7460662080704
 21
725.6634538613366
 31
0
 12
725.7460662080704
 22
724.8314538613365
 32
0
 13
725.7460662080704
 23
724.8314538613365
 33
0
  0
TEXT
  8
1
 62
2
 10
724.4152258978641
 20
727.2474538613366
 30
0
 40
3.2
  1
(10)
 41
0.9
  0
ENDBLK
  8
0
  0
BLOCK
  8
1
  2
*D4
 70
1
 10
0
 20
0
 30
0
  0
LINE
  8
1
 62
2
 10
650.462612685397
 20
678.5904272696176
 30
0
 11
650.462612685397
 21
741.6904002203083
 31
0
  0
LINE
  8
1
 62
2
 10
619.962612685397
 20
678.5904272696176
 30
0
 11
651.962612685397
 21
678.5904272696176
 31
0
  0
LINE
  8
1
 62
2
 10
625.2136193010109
 20
741.6904002203083
 30
0
 11
651.962612685397
 21
741.6904002203083
 31
0
  0
SOLID
  8
1
 62
2
 10
650.462612685397
 20
678.5904272696176
 30
0
 11
650.0466126853969
 21
681.7904272696177
 31
0
 12
650.878612685397
 22
681.7904272696177
 32
0
 13
650.878612685397
 23
681.7904272696177
 33
0
  0
SOLID
  8
1
 62
2
 10
650.462612685397
 20
741.6904002203083
 30
0
 11
650.878612685397
 21
738.4904002203083
 31
0
 12
650.0466126853969
 22
738.4904002203083
 32
0
 13
650.0466126853969
 23
738.4904002203083
 33
0
  0
TEXT
  8
1
 62
2
 10
648.4626126853971
 20
707.9121651974797
 30
0
 40
3.2
  1
63.1
 50
90
 41
0.9
  0
ENDBLK
  8
0
  0
BLOCK
  8
1
  2
*D5
 70
1
 10
0
 20
0
 30
0
  0
LINE
  8
1
 62
2
 10
524.3730637455528
 20
666.5904272696175
 30
0
 11
539.3730637455529
 21
666.5904272696175
 31
0
  0
LINE
  8
1
 62
2
 10
539.3730637455529
 20
666.5904272696175
 30
0
 11
553.6999992990067
 21
666.5904272696175
 31
0
  0
LINE
  8
1
 62
2
 10
524.3730637455528
 20
677.5904272696175
 30
0
 11
524.3730637455528
 21
665.0904272696175
 31
0
  0
LINE
  8
1
 62
2
 10
539.3730637455529
 20
677.5904272696175
 30
0
 11
539.3730637455529
 21
665.0904272696175
 31
0
  0
SOLID
  8
1
 62
2
 10
524.3730637455528
 20
666.5904272696175
 30
0
 11
527.5730637455529
 21
667.0064272696176
 31
0
 12
527.5730637455529
 22
666.1744272696175
 32
0
 13
527.5730637455529
 23
666.1744272696175
 33
0
  0
SOLID
  8
1
 62
2
 10
539.3730637455529
 20
666.5904272696175
 30
0
 11
536.1730637455529
 21
666.1744272696175
 31
0
 12
536.1730637455529
 22
667.0064272696176
 32
0
 13
536.1730637455529
 23
667.0064272696176
 33
0
  0
TEXT
  8
1
 62
2
 10
542.5810450506407
 20
668.5904272696175
 30
0
 40
3.2
  1
15ê╚ë║
 41
0.9
  0
ENDBLK
  8
0
  0
BLOCK
  8
1
  2
*D6
 70
1
 10
0
 20
0
 30
0
  0
LINE
  8
1
 62
2
 10
530.7730637455528
 20
666.5904272696175
 30
0
 11
524.3730637455528
 21
666.5904272696175
 31
0
  0
LINE
  8
1
 62
2
 10
523.3730637455528
 20
666.5904272696175
 30
0
 11
524.3730637455528
 21
666.5904272696175
 31
0
  0
LINE
  8
1
 62
2
 10
523.3730637455528
 20
666.5904272696175
 30
0
 11
511.6756145530761
 21
666.5904272696175
 31
0
  0
LINE
  8
1
 62
2
 10
523.3730637455528
 20
752.2704688911974
 30
0
 11
523.3730637455528
 21
665.0904272696175
 31
0
  0
LINE
  8
1
 62
2
 10
524.3730637455528
 20
677.5904272696175
 30
0
 11
524.3730637455528
 21
665.0904272696175
 31
0
  0
SOLID
  8
1
 62
2
 10
523.3730637455528
 20
666.5904272696175
 30
0
 11
520.1730637455528
 21
666.1744272696175
 31
0
 12
520.1730637455528
 22
667.0064272696176
 32
0
 13
520.1730637455528
 23
667.0064272696176
 33
0
  0
SOLID
  8
1
 62
2
 10
524.3730637455528
 20
666.5904272696175
 30
0
 11
527.5730637455529
 21
667.0064272696176
 31
0
 12
527.5730637455529
 22
666.1744272696175
 32
0
 13
527.5730637455529
 23
666.1744272696175
 33
0
  0
TEXT
  8
1
 62
2
 10
511.3122158602657
 20
668.5904272696175
 30
0
 40
3.2
  1
3ê╚ë║
 41
0.9
  0
ENDBLK
  8
0
  0
BLOCK
  8
1
  2
*D7
 70
1
 10
0
 20
0
 30
0
  0
LINE
  8
1
 62
2
 10
628.362612685397
 20
747.7852751242407
 30
0
 11
621.962612685397
 21
747.7852751242407
 31
0
  0
LINE
  8
1
 62
2
 10
617.962612685397
 20
747.7852751242407
 30
0
 11
621.962612685397
 21
747.7852751242407
 31
0
  0
LINE
  8
1
 62
2
 10
617.962612685397
 20
747.7852751242407
 30
0
 11
608.0026126853969
 21
747.7852751242407
 31
0
  0
LINE
  8
1
 62
2
 10
617.962612685397
 20
731.3904688911974
 30
0
 11
617.962612685397
 21
749.2852751242408
 31
0
  0
LINE
  8
1
 62
2
 10
621.962612685397
 20
745.0904002203082
 30
0
 11
621.962612685397
 21
749.2852751242408
 31
0
  0
SOLID
  8
1
 62
2
 10
617.962612685397
 20
747.7852751242407
 30
0
 11
614.7626126853969
 21
747.3692751242406
 31
0
 12
614.7626126853969
 22
748.2012751242407
 32
0
 13
614.7626126853969
 23
748.2012751242407
 33
0
  0
SOLID
  8
1
 62
2
 10
621.962612685397
 20
747.7852751242407
 30
0
 11
625.162612685397
 21
748.2012751242407
 31
0
 12
625.162612685397
 22
747.3692751242406
 32
0
 13
625.162612685397
 23
747.3692751242406
 33
0
  0
TEXT
  8
1
 62
2
 10
608.0026126853969
 20
749.7852751242407
 30
0
 40
3.2
  1
4
 41
0.9
  0
ENDBLK
  8
0
  0
BLOCK
  8
1
  2
*D8
 70
1
 10
0
 20
0
 30
0
  0
LINE
  8
1
 62
2
 10
624.362612685397
 20
735.1222710460187
 30
0
 11
617.962612685397
 21
735.1222710460187
 31
0
  0
LINE
  8
1
 62
2
 10
615.8626126853968
 20
735.1222710460187
 30
0
 11
617.962612685397
 21
735.1222710460187
 31
0
  0
LINE
  8
1
 62
2
 10
615.8626126853968
 20
735.1222710460187
 30
0
 11
606.5226126853969
 21
735.1222710460187
 31
0
  0
LINE
  8
1
 62
2
 10
615.8626126853968
 20
731.3904688911974
 30
0
 11
615.8626126853968
 21
736.6222710460187
 31
0
  0
LINE
  8
1
 62
2
 10
617.962612685397
 20
731.3904688911974
 30
0
 11
617.962612685397
 21
736.6222710460187
 31
0
  0
SOLID
  8
1
 62
2
 10
615.8626126853968
 20
735.1222710460187
 30
0
 11
612.6626126853968
 21
734.7062710460186
 31
0
 12
612.6626126853968
 22
735.5382710460187
 32
0
 13
612.6626126853968
 23
735.5382710460187
 33
0
  0
SOLID
  8
1
 62
2
 10
617.962612685397
 20
735.1222710460187
 30
0
 11
621.162612685397
 21
735.5382710460187
 31
0
 12
621.162612685397
 22
734.7062710460186
 32
0
 13
621.162612685397
 23
734.7062710460186
 33
0
  0
TEXT
  8
1
 62
2
 10
606.442612685397
 20
737.1222710460187
 30
0
 40
3.2
  1
2.1
 41
0.9
  0
ENDBLK
  8
0
  0
BLOCK
  8
1
  2
*D9
 70
1
 10
0
 20
0
 30
0
  0
LINE
  8
1
 62
2
 10
627.862612685397
 20
669.5904272696175
 30
0
 11
621.462612685397
 21
669.5904272696175
 31
0
  0
LINE
  8
1
 62
2
 10
617.962612685397
 20
669.5904272696175
 30
0
 11
621.462612685397
 21
669.5904272696175
 31
0
  0
LINE
  8
1
 62
2
 10
617.962612685397
 20
669.5904272696175
 30
0
 11
606.0426126853969
 21
669.5904272696175
 31
0
  0
LINE
  8
1
 62
2
 10
617.962612685397
 20
678.5904272696175
 30
0
 11
617.962612685397
 21
668.0904272696175
 31
0
  0
LINE
  8
1
 62
2
 10
621.462612685397
 20
678.6904272696175
 30
0
 11
621.462612685397
 21
668.0904272696175
 31
0
  0
SOLID
  8
1
 62
2
 10
617.962612685397
 20
669.5904272696175
 30
0
 11
614.7626126853969
 21
669.1744272696175
 31
0
 12
614.7626126853969
 22
670.0064272696176
 32
0
 13
614.7626126853969
 23
670.0064272696176
 33
0
  0
SOLID
  8
1
 62
2
 10
621.462612685397
 20
669.5904272696175
 30
0
 11
624.662612685397
 21
670.0064272696176
 31
0
 12
624.662612685397
 22
669.1744272696175
 32
0
 13
624.662612685397
 23
669.1744272696175
 33
0
  0
TEXT
  8
1
 62
2
 10
605.962612685397
 20
671.5904272696175
 30
0
 40
3.2
  1
3.5
 41
0.9
  0
ENDBLK
  8
0
  0
BLOCK
  8
1
  2
*D10
 70
1
 10
0
 20
0
 30
0
  0
LINE
  8
1
 62
2
 10
624.362612685397
 20
662.5904272696175
 30
0
 11
617.962612685397
 21
662.5904272696175
 31
0
  0
LINE
  8
1
 62
2
 10
612.9626126853979
 20
662.5904272696175
 30
0
 11
617.962612685397
 21
662.5904272696175
 31
0
  0
LINE
  8
1
 62
2
 10
612.9626126853979
 20
662.5904272696175
 30
0
 11
606.5626126853978
 21
662.5904272696175
 31
0
  0
LINE
  8
1
 62
2
 10
612.9626126853979
 20
691.3904272696176
 30
0
 11
612.9626126853979
 21
661.0904272696175
 31
0
  0
LINE
  8
1
 62
2
 10
617.962612685397
 20
678.5904272696175
 30
0
 11
617.962612685397
 21
661.0904272696175
 31
0
  0
SOLID
  8
1
 62
2
 10
617.962612685397
 20
662.5904272696175
 30
0
 11
621.162612685397
 21
663.0064272696176
 31
0
 12
621.162612685397
 22
662.1744272696175
 32
0
 13
621.162612685397
 23
662.1744272696175
 33
0
  0
SOLID
  8
1
 62
2
 10
612.9626126853979
 20
662.5904272696175
 30
0
 11
609.7626126853978
 21
662.1744272696175
 31
0
 12
609.7626126853978
 22
663.0064272696176
 32
0
 13
609.7626126853978
 23
663.0064272696176
 33
0
  0
TEXT
  8
1
 62
2
 10
608.0026126853969
 20
664.5904272696175
 30
0
 40
3.2
  1
5
 41
0.9
  0
ENDBLK
  8
0
  0
BLOCK
  8
1
  2
*D11
 70
1
 10
0
 20
0
 30
0
  0
LINE
  8
1
 62
2
 10
627.862612685397
 20
795.5904272696176
 30
0
 11
621.462612685397
 21
795.5904272696176
 31
0
  0
LINE
  8
1
 62
2
 10
617.962612685397
 20
795.5904272696176
 30
0
 11
621.462612685397
 21
795.5904272696176
 31
0
  0
LINE
  8
1
 62
2
 10
617.962612685397
 20
795.5904272696176
 30
0
 11
606.0426126853969
 21
795.5904272696176
 31
0
  0
LINE
  8
1
 62
2
 10
617.962612685397
 20
783.5904272696176
 30
0
 11
617.962612685397
 21
797.0904272696176
 31
0
  0
LINE
  8
1
 62
2
 10
621.462612685397
 20
783.4904272696176
 30
0
 11
621.462612685397
 21
797.0904272696176
 31
0
  0
SOLID
  8
1
 62
2
 10
621.462612685397
 20
795.5904272696176
 30
0
 11
624.662612685397
 21
796.0064272696177
 31
0
 12
624.662612685397
 22
795.1744272696176
 32
0
 13
624.662612685397
 23
795.1744272696176
 33
0
  0
SOLID
  8
1
 62
2
 10
617.962612685397
 20
795.5904272696176
 30
0
 11
614.7626126853969
 21
795.1744272696176
 31
0
 12
614.7626126853969
 22
796.0064272696177
 32
0
 13
614.7626126853969
 23
796.0064272696177
 33
0
  0
TEXT
  8
1
 62
2
 10
605.962612685397
 20
797.5904272696176
 30
0
 40
3.2
  1
3.5
 41
0.9
  0
ENDBLK
  8
0
  0
BLOCK
  8
1
  2
*D12
 70
1
 10
0
 20
0
 30
0
  0
LINE
  8
1
 62
2
 10
624.362612685397
 20
788.5904272696176
 30
0
 11
617.962612685397
 21
788.5904272696176
 31
0
  0
LINE
  8
1
 62
2
 10
614.1126126853968
 20
788.5904272696176
 30
0
 11
617.962612685397
 21
788.5904272696176
 31
0
  0
LINE
  8
1
 62
2
 10
614.1126126853968
 20
788.5904272696176
 30
0
 11
606.0426126853969
 21
788.5904272696176
 31
0
  0
LINE
  8
1
 62
2
 10
614.1126126853968
 20
776.0904688911973
 30
0
 11
614.1126126853968
 21
790.0904272696176
 31
0
  0
LINE
  8
1
 62
2
 10
617.962612685397
 20
783.5904272696176
 30
0
 11
617.962612685397
 21
790.0904272696176
 31
0
  0
SOLID
  8
1
 62
2
 10
617.962612685397
 20
788.5904272696176
 30
0
 11
621.162612685397
 21
789.0064272696177
 31
0
 12
621.162612685397
 22
788.1744272696176
 32
0
 13
621.162612685397
 23
788.1744272696176
 33
0
  0
SOLID
  8
1
 62
2
 10
614.1126126853968
 20
788.5904272696176
 30
0
 11
610.9126126853968
 21
788.1744272696176
 31
0
 12
610.9126126853968
 22
789.0064272696177
 32
0
 13
610.9126126853968
 23
789.0064272696177
 33
0
  0
TEXT
  8
1
 62
2
 10
605.962612685397
 20
790.5904272696176
 30
0
 40
3.2
  1
3.9
 41
0.9
  0
ENDBLK
  8
0
  0
BLOCK
  8
1
  2
*D13
 70
1
 10
0
 20
0
 30
0
  0
LINE
  8
1
 62
2
 10
617.962612685397
 20
802.5904272696176
 30
0
 11
682.962612685397
 21
802.5904272696176
 31
0
  0
LINE
  8
1
 62
2
 10
617.962612685397
 20
783.5904272696176
 30
0
 11
617.962612685397
 21
804.0904272696176
 31
0
  0
LINE
  8
1
 62
2
 10
682.962612685397
 20
783.5904272696176
 30
0
 11
682.962612685397
 21
804.0904272696176
 31
0
  0
SOLID
  8
1
 62
2
 10
617.962612685397
 20
802.5904272696176
 30
0
 11
621.162612685397
 21
803.0064272696177
 31
0
 12
621.162612685397
 22
802.1744272696176
 32
0
 13
621.162612685397
 23
802.1744272696176
 33
0
  0
SOLID
  8
1
 62
2
 10
682.962612685397
 20
802.5904272696176
 30
0
 11
679.7626126853969
 21
802.1744272696176
 31
0
 12
679.7626126853969
 22
803.0064272696177
 32
0
 13
679.7626126853969
 23
803.0064272696177
 33
0
  0
TEXT
  8
1
 62
2
 10
648.062612685397
 20
804.5904272696176
 30
0
 40
3.2
  1
65
 41
0.9
  0
ENDBLK
  8
0
  0
BLOCK
  8
1
  2
*D14
 70
1
 10
0
 20
0
 30
0
  0
LINE
  8
1
 62
2
 10
621.462612685397
 20
795.5904272696176
 30
0
 11
679.462612685397
 21
795.5904272696176
 31
0
  0
LINE
  8
1
 62
2
 10
621.462612685397
 20
783.4904272696176
 30
0
 11
621.462612685397
 21
797.0904272696176
 31
0
  0
LINE
  8
1
 62
2
 10
679.462612685397
 20
783.4904272696176
 30
0
 11
679.462612685397
 21
797.0904272696176
 31
0
  0
SOLID
  8
1
 62
2
 10
621.462612685397
 20
795.5904272696176
 30
0
 11
624.662612685397
 21
796.0064272696177
 31
0
 12
624.662612685397
 22
795.1744272696176
 32
0
 13
624.662612685397
 23
795.1744272696176
 33
0
  0
SOLID
  8
1
 62
2
 10
679.462612685397
 20
795.5904272696176
 30
0
 11
676.2626126853969
 21
795.1744272696176
 31
0
 12
676.2626126853969
 22
796.0064272696177
 32
0
 13
676.2626126853969
 23
796.0064272696177
 33
0
  0
TEXT
  8
1
 62
2
 10
648.062612685397
 20
797.5904272696176
 30
0
 40
3.2
  1
58
 41
0.9
  0
ENDBLK
  8
0
  0
BLOCK
  8
1
  2
*D15
 70
1
 10
0
 20
0
 30
0
  0
LINE
  8
1
 62
2
 10
698.962612685397
 20
678.5904272696175
 30
0
 11
698.962612685397
 21
783.5904272696175
 31
0
  0
LINE
  8
1
 62
2
 10
682.962612685397
 20
678.5904272696175
 30
0
 11
700.462612685397
 21
678.5904272696175
 31
0
  0
LINE
  8
1
 62
2
 10
682.962612685397
 20
783.5904272696175
 30
0
 11
700.462612685397
 21
783.5904272696175
 31
0
  0
SOLID
  8
1
 62
2
 10
698.962612685397
 20
783.5904272696175
 30
0
 11
699.378612685397
 21
780.3904272696175
 31
0
 12
698.5466126853969
 22
780.3904272696175
 32
0
 13
698.5466126853969
 23
780.3904272696175
 33
0
  0
SOLID
  8
1
 62
2
 10
698.962612685397
 20
678.5904272696175
 30
0
 11
698.5466126853969
 21
681.7904272696176
 31
0
 12
699.378612685397
 22
681.7904272696176
 32
0
 13
699.378612685397
 23
681.7904272696176
 33
0
  0
TEXT
  8
1
 62
2
 10
696.9626126853971
 20
727.7304272696175
 30
0
 40
3.2
  1
105
 50
90
 41
0.9
  0
ENDBLK
  8
0
  0
BLOCK
  8
1
  2
*D16
 70
1
 10
0
 20
0
 30
0
  0
LINE
  8
1
 62
2
 10
691.962612685397
 20
682.0904272696175
 30
0
 11
691.962612685397
 21
780.0904272696175
 31
0
  0
LINE
  8
1
 62
2
 10
682.7136193010109
 20
682.0904272696175
 30
0
 11
693.462612685397
 21
682.0904272696175
 31
0
  0
LINE
  8
1
 62
2
 10
682.7136193010109
 20
780.0904272696175
 30
0
 11
693.462612685397
 21
780.0904272696175
 31
0
  0
SOLID
  8
1
 62
2
 10
691.962612685397
 20
682.0904272696175
 30
0
 11
691.5466126853969
 21
685.2904272696176
 31
0
 12
692.378612685397
 22
685.2904272696176
 32
0
 13
692.378612685397
 23
685.2904272696176
 33
0
  0
SOLID
  8
1
 62
2
 10
691.962612685397
 20
780.0904272696175
 30
0
 11
692.378612685397
 21
776.8904272696175
 31
0
 12
691.5466126853969
 22
776.8904272696175
 32
0
 13
691.5466126853969
 23
776.8904272696175
 33
0
  0
TEXT
  8
1
 62
2
 10
689.9626126853971
 20
728.6904272696175
 30
0
 40
3.2
  1
98
 50
90
 41
0.9
  0
ENDBLK
  8
0
  0
BLOCK
  8
1
  2
*D17
 70
1
 10
0
 20
0
 30
0
  0
LINE
  8
1
 62
2
 10
691.962612685397
 20
688.4904272696176
 30
0
 11
691.962612685397
 21
682.0904272696175
 31
0
  0
LINE
  8
1
 62
2
 10
691.962612685397
 20
678.5904272696175
 30
0
 11
691.962612685397
 21
682.0904272696175
 31
0
  0
LINE
  8
1
 62
2
 10
691.962612685397
 20
678.5904272696175
 30
0
 11
691.962612685397
 21
670.5479725012327
 31
0
  0
LINE
  8
1
 62
2
 10
682.962612685397
 20
678.5904272696175
 30
0
 11
693.462612685397
 21
678.5904272696175
 31
0
  0
LINE
  8
1
 62
2
 10
624.7136193010109
 20
682.0904272696175
 30
0
 11
693.462612685397
 21
682.0904272696175
 31
0
  0
SOLID
  8
1
 62
2
 10
691.962612685397
 20
682.0904272696175
 30
0
 11
691.5466126853969
 21
685.2904272696176
 31
0
 12
692.378612685397
 22
685.2904272696176
 32
0
 13
692.378612685397
 23
685.2904272696176
 33
0
  0
SOLID
  8
1
 62
2
 10
691.962612685397
 20
678.5904272696175
 30
0
 11
692.378612685397
 21
675.3904272696175
 31
0
 12
691.5466126853969
 22
675.3904272696175
 32
0
 13
691.5466126853969
 23
675.3904272696175
 33
0
  0
TEXT
  8
1
 62
2
 10
689.9626126853971
 20
670.4679725012327
 30
0
 40
3.2
  1
3.5
 50
90
 41
0.9
  0
ENDBLK
  8
0
  0
BLOCK
  8
1
  2
*D18
 70
1
 10
0
 20
0
 30
0
  0
LINE
  8
1
 62
2
 10
675.6897463488748
 20
774.7361785261675
 30
0
 11
690.3846730935223
 21
795.5904272696175
 31
0
  0
LINE
  8
1
 62
2
 10
690.3846730935223
 20
795.5904272696175
 30
0
 11
715.4293789758755
 21
795.5904272696175
 31
0
  0
SOLID
  8
1
 62
2
 10
680.4706304088953
 20
781.5209517430585
 30
0
 11
681.9738067141773
 21
784.3763881361933
 31
0
 12
682.6539189209789
 22
783.8971477099359
 32
0
 13
682.6539189209789
 23
783.8971477099359
 33
0
  0
SOLID
  8
1
 62
2
 10
678.4545949618986
 20
778.6599027961768
 30
0
 11
676.9514186566166
 21
775.8044664030419
 31
0
 12
676.271306449815
 22
776.2837068292994
 32
0
 13
676.271306449815
 23
776.2837068292994
 33
0
  0
TEXT
  8
1
 62
2
 10
705.0717319170519
 20
798.4437606029509
 30
0
 40
3.2
  1
3.5
 41
0.9
  0
TEXT
  8
1
 62
2
 10
695.5846730935225
 20
798.4437606029509
 30
0
 40
3.2
  1
5-âË
 41
0.9
  0
TEXT
  8
1
 62
2
 10
712.5117319170519
 20
798.4437606029509
 30
0
 40
3.2
  1
îè
 41
0.9
  0
ENDBLK
  8
0
  0
ENDSEC
  0
SECTION
  2
ENTITIES
  0
LINE
  8
1
 62
2
 10
599.5653648645081
 20
793.8777826206199
 30
0
 11
599.5653648645081
 21
791.3777826206199
 31
0
  0
LINE
  8
1
 62
2
 10
602.0653648645081
 20
792.3777826206199
 30
0
 11
599.5653648645081
 21
793.8777826206199
 31
0
  0
LINE
  8
1
 62
2
 10
594.7866861530761
 20
792.3777826206199
 30
0
 11
602.0653648645081
 21
792.3777826206199
 31
0
  0
LINE
  8
1
 62
2
 10
602.5653648645081
 20
789.3777826206199
 30
0
 11
594.2866861530761
 21
789.3777826206199
 31
0
  0
LINE
  8
1
 62
2
 10
594.2866861530761
 20
795.3777826206199
 30
0
 11
602.5653648645081
 21
795.3777826206199
 31
0
  0
LINE
  8
1
 62
2
 10
594.2866861530761
 20
769.3777826206199
 30
0
 11
594.2866861530761
 21
795.3777826206199
 31
0
  0
LINE
  8
1
 62
2
 10
602.5653648645081
 20
769.3777826206199
 30
0
 11
594.2866861530761
 21
769.3777826206199
 31
0
  0
LINE
  8
1
 62
2
 10
602.5653648645081
 20
795.3777826206199
 30
0
 11
602.5653648645081
 21
769.3777826206199
 31
0
  0
LINE
  8
1
 62
3
 10
784.380916034694
 20
658.8395498561255
 30
0
 11
795.180916034694
 21
658.8395498561255
 31
0
  0
LINE
  8
1
 62
3
 10
784.380916034694
 20
656.8395498561255
 30
0
 11
756.200631527429
 21
656.8395498561255
 31
0
  0
LINE
  8
1
 62
3
 10
784.380916034694
 20
655.3395498561255
 30
0
 11
755.573244965564
 21
655.3395498561255
 31
0
  0
LINE
  8
1
 62
3
 10
784.380916034694
 20
652.6395498561255
 30
0
 11
756.160468525104
 21
652.6395498561255
 31
0
  0
LINE
  8
1
 62
3
 10
784.380916034694
 20
651.1395498561255
 30
0
 11
756.301279081485
 21
651.1395498561255
 31
0
  0
LINE
  8
1
 62
3
 10
728.0678665249681
 20
656.8395498561255
 30
0
 11
728.0678665249681
 21
655.3395498561255
 31
0
  0
LINE
  8
1
 62
3
 10
728.0678665249681
 20
656.4395498561255
 30
0
 11
718.0678665249681
 21
656.4395498561255
 31
0
  0
LINE
  8
1
 62
3
 10
718.0678665249681
 20
656.4395498561255
 30
0
 11
718.0678665249681
 21
655.7395498561256
 31
0
  0
LINE
  8
1
 62
3
 10
718.0678665249681
 20
655.7395498561256
 30
0
 11
728.0678665249681
 21
655.7395498561256
 31
0
  0
LINE
  8
1
 62
3
 10
728.0678665249681
 20
656.8395498561255
 30
0
 11
755.2403622076071
 21
656.8395498561255
 31
0
  0
LINE
  8
1
 62
3
 10
754.6129756457461
 20
655.3395498561255
 30
0
 11
728.0678665249681
 21
655.3395498561255
 31
0
  0
LINE
  8
1
 62
3
 10
803.9809160346941
 20
654.3395498561255
 30
0
 11
803.9809160346941
 21
657.8395498561255
 31
0
  0
LINE
  8
1
 62
3
 10
795.180916034694
 20
650.1395498561255
 30
0
 11
803.9809160346941
 21
650.1395498561255
 31
0
  0
LINE
  8
1
 62
3
 10
803.9809160346941
 20
657.8395498561255
 30
0
 11
795.180916034694
 21
657.8395498561255
 31
0
  0
LINE
  8
1
 62
3
 10
803.9809160346941
 20
650.1395498561255
 30
0
 11
803.9809160346941
 21
653.6395498561255
 31
0
  0
LINE
  8
1
 62
3
 10
784.380916034694
 20
658.8395498561255
 30
0
 11
784.380916034694
 21
649.1395498561255
 31
0
  0
LINE
  8
1
 62
3
 10
795.180916034694
 20
649.1395498561255
 30
0
 11
795.180916034694
 21
658.8395498561255
 31
0
  0
LINE
  8
1
 62
3
 10
803.9809160346941
 20
653.6395498561255
 30
0
 11
795.180916034694
 21
653.6395498561255
 31
0
  0
LINE
  8
1
 62
3
 10
803.9809160346941
 20
654.3395498561255
 30
0
 11
795.180916034694
 21
654.3395498561255
 31
0
  0
LINE
  8
1
 62
3
 10
798.4809160346941
 20
660.3395498561255
 30
0
 11
798.4809160346941
 21
658.8395498561255
 31
0
  0
LINE
  8
1
 62
3
 10
794.3939269057061
 20
660.3395498561255
 30
0
 11
798.4809160346941
 21
660.3395498561255
 31
0
  0
LINE
  8
1
 62
3
 10
794.3939269057061
 20
659.3395498561255
 30
0
 11
794.3939269057061
 21
660.3395498561255
 31
0
  0
LINE
  8
1
 62
3
 10
800.0491754975629
 20
658.8395498561255
 30
0
 11
798.4809160346941
 21
658.8395498561255
 31
0
  0
LINE
  8
1
 62
3
 10
801.4809160346941
 20
660.3395498561255
 30
0
 11
800.0491754975629
 21
658.8395498561255
 31
0
  0
LINE
  8
1
 62
3
 10
800.9687281141249
 20
662.3395498561255
 30
0
 11
801.4809160346941
 21
661.7833983338555
 31
0
  0
LINE
  8
1
 62
3
 10
786.680916034694
 20
662.7489285812455
 30
0
 11
788.416834898053
 21
662.7489285812455
 31
0
  0
LINE
  8
1
 62
3
 10
786.680916034694
 20
662.3395498561255
 30
0
 11
786.680916034694
 21
662.7489285812455
 31
0
  0
LINE
  8
1
 62
3
 10
788.416834898053
 20
662.7489285812455
 30
0
 11
788.416834898053
 21
661.9673088571674
 31
0
  0
LINE
  8
1
 62
3
 10
788.7386783138501
 20
661.5075325488865
 30
0
 11
788.416834898053
 21
661.9673088571674
 31
0
  0
LINE
  8
1
 62
3
 10
794.3939269057061
 20
661.5075325488865
 30
0
 11
788.7386783138501
 21
661.5075325488865
 31
0
  0
LINE
  8
1
 62
3
 10
794.3939269057061
 20
660.3395498561255
 30
0
 11
794.3939269057061
 21
661.5075325488865
 31
0
  0
LINE
  8
1
 62
3
 10
792.278955887614
 20
660.3395498561255
 30
0
 11
786.680916034694
 21
661.0017786097775
 31
0
  0
LINE
  8
1
 62
3
 10
792.4387321958951
 20
660.3395498561255
 30
0
 11
792.278955887614
 21
660.3395498561255
 31
0
  0
LINE
  8
1
 62
3
 10
792.7387321958951
 20
659.3395498561255
 30
0
 11
792.7387321958951
 21
660.0395498561256
 31
0
  0
LINE
  8
1
 62
3
 10
795.180916034694
 20
658.8395498561255
 30
0
 11
794.8939269057061
 21
658.8395498561255
 31
0
  0
LINE
  8
1
 62
3
 10
801.4809160346941
 20
661.7833983338555
 30
0
 11
801.4809160346941
 21
660.3395498561255
 31
0
  0
LINE
  8
1
 62
3
 10
788.416834898053
 20
662.3395498561255
 30
0
 11
800.9687281141249
 21
662.3395498561255
 31
0
  0
LINE
  8
1
 62
3
 10
786.680916034694
 20
661.0017786097775
 30
0
 11
786.680916034694
 21
662.3395498561255
 31
0
  0
LINE
  8
1
 62
3
 10
795.180916034694
 20
649.1395498561255
 30
0
 11
784.380916034694
 21
649.1395498561255
 31
0
  0
LINE
  8
1
 62
3
 10
754.6129756457461
 20
651.1395498561255
 30
0
 11
728.0678665249681
 21
651.1395498561255
 31
0
  0
LINE
  8
1
 62
3
 10
728.0678665249681
 20
652.6395498561255
 30
0
 11
755.2403622076071
 21
652.6395498561255
 31
0
  0
LINE
  8
1
 62
3
 10
728.0678665249681
 20
652.6395498561255
 30
0
 11
728.0678665249681
 21
651.1395498561255
 31
0
  0
LINE
  8
1
 62
3
 10
728.0678665249681
 20
652.2395498561256
 30
0
 11
718.0678665249681
 21
652.2395498561256
 31
0
  0
LINE
  8
1
 62
3
 10
718.0678665249681
 20
652.2395498561256
 30
0
 11
718.0678665249681
 21
651.5395498561256
 31
0
  0
LINE
  8
1
 62
3
 10
718.0678665249681
 20
651.5395498561256
 30
0
 11
728.0678665249681
 21
651.5395498561256
 31
0
  0
LINE
  8
1
 62
3
 10
756.4025022892059
 20
699.2674538613364
 30
0
 11
732.5460662080701
 21
699.2674538613364
 31
0
  0
LINE
  8
1
 62
3
 10
756.0058349097611
 20
700.2474538613365
 30
0
 11
732.5460662080701
 21
700.2474538613365
 31
0
  0
LINE
  8
1
 62
3
 10
755.7502390703631
 20
701.2674538613364
 30
0
 11
732.5460662080701
 21
701.2674538613364
 31
0
  0
LINE
  8
1
 62
3
 10
755.644427123564
 20
702.2474538613365
 30
0
 11
732.5460662080701
 21
702.2474538613365
 31
0
  0
LINE
  8
1
 62
3
 10
755.665988527361
 20
703.2674538613364
 30
0
 11
732.5460662080701
 21
703.2674538613364
 31
0
  0
LINE
  8
1
 62
3
 10
755.798502416273
 20
704.2474538613365
 30
0
 11
732.5460662080701
 21
704.2474538613365
 31
0
  0
LINE
  8
1
 62
3
 10
756.035596948581
 20
705.2674538613364
 30
0
 11
732.5460662080701
 21
705.2674538613364
 31
0
  0
LINE
  8
1
 62
3
 10
756.340974208064
 20
706.2474538613365
 30
0
 11
732.546066208071
 21
706.2474538613367
 31
0
  0
LINE
  8
1
 62
3
 10
756.719637232514
 20
707.2674538613364
 30
0
 11
732.5460662080701
 21
707.2674538613364
 31
0
  0
LINE
  8
1
 62
3
 10
757.1220727352421
 20
708.2474538613365
 30
0
 11
732.5460662080701
 21
708.2474538613365
 31
0
  0
LINE
  8
1
 62
3
 10
757.559583316022
 20
709.2674538613367
 30
0
 11
732.5460662080701
 21
709.2674538613364
 31
0
  0
LINE
  8
1
 62
3
 10
757.9771417481721
 20
710.2474538613365
 30
0
 11
732.5460662080701
 21
710.2474538613365
 31
0
  0
LINE
  8
1
 62
3
 10
758.387056563838
 20
711.2674538613364
 30
0
 11
732.5460662080701
 21
711.2674538613364
 31
0
  0
LINE
  8
1
 62
3
 10
758.736939526619
 20
712.2474538613365
 30
0
 11
732.5460662080701
 21
712.2474538613365
 31
0
  0
LINE
  8
1
 62
3
 10
759.0347808191119
 20
713.2674538613364
 30
0
 11
732.5460662080701
 21
713.2674538613364
 31
0
  0
LINE
  8
1
 62
3
 10
759.2387426242161
 20
714.2474538613365
 30
0
 11
732.5460662080701
 21
714.2474538613365
 31
0
  0
LINE
  8
1
 62
3
 10
759.3473283066791
 20
715.2674538613364
 30
0
 11
732.5460662080701
 21
715.2674538613364
 31
0
  0
LINE
  8
1
 62
3
 10
759.336285391045
 20
716.2474538613365
 30
0
 11
732.5460662080701
 21
716.2474538613365
 31
0
  0
LINE
  8
1
 62
3
 10
759.1898104150911
 20
717.2674538613364
 30
0
 11
732.5460662080701
 21
717.2674538613364
 31
0
  0
LINE
  8
1
 62
3
 10
758.9069549028571
 20
718.2474538613365
 30
0
 11
732.5460662080701
 21
718.2474538613365
 31
0
  0
LINE
  8
1
 62
3
 10
788.3921846077141
 20
699.2674538613364
 30
0
 11
757.4025022892059
 21
699.2674538613364
 31
0
  0
LINE
  8
1
 62
3
 10
732.5460662080701
 20
700.2474538613365
 30
0
 11
732.5460662080701
 21
699.2674538613364
 31
0
  0
LINE
  8
1
 62
3
 10
788.3921846077141
 20
700.2474538613365
 30
0
 11
757.0058349097611
 21
700.2474538613365
 31
0
  0
LINE
  8
1
 62
3
 10
788.3921846077141
 20
701.2674538613364
 30
0
 11
756.7502390703631
 21
701.2674538613364
 31
0
  0
LINE
  8
1
 62
3
 10
732.5460662080701
 20
702.2474538613365
 30
0
 11
732.5460662080701
 21
701.2674538613364
 31
0
  0
LINE
  8
1
 62
3
 10
788.3921846077141
 20
702.2474538613365
 30
0
 11
756.644427123564
 21
702.2474538613365
 31
0
  0
LINE
  8
1
 62
3
 10
788.3921846077141
 20
703.2674538613364
 30
0
 11
756.665988527361
 21
703.2674538613364
 31
0
  0
LINE
  8
1
 62
3
 10
732.5460662080701
 20
704.2474538613365
 30
0
 11
732.5460662080701
 21
703.2674538613364
 31
0
  0
LINE
  8
1
 62
3
 10
788.3921846077141
 20
704.2474538613365
 30
0
 11
756.798502416273
 21
704.2474538613365
 31
0
  0
LINE
  8
1
 62
3
 10
788.3921846077141
 20
705.2674538613364
 30
0
 11
757.035596948581
 21
705.2674538613364
 31
0
  0
LINE
  8
1
 62
3
 10
732.546066208071
 20
706.2474538613367
 30
0
 11
732.5460662080701
 21
705.2674538613364
 31
0
  0
LINE
  8
1
 62
3
 10
788.3921846077141
 20
706.2474538613365
 30
0
 11
757.340974208064
 21
706.2474538613365
 31
0
  0
LINE
  8
1
 62
3
 10
788.3921846077141
 20
707.2674538613364
 30
0
 11
757.719637232514
 21
707.2674538613364
 31
0
  0
LINE
  8
1
 62
3
 10
732.5460662080701
 20
708.2474538613365
 30
0
 11
732.5460662080701
 21
707.2674538613364
 31
0
  0
LINE
  8
1
 62
3
 10
788.3921846077141
 20
708.2474538613365
 30
0
 11
758.1220727352421
 21
708.2474538613365
 31
0
  0
LINE
  8
1
 62
3
 10
788.3921846077141
 20
709.2674538613364
 30
0
 11
758.559583316022
 21
709.2674538613367
 31
0
  0
LINE
  8
1
 62
3
 10
732.5460662080701
 20
710.2474538613365
 30
0
 11
732.5460662080701
 21
709.2674538613364
 31
0
  0
LINE
  8
1
 62
3
 10
788.3921846077141
 20
710.2474538613365
 30
0
 11
758.9771417481721
 21
710.2474538613365
 31
0
  0
LINE
  8
1
 62
3
 10
788.3921846077141
 20
711.2674538613364
 30
0
 11
759.387056563838
 21
711.2674538613364
 31
0
  0
LINE
  8
1
 62
3
 10
732.5460662080701
 20
712.2474538613365
 30
0
 11
732.5460662080701
 21
711.2674538613364
 31
0
  0
LINE
  8
1
 62
3
 10
788.3921846077141
 20
712.2474538613365
 30
0
 11
759.736939526619
 21
712.2474538613365
 31
0
  0
LINE
  8
1
 62
3
 10
788.3921846077141
 20
713.2674538613364
 30
0
 11
760.0347808191119
 21
713.2674538613364
 31
0
  0
LINE
  8
1
 62
3
 10
732.5460662080701
 20
714.2474538613365
 30
0
 11
732.5460662080701
 21
713.2674538613364
 31
0
  0
LINE
  8
1
 62
3
 10
788.3921846077141
 20
714.2474538613365
 30
0
 11
760.2387426242161
 21
714.2474538613365
 31
0
  0
LINE
  8
1
 62
3
 10
788.3921846077141
 20
715.2674538613364
 30
0
 11
760.3473283066791
 21
715.2674538613364
 31
0
  0
LINE
  8
1
 62
3
 10
732.5460662080701
 20
716.2474538613365
 30
0
 11
732.5460662080701
 21
715.2674538613364
 31
0
  0
LINE
  8
1
 62
3
 10
788.3921846077141
 20
716.2474538613365
 30
0
 11
760.336285391045
 21
716.2474538613365
 31
0
  0
LINE
  8
1
 62
3
 10
788.3921846077141
 20
717.2674538613364
 30
0
 11
760.1898104150911
 21
717.2674538613364
 31
0
  0
LINE
  8
1
 62
3
 10
732.5460662080701
 20
718.2474538613365
 30
0
 11
732.5460662080701
 21
717.2674538613364
 31
0
  0
LINE
  8
1
 62
3
 10
788.3921846077141
 20
718.2474538613365
 30
0
 11
759.9069549028571
 21
718.2474538613365
 31
0
  0
LINE
  8
1
 62
3
 10
794.3921846077141
 20
719.0074538613364
 30
0
 11
794.3921846077141
 21
698.5074538613364
 31
0
  0
LINE
  8
1
 62
3
 10
794.3921846077141
 20
698.5074538613364
 30
0
 11
788.8921846077141
 21
698.5074538613364
 31
0
  0
LINE
  8
1
 62
3
 10
788.8921846077141
 20
698.5074538613364
 30
0
 11
788.3921846077141
 21
697.9574538613365
 31
0
  0
LINE
  8
1
 62
3
 10
788.3921846077141
 20
697.9574538613365
 30
0
 11
788.3921846077141
 21
719.5574538613364
 31
0
  0
LINE
  8
1
 62
3
 10
788.3921846077141
 20
719.5574538613364
 30
0
 11
788.8921846077141
 21
719.0074538613364
 31
0
  0
LINE
  8
1
 62
3
 10
788.8921846077141
 20
719.0074538613364
 30
0
 11
794.3921846077141
 21
719.0074538613364
 31
0
  0
LINE
  8
1
 62
2
 10
792.3921846077141
 20
698.5074538613364
 30
0
 11
792.3921846077141
 21
699.3074538613366
 31
0
  0
LINE
  8
1
 62
2
 10
793.8921846077141
 20
698.5074538613364
 30
0
 11
793.8921846077141
 21
699.3074538613366
 31
0
  0
LINE
  8
1
 62
2
 10
793.8921846077141
 20
699.3074538613366
 30
0
 11
792.3921846077141
 21
699.3074538613366
 31
0
  0
LINE
  8
1
 62
2
 10
793.8921846077141
 20
719.0074538613364
 30
0
 11
793.8921846077141
 21
718.2074538613365
 31
0
  0
LINE
  8
1
 62
2
 10
793.8921846077141
 20
718.2074538613365
 30
0
 11
792.3921846077141
 21
718.2074538613365
 31
0
  0
LINE
  8
1
 62
2
 10
792.3921846077141
 20
718.2074538613365
 30
0
 11
792.3921846077141
 21
719.0074538613364
 31
0
  0
LINE
  8
1
 62
2
 10
788.3921846077141
 20
718.2074538613365
 30
0
 11
789.3921846077141
 21
718.2074538613365
 31
0
  0
LINE
  8
1
 62
2
 10
789.3921846077141
 20
718.2074538613365
 30
0
 11
789.3921846077141
 21
716.5074538613364
 31
0
  0
LINE
  8
1
 62
2
 10
789.3921846077141
 20
716.5074538613364
 30
0
 11
794.3921846077141
 21
716.5074538613364
 31
0
  0
LINE
  8
1
 62
3
 10
794.3921846077141
 20
716.5074538613364
 30
0
 11
794.3921846077141
 21
715.5074538613364
 31
0
  0
LINE
  8
1
 62
2
 10
794.3921846077141
 20
715.5074538613364
 30
0
 11
789.3921846077141
 21
715.5074538613364
 31
0
  0
LINE
  8
1
 62
2
 10
789.3921846077141
 20
715.5074538613364
 30
0
 11
789.3921846077141
 21
702.0074538613364
 31
0
  0
LINE
  8
1
 62
2
 10
789.3921846077141
 20
702.0074538613364
 30
0
 11
794.3921846077141
 21
702.0074538613364
 31
0
  0
LINE
  8
1
 62
3
 10
794.3921846077141
 20
702.0074538613364
 30
0
 11
794.3921846077141
 21
701.0074538613364
 31
0
  0
LINE
  8
1
 62
2
 10
794.3921846077141
 20
701.0074538613364
 30
0
 11
789.3921846077141
 21
701.0074538613364
 31
0
  0
LINE
  8
1
 62
2
 10
789.3921846077141
 20
701.0074538613364
 30
0
 11
789.3921846077141
 21
699.3074538613366
 31
0
  0
LINE
  8
1
 62
2
 10
789.3921846077141
 20
699.3074538613366
 30
0
 11
788.3921846077141
 21
699.3074538613366
 31
0
  0
LINE
  8
1
 62
3
 10
732.5460662080701
 20
699.4474538613365
 30
0
 11
722.5460662080701
 21
699.4474538613365
 31
0
  0
LINE
  8
1
 62
3
 10
722.5460662080701
 20
700.0674538613364
 30
0
 11
732.5460662080701
 21
700.0674538613364
 31
0
  0
LINE
  8
1
 62
3
 10
722.5460662080701
 20
700.0674538613364
 30
0
 11
722.5460662080701
 21
699.4474538613365
 31
0
  0
LINE
  8
1
 62
3
 10
732.5460662080701
 20
701.4474538613365
 30
0
 11
722.5460662080701
 21
701.4474538613365
 31
0
  0
LINE
  8
1
 62
3
 10
722.5460662080701
 20
702.0674538613364
 30
0
 11
732.5460662080701
 21
702.0674538613364
 31
0
  0
LINE
  8
1
 62
3
 10
722.5460662080701
 20
702.0674538613364
 30
0
 11
722.5460662080701
 21
701.4474538613365
 31
0
  0
LINE
  8
1
 62
3
 10
732.5460662080701
 20
703.4474538613365
 30
0
 11
722.5460662080701
 21
703.4474538613365
 31
0
  0
LINE
  8
1
 62
3
 10
722.5460662080701
 20
704.0674538613364
 30
0
 11
732.5460662080701
 21
704.0674538613364
 31
0
  0
LINE
  8
1
 62
3
 10
722.5460662080701
 20
704.0674538613364
 30
0
 11
722.5460662080701
 21
703.4474538613365
 31
0
  0
LINE
  8
1
 62
3
 10
732.5460662080701
 20
705.4474538613365
 30
0
 11
722.5460662080701
 21
705.4474538613365
 31
0
  0
LINE
  8
1
 62
3
 10
722.5460662080701
 20
706.0674538613364
 30
0
 11
732.5460662080701
 21
706.0674538613364
 31
0
  0
LINE
  8
1
 62
3
 10
722.5460662080701
 20
706.0674538613364
 30
0
 11
722.5460662080701
 21
705.4474538613365
 31
0
  0
LINE
  8
1
 62
3
 10
732.5460662080701
 20
707.4474538613365
 30
0
 11
722.5460662080701
 21
707.4474538613365
 31
0
  0
LINE
  8
1
 62
3
 10
722.5460662080701
 20
708.0674538613364
 30
0
 11
732.5460662080701
 21
708.0674538613364
 31
0
  0
LINE
  8
1
 62
3
 10
722.5460662080701
 20
708.0674538613364
 30
0
 11
722.5460662080701
 21
707.4474538613365
 31
0
  0
LINE
  8
1
 62
3
 10
732.5460662080701
 20
709.4474538613365
 30
0
 11
722.5460662080701
 21
709.4474538613365
 31
0
  0
LINE
  8
1
 62
3
 10
722.5460662080701
 20
710.0674538613364
 30
0
 11
732.5460662080701
 21
710.0674538613364
 31
0
  0
LINE
  8
1
 62
3
 10
722.5460662080701
 20
710.0674538613364
 30
0
 11
722.5460662080701
 21
709.4474538613365
 31
0
  0
LINE
  8
1
 62
3
 10
732.5460662080701
 20
711.4474538613365
 30
0
 11
722.5460662080701
 21
711.4474538613365
 31
0
  0
LINE
  8
1
 62
3
 10
722.5460662080701
 20
712.0674538613364
 30
0
 11
732.5460662080701
 21
712.0674538613364
 31
0
  0
LINE
  8
1
 62
3
 10
722.5460662080701
 20
712.0674538613364
 30
0
 11
722.5460662080701
 21
711.4474538613365
 31
0
  0
LINE
  8
1
 62
3
 10
732.5460662080701
 20
713.4474538613365
 30
0
 11
722.5460662080701
 21
713.4474538613365
 31
0
  0
LINE
  8
1
 62
3
 10
722.5460662080701
 20
714.0674538613364
 30
0
 11
732.5460662080701
 21
714.0674538613364
 31
0
  0
LINE
  8
1
 62
3
 10
722.5460662080701
 20
714.0674538613364
 30
0
 11
722.5460662080701
 21
713.4474538613365
 31
0
  0
LINE
  8
1
 62
3
 10
732.5460662080701
 20
715.4474538613365
 30
0
 11
722.5460662080701
 21
715.4474538613365
 31
0
  0
LINE
  8
1
 62
3
 10
722.5460662080701
 20
716.0674538613364
 30
0
 11
732.5460662080701
 21
716.0674538613364
 31
0
  0
LINE
  8
1
 62
3
 10
722.5460662080701
 20
716.0674538613364
 30
0
 11
722.5460662080701
 21
715.4474538613365
 31
0
  0
LINE
  8
1
 62
3
 10
732.5460662080701
 20
717.4474538613365
 30
0
 11
722.5460662080701
 21
717.4474538613365
 31
0
  0
LINE
  8
1
 62
3
 10
722.5460662080701
 20
718.0674538613364
 30
0
 11
732.5460662080701
 21
718.0674538613364
 31
0
  0
LINE
  8
1
 62
3
 10
722.5460662080701
 20
718.0674538613364
 30
0
 11
722.5460662080701
 21
717.4474538613365
 31
0
  0
LINE
  8
1
 62
2
 10
651.1242759511609
 20
746.3404883755266
 30
0
 11
680.3737532860749
 21
746.3404883755266
 31
0
  0
LINE
  8
1
 62
2
 10
602.7975501195941
 20
644.7858131068267
 30
0
 11
634.109081573078
 21
644.7858131068267
 31
0
  0
LINE
  8
1
 62
2
 10
602.7975501195941
 20
637.7858131068267
 30
0
 11
765.8296046721531
 21
637.7858131068267
 31
0
  0
LINE
  8
1
 62
2
 10
602.7975501195941
 20
630.7858131068267
 30
0
 11
765.8296046721531
 21
630.7858131068267
 31
0
  0
LINE
  8
1
 62
6
 10
638.5443476635641
 20
725.3182197399701
 30
0
 11
637.9690681131511
 21
724.5685008333951
 31
0
  0
LINE
  8
1
 62
6
 10
637.6949067643901
 20
730.0176575531209
 30
0
 11
637.6949067643901
 21
723.6176575531208
 31
0
  0
LINE
  8
1
 62
7
 10
642.8949067643899
 20
730.0176575531209
 30
0
 11
636.4949067643901
 21
730.0176575531209
 31
0
  0
LINE
  8
1
 62
7
 10
642.8949067643899
 20
723.6176575531208
 30
0
 11
642.8949067643899
 21
730.0176575531209
 31
0
  0
LINE
  8
1
 62
7
 10
636.4949067643901
 20
723.6176575531208
 30
0
 11
642.8949067643899
 21
723.6176575531208
 31
0
  0
LINE
  8
1
 62
7
 10
636.4949067643901
 20
730.0176575531209
 30
0
 11
636.4949067643901
 21
723.6176575531208
 31
0
  0
LINE
  8
1
 62
6
 10
641.877572159948
 20
727.7217471620834
 30
0
 11
642.31410523906
 21
727.9025650838755
 31
0
  0
LINE
  8
1
 62
6
 10
641.569204030828
 20
728.2558564291537
 30
0
 11
641.9440634841161
 21
728.5434962043605
 31
0
  0
LINE
  8
1
 62
6
 10
641.1331056404241
 20
728.691954819559
 30
0
 11
641.42074541563
 21
729.0668142728464
 31
0
  0
LINE
  8
1
 62
6
 10
640.5989963733531
 20
729.0003229486788
 30
0
 11
640.779814295145
 21
729.4368560277903
 31
0
  0
LINE
  8
1
 62
6
 10
640.0032748935101
 20
729.1599460381165
 30
0
 11
640.0649485193341
 21
729.6284037351154
 31
0
  0
LINE
  8
1
 62
6
 10
639.3865386352701
 20
729.1599460381165
 30
0
 11
639.3248650094471
 21
729.6284037351156
 31
0
  0
LINE
  8
1
 62
6
 10
638.790817155428
 20
729.0003229486788
 30
0
 11
638.609999233635
 21
729.4368560277903
 31
0
  0
LINE
  8
1
 62
6
 10
638.5443476635629
 20
728.3170953662714
 30
0
 11
637.9690681131511
 21
729.0668142728466
 31
0
  0
LINE
  8
1
 62
6
 10
638.7908171554271
 20
724.6349921575627
 30
0
 11
638.609999233635
 21
724.1984590784514
 31
0
  0
LINE
  8
1
 62
6
 10
639.3865386352701
 20
724.4753690681255
 30
0
 11
639.3248650094459
 21
724.0069113711261
 31
0
  0
LINE
  8
1
 62
6
 10
640.0032748935101
 20
724.4753690681255
 30
0
 11
640.0649485193341
 21
724.0069113711261
 31
0
  0
LINE
  8
1
 62
6
 10
641.133105640423
 20
724.9433602866827
 30
0
 11
641.42074541563
 21
724.5685008333951
 31
0
  0
LINE
  8
1
 62
6
 10
640.5989963733531
 20
724.6349921575627
 30
0
 11
640.779814295145
 21
724.1984590784514
 31
0
  0
LINE
  8
1
 62
6
 10
641.877572159948
 20
725.9135679441583
 30
0
 11
642.31410523906
 21
725.7327500223657
 31
0
  0
LINE
  8
1
 62
6
 10
641.569204030828
 20
725.3794586770873
 30
0
 11
641.9440634841161
 21
725.091818901881
 31
0
  0
LINE
  8
1
 62
6
 10
642.037195249386
 20
727.1260256822409
 30
0
 11
642.5056529463851
 21
727.1876993080646
 31
0
  0
LINE
  8
1
 62
6
 10
642.037195249386
 20
726.5092894240011
 30
0
 11
642.5056529463851
 21
726.4476157981769
 31
0
  0
LINE
  8
1
 62
6
 10
639.31690676439
 20
726.4396575531209
 30
0
 11
637.843092518846
 21
726.4396575531209
 31
0
  0
LINE
  8
1
 62
6
 10
639.31690676439
 20
727.1956575531208
 30
0
 11
637.843092518846
 21
727.1956575531208
 31
0
  0
LINE
  8
1
 62
6
 10
640.07290676439
 20
726.4396575531209
 30
0
 11
641.546721009934
 21
726.4396575531209
 31
0
  0
LINE
  8
1
 62
6
 10
640.07290676439
 20
727.1956575531208
 30
0
 11
641.546721009934
 21
727.1956575531208
 31
0
  0
LINE
  8
1
 62
6
 10
640.07290676439
 20
726.4396575531209
 30
0
 11
640.07290676439
 21
724.965843307577
 31
0
  0
LINE
  8
1
 62
6
 10
640.07290676439
 20
728.669471798665
 30
0
 11
640.07290676439
 21
727.1956575531208
 31
0
  0
LINE
  8
1
 62
6
 10
639.31690676439
 20
727.1956575531208
 30
0
 11
639.31690676439
 21
728.669471798665
 31
0
  0
LINE
  8
1
 62
6
 10
639.31690676439
 20
724.965843307577
 30
0
 11
639.31690676439
 21
726.4396575531209
 31
0
  0
LINE
  8
1
 62
3
 10
524.3730637455528
 20
678.5904272696175
 30
0
 11
525.973063745553
 21
678.5904272696175
 31
0
  0
LINE
  8
1
 62
2
  6
DASHED
 10
525.973063745553
 20
783.5904272696178
 30
0
 11
539.3730637455529
 21
783.5904272696178
 31
0
  0
LINE
  8
1
 62
2
  6
DASHED
 10
539.3730637455529
 20
783.5904272696178
 30
0
 11
539.3730637455529
 21
678.5904272696175
 31
0
  0
LINE
  8
1
 62
2
  6
DASHED
 10
539.3730637455529
 20
678.5904272696175
 30
0
 11
525.973063745553
 21
678.5904272696175
 31
0
  0
LINE
  8
1
 62
6
 10
526.073063745553
 20
725.7904688911972
 30
0
 11
526.0730637455529
 21
725.3904688911973
 31
0
  0
LINE
  8
1
 62
6
 10
526.073063745553
 20
725.7904688911972
 30
0
 11
526.473063745553
 21
725.7904688911972
 31
0
  0
LINE
  8
1
 62
6
 10
526.473063745553
 20
725.3904688911973
 30
0
 11
526.0730637455529
 21
725.3904688911973
 31
0
  0
LINE
  8
1
 62
2
 10
523.3730637455528
 20
724.8404688911974
 30
0
 11
524.3730637455528
 21
724.8404688911974
 31
0
  0
LINE
  8
1
 62
2
 10
523.3730637455528
 20
724.3404688911974
 30
0
 11
523.3730637455528
 21
724.8404688911974
 31
0
  0
LINE
  8
1
 62
2
 10
524.3730637455531
 20
724.3404688911974
 30
0
 11
523.3730637455528
 21
724.3404688911974
 31
0
  0
LINE
  8
1
 62
2
 10
528.7230637455531
 20
724.8404688911974
 30
0
 11
529.223063745553
 21
724.8404688911974
 31
0
  0
LINE
  8
1
 62
2
 10
528.723063745553
 20
724.3404688911974
 30
0
 11
528.7230637455531
 21
724.8404688911974
 31
0
  0
LINE
  8
1
 62
2
 10
529.2230637455531
 20
724.3404688911974
 30
0
 11
528.723063745553
 21
724.3404688911974
 31
0
  0
LINE
  8
1
 62
2
 10
529.223063745553
 20
724.8404688911974
 30
0
 11
529.2230637455531
 21
724.3404688911974
 31
0
  0
LINE
  8
1
 62
6
 10
526.0730637455529
 20
723.7904688911972
 30
0
 11
526.0730637455529
 21
723.3904688911973
 31
0
  0
LINE
  8
1
 62
6
 10
526.0730637455529
 20
723.7904688911972
 30
0
 11
526.473063745553
 21
723.7904688911972
 31
0
  0
LINE
  8
1
 62
6
 10
526.473063745553
 20
723.3904688911973
 30
0
 11
526.0730637455529
 21
723.3904688911973
 31
0
  0
LINE
  8
1
 62
2
 10
523.3730637455528
 20
722.8404688911974
 30
0
 11
524.3730637455528
 21
722.8404688911974
 31
0
  0
LINE
  8
1
 62
2
 10
523.3730637455528
 20
722.3404688911974
 30
0
 11
523.3730637455528
 21
722.8404688911974
 31
0
  0
LINE
  8
1
 62
2
 10
524.3730637455528
 20
722.3404688911974
 30
0
 11
523.3730637455528
 21
722.3404688911974
 31
0
  0
LINE
  8
1
 62
2
 10
528.723063745553
 20
722.8404688911974
 30
0
 11
529.223063745553
 21
722.8404688911974
 31
0
  0
LINE
  8
1
 62
2
 10
528.723063745553
 20
722.3404688911974
 30
0
 11
528.723063745553
 21
722.8404688911974
 31
0
  0
LINE
  8
1
 62
2
 10
529.223063745553
 20
722.3404688911974
 30
0
 11
528.723063745553
 21
722.3404688911974
 31
0
  0
LINE
  8
1
 62
2
 10
529.223063745553
 20
722.8404688911974
 30
0
 11
529.223063745553
 21
722.3404688911974
 31
0
  0
LINE
  8
1
 62
6
 10
526.0730637455529
 20
721.7904688911972
 30
0
 11
526.0730637455529
 21
721.3904688911973
 31
0
  0
LINE
  8
1
 62
6
 10
526.0730637455529
 20
721.7904688911972
 30
0
 11
526.473063745553
 21
721.7904688911972
 31
0
  0
LINE
  8
1
 62
6
 10
526.473063745553
 20
721.3904688911973
 30
0
 11
526.0730637455529
 21
721.3904688911973
 31
0
  0
LINE
  8
1
 62
2
 10
523.3730637455528
 20
720.8404688911974
 30
0
 11
524.3730637455528
 21
720.8404688911974
 31
0
  0
LINE
  8
1
 62
2
 10
523.3730637455528
 20
720.3404688911974
 30
0
 11
523.3730637455528
 21
720.8404688911974
 31
0
  0
LINE
  8
1
 62
2
 10
524.3730637455528
 20
720.3404688911974
 30
0
 11
523.3730637455528
 21
720.3404688911974
 31
0
  0
LINE
  8
1
 62
2
 10
528.723063745553
 20
720.8404688911974
 30
0
 11
529.223063745553
 21
720.8404688911974
 31
0
  0
LINE
  8
1
 62
2
 10
528.723063745553
 20
720.3404688911974
 30
0
 11
528.723063745553
 21
720.8404688911974
 31
0
  0
LINE
  8
1
 62
2
 10
529.223063745553
 20
720.3404688911974
 30
0
 11
528.723063745553
 21
720.3404688911974
 31
0
  0
LINE
  8
1
 62
2
 10
529.223063745553
 20
720.8404688911974
 30
0
 11
529.223063745553
 21
720.3404688911974
 31
0
  0
LINE
  8
1
 62
3
 10
617.962612685397
 20
726.3404688911974
 30
0
 11
617.962612685397
 21
724.8404688911974
 31
0
  0
LINE
  8
1
 62
3
 10
617.962612685397
 20
720.3404688911974
 30
0
 11
617.962612685397
 21
718.8404688911974
 31
0
  0
LINE
  8
1
 62
2
 10
619.662612685397
 20
720.3404688911974
 30
0
 11
616.862612685397
 21
720.3404688911974
 31
0
  0
LINE
  8
1
 62
2
 10
616.862612685397
 20
720.3404688911974
 30
0
 11
616.862612685397
 21
720.8404688911974
 31
0
  0
LINE
  8
1
 62
2
 10
619.662612685397
 20
720.8404688911974
 30
0
 11
616.862612685397
 21
720.8404688911974
 31
0
  0
LINE
  8
1
 62
3
 10
617.962612685397
 20
722.3404688911974
 30
0
 11
617.962612685397
 21
720.8404688911974
 31
0
  0
LINE
  8
1
 62
2
 10
619.662612685397
 20
722.3404688911974
 30
0
 11
616.862612685397
 21
722.3404688911974
 31
0
  0
LINE
  8
1
 62
2
 10
616.862612685397
 20
722.3404688911974
 30
0
 11
616.862612685397
 21
722.8404688911974
 31
0
  0
LINE
  8
1
 62
2
 10
619.662612685397
 20
722.8404688911974
 30
0
 11
616.862612685397
 21
722.8404688911974
 31
0
  0
LINE
  8
1
 62
3
 10
617.962612685397
 20
724.3404688911974
 30
0
 11
617.962612685397
 21
722.8404688911974
 31
0
  0
LINE
  8
1
 62
2
 10
619.662612685397
 20
724.3404688911974
 30
0
 11
616.862612685397
 21
724.3404688911974
 31
0
  0
LINE
  8
1
 62
2
 10
616.862612685397
 20
724.3404688911974
 30
0
 11
616.862612685397
 21
724.8404688911974
 31
0
  0
LINE
  8
1
 62
2
 10
619.662612685397
 20
724.8404688911974
 30
0
 11
616.862612685397
 21
724.8404688911974
 31
0
  0
LINE
  8
1
 62
7
 10
615.862612685397
 20
726.8404688911974
 30
0
 11
615.862612685397
 21
730.3904688911973
 31
0
  0
LINE
  8
1
 62
3
 10
617.962612685397
 20
714.3404688911974
 30
0
 11
617.962612685397
 21
712.8404688911974
 31
0
  0
LINE
  8
1
 62
3
 10
617.962612685397
 20
716.3404688911974
 30
0
 11
617.962612685397
 21
714.8404688911974
 31
0
  0
LINE
  8
1
 62
3
 10
617.962612685397
 20
718.3404688911974
 30
0
 11
617.962612685397
 21
716.8404688911974
 31
0
  0
LINE
  8
1
 62
7
 10
525.973063745553
 20
712.3404688911985
 30
0
 11
525.973063745553
 21
708.7904688911972
 31
0
  0
LINE
  8
1
 62
6
 10
526.0730637455529
 20
713.7904688911972
 30
0
 11
526.0730637455529
 21
713.3904688911973
 31
0
  0
LINE
  8
1
 62
6
 10
526.473063745553
 20
713.3904688911973
 30
0
 11
526.0730637455529
 21
713.3904688911973
 31
0
  0
LINE
  8
1
 62
6
 10
526.0730637455529
 20
713.7904688911972
 30
0
 11
526.473063745553
 21
713.7904688911972
 31
0
  0
LINE
  8
1
 62
6
 10
526.0730637455529
 20
715.7904688911972
 30
0
 11
526.0730637455529
 21
715.3904688911973
 31
0
  0
LINE
  8
1
 62
6
 10
526.0730637455529
 20
715.7904688911972
 30
0
 11
526.473063745553
 21
715.7904688911972
 31
0
  0
LINE
  8
1
 62
6
 10
526.473063745553
 20
715.3904688911973
 30
0
 11
526.0730637455529
 21
715.3904688911973
 31
0
  0
LINE
  8
1
 62
6
 10
526.0730637455529
 20
717.7904688911972
 30
0
 11
526.0730637455529
 21
717.3904688911973
 31
0
  0
LINE
  8
1
 62
6
 10
526.0730637455529
 20
717.7904688911972
 30
0
 11
526.473063745553
 21
717.7904688911972
 31
0
  0
LINE
  8
1
 62
6
 10
526.473063745553
 20
717.3904688911973
 30
0
 11
526.0730637455529
 21
717.3904688911973
 31
0
  0
LINE
  8
1
 62
6
 10
526.0730637455529
 20
719.7904688911972
 30
0
 11
526.0730637455529
 21
719.3904688911973
 31
0
  0
LINE
  8
1
 62
6
 10
526.0730637455529
 20
719.7904688911972
 30
0
 11
526.473063745553
 21
719.7904688911972
 31
0
  0
LINE
  8
1
 62
6
 10
526.473063745553
 20
719.3904688911973
 30
0
 11
526.0730637455529
 21
719.3904688911973
 31
0
  0
LINE
  8
1
 62
6
 10
526.8730637455531
 20
711.7904688911972
 30
0
 11
526.473063745553
 21
711.7904688911972
 31
0
  0
LINE
  8
1
 62
6
 10
526.8730637455531
 20
711.3904688911973
 30
0
 11
526.8730637455531
 21
711.7904688911972
 31
0
  0
LINE
  8
1
 62
6
 10
526.473063745553
 20
711.3904688911973
 30
0
 11
526.8730637455531
 21
711.3904688911973
 31
0
  0
LINE
  8
1
 62
6
 10
526.8730637455531
 20
727.3904688911973
 30
0
 11
526.473063745553
 21
727.3904688911973
 31
0
  0
LINE
  8
1
 62
6
 10
526.8730637455531
 20
727.7904688911972
 30
0
 11
526.8730637455531
 21
727.3904688911973
 31
0
  0
LINE
  8
1
 62
6
 10
526.473063745553
 20
727.7904688911972
 30
0
 11
526.8730637455531
 21
727.7904688911972
 31
0
  0
LINE
  8
1
 62
6
 10
526.473063745553
 20
712.3404688911985
 30
0
 11
525.973063745553
 21
712.3404688911985
 31
0
  0
LINE
  8
1
 62
6
 10
530.473063745553
 20
711.2904688911983
 30
0
 11
529.973063745553
 21
711.2904688911983
 31
0
  0
LINE
  8
1
 62
6
 10
526.473063745553
 20
726.8404688911974
 30
0
 11
525.973063745553
 21
726.8404688911974
 31
0
  0
LINE
  8
1
 62
6
 10
530.473063745553
 20
727.8904688911973
 30
0
 11
529.973063745553
 21
727.8904688911973
 31
0
  0
LINE
  8
1
 62
2
 10
619.662612685397
 20
726.8404688911974
 30
0
 11
616.862612685397
 21
726.8404688911974
 31
0
  0
LINE
  8
1
 62
6
 10
615.862612685397
 20
712.3404688911974
 30
0
 11
616.862612685397
 21
712.3404688911974
 31
0
  0
LINE
  8
1
 62
6
 10
619.662612685397
 20
711.2904688911972
 30
0
 11
615.862612685397
 21
711.2904688911972
 31
0
  0
LINE
  8
1
 62
6
 10
619.662612685397
 20
727.8904688911973
 30
0
 11
619.662612685397
 21
711.2904688911972
 31
0
  0
LINE
  8
1
 62
6
 10
615.862612685397
 20
727.8904688911973
 30
0
 11
619.662612685397
 21
727.8904688911973
 31
0
  0
LINE
  8
1
 62
2
 10
523.3730637455528
 20
728.8404688911974
 30
0
 11
524.3730637455528
 21
728.8404688911974
 31
0
  0
LINE
  8
1
 62
2
 10
523.3730637455528
 20
728.3404688911974
 30
0
 11
523.3730637455528
 21
728.8404688911974
 31
0
  0
LINE
  8
1
 62
2
 10
524.3730637455528
 20
728.3404688911974
 30
0
 11
523.3730637455528
 21
728.3404688911974
 31
0
  0
LINE
  8
1
 62
2
 10
523.3730637455528
 20
726.8404688911974
 30
0
 11
524.3730637455528
 21
726.8404688911974
 31
0
  0
LINE
  8
1
 62
2
 10
523.3730637455528
 20
726.3404688911974
 30
0
 11
523.3730637455528
 21
726.8404688911974
 31
0
  0
LINE
  8
1
 62
2
 10
524.3730637455528
 20
726.3404688911974
 30
0
 11
523.3730637455528
 21
726.3404688911974
 31
0
  0
LINE
  8
1
 62
2
 10
523.3730637455528
 20
718.8404688911974
 30
0
 11
524.3730637455528
 21
718.8404688911974
 31
0
  0
LINE
  8
1
 62
2
 10
523.3730637455528
 20
718.3404688911974
 30
0
 11
523.3730637455528
 21
718.8404688911974
 31
0
  0
LINE
  8
1
 62
2
 10
524.3730637455528
 20
718.3404688911974
 30
0
 11
523.3730637455528
 21
718.3404688911974
 31
0
  0
LINE
  8
1
 62
2
 10
523.3730637455528
 20
716.8404688911974
 30
0
 11
524.3730637455528
 21
716.8404688911974
 31
0
  0
LINE
  8
1
 62
2
 10
523.3730637455528
 20
716.3404688911974
 30
0
 11
523.3730637455528
 21
716.8404688911974
 31
0
  0
LINE
  8
1
 62
2
 10
524.3730637455528
 20
716.3404688911974
 30
0
 11
523.3730637455528
 21
716.3404688911974
 31
0
  0
LINE
  8
1
 62
2
 10
523.3730637455528
 20
714.8404688911974
 30
0
 11
524.3730637455528
 21
714.8404688911974
 31
0
  0
LINE
  8
1
 62
2
 10
523.3730637455528
 20
714.3404688911974
 30
0
 11
523.3730637455528
 21
714.8404688911974
 31
0
  0
LINE
  8
1
 62
2
 10
524.3730637455528
 20
714.3404688911974
 30
0
 11
523.3730637455528
 21
714.3404688911974
 31
0
  0
LINE
  8
1
 62
2
 10
523.3730637455528
 20
712.8404688911974
 30
0
 11
524.3730637455528
 21
712.8404688911974
 31
0
  0
LINE
  8
1
 62
2
 10
523.3730637455528
 20
712.3404688911974
 30
0
 11
523.3730637455528
 21
712.8404688911974
 31
0
  0
LINE
  8
1
 62
2
 10
524.3730637455528
 20
712.3404688911974
 30
0
 11
523.3730637455528
 21
712.3404688911974
 31
0
  0
LINE
  8
1
 62
2
 10
523.3730637455528
 20
695.6604272696175
 30
0
 11
524.3730637455528
 21
695.6604272696175
 31
0
  0
LINE
  8
1
 62
2
 10
523.3730637455528
 20
694.5204272696176
 30
0
 11
523.3730637455528
 21
695.6604272696175
 31
0
  0
LINE
  8
1
 62
2
 10
524.3730637455528
 20
694.5204272696176
 30
0
 11
523.3730637455528
 21
694.5204272696176
 31
0
  0
LINE
  8
1
 62
2
 10
523.3730637455528
 20
710.8404688911974
 30
0
 11
524.3730637455528
 21
710.8404688911974
 31
0
  0
LINE
  8
1
 62
2
 10
523.3730637455528
 20
710.3404688911974
 30
0
 11
523.3730637455528
 21
710.8404688911974
 31
0
  0
LINE
  8
1
 62
2
 10
524.3730637455528
 20
710.3404688911974
 30
0
 11
523.3730637455528
 21
710.3404688911974
 31
0
  0
LINE
  8
1
 62
2
 10
523.3730637455528
 20
773.2704688911977
 30
0
 11
524.3730637455528
 21
773.2704688911977
 31
0
  0
LINE
  8
1
 62
2
 10
523.3730637455528
 20
773.9104688911984
 30
0
 11
523.3730637455528
 21
773.2704688911977
 31
0
  0
LINE
  8
1
 62
2
 10
524.3730637455528
 20
773.9104688911984
 30
0
 11
523.3730637455528
 21
773.9104688911984
 31
0
  0
LINE
  8
1
 62
2
 10
523.3730637455528
 20
770.7704688911977
 30
0
 11
524.3730637455528
 21
770.7704688911977
 31
0
  0
LINE
  8
1
 62
2
 10
523.3730637455528
 20
771.4104688911984
 30
0
 11
523.3730637455528
 21
770.7704688911977
 31
0
  0
LINE
  8
1
 62
2
 10
524.3730637455528
 20
771.4104688911984
 30
0
 11
523.3730637455528
 21
771.4104688911984
 31
0
  0
LINE
  8
1
 62
2
 10
523.3730637455528
 20
768.2704688911977
 30
0
 11
524.3730637455528
 21
768.2704688911977
 31
0
  0
LINE
  8
1
 62
2
 10
523.3730637455528
 20
768.9104688911984
 30
0
 11
523.3730637455528
 21
768.2704688911977
 31
0
  0
LINE
  8
1
 62
2
 10
524.3730637455528
 20
768.9104688911984
 30
0
 11
523.3730637455528
 21
768.9104688911984
 31
0
  0
LINE
  8
1
 62
2
 10
523.3730637455528
 20
765.7704688911977
 30
0
 11
524.3730637455528
 21
765.7704688911977
 31
0
  0
LINE
  8
1
 62
2
 10
523.3730637455528
 20
766.4104688911984
 30
0
 11
523.3730637455528
 21
765.7704688911977
 31
0
  0
LINE
  8
1
 62
2
 10
524.3730637455528
 20
766.4104688911984
 30
0
 11
523.3730637455528
 21
766.4104688911984
 31
0
  0
LINE
  8
1
 62
2
 10
523.3730637455528
 20
763.2704688911977
 30
0
 11
524.3730637455528
 21
763.2704688911977
 31
0
  0
LINE
  8
1
 62
2
 10
523.3730637455528
 20
763.9104688911984
 30
0
 11
523.3730637455528
 21
763.2704688911977
 31
0
  0
LINE
  8
1
 62
2
 10
524.3730637455528
 20
763.9104688911984
 30
0
 11
523.3730637455528
 21
763.9104688911984
 31
0
  0
LINE
  8
1
 62
2
 10
523.3730637455528
 20
760.7704688911977
 30
0
 11
524.3730637455528
 21
760.7704688911977
 31
0
  0
LINE
  8
1
 62
2
 10
523.3730637455528
 20
761.4104688911984
 30
0
 11
523.3730637455528
 21
760.7704688911977
 31
0
  0
LINE
  8
1
 62
2
 10
524.3730637455528
 20
761.4104688911984
 30
0
 11
523.3730637455528
 21
761.4104688911984
 31
0
  0
LINE
  8
1
 62
2
 10
523.3730637455528
 20
758.2704688911977
 30
0
 11
524.3730637455528
 21
758.2704688911977
 31
0
  0
LINE
  8
1
 62
2
 10
523.3730637455528
 20
758.9104688911984
 30
0
 11
523.3730637455528
 21
758.2704688911977
 31
0
  0
LINE
  8
1
 62
2
 10
524.3730637455528
 20
758.9104688911984
 30
0
 11
523.3730637455528
 21
758.9104688911984
 31
0
  0
LINE
  8
1
 62
2
 10
523.3730637455528
 20
755.7704688911977
 30
0
 11
524.3730637455528
 21
755.7704688911977
 31
0
  0
LINE
  8
1
 62
2
 10
523.3730637455528
 20
756.4104688911984
 30
0
 11
523.3730637455528
 21
755.7704688911977
 31
0
  0
LINE
  8
1
 62
2
 10
524.3730637455528
 20
756.4104688911984
 30
0
 11
523.3730637455528
 21
756.4104688911984
 31
0
  0
LINE
  8
1
 62
2
 10
523.3730637455528
 20
753.2704688911977
 30
0
 11
524.3730637455528
 21
753.2704688911977
 31
0
  0
LINE
  8
1
 62
2
 10
523.3730637455528
 20
753.9104688911984
 30
0
 11
523.3730637455528
 21
753.2704688911977
 31
0
  0
LINE
  8
1
 62
2
 10
524.3730637455528
 20
753.9104688911984
 30
0
 11
523.3730637455528
 21
753.9104688911984
 31
0
  0
LINE
  8
1
 62
3
 10
525.973063745553
 20
783.5904272696178
 30
0
 11
524.3730637455528
 21
783.5904272696178
 31
0
  0
LINE
  8
1
 62
3
 10
525.973063745553
 20
678.5904272696175
 30
0
 11
525.973063745553
 21
783.5904272696178
 31
0
  0
LINE
  8
1
 62
3
 10
524.3730637455528
 20
678.5904272696175
 30
0
 11
525.973063745553
 21
678.5904272696175
 31
0
  0
LINE
  8
1
 62
3
 10
524.3730637455528
 20
783.5904272696178
 30
0
 11
524.3730637455528
 21
678.5904272696175
 31
0
  0
LINE
  8
1
 62
2
 10
528.723063745553
 20
728.8404688911974
 30
0
 11
529.223063745553
 21
728.8404688911974
 31
0
  0
LINE
  8
1
 62
2
 10
528.723063745553
 20
728.3404688911974
 30
0
 11
528.723063745553
 21
728.8404688911974
 31
0
  0
LINE
  8
1
 62
2
 10
529.223063745553
 20
728.3404688911974
 30
0
 11
528.723063745553
 21
728.3404688911974
 31
0
  0
LINE
  8
1
 62
2
 10
529.223063745553
 20
728.8404688911974
 30
0
 11
529.223063745553
 21
728.3404688911974
 31
0
  0
LINE
  8
1
 62
2
 10
528.723063745553
 20
726.8404688911974
 30
0
 11
529.223063745553
 21
726.8404688911974
 31
0
  0
LINE
  8
1
 62
2
 10
528.723063745553
 20
726.3404688911974
 30
0
 11
528.723063745553
 21
726.8404688911974
 31
0
  0
LINE
  8
1
 62
2
 10
529.223063745553
 20
726.3404688911974
 30
0
 11
528.723063745553
 21
726.3404688911974
 31
0
  0
LINE
  8
1
 62
2
 10
529.223063745553
 20
726.8404688911974
 30
0
 11
529.223063745553
 21
726.3404688911974
 31
0
  0
LINE
  8
1
 62
2
 10
528.723063745553
 20
718.8404688911974
 30
0
 11
529.223063745553
 21
718.8404688911974
 31
0
  0
LINE
  8
1
 62
2
 10
528.723063745553
 20
718.3404688911974
 30
0
 11
528.723063745553
 21
718.8404688911974
 31
0
  0
LINE
  8
1
 62
2
 10
529.223063745553
 20
718.3404688911974
 30
0
 11
528.723063745553
 21
718.3404688911974
 31
0
  0
LINE
  8
1
 62
2
 10
529.223063745553
 20
718.8404688911974
 30
0
 11
529.223063745553
 21
718.3404688911974
 31
0
  0
LINE
  8
1
 62
2
 10
528.723063745553
 20
716.8404688911974
 30
0
 11
529.223063745553
 21
716.8404688911974
 31
0
  0
LINE
  8
1
 62
2
 10
528.723063745553
 20
716.3404688911974
 30
0
 11
528.723063745553
 21
716.8404688911974
 31
0
  0
LINE
  8
1
 62
2
 10
529.223063745553
 20
716.3404688911974
 30
0
 11
528.723063745553
 21
716.3404688911974
 31
0
  0
LINE
  8
1
 62
2
 10
529.223063745553
 20
716.8404688911974
 30
0
 11
529.223063745553
 21
716.3404688911974
 31
0
  0
LINE
  8
1
 62
2
 10
528.723063745553
 20
714.8404688911974
 30
0
 11
529.223063745553
 21
714.8404688911974
 31
0
  0
LINE
  8
1
 62
2
 10
528.723063745553
 20
714.3404688911974
 30
0
 11
528.723063745553
 21
714.8404688911974
 31
0
  0
LINE
  8
1
 62
2
 10
529.223063745553
 20
714.3404688911974
 30
0
 11
528.723063745553
 21
714.3404688911974
 31
0
  0
LINE
  8
1
 62
2
 10
529.223063745553
 20
714.8404688911974
 30
0
 11
529.223063745553
 21
714.3404688911974
 31
0
  0
LINE
  8
1
 62
2
 10
528.723063745553
 20
712.8404688911974
 30
0
 11
529.223063745553
 21
712.8404688911974
 31
0
  0
LINE
  8
1
 62
2
 10
528.723063745553
 20
712.3404688911974
 30
0
 11
528.723063745553
 21
712.8404688911974
 31
0
  0
LINE
  8
1
 62
2
 10
529.223063745553
 20
712.3404688911974
 30
0
 11
528.723063745553
 21
712.3404688911974
 31
0
  0
LINE
  8
1
 62
2
 10
529.223063745553
 20
712.8404688911974
 30
0
 11
529.223063745553
 21
712.3404688911974
 31
0
  0
LINE
  8
1
 62
2
 10
528.723063745553
 20
710.8404688911974
 30
0
 11
529.223063745553
 21
710.8404688911974
 31
0
  0
LINE
  8
1
 62
2
 10
528.723063745553
 20
710.3404688911974
 30
0
 11
528.723063745553
 21
710.8404688911974
 31
0
  0
LINE
  8
1
 62
2
 10
529.223063745553
 20
710.3404688911974
 30
0
 11
528.723063745553
 21
710.3404688911974
 31
0
  0
LINE
  8
1
 62
2
 10
529.223063745553
 20
710.8404688911974
 30
0
 11
529.223063745553
 21
710.3404688911974
 31
0
  0
LINE
  8
1
 62
6
 10
529.973063745553
 20
709.2904688911972
 30
0
 11
529.973063745553
 21
729.8904688911973
 31
0
  0
LINE
  8
1
 62
6
 10
526.473063745553
 20
709.2904688911972
 30
0
 11
529.973063745553
 21
709.2904688911972
 31
0
  0
LINE
  8
1
 62
6
 10
526.473063745553
 20
729.8904688911973
 30
0
 11
526.473063745553
 21
709.2904688911972
 31
0
  0
LINE
  8
1
 62
6
 10
529.973063745553
 20
729.8904688911973
 30
0
 11
526.473063745553
 21
729.8904688911973
 31
0
  0
LINE
  8
1
 62
7
 10
530.473063745553
 20
730.3904688911973
 30
0
 11
525.973063745553
 21
730.3904688911973
 31
0
  0
LINE
  8
1
 62
7
 10
530.473063745553
 20
708.7904688911972
 30
0
 11
530.473063745553
 21
730.3904688911973
 31
0
  0
LINE
  8
1
 62
7
 10
525.973063745553
 20
708.7904688911972
 30
0
 11
530.473063745553
 21
708.7904688911972
 31
0
  0
LINE
  8
1
 62
7
 10
525.973063745553
 20
730.3904688911973
 30
0
 11
525.973063745553
 21
726.8404688911974
 31
0
  0
LINE
  8
1
 62
7
 10
527.5730637455529
 20
691.7874570201117
 30
0
 11
527.5730637455529
 21
689.3904311259664
 31
0
  0
LINE
  8
1
 62
7
 10
525.973063745553
 20
691.7874570201117
 30
0
 11
527.5730637455529
 21
691.7874570201117
 31
0
  0
LINE
  8
1
 62
7
 10
527.5730637455529
 20
689.3904311259664
 30
0
 11
525.973063745553
 21
689.3904311259664
 31
0
  0
LINE
  8
1
 62
7
 10
527.5730637455529
 20
691.7874570201117
 30
0
 11
527.5730637455529
 21
689.3904311259664
 31
0
  0
LINE
  8
1
 62
7
 10
530.673063745553
 20
691.7874570201117
 30
0
 11
529.0730637455529
 21
691.7874570201117
 31
0
  0
LINE
  8
1
 62
7
 10
529.0730637455529
 20
689.3904311259664
 30
0
 11
530.673063745553
 21
689.3904311259664
 31
0
  0
LINE
  8
1
 62
7
 10
529.0730637455529
 20
691.7874570201117
 30
0
 11
529.0730637455529
 21
689.3904311259664
 31
0
  0
LINE
  8
1
 62
7
 10
527.5730637455529
 20
698.3904311259664
 30
0
 11
525.973063745553
 21
698.3904311259664
 31
0
  0
LINE
  8
1
 62
7
 10
527.5730637455529
 20
700.7874570201118
 30
0
 11
527.5730637455529
 21
698.3904311259664
 31
0
  0
LINE
  8
1
 62
7
 10
525.973063745553
 20
700.7874570201118
 30
0
 11
527.5730637455529
 21
700.7874570201118
 31
0
  0
LINE
  8
1
 62
7
 10
529.0730637455529
 20
698.3904311259664
 30
0
 11
530.673063745553
 21
698.3904311259664
 31
0
  0
LINE
  8
1
 62
7
 10
529.0730637455529
 20
700.7874570201118
 30
0
 11
529.0730637455529
 21
698.3904311259664
 31
0
  0
LINE
  8
1
 62
7
 10
530.673063745553
 20
700.7874570201118
 30
0
 11
529.0730637455529
 21
700.7874570201118
 31
0
  0
LINE
  8
1
 62
7
 10
531.4730637455527
 20
693.9904272696176
 30
0
 11
531.4730637455527
 21
696.1904272696177
 31
0
  0
LINE
  8
1
 62
7
 10
532.3730637455526
 20
697.0904272696175
 30
0
 11
535.2730637455529
 21
697.0904272696175
 31
0
  0
LINE
  8
1
 62
7
 10
531.4730637455527
 20
693.9904272696176
 30
0
 11
532.3730637455526
 21
693.0904272696175
 31
0
  0
LINE
  8
1
 62
7
 10
532.3730637455526
 20
697.0904272696175
 30
0
 11
531.4730637455527
 21
696.1904272696177
 31
0
  0
LINE
  8
1
 62
2
 10
528.5230637455529
 20
695.5404272696176
 30
0
 11
529.423063745553
 21
695.5404272696176
 31
0
  0
LINE
  8
1
 62
2
 10
528.5230637455529
 20
694.6404272696176
 30
0
 11
528.5230637455529
 21
695.5404272696176
 31
0
  0
LINE
  8
1
 62
2
 10
529.423063745553
 20
694.6404272696176
 30
0
 11
528.5230637455529
 21
694.6404272696176
 31
0
  0
LINE
  8
1
 62
2
 10
529.423063745553
 20
695.5404272696176
 30
0
 11
529.423063745553
 21
694.6404272696176
 31
0
  0
LINE
  8
1
 62
2
 10
532.9230637455528
 20
695.5404272696176
 30
0
 11
533.8230637455529
 21
695.5404272696176
 31
0
  0
LINE
  8
1
 62
2
 10
532.9230637455528
 20
694.6404272696176
 30
0
 11
532.9230637455528
 21
695.5404272696176
 31
0
  0
LINE
  8
1
 62
2
 10
533.8230637455529
 20
694.6404272696176
 30
0
 11
532.9230637455528
 21
694.6404272696176
 31
0
  0
LINE
  8
1
 62
2
 10
533.8230637455529
 20
695.5404272696176
 30
0
 11
533.8230637455529
 21
694.6404272696176
 31
0
  0
LINE
  8
1
 62
7
 10
527.0730637455529
 20
697.0904272696175
 30
0
 11
530.8730637455528
 21
697.0904272696175
 31
0
  0
LINE
  8
1
 62
7
 10
527.0730637455529
 20
693.0904272696175
 30
0
 11
527.0730637455529
 21
697.0904272696175
 31
0
  0
LINE
  8
1
 62
7
 10
530.8730637455528
 20
693.0904272696175
 30
0
 11
527.0730637455529
 21
693.0904272696175
 31
0
  0
LINE
  8
1
 62
7
 10
530.8730637455528
 20
697.0904272696175
 30
0
 11
530.8730637455528
 21
693.0904272696175
 31
0
  0
LINE
  8
1
 62
7
 10
535.2730637455529
 20
693.0904272696175
 30
0
 11
532.3730637455526
 21
693.0904272696175
 31
0
  0
LINE
  8
1
 62
7
 10
535.2730637455529
 20
697.0904272696175
 30
0
 11
535.2730637455529
 21
693.0904272696175
 31
0
  0
LINE
  8
1
 62
7
 10
537.3730637455528
 20
693.3904272696176
 30
0
 11
535.973063745553
 21
693.3904272696176
 31
0
  0
LINE
  8
1
 62
7
 10
537.3730637455528
 20
696.7904272696176
 30
0
 11
537.3730637455528
 21
693.3904272696176
 31
0
  0
LINE
  8
1
 62
7
 10
535.973063745553
 20
696.7904272696176
 30
0
 11
537.3730637455528
 21
696.7904272696176
 31
0
  0
LINE
  8
1
 62
7
 10
535.973063745553
 20
692.3904272696176
 30
0
 11
535.973063745553
 21
697.7904272696176
 31
0
  0
LINE
  8
1
 62
7
 10
526.3730637455528
 20
697.7904272696176
 30
0
 11
526.3730637455528
 21
692.3904272696176
 31
0
  0
LINE
  8
1
 62
7
 10
525.973063745553
 20
702.7904272696176
 30
0
 11
525.973063745553
 21
697.7904272696176
 31
0
  0
LINE
  8
1
 62
7
 10
535.973063745553
 20
697.7904272696176
 30
0
 11
525.973063745553
 21
697.7904272696176
 31
0
  0
LINE
  8
1
 62
7
 10
530.673063745553
 20
702.7904272696176
 30
0
 11
525.973063745553
 21
702.7904272696176
 31
0
  0
LINE
  8
1
 62
7
 10
530.673063745553
 20
702.7904272696176
 30
0
 11
530.673063745553
 21
697.7904272696176
 31
0
  0
LINE
  8
1
 62
1
 10
619.249313760777
 20
682.0904272696175
 30
0
 11
623.7136193010111
 21
682.0904272696175
 31
0
  0
LINE
  8
1
 62
1
 10
621.462612685397
 20
679.6904272696175
 30
0
 11
621.462612685397
 21
684.4904272696176
 31
0
  0
LINE
  8
1
 62
1
 10
677.249313760777
 20
682.0904272696175
 30
0
 11
681.7136193010111
 21
682.0904272696175
 31
0
  0
LINE
  8
1
 62
1
 10
679.462612685397
 20
679.6904272696175
 30
0
 11
679.462612685397
 21
684.4904272696176
 31
0
  0
LINE
  8
1
 62
1
 10
619.249313760777
 20
780.0904272696178
 30
0
 11
623.7136193010111
 21
780.0904272696178
 31
0
  0
LINE
  8
1
 62
1
 10
621.462612685397
 20
777.6904272696177
 30
0
 11
621.462612685397
 21
782.4904272696176
 31
0
  0
LINE
  8
1
 62
1
 10
677.249313760777
 20
780.0904272696178
 30
0
 11
681.7136193010111
 21
780.0904272696178
 31
0
  0
LINE
  8
1
 62
1
 10
679.462612685397
 20
777.6904272696177
 30
0
 11
679.462612685397
 21
782.4904272696176
 31
0
  0
LINE
  8
1
 62
4
 10
622.43921473994
 20
712.5904688911974
 30
0
 11
620.4860106308541
 21
712.5904688911974
 31
0
  0
LINE
  8
1
 62
4
 10
622.43921473994
 20
710.5904688911974
 30
0
 11
620.4860106308541
 21
710.5904688911974
 31
0
  0
LINE
  8
1
 62
4
 10
622.4392147399411
 20
714.5904688911974
 30
0
 11
620.4860106308541
 21
714.5904688911974
 31
0
  0
LINE
  8
1
 62
4
 10
622.43921473994
 20
716.5904688911974
 30
0
 11
620.4860106308541
 21
716.5904688911974
 31
0
  0
LINE
  8
1
 62
4
 10
622.43921473994
 20
718.5904688911974
 30
0
 11
620.4860106308541
 21
718.5904688911974
 31
0
  0
LINE
  8
1
 62
4
 10
622.43921473994
 20
720.5904688911974
 30
0
 11
620.4860106308541
 21
720.5904688911974
 31
0
  0
LINE
  8
1
 62
4
 10
622.43921473994
 20
722.5904688911974
 30
0
 11
620.4860106308541
 21
722.5904688911974
 31
0
  0
LINE
  8
1
 62
4
 10
622.43921473994
 20
724.5904688911974
 30
0
 11
620.4860106308541
 21
724.5904688911974
 31
0
  0
LINE
  8
1
 62
4
 10
622.43921473994
 20
726.5904688911974
 30
0
 11
620.4860106308541
 21
726.5904688911974
 31
0
  0
LINE
  8
1
 62
4
 10
621.462612685397
 20
709.5904688911974
 30
0
 11
621.462612685397
 21
729.5670709457402
 31
0
  0
LINE
  8
1
 62
4
 10
622.43921473994
 20
728.5904688911974
 30
0
 11
620.4860106308541
 21
728.5904688911974
 31
0
  0
LINE
  8
1
 62
7
 10
623.0626126853971
 20
708.7904688911972
 30
0
 11
615.862612685397
 21
708.7904688911972
 31
0
  0
LINE
  8
1
 62
7
 10
623.0626126853971
 20
730.3904688911973
 30
0
 11
623.0626126853971
 21
708.7904688911972
 31
0
  0
LINE
  8
1
 62
7
 10
615.862612685397
 20
730.3904688911973
 30
0
 11
623.0626126853971
 21
730.3904688911973
 31
0
  0
LINE
  8
1
 62
7
 10
615.862612685397
 20
708.7904688911972
 30
0
 11
615.862612685397
 21
712.3404688911974
 31
0
  0
LINE
  8
1
 62
4
 10
632.362612685398
 20
694.0297706210625
 30
0
 11
632.362612685398
 21
696.1510839181724
 31
0
  0
LINE
  8
1
 62
4
 10
633.423269333953
 20
695.0904272696175
 30
0
 11
631.3019560368431
 21
695.0904272696175
 31
0
  0
LINE
  8
1
 62
4
 10
627.923269333953
 20
695.0904272696175
 30
0
 11
625.8019560368431
 21
695.0904272696175
 31
0
  0
LINE
  8
1
 62
4
 10
626.862612685398
 20
694.0297706210625
 30
0
 11
626.862612685398
 21
696.1510839181724
 31
0
  0
LINE
  8
1
 62
7
 10
632.362612685398
 20
695.6604272696175
 30
0
 11
625.762612685398
 21
695.6604272696175
 31
0
  0
LINE
  8
1
 62
7
 10
625.762612685398
 20
694.5204272696176
 30
0
 11
632.362612685398
 21
694.5204272696176
 31
0
  0
LINE
  8
1
 62
7
 10
619.562612685398
 20
702.7904272696176
 30
0
 11
619.562612685398
 21
697.7904272696176
 31
0
  0
LINE
  8
1
 62
7
 10
625.762612685398
 20
702.7904272696176
 30
0
 11
619.562612685398
 21
702.7904272696176
 31
0
  0
LINE
  8
1
 62
7
 10
619.562612685398
 20
687.3904272696176
 30
0
 11
625.762612685398
 21
687.3904272696176
 31
0
  0
LINE
  8
1
 62
7
 10
619.562612685398
 20
692.3904272696176
 30
0
 11
619.562612685398
 21
687.3904272696176
 31
0
  0
LINE
  8
1
 62
7
 10
612.9626126853981
 20
697.7904272696176
 30
0
 11
612.9626126853981
 21
692.3904272696176
 31
0
  0
LINE
  8
1
 62
7
 10
625.762612685398
 20
697.7904272696176
 30
0
 11
612.9626126853981
 21
697.7904272696176
 31
0
  0
LINE
  8
1
 62
7
 10
625.762612685398
 20
687.3904272696176
 30
0
 11
625.762612685398
 21
702.7904272696176
 31
0
  0
LINE
  8
1
 62
7
 10
612.9626126853981
 20
692.3904272696176
 30
0
 11
625.762612685398
 21
692.3904272696176
 31
0
  0
LINE
  8
1
 62
3
 10
681.962612685397
 20
678.5904272696175
 30
0
 11
618.962612685397
 21
678.5904272696175
 31
0
  0
LINE
  8
1
 62
3
 10
617.962612685397
 20
679.5904272696175
 30
0
 11
617.962612685397
 21
692.3904272696176
 31
0
  0
LINE
  8
1
 62
3
 10
682.962612685397
 20
782.5904272696178
 30
0
 11
682.962612685397
 21
679.5904272696175
 31
0
  0
LINE
  8
1
 62
3
 10
618.962612685397
 20
783.5904272696178
 30
0
 11
681.962612685397
 21
783.5904272696178
 31
0
  0
LINE
  8
1
 62
1
 10
619.749313760777
 20
741.6904002203082
 30
0
 11
624.2136193010111
 21
741.6904002203082
 31
0
  0
LINE
  8
1
 62
1
 10
621.962612685397
 20
739.2904002203084
 30
0
 11
621.962612685397
 21
744.0904002203081
 31
0
  0
LINE
  8
1
 62
4
 10
622.4392147399391
 20
753.5904688911974
 30
0
 11
620.486010630853
 21
753.5904688911974
 31
0
  0
LINE
  8
1
 62
4
 10
622.43921473994
 20
756.0904688911974
 30
0
 11
620.486010630853
 21
756.0904688911974
 31
0
  0
LINE
  8
1
 62
4
 10
622.4392147399391
 20
758.5904688911974
 30
0
 11
620.486010630853
 21
758.5904688911974
 31
0
  0
LINE
  8
1
 62
4
 10
622.4392147399391
 20
761.0904688911974
 30
0
 11
620.486010630853
 21
761.0904688911974
 31
0
  0
LINE
  8
1
 62
4
 10
622.4392147399391
 20
763.5904688911974
 30
0
 11
620.486010630853
 21
763.5904688911974
 31
0
  0
LINE
  8
1
 62
4
 10
622.4392147399391
 20
766.0904688911974
 30
0
 11
620.486010630853
 21
766.0904688911974
 31
0
  0
LINE
  8
1
 62
4
 10
622.4392147399391
 20
768.5904688911974
 30
0
 11
620.486010630853
 21
768.5904688911974
 31
0
  0
LINE
  8
1
 62
4
 10
622.4392147399391
 20
771.0904688911974
 30
0
 11
620.486010630853
 21
771.0904688911974
 31
0
  0
LINE
  8
1
 62
4
 10
621.462612685396
 20
752.5927209731956
 30
0
 11
621.462612685397
 21
774.5670709457404
 31
0
  0
LINE
  8
1
 62
4
 10
622.4392147399391
 20
773.5904688911974
 30
0
 11
620.486010630853
 21
773.5904688911974
 31
0
  0
LINE
  8
1
 62
7
 10
623.8126126853971
 20
752.0904688911974
 30
0
 11
614.112612685397
 21
752.0904688911974
 31
0
  0
LINE
  8
1
 62
7
 10
623.8126126853971
 20
775.0904688911974
 30
0
 11
623.8126126853971
 21
752.0904688911974
 31
0
  0
LINE
  8
1
 62
7
 10
614.112612685397
 20
775.0904688911974
 30
0
 11
623.8126126853971
 21
775.0904688911974
 31
0
  0
LINE
  8
1
 62
7
 10
614.112612685397
 20
752.0904688911974
 30
0
 11
614.112612685397
 21
775.0904688911974
 31
0
  0
LINE
  8
1
 62
7
 10
612.95835030314
 20
696.7904272696176
 30
0
 11
615.3922858516311
 21
696.7904272696176
 31
0
  0
LINE
  8
1
 62
7
 10
615.95835030314
 20
696.7904272696176
 30
0
 11
615.95835030314
 21
693.3904272696176
 31
0
  0
LINE
  8
1
 62
7
 10
615.95835030314
 20
693.3904272696176
 30
0
 11
615.3922858516311
 21
693.3904272696176
 31
0
  0
LINE
  8
1
 62
7
 10
615.3922858516311
 20
696.7904272696176
 30
0
 11
615.3922858516311
 21
693.3904272696176
 31
0
  0
LINE
  8
1
 62
7
 10
615.3922858516311
 20
696.7904272696176
 30
0
 11
615.95835030314
 21
696.7904272696176
 31
0
  0
LINE
  8
1
 62
7
 10
615.3922858516311
 20
693.3904272696176
 30
0
 11
612.95835030314
 21
693.3904272696176
 31
0
  0
LINE
  8
1
 62
7
 10
622.6656549250059
 20
689.3904311259664
 30
0
 11
619.562612685398
 21
689.3904311259664
 31
0
  0
LINE
  8
1
 62
7
 10
622.746991453061
 20
691.7874570201117
 30
0
 11
619.562612685398
 21
691.7874570201117
 31
0
  0
LINE
  8
1
 62
7
 10
622.746991453061
 20
700.7874570201118
 30
0
 11
619.562612685398
 21
700.7874570201118
 31
0
  0
LINE
  8
1
 62
7
 10
622.6656549250059
 20
698.3904311259664
 30
0
 11
619.562612685398
 21
698.3904311259664
 31
0
  0
LINE
  8
1
 62
3
 10
617.962612685397
 20
697.7904272696176
 30
0
 11
617.962612685397
 21
708.7904688911972
 31
0
  0
LINE
  8
1
 62
3
 10
617.962612685397
 20
730.3904688911973
 30
0
 11
617.962612685397
 21
752.0904688911974
 31
0
  0
LINE
  8
1
 62
3
 10
617.962612685397
 20
775.0904688911974
 30
0
 11
617.962612685397
 21
782.5904272696178
 31
0
  0
LINE
  8
1
 62
7
 10
531.9730637455527
 20
752.0904688911974
 30
0
 11
531.973063745553
 21
775.0904688911974
 31
0
  0
LINE
  8
1
 62
2
 10
529.1930637455528
 20
773.2704688911974
 30
0
 11
528.5530637455527
 21
773.2704688911974
 31
0
  0
LINE
  8
1
 62
2
 10
529.1930637455528
 20
773.9104688911975
 30
0
 11
529.1930637455528
 21
773.2704688911974
 31
0
  0
LINE
  8
1
 62
2
 10
528.5530637455527
 20
773.9104688911975
 30
0
 11
529.1930637455528
 21
773.9104688911975
 31
0
  0
LINE
  8
1
 62
2
 10
528.5530637455527
 20
773.2704688911974
 30
0
 11
528.5530637455527
 21
773.9104688911975
 31
0
  0
LINE
  8
1
 62
2
 10
529.1930637455528
 20
770.7704688911974
 30
0
 11
528.5530637455527
 21
770.7704688911974
 31
0
  0
LINE
  8
1
 62
2
 10
529.1930637455528
 20
771.4104688911984
 30
0
 11
529.1930637455528
 21
770.7704688911974
 31
0
  0
LINE
  8
1
 62
2
 10
528.5530637455527
 20
771.4104688911984
 30
0
 11
529.1930637455528
 21
771.4104688911984
 31
0
  0
LINE
  8
1
 62
2
 10
528.5530637455527
 20
770.7704688911974
 30
0
 11
528.5530637455527
 21
771.4104688911984
 31
0
  0
LINE
  8
1
 62
2
 10
529.1930637455528
 20
768.2704688911977
 30
0
 11
528.5530637455527
 21
768.2704688911977
 31
0
  0
LINE
  8
1
 62
2
 10
529.1930637455528
 20
768.9104688911984
 30
0
 11
529.1930637455528
 21
768.2704688911977
 31
0
  0
LINE
  8
1
 62
2
 10
528.5530637455527
 20
768.9104688911984
 30
0
 11
529.1930637455528
 21
768.9104688911984
 31
0
  0
LINE
  8
1
 62
2
 10
528.5530637455527
 20
768.2704688911977
 30
0
 11
528.5530637455527
 21
768.9104688911984
 31
0
  0
LINE
  8
1
 62
2
 10
529.1930637455528
 20
765.7704688911977
 30
0
 11
528.5530637455527
 21
765.7704688911977
 31
0
  0
LINE
  8
1
 62
2
 10
529.1930637455528
 20
766.4104688911984
 30
0
 11
529.1930637455528
 21
765.7704688911977
 31
0
  0
LINE
  8
1
 62
2
 10
528.5530637455527
 20
766.4104688911984
 30
0
 11
529.1930637455528
 21
766.4104688911984
 31
0
  0
LINE
  8
1
 62
2
 10
528.5530637455527
 20
765.7704688911977
 30
0
 11
528.5530637455527
 21
766.4104688911984
 31
0
  0
LINE
  8
1
 62
2
 10
529.1930637455528
 20
763.2704688911977
 30
0
 11
528.5530637455527
 21
763.2704688911977
 31
0
  0
LINE
  8
1
 62
2
 10
529.1930637455528
 20
763.9104688911984
 30
0
 11
529.1930637455528
 21
763.2704688911977
 31
0
  0
LINE
  8
1
 62
2
 10
528.5530637455527
 20
763.9104688911984
 30
0
 11
529.1930637455528
 21
763.9104688911984
 31
0
  0
LINE
  8
1
 62
2
 10
528.5530637455527
 20
763.2704688911977
 30
0
 11
528.5530637455527
 21
763.9104688911984
 31
0
  0
LINE
  8
1
 62
2
 10
529.1930637455528
 20
760.7704688911977
 30
0
 11
528.5530637455527
 21
760.7704688911977
 31
0
  0
LINE
  8
1
 62
2
 10
529.1930637455528
 20
761.4104688911984
 30
0
 11
529.1930637455528
 21
760.7704688911977
 31
0
  0
LINE
  8
1
 62
2
 10
528.5530637455527
 20
761.4104688911984
 30
0
 11
529.1930637455528
 21
761.4104688911984
 31
0
  0
LINE
  8
1
 62
2
 10
528.5530637455527
 20
760.7704688911977
 30
0
 11
528.5530637455527
 21
761.4104688911984
 31
0
  0
LINE
  8
1
 62
2
 10
529.1930637455528
 20
758.2704688911977
 30
0
 11
528.5530637455527
 21
758.2704688911977
 31
0
  0
LINE
  8
1
 62
2
 10
529.1930637455528
 20
758.9104688911984
 30
0
 11
529.1930637455528
 21
758.2704688911977
 31
0
  0
LINE
  8
1
 62
2
 10
528.5530637455527
 20
758.9104688911984
 30
0
 11
529.1930637455528
 21
758.9104688911984
 31
0
  0
LINE
  8
1
 62
2
 10
528.5530637455527
 20
758.2704688911977
 30
0
 11
528.5530637455527
 21
758.9104688911984
 31
0
  0
LINE
  8
1
 62
2
 10
529.1930637455528
 20
755.7704688911977
 30
0
 11
528.5530637455527
 21
755.7704688911977
 31
0
  0
LINE
  8
1
 62
2
 10
529.1930637455528
 20
756.4104688911984
 30
0
 11
529.1930637455528
 21
755.7704688911977
 31
0
  0
LINE
  8
1
 62
2
 10
528.5530637455527
 20
756.4104688911984
 30
0
 11
529.1930637455528
 21
756.4104688911984
 31
0
  0
LINE
  8
1
 62
2
 10
528.5530637455527
 20
755.7704688911977
 30
0
 11
528.5530637455527
 21
756.4104688911984
 31
0
  0
LINE
  8
1
 62
2
 10
529.1930637455528
 20
753.2704688911977
 30
0
 11
528.5530637455527
 21
753.2704688911977
 31
0
  0
LINE
  8
1
 62
2
 10
529.1930637455528
 20
753.9104688911984
 30
0
 11
529.1930637455528
 21
753.2704688911977
 31
0
  0
LINE
  8
1
 62
2
 10
528.5530637455527
 20
753.9104688911984
 30
0
 11
529.1930637455528
 21
753.9104688911984
 31
0
  0
LINE
  8
1
 62
2
 10
528.5530637455527
 20
753.2704688911977
 30
0
 11
528.5530637455527
 21
753.9104688911984
 31
0
  0
LINE
  8
1
 62
7
 10
525.973063745553
 20
752.0904688911974
 30
0
 11
525.973063745553
 21
775.0904688911974
 31
0
  0
LINE
  8
1
 62
7
 10
525.973063745553
 20
752.0904688911974
 30
0
 11
530.2730637455525
 21
752.0904688911974
 31
0
  0
LINE
  8
1
 62
7
 10
530.2730637455527
 20
775.0904688911974
 30
0
 11
530.2730637455527
 21
771.5904688911974
 31
0
  0
LINE
  8
1
 62
7
 10
530.2730637455527
 20
771.5904688911974
 30
0
 11
530.6730637455528
 21
771.5904688911974
 31
0
  0
LINE
  8
1
 62
7
 10
530.6730637455526
 20
755.5904688911974
 30
0
 11
530.2730637455525
 21
755.5904688911974
 31
0
  0
LINE
  8
1
 62
7
 10
530.2730637455525
 20
755.5904688911974
 30
0
 11
530.2730637455525
 21
752.0904688911974
 31
0
  0
LINE
  8
1
 62
7
 10
530.2730637455525
 20
752.0904688911974
 30
0
 11
530.6730637455526
 21
752.0904688911974
 31
0
  0
LINE
  8
1
 62
7
 10
530.6730637455526
 20
752.0904688911974
 30
0
 11
530.6730637455526
 21
755.5904688911974
 31
0
  0
LINE
  8
1
 62
7
 10
530.6730637455526
 20
752.0904688911974
 30
0
 11
531.9730637455527
 21
752.0904688911974
 31
0
  0
LINE
  8
1
 62
7
 10
530.6730637455528
 20
775.0904688911974
 30
0
 11
530.6730637455526
 21
759.9904688911975
 31
0
  0
LINE
  8
1
 62
7
 10
531.973063745553
 20
775.0904688911974
 30
0
 11
525.973063745553
 21
775.0904688911974
 31
0
  0
LINE
  8
1
 62
7
 10
530.6730637455528
 20
769.0904688911974
 30
0
 11
531.473063745553
 21
769.0904688911974
 31
0
  0
LINE
  8
1
 62
7
 10
531.473063745553
 20
769.0904688911974
 30
0
 11
531.473063745553
 21
767.1904688911975
 31
0
  0
LINE
  8
1
 62
7
 10
531.473063745553
 20
767.1904688911975
 30
0
 11
530.6730637455528
 21
767.1904688911975
 31
0
  0
LINE
  8
1
 62
7
 10
530.6730637455526
 20
759.9904688911975
 30
0
 11
531.4730637455527
 21
759.9904688911975
 31
0
  0
LINE
  8
1
 62
7
 10
530.6730637455526
 20
759.9904688911975
 30
0
 11
530.6730637455526
 21
758.0904688911974
 31
0
  0
LINE
  8
1
 62
7
 10
531.4730637455527
 20
759.9904688911975
 30
0
 11
531.4730637455527
 21
758.0904688911974
 31
0
  0
LINE
  8
1
 62
7
 10
530.6730637455526
 20
758.0904688911974
 30
0
 11
531.4730637455527
 21
758.0904688911974
 31
0
  0
LINE
  8
1
 62
7
 10
530.6730637455526
 20
758.0904688911974
 30
0
 11
530.6730637455526
 21
755.5904688911974
 31
0
  0
LINE
  8
1
 62
7
 10
525.973063745553
 20
692.3904272696176
 30
0
 11
525.973063745553
 21
687.3904272696176
 31
0
  0
LINE
  8
1
 62
7
 10
525.973063745553
 20
692.3904272696176
 30
0
 11
535.973063745553
 21
692.3904272696176
 31
0
  0
LINE
  8
1
 62
7
 10
525.973063745553
 20
687.3904272696176
 30
0
 11
530.673063745553
 21
687.3904272696176
 31
0
  0
LINE
  8
1
 62
7
 10
530.673063745553
 20
692.3904272696176
 30
0
 11
530.673063745553
 21
687.3904272696176
 31
0
  0
LINE
  8
1
 62
2
 10
619.662612685397
 20
726.3404688911974
 30
0
 11
616.862612685397
 21
726.3404688911974
 31
0
  0
LINE
  8
1
 62
2
 10
616.862612685397
 20
726.3404688911974
 30
0
 11
616.862612685397
 21
726.8404688911974
 31
0
  0
LINE
  8
1
 62
6
 10
616.862612685397
 20
726.8404688911974
 30
0
 11
615.862612685397
 21
726.8404688911974
 31
0
  0
LINE
  8
1
 62
2
 10
619.662612685397
 20
718.3404688911974
 30
0
 11
616.862612685397
 21
718.3404688911974
 31
0
  0
LINE
  8
1
 62
2
 10
616.862612685397
 20
718.3404688911974
 30
0
 11
616.862612685397
 21
718.8404688911974
 31
0
  0
LINE
  8
1
 62
2
 10
619.662612685397
 20
718.8404688911974
 30
0
 11
616.862612685397
 21
718.8404688911974
 31
0
  0
LINE
  8
1
 62
2
 10
619.662612685397
 20
716.3404688911974
 30
0
 11
616.862612685397
 21
716.3404688911974
 31
0
  0
LINE
  8
1
 62
2
 10
616.862612685397
 20
716.3404688911974
 30
0
 11
616.862612685397
 21
716.8404688911974
 31
0
  0
LINE
  8
1
 62
2
 10
619.662612685397
 20
716.8404688911974
 30
0
 11
616.862612685397
 21
716.8404688911974
 31
0
  0
LINE
  8
1
 62
2
 10
619.662612685397
 20
714.3404688911974
 30
0
 11
616.862612685397
 21
714.3404688911974
 31
0
  0
LINE
  8
1
 62
2
 10
616.862612685397
 20
714.3404688911974
 30
0
 11
616.862612685397
 21
714.8404688911974
 31
0
  0
LINE
  8
1
 62
2
 10
619.662612685397
 20
714.8404688911974
 30
0
 11
616.862612685397
 21
714.8404688911974
 31
0
  0
LINE
  8
1
 62
2
 10
619.662612685397
 20
712.3404688911974
 30
0
 11
616.862612685397
 21
712.3404688911974
 31
0
  0
LINE
  8
1
 62
2
 10
616.862612685397
 20
712.3404688911974
 30
0
 11
616.862612685397
 21
712.8404688911974
 31
0
  0
LINE
  8
1
 62
2
 10
619.662612685397
 20
712.8404688911974
 30
0
 11
616.862612685397
 21
712.8404688911974
 31
0
  0
LINE
  8
1
 62
2
 10
715.353510272619
 20
795.5904272696175
 30
0
 11
731.8154435188991
 21
795.5904272696175
 31
0
  0
LINE
  8
1
 62
2
 10
615.112612685397
 20
774.0904688911974
 30
0
 11
615.112612685397
 21
753.0904688911974
 31
0
  0
LINE
  8
1
 62
2
 10
615.112612685397
 20
753.0904688911974
 30
0
 11
620.112612685397
 21
753.0904688911974
 31
0
  0
LINE
  8
1
 62
2
 10
620.112612685397
 20
753.0904688911974
 30
0
 11
620.112612685397
 21
774.0904688911974
 31
0
  0
LINE
  8
1
 62
2
 10
620.112612685397
 20
774.0904688911974
 30
0
 11
615.112612685397
 21
774.0904688911974
 31
0
  0
LINE
  8
1
 62
2
 10
560.2326416919292
 20
756.9494693469844
 30
0
 11
607.941770951248
 21
756.9494693469844
 31
0
  0
LINE
  8
1
 62
2
 10
421.180223107302
 20
614.8318954585772
 30
0
 11
501.180223107302
 21
614.8318954585774
 31
0
  0
LINE
  8
1
 62
2
 10
421.180223107302
 20
621.3318954585772
 30
0
 11
501.180223107302
 21
621.3318954585774
 31
0
  0
LINE
  8
1
 62
2
 10
421.180223107302
 20
627.8318954585772
 30
0
 11
501.180223107302
 21
627.8318954585774
 31
0
  0
LINE
  8
1
 62
2
 10
421.180223107302
 20
634.3318954585772
 30
0
 11
501.180223107302
 21
634.3318954585772
 31
0
  0
LINE
  8
1
 62
2
 10
421.180223107302
 20
640.8318954585768
 30
0
 11
501.180223107302
 21
640.8318954585772
 31
0
  0
LINE
  8
1
 62
2
 10
421.180223107302
 20
647.3318954585768
 30
0
 11
501.180223107302
 21
647.3318954585772
 31
0
  0
LINE
  8
1
 62
2
 10
421.180223107302
 20
653.8318954585768
 30
0
 11
501.180223107302
 21
653.8318954585772
 31
0
  0
LINE
  8
1
 62
3
 10
421.180223107302
 20
608.3318954585774
 30
0
 11
501.180223107302
 21
608.3318954585775
 31
0
  0
LINE
  8
1
 62
2
 10
421.180223107302
 20
660.3318954585768
 30
0
 11
501.180223107302
 21
660.3318954585772
 31
0
  0
LINE
  8
1
 62
3
 10
421.180223107302
 20
575.8318954585768
 30
0
 11
501.180223107302
 21
575.8318954585775
 31
0
  0
LINE
  8
1
 62
3
 10
421.180223107302
 20
675.3318954585768
 30
0
 11
421.180223107302
 21
575.8318954585768
 31
0
  0
LINE
  8
1
 62
3
 10
501.180223107302
 20
675.3318954585766
 30
0
 11
501.180223107302
 21
575.8318954585775
 31
0
  0
LINE
  8
1
 62
2
 10
453.180223107302
 20
675.3318954585768
 30
0
 11
453.180223107302
 21
608.3318954585775
 31
0
  0
LINE
  8
1
 62
2
 10
435.180223107302
 20
675.3318954585768
 30
0
 11
435.180223107302
 21
608.3318954585775
 31
0
  0
LINE
  8
1
 62
2
 10
421.180223107302
 20
666.8318954585768
 30
0
 11
501.180223107302
 21
666.8318954585772
 31
0
  0
LINE
  8
1
 62
3
 10
421.180223107302
 20
675.3318954585768
 30
0
 11
501.180223107302
 21
675.3318954585766
 31
0
  0
LINE
  8
1
 62
2
 10
421.180223107302
 20
728.7988873200493
 30
0
 11
481.180223107302
 21
728.7988873200495
 31
0
  0
LINE
  8
1
 62
2
 10
421.180223107302
 20
735.2988873200493
 30
0
 11
481.180223107302
 21
735.2988873200495
 31
0
  0
LINE
  8
1
 62
2
 10
421.180223107302
 20
741.7988873200493
 30
0
 11
481.180223107302
 21
741.7988873200495
 31
0
  0
LINE
  8
1
 62
2
 10
421.180223107302
 20
748.2988873200493
 30
0
 11
481.180223107302
 21
748.2988873200495
 31
0
  0
LINE
  8
1
 62
2
 10
421.180223107302
 20
754.7988873200491
 30
0
 11
481.180223107302
 21
754.7988873200493
 31
0
  0
LINE
  8
1
 62
2
 10
421.180223107302
 20
761.2988873200491
 30
0
 11
481.180223107302
 21
761.2988873200493
 31
0
  0
LINE
  8
1
 62
2
 10
421.180223107302
 20
767.7988873200491
 30
0
 11
481.180223107302
 21
767.7988873200493
 31
0
  0
LINE
  8
1
 62
2
 10
421.180223107302
 20
774.2988873200491
 30
0
 11
481.180223107302
 21
774.2988873200493
 31
0
  0
LINE
  8
1
 62
3
 10
421.180223107302
 20
722.2988873200495
 30
0
 11
501.180223107302
 21
722.2988873200497
 31
0
  0
LINE
  8
1
 62
2
 10
421.180223107302
 20
780.7988873200488
 30
0
 11
481.180223107302
 21
780.7988873200493
 31
0
  0
LINE
  8
1
 62
3
 10
421.180223107302
 20
689.798887320049
 30
0
 11
501.180223107302
 21
689.7988873200497
 31
0
  0
LINE
  8
1
 62
3
 10
421.180223107302
 20
795.7988873200488
 30
0
 11
421.180223107302
 21
689.798887320049
 31
0
  0
LINE
  8
1
 62
3
 10
501.180223107302
 20
795.7988873200488
 30
0
 11
501.180223107302
 21
689.7988873200497
 31
0
  0
LINE
  8
1
 62
2
 10
453.180223107302
 20
795.7988873200488
 30
0
 11
453.180223107302
 21
722.2988873200497
 31
0
  0
LINE
  8
1
 62
2
 10
435.180223107302
 20
795.7988873200488
 30
0
 11
435.180223107302
 21
722.2988873200497
 31
0
  0
LINE
  8
1
 62
2
 10
421.180223107302
 20
787.2988873200488
 30
0
 11
501.180223107302
 21
787.2988873200493
 31
0
  0
LINE
  8
1
 62
3
 10
421.180223107302
 20
795.7988873200488
 30
0
 11
501.180223107302
 21
795.7988873200488
 31
0
  0
LINE
  8
1
 62
2
 10
481.180223107302
 20
795.7988873200488
 30
0
 11
481.180223107302
 21
722.2988873200497
 31
0
  0
LINE
  8
1
 62
3
 10
504.180223107302
 20
608.3318954585783
 30
0
 11
584.180223107302
 21
608.3318954585783
 31
0
  0
LINE
  8
1
 62
2
 10
504.180223107302
 20
614.8318954585783
 30
0
 11
564.1802231073023
 21
614.8318954585783
 31
0
  0
LINE
  8
1
 62
3
 10
504.180223107302
 20
575.8318954585775
 30
0
 11
584.180223107302
 21
575.8318954585775
 31
0
  0
LINE
  8
1
 62
3
 10
504.1802231073023
 20
629.8318954585781
 30
0
 11
504.180223107302
 21
575.8318954585775
 31
0
  0
LINE
  8
1
 62
3
 10
584.180223107302
 20
629.8318954585781
 30
0
 11
584.180223107302
 21
575.8318954585775
 31
0
  0
LINE
  8
1
 62
2
 10
536.1802231073023
 20
629.8318954585781
 30
0
 11
536.180223107302
 21
608.3318954585783
 31
0
  0
LINE
  8
1
 62
2
 10
518.1802231073023
 20
629.8318954585781
 30
0
 11
518.1802231073023
 21
608.3318954585783
 31
0
  0
LINE
  8
1
 62
2
 10
504.180223107302
 20
621.3318954585777
 30
0
 11
584.180223107302
 21
621.3318954585783
 31
0
  0
LINE
  8
1
 62
3
 10
504.1802231073023
 20
629.8318954585781
 30
0
 11
584.180223107302
 21
629.8318954585781
 31
0
  0
LINE
  8
1
 62
2
 10
564.1802231073023
 20
629.8318954585781
 30
0
 11
564.1802231073023
 21
608.3318954585783
 31
0
  0
LINE
  8
1
 62
2
 10
707.8232355777519
 20
760.9075390377277
 30
0
 11
805.8232355777519
 21
760.9075390377277
 31
0
  0
LINE
  8
1
 62
2
 10
707.8232355777519
 20
765.9075390377277
 30
0
 11
805.8232355777519
 21
765.9075390377277
 31
0
  0
LINE
  8
1
 62
2
 10
707.8232355777519
 20
770.9075390377277
 30
0
 11
805.8232355777519
 21
770.9075390377277
 31
0
  0
LINE
  8
1
 62
2
 10
707.8232355777519
 20
775.9075390377277
 30
0
 11
805.8232355777519
 21
775.9075390377277
 31
0
  0
LINE
  8
1
 62
2
 10
717.8232355777519
 20
755.9075390377277
 30
0
 11
717.8232355777519
 21
760.9075390377277
 31
0
  0
LINE
  8
1
 62
2
 10
707.8232355777519
 20
760.9075390377277
 30
0
 11
707.8232355777519
 21
775.9075390377277
 31
0
  0
LINE
  8
1
 62
2
 10
805.8232355777519
 20
760.9075390377277
 30
0
 11
805.8232355777519
 21
775.9075390377277
 31
0
  0
LINE
  8
1
 62
2
 10
707.8232355777519
 20
755.9075390377277
 30
0
 11
805.8232355777519
 21
755.9075390377277
 31
0
  0
LINE
  8
1
 62
2
 10
781.8232355777519
 20
760.9075390377277
 30
0
 11
781.8232355777519
 21
770.9075390377277
 31
0
  0
LINE
  8
1
 62
2
 10
707.8232355777519
 20
760.9075390377277
 30
0
 11
707.8232355777519
 21
755.9075390377277
 31
0
  0
LINE
  8
1
 62
2
 10
781.8232355777519
 20
760.9075390377277
 30
0
 11
781.8232355777519
 21
755.9075390377277
 31
0
  0
LINE
  8
1
 62
2
 10
805.8232355777519
 20
760.9075390377277
 30
0
 11
805.8232355777519
 21
755.9075390377277
 31
0
  0
LINE
  8
1
 62
2
 10
717.8232355777519
 20
760.9075390377277
 30
0
 11
717.8232355777519
 21
765.9075390377277
 31
0
  0
LINE
  8
1
 62
3
 10
617.962612685397
 20
782.5904272696178
 30
0
 11
618.962612685397
 21
783.5904272696178
 31
0
  0
LINE
  8
1
 62
3
 10
682.962612685397
 20
679.5904272696175
 30
0
 11
681.962612685397
 21
678.5904272696175
 31
0
  0
LINE
  8
1
 62
3
 10
617.962612685397
 20
679.5904272696175
 30
0
 11
618.962612685397
 21
678.5904272696175
 31
0
  0
LINE
  8
1
 62
3
 10
681.962612685397
 20
783.5904272696178
 30
0
 11
682.962612685397
 21
782.5904272696178
 31
0
  0
LINE
  8
1
 62
2
 10
565.1811979108853
 20
763.0340772189484
 30
0
 11
612.8903271702039
 21
763.0340772189484
 31
0
  0
ARC
  8
1
 62
6
 10
639.694906764389
 20
726.8176575531209
 30
0
 40
2.362500000001352
 50
7.499999999999464
 51
22.49999999998923
  0
ARC
  8
1
 62
6
 10
639.694906764389
 20
726.8176575531209
 30
0
 40
2.362500000000644
 50
37.4999999999805
 51
52.49999999996233
  0
ARC
  8
1
 62
6
 10
639.694906764389
 20
726.8176575531209
 30
0
 40
2.362500000000625
 50
67.49999999996457
 51
82.49999999996889
  0
ARC
  8
1
 62
6
 10
639.694906764389
 20
726.8176575531209
 30
0
 40
2.362499999999852
 50
97.49999999997644
 51
112.4999999999641
  0
ARC
  8
1
 62
6
 10
639.694906764389
 20
726.8176575531209
 30
0
 40
2.362499999999965
 50
247.5000000000176
 51
262.5000000000229
  0
ARC
  8
1
 62
6
 10
639.694906764389
 20
726.8176575531209
 30
0
 40
2.362499999999923
 50
277.5000000000319
 51
292.5000000000333
  0
ARC
  8
1
 62
6
 10
639.694906764389
 20
726.8176575531209
 30
0
 40
2.362500000000615
 50
307.5000000000158
 51
322.5000000000064
  0
ARC
  8
1
 62
6
 10
639.694906764389
 20
726.8176575531209
 30
0
 40
2.362500000001066
 50
337.5000000000107
 51
352.500000000006
  0
ARC
  8
1
 62
6
 10
639.6949067643919
 20
726.8176575531209
 30
0
 40
2.834999999998578
 50
22.50000000000389
 51
37.50000000001716
  0
ARC
  8
1
 62
6
 10
639.6949067643919
 20
726.8176575531209
 30
0
 40
2.834999999998896
 50
52.50000000002515
 51
67.50000000003638
  0
ARC
  8
1
 62
6
 10
639.6949067643919
 20
726.8176575531209
 30
0
 40
2.83499999999957
 50
82.50000000003401
 51
97.50000000002007
  0
ARC
  8
1
 62
6
 10
639.6949067643919
 20
726.8176575531209
 30
0
 40
2.835000000000708
 50
112.5000000000358
 51
127.5000000000158
  0
ARC
  8
1
 62
6
 10
639.6949067643919
 20
726.8176575531209
 30
0
 40
2.835000000000738
 50
232.4999999999842
 51
247.4999999999642
  0
ARC
  8
1
 62
6
 10
639.6949067643919
 20
726.8176575531209
 30
0
 40
2.8350000000003
 50
262.4999999999571
 51
277.4999999999654
  0
ARC
  8
1
 62
6
 10
639.6949067643919
 20
726.8176575531209
 30
0
 40
2.834999999999229
 50
292.4999999999636
 51
307.4999999999721
  0
ARC
  8
1
 62
6
 10
639.6949067643919
 20
726.8176575531209
 30
0
 40
2.834999999998921
 50
322.4999999999791
 51
337.4999999999876
  0
ARC
  8
1
 62
6
 10
639.6949067643919
 20
726.8176575531209
 30
0
 40
2.834999999998455
 50
352.4999999999939
 51
7.500000000001483
  0
ARC
  8
1
 62
6
 10
639.694906764389
 20
726.8176575531209
 30
0
 40
1.889999999998908
 50
168.46304096718
 51
191.5369590328201
  0
ARC
  8
1
 62
6
 10
639.694906764389
 20
726.8176575531209
 30
0
 40
1.88999999999984
 50
101.5369590327861
 51
168.46304096718
  0
ARC
  8
1
 62
6
 10
639.694906764389
 20
726.8176575531209
 30
0
 40
1.890000000000026
 50
281.5369590328483
 51
348.4630409671923
  0
ARC
  8
1
 62
6
 10
639.694906764389
 20
726.8176575531209
 30
0
 40
1.890000000000913
 50
348.4630409671923
 51
11.53695903280764
  0
ARC
  8
1
 62
6
 10
639.694906764389
 20
726.8176575531209
 30
0
 40
1.889999999999617
 50
258.4630409672125
 51
281.5369590328483
  0
ARC
  8
1
 62
6
 10
639.694906764389
 20
726.8176575531209
 30
0
 40
1.890000000000913
 50
11.53695903280764
 51
78.46304096715308
  0
ARC
  8
1
 62
6
 10
639.694906764389
 20
726.8176575531209
 30
0
 40
1.889999999998908
 50
191.5369590328201
 51
258.4630409672125
  0
ARC
  8
1
 62
6
 10
639.694906764389
 20
726.8176575531209
 30
0
 40
1.890000000000249
 50
78.46304096715308
 51
101.5369590327861
  0
ARC
  8
1
 62
7
 10
632.362612685398
 20
695.0904272696175
 30
0
 40
0.5699999999999363
 50
270
 51
90
  0
CIRCLE
  8
1
 62
6
 10
640.6399067643901
 20
727.7626575531208
 30
0
 40
0.3150000000000546
  0
CIRCLE
  8
1
 62
6
 10
640.6399067643901
 20
725.8726575531209
 30
0
 40
0.3150000000000546
  0
CIRCLE
  8
1
 62
4
 10
621.462612685397
 20
710.5904688911974
 30
0
 40
0.400000000000091
  0
CIRCLE
  8
1
 62
4
 10
621.462612685397
 20
712.5904688911974
 30
0
 40
0.400000000000091
  0
CIRCLE
  8
1
 62
4
 10
621.462612685397
 20
714.5904688911974
 30
0
 40
0.400000000000091
  0
CIRCLE
  8
1
 62
4
 10
621.462612685397
 20
716.5904688911974
 30
0
 40
0.400000000000091
  0
CIRCLE
  8
1
 62
4
 10
621.462612685397
 20
718.5904688911974
 30
0
 40
0.400000000000091
  0
CIRCLE
  8
1
 62
4
 10
621.462612685397
 20
720.5904688911974
 30
0
 40
0.400000000000091
  0
CIRCLE
  8
1
 62
4
 10
621.462612685397
 20
722.5904688911974
 30
0
 40
0.400000000000091
  0
CIRCLE
  8
1
 62
4
 10
621.462612685397
 20
724.5904688911974
 30
0
 40
0.400000000000091
  0
CIRCLE
  8
1
 62
4
 10
621.462612685397
 20
726.5904688911974
 30
0
 40
0.400000000000091
  0
CIRCLE
  8
1
 62
4
 10
621.462612685397
 20
728.5904688911974
 30
0
 40
0.400000000000091
  0
CIRCLE
  8
1
 62
3
 10
621.462612685397
 20
682.0904272696175
 30
0
 40
1.75
  0
CIRCLE
  8
1
 62
3
 10
679.462612685397
 20
682.0904272696175
 30
0
 40
1.75
  0
CIRCLE
  8
1
 62
3
 10
621.462612685397
 20
780.0904272696178
 30
0
 40
1.75
  0
CIRCLE
  8
1
 62
3
 10
679.462612685397
 20
780.0904272696178
 30
0
 40
1.75
  0
CIRCLE
  8
1
 62
4
 10
626.862612685398
 20
695.0904272696175
 30
0
 40
0.900000000000091
  0
CIRCLE
  8
1
 62
4
 10
632.362612685398
 20
695.0904272696175
 30
0
 40
0.900000000000091
  0
CIRCLE
  8
1
 62
7
 10
622.6626126853981
 20
699.5904272696175
 30
0
 40
1.200000000000046
  0
CIRCLE
  8
1
 62
7
 10
622.6626126853981
 20
690.5904272696173
 30
0
 40
1.200000000000046
  0
CIRCLE
  8
1
 62
3
 10
621.962612685397
 20
741.6904002203082
 30
0
 40
1.75
  0
CIRCLE
  8
1
 62
4
 10
621.462612685397
 20
753.5904688911974
 30
0
 40
0.6000000000008186
  0
CIRCLE
  8
1
 62
4
 10
621.462612685397
 20
756.0904688911974
 30
0
 40
0.6000000000008186
  0
CIRCLE
  8
1
 62
4
 10
621.462612685397
 20
758.5904688911974
 30
0
 40
0.6000000000008186
  0
CIRCLE
  8
1
 62
4
 10
621.462612685397
 20
761.0904688911974
 30
0
 40
0.6000000000008186
  0
CIRCLE
  8
1
 62
4
 10
621.462612685397
 20
763.5904688911974
 30
0
 40
0.6000000000008186
  0
CIRCLE
  8
1
 62
4
 10
621.462612685397
 20
766.0904688911974
 30
0
 40
0.6000000000008186
  0
CIRCLE
  8
1
 62
4
 10
621.462612685397
 20
768.5904688911974
 30
0
 40
0.6000000000008186
  0
CIRCLE
  8
1
 62
4
 10
621.462612685397
 20
771.0904688911974
 30
0
 40
0.6000000000008186
  0
CIRCLE
  8
1
 62
4
 10
621.462612685397
 20
773.5904688911974
 30
0
 40
0.6000000000008186
  0
CIRCLE
  8
1
 62
2
 10
425.1532657489229
 20
680.821910689104
 30
0
 40
2.5
  0
CIRCLE
  8
1
 62
2
 10
424.680223107302
 20
705.4103267210808
 30
0
 40
2.5
  0
CIRCLE
  8
1
 62
2
 10
424.680223107302
 20
714.1908065049147
 30
0
 40
2.5
  0
CIRCLE
  8
1
 62
2
 10
431.7762992930418
 20
801.2889025505763
 30
0
 40
2.5
  0
CIRCLE
  8
1
 62
2
 10
425.1532657489229
 20
801.2889025505763
 30
0
 40
2.5
  0
CIRCLE
  8
1
 62
2
 10
507.680223107302
 20
591.4433348596092
 30
0
 40
2.5
  0
CIRCLE
  8
1
 62
2
 10
507.680223107302
 20
600.2238146434432
 30
0
 40
2.5
  0
CIRCLE
  8
1
 62
2
 10
514.776299293042
 20
635.3219106891053
 30
0
 40
2.5
  0
CIRCLE
  8
1
 62
2
 10
508.1532657489231
 20
635.3219106891053
 30
0
 40
2.5
  0
CIRCLE
  8
1
 62
2
 10
633.474058846907
 20
710.7262770000361
 30
0
 40
4
  0
CIRCLE
  8
1
 62
2
 10
633.5585363151159
 20
736.8505937991988
 30
0
 40
4
  0
CIRCLE
  8
1
 62
2
 10
633.9109685575101
 20
777.9496302634723
 30
0
 40
4
  0
CIRCLE
  8
1
 62
2
 10
800.764513883379
 20
734.8692444045564
 30
0
 40
4
  0
CIRCLE
  8
1
 62
2
 10
800.7155989015299
 20
678.2142124677714
 30
0
 40
4
  0
POLYLINE
  8
1
 62
2
 66
1
  0
VERTEX
  8
1
 10
754.1717923039001
 20
658.2885198139684
 30
0
 42
-0.00532960986863457
  0
VERTEX
  8
1
 10
754.4787873898735
 20
658.0095497339501
 30
0
 42
-0.01721803191514396
  0
VERTEX
  8
1
 10
754.7624621995386
 20
657.7278736760443
 30
0
 42
-0.03309656202164146
  0
VERTEX
  8
1
 10
754.9994964565879
 20
657.4407856623632
 30
0
 42
-0.05582201936466727
  0
VERTEX
  8
1
 10
755.1665698847135
 20
657.1455797150195
 30
0
 42
-0.08329269170861238
  0
VERTEX
  8
1
 10
755.2403622076071
 20
656.8395498561255
 30
0
 42
-0.1042059785969171
  0
VERTEX
  8
1
 10
755.154185959593
 20
656.3537690149565
 30
0
 42
-0.03970357177290428
  0
VERTEX
  8
1
 10
754.9077511238888
 20
655.8469684766051
 30
0
 42
0.0008403655786699578
  0
VERTEX
  8
1
 10
754.6070458209654
 20
655.3290225905719
 30
0
 42
0.03861007055631658
  0
VERTEX
  8
1
 10
754.3580581712926
 20
654.8098057063573
 30
0
 42
0.0968348067376788
  0
VERTEX
  8
1
 10
754.266776295341
 20
654.2991921734626
 30
0
 42
0.1250610905316311
  0
VERTEX
  8
1
 10
754.3968487725526
 20
653.8198920037028
 30
0
 42
0.01535819576856375
  0
VERTEX
  8
1
 10
754.6797748082668
 20
653.3527247009151
 30
0
 42
0.03147894984187383
  0
VERTEX
  8
1
 10
755.0211437942478
 20
652.8924967039779
 30
0
 42
-0.03164132440846993
  0
VERTEX
  8
1
 10
755.3265451222601
 20
652.4340144517698
 30
0
 42
-0.08519901686156778
  0
VERTEX
  8
1
 10
755.5015681840681
 20
651.9720843831685
 30
0
 42
-0.08697951603934005
  0
VERTEX
  8
1
 10
755.4965391209578
 20
651.5941435363591
 30
0
 42
-0.06000537360973983
  0
VERTEX
  8
1
 10
755.3745497107627
 20
651.2117064771994
 30
0
 42
-0.03581699523562593
  0
VERTEX
  8
1
 10
755.1648400402546
 20
650.8258972587773
 30
0
 42
-0.01861822024538494
  0
VERTEX
  8
1
 10
754.8966501962044
 20
650.4378399341803
 30
0
 42
-0.005754684647572321
  0
VERTEX
  8
1
 10
754.599220265383
 20
650.0486585564956
 30
0
  0
SEQEND
  8
1
  0
POLYLINE
  8
1
 62
2
 66
1
  0
VERTEX
  8
1
 10
755.1320616237221
 20
658.2885198139684
 30
0
 42
-0.005329609869003174
  0
VERTEX
  8
1
 10
755.4390567096954
 20
658.0095497339501
 30
0
 42
-0.01721803191534397
  0
VERTEX
  8
1
 10
755.7227315193604
 20
657.7278736760443
 30
0
 42
-0.03309656202187775
  0
VERTEX
  8
1
 10
755.9597657764098
 20
657.4407856623632
 30
0
 42
-0.0558220193644109
  0
VERTEX
  8
1
 10
756.1268392045353
 20
657.1455797150195
 30
0
 42
-0.08329269170896486
  0
VERTEX
  8
1
 10
756.200631527429
 20
656.8395498561255
 30
0
 42
-0.1042059785964646
  0
VERTEX
  8
1
 10
756.1144552794149
 20
656.3537690149565
 30
0
 42
-0.03970357177290428
  0
VERTEX
  8
1
 10
755.8680204437108
 20
655.8469684766051
 30
0
 42
0.0008403655786699578
  0
VERTEX
  8
1
 10
755.5673151407873
 20
655.3290225905719
 30
0
 42
0.03861007055649515
  0
VERTEX
  8
1
 10
755.3183274911147
 20
654.8098057063573
 30
0
 42
0.09683480673733051
  0
VERTEX
  8
1
 10
755.2270456151631
 20
654.2991921734626
 30
0
 42
0.1250610905319677
  0
VERTEX
  8
1
 10
755.3571180923748
 20
653.8198920037027
 30
0
 42
0.01535819576833035
  0
VERTEX
  8
1
 10
755.6400441280889
 20
653.3527247009151
 30
0
 42
0.03147894984196845
  0
VERTEX
  8
1
 10
755.9814131140698
 20
652.8924967039779
 30
0
 42
-0.03164132440865553
  0
VERTEX
  8
1
 10
756.286814442082
 20
652.4340144517698
 30
0
 42
-0.08519901686199406
  0
VERTEX
  8
1
 10
756.46183750389
 20
651.9720843831685
 30
0
 42
-0.08697951603993651
  0
VERTEX
  8
1
 10
756.4568084407795
 20
651.5941435363591
 30
0
 42
-0.06000537361081951
  0
VERTEX
  8
1
 10
756.3348190305844
 20
651.2117064771994
 30
0
 42
-0.03581699523609971
  0
VERTEX
  8
1
 10
756.1251093600762
 20
650.8258972587773
 30
0
 42
-0.0186182202451757
  0
VERTEX
  8
1
 10
755.8569195160256
 20
650.4378399341803
 30
0
 42
-0.00575468464756899
  0
VERTEX
  8
1
 10
755.559489585204
 20
650.0486585564956
 30
0
  0
SEQEND
  8
1
  0
POLYLINE
  8
1
 62
2
 66
1
  0
VERTEX
  8
1
 10
758.469125407892
 20
720.770196549403
 30
0
 42
-0.05992044886746294
  0
VERTEX
  8
1
 10
759.7124641391188
 20
718.7317174330275
 30
0
 42
-0.06693166901957519
  0
VERTEX
  8
1
 10
760.2823249959795
 20
716.7490354115618
 30
0
 42
-0.06026598557155401
  0
VERTEX
  8
1
 10
760.3129328645356
 20
714.8111317565165
 30
0
 42
-0.0435580574374745
  0
VERTEX
  8
1
 10
759.9385126308476
 20
712.9069877394027
 30
0
 42
-0.02506437060961131
  0
VERTEX
  8
1
 10
759.2932891809769
 20
711.0255846317307
 30
0
 42
-0.00822268665872938
  0
VERTEX
  8
1
 10
758.5114874009845
 20
709.1559037050112
 30
0
 42
0.007575450182767638
  0
VERTEX
  8
1
 10
757.7273321769312
 20
707.2869262307552
 30
0
 42
0.024112431618497
  0
VERTEX
  8
1
 10
757.0750483948785
 20
705.4076334804734
 30
0
 42
0.04249624583443615
  0
VERTEX
  8
1
 10
756.6888609408873
 20
703.5070067256763
 30
0
 42
0.06055444435980951
  0
VERTEX
  8
1
 10
756.702994701018
 20
701.5740272378744
 30
0
 42
0.07056965154293789
  0
VERTEX
  8
1
 10
757.2516745613327
 20
699.5976762885789
 30
0
 42
0.06615971116377749
  0
VERTEX
  8
1
 10
758.469125407892
 20
697.5669351493004
 30
0
  0
SEQEND
  8
1
  0
POLYLINE
  8
1
 62
2
 66
1
  0
VERTEX
  8
1
 10
757.469125407892
 20
720.770196549403
 30
0
 42
-0.05992044886749679
  0
VERTEX
  8
1
 10
758.7124641391189
 20
718.7317174330275
 30
0
 42
-0.06693166901947509
  0
VERTEX
  8
1
 10
759.2823249959796
 20
716.7490354115618
 30
0
 42
-0.06026598557149689
  0
VERTEX
  8
1
 10
759.3129328645356
 20
714.8111317565165
 30
0
 42
-0.0435580574374745
  0
VERTEX
  8
1
 10
758.9385126308476
 20
712.9069877394027
 30
0
 42
-0.02506437060961131
  0
VERTEX
  8
1
 10
758.2932891809769
 20
711.0255846317307
 30
0
 42
-0.00822268665883347
  0
VERTEX
  8
1
 10
757.5114874009845
 20
709.1559037050112
 30
0
 42
0.007575450182922244
  0
VERTEX
  8
1
 10
756.7273321769313
 20
707.2869262307552
 30
0
 42
0.0241124316185493
  0
VERTEX
  8
1
 10
756.0750483948785
 20
705.4076334804734
 30
0
 42
0.04249624583454897
  0
VERTEX
  8
1
 10
755.6888609408873
 20
703.5070067256763
 30
0
 42
0.06055444435992675
  0
VERTEX
  8
1
 10
755.702994701018
 20
701.5740272378744
 30
0
 42
0.07056965154293789
  0
VERTEX
  8
1
 10
756.2516745613327
 20
699.5976762885789
 30
0
 42
0.06615971116386626
  0
VERTEX
  8
1
 10
757.469125407892
 20
697.5669351493004
 30
0
  0
SEQEND
  8
1
  0
ARC
  8
1
 62
3
 10
792.4387321958951
 20
660.0395498561256
 30
0
 40
0.2999999999999545
 50
0
 51
90
  0
ARC
  8
1
 62
3
 10
792.2387321958951
 20
659.3395498561255
 30
0
 40
0.5
 50
270
 51
0
  0
ARC
  8
1
 62
3
 10
794.8939269057061
 20
659.3395498561255
 30
0
 40
0.5
 50
180
 51
270
  0
POLYLINE
  8
1
 62
2
 66
1
 70
1
  0
VERTEX
  8
1
 10
643.6803164486681
 20
589.0769470100573
 30
0
  0
VERTEX
  8
1
 10
697.9997608931126
 20
589.0769470100573
 30
0
 42
0.4142135624
  0
VERTEX
  8
1
 10
707.0622608931126
 20
598.1394470100573
 30
0
  0
VERTEX
  8
1
 10
707.0622608931126
 20
598.1394470100573
 30
0
 42
0.4142135624
  0
VERTEX
  8
1
 10
697.9997608931126
 20
607.2019470100573
 30
0
  0
VERTEX
  8
1
 10
643.6803164486681
 20
607.2019470100573
 30
0
 42
0.4142135624
  0
VERTEX
  8
1
 10
634.6178164486681
 20
598.1394470100573
 30
0
  0
VERTEX
  8
1
 10
634.6178164486681
 20
598.1394470100573
 30
0
 42
0.4142135624
  0
SEQEND
  8
1
  0
POLYLINE
  8
1
 62
2
 66
1
 70
1
  0
VERTEX
  8
1
 10
715.6978657090859
 20
734.1468779746747
 30
0
  0
VERTEX
  8
1
 10
725.6978657090859
 20
734.1468779746747
 30
0
  0
VERTEX
  8
1
 10
725.6978657090859
 20
744.1468779746747
 30
0
  0
VERTEX
  8
1
 10
715.6978657090859
 20
744.1468779746747
 30
0
  0
SEQEND
  8
1
  0
POLYLINE
  8
1
 62
2
 66
1
 70
1
  0
VERTEX
  8
1
 10
715.4478657090859
 20
675.8620694483855
 30
0
  0
VERTEX
  8
1
 10
725.4478657090859
 20
675.8620694483855
 30
0
  0
VERTEX
  8
1
 10
725.4478657090859
 20
685.8620694483855
 30
0
  0
VERTEX
  8
1
 10
715.4478657090859
 20
685.8620694483855
 30
0
  0
SEQEND
  8
1
  0
LINE
  8
1
 62
2
 10
669.914155796455
 20
752.0072908630543
 30
0
 11
655.1148221447651
 21
752.0072908630543
 31
0
  0
LINE
  8
1
 62
2
 10
655.1148221447651
 20
752.0072908630543
 30
0
 11
639.6949067643901
 21
730.0176575531209
 31
0
  0
SOLID
  8
1
 62
2
 10
641.187226239591
 20
732.8795566003228
 30
0
 11
641.8770906651374
 21
732.3957990534859
 31
0
 12
639.6949067643901
 22
730.0176575531209
 32
0
 13
639.6949067643901
 23
730.0176575531209
 33
0
  0
LINE
  8
1
 62
2
 10
545.3189054549071
 20
750.8648614750202
 30
0
 11
602.9932147322921
 21
750.8648614750202
 31
0
  0
LINE
  8
1
 62
2
 10
602.9932147322921
 20
750.8648614750202
 30
0
 11
617.612612685397
 21
768.8404688911974
 31
0
  0
SOLID
  8
1
 62
2
 10
615.9203747570322
 20
766.0920485510306
 30
0
 11
615.2666928381811
 21
766.6236821078378
 31
0
 12
617.612612685397
 22
768.8404688911974
 32
0
 13
617.612612685397
 23
768.8404688911974
 33
0
  0
LINE
  8
1
 62
2
 10
630.8654139721281
 20
707.6939557905844
 30
0
 11
625.762612685398
 21
700.4064003041406
 31
0
  0
SOLID
  8
1
 62
2
 10
627.2529583616113
 20
703.2693277111546
 30
0
 11
627.9431562018318
 21
702.786045980576
 31
0
 12
625.762612685398
 22
700.4064003041406
 32
0
 13
625.762612685398
 23
700.4064003041406
 33
0
  0
LINE
  8
1
 62
2
 10
630.741074849807
 20
734.0112433644165
 30
0
 11
623.0626126853971
 21
723.0452629294687
 31
0
  0
SOLID
  8
1
 62
2
 10
624.55295836161
 20
725.9081903364828
 30
0
 11
625.2431562018306
 21
725.4249086059043
 31
0
 12
623.0626126853971
 22
723.0452629294687
 32
0
 13
623.0626126853971
 23
723.0452629294687
 33
0
  0
LINE
  8
1
 62
2
 10
630.989374306774
 20
775.2175455220945
 30
0
 11
623.8126126853971
 21
764.9680677176616
 31
0
  0
SOLID
  8
1
 62
2
 10
625.3029583616101
 20
767.8309951246756
 30
0
 11
625.9931562018307
 21
767.3477133940971
 31
0
 12
623.8126126853971
 22
764.9680677176616
 32
0
 13
623.8126126853971
 23
764.9680677176616
 33
0
  0
LINE
  8
1
 62
2
 10
799.722125376008
 20
731.0074538613364
 30
0
 11
791.319634917492
 21
719.0074538613364
 31
0
  0
SOLID
  8
1
 62
2
 10
792.809980593705
 20
721.8703812683506
 30
0
 11
793.5001784339255
 21
721.387099537772
 31
0
 12
791.319634917492
 22
719.0074538613364
 32
0
 13
791.319634917492
 23
719.0074538613364
 33
0
  0
LINE
  8
1
 62
2
 10
799.722125376008
 20
674.3395498561255
 30
0
 11
791.319634917492
 21
662.3395498561255
 31
0
  0
SOLID
  8
1
 62
2
 10
792.809980593705
 20
665.2024772631396
 30
0
 11
793.5001784339255
 21
664.719195532561
 31
0
 12
791.319634917492
 22
662.3395498561255
 32
0
 13
791.319634917492
 23
662.3395498561255
 33
0
  0
TEXT
  8
1
 62
2
 10
599.1185140473541
 20
795.0284516496715
 30
0
 40
3
  1
òÂÄÜâmî³âL
 50
270
 41
0.9
 72
1
 73
2
 11
600.6185140473541
 21
781.5284516496715
 31
0
  0
TEXT
  8
1
 62
2
 10
595.3788806569361
 20
789.7830557087543
 30
0
 40
3
  1
LETTER DIR.
 50
270
 41
0.6300000000000001
 72
1
 73
2
 11
596.8788806569361
 21
779.3880557087543
 31
0
  0
TEXT
  8
1
 62
2
 10
639.6178164486681
 20
594.0769470100573
 30
0
 40
10
  1
FYD66SD3
 41
0.7200000000000002
  0
TEXT
  8
1
 62
2
 10
654.5565935799781
 20
747.7404883755265
 30
0
 40
3.200000000000001
  1
Variable Resistor
 41
0.4229999999999999
 73
2
 11
654.5565935799781
 21
749.3404883755266
 31
0
  0
TEXT
  8
1
 62
2
 10
604.8016853527839
 20
645.8096093199653
 30
0
 40
4
  1
ÆìïL NOTE
 41
0.9
  0
TEXT
  8
1
 62
2
 10
604.8016853527839
 20
638.8096093199653
 30
0
 40
4
  1
1 ë┬ò¤Æ´ìRèÝé╠Æ▓É«òöé­ô«é®éé╚éóé▒éãüD
 41
0.9
  0
TEXT
  8
1
 62
2
 10
612.5540877448351
 20
631.8663779139104
 30
0
 40
4
  1
The adjustable part of variable resistor should not be touched.
 41
0.54
  0
TEXT
  8
1
 62
2
 10
655.5961134996741
 20
753.2572908630543
 30
0
 40
3.5
  1
ë┬ò¤Æ´ìRèÝ
 41
0.675
 73
2
 11
655.5961134996741
 21
755.0072908630543
 31
0
  0
TEXT
  8
1
 62
2
 10
537.6730637455526
 20
705.9123501883876
 30
0
 40
4
  1
ôdÄqòöòi
 50
90
 41
0.9
 73
2
 11
535.6730637455526
 21
705.9123501883876
 31
0
  0
TEXT
  8
1
 62
2
 10
718.2728188527682
 20
797.9675953708565
 30
0
 40
3.5
  1
Holes
 41
0.72
 72
1
 73
2
 11
724.5728188527681
 21
799.7175953708565
 31
0
  0
TEXT
  8
1
 62
2
 10
537.4230637455526
 20
730.5242209094416
 30
0
 40
3.5
  1
Electronic Parts
 50
90
 41
0.6300000000000001
 72
1
 73
2
 11
535.6730637455526
 21
748.1642209094416
 31
0
  0
TEXT
  8
1
 62
2
 10
546.7662514229331
 20
752.5263048947312
 30
0
 40
3.200000000000001
  1
Shows Driver Model Code and Lot No.
 41
0.4500000000000001
 73
2
 11
546.7662514229331
 21
754.1263048947312
 31
0
  0
TEXT
  8
1
 62
2
 10
561.57406953471
 20
758.2234393660737
 30
0
 40
3.200000000000001
  1
âhâëâCâoî^Ä«üCékéÅéöü@éméÅüDé­ò\ÄªéÀéÚ
 41
0.675
 73
2
 11
561.57406953471
 21
759.8234393660737
 31
0
  0
TEXT
  8
1
 62
2
 10
718.5103657090859
 20
736.6468779746747
 30
0
 40
5
  1
A
 41
0.9
  7
COMPLEX
  0
TEXT
  8
1
 62
2
 10
718.5103657090859
 20
678.3620694483855
 30
0
 40
5
  1
B
 41
0.9
  7
COMPLEX
  0
TEXT
  8
1
 62
2
 10
741.8307885589071
 20
756.8075390377277
 30
0
 40
3.2
  1
POWER SUPPLY CABLE
 41
0.5850000000000001
 73
2
 11
741.8307885589071
 21
758.4075390377277
 31
0
  0
TEXT
  8
1
 62
2
 10
745.6297455763939
 20
761.8075390377277
 30
0
 40
3.2
  1
I/O CABLE
 41
0.5850000000000001
 73
2
 11
745.6297455763939
 21
763.4075390377277
 31
0
  0
TEXT
  8
1
 62
2
 10
472.140223107302
 20
671.156895458577
 30
0
 40
3.5
  1
ïLÄû
 41
0.72
 72
1
 73
2
 11
477.180223107302
 21
672.906895458577
 31
0
  0
TEXT
  8
1
 62
2
 10
461.052223107302
 20
667.656895458577
 30
0
 40
3.2
  1
éqédélé`éqéjér
 41
0.72
 72
1
 73
2
 11
477.180223107302
 21
669.256895458577
 31
0
  0
TEXT
  8
1
 62
2
 10
426.605223107302
 20
609.8318954585772
 30
0
 40
3.5
  1
9
 41
0.9
 72
1
 73
2
 11
428.180223107302
 21
611.5818954585772
 31
0
  0
TEXT
  8
1
 62
2
 10
437.180223107302
 20
609.8318954585772
 30
0
 40
3.5
  1
VH(12V)
 41
0.54
 73
2
 11
437.180223107302
 21
611.5818954585772
 31
0
  0
TEXT
  8
1
 62
2
 10
426.605223107302
 20
616.3318954585772
 30
0
 40
3.5
  1
8
 41
0.9
 72
1
 73
2
 11
428.180223107302
 21
618.0818954585772
 31
0
  0
TEXT
  8
1
 62
2
 10
437.180223107302
 20
616.3318954585772
 30
0
 40
3.5
  1
GND
 41
0.72
 73
2
 11
437.180223107302
 21
618.0818954585772
 31
0
  0
TEXT
  8
1
 62
2
 10
426.605223107302
 20
622.8318954585772
 30
0
 40
3.5
  1
7
 41
0.9
 72
1
 73
2
 11
428.180223107302
 21
624.5818954585772
 31
0
  0
TEXT
  8
1
 62
2
 10
437.180223107302
 20
622.8318954585768
 30
0
 40
3.5
  1
HU
 41
0.72
 73
2
 11
437.180223107302
 21
624.5818954585768
 31
0
  0
TEXT
  8
1
 62
2
 10
426.605223107302
 20
629.3318954585772
 30
0
 40
3.5
  1
6
 41
0.9
 72
1
 73
2
 11
428.180223107302
 21
631.0818954585772
 31
0
  0
TEXT
  8
1
 62
2
 10
437.180223107302
 20
629.3318954585768
 30
0
 40
3.5
  1
HV
 41
0.72
 73
2
 11
437.180223107302
 21
631.0818954585768
 31
0
  0
TEXT
  8
1
 62
2
 10
426.605223107302
 20
635.8318954585768
 30
0
 40
3.5
  1
5
 41
0.9
 72
1
 73
2
 11
428.180223107302
 21
637.5818954585768
 31
0
  0
TEXT
  8
1
 62
2
 10
437.180223107302
 20
635.8318954585768
 30
0
 40
3.5
  1
HW
 41
0.72
 73
2
 11
437.180223107302
 21
637.5818954585768
 31
0
  0
TEXT
  8
1
 62
2
 10
426.605223107302
 20
642.3318954585768
 30
0
 40
3.5
  1
4
 41
0.9
 72
1
 73
2
 11
428.180223107302
 21
644.0818954585768
 31
0
  0
TEXT
  8
1
 62
2
 10
437.180223107302
 20
642.3318954585768
 30
0
 40
3.5
  1
N.C
 41
0.72
 73
2
 11
437.180223107302
 21
644.0818954585768
 31
0
  0
TEXT
  8
1
 62
2
 10
426.605223107302
 20
648.8318954585768
 30
0
 40
3.5
  1
3
 41
0.9
 72
1
 73
2
 11
428.180223107302
 21
650.5818954585768
 31
0
  0
TEXT
  8
1
 62
2
 10
437.180223107302
 20
648.8318954585766
 30
0
 40
3.5
  1
MW
 41
0.72
 73
2
 11
437.180223107302
 21
650.5818954585766
 31
0
  0
TEXT
  8
1
 62
2
 10
424.1632657489229
 20
679.721910689104
 30
0
 40
2.2
  1
5
 41
0.9
 72
1
 73
2
 11
425.1532657489229
 21
680.821910689104
 31
0
  0
TEXT
  8
1
 62
2
 10
445.6413796794338
 20
604.3910090244965
 30
0
 40
3
  1
ébénémémédébésénéqü@élénécédékü@ébénécéd
 41
0.6300000000000001
 73
2
 11
445.6413796794338
 21
605.8910090244965
 31
0
  0
TEXT
  8
1
 62
2
 10
426.605223107302
 20
655.3318954585768
 30
0
 40
3.5
  1
2
 41
0.9
 72
1
 73
2
 11
428.180223107302
 21
657.0818954585768
 31
0
  0
TEXT
  8
1
 62
2
 10
426.605223107302
 20
661.8318954585768
 30
0
 40
3.5
  1
1
 41
0.9
 72
1
 73
2
 11
428.180223107302
 21
663.5818954585768
 31
0
  0
TEXT
  8
1
 62
2
 10
421.2682231073021
 20
669.4818954585768
 30
0
 40
3.2
  1
PINü@No.
 41
0.54
 72
1
 73
2
 11
428.180223107302
 21
671.0818954585768
 31
0
  0
TEXT
  8
1
 62
2
 10
439.572223107302
 20
667.656895458577
 30
0
 40
3.2
  1
NAME
 41
0.72
 72
1
 73
2
 11
444.180223107302
 21
669.256895458577
 31
0
  0
TEXT
  8
1
 62
2
 10
439.140223107302
 20
671.156895458577
 30
0
 40
3.5
  1
û╝Å╠
 41
0.72
 72
1
 73
2
 11
444.180223107302
 21
672.906895458577
 31
0
  0
TEXT
  8
1
 62
2
 10
431.7762992930418
 20
677.436985863136
 30
0
 40
3.5
  1
MOTOR CONNECTION GUIDE
 41
0.675
 73
2
 11
431.7762992930418
 21
679.186985863136
 31
0
  0
TEXT
  8
1
 62
2
 10
431.7762992930418
 20
682.093806323845
 30
0
 40
3.5
  1
âéü[â^âRâlâNâ^É┌æ▒ò\
 41
0.9
 73
2
 11
431.7762992930418
 21
683.843806323845
 31
0
  0
TEXT
  8
1
 62
2
 10
423.180223107302
 20
604.3910090244965
 30
0
 40
3
  1
âRâlâNâ^î^Ä«
 41
0.9
 73
2
 11
423.180223107302
 21
605.8910090244965
 31
0
  0
TEXT
  8
1
 62
2
 10
437.180223107302
 20
661.8318954585768
 30
0
 40
3.5
  1
MU
 41
0.72
 73
2
 11
437.180223107302
 21
663.5818954585768
 31
0
  0
TEXT
  8
1
 62
2
 10
437.180223107302
 20
655.3318954585766
 30
0
 40
3.5
  1
MV
 41
0.72
 73
2
 11
437.180223107302
 21
657.0818954585766
 31
0
  0
TEXT
  8
1
 62
2
 10
428.180223107302
 20
600.1066817315634
 30
0
 40
3.5
  1
âsâôâwâbâ_üFéhékü|éfü|éXéoü|éréRékéQü|édü@ü@ü@ü@ü@ô·û{ìqï%%côdÄqìHïã
 41
0.5580000000000001
  0
TEXT
  8
1
 62
2
 10
428.180223107302
 20
595.5566817315635
 30
0
 40
3.5
  1
éoéhémü@égédé`écédéqü@ü@ü@ü@ü@ü@ü@ü@ü@ü@ü@ü@ü@ü@ü@éié`édü@
 41
0.5580000000000001
  0
TEXT
  8
1
 62
2
 10
428.180223107302
 20
591.0066817315635
 30
0
 40
3.5
  1
ôKìçânâEâWâôâOüFéhékü|éfü|éXérü|éréRébéQü@ü@ü@ü@ü@ô·û{ìqï%%côdÄqìHïã
 41
0.5580000000000001
  0
TEXT
  8
1
 62
2
 10
428.180223107302
 20
586.4566817315636
 30
0
 40
3.5
  1
é`écé`éoéséhéméfü@égénétéréhéméfü@ü@ü@ü@ü@ü@ü@ü@ü@éié`éd
 41
0.5580000000000001
  0
TEXT
  8
1
 62
2
 10
428.180223107302
 20
581.9066817315636
 30
0
 40
3.5
  1
ôKìçâRâôâ^âNâgüFéhékü|éfü|ébéQü|érébü|éPéOéOéOéOü@ô·û{ìqï%%côdÄqìHïã
 41
0.5580000000000001
  0
TEXT
  8
1
 62
2
 10
428.180223107302
 20
577.3566817315636
 30
0
 40
3.5
  1
é`écé`éoéséhéméfü@ébénémésé`ébésü@ü@ü@ü@ü@ü@ü@ü@ü@éié`éd
 41
0.5580000000000001
  0
TEXT
  8
1
 62
2
 10
425.0302231073021
 20
723.7988873200493
 30
0
 40
3.5
  1
10
 41
0.9
 72
1
 73
2
 11
428.180223107302
 21
725.5488873200493
 31
0
  0
TEXT
  8
1
 62
2
 10
437.180223107302
 20
723.7988873200493
 30
0
 40
3.5
  1
RUN
 41
0.54
 73
2
 11
437.180223107302
 21
725.5488873200493
 31
0
  0
TEXT
  8
1
 62
2
 10
456.180223107302
 20
723.7988873200488
 30
0
 40
3.5
  1
ìòü@BLACK
 41
0.72
 73
2
 11
456.180223107302
 21
725.5488873200488
 31
0
  0
TEXT
  8
1
 62
2
 10
426.605223107302
 20
730.2988873200493
 30
0
 40
3.5
  1
9
 41
0.9
 72
1
 73
2
 11
428.180223107302
 21
732.0488873200493
 31
0
  0
TEXT
  8
1
 62
2
 10
437.180223107302
 20
730.2988873200493
 30
0
 40
3.5
  1
BRAKE
 41
0.54
 73
2
 11
437.180223107302
 21
732.0488873200493
 31
0
  0
TEXT
  8
1
 62
2
 10
456.180223107302
 20
730.2988873200488
 30
0
 40
3.5
  1
öÆü@WHITE
 41
0.72
 73
2
 11
456.180223107302
 21
732.0488873200488
 31
0
  0
TEXT
  8
1
 62
2
 10
426.605223107302
 20
736.7988873200493
 30
0
 40
3.5
  1
8
 41
0.9
 72
1
 73
2
 11
428.180223107302
 21
738.5488873200493
 31
0
  0
TEXT
  8
1
 62
2
 10
437.180223107302
 20
736.7988873200491
 30
0
 40
3.5
  1
F/R IN
 41
0.54
 73
2
 11
437.180223107302
 21
738.5488873200491
 31
0
  0
TEXT
  8
1
 62
2
 10
456.180223107302
 20
736.7988873200488
 30
0
 40
3.5
  1
èDü@GRAY
 41
0.72
 73
2
 11
456.180223107302
 21
738.5488873200488
 31
0
  0
TEXT
  8
1
 62
2
 10
426.605223107302
 20
743.2988873200493
 30
0
 40
3.5
  1
7
 41
0.9
 72
1
 73
2
 11
428.180223107302
 21
745.0488873200493
 31
0
  0
TEXT
  8
1
 62
2
 10
437.180223107302
 20
743.2988873200491
 30
0
 40
3.5
  1
GND
 41
0.54
 73
2
 11
437.180223107302
 21
745.0488873200491
 31
0
  0
TEXT
  8
1
 62
2
 10
456.180223107302
 20
743.2988873200488
 30
0
 40
3.5
  1
Äçü@PORPLE
 41
0.72
 73
2
 11
456.180223107302
 21
745.0488873200488
 31
0
  0
TEXT
  8
1
 62
2
 10
426.605223107302
 20
749.7988873200491
 30
0
 40
3.5
  1
6
 41
0.9
 72
1
 73
2
 11
428.180223107302
 21
751.5488873200491
 31
0
  0
TEXT
  8
1
 62
2
 10
437.180223107302
 20
749.7988873200491
 30
0
 40
3.5
  1
GND
 41
0.54
 73
2
 11
437.180223107302
 21
751.5488873200491
 31
0
  0
TEXT
  8
1
 62
2
 10
456.180223107302
 20
749.7988873200486
 30
0
 40
3.5
  1
É┬ü@BLUE
 41
0.72
 73
2
 11
456.180223107302
 21
751.5488873200486
 31
0
  0
TEXT
  8
1
 62
2
 10
426.605223107302
 20
756.2988873200491
 30
0
 40
3.5
  1
5
 41
0.9
 72
1
 73
2
 11
428.180223107302
 21
758.0488873200491
 31
0
  0
TEXT
  8
1
 62
2
 10
437.180223107302
 20
756.2988873200491
 30
0
 40
3.5
  1
VS
 41
0.54
 73
2
 11
437.180223107302
 21
758.0488873200491
 31
0
  0
TEXT
  8
1
 62
2
 10
456.180223107302
 20
756.2988873200486
 30
0
 40
3.5
  1
ù╬ü@GREEN
 41
0.72
 73
2
 11
456.180223107302
 21
758.0488873200486
 31
0
  0
TEXT
  8
1
 62
2
 10
426.605223107302
 20
762.7988873200491
 30
0
 40
3.5
  1
4
 41
0.9
 72
1
 73
2
 11
428.180223107302
 21
764.5488873200491
 31
0
  0
TEXT
  8
1
 62
2
 10
437.180223107302
 20
762.7988873200488
 30
0
 40
3.5
  1
VR
 41
0.54
 73
2
 11
437.180223107302
 21
764.5488873200488
 31
0
  0
TEXT
  8
1
 62
2
 10
456.180223107302
 20
762.7988873200486
 30
0
 40
3.5
  1
ë®ü@YELLOW
 41
0.72
 73
2
 11
456.180223107302
 21
764.5488873200486
 31
0
  0
TEXT
  8
1
 62
2
 10
426.605223107302
 20
769.2988873200491
 30
0
 40
3.5
  1
3
 41
0.9
 72
1
 73
2
 11
428.180223107302
 21
771.0488873200491
 31
0
  0
TEXT
  8
1
 62
2
 10
437.180223107302
 20
769.2988873200488
 30
0
 40
3.5
  1
ALARM OUT
 41
0.45
 73
2
 11
437.180223107302
 21
771.0488873200488
 31
0
  0
TEXT
  8
1
 62
2
 10
456.180223107302
 20
769.2988873200486
 30
0
 40
3.5
  1
×%%dü@ORANGE
 41
0.72
 73
2
 11
456.180223107302
 21
771.0488873200486
 31
0
  0
TEXT
  8
1
 62
2
 10
423.690223107302
 20
704.3103267210807
 30
0
 40
2.2
  1
4
 41
0.9
 72
1
 73
2
 11
424.680223107302
 21
705.4103267210808
 31
0
  0
TEXT
  8
1
 62
2
 10
423.690223107302
 20
713.0908065049147
 30
0
 40
2.2
  1
3
 41
0.9
 72
1
 73
2
 11
424.680223107302
 21
714.1908065049147
 31
0
  0
TEXT
  8
1
 62
2
 10
430.7862992930418
 20
800.1889025505762
 30
0
 40
2.2
  1
4
 41
0.9
 72
1
 73
2
 11
431.7762992930418
 21
801.2889025505763
 31
0
  0
TEXT
  8
1
 62
2
 10
424.1632657489229
 20
800.1889025505762
 30
0
 40
2.2
  1
3
 41
0.9
 72
1
 73
2
 11
425.1532657489229
 21
801.2889025505763
 31
0
  0
TEXT
  8
1
 62
2
 10
445.6413796794338
 20
718.3580008859688
 30
0
 40
3
  1
ébénémémédébésénéqü@élénécédékü@ébénécéd
 41
0.6300000000000001
 73
2
 11
445.6413796794338
 21
719.8580008859688
 31
0
  0
TEXT
  8
1
 62
2
 10
426.605223107302
 20
775.7988873200488
 30
0
 40
3.5
  1
2
 41
0.9
 72
1
 73
2
 11
428.180223107302
 21
777.5488873200488
 31
0
  0
TEXT
  8
1
 62
2
 10
426.605223107302
 20
782.2988873200488
 30
0
 40
3.5
  1
1
 41
0.9
 72
1
 73
2
 11
428.180223107302
 21
784.0488873200488
 31
0
  0
TEXT
  8
1
 62
2
 10
421.2682231073021
 20
789.948887320049
 30
0
 40
3.2
  1
PINü@No.
 41
0.54
 72
1
 73
2
 11
428.180223107302
 21
791.5488873200491
 31
0
  0
TEXT
  8
1
 62
2
 10
439.572223107302
 20
788.123887320049
 30
0
 40
3.2
  1
NAME
 41
0.72
 72
1
 73
2
 11
444.180223107302
 21
789.723887320049
 31
0
  0
TEXT
  8
1
 62
2
 10
439.140223107302
 20
791.6238873200489
 30
0
 40
3.5
  1
û╝Å╠
 41
0.72
 72
1
 73
2
 11
444.180223107302
 21
793.3738873200489
 31
0
  0
TEXT
  8
1
 62
2
 10
437.180223107302
 20
797.9039777246082
 30
0
 40
3.5
  1
I/O CONNECTION GUIDE
 41
0.675
 73
2
 11
437.180223107302
 21
799.6539777246082
 31
0
  0
TEXT
  8
1
 62
2
 10
437.180223107302
 20
802.5607981853173
 30
0
 40
3.5
  1
éhü^énü@âRâlâNâ^É┌æ▒ò\
 41
0.9
 73
2
 11
437.180223107302
 21
804.3107981853173
 31
0
  0
TEXT
  8
1
 62
2
 10
454.580223107302
 20
791.6238873200489
 30
0
 40
3.5
  1
âèü[âhÉ³ÉF
 41
0.72
 72
1
 73
2
 11
467.180223107302
 21
793.3738873200489
 31
0
  0
TEXT
  8
1
 62
2
 10
455.300223107302
 20
788.123887320049
 30
0
 40
3.2
  1
LEAD WIRE COLOR
 41
0.4949999999999999
 72
1
 73
2
 11
467.180223107302
 21
789.723887320049
 31
0
  0
TEXT
  8
1
 62
2
 10
484.052223107302
 20
788.123887320049
 30
0
 40
3.2
  1
LEAD WIRE
 41
0.4949999999999999
 72
1
 73
2
 11
491.180223107302
 21
789.723887320049
 31
0
  0
TEXT
  8
1
 62
2
 10
478.580223107302
 20
791.6238873200489
 30
0
 40
3.5
  1
âèü[âhÉ³ÄÝ
 41
0.72
 72
1
 73
2
 11
491.180223107302
 21
793.3738873200489
 31
0
  0
TEXT
  8
1
 62
2
 10
484.180223107302
 20
755.3988873200495
 30
0
 40
3
  1
UL3265
 41
0.6300000000000001
  0
TEXT
  8
1
 62
2
 10
484.180223107302
 20
751.1988873200495
 30
0
 40
3
  1
AWG28
 41
0.6300000000000001
  0
TEXT
  8
1
 62
2
 10
423.180223107302
 20
718.3580008859688
 30
0
 40
3
  1
âRâlâNâ^î^Ä«
 41
0.9
 73
2
 11
423.180223107302
 21
719.8580008859688
 31
0
  0
TEXT
  8
1
 62
2
 10
437.180223107302
 20
782.2988873200488
 30
0
 40
3.5
  1
HU OUT
 41
0.54
 73
2
 11
437.180223107302
 21
784.0488873200488
 31
0
  0
TEXT
  8
1
 62
2
 10
437.180223107302
 20
775.7988873200488
 30
0
 40
3.5
  1
HV OUT
 41
0.54
 73
2
 11
437.180223107302
 21
777.5488873200488
 31
0
  0
TEXT
  8
1
 62
2
 10
456.180223107302
 20
775.7988873200484
 30
0
 40
3.5
  1
ÉÈü@RED
 41
0.72
 73
2
 11
456.180223107302
 21
777.5488873200484
 31
0
  0
TEXT
  8
1
 62
2
 10
456.180223107302
 20
782.2988873200491
 30
0
 40
3.5
  1
Æâü@BROWM
 41
0.72
 73
2
 11
456.180223107302
 21
784.0488873200491
 31
0
  0
TEXT
  8
1
 62
2
 10
428.180223107302
 20
714.0736735930357
 30
0
 40
3.5
  1
âsâôâwâbâ_üFéhékü|érü|éPéOéoü|éréQékéQü|édéeü@ô·û{ìqï%%côdÄqìHïã
 41
0.5580000000000001
  0
TEXT
  8
1
 62
2
 10
428.180223107302
 20
709.5236735930357
 30
0
 40
3.5
  1
éoéhémü@égédé`écédéqü@ü@ü@ü@ü@ü@ü@ü@ü@ü@ü@ü@ü@éié`édü@
 41
0.5580000000000001
  0
TEXT
  8
1
 62
2
 10
428.180223107302
 20
704.9736735930358
 30
0
 40
3.5
  1
ânâEâWâôâOüFéhékü|érü|éPéOérü|éréQébéQü|érü@ü@ô·û{ìqï%%côdÄqìHïã
 41
0.5580000000000001
  0
TEXT
  8
1
 62
2
 10
428.180223107302
 20
700.4236735930358
 30
0
 40
3.5
  1
égénétéréhéméfü@ü@ü@ü@ü@ü@ü@ü@ü@ü@ü@ü@ü@ü@ü@ü@éié`éd
 41
0.5580000000000001
  0
TEXT
  8
1
 62
2
 10
428.180223107302
 20
695.8736735930359
 30
0
 40
3.5
  1
âRâôâ^âNâgüFéhékü|érü|ébéQü|érü|éPéOéOéOéOü@ü@ô·û{ìqï%%côdÄqìHïã
 41
0.5580000000000001
  0
TEXT
  8
1
 62
2
 10
428.180223107302
 20
691.3236735930359
 30
0
 40
3.5
  1
ébénémésé`ébésü@ü@ü@ü@ü@ü@ü@ü@ü@ü@ü@ü@ü@ü@ü@ü@éié`éd
 41
0.5580000000000001
  0
TEXT
  8
1
 62
2
 10
506.690223107302
 20
590.3433348596092
 30
0
 40
2.2
  1
2
 41
0.9
 72
1
 73
2
 11
507.680223107302
 21
591.4433348596092
 31
0
  0
TEXT
  8
1
 62
2
 10
506.690223107302
 20
599.1238146434432
 30
0
 40
2.2
  1
1
 41
0.9
 72
1
 73
2
 11
507.680223107302
 21
600.2238146434432
 31
0
  0
TEXT
  8
1
 62
2
 10
513.786299293042
 20
634.2219106891052
 30
0
 40
2.2
  1
2
 41
0.9
 72
1
 73
2
 11
514.776299293042
 21
635.3219106891053
 31
0
  0
TEXT
  8
1
 62
2
 10
507.1632657489231
 20
634.2219106891052
 30
0
 40
2.2
  1
1
 41
0.9
 72
1
 73
2
 11
508.1532657489231
 21
635.3219106891053
 31
0
  0
TEXT
  8
1
 62
2
 10
528.6413796794341
 20
604.3910090244972
 30
0
 40
3
  1
ébénémémédébésénéqü@élénécédékü@ébénécéd
 41
0.6300000000000001
 73
2
 11
528.6413796794341
 21
605.8910090244972
 31
0
  0
TEXT
  8
1
 62
2
 10
509.6052231073023
 20
609.8318954585781
 30
0
 40
3.5
  1
2
 41
0.9
 72
1
 73
2
 11
511.1802231073023
 21
611.5818954585781
 31
0
  0
TEXT
  8
1
 62
2
 10
509.6052231073023
 20
616.3318954585781
 30
0
 40
3.5
  1
1
 41
0.9
 72
1
 73
2
 11
511.1802231073023
 21
618.0818954585781
 31
0
  0
TEXT
  8
1
 62
2
 10
504.2682231073023
 20
623.981895458578
 30
0
 40
3.2
  1
PINü@No.
 41
0.54
 72
1
 73
2
 11
511.1802231073023
 21
625.5818954585781
 31
0
  0
TEXT
  8
1
 62
2
 10
522.5722231073023
 20
622.1568954585782
 30
0
 40
3.2
  1
NAME
 41
0.72
 72
1
 73
2
 11
527.1802231073023
 21
623.7568954585782
 31
0
  0
TEXT
  8
1
 62
2
 10
522.1402231073023
 20
625.656895458578
 30
0
 40
3.5
  1
û╝Å╠
 41
0.72
 72
1
 73
2
 11
527.1802231073023
 21
627.406895458578
 31
0
  0
TEXT
  8
1
 62
2
 10
520.1802231073023
 20
631.9369858631372
 30
0
 40
3.5
  1
POWER SUPPLY CONNECTION GUIDE
 41
0.5670000000000001
 73
2
 11
520.1802231073023
 21
633.6869858631372
 31
0
  0
TEXT
  8
1
 62
2
 10
520.1802231073023
 20
636.5938063238463
 30
0
 40
3.5
  1
ôdî╣âRâlâNâ^É┌æ▒ò\
 41
0.9
 73
2
 11
520.1802231073023
 21
638.3438063238463
 31
0
  0
TEXT
  8
1
 62
2
 10
537.5802231073022
 20
625.656895458578
 30
0
 40
3.5
  1
âèü[âhÉ³ÉF
 41
0.72
 72
1
 73
2
 11
550.1802231073023
 21
627.406895458578
 31
0
  0
TEXT
  8
1
 62
2
 10
538.3002231073023
 20
622.1568954585782
 30
0
 40
3.2
  1
LEAD WIRE COLOR
 41
0.4949999999999999
 72
1
 73
2
 11
550.1802231073023
 21
623.7568954585782
 31
0
  0
TEXT
  8
1
 62
2
 10
567.052223107302
 20
622.1568954585782
 30
0
 40
3.2
  1
LEAD WIRE
 41
0.4949999999999999
 72
1
 73
2
 11
574.180223107302
 21
623.7568954585782
 31
0
  0
TEXT
  8
1
 62
2
 10
561.580223107302
 20
625.656895458578
 30
0
 40
3.5
  1
âèü[âhÉ³ÄÝ
 41
0.72
 72
1
 73
2
 11
574.180223107302
 21
627.406895458578
 31
0
  0
TEXT
  8
1
 62
2
 10
567.1802231073023
 20
615.4318954585783
 30
0
 40
3
  1
UL1430
 41
0.6300000000000001
  0
TEXT
  8
1
 62
2
 10
567.1802231073023
 20
611.2318954585783
 30
0
 40
3
  1
AWG22
 41
0.6300000000000001
  0
TEXT
  8
1
 62
2
 10
506.180223107302
 20
604.3910090244972
 30
0
 40
3
  1
âRâlâNâ^î^Ä«
 41
0.9
 73
2
 11
506.180223107302
 21
605.8910090244972
 31
0
  0
TEXT
  8
1
 62
2
 10
520.1802231073023
 20
616.3318954585781
 30
0
 40
3.5
  1
VM
 41
0.72
 73
2
 11
520.1802231073023
 21
618.0818954585781
 31
0
  0
TEXT
  8
1
 62
2
 10
520.1802231073023
 20
609.831895458578
 30
0
 40
3.5
  1
P.GND
 41
0.6300000000000001
 73
2
 11
520.1802231073023
 21
611.581895458578
 31
0
  0
TEXT
  8
1
 62
2
 10
539.1802231073023
 20
609.8318954585775
 30
0
 40
3.5
  1
ìòü@BLACK
 41
0.72
 73
2
 11
539.1802231073023
 21
611.5818954585775
 31
0
  0
TEXT
  8
1
 62
2
 10
539.1802231073023
 20
616.3318954585783
 30
0
 40
3.5
  1
ÉÈü@RED
 41
0.72
 73
2
 11
539.1802231073023
 21
618.0818954585783
 31
0
  0
TEXT
  8
1
 62
2
 10
511.1802231073023
 20
600.1066817315641
 30
0
 40
3.5
  1
âsâôâwâbâ_üFéTéTéUéXü|éOéQé`éPü@ü@ü@ü@âéâîâbâNâX
 41
0.6300000000000001
  0
TEXT
  8
1
 62
2
 10
511.1802231073023
 20
595.5566817315641
 30
0
 40
3.5
  1
éoéhémü@égédé`écédéqü@ü@ü@ü@ü@ü@ü@ü@ü@élénékédéwü@
 41
0.6300000000000001
  0
TEXT
  8
1
 62
2
 10
511.1802231073023
 20
591.0066817315642
 30
0
 40
3.5
  1
ânâEâWâôâOüFéTéTéTéVü|éOéQéqü@ü@ü@ü@ü@âéâîâbâNâX
 41
0.6300000000000001
  0
TEXT
  8
1
 62
2
 10
511.1802231073023
 20
586.4566817315642
 30
0
 40
3.5
  1
égénétéréhéméfü@ü@ü@ü@ü@ü@ü@ü@ü@ü@ü@ü@élénékédéw
 41
0.6300000000000001
  0
TEXT
  8
1
 62
2
 10
511.1802231073023
 20
581.9066817315643
 30
0
 40
3.5
  1
âRâôâ^âNâgüFéTéTéTéUésü@ü@ü@ü@ü@ü@ü@ü@âéâîâbâNâX
 41
0.6300000000000001
  0
TEXT
  8
1
 62
2
 10
511.1802231073023
 20
577.3566817315643
 30
0
 40
3.5
  1
ébénémésé`ébésü@ü@ü@ü@ü@ü@ü@ü@ü@ü@ü@ü@élénékédéw
 41
0.6300000000000001
  0
TEXT
  8
1
 62
2
 10
731.334999682624
 20
771.8075390377277
 30
0
 40
3.2
  1
ACCESSORY
 41
0.72
 73
2
 11
731.334999682624
 21
773.4075390377277
 31
0
  0
TEXT
  8
1
 62
2
 10
725.1263201718949
 20
766.8075390377277
 30
0
 40
3.200000000000001
  1
PARTS NAME
 41
0.7199999999999998
 73
2
 11
725.1263201718949
 21
768.4075390377277
 31
0
  0
TEXT
  8
1
 62
2
 10
792.8649760002339
 20
766.6575390377277
 30
0
 40
3.5
  1
épüféséx
 41
0.6300000000000001
 73
2
 11
792.8649760002339
 21
768.4075390377277
 31
0
  0
TEXT
  8
1
 62
2
 10
791.5192355777519
 20
761.8075390377277
 30
0
 40
3.2
  1
éP
 41
0.72
 72
1
 73
2
 11
793.8232355777519
 21
763.4075390377277
 31
0
  0
TEXT
  8
1
 62
2
 10
781.0632355777519
 20
766.8075390377277
 30
0
 40
3.2
  1
Éöù╩
 41
0.9
 72
1
 73
2
 11
786.8232355777519
 21
768.4075390377277
 31
0
  0
TEXT
  8
1
 62
2
 10
719.8232355777519
 20
761.8075390377277
 30
0
 40
3.200000000000001
  1
éhü^énâPü[âuâï
 41
0.8999999999999998
 73
2
 11
719.8232355777519
 21
763.4075390377277
 31
0
  0
TEXT
  8
1
 62
2
 10
711.8232355777519
 20
766.8075390377277
 30
0
 40
3.200000000000001
  1
òiü@û╝
 41
0.8999999999999998
 73
2
 11
711.8232355777519
 21
768.4075390377277
 31
0
  0
TEXT
  8
1
 62
2
 10
709.9432355777519
 20
761.8075390377277
 30
0
 40
3.2
  1
é`
 41
0.9
 72
1
 73
2
 11
712.8232355777519
 21
763.4075390377277
 31
0
  0
TEXT
  8
1
 62
2
 10
711.8232355777519
 20
771.8075390377277
 30
0
 40
3.200000000000001
  1
òtü@æ«ü@òi
 41
0.8999999999999998
 73
2
 11
711.8232355777519
 21
773.4075390377277
 31
0
  0
TEXT
  8
1
 62
2
 10
719.8232355777519
 20
756.8075390377277
 30
0
 40
3.200000000000001
  1
ôdî╣âPü[âuâï
 41
0.8999999999999998
 73
2
 11
719.8232355777519
 21
758.4075390377277
 31
0
  0
TEXT
  8
1
 62
2
 10
709.9432355777519
 20
756.8075390377277
 30
0
 40
3.2
  1
éa
 41
0.9
 72
1
 73
2
 11
712.8232355777519
 21
758.4075390377277
 31
0
  0
TEXT
  8
1
 62
2
 10
791.5192355777519
 20
756.8075390377277
 30
0
 40
3.2
  1
éP
 41
0.72
 72
1
 73
2
 11
793.8232355777519
 21
758.4075390377277
 31
0
  0
TEXT
  8
1
 62
2
 10
632.034058846907
 20
709.1262770000361
 30
0
 40
3.2
  1
1
 41
0.9
 72
1
 73
2
 11
633.474058846907
 21
710.7262770000361
 31
0
  0
TEXT
  8
1
 62
2
 10
632.1185363151159
 20
735.2505937991988
 30
0
 40
3.2
  1
3
 41
0.9
 72
1
 73
2
 11
633.5585363151159
 21
736.8505937991988
 31
0
  0
TEXT
  8
1
 62
2
 10
632.47096855751
 20
776.3496302634723
 30
0
 40
3.2
  1
5
 41
0.9
 72
1
 73
2
 11
633.9109685575101
 21
777.9496302634723
 31
0
  0
TEXT
  8
1
 62
2
 10
799.3245138833789
 20
733.2692444045564
 30
0
 40
3.2
  1
4
 41
0.9
 72
1
 73
2
 11
800.764513883379
 21
734.8692444045564
 31
0
  0
TEXT
  8
1
 62
2
 10
799.2755989015299
 20
676.6142124677714
 30
0
 40
3.2
  1
2
 41
0.9
 72
1
 73
2
 11
800.7155989015299
 21
678.2142124677714
 31
0
  0
TEXT
  8
1
 62
2
 10
567.392059492747
 20
764.3080472380376
 30
0
 40
3.200000000000001
  1
╚░Ð╠┌░─ Name Plate
 41
0.675
 73
2
 11
567.392059492747
 21
765.9080472380376
 31
0
  0
DIMENSION
  8
1
  6
CONTINUOUS
 62
2
  2
*D0
  3
DMST_1
 10
784.3809160346942
 20
663.8395498561256
 30
0
 11
757.2239684429511
 21
668.2395498561256
 31
0
 12
0
 22
0
 32
0
 70
0
  1
290
 13
728.0678665249681
 23
656.8395498561255
 33
0
 14
784.380916034694
 24
658.8395498561255
 34
0
 53
0
  0
DIMENSION
  8
1
  6
CONTINUOUS
 62
2
  2
*D1
  3
DMST_2
 10
728.0678665249681
 20
663.8395498561255
 30
0
 11
723.4609330405111
 21
667.4395498561255
 31
0
 12
0
 22
0
 32
0
 70
0
  1
(10)
 13
718.0678665249681
 23
656.4395498561255
 33
0
 14
728.0678665249681
 24
656.8395498561255
 34
0
 53
0
  0
DIMENSION
  8
1
  6
CONTINUOUS
 62
2
  2
*D2
  3
DMST_1
 10
732.5460662080699
 20
725.2474538613366
 30
0
 11
758.788893626724
 21
729.6474538613365
 31
0
 12
0
 22
0
 32
0
 70
0
  1
300
 13
788.3921846077141
 23
719.5574538613364
 33
0
 14
732.5460662080701
 24
718.2474538613365
 34
0
 53
0
  0
DIMENSION
  8
1
  6
CONTINUOUS
 62
2
  2
*D3
  3
DMST_2
 10
732.5460662080703
 20
725.2474538613366
 30
0
 11
727.7752258978641
 21
728.8474538613366
 31
0
 12
0
 22
0
 32
0
 70
0
  1
(10)
 13
722.5460662080701
 23
718.0674538613364
 33
0
 14
732.5460662080701
 24
718.2474538613365
 34
0
 53
0
  0
DIMENSION
  8
1
  6
CONTINUOUS
 62
2
  2
*D5
  3
DMST_3
 10
539.3730637455529
 20
666.5904272696175
 30
0
 11
548.3222215212289
 21
670.1904272696175
 31
0
 12
0
 22
0
 32
0
 70
0
  1
15ê╚ë║
 13
524.3730637455528
 23
678.5904272696175
 33
0
 14
539.3730637455529
 24
678.5904272696175
 34
0
 53
0
  0
DIMENSION
  8
1
  6
CONTINUOUS
 62
2
  2
*D6
  3
DMST_3
 10
523.3730637455528
 20
666.5904272696175
 30
0
 11
516.0933923308539
 21
670.1904272696175
 31
0
 12
0
 22
0
 32
0
 70
0
  1
3ê╚ë║
 13
524.3730637455528
 23
678.5904272696175
 33
0
 14
523.3730637455528
 24
753.2704688911977
 34
0
 53
0
  0
DIMENSION
  8
1
  6
CONTINUOUS
 62
2
  2
*D7
  3
DMST_3
 10
617.962612685397
 20
747.7852751242407
 30
0
 11
608.962612685397
 21
751.3852751242407
 31
0
 12
0
 22
0
 32
0
 70
0
 13
621.962612685397
 23
744.0904002203081
 33
0
 14
617.962612685397
 24
730.3904688911973
 34
0
 53
0
  0
DIMENSION
  8
1
  6
CONTINUOUS
 62
2
  2
*D8
  3
DMST_3
 10
615.8626126853968
 20
735.1222710460187
 30
0
 11
608.962612685397
 21
738.7222710460187
 31
0
 12
0
 22
0
 32
0
 70
0
 13
617.962612685397
 23
730.3904688911973
 33
0
 14
615.862612685397
 24
730.3904688911973
 34
0
 53
0
  0
DIMENSION
  8
1
  6
CONTINUOUS
 62
2
  2
*D9
  3
DMST_3
 10
617.962612685397
 20
669.5904272696175
 30
0
 11
608.962612685397
 21
673.1904272696175
 31
0
 12
0
 22
0
 32
0
 70
0
 13
621.462612685397
 23
679.6904272696175
 33
0
 14
617.962612685397
 24
679.5904272696175
 34
0
 53
0
  0
DIMENSION
  8
1
  6
CONTINUOUS
 62
2
  2
*D10
  3
DMST_3
 10
612.9626126853979
 20
662.5904272696175
 30
0
 11
608.962612685397
 21
666.1904272696175
 31
0
 12
0
 22
0
 32
0
 70
0
 13
617.962612685397
 23
679.5904272696175
 33
0
 14
612.9626126853981
 24
692.3904272696176
 34
0
 53
0
  0
DIMENSION
  8
1
  6
CONTINUOUS
 62
2
  2
*D11
  3
DMST_3
 10
617.962612685397
 20
795.5904272696176
 30
0
 11
608.962612685397
 21
799.1904272696177
 31
0
 12
0
 22
0
 32
0
 70
0
 13
621.462612685397
 23
782.4904272696176
 33
0
 14
617.962612685397
 24
782.5904272696178
 34
0
 53
0
  0
DIMENSION
  8
1
  6
CONTINUOUS
 62
2
  2
*D12
  3
DMST_3
 10
614.1126126853968
 20
788.5904272696176
 30
0
 11
608.962612685397
 21
792.1904272696177
 31
0
 12
0
 22
0
 32
0
 70
0
  1
3.9
 13
617.962612685397
 23
782.5904272696178
 33
0
 14
614.112612685397
 24
775.0904688911974
 34
0
 53
0
  0
DIMENSION
  8
1
  6
CONTINUOUS
 62
2
  2
*D13
  3
DMST_3
 10
617.962612685397
 20
802.5904272696176
 30
0
 11
650.462612685397
 21
806.1904272696177
 31
0
 12
0
 22
0
 32
0
 70
0
 13
682.962612685397
 23
782.5904272696178
 33
0
 14
617.962612685397
 24
782.5904272696178
 34
0
 53
0
  0
DIMENSION
  8
1
  6
CONTINUOUS
 62
2
  2
*D14
  3
DMST_3
 10
621.462612685397
 20
795.5904272696176
 30
0
 11
650.462612685397
 21
799.1904272696177
 31
0
 12
0
 22
0
 32
0
 70
0
 13
679.462612685397
 23
782.4904272696176
 33
0
 14
621.462612685397
 24
782.4904272696176
 34
0
 53
0
  0
DIMENSION
  8
1
  6
CONTINUOUS
 62
2
  2
*D18
  3
DMST_4
 10
678.4545949618987
 20
778.6599027961769
 30
0
 11
705.5070260346989
 21
799.6170939362842
 31
0
 12
0
 22
0
 32
0
 70
3
  1
3.5
 15
680.4706304088952
 25
781.5209517430586
 35
0
 40
0
 53
0
  0
INSERT
  8
1
  2
*D4
 10
0
 20
0
 30
0
  0
INSERT
  8
1
  2
*D15
 10
0
 20
0
 30
0
  0
INSERT
  8
1
  2
*D16
 10
0
 20
0
 30
0
  0
INSERT
  8
1
  2
*D17
 10
0
 20
0
 30
0
  0
ENDSEC
  0
EOF
