  0
SECTION
  2
HEADER
  9
$ACADVER
  1
AC1009
  9
$INSBASE
 10
0
 20
0
  9
$EXTMIN
 10
259.6116296800551
 20
141.2233062306678
  9
$EXTMAX
 10
424.4418218899531
 20
240.285512834891
  9
$LIMMIN
 10
259.6116296800551
 20
141.2233062306678
  9
$LIMMAX
 10
424.4418218899531
 20
240.285512834891
  9
$VIEWCTR
 10
10
 20
10
  9
$VIEWSIZE
 40
10
  9
$SNAPMODE
 70
0
  9
$SNAPUNIT
 10
1
 20
1
  9
$SNAPBASE
 10
0
 20
0
  9
$SNAPANG
 50
0
  9
$SNAPSTYLE
 70
0
  9
$SNAPISOPAIR
 70
0
  9
$GRIDMODE
 70
0
  9
$GRIDUNIT
 10
0
 20
0
  9
$ORTHOMODE
 70
0
  9
$REGENMODE
 70
1
  9
$FILLMODE
 70
1
  9
$QTEXTMODE
 70
0
  9
$DRAGMODE
 70
2
  9
$LTSCALE
 40
1
  9
$OSMODE
 70
0
  9
$ATTMODE
 70
1
  9
$TEXTSIZE
 40
3.5
  9
$TRACEWID
 40
0.5
  9
$TEXTSTYLE
  7
STANDARD
  9
$CLAYER
  8
0
  9
$CELTYPE
  6
BYLAYER
  9
$CECOLOR
 62
256
  9
$DIMSCALE
 40
1
  9
$DIMASZ
 40
0.18
  9
$DIMEXO
 40
0.0625
  9
$DIMDLI
 40
0.38
  9
$DIMRND
 40
0
  9
$DIMDLE
 40
0
  9
$DIMEXE
 40
0.18
  9
$DIMTP
 40
0
  9
$DIMTM
 40
0
  9
$DIMTXT
 40
0.18
  9
$DIMCEN
 40
0.09
  9
$DIMTSZ
 40
0
  9
$DIMTOL
 70
0
  9
$DIMLIM
 70
0
  9
$DIMTIH
 70
1
  9
$DIMTOH
 70
1
  9
$DIMSE1
 70
0
  9
$DIMSE2
 70
0
  9
$DIMTAD
 70
0
  9
$DIMZIN
 70
0
  9
$DIMBLK
  1

  9
$DIMASO
 70
1
  9
$DIMSHO
 70
1
  9
$DIMPOST
  1

  9
$DIMAPOST
  1

  9
$DIMALT
 70
0
  9
$DIMALTD
 70
2
  9
$DIMALTF
 40
25.4
  9
$DIMLFAC
 40
1
  9
$DIMTOFL
 70
0
  9
$DIMTVP
 40
0
  9
$DIMTIX
 70
0
  9
$DIMSOXD
 70
0
  9
$DIMSAH
 70
0
  9
$DIMBLK1
  1

  9
$DIMBLK2
  1

  9
$DIMSTYLE
  2
*UNNAMED
  9
$DIMCLRD
 70
0
  9
$DIMCLRE
 70
0
  9
$DIMCLRT
 70
0
  9
$DIMTFAC
 40
1
  9
$DIMGAP
 40
0.09
  9
$LUNITS
 70
2
  9
$LUPREC
 70
4
  9
$AXISMODE
 70
0
  9
$AXISUNIT
 10
0
 20
0
  9
$SKETCHINC
 40
0.1
  9
$FILLETRAD
 40
2
  9
$AUNITS
 70
0
  9
$AUPREC
 70
0
  9
$MENU
  1
ACAD
  9
$ELEVATION
 40
0
  9
$THICKNESS
 40
0
  9
$VIEWDIR
 10
0
 20
0
 30
1
  9
$LIMCHECK
 70
0
  9
$BLIPMODE
 70
1
  9
$CHAMFERA
 40
0
  9
$CHAMFERB
 40
0
  9
$FASTZOOM
 70
1
  9
$SKPOLY
 70
0
  9
$ANGBASE
 50
0
  9
$ANGDIR
 70
0
  9
$PDMODE
 70
0
  9
$PDSIZE
 40
0
  9
$PLINEWID
 40
0
  9
$COORDS
 70
2
  0
ENDSEC
  0
SECTION
  2
TABLES
  0
TABLE
  2
DIMSTYLE
 70
1
  0
DIMSTYLE
  2
DMST_1
 70
0
  3

  4

  5

  6

  7

 40
1
 41
3.2
 42
1
 43
7
 44
1.5
 45
0
 46
0
 47
0
 48
0
140
3.2
141
0
142
0
143
25.4
144
1
145
0
146
1
147
0.09
 71
0
 72
0
 73
0
 74
0
 75
0
 76
0
 77
1
 78
9
170
0
171
2
172
0
173
0
174
0
175
0
176
2
177
2
178
2
  0
ENDTAB
  0
TABLE
  2
LTYPE
 70
9
  0
LTYPE
  2
CONTINUOUS
 70
64
  3
Solid line
 72
65
 73
0
 40
0
  0
LTYPE
  2
BORDER
 70
64
  3
__ __ . __ __ .
 72
65
 73
6
 40
7.590864114929513
 49
2.168818318551289
 49
-1.084409159275645
 49
2.168818318551289
 49
-1.084409159275645
 49
0
 49
-1.084409159275645
  0
LTYPE
  2
CENTER
 70
64
  3
____ _ ____ _
 72
65
 73
4
 40
8.675273274205157
 49
5.422045796378223
 49
-1.084409159275645
 49
1.084409159275645
 49
-1.084409159275645
  0
LTYPE
  2
DASHDOT
 70
64
  3
__ . __ . __ .
 72
65
 73
4
 40
4.337636637102579
 49
2.168818318551289
 49
-1.084409159275645
 49
0
 49
-1.084409159275645
  0
LTYPE
  2
DASHED
 70
64
  3
__ __ __ __ __
 72
65
 73
2
 40
3.253227477826934
 49
2.168818318551289
 49
-1.084409159275645
  0
LTYPE
  2
DIVIDE
 70
64
  3
__ . . __ . . 
 72
65
 73
6
 40
5.422045796378223
 49
2.168818318551289
 49
-1.084409159275645
 49
0
 49
-1.084409159275645
 49
0
 49
-1.084409159275645
  0
LTYPE
  2
DOT
 70
64
  3
..............
 72
65
 73
4
 40
2.168818318551289
 49
0
 49
-1.084409159275645
 49
0
 49
-1.084409159275645
  0
LTYPE
  2
HIDDEN
 70
64
  3
_ _ _ _ _ _ _
 72
65
 73
2
 40
1.626613738913467
 49
1.084409159275645
 49
-0.5422045796378223
  0
LTYPE
  2
PHANTOM
 70
64
  3
_____ _ _ _____ _ _ 
 72
65
 73
6
 40
10.84409159275645
 49
5.422045796378223
 49
-1.084409159275645
 49
1.084409159275645
 49
-1.084409159275645
 49
1.084409159275645
 49
-1.084409159275645
  0
ENDTAB
  0
TABLE
  2
LAYER
 70
3
  0
LAYER
  2
1
 70
0
 62
7
  6
CONTINUOUS
  0
LAYER
  2
0
 70
0
 62
7
  6
CONTINUOUS
  0
ENDTAB
  0
TABLE
  2
STYLE
 70
4
  0
STYLE
  2
STANDARD
 70
0
 40
0
 41
1
 50
0
 71
0
 42
3.5
  3
txt
  4

  0
STYLE
  2
SIMPLEX
 70
0
 40
0
 41
1
 50
0
 71
0
 42
3.5
  3
simplex
  4

  0
STYLE
  2
COMPLEX
 70
0
 40
0
 41
1
 50
0
 71
0
 42
3.5
  3
complex
  4

  0
STYLE
  2
ITALIC
 70
0
 40
0
 41
1
 50
0
 71
0
 42
3.5
  3
italic
  4

  0
ENDTAB
  0
TABLE
  2
VIEW
 70
0
  0
ENDTAB
  0
ENDSEC
  0
SECTION
  2
BLOCKS
  0
BLOCK
  8
1
  2
*D0
 70
1
 10
0
 20
0
 30
0
  0
LINE
  8
1
 62
2
 10
259.6116296800551
 20
173.968231112872
 30
0
 11
269.6116296800551
 21
173.968231112872
 31
0
  0
LINE
  8
1
 62
2
 10
269.6116296800551
 20
167.767496137072
 30
0
 11
269.6116296800551
 21
175.468231112872
 31
0
  0
LINE
  8
1
 62
2
 10
259.6116296800551
 20
167.567496137072
 30
0
 11
259.6116296800551
 21
175.468231112872
 31
0
  0
SOLID
  8
1
 62
2
 10
269.6116296800551
 20
173.968231112872
 30
0
 11
266.4116296800551
 21
173.552231112872
 31
0
 12
266.4116296800551
 22
174.384231112872
 32
0
 13
266.4116296800551
 23
174.384231112872
 33
0
  0
SOLID
  8
1
 62
2
 10
259.6116296800551
 20
173.968231112872
 30
0
 11
262.8116296800551
 21
174.384231112872
 31
0
 12
262.8116296800551
 22
173.552231112872
 32
0
 13
262.8116296800551
 23
173.552231112872
 33
0
  0
TEXT
  8
1
 62
2
 10
262.7063176049761
 20
175.968231112872
 30
0
 40
3.2
  1
10
 41
0.9
  0
ENDBLK
  8
0
  0
BLOCK
  8
1
  2
*D1
 70
1
 10
0
 20
0
 30
0
  0
LINE
  8
1
 62
2
 10
269.6116296800551
 20
173.968231112872
 30
0
 11
329.999521827821
 21
173.968231112872
 31
0
  0
LINE
  8
1
 62
2
 10
329.999521827821
 20
169.717496137072
 30
0
 11
329.999521827821
 21
175.468231112872
 31
0
  0
LINE
  8
1
 62
2
 10
269.6116296800551
 20
167.767496137072
 30
0
 11
269.6116296800551
 21
175.468231112872
 31
0
  0
SOLID
  8
1
 62
2
 10
269.6116296800551
 20
173.968231112872
 30
0
 11
272.811629680055
 21
174.384231112872
 31
0
 12
272.811629680055
 22
173.552231112872
 32
0
 13
272.811629680055
 23
173.552231112872
 33
0
  0
SOLID
  8
1
 62
2
 10
329.999521827821
 20
173.968231112872
 30
0
 11
326.799521827821
 21
173.552231112872
 31
0
 12
326.799521827821
 22
174.384231112872
 32
0
 13
326.799521827821
 23
174.384231112872
 33
0
  0
TEXT
  8
1
 62
2
 10
295.8081498287021
 20
175.968231112872
 30
0
 40
3.2
  1
L
 41
0.9
  0
ENDBLK
  8
0
  0
ENDSEC
  0
SECTION
  2
ENTITIES
  0
LINE
  8
1
 62
3
 10
289.850991999086
 20
156.767496137072
 30
0
 11
269.6116296800551
 21
156.767496137072
 31
0
  0
LINE
  8
1
 62
3
 10
288.9559103733903
 20
154.767496137072
 30
0
 11
269.6116296800551
 21
154.767496137072
 31
0
  0
LINE
  8
1
 62
3
 10
288.144417006285
 20
152.767496137072
 30
0
 11
269.6116296800551
 21
152.767496137072
 31
0
  0
LINE
  8
1
 62
3
 10
287.5981355878461
 20
150.767496137072
 30
0
 11
269.6116296800551
 21
150.767496137072
 31
0
  0
LINE
  8
1
 62
3
 10
287.4865772983903
 20
148.767496137072
 30
0
 11
269.6116296800551
 21
148.767496137072
 31
0
  0
LINE
  8
1
 62
3
 10
287.9687701206448
 20
146.7674961370719
 30
0
 11
269.6116296800551
 21
146.767496137072
 31
0
  0
LINE
  8
1
 62
3
 10
289.1946523610148
 20
144.767496137072
 30
0
 11
269.6116296800551
 21
144.767496137072
 31
0
  0
LINE
  8
1
 62
3
 10
291.678869044713
 20
143.767496137072
 30
0
 11
329.999521827821
 21
143.767496137072
 31
0
  0
LINE
  8
1
 62
3
 10
290.0274231253884
 20
145.767496137072
 30
0
 11
329.999521827821
 21
145.767496137072
 31
0
  0
LINE
  8
1
 62
3
 10
289.1916086656856
 20
147.767496137072
 30
0
 11
329.999521827821
 21
147.767496137072
 31
0
  0
LINE
  8
1
 62
3
 10
289.025571584937
 20
149.767496137072
 30
0
 11
329.999521827821
 21
149.767496137072
 31
0
  0
LINE
  8
1
 62
3
 10
289.3749899414354
 20
151.767496137072
 30
0
 11
329.999521827821
 21
151.767496137072
 31
0
  0
LINE
  8
1
 62
3
 10
290.075781982329
 20
153.767496137072
 30
0
 11
329.999521827821
 21
153.767496137072
 31
0
  0
LINE
  8
1
 62
3
 10
290.9526005927116
 20
155.767496137072
 30
0
 11
329.999521827821
 21
155.767496137072
 31
0
  0
LINE
  8
1
 62
3
 10
290.0926873100278
 20
164.767496137072
 30
0
 11
269.6116296800551
 21
164.767496137072
 31
0
  0
LINE
  8
1
 62
3
 10
290.9969828831491
 20
162.767496137072
 30
0
 11
269.6116296800551
 21
162.767496137072
 31
0
  0
LINE
  8
1
 62
3
 10
291.092998169293
 20
160.767496137072
 30
0
 11
269.6116296800551
 21
160.767496137072
 31
0
  0
LINE
  8
1
 62
3
 10
290.6340076167911
 20
158.767496137072
 30
0
 11
269.6116296800551
 21
158.767496137072
 31
0
  0
LINE
  8
1
 62
3
 10
291.8170670345671
 20
157.767496137072
 30
0
 11
329.999521827821
 21
157.767496137072
 31
0
  0
LINE
  8
1
 62
3
 10
292.465684299166
 20
159.767496137072
 30
0
 11
329.999521827821
 21
159.767496137072
 31
0
  0
LINE
  8
1
 62
3
 10
292.6773537867108
 20
161.767496137072
 30
0
 11
329.999521827821
 21
161.767496137072
 31
0
  0
LINE
  8
1
 62
3
 10
292.2103968375081
 20
163.767496137072
 30
0
 11
329.999521827821
 21
163.767496137072
 31
0
  0
LINE
  8
1
 62
3
 10
290.7989526493266
 20
165.767496137072
 30
0
 11
329.999521827821
 21
165.767496137072
 31
0
  0
LINE
  8
1
 62
3
 10
288.100568986177
 20
166.767496137072
 30
0
 11
269.6116296800551
 21
166.767496137072
 31
0
  0
LINE
  8
1
 62
3
 10
259.6116296800551
 20
143.967496137072
 30
0
 11
269.6116296800551
 21
143.967496137072
 31
0
  0
LINE
  8
1
 62
3
 10
259.6116296800551
 20
144.567496137072
 30
0
 11
259.6116296800551
 21
143.967496137072
 31
0
  0
LINE
  8
1
 62
3
 10
269.6116296800551
 20
144.567496137072
 30
0
 11
259.6116296800551
 21
144.567496137072
 31
0
  0
LINE
  8
1
 62
3
 10
269.6116296800551
 20
143.767496137072
 30
0
 11
290.131145931863
 21
143.767496137072
 31
0
  0
LINE
  8
1
 62
3
 10
269.6116296800551
 20
144.767496137072
 30
0
 11
269.6116296800551
 21
143.767496137072
 31
0
  0
LINE
  8
1
 62
3
 10
329.999521827821
 20
144.767496137072
 30
0
 11
290.7423754738647
 21
144.767496137072
 31
0
  0
LINE
  8
1
 62
3
 10
259.6116296800551
 20
145.967496137072
 30
0
 11
269.6116296800551
 21
145.967496137072
 31
0
  0
LINE
  8
1
 62
3
 10
259.6116296800551
 20
146.567496137072
 30
0
 11
259.6116296800551
 21
145.967496137072
 31
0
  0
LINE
  8
1
 62
3
 10
269.6116296800551
 20
146.567496137072
 30
0
 11
259.6116296800551
 21
146.567496137072
 31
0
  0
LINE
  8
1
 62
3
 10
269.6116296800551
 20
145.767496137072
 30
0
 11
288.4797000125384
 21
145.767496137072
 31
0
  0
LINE
  8
1
 62
3
 10
269.6116296800551
 20
146.767496137072
 30
0
 11
269.6116296800551
 21
145.767496137072
 31
0
  0
LINE
  8
1
 62
3
 10
329.999521827821
 20
146.767496137072
 30
0
 11
289.5164932334948
 21
146.767496137072
 31
0
  0
LINE
  8
1
 62
3
 10
259.6116296800551
 20
147.967496137072
 30
0
 11
269.6116296800551
 21
147.967496137072
 31
0
  0
LINE
  8
1
 62
3
 10
259.6116296800551
 20
148.567496137072
 30
0
 11
259.6116296800551
 21
147.967496137072
 31
0
  0
LINE
  8
1
 62
3
 10
269.6116296800551
 20
148.567496137072
 30
0
 11
259.6116296800551
 21
148.567496137072
 31
0
  0
LINE
  8
1
 62
3
 10
269.6116296800551
 20
147.767496137072
 30
0
 11
287.6438855528356
 21
147.767496137072
 31
0
  0
LINE
  8
1
 62
3
 10
269.6116296800551
 20
148.767496137072
 30
0
 11
269.6116296800551
 21
147.767496137072
 31
0
  0
LINE
  8
1
 62
3
 10
329.999521827821
 20
148.767496137072
 30
0
 11
289.0343004112404
 21
148.767496137072
 31
0
  0
LINE
  8
1
 62
3
 10
259.6116296800551
 20
149.967496137072
 30
0
 11
269.6116296800551
 21
149.967496137072
 31
0
  0
LINE
  8
1
 62
3
 10
259.6116296800551
 20
150.567496137072
 30
0
 11
259.6116296800551
 21
149.967496137072
 31
0
  0
LINE
  8
1
 62
3
 10
269.6116296800551
 20
150.567496137072
 30
0
 11
259.6116296800551
 21
150.567496137072
 31
0
  0
LINE
  8
1
 62
3
 10
269.6116296800551
 20
149.767496137072
 30
0
 11
287.477848472087
 21
149.767496137072
 31
0
  0
LINE
  8
1
 62
3
 10
269.6116296800551
 20
150.767496137072
 30
0
 11
269.6116296800551
 21
149.767496137072
 31
0
  0
LINE
  8
1
 62
3
 10
329.999521827821
 20
150.767496137072
 30
0
 11
289.1458587006961
 21
150.767496137072
 31
0
  0
LINE
  8
1
 62
3
 10
259.6116296800551
 20
151.967496137072
 30
0
 11
269.6116296800551
 21
151.967496137072
 31
0
  0
LINE
  8
1
 62
3
 10
259.6116296800551
 20
152.567496137072
 30
0
 11
259.6116296800551
 21
151.967496137072
 31
0
  0
LINE
  8
1
 62
3
 10
269.6116296800551
 20
152.567496137072
 30
0
 11
259.6116296800551
 21
152.567496137072
 31
0
  0
LINE
  8
1
 62
3
 10
269.6116296800551
 20
151.767496137072
 30
0
 11
287.8272668285854
 21
151.767496137072
 31
0
  0
LINE
  8
1
 62
3
 10
269.6116296800551
 20
152.767496137072
 30
0
 11
269.6116296800551
 21
151.767496137072
 31
0
  0
LINE
  8
1
 62
3
 10
329.999521827821
 20
152.767496137072
 30
0
 11
289.6921401191351
 21
152.767496137072
 31
0
  0
LINE
  8
1
 62
3
 10
259.6116296800551
 20
153.967496137072
 30
0
 11
269.6116296800551
 21
153.967496137072
 31
0
  0
LINE
  8
1
 62
3
 10
259.6116296800551
 20
154.567496137072
 30
0
 11
259.6116296800551
 21
153.967496137072
 31
0
  0
LINE
  8
1
 62
3
 10
269.6116296800551
 20
154.567496137072
 30
0
 11
259.6116296800551
 21
154.567496137072
 31
0
  0
LINE
  8
1
 62
3
 10
269.6116296800551
 20
153.767496137072
 30
0
 11
288.528058869479
 21
153.767496137072
 31
0
  0
LINE
  8
1
 62
3
 10
269.6116296800551
 20
154.767496137072
 30
0
 11
269.6116296800551
 21
153.767496137072
 31
0
  0
LINE
  8
1
 62
3
 10
329.999521827821
 20
154.767496137072
 30
0
 11
290.5036334862404
 21
154.767496137072
 31
0
  0
LINE
  8
1
 62
3
 10
259.6116296800551
 20
155.967496137072
 30
0
 11
269.6116296800551
 21
155.967496137072
 31
0
  0
LINE
  8
1
 62
3
 10
259.6116296800551
 20
156.567496137072
 30
0
 11
259.6116296800551
 21
155.967496137072
 31
0
  0
LINE
  8
1
 62
3
 10
269.6116296800551
 20
156.567496137072
 30
0
 11
259.6116296800551
 21
156.567496137072
 31
0
  0
LINE
  8
1
 62
3
 10
269.6116296800551
 20
155.767496137072
 30
0
 11
289.4048774798616
 21
155.767496137072
 31
0
  0
LINE
  8
1
 62
3
 10
269.6116296800551
 20
156.767496137072
 30
0
 11
269.6116296800551
 21
155.767496137072
 31
0
  0
LINE
  8
1
 62
3
 10
329.999521827821
 20
156.767496137072
 30
0
 11
291.398715111936
 21
156.767496137072
 31
0
  0
LINE
  8
1
 62
3
 10
259.6116296800551
 20
157.967496137072
 30
0
 11
269.6116296800551
 21
157.967496137072
 31
0
  0
LINE
  8
1
 62
3
 10
259.6116296800551
 20
158.567496137072
 30
0
 11
259.6116296800551
 21
157.967496137072
 31
0
  0
LINE
  8
1
 62
3
 10
269.6116296800551
 20
158.567496137072
 30
0
 11
259.6116296800551
 21
158.567496137072
 31
0
  0
LINE
  8
1
 62
3
 10
269.6116296800551
 20
157.767496137072
 30
0
 11
290.2693439217171
 21
157.767496137072
 31
0
  0
LINE
  8
1
 62
3
 10
269.6116296800551
 20
158.767496137072
 30
0
 11
269.6116296800551
 21
157.767496137072
 31
0
  0
LINE
  8
1
 62
3
 10
329.999521827821
 20
158.767496137072
 30
0
 11
292.1817307296411
 21
158.767496137072
 31
0
  0
LINE
  8
1
 62
3
 10
259.6116296800551
 20
159.967496137072
 30
0
 11
269.6116296800551
 21
159.967496137072
 31
0
  0
LINE
  8
1
 62
3
 10
259.6116296800551
 20
160.567496137072
 30
0
 11
259.6116296800551
 21
159.967496137072
 31
0
  0
LINE
  8
1
 62
3
 10
269.6116296800551
 20
160.567496137072
 30
0
 11
259.6116296800551
 21
160.567496137072
 31
0
  0
LINE
  8
1
 62
3
 10
269.6116296800551
 20
159.767496137072
 30
0
 11
290.917961186316
 21
159.7674961370719
 31
0
  0
LINE
  8
1
 62
3
 10
269.6116296800551
 20
160.767496137072
 30
0
 11
269.6116296800551
 21
159.767496137072
 31
0
  0
LINE
  8
1
 62
3
 10
329.999521827821
 20
160.767496137072
 30
0
 11
292.640721282143
 21
160.767496137072
 31
0
  0
LINE
  8
1
 62
3
 10
259.6116296800551
 20
161.967496137072
 30
0
 11
269.6116296800551
 21
161.967496137072
 31
0
  0
LINE
  8
1
 62
3
 10
259.6116296800551
 20
162.567496137072
 30
0
 11
259.6116296800551
 21
161.967496137072
 31
0
  0
LINE
  8
1
 62
3
 10
269.6116296800551
 20
162.567496137072
 30
0
 11
259.6116296800551
 21
162.567496137072
 31
0
  0
LINE
  8
1
 62
3
 10
269.6116296800551
 20
161.767496137072
 30
0
 11
291.1296306738608
 21
161.767496137072
 31
0
  0
LINE
  8
1
 62
3
 10
269.6116296800551
 20
162.767496137072
 30
0
 11
269.6116296800551
 21
161.767496137072
 31
0
  0
LINE
  8
1
 62
3
 10
329.999521827821
 20
162.767496137072
 30
0
 11
292.5447059959991
 21
162.767496137072
 31
0
  0
LINE
  8
1
 62
3
 10
259.6116296800551
 20
163.967496137072
 30
0
 11
269.6116296800551
 21
163.967496137072
 31
0
  0
LINE
  8
1
 62
3
 10
259.6116296800551
 20
164.567496137072
 30
0
 11
259.6116296800551
 21
163.967496137072
 31
0
  0
LINE
  8
1
 62
3
 10
269.6116296800551
 20
164.567496137072
 30
0
 11
259.6116296800551
 21
164.567496137072
 31
0
  0
LINE
  8
1
 62
3
 10
269.6116296800551
 20
163.767496137072
 30
0
 11
290.662673724658
 21
163.767496137072
 31
0
  0
LINE
  8
1
 62
3
 10
269.6116296800551
 20
164.767496137072
 30
0
 11
269.6116296800551
 21
163.767496137072
 31
0
  0
LINE
  8
1
 62
3
 10
329.999521827821
 20
164.767496137072
 30
0
 11
291.6404104228779
 21
164.767496137072
 31
0
  0
LINE
  8
1
 62
3
 10
259.6116296800551
 20
165.967496137072
 30
0
 11
269.6116296800551
 21
165.967496137072
 31
0
  0
LINE
  8
1
 62
3
 10
259.6116296800551
 20
166.567496137072
 30
0
 11
259.6116296800551
 21
165.967496137072
 31
0
  0
LINE
  8
1
 62
3
 10
269.6116296800551
 20
166.567496137072
 30
0
 11
259.6116296800551
 21
166.567496137072
 31
0
  0
LINE
  8
1
 62
3
 10
269.6116296800551
 20
165.767496137072
 30
0
 11
289.2512295364766
 21
165.767496137072
 31
0
  0
LINE
  8
1
 62
3
 10
269.6116296800551
 20
166.767496137072
 30
0
 11
269.6116296800551
 21
165.767496137072
 31
0
  0
LINE
  8
1
 62
3
 10
329.999521827821
 20
166.767496137072
 30
0
 11
289.648292099027
 21
166.767496137072
 31
0
  0
LINE
  8
1
 62
3
 10
339.814760760447
 20
155.267496137072
 30
0
 11
339.814760760447
 21
142.767496137072
 31
0
  0
LINE
  8
1
 62
3
 10
339.814760760447
 20
142.767496137072
 30
0
 11
341.014760760447
 21
142.767496137072
 31
0
  0
LINE
  8
1
 62
3
 10
341.014760760447
 20
142.767496137072
 30
0
 11
341.014760760447
 21
142.267496137072
 31
0
  0
LINE
  8
1
 62
3
 10
341.014760760447
 20
142.267496137072
 30
0
 11
342.714760760447
 21
142.267496137072
 31
0
  0
LINE
  8
1
 62
3
 10
339.814760760447
 20
167.767496137072
 30
0
 11
339.814760760447
 21
155.267496137072
 31
0
  0
LINE
  8
1
 62
3
 10
341.014760760447
 20
167.767496137072
 30
0
 11
339.814760760447
 21
167.767496137072
 31
0
  0
LINE
  8
1
 62
3
 10
341.014760760447
 20
168.267496137072
 30
0
 11
341.014760760447
 21
167.767496137072
 31
0
  0
LINE
  8
1
 62
3
 10
342.714760760447
 20
168.267496137072
 30
0
 11
341.014760760447
 21
168.267496137072
 31
0
  0
LINE
  8
1
 62
3
 10
329.999521827821
 20
168.717496137072
 30
0
 11
331.499521827821
 21
168.717496137072
 31
0
  0
LINE
  8
1
 62
3
 10
329.999521827821
 20
141.817496137072
 30
0
 11
329.999521827821
 21
168.717496137072
 31
0
  0
LINE
  8
1
 62
3
 10
331.499521827821
 20
141.817496137072
 30
0
 11
329.999521827821
 21
141.817496137072
 31
0
  0
LINE
  8
1
 62
3
 10
331.499521827821
 20
168.717496137072
 30
0
 11
331.499521827821
 21
141.817496137072
 31
0
  0
LINE
  8
1
 62
3
 10
335.699521827821
 20
168.267496137072
 30
0
 11
331.499521827821
 21
168.267496137072
 31
0
  0
LINE
  8
1
 62
3
 10
335.699521827821
 20
142.267496137072
 30
0
 11
331.499521827821
 21
142.267496137072
 31
0
  0
LINE
  8
1
 62
3
 10
335.699521827821
 20
168.267496137072
 30
0
 11
335.699521827821
 21
142.267496137072
 31
0
  0
LINE
  8
1
 62
3
 10
338.814760760447
 20
141.817496137072
 30
0
 11
338.814760760447
 21
168.717496137072
 31
0
  0
LINE
  8
1
 62
3
 10
342.714760760447
 20
141.817496137072
 30
0
 11
338.814760760447
 21
141.817496137072
 31
0
  0
LINE
  8
1
 62
3
 10
342.714760760447
 20
168.717496137072
 30
0
 11
342.714760760447
 21
141.817496137072
 31
0
  0
LINE
  8
1
 62
3
 10
338.814760760447
 20
168.717496137072
 30
0
 11
342.714760760447
 21
168.717496137072
 31
0
  0
LINE
  8
1
 62
2
 10
259.618500416632
 20
240.285512834891
 30
0
 11
343.362852849403
 21
240.285512834891
 31
0
  0
LINE
  8
1
 62
2
 10
343.362852849403
 20
240.285512834891
 30
0
 11
343.362852849403
 21
193.13690157295
 31
0
  0
LINE
  8
1
 62
2
 10
343.362852849403
 20
193.13690157295
 30
0
 11
259.618500416632
 21
193.13690157295
 31
0
  0
LINE
  8
1
 62
2
 10
259.618500416632
 20
193.13690157295
 30
0
 11
259.618500416632
 21
240.285512834891
 31
0
  0
LINE
  8
1
 62
2
 10
271.264967335728
 20
240.285512834891
 30
0
 11
271.264967335728
 21
193.13690157295
 31
0
  0
LINE
  8
1
 62
2
 10
315.523623620432
 20
240.285512834891
 30
0
 11
315.523623620432
 21
193.13690157295
 31
0
  0
LINE
  8
1
 62
2
 10
259.618500416632
 20
224.871071324323
 30
0
 11
343.362852849403
 21
224.871071324323
 31
0
  0
LINE
  8
1
 62
2
 10
259.618500416632
 20
214.293014740532
 30
0
 11
343.362852849403
 21
214.293014740532
 31
0
  0
LINE
  8
1
 62
2
 10
259.618500416632
 20
203.714958156741
 30
0
 11
343.362852849403
 21
203.714958156741
 31
0
  0
POLYLINE
  8
1
 62
2
 66
1
  0
VERTEX
  8
1
 10
289.648292099027
 20
166.767496137072
 30
0
 42
-0.05565618233355704
  0
VERTEX
  8
1
 10
291.3229155548642
 20
165.1866110098427
 30
0
 42
-0.07231683138301223
  0
VERTEX
  8
1
 10
292.2883262760263
 20
163.5841039238655
 30
0
 42
-0.07619959764188823
  0
VERTEX
  8
1
 10
292.6659170656984
 20
161.9604890495351
 30
0
 42
-0.06154512322569095
  0
VERTEX
  8
1
 10
292.5770807270651
 20
160.3162805572455
 30
0
 42
-0.03974019808809716
  0
VERTEX
  8
1
 10
292.1432100633112
 20
158.6519926173914
 30
0
 42
-0.02022962770383728
  0
VERTEX
  8
1
 10
291.4856978776217
 20
156.9681394003671
 30
0
 42
-0.004079470038470928
  0
VERTEX
  8
1
 10
290.7259369731811
 20
155.2652350765671
 30
0
 42
0.01072560692847667
  0
VERTEX
  8
1
 10
289.9853201531744
 20
153.5437938163857
 30
0
 42
0.02644201487444376
  0
VERTEX
  8
1
 10
289.3852402207864
 20
151.8043297902175
 30
0
 42
0.04437591302102866
  0
VERTEX
  8
1
 10
289.0470899792018
 20
150.0473571684566
 30
0
 42
0.06251685534505665
  0
VERTEX
  8
1
 10
289.0922622316053
 20
148.2733901214977
 30
0
 42
0.07295745510860094
  0
VERTEX
  8
1
 10
289.6421497811819
 20
146.4829428197351
 30
0
 42
0.0685912020044768
  0
VERTEX
  8
1
 10
290.8181454311164
 20
144.6765294335632
 30
0
  0
VERTEX
  8
1
 10
291.678869044713
 20
143.767496137072
 30
0
  0
SEQEND
  8
1
  0
POLYLINE
  8
1
 62
2
 66
1
  0
VERTEX
  8
1
 10
288.100568986177
 20
166.767496137072
 30
0
 42
-0.05565618233358691
  0
VERTEX
  8
1
 10
289.7751924420141
 20
165.1866110098427
 30
0
 42
-0.07231683138303356
  0
VERTEX
  8
1
 10
290.7406031631763
 20
163.5841039238655
 30
0
 42
-0.07619959764179447
  0
VERTEX
  8
1
 10
291.1181939528484
 20
161.9604890495351
 30
0
 42
-0.06154512322569095
  0
VERTEX
  8
1
 10
291.0293576142151
 20
160.3162805572455
 30
0
 42
-0.03974019808803194
  0
VERTEX
  8
1
 10
290.5954869504612
 20
158.6519926173914
 30
0
 42
-0.02022962770380696
  0
VERTEX
  8
1
 10
289.9379747647716
 20
156.9681394003671
 30
0
 42
-0.004079470038526903
  0
VERTEX
  8
1
 10
289.178213860331
 20
155.2652350765671
 30
0
 42
0.01072560692847667
  0
VERTEX
  8
1
 10
288.4375970403243
 20
153.5437938163857
 30
0
 42
0.02644201487441557
  0
VERTEX
  8
1
 10
287.8375171079364
 20
151.8043297902175
 30
0
 42
0.04437591302105875
  0
VERTEX
  8
1
 10
287.4993668663517
 20
150.0473571684566
 30
0
 42
0.06251685534508859
  0
VERTEX
  8
1
 10
287.5445391187552
 20
148.2733901214977
 30
0
 42
0.0729574551085385
  0
VERTEX
  8
1
 10
288.0944266683319
 20
146.4829428197351
 30
0
 42
0.0685912020044768
  0
VERTEX
  8
1
 10
289.2704223182664
 20
144.6765294335632
 30
0
  0
VERTEX
  8
1
 10
290.131145931863
 20
143.767496137072
 30
0
  0
SEQEND
  8
1
  0
TEXT
  8
1
 62
2
 10
273.4902709612479
 20
228.725726291216
 30
0
 40
4
  1
MODEL CODE
 41
0.7200000000000001
  0
TEXT
  8
1
 62
2
 10
261.843804042152
 20
228.725726291216
 30
0
 40
4
  1
P/N
 41
0.63
  0
TEXT
  8
1
 62
2
 10
346.1766757251661
 20
165.2422949106591
 30
0
 40
1.53284938020763
  1
1Pin
 50
90
 41
0.9
  0
TEXT
  8
1
 62
2
 10
346.4355556696847
 20
141.2233062306678
 30
0
 40
1.532849380207631
  1
12Pin
 50
90
 41
0.9
  0
TEXT
  8
1
 62
2
 10
261.661894085419
 20
234.0204296714
 30
0
 40
4
  1
品番
 41
0.9
  0
TEXT
  8
1
 62
2
 10
273.308361004515
 20
234.0204296714
 30
0
 40
4
  1
型式
 41
0.9
  0
TEXT
  8
1
 62
2
 10
322.113312679998
 20
234.0204296714
 30
0
 40
4
  1
L
 41
0.9
  0
TEXT
  8
1
 62
2
 10
322.683153374944
 20
220.13530305263
 30
0
 40
3.5
  1
   +20
 41
0.9
  0
TEXT
  8
1
 62
2
 10
322.683153374944
 20
217.68530305263
 30
0
 40
3.5
  1
300
 41
0.9
  0
TEXT
  8
1
 62
2
 10
322.683153374944
 20
215.23530305263
 30
0
 40
3.5
  1
    0
 41
0.9
  0
TEXT
  8
1
 62
2
 10
273.308361004515
 20
218.605988160832
 30
0
 40
4
  1
FYD-CNHL03
 41
0.9
  0
TEXT
  8
1
 62
2
 10
261.661894085419
 20
218.605988160832
 30
0
 40
4
  1
01
 41
0.9
  0
TEXT
  8
1
 62
2
 10
261.661894085419
 20
208.027931577041
 30
0
 40
4
  1
02
 41
0.9
  0
TEXT
  8
1
 62
2
 10
261.661894085419
 20
197.44987499325
 30
0
 40
4
  1
03
 41
0.9
  0
TEXT
  8
1
 62
2
 10
273.308361004515
 20
208.027931577041
 30
0
 40
4
  1
FYD-CNHL05
 41
0.9
  0
TEXT
  8
1
 62
2
 10
273.308361004515
 20
197.44987499325
 30
0
 40
4
  1
FYD-CNHL10
 41
0.9
  0
TEXT
  8
1
 62
2
 10
322.683153374944
 20
209.557246468839
 30
0
 40
3.5
  1
   +30
 41
0.9
  0
TEXT
  8
1
 62
2
 10
322.683153374944
 20
207.107246468839
 30
0
 40
3.5
  1
500
 41
0.9
  0
TEXT
  8
1
 62
2
 10
322.683153374944
 20
204.657246468839
 30
0
 40
3.5
  1
    0
 41
0.9
  0
TEXT
  8
1
 62
2
 10
319.533153374944
 20
198.979189885048
 30
0
 40
3.5
  1
    +50
 41
0.9
  0
TEXT
  8
1
 62
2
 10
319.533153374944
 20
196.529189885048
 30
0
 40
3.5
  1
1000
 41
0.9
  0
TEXT
  8
1
 62
2
 10
319.533153374944
 20
194.079189885048
 30
0
 40
3.5
  1
     0
 41
0.9
  0
TEXT
  8
1
 62
2
 10
356.3182107788419
 20
146.2503267869231
 30
0
 40
3.5
  1
ハウジング：５１０９０－１２００　　　　　　　モレックス
 41
0.6300000000000001
  0
TEXT
  8
1
 62
2
 10
356.3182107788419
 20
141.7003267869231
 30
0
 40
3.5
  1
ＨＯＵＳＩＮＧ　　　　　　　　　　　　　　　　ＭＯＬＥＸ
 41
0.6300000000000001
  0
DIMENSION
  8
1
  6
CONTINUOUS
 62
2
  2
*D0
  3
DMST_1
 10
269.6116296800551
 20
173.968231112872
 30
0
 11
264.6263176049761
 21
177.568231112872
 31
0
 12
0
 22
0
 32
0
 70
0
 13
259.6116296800551
 23
166.567496137072
 33
0
 14
269.6116296800551
 24
166.767496137072
 34
0
 53
0
  0
DIMENSION
  8
1
  6
CONTINUOUS
 62
2
  2
*D1
  3
DMST_1
 10
269.6116296800551
 20
173.968231112872
 30
0
 11
296.7681498287021
 21
177.568231112872
 31
0
 12
0
 22
0
 32
0
 70
0
  1
L
 13
329.999521827821
 23
168.717496137072
 33
0
 14
269.6116296800551
 24
166.767496137072
 34
0
 53
0
  0
ENDSEC
  0
EOF
