  0
SECTION
  2
HEADER
  9
$ACADVER
  1
AC1009
  9
$INSBASE
 10
0
 20
0
  9
$EXTMIN
 10
-5.238978580691757
 20
114.7467207177395
  9
$EXTMAX
 10
114.3520592607758
 20
226.270620304448
  9
$LIMMIN
 10
-5.238978580691757
 20
114.7467207177395
  9
$LIMMAX
 10
114.3520592607758
 20
226.270620304448
  9
$VIEWCTR
 10
10
 20
10
  9
$VIEWSIZE
 40
10
  9
$SNAPMODE
 70
0
  9
$SNAPUNIT
 10
1
 20
1
  9
$SNAPBASE
 10
0
 20
0
  9
$SNAPANG
 50
0
  9
$SNAPSTYLE
 70
0
  9
$SNAPISOPAIR
 70
0
  9
$GRIDMODE
 70
0
  9
$GRIDUNIT
 10
0
 20
0
  9
$ORTHOMODE
 70
0
  9
$REGENMODE
 70
1
  9
$FILLMODE
 70
1
  9
$QTEXTMODE
 70
0
  9
$DRAGMODE
 70
2
  9
$LTSCALE
 40
1
  9
$OSMODE
 70
0
  9
$ATTMODE
 70
1
  9
$TEXTSIZE
 40
3.5
  9
$TRACEWID
 40
0.5
  9
$TEXTSTYLE
  7
STANDARD
  9
$CLAYER
  8
0
  9
$CELTYPE
  6
BYLAYER
  9
$CECOLOR
 62
256
  9
$DIMSCALE
 40
1
  9
$DIMASZ
 40
0.18
  9
$DIMEXO
 40
0.0625
  9
$DIMDLI
 40
0.38
  9
$DIMRND
 40
0
  9
$DIMDLE
 40
0
  9
$DIMEXE
 40
0.18
  9
$DIMTP
 40
0
  9
$DIMTM
 40
0
  9
$DIMTXT
 40
0.18
  9
$DIMCEN
 40
0.09
  9
$DIMTSZ
 40
0
  9
$DIMTOL
 70
0
  9
$DIMLIM
 70
0
  9
$DIMTIH
 70
1
  9
$DIMTOH
 70
1
  9
$DIMSE1
 70
0
  9
$DIMSE2
 70
0
  9
$DIMTAD
 70
0
  9
$DIMZIN
 70
0
  9
$DIMBLK
  1

  9
$DIMASO
 70
1
  9
$DIMSHO
 70
1
  9
$DIMPOST
  1

  9
$DIMAPOST
  1

  9
$DIMALT
 70
0
  9
$DIMALTD
 70
2
  9
$DIMALTF
 40
25.4
  9
$DIMLFAC
 40
1
  9
$DIMTOFL
 70
0
  9
$DIMTVP
 40
0
  9
$DIMTIX
 70
0
  9
$DIMSOXD
 70
0
  9
$DIMSAH
 70
0
  9
$DIMBLK1
  1

  9
$DIMBLK2
  1

  9
$DIMSTYLE
  2
*UNNAMED
  9
$DIMCLRD
 70
0
  9
$DIMCLRE
 70
0
  9
$DIMCLRT
 70
0
  9
$DIMTFAC
 40
1
  9
$DIMGAP
 40
0.09
  9
$LUNITS
 70
2
  9
$LUPREC
 70
4
  9
$AXISMODE
 70
0
  9
$AXISUNIT
 10
0
 20
0
  9
$SKETCHINC
 40
0.1
  9
$FILLETRAD
 40
2
  9
$AUNITS
 70
0
  9
$AUPREC
 70
0
  9
$MENU
  1
ACAD
  9
$ELEVATION
 40
0
  9
$THICKNESS
 40
0
  9
$VIEWDIR
 10
0
 20
0
 30
1
  9
$LIMCHECK
 70
0
  9
$BLIPMODE
 70
1
  9
$CHAMFERA
 40
0
  9
$CHAMFERB
 40
0
  9
$FASTZOOM
 70
1
  9
$SKPOLY
 70
0
  9
$ANGBASE
 50
0
  9
$ANGDIR
 70
0
  9
$PDMODE
 70
0
  9
$PDSIZE
 40
0
  9
$PLINEWID
 40
0
  9
$COORDS
 70
2
  0
ENDSEC
  0
SECTION
  2
TABLES
  0
TABLE
  2
DIMSTYLE
 70
2
  0
DIMSTYLE
  2
DMST_1
 70
0
  3

  4

  5

  6

  7

 40
1
 41
3.2
 42
1
 43
7
 44
1.5
 45
0
 46
0
 47
0
 48
0
140
3.2
141
0
142
0
143
25.4
144
1
145
0
146
1
147
0.09
 71
0
 72
0
 73
1
 74
1
 75
0
 76
0
 77
1
 78
9
170
0
171
2
172
0
173
0
174
0
175
0
176
2
177
2
178
2
  0
DIMSTYLE
  2
DMST_2
 70
0
  3

  4

  5

  6

  7

 40
1
 41
3.2
 42
1
 43
7
 44
1.5
 45
0
 46
0
 47
3
 48
3
140
3.2
141
0
142
0
143
25.4
144
1
145
0
146
0.6
147
0.09
 71
1
 72
0
 73
1
 74
1
 75
0
 76
0
 77
1
 78
9
170
0
171
2
172
0
173
0
174
0
175
0
176
2
177
2
178
2
  0
ENDTAB
  0
TABLE
  2
LTYPE
 70
9
  0
LTYPE
  2
CONTINUOUS
 70
64
  3
Solid line
 72
65
 73
0
 40
0
  0
LTYPE
  2
BORDER
 70
64
  3
__ __ . __ __ .
 72
65
 73
6
 40
5.507482005857059
 49
1.573566287387731
 49
-0.7867831436938656
 49
1.573566287387731
 49
-0.7867831436938656
 49
0
 49
-0.7867831436938656
  0
LTYPE
  2
CENTER
 70
64
  3
____ _ ____ _
 72
65
 73
4
 40
6.294265149550925
 49
3.933915718469328
 49
-0.7867831436938656
 49
0.7867831436938656
 49
-0.7867831436938656
  0
LTYPE
  2
DASHDOT
 70
64
  3
__ . __ . __ .
 72
65
 73
4
 40
3.147132574775462
 49
1.573566287387731
 49
-0.7867831436938656
 49
0
 49
-0.7867831436938656
  0
LTYPE
  2
DASHED
 70
64
  3
__ __ __ __ __
 72
65
 73
2
 40
2.360349431081597
 49
1.573566287387731
 49
-0.7867831436938656
  0
LTYPE
  2
DIVIDE
 70
64
  3
__ . . __ . . 
 72
65
 73
6
 40
3.933915718469328
 49
1.573566287387731
 49
-0.7867831436938656
 49
0
 49
-0.7867831436938656
 49
0
 49
-0.7867831436938656
  0
LTYPE
  2
DOT
 70
64
  3
..............
 72
65
 73
4
 40
1.573566287387731
 49
0
 49
-0.7867831436938656
 49
0
 49
-0.7867831436938656
  0
LTYPE
  2
HIDDEN
 70
64
  3
_ _ _ _ _ _ _
 72
65
 73
2
 40
1.180174715540798
 49
0.7867831436938656
 49
-0.3933915718469328
  0
LTYPE
  2
PHANTOM
 70
64
  3
_____ _ _ _____ _ _ 
 72
65
 73
6
 40
7.867831436938656
 49
3.933915718469328
 49
-0.7867831436938656
 49
0.7867831436938656
 49
-0.7867831436938656
 49
0.7867831436938656
 49
-0.7867831436938656
  0
ENDTAB
  0
TABLE
  2
LAYER
 70
3
  0
LAYER
  2
1
 70
0
 62
7
  6
CONTINUOUS
  0
LAYER
  2
0
 70
0
 62
7
  6
CONTINUOUS
  0
ENDTAB
  0
TABLE
  2
STYLE
 70
4
  0
STYLE
  2
STANDARD
 70
0
 40
0
 41
1
 50
0
 71
0
 42
3.5
  3
txt
  4

  0
STYLE
  2
SIMPLEX
 70
0
 40
0
 41
1
 50
0
 71
0
 42
3.5
  3
simplex
  4

  0
STYLE
  2
COMPLEX
 70
0
 40
0
 41
1
 50
0
 71
0
 42
3.5
  3
complex
  4

  0
STYLE
  2
ITALIC
 70
0
 40
0
 41
1
 50
0
 71
0
 42
3.5
  3
italic
  4

  0
ENDTAB
  0
TABLE
  2
VIEW
 70
0
  0
ENDTAB
  0
ENDSEC
  0
SECTION
  2
BLOCKS
  0
BLOCK
  8
1
  2
*D0
 70
1
 10
0
 20
0
 30
0
  0
LINE
  8
1
 62
2
 10
4.761021419308246
 20
152.6759306906561
 30
0
 11
59.1136557535324
 21
152.6759306906561
 31
0
  0
LINE
  8
1
 62
2
 10
59.1136557535324
 20
143.059992216125
 30
0
 11
59.1136557535324
 21
154.1759306906561
 31
0
  0
LINE
  8
1
 62
2
 10
4.761021419308246
 20
141.749992216125
 30
0
 11
4.761021419308246
 21
154.1759306906561
 31
0
  0
SOLID
  8
1
 62
2
 10
59.1136557535324
 20
152.6759306906561
 30
0
 11
55.9136557535324
 21
152.2599306906561
 31
0
 12
55.9136557535324
 22
153.0919306906561
 32
0
 13
55.9136557535324
 23
153.0919306906561
 33
0
  0
SOLID
  8
1
 62
2
 10
4.761021419308246
 20
152.6759306906561
 30
0
 11
7.961021419308247
 21
153.0919306906561
 31
0
 12
7.961021419308247
 22
152.2599306906561
 32
0
 13
7.961021419308247
 23
152.2599306906561
 33
0
  0
TEXT
  8
1
 62
2
 10
33.93991598803201
 20
154.6759306906561
 30
0
 40
3.2
  1
L
 41
0.9
  0
ENDBLK
  8
0
  0
BLOCK
  8
1
  2
*D1
 70
1
 10
0
 20
0
 30
0
  0
LINE
  8
1
 62
2
 10
-5.238978580691757
 20
152.5544407226911
 30
0
 11
4.761021419308251
 21
152.5544407226911
 31
0
  0
LINE
  8
1
 62
2
 10
4.761021419308251
 20
141.749992216125
 30
0
 11
4.761021419308251
 21
154.0544407226911
 31
0
  0
LINE
  8
1
 62
2
 10
-5.238978580691757
 20
141.569992216125
 30
0
 11
-5.238978580691757
 21
154.0544407226911
 31
0
  0
SOLID
  8
1
 62
2
 10
4.761021419308251
 20
152.5544407226911
 30
0
 11
1.56102141930825
 21
152.1384407226911
 31
0
 12
1.56102141930825
 22
152.9704407226911
 32
0
 13
1.56102141930825
 23
152.9704407226911
 33
0
  0
SOLID
  8
1
 62
2
 10
-5.238978580691757
 20
152.5544407226911
 30
0
 11
-2.038978580691757
 21
152.9704407226911
 31
0
 12
-2.038978580691757
 22
152.1384407226911
 32
0
 13
-2.038978580691757
 23
152.1384407226911
 33
0
  0
TEXT
  8
1
 62
2
 10
-4.235512708545102
 20
154.5544407226911
 30
0
 40
3.2
  1
10
 41
0.9
  0
TEXT
  8
1
 62
2
 10
1.204487291454898
 20
155.1944407226911
 30
0
 40
1.92
  1
%%p3
 41
0.9
  0
ENDBLK
  8
0
  0
ENDSEC
  0
SECTION
  2
ENTITIES
  0
LINE
  8
1
 62
2
 10
-1.933831643247792
 20
189.700065626298
 30
0
 11
81.8105207895232
 21
189.700065626298
 31
0
  0
LINE
  8
1
 62
2
 10
-1.933831643247792
 20
200.278122210089
 30
0
 11
81.8105207895232
 21
200.278122210089
 31
0
  0
LINE
  8
1
 62
2
 10
-1.933831643247792
 20
210.85617879388
 30
0
 11
81.8105207895232
 21
210.85617879388
 31
0
  0
LINE
  8
1
 62
2
 10
53.97129156055218
 20
226.270620304448
 30
0
 11
53.97129156055218
 21
179.1220090425069
 31
0
  0
LINE
  8
1
 62
2
 10
9.712635275848193
 20
226.270620304448
 30
0
 11
9.712635275848193
 21
179.1220090425069
 31
0
  0
LINE
  8
1
 62
2
 10
-1.933831643247792
 20
179.1220090425069
 30
0
 11
-1.933831643247792
 21
226.270620304448
 31
0
  0
LINE
  8
1
 62
2
 10
81.8105207895232
 20
179.1220090425069
 30
0
 11
-1.933831643247792
 21
179.1220090425069
 31
0
  0
LINE
  8
1
 62
2
 10
81.8105207895232
 20
226.270620304448
 30
0
 11
81.8105207895232
 21
179.1220090425069
 31
0
  0
LINE
  8
1
 62
2
 10
-1.933831643247792
 20
226.270620304448
 30
0
 11
81.8105207895232
 21
226.270620304448
 31
0
  0
LINE
  8
1
 62
2
 10
75.91593896361135
 20
121.0099922161251
 30
0
 11
75.91593896361135
 21
123.0099922161251
 31
0
  0
LINE
  8
1
 62
2
 10
75.91593896361135
 20
123.509992216125
 30
0
 11
75.91593896361135
 21
125.0099922161251
 31
0
  0
LINE
  8
1
 62
2
 10
75.91593896361135
 20
125.509992216125
 30
0
 11
75.91593896361135
 21
127.0099922161251
 31
0
  0
LINE
  8
1
 62
2
 10
75.91593896361135
 20
135.5099922161251
 30
0
 11
75.91593896361135
 21
137.0099922161251
 31
0
  0
LINE
  8
1
 62
2
 10
75.91593896361135
 20
137.5099922161251
 30
0
 11
75.91593896361135
 21
139.0099922161251
 31
0
  0
LINE
  8
1
 62
2
 10
75.91593896361135
 20
139.5099922161251
 30
0
 11
75.91593896361135
 21
141.5099922161249
 31
0
  0
LINE
  8
1
 62
2
 10
73.0159389636114
 20
121.009992216125
 30
0
 11
75.91593896361135
 21
121.0099922161251
 31
0
  0
LINE
  8
1
 62
2
 10
72.21593896361135
 20
121.8099922161251
 30
0
 11
72.5159389636114
 21
121.8099922161251
 31
0
  0
LINE
  8
1
 62
3
 10
72.21593896361135
 20
140.709992216125
 30
0
 11
72.0159389636114
 21
140.709992216125
 31
0
  0
LINE
  8
1
 62
3
 10
73.0159389636114
 20
141.5099922161249
 30
0
 11
72.5159389636114
 21
141.5099922161249
 31
0
  0
LINE
  8
1
 62
6
 10
73.34093896361135
 20
140.009992216125
 30
0
 11
73.21593896361135
 21
139.884992216125
 31
0
  0
LINE
  8
1
 62
6
 10
73.84093896361135
 20
140.009992216125
 30
0
 11
73.96593896361135
 21
139.884992216125
 31
0
  0
LINE
  8
1
 62
6
 10
73.84093896361135
 20
140.509992216125
 30
0
 11
73.96593896361135
 21
140.634992216125
 31
0
  0
LINE
  8
1
 62
6
 10
73.21593896361135
 20
140.634992216125
 30
0
 11
73.34093896361135
 21
140.509992216125
 31
0
  0
LINE
  8
1
 62
6
 10
73.34093896361135
 20
140.009992216125
 30
0
 11
73.34093896361135
 21
140.509992216125
 31
0
  0
LINE
  8
1
 62
6
 10
73.84093896361135
 20
140.009992216125
 30
0
 11
73.34093896361135
 21
140.009992216125
 31
0
  0
LINE
  8
1
 62
6
 10
73.84093896361135
 20
140.509992216125
 30
0
 11
73.84093896361135
 21
140.009992216125
 31
0
  0
LINE
  8
1
 62
6
 10
73.34093896361135
 20
140.509992216125
 30
0
 11
73.84093896361135
 21
140.509992216125
 31
0
  0
LINE
  8
1
 62
6
 10
73.21593896361135
 20
139.884992216125
 30
0
 11
73.21593896361135
 21
140.634992216125
 31
0
  0
LINE
  8
1
 62
6
 10
73.96593896361135
 20
139.884992216125
 30
0
 11
73.21593896361135
 21
139.884992216125
 31
0
  0
LINE
  8
1
 62
6
 10
73.96593896361135
 20
140.634992216125
 30
0
 11
73.96593896361135
 21
139.884992216125
 31
0
  0
LINE
  8
1
 62
6
 10
73.21593896361135
 20
140.634992216125
 30
0
 11
73.96593896361135
 21
140.634992216125
 31
0
  0
LINE
  8
1
 62
6
 10
73.34093896361135
 20
138.009992216125
 30
0
 11
73.21593896361135
 21
137.884992216125
 31
0
  0
LINE
  8
1
 62
6
 10
73.84093896361135
 20
138.009992216125
 30
0
 11
73.96593896361135
 21
137.884992216125
 31
0
  0
LINE
  8
1
 62
6
 10
73.84093896361135
 20
138.509992216125
 30
0
 11
73.96593896361135
 21
138.634992216125
 31
0
  0
LINE
  8
1
 62
6
 10
73.21593896361135
 20
138.634992216125
 30
0
 11
73.34093896361135
 21
138.509992216125
 31
0
  0
LINE
  8
1
 62
6
 10
73.34093896361135
 20
138.009992216125
 30
0
 11
73.34093896361135
 21
138.509992216125
 31
0
  0
LINE
  8
1
 62
6
 10
73.84093896361135
 20
138.009992216125
 30
0
 11
73.34093896361135
 21
138.009992216125
 31
0
  0
LINE
  8
1
 62
6
 10
73.84093896361135
 20
138.509992216125
 30
0
 11
73.84093896361135
 21
138.009992216125
 31
0
  0
LINE
  8
1
 62
6
 10
73.34093896361135
 20
138.509992216125
 30
0
 11
73.84093896361135
 21
138.509992216125
 31
0
  0
LINE
  8
1
 62
6
 10
73.21593896361135
 20
137.884992216125
 30
0
 11
73.21593896361135
 21
138.634992216125
 31
0
  0
LINE
  8
1
 62
6
 10
73.96593896361135
 20
137.884992216125
 30
0
 11
73.21593896361135
 21
137.884992216125
 31
0
  0
LINE
  8
1
 62
6
 10
73.96593896361135
 20
138.634992216125
 30
0
 11
73.96593896361135
 21
137.884992216125
 31
0
  0
LINE
  8
1
 62
6
 10
73.21593896361135
 20
138.634992216125
 30
0
 11
73.96593896361135
 21
138.634992216125
 31
0
  0
LINE
  8
1
 62
6
 10
73.34093896361135
 20
136.009992216125
 30
0
 11
73.21593896361135
 21
135.884992216125
 31
0
  0
LINE
  8
1
 62
6
 10
73.84093896361135
 20
136.009992216125
 30
0
 11
73.96593896361135
 21
135.884992216125
 31
0
  0
LINE
  8
1
 62
6
 10
73.84093896361135
 20
136.509992216125
 30
0
 11
73.96593896361135
 21
136.634992216125
 31
0
  0
LINE
  8
1
 62
6
 10
73.21593896361135
 20
136.634992216125
 30
0
 11
73.34093896361135
 21
136.509992216125
 31
0
  0
LINE
  8
1
 62
6
 10
73.34093896361135
 20
136.009992216125
 30
0
 11
73.34093896361135
 21
136.509992216125
 31
0
  0
LINE
  8
1
 62
6
 10
73.84093896361135
 20
136.009992216125
 30
0
 11
73.34093896361135
 21
136.009992216125
 31
0
  0
LINE
  8
1
 62
6
 10
73.84093896361135
 20
136.509992216125
 30
0
 11
73.84093896361135
 21
136.009992216125
 31
0
  0
LINE
  8
1
 62
6
 10
73.34093896361135
 20
136.509992216125
 30
0
 11
73.84093896361135
 21
136.509992216125
 31
0
  0
LINE
  8
1
 62
6
 10
73.21593896361135
 20
135.884992216125
 30
0
 11
73.21593896361135
 21
136.634992216125
 31
0
  0
LINE
  8
1
 62
6
 10
73.96593896361135
 20
135.884992216125
 30
0
 11
73.21593896361135
 21
135.884992216125
 31
0
  0
LINE
  8
1
 62
6
 10
73.96593896361135
 20
136.634992216125
 30
0
 11
73.96593896361135
 21
135.884992216125
 31
0
  0
LINE
  8
1
 62
6
 10
73.21593896361135
 20
136.634992216125
 30
0
 11
73.96593896361135
 21
136.634992216125
 31
0
  0
LINE
  8
1
 62
6
 10
73.34093896361135
 20
134.009992216125
 30
0
 11
73.21593896361135
 21
133.884992216125
 31
0
  0
LINE
  8
1
 62
6
 10
73.84093896361135
 20
134.009992216125
 30
0
 11
73.96593896361135
 21
133.884992216125
 31
0
  0
LINE
  8
1
 62
6
 10
73.84093896361135
 20
134.509992216125
 30
0
 11
73.96593896361135
 21
134.634992216125
 31
0
  0
LINE
  8
1
 62
6
 10
73.21593896361135
 20
134.634992216125
 30
0
 11
73.34093896361135
 21
134.509992216125
 31
0
  0
LINE
  8
1
 62
6
 10
73.34093896361135
 20
134.009992216125
 30
0
 11
73.34093896361135
 21
134.509992216125
 31
0
  0
LINE
  8
1
 62
6
 10
73.84093896361135
 20
134.009992216125
 30
0
 11
73.34093896361135
 21
134.009992216125
 31
0
  0
LINE
  8
1
 62
6
 10
73.84093896361135
 20
134.509992216125
 30
0
 11
73.84093896361135
 21
134.009992216125
 31
0
  0
LINE
  8
1
 62
6
 10
73.34093896361135
 20
134.509992216125
 30
0
 11
73.84093896361135
 21
134.509992216125
 31
0
  0
LINE
  8
1
 62
6
 10
73.21593896361135
 20
133.884992216125
 30
0
 11
73.21593896361135
 21
134.634992216125
 31
0
  0
LINE
  8
1
 62
6
 10
73.96593896361135
 20
133.884992216125
 30
0
 11
73.21593896361135
 21
133.884992216125
 31
0
  0
LINE
  8
1
 62
6
 10
73.96593896361135
 20
134.634992216125
 30
0
 11
73.96593896361135
 21
133.884992216125
 31
0
  0
LINE
  8
1
 62
6
 10
73.21593896361135
 20
134.634992216125
 30
0
 11
73.96593896361135
 21
134.634992216125
 31
0
  0
LINE
  8
1
 62
6
 10
73.34093896361135
 20
126.009992216125
 30
0
 11
73.21593896361135
 21
125.884992216125
 31
0
  0
LINE
  8
1
 62
6
 10
73.84093896361135
 20
126.009992216125
 30
0
 11
73.96593896361135
 21
125.884992216125
 31
0
  0
LINE
  8
1
 62
6
 10
73.84093896361135
 20
126.509992216125
 30
0
 11
73.96593896361135
 21
126.634992216125
 31
0
  0
LINE
  8
1
 62
6
 10
73.21593896361135
 20
126.634992216125
 30
0
 11
73.34093896361135
 21
126.509992216125
 31
0
  0
LINE
  8
1
 62
6
 10
73.34093896361135
 20
126.009992216125
 30
0
 11
73.34093896361135
 21
126.509992216125
 31
0
  0
LINE
  8
1
 62
6
 10
73.84093896361135
 20
126.009992216125
 30
0
 11
73.34093896361135
 21
126.009992216125
 31
0
  0
LINE
  8
1
 62
6
 10
73.84093896361135
 20
126.509992216125
 30
0
 11
73.84093896361135
 21
126.009992216125
 31
0
  0
LINE
  8
1
 62
6
 10
73.34093896361135
 20
126.509992216125
 30
0
 11
73.84093896361135
 21
126.509992216125
 31
0
  0
LINE
  8
1
 62
6
 10
73.21593896361135
 20
125.884992216125
 30
0
 11
73.21593896361135
 21
126.634992216125
 31
0
  0
LINE
  8
1
 62
6
 10
73.96593896361135
 20
125.884992216125
 30
0
 11
73.21593896361135
 21
125.884992216125
 31
0
  0
LINE
  8
1
 62
6
 10
73.96593896361135
 20
126.634992216125
 30
0
 11
73.96593896361135
 21
125.884992216125
 31
0
  0
LINE
  8
1
 62
6
 10
73.21593896361135
 20
126.634992216125
 30
0
 11
73.96593896361135
 21
126.634992216125
 31
0
  0
LINE
  8
1
 62
6
 10
73.34093896361135
 20
124.009992216125
 30
0
 11
73.21593896361135
 21
123.884992216125
 31
0
  0
LINE
  8
1
 62
6
 10
73.84093896361135
 20
124.009992216125
 30
0
 11
73.96593896361135
 21
123.884992216125
 31
0
  0
LINE
  8
1
 62
6
 10
73.84093896361135
 20
124.509992216125
 30
0
 11
73.96593896361135
 21
124.634992216125
 31
0
  0
LINE
  8
1
 62
6
 10
73.21593896361135
 20
124.634992216125
 30
0
 11
73.34093896361135
 21
124.509992216125
 31
0
  0
LINE
  8
1
 62
6
 10
73.34093896361135
 20
124.009992216125
 30
0
 11
73.34093896361135
 21
124.509992216125
 31
0
  0
LINE
  8
1
 62
6
 10
73.84093896361135
 20
124.009992216125
 30
0
 11
73.34093896361135
 21
124.009992216125
 31
0
  0
LINE
  8
1
 62
6
 10
73.84093896361135
 20
124.509992216125
 30
0
 11
73.84093896361135
 21
124.009992216125
 31
0
  0
LINE
  8
1
 62
6
 10
73.34093896361135
 20
124.509992216125
 30
0
 11
73.84093896361135
 21
124.509992216125
 31
0
  0
LINE
  8
1
 62
6
 10
73.21593896361135
 20
123.884992216125
 30
0
 11
73.21593896361135
 21
124.634992216125
 31
0
  0
LINE
  8
1
 62
6
 10
73.96593896361135
 20
123.884992216125
 30
0
 11
73.21593896361135
 21
123.884992216125
 31
0
  0
LINE
  8
1
 62
6
 10
73.96593896361135
 20
124.634992216125
 30
0
 11
73.96593896361135
 21
123.884992216125
 31
0
  0
LINE
  8
1
 62
6
 10
73.21593896361135
 20
124.634992216125
 30
0
 11
73.96593896361135
 21
124.634992216125
 31
0
  0
LINE
  8
1
 62
6
 10
73.34093896361135
 20
122.009992216125
 30
0
 11
73.21593896361135
 21
121.884992216125
 31
0
  0
LINE
  8
1
 62
6
 10
73.84093896361135
 20
122.009992216125
 30
0
 11
73.96593896361135
 21
121.884992216125
 31
0
  0
LINE
  8
1
 62
6
 10
73.84093896361135
 20
122.509992216125
 30
0
 11
73.96593896361135
 21
122.634992216125
 31
0
  0
LINE
  8
1
 62
6
 10
73.21593896361135
 20
122.634992216125
 30
0
 11
73.34093896361135
 21
122.509992216125
 31
0
  0
LINE
  8
1
 62
6
 10
73.34093896361135
 20
122.009992216125
 30
0
 11
73.34093896361135
 21
122.509992216125
 31
0
  0
LINE
  8
1
 62
6
 10
73.84093896361135
 20
122.009992216125
 30
0
 11
73.34093896361135
 21
122.009992216125
 31
0
  0
LINE
  8
1
 62
6
 10
73.84093896361135
 20
122.509992216125
 30
0
 11
73.84093896361135
 21
122.009992216125
 31
0
  0
LINE
  8
1
 62
6
 10
73.34093896361135
 20
122.509992216125
 30
0
 11
73.84093896361135
 21
122.509992216125
 31
0
  0
LINE
  8
1
 62
6
 10
73.21593896361135
 20
121.884992216125
 30
0
 11
73.21593896361135
 21
122.634992216125
 31
0
  0
LINE
  8
1
 62
6
 10
73.96593896361135
 20
121.884992216125
 30
0
 11
73.21593896361135
 21
121.884992216125
 31
0
  0
LINE
  8
1
 62
6
 10
73.96593896361135
 20
122.634992216125
 30
0
 11
73.96593896361135
 21
121.884992216125
 31
0
  0
LINE
  8
1
 62
6
 10
73.21593896361135
 20
122.634992216125
 30
0
 11
73.96593896361135
 21
122.634992216125
 31
0
  0
LINE
  8
1
 62
2
 10
75.91593896361135
 20
123.0099922161251
 30
0
 11
75.51593896361125
 21
123.0099922161251
 31
0
  0
LINE
  8
1
 62
2
 10
75.51593896361125
 20
123.0099922161251
 30
0
 11
75.51593896361125
 21
123.509992216125
 31
0
  0
LINE
  8
1
 62
2
 10
75.51593896361125
 20
123.509992216125
 30
0
 11
75.91593896361135
 21
123.509992216125
 31
0
  0
LINE
  8
1
 62
2
 10
75.91593896361135
 20
125.0099922161251
 30
0
 11
75.51593896361125
 21
125.0099922161251
 31
0
  0
LINE
  8
1
 62
2
 10
75.51593896361125
 20
125.0099922161251
 30
0
 11
75.51593896361125
 21
125.509992216125
 31
0
  0
LINE
  8
1
 62
2
 10
75.51593896361125
 20
125.509992216125
 30
0
 11
75.91593896361135
 21
125.509992216125
 31
0
  0
LINE
  8
1
 62
2
 10
75.91593896361135
 20
127.0099922161251
 30
0
 11
75.51593896361125
 21
127.0099922161251
 31
0
  0
LINE
  8
1
 62
2
 10
75.51593896361125
 20
127.0099922161251
 30
0
 11
75.51593896361125
 21
127.509992216125
 31
0
  0
LINE
  8
1
 62
2
 10
75.51593896361125
 20
127.509992216125
 30
0
 11
75.91593896361135
 21
127.509992216125
 31
0
  0
LINE
  8
1
 62
2
 10
75.91593896361135
 20
135.0099922161251
 30
0
 11
75.51593896361125
 21
135.0099922161251
 31
0
  0
LINE
  8
1
 62
2
 10
75.51593896361125
 20
135.0099922161251
 30
0
 11
75.51593896361125
 21
135.5099922161251
 31
0
  0
LINE
  8
1
 62
2
 10
75.51593896361125
 20
135.5099922161251
 30
0
 11
75.91593896361135
 21
135.5099922161251
 31
0
  0
LINE
  8
1
 62
2
 10
75.91593896361135
 20
137.0099922161251
 30
0
 11
75.51593896361125
 21
137.0099922161251
 31
0
  0
LINE
  8
1
 62
2
 10
75.51593896361125
 20
137.0099922161251
 30
0
 11
75.51593896361125
 21
137.5099922161251
 31
0
  0
LINE
  8
1
 62
2
 10
75.51593896361125
 20
137.5099922161251
 30
0
 11
75.91593896361135
 21
137.5099922161251
 31
0
  0
LINE
  8
1
 62
2
 10
75.91593896361135
 20
139.0099922161251
 30
0
 11
75.51593896361125
 21
139.0099922161251
 31
0
  0
LINE
  8
1
 62
2
 10
75.51593896361125
 20
139.0099922161251
 30
0
 11
75.51593896361125
 21
139.5099922161251
 31
0
  0
LINE
  8
1
 62
2
 10
75.51593896361125
 20
139.5099922161251
 30
0
 11
75.91593896361135
 21
139.5099922161251
 31
0
  0
LINE
  8
1
 62
3
 10
73.5159389636114
 20
142.059992216125
 30
0
 11
73.0159389636114
 21
141.5099922161249
 31
0
  0
LINE
  8
1
 62
3
 10
76.41593896361135
 20
142.059992216125
 30
0
 11
73.5159389636114
 21
142.059992216125
 31
0
  0
LINE
  8
1
 62
3
 10
76.41593896361135
 20
120.459992216125
 30
0
 11
76.41593896361135
 21
142.059992216125
 31
0
  0
LINE
  8
1
 62
3
 10
73.5159389636114
 20
120.459992216125
 30
0
 11
76.41593896361135
 21
120.459992216125
 31
0
  0
LINE
  8
1
 62
3
 10
73.0159389636114
 20
121.009992216125
 30
0
 11
73.5159389636114
 21
120.459992216125
 31
0
  0
LINE
  8
1
 62
3
 10
72.21593896361135
 20
121.009992216125
 30
0
 11
72.5159389636114
 21
121.009992216125
 31
0
  0
LINE
  8
1
 62
3
 10
72.21593896361135
 20
121.8099922161251
 30
0
 11
72.21593896361135
 21
121.009992216125
 31
0
  0
LINE
  8
1
 62
3
 10
72.0159389636114
 20
121.8099922161251
 30
0
 11
72.21593896361135
 21
121.8099922161251
 31
0
  0
LINE
  8
1
 62
3
 10
72.0159389636114
 20
140.709992216125
 30
0
 11
72.0159389636114
 21
121.8099922161251
 31
0
  0
LINE
  8
1
 62
2
 10
72.5159389636114
 20
140.709992216125
 30
0
 11
72.21593896361135
 21
140.709992216125
 31
0
  0
LINE
  8
1
 62
3
 10
72.21593896361135
 20
141.5099922161249
 30
0
 11
72.21593896361135
 21
140.709992216125
 31
0
  0
LINE
  8
1
 62
3
 10
72.5159389636114
 20
141.5099922161249
 30
0
 11
72.21593896361135
 21
141.5099922161249
 31
0
  0
LINE
  8
1
 62
2
 10
72.0159389636114
 20
123.509992216125
 30
0
 11
72.5159389636114
 21
123.509992216125
 31
0
  0
LINE
  8
1
 62
3
 10
72.0159389636114
 20
124.509992216125
 30
0
 11
72.0159389636114
 21
123.509992216125
 31
0
  0
LINE
  8
1
 62
2
 10
72.5159389636114
 20
124.509992216125
 30
0
 11
72.0159389636114
 21
124.509992216125
 31
0
  0
LINE
  8
1
 62
2
 10
72.0159389636114
 20
138.0099922161249
 30
0
 11
72.5159389636114
 21
138.0099922161249
 31
0
  0
LINE
  8
1
 62
3
 10
72.0159389636114
 20
139.0099922161249
 30
0
 11
72.0159389636114
 21
138.0099922161249
 31
0
  0
LINE
  8
1
 62
3
 10
72.5159389636114
 20
139.0099922161249
 30
0
 11
72.0159389636114
 21
139.0099922161249
 31
0
  0
LINE
  8
1
 62
2
 10
75.91593896361135
 20
141.5099922161249
 30
0
 11
73.0159389636114
 21
141.5099922161249
 31
0
  0
LINE
  8
1
 62
3
 10
72.5159389636114
 20
121.009992216125
 30
0
 11
73.0159389636114
 21
121.009992216125
 31
0
  0
LINE
  8
1
 62
2
 10
72.5159389636114
 20
141.5099922161249
 30
0
 11
72.5159389636114
 21
121.009992216125
 31
0
  0
LINE
  8
1
 62
3
 10
-5.238978580691757
 20
140.569992216125
 30
0
 11
-5.238978580691757
 21
139.949992216125
 31
0
  0
LINE
  8
1
 62
3
 10
-5.238978580691757
 20
140.569992216125
 30
0
 11
4.76102141930825
 21
140.569992216125
 31
0
  0
LINE
  8
1
 62
3
 10
4.76102141930825
 20
139.949992216125
 30
0
 11
-5.238978580691757
 21
139.949992216125
 31
0
  0
LINE
  8
1
 62
3
 10
-5.238978580691757
 20
138.569992216125
 30
0
 11
-5.238978580691757
 21
137.949992216125
 31
0
  0
LINE
  8
1
 62
3
 10
-5.238978580691757
 20
138.569992216125
 30
0
 11
4.76102141930825
 21
138.569992216125
 31
0
  0
LINE
  8
1
 62
3
 10
4.76102141930825
 20
137.949992216125
 30
0
 11
-5.238978580691757
 21
137.949992216125
 31
0
  0
LINE
  8
1
 62
3
 10
-5.238978580691757
 20
136.569992216125
 30
0
 11
-5.238978580691757
 21
135.949992216125
 31
0
  0
LINE
  8
1
 62
3
 10
-5.238978580691757
 20
136.569992216125
 30
0
 11
4.76102141930825
 21
136.569992216125
 31
0
  0
LINE
  8
1
 62
3
 10
4.76102141930825
 20
135.949992216125
 30
0
 11
-5.238978580691757
 21
135.949992216125
 31
0
  0
LINE
  8
1
 62
3
 10
-5.238978580691757
 20
134.569992216125
 30
0
 11
-5.238978580691757
 21
133.949992216125
 31
0
  0
LINE
  8
1
 62
3
 10
-5.238978580691757
 20
134.569992216125
 30
0
 11
4.76102141930825
 21
134.569992216125
 31
0
  0
LINE
  8
1
 62
3
 10
4.76102141930825
 20
133.949992216125
 30
0
 11
-5.238978580691757
 21
133.949992216125
 31
0
  0
LINE
  8
1
 62
3
 10
-5.238978580691757
 20
126.569992216125
 30
0
 11
-5.238978580691757
 21
125.949992216125
 31
0
  0
LINE
  8
1
 62
3
 10
-5.238978580691757
 20
126.569992216125
 30
0
 11
4.76102141930825
 21
126.569992216125
 31
0
  0
LINE
  8
1
 62
3
 10
4.76102141930825
 20
125.949992216125
 30
0
 11
-5.238978580691757
 21
125.949992216125
 31
0
  0
LINE
  8
1
 62
3
 10
-5.238978580691757
 20
124.569992216125
 30
0
 11
-5.238978580691757
 21
123.949992216125
 31
0
  0
LINE
  8
1
 62
3
 10
-5.238978580691757
 20
124.569992216125
 30
0
 11
4.76102141930825
 21
124.569992216125
 31
0
  0
LINE
  8
1
 62
3
 10
4.76102141930825
 20
123.949992216125
 30
0
 11
-5.238978580691757
 21
123.949992216125
 31
0
  0
LINE
  8
1
 62
3
 10
-5.238978580691757
 20
122.569992216125
 30
0
 11
-5.238978580691757
 21
121.949992216125
 31
0
  0
LINE
  8
1
 62
3
 10
-5.238978580691757
 20
122.569992216125
 30
0
 11
4.76102141930825
 21
122.569992216125
 31
0
  0
LINE
  8
1
 62
3
 10
4.76102141930825
 20
121.949992216125
 30
0
 11
-5.238978580691757
 21
121.949992216125
 31
0
  0
LINE
  8
1
 62
2
 10
60.1136557535322
 20
121.8099922161251
 30
0
 11
59.1136557535324
 21
121.8099922161251
 31
0
  0
LINE
  8
1
 62
2
 10
60.1136557535322
 20
123.509992216125
 30
0
 11
60.1136557535322
 21
121.8099922161251
 31
0
  0
LINE
  8
1
 62
2
 10
65.1136557535322
 20
123.509992216125
 30
0
 11
60.1136557535322
 21
123.509992216125
 31
0
  0
LINE
  8
1
 62
3
 10
65.1136557535322
 20
124.509992216125
 30
0
 11
65.1136557535322
 21
123.509992216125
 31
0
  0
LINE
  8
1
 62
2
 10
60.1136557535322
 20
124.509992216125
 30
0
 11
65.1136557535322
 21
124.509992216125
 31
0
  0
LINE
  8
1
 62
2
 10
60.1136557535322
 20
138.0099922161249
 30
0
 11
60.1136557535322
 21
124.509992216125
 31
0
  0
LINE
  8
1
 62
2
 10
65.1136557535322
 20
138.0099922161249
 30
0
 11
60.1136557535322
 21
138.0099922161249
 31
0
  0
LINE
  8
1
 62
3
 10
65.1136557535322
 20
139.0099922161249
 30
0
 11
65.1136557535322
 21
138.0099922161249
 31
0
  0
LINE
  8
1
 62
2
 10
60.1136557535322
 20
139.0099922161249
 30
0
 11
65.1136557535322
 21
139.0099922161249
 31
0
  0
LINE
  8
1
 62
2
 10
60.1136557535322
 20
140.709992216125
 30
0
 11
60.1136557535322
 21
139.0099922161249
 31
0
  0
LINE
  8
1
 62
2
 10
59.1136557535324
 20
140.709992216125
 30
0
 11
60.1136557535322
 21
140.709992216125
 31
0
  0
LINE
  8
1
 62
2
 10
63.1136557535322
 20
140.709992216125
 30
0
 11
63.1136557535322
 21
141.5099922161249
 31
0
  0
LINE
  8
1
 62
2
 10
64.6136557535322
 20
140.709992216125
 30
0
 11
63.1136557535322
 21
140.709992216125
 31
0
  0
LINE
  8
1
 62
2
 10
64.6136557535322
 20
141.5099922161249
 30
0
 11
64.6136557535322
 21
140.709992216125
 31
0
  0
LINE
  8
1
 62
2
 10
64.6136557535322
 20
121.8099922161251
 30
0
 11
63.1136557535322
 21
121.8099922161251
 31
0
  0
LINE
  8
1
 62
2
 10
64.6136557535322
 20
121.009992216125
 30
0
 11
64.6136557535322
 21
121.8099922161251
 31
0
  0
LINE
  8
1
 62
2
 10
63.1136557535322
 20
121.009992216125
 30
0
 11
63.1136557535322
 21
121.8099922161251
 31
0
  0
LINE
  8
1
 62
3
 10
59.6136557535322
 20
141.5099922161249
 30
0
 11
65.1136557535322
 21
141.5099922161249
 31
0
  0
LINE
  8
1
 62
3
 10
59.1136557535324
 20
142.059992216125
 30
0
 11
59.6136557535322
 21
141.5099922161249
 31
0
  0
LINE
  8
1
 62
3
 10
59.1136557535324
 20
120.4599922161251
 30
0
 11
59.1136557535324
 21
142.059992216125
 31
0
  0
LINE
  8
1
 62
3
 10
59.6136557535322
 20
121.009992216125
 30
0
 11
59.1136557535324
 21
120.4599922161251
 31
0
  0
LINE
  8
1
 62
3
 10
65.1136557535322
 20
121.0099922161251
 30
0
 11
59.6136557535322
 21
121.009992216125
 31
0
  0
LINE
  8
1
 62
3
 10
65.1136557535322
 20
141.5099922161249
 30
0
 11
65.1136557535322
 21
121.0099922161251
 31
0
  0
LINE
  8
1
 62
3
 10
4.76102141930825
 20
140.749992216125
 30
0
 11
4.76102141930825
 21
139.769992216125
 31
0
  0
LINE
  8
1
 62
3
 10
4.76102141930825
 20
138.749992216125
 30
0
 11
4.76102141930825
 21
137.769992216125
 31
0
  0
LINE
  8
1
 62
3
 10
4.76102141930825
 20
136.749992216125
 30
0
 11
4.76102141930825
 21
135.769992216125
 31
0
  0
LINE
  8
1
 62
3
 10
4.761021419308243
 20
134.749992216125
 30
0
 11
4.76102141930825
 21
133.769992216125
 31
0
  0
LINE
  8
1
 62
3
 10
4.76102141930825
 20
126.749992216125
 30
0
 11
4.761021419308257
 21
125.769992216125
 31
0
  0
LINE
  8
1
 62
3
 10
4.761021419308257
 20
124.749992216125
 30
0
 11
4.76102141930825
 21
123.769992216125
 31
0
  0
LINE
  8
1
 62
3
 10
4.76102141930825
 20
122.749992216125
 30
0
 11
4.76102141930825
 21
121.769992216125
 31
0
  0
LINE
  8
1
 62
3
 10
-5.238978580691757
 20
132.569992216125
 30
0
 11
-5.238978580691757
 21
131.949992216125
 31
0
  0
LINE
  8
1
 62
3
 10
-5.238978580691757
 20
132.569992216125
 30
0
 11
4.76102141930825
 21
132.569992216125
 31
0
  0
LINE
  8
1
 62
3
 10
4.76102141930825
 20
131.949992216125
 30
0
 11
-5.238978580691757
 21
131.949992216125
 31
0
  0
LINE
  8
1
 62
3
 10
-5.238978580691757
 20
130.569992216125
 30
0
 11
-5.238978580691757
 21
129.949992216125
 31
0
  0
LINE
  8
1
 62
3
 10
-5.238978580691757
 20
130.569992216125
 30
0
 11
4.76102141930825
 21
130.569992216125
 31
0
  0
LINE
  8
1
 62
3
 10
4.76102141930825
 20
129.949992216125
 30
0
 11
-5.238978580691757
 21
129.949992216125
 31
0
  0
LINE
  8
1
 62
3
 10
-5.238978580691757
 20
128.569992216125
 30
0
 11
-5.238978580691757
 21
127.949992216125
 31
0
  0
LINE
  8
1
 62
3
 10
-5.238978580691757
 20
128.569992216125
 30
0
 11
4.76102141930825
 21
128.569992216125
 31
0
  0
LINE
  8
1
 62
3
 10
4.76102141930825
 20
127.949992216125
 30
0
 11
-5.238978580691757
 21
127.949992216125
 31
0
  0
LINE
  8
1
 62
3
 10
4.76102141930825
 20
132.749992216125
 30
0
 11
4.76102141930825
 21
131.769992216125
 31
0
  0
LINE
  8
1
 62
3
 10
4.76102141930825
 20
130.749992216125
 30
0
 11
4.76102141930825
 21
129.769992216125
 31
0
  0
LINE
  8
1
 62
3
 10
4.76102141930825
 20
128.749992216125
 30
0
 11
4.76102141930825
 21
127.769992216125
 31
0
  0
LINE
  8
1
 62
6
 10
73.34093896361135
 20
132.009992216125
 30
0
 11
73.21593896361135
 21
131.884992216125
 31
0
  0
LINE
  8
1
 62
6
 10
73.84093896361135
 20
132.009992216125
 30
0
 11
73.96593896361135
 21
131.884992216125
 31
0
  0
LINE
  8
1
 62
6
 10
73.84093896361135
 20
132.509992216125
 30
0
 11
73.96593896361135
 21
132.634992216125
 31
0
  0
LINE
  8
1
 62
6
 10
73.21593896361135
 20
132.634992216125
 30
0
 11
73.34093896361135
 21
132.509992216125
 31
0
  0
LINE
  8
1
 62
6
 10
73.34093896361135
 20
132.009992216125
 30
0
 11
73.34093896361135
 21
132.509992216125
 31
0
  0
LINE
  8
1
 62
6
 10
73.84093896361135
 20
132.009992216125
 30
0
 11
73.34093896361135
 21
132.009992216125
 31
0
  0
LINE
  8
1
 62
6
 10
73.84093896361135
 20
132.509992216125
 30
0
 11
73.84093896361135
 21
132.009992216125
 31
0
  0
LINE
  8
1
 62
6
 10
73.34093896361135
 20
132.509992216125
 30
0
 11
73.84093896361135
 21
132.509992216125
 31
0
  0
LINE
  8
1
 62
6
 10
73.21593896361135
 20
131.884992216125
 30
0
 11
73.21593896361135
 21
132.634992216125
 31
0
  0
LINE
  8
1
 62
6
 10
73.96593896361135
 20
131.884992216125
 30
0
 11
73.21593896361135
 21
131.884992216125
 31
0
  0
LINE
  8
1
 62
6
 10
73.96593896361135
 20
132.634992216125
 30
0
 11
73.96593896361135
 21
131.884992216125
 31
0
  0
LINE
  8
1
 62
6
 10
73.21593896361135
 20
132.634992216125
 30
0
 11
73.96593896361135
 21
132.634992216125
 31
0
  0
LINE
  8
1
 62
6
 10
73.34093896361135
 20
130.009992216125
 30
0
 11
73.21593896361135
 21
129.884992216125
 31
0
  0
LINE
  8
1
 62
6
 10
73.84093896361135
 20
130.009992216125
 30
0
 11
73.96593896361135
 21
129.884992216125
 31
0
  0
LINE
  8
1
 62
6
 10
73.84093896361135
 20
130.509992216125
 30
0
 11
73.96593896361135
 21
130.634992216125
 31
0
  0
LINE
  8
1
 62
6
 10
73.21593896361135
 20
130.634992216125
 30
0
 11
73.34093896361135
 21
130.509992216125
 31
0
  0
LINE
  8
1
 62
6
 10
73.34093896361135
 20
130.009992216125
 30
0
 11
73.34093896361135
 21
130.509992216125
 31
0
  0
LINE
  8
1
 62
6
 10
73.84093896361135
 20
130.009992216125
 30
0
 11
73.34093896361135
 21
130.009992216125
 31
0
  0
LINE
  8
1
 62
6
 10
73.84093896361135
 20
130.509992216125
 30
0
 11
73.84093896361135
 21
130.009992216125
 31
0
  0
LINE
  8
1
 62
6
 10
73.34093896361135
 20
130.509992216125
 30
0
 11
73.84093896361135
 21
130.509992216125
 31
0
  0
LINE
  8
1
 62
6
 10
73.21593896361135
 20
129.884992216125
 30
0
 11
73.21593896361135
 21
130.634992216125
 31
0
  0
LINE
  8
1
 62
6
 10
73.96593896361135
 20
129.884992216125
 30
0
 11
73.21593896361135
 21
129.884992216125
 31
0
  0
LINE
  8
1
 62
6
 10
73.96593896361135
 20
130.634992216125
 30
0
 11
73.96593896361135
 21
129.884992216125
 31
0
  0
LINE
  8
1
 62
6
 10
73.21593896361135
 20
130.634992216125
 30
0
 11
73.96593896361135
 21
130.634992216125
 31
0
  0
LINE
  8
1
 62
6
 10
73.34093896361135
 20
128.009992216125
 30
0
 11
73.21593896361135
 21
127.884992216125
 31
0
  0
LINE
  8
1
 62
6
 10
73.84093896361135
 20
128.009992216125
 30
0
 11
73.96593896361135
 21
127.884992216125
 31
0
  0
LINE
  8
1
 62
6
 10
73.84093896361135
 20
128.509992216125
 30
0
 11
73.96593896361135
 21
128.634992216125
 31
0
  0
LINE
  8
1
 62
6
 10
73.21593896361135
 20
128.634992216125
 30
0
 11
73.34093896361135
 21
128.509992216125
 31
0
  0
LINE
  8
1
 62
6
 10
73.34093896361135
 20
128.009992216125
 30
0
 11
73.34093896361135
 21
128.509992216125
 31
0
  0
LINE
  8
1
 62
6
 10
73.84093896361135
 20
128.009992216125
 30
0
 11
73.34093896361135
 21
128.009992216125
 31
0
  0
LINE
  8
1
 62
6
 10
73.84093896361135
 20
128.509992216125
 30
0
 11
73.84093896361135
 21
128.009992216125
 31
0
  0
LINE
  8
1
 62
6
 10
73.34093896361135
 20
128.509992216125
 30
0
 11
73.84093896361135
 21
128.509992216125
 31
0
  0
LINE
  8
1
 62
6
 10
73.21593896361135
 20
127.884992216125
 30
0
 11
73.21593896361135
 21
128.634992216125
 31
0
  0
LINE
  8
1
 62
6
 10
73.96593896361135
 20
127.884992216125
 30
0
 11
73.21593896361135
 21
127.884992216125
 31
0
  0
LINE
  8
1
 62
6
 10
73.96593896361135
 20
128.634992216125
 30
0
 11
73.96593896361135
 21
127.884992216125
 31
0
  0
LINE
  8
1
 62
6
 10
73.21593896361135
 20
128.634992216125
 30
0
 11
73.96593896361135
 21
128.634992216125
 31
0
  0
LINE
  8
1
 62
2
 10
75.91593896361135
 20
129.5099922161251
 30
0
 11
75.91593896361135
 21
131.0099922161251
 31
0
  0
LINE
  8
1
 62
2
 10
75.91593896361135
 20
131.5099922161251
 30
0
 11
75.91593896361135
 21
133.0099922161251
 31
0
  0
LINE
  8
1
 62
2
 10
75.91593896361135
 20
129.0099922161251
 30
0
 11
75.51593896361125
 21
129.0099922161251
 31
0
  0
LINE
  8
1
 62
2
 10
75.51593896361125
 20
129.0099922161251
 30
0
 11
75.51593896361125
 21
129.5099922161251
 31
0
  0
LINE
  8
1
 62
2
 10
75.51593896361125
 20
129.5099922161251
 30
0
 11
75.91593896361135
 21
129.5099922161251
 31
0
  0
LINE
  8
1
 62
2
 10
75.91593896361135
 20
131.0099922161251
 30
0
 11
75.51593896361125
 21
131.0099922161251
 31
0
  0
LINE
  8
1
 62
2
 10
75.51593896361125
 20
131.0099922161251
 30
0
 11
75.51593896361125
 21
131.5099922161251
 31
0
  0
LINE
  8
1
 62
2
 10
75.51593896361125
 20
131.5099922161251
 30
0
 11
75.91593896361135
 21
131.5099922161251
 31
0
  0
LINE
  8
1
 62
2
 10
75.91593896361135
 20
133.0099922161251
 30
0
 11
75.51593896361125
 21
133.0099922161251
 31
0
  0
LINE
  8
1
 62
2
 10
75.51593896361125
 20
133.0099922161251
 30
0
 11
75.51593896361125
 21
133.5099922161251
 31
0
  0
LINE
  8
1
 62
2
 10
75.51593896361125
 20
133.5099922161251
 30
0
 11
75.91593896361135
 21
133.5099922161251
 31
0
  0
LINE
  8
1
 62
2
 10
75.91593896361135
 20
127.509992216125
 30
0
 11
75.91593896361135
 21
129.0099922161251
 31
0
  0
LINE
  8
1
 62
2
 10
75.91593896361135
 20
133.5099922161251
 30
0
 11
75.91593896361135
 21
135.0099922161251
 31
0
  0
LINE
  8
1
 62
3
 10
4.76102141930825
 20
140.749992216125
 30
0
 11
40.22063763372377
 21
140.749992216125
 31
0
  0
LINE
  8
1
 62
3
 10
4.76102141930825
 20
139.769992216125
 30
0
 11
40.40614775486195
 21
139.769992216125
 31
0
  0
LINE
  8
1
 62
3
 10
4.76102141930825
 20
137.769992216125
 30
0
 11
40.35440978273435
 21
137.769992216125
 31
0
  0
LINE
  8
1
 62
3
 10
4.76102141930825
 20
138.749992216125
 30
0
 11
40.43956773365467
 21
138.749992216125
 31
0
  0
LINE
  8
1
 62
3
 10
4.76102141930825
 20
135.769992216125
 30
0
 11
39.9802477506917
 21
135.769992216125
 31
0
  0
LINE
  8
1
 62
3
 10
4.76102141930825
 20
136.749992216125
 30
0
 11
40.18376999015807
 21
136.749992216125
 31
0
  0
LINE
  8
1
 62
3
 10
4.76102141930825
 20
133.769992216125
 30
0
 11
39.6070072407375
 21
133.769992216125
 31
0
  0
LINE
  8
1
 62
3
 10
4.761021419308243
 20
134.749992216125
 30
0
 11
39.76922724708935
 21
134.749992216125
 31
0
  0
LINE
  8
1
 62
3
 10
4.76102141930825
 20
132.749992216125
 30
0
 11
39.52149099577785
 21
132.749992216125
 31
0
  0
LINE
  8
1
 62
3
 10
4.76102141930825
 20
131.769992216125
 30
0
 11
39.54326626010605
 21
131.769992216125
 31
0
  0
LINE
  8
1
 62
3
 10
4.76102141930825
 20
130.749992216125
 30
0
 11
39.63866519500981
 21
130.749992216125
 31
0
  0
LINE
  8
1
 62
3
 10
4.76102141930825
 20
129.769992216125
 30
0
 11
39.75301736049086
 21
129.7699922161249
 31
0
  0
LINE
  8
1
 62
3
 10
4.76102141930825
 20
128.749992216125
 30
0
 11
39.84648206066726
 21
128.749992216125
 31
0
  0
LINE
  8
1
 62
3
 10
4.76102141930825
 20
127.769992216125
 30
0
 11
39.86477510878886
 21
127.769992216125
 31
0
  0
LINE
  8
1
 62
3
 10
4.76102141930825
 20
126.749992216125
 30
0
 11
39.77651354786242
 21
126.749992216125
 31
0
  0
LINE
  8
1
 62
3
 10
4.761021419308257
 20
125.769992216125
 30
0
 11
39.62265974704242
 21
125.769992216125
 31
0
  0
LINE
  8
1
 62
3
 10
4.761021419308257
 20
124.749992216125
 30
0
 11
39.4443550822153
 21
124.749992216125
 31
0
  0
LINE
  8
1
 62
3
 10
4.76102141930825
 20
123.769992216125
 30
0
 11
39.30693842514584
 21
123.769992216125
 31
0
  0
LINE
  8
1
 62
3
 10
4.76102141930825
 20
122.749992216125
 30
0
 11
39.25291687447675
 21
122.749992216125
 31
0
  0
LINE
  8
1
 62
3
 10
4.76102141930825
 20
121.769992216125
 30
0
 11
39.3362036158522
 21
121.769992216125
 31
0
  0
LINE
  8
1
 62
3
 10
41.22063763372377
 20
140.749992216125
 30
0
 11
59.1136557535324
 21
140.749992216125
 31
0
  0
LINE
  8
1
 62
3
 10
41.40614775486195
 20
139.769992216125
 30
0
 11
59.1136557535324
 21
139.769992216125
 31
0
  0
LINE
  8
1
 62
3
 10
41.43956773365467
 20
138.749992216125
 30
0
 11
59.1136557535324
 21
138.749992216125
 31
0
  0
LINE
  8
1
 62
3
 10
41.35440978273432
 20
137.769992216125
 30
0
 11
59.1136557535324
 21
137.769992216125
 31
0
  0
LINE
  8
1
 62
3
 10
41.18376999015807
 20
136.749992216125
 30
0
 11
59.1136557535324
 21
136.749992216125
 31
0
  0
LINE
  8
1
 62
3
 10
40.98024775069165
 20
135.769992216125
 30
0
 11
59.1136557535324
 21
135.769992216125
 31
0
  0
LINE
  8
1
 62
3
 10
40.76922724708935
 20
134.749992216125
 30
0
 11
59.1136557535324
 21
134.749992216125
 31
0
  0
LINE
  8
1
 62
3
 10
40.6070072407375
 20
133.769992216125
 30
0
 11
59.1136557535324
 21
133.769992216125
 31
0
  0
LINE
  8
1
 62
3
 10
40.52149099577785
 20
132.749992216125
 30
0
 11
59.1136557535324
 21
132.749992216125
 31
0
  0
LINE
  8
1
 62
3
 10
40.54326626010605
 20
131.769992216125
 30
0
 11
59.1136557535324
 21
131.769992216125
 31
0
  0
LINE
  8
1
 62
3
 10
40.63866519500981
 20
130.749992216125
 30
0
 11
59.1136557535324
 21
130.749992216125
 31
0
  0
LINE
  8
1
 62
3
 10
40.75301736049086
 20
129.7699922161249
 30
0
 11
59.1136557535324
 21
129.769992216125
 31
0
  0
LINE
  8
1
 62
3
 10
40.84648206066726
 20
128.749992216125
 30
0
 11
59.1136557535324
 21
128.749992216125
 31
0
  0
LINE
  8
1
 62
3
 10
40.86477510878886
 20
127.769992216125
 30
0
 11
59.1136557535324
 21
127.769992216125
 31
0
  0
LINE
  8
1
 62
3
 10
40.77651354786237
 20
126.749992216125
 30
0
 11
59.1136557535324
 21
126.749992216125
 31
0
  0
LINE
  8
1
 62
3
 10
40.62265974704242
 20
125.769992216125
 30
0
 11
59.1136557535324
 21
125.769992216125
 31
0
  0
LINE
  8
1
 62
3
 10
40.44435508221527
 20
124.749992216125
 30
0
 11
59.1136557535324
 21
124.749992216125
 31
0
  0
LINE
  8
1
 62
3
 10
40.30693842514584
 20
123.769992216125
 30
0
 11
59.1136557535324
 21
123.769992216125
 31
0
  0
LINE
  8
1
 62
3
 10
40.25291687447675
 20
122.749992216125
 30
0
 11
59.1136557535324
 21
122.749992216125
 31
0
  0
LINE
  8
1
 62
3
 10
40.33620361585226
 20
121.769992216125
 30
0
 11
59.1136557535324
 21
121.769992216125
 31
0
  0
POLYLINE
  8
1
 62
2
 66
1
  0
VERTEX
  8
1
 10
39.90768562291537
 20
141.6100928984414
 30
0
 42
-0.07047699879532504
  0
VERTEX
  8
1
 10
40.38054060615544
 20
139.9778523662828
 30
0
 42
-0.05417363514049896
  0
VERTEX
  8
1
 10
40.41762423047677
 20
138.3632320090109
 30
0
 42
-0.02859315147021867
  0
VERTEX
  8
1
 10
40.18557016041001
 20
136.7592481092461
 30
0
 42
-0.002878539672256222
  0
VERTEX
  8
1
 10
39.85101206048588
 20
135.158916949609
 30
0
 42
0.02245386186299342
  0
VERTEX
  8
1
 10
39.58058359523502
 20
133.5552548127201
 30
0
 42
0.05291440951696786
  0
VERTEX
  8
1
 10
39.54413591349974
 20
131.7567767637698
 30
0
 42
0.01135661338505277
  0
VERTEX
  8
1
 10
39.75387496576739
 20
129.7623549615098
 30
0
 42
-0.03601636849396776
  0
VERTEX
  8
1
 10
39.86477510878888
 20
127.769992216125
 30
0
 42
-0.03141203401887556
  0
VERTEX
  8
1
 10
39.70186757163011
 20
126.2409445816275
 30
0
 42
-0.001168753346441902
  0
VERTEX
  8
1
 10
39.43877479666836
 20
124.7162428790514
 30
0
 42
0.02892846970953953
  0
VERTEX
  8
1
 10
39.26165587967942
 20
123.1899156799211
 30
0
 42
0.05933464675413386
  0
VERTEX
  8
1
 10
39.35666991643898
 20
121.6559915557606
 30
0
  0
VERTEX
  8
1
 10
39.56440150990436
 20
120.8843145753953
 30
0
  0
SEQEND
  8
1
  0
POLYLINE
  8
1
 62
2
 66
1
  0
VERTEX
  8
1
 10
40.90768562291537
 20
141.6100928984414
 30
0
 42
-0.07047699879532504
  0
VERTEX
  8
1
 10
41.38054060615544
 20
139.9778523662828
 30
0
 42
-0.05417363514049464
  0
VERTEX
  8
1
 10
41.41762423047676
 20
138.3632320090109
 30
0
 42
-0.02859315147021875
  0
VERTEX
  8
1
 10
41.18557016041002
 20
136.7592481092461
 30
0
 42
-0.002878539672251934
  0
VERTEX
  8
1
 10
40.85101206048588
 20
135.158916949609
 30
0
 42
0.02245386186300198
  0
VERTEX
  8
1
 10
40.58058359523502
 20
133.5552548127201
 30
0
 42
0.05291440951696786
  0
VERTEX
  8
1
 10
40.54413591349974
 20
131.7567767637698
 30
0
 42
0.01135661338504925
  0
VERTEX
  8
1
 10
40.75387496576738
 20
129.7623549615098
 30
0
 42
-0.03601636849396771
  0
VERTEX
  8
1
 10
40.86477510878889
 20
127.769992216125
 30
0
 42
-0.03141203401887552
  0
VERTEX
  8
1
 10
40.7018675716301
 20
126.2409445816275
 30
0
 42
-0.001168753346441905
  0
VERTEX
  8
1
 10
40.43877479666837
 20
124.7162428790514
 30
0
 42
0.02892846970953495
  0
VERTEX
  8
1
 10
40.26165587967942
 20
123.1899156799211
 30
0
 42
0.05933464675413386
  0
VERTEX
  8
1
 10
40.35666991643898
 20
121.6559915557606
 30
0
  0
VERTEX
  8
1
 10
40.56440150990436
 20
120.8843145753953
 30
0
  0
SEQEND
  8
1
  0
TEXT
  8
1
 62
2
 10
60.9997671074692
 20
183.4330193842609
 30
0
 40
3.5
  1
1000
 41
0.9
 72
2
 73
2
 11
73.59976710746921
 21
185.1830193842609
 31
0
  0
TEXT
  8
1
 62
2
 10
64.1497671074692
 20
194.011075968052
 30
0
 40
3.5
  1
500
 41
0.9
 72
2
 73
2
 11
73.59976710746921
 21
195.761075968052
 31
0
  0
TEXT
  8
1
 62
2
 10
11.75602894463521
 20
183.434982462807
 30
0
 40
4
  1
FYD-CNBL10
 41
0.9
  0
TEXT
  8
1
 62
2
 10
11.75602894463521
 20
194.013039046598
 30
0
 40
4
  1
FYD-CNBL05
 41
0.9
  0
TEXT
  8
1
 62
2
 10
0.1095620255392262
 20
183.434982462807
 30
0
 40
4
  1
03
 41
0.9
  0
TEXT
  8
1
 62
2
 10
0.1095620255392262
 20
194.013039046598
 30
0
 40
4
  1
02
 41
0.9
  0
TEXT
  8
1
 62
2
 10
0.1095620255392262
 20
204.591095630389
 30
0
 40
4
  1
01
 41
0.9
  0
TEXT
  8
1
 62
2
 10
11.75602894463521
 20
204.591095630389
 30
0
 40
4
  1
FYD-CNBL03
 41
0.9
  0
TEXT
  8
1
 62
2
 10
64.1497671074692
 20
204.589132551843
 30
0
 40
3.5
  1
300
 41
0.9
 72
2
 73
2
 11
73.59976710746921
 21
206.339132551843
 31
0
  0
TEXT
  8
1
 62
2
 10
66.07331279805669
 20
216.560329529746
 30
0
 40
4
  1
L
 41
0.9
  0
TEXT
  8
1
 62
2
 10
11.75602894463521
 20
220.005537140957
 30
0
 40
4
  1
型式
 41
0.9
  0
TEXT
  8
1
 62
2
 10
0.1095620255392262
 20
220.005537140957
 30
0
 40
4
  1
品番
 41
0.9
  0
TEXT
  8
1
 62
2
 10
0.2914719822721921
 20
214.710833760773
 30
0
 40
4
  1
P/N
 41
0.63
  0
TEXT
  8
1
 62
2
 10
11.93793890136812
 20
214.710833760773
 30
0
 40
4
  1
MODEL CODE
 41
0.7200000000000001
  0
TEXT
  8
1
 62
2
 10
87.70205926077584
 20
135.9264532274002
 30
0
 40
4
  1
IL-S-10S-S2C2-S
 41
0.405
  0
TEXT
  8
1
 62
2
 10
90.82943989332554
 20
123.2940253196252
 30
0
 40
4
  1
JAE
 41
0.9
  0
TEXT
  8
1
 62
2
 10
82.02123640752805
 20
114.7467207177395
 30
0
 40
3.200000000000001
  1
10Pin
 50
90
 41
0.9
  0
TEXT
  8
1
 62
2
 10
82.02123640752805
 20
136.703248483326
 30
0
 40
3.199999999999999
  1
1Pin
 50
90
 41
0.9
  0
DIMENSION
  8
1
  6
CONTINUOUS
 62
2
  2
*D0
  3
DMST_1
 10
59.1136557535324
 20
152.6759306906561
 30
0
 11
34.89991598803201
 21
156.2759306906561
 31
0
 12
0
 22
0
 32
0
 70
0
  1
L
 13
4.76102141930825
 23
140.749992216125
 33
0
 14
59.1136557535324
 24
142.059992216125
 34
0
 53
0
  0
DIMENSION
  8
1
  6
CONTINUOUS
 62
2
  2
*D1
  3
DMST_2
 10
-5.238978580691757
 20
152.5544407226911
 30
0
 11
-0.2675127085451017
 21
156.1544407226911
 31
0
 12
0
 22
0
 32
0
 70
0
  1
10
 13
4.76102141930825
 23
140.749992216125
 33
0
 14
-5.238978580691757
 24
140.569992216125
 34
0
 53
0
  0
ENDSEC
  0
EOF
