  0
SECTION
  2
HEADER
  9
$ACADVER
  1
AC1009
  9
$INSBASE
 10
0
 20
0
  9
$EXTMIN
 10
1361.745947594871
 20
-597.4178509824596
  9
$EXTMAX
 10
1744.342458462118
 20
-367.6775452351089
  9
$LIMMIN
 10
1361.745947594871
 20
-597.4178509824596
  9
$LIMMAX
 10
1744.342458462118
 20
-367.6775452351089
  9
$VIEWCTR
 10
10
 20
10
  9
$VIEWSIZE
 40
10
  9
$SNAPMODE
 70
0
  9
$SNAPUNIT
 10
1
 20
1
  9
$SNAPBASE
 10
0
 20
0
  9
$SNAPANG
 50
0
  9
$SNAPSTYLE
 70
0
  9
$SNAPISOPAIR
 70
0
  9
$GRIDMODE
 70
0
  9
$GRIDUNIT
 10
0
 20
0
  9
$ORTHOMODE
 70
0
  9
$REGENMODE
 70
1
  9
$FILLMODE
 70
1
  9
$QTEXTMODE
 70
0
  9
$DRAGMODE
 70
2
  9
$LTSCALE
 40
1
  9
$OSMODE
 70
0
  9
$ATTMODE
 70
1
  9
$TEXTSIZE
 40
3.5
  9
$TRACEWID
 40
0.5
  9
$TEXTSTYLE
  7
STANDARD
  9
$CLAYER
  8
0
  9
$CELTYPE
  6
BYLAYER
  9
$CECOLOR
 62
256
  9
$DIMSCALE
 40
1
  9
$DIMASZ
 40
0.18
  9
$DIMEXO
 40
0.0625
  9
$DIMDLI
 40
0.38
  9
$DIMRND
 40
0
  9
$DIMDLE
 40
0
  9
$DIMEXE
 40
0.18
  9
$DIMTP
 40
0
  9
$DIMTM
 40
0
  9
$DIMTXT
 40
0.18
  9
$DIMCEN
 40
0.09
  9
$DIMTSZ
 40
0
  9
$DIMTOL
 70
0
  9
$DIMLIM
 70
0
  9
$DIMTIH
 70
1
  9
$DIMTOH
 70
1
  9
$DIMSE1
 70
0
  9
$DIMSE2
 70
0
  9
$DIMTAD
 70
0
  9
$DIMZIN
 70
0
  9
$DIMBLK
  1

  9
$DIMASO
 70
1
  9
$DIMSHO
 70
1
  9
$DIMPOST
  1

  9
$DIMAPOST
  1

  9
$DIMALT
 70
0
  9
$DIMALTD
 70
2
  9
$DIMALTF
 40
25.4
  9
$DIMLFAC
 40
1
  9
$DIMTOFL
 70
0
  9
$DIMTVP
 40
0
  9
$DIMTIX
 70
0
  9
$DIMSOXD
 70
0
  9
$DIMSAH
 70
0
  9
$DIMBLK1
  1

  9
$DIMBLK2
  1

  9
$DIMSTYLE
  2
*UNNAMED
  9
$DIMCLRD
 70
0
  9
$DIMCLRE
 70
0
  9
$DIMCLRT
 70
0
  9
$DIMTFAC
 40
1
  9
$DIMGAP
 40
0.09
  9
$LUNITS
 70
2
  9
$LUPREC
 70
4
  9
$AXISMODE
 70
0
  9
$AXISUNIT
 10
0
 20
0
  9
$SKETCHINC
 40
0.1
  9
$FILLETRAD
 40
2
  9
$AUNITS
 70
0
  9
$AUPREC
 70
0
  9
$MENU
  1
ACAD
  9
$ELEVATION
 40
0
  9
$THICKNESS
 40
0
  9
$VIEWDIR
 10
0
 20
0
 30
1
  9
$LIMCHECK
 70
0
  9
$BLIPMODE
 70
1
  9
$CHAMFERA
 40
0
  9
$CHAMFERB
 40
0
  9
$FASTZOOM
 70
1
  9
$SKPOLY
 70
0
  9
$ANGBASE
 50
0
  9
$ANGDIR
 70
0
  9
$PDMODE
 70
0
  9
$PDSIZE
 40
0
  9
$PLINEWID
 40
0
  9
$COORDS
 70
2
  0
ENDSEC
  0
SECTION
  2
TABLES
  0
TABLE
  2
DIMSTYLE
 70
6
  0
DIMSTYLE
  2
DMST_1
 70
0
  3

  4

  5

  6

  7

 40
1
 41
3.2
 42
1
 43
7
 44
1.5
 45
0
 46
0
 47
0
 48
0
140
3.2
141
0
142
0
143
25.4
144
1
145
0
146
1
147
0.09
 71
0
 72
0
 73
1
 74
1
 75
0
 76
0
 77
1
 78
9
170
0
171
2
172
0
173
0
174
0
175
0
176
2
177
2
178
2
  0
DIMSTYLE
  2
DMST_2
 70
0
  3

  4

  5

  6

  7

 40
1
 41
3.2
 42
1
 43
7
 44
1.5
 45
0
 46
0
 47
0.2
 48
0.2
140
3.2
141
0
142
0
143
25.4
144
1
145
0
146
0.6
147
0.09
 71
1
 72
0
 73
1
 74
1
 75
0
 76
0
 77
1
 78
9
170
0
171
2
172
0
173
0
174
0
175
0
176
2
177
2
178
2
  0
DIMSTYLE
  2
DMST_3
 70
0
  3
)
  4

  5

  6

  7

 40
1
 41
3.2
 42
1
 43
7
 44
1.5
 45
0
 46
0
 47
0
 48
0
140
3.2
141
0
142
0
143
25.4
144
1
145
0
146
1
147
0.09
 71
0
 72
0
 73
1
 74
1
 75
0
 76
0
 77
1
 78
9
170
0
171
2
172
0
173
0
174
0
175
0
176
2
177
2
178
2
  0
DIMSTYLE
  2
DMST_4
 70
0
  3

  4

  5

  6

  7

 40
1
 41
3.2
 42
1
 43
7
 44
1.5
 45
0
 46
0
 47
0.5
 48
0.5
140
3.2
141
0
142
0
143
25.4
144
1
145
0
146
0.6
147
0.09
 71
1
 72
0
 73
1
 74
1
 75
0
 76
0
 77
1
 78
9
170
0
171
2
172
0
173
0
174
0
175
0
176
2
177
2
178
2
  0
DIMSTYLE
  2
DMST_5
 70
0
  3

  4

  5

  6

  7

 40
1
 41
3.2
 42
1
 43
7
 44
1.5
 45
0
 46
0
 47
0
 48
0
140
3.2
141
0
142
0
143
25.4
144
1
145
0
146
0.6
147
0.09
 71
1
 72
0
 73
1
 74
1
 75
0
 76
0
 77
1
 78
9
170
0
171
2
172
0
173
0
174
0
175
0
176
2
177
2
178
2
  0
DIMSTYLE
  2
DMST_6
 70
0
  3

  4

  5

  6

  7

 40
1
 41
3.2
 42
1
 43
7
 44
1
 45
0
 46
0
 47
3
 48
3
140
3.2
141
0
142
0
143
25.4
144
1
145
0
146
0.7
147
0.09
 71
1
 72
0
 73
0
 74
0
 75
0
 76
0
 77
1
 78
9
170
0
171
2
172
0
173
0
174
0
175
0
176
2
177
2
178
2
  0
ENDTAB
  0
TABLE
  2
LTYPE
 70
9
  0
LTYPE
  2
CONTINUOUS
 70
64
  3
Solid line
 72
65
 73
0
 40
0
  0
LTYPE
  2
BORDER
 70
64
  3
__ __ . __ __ .
 72
65
 73
6
 40
17.61957615836005
 49
5.034164616674302
 49
-2.517082308337151
 49
5.034164616674302
 49
-2.517082308337151
 49
0
 49
-2.517082308337151
  0
LTYPE
  2
CENTER
 70
64
  3
____ _ ____ _
 72
65
 73
4
 40
20.13665846669721
 49
12.58541154168576
 49
-2.517082308337151
 49
2.517082308337151
 49
-2.517082308337151
  0
LTYPE
  2
DASHDOT
 70
64
  3
__ . __ . __ .
 72
65
 73
4
 40
10.0683292333486
 49
5.034164616674302
 49
-2.517082308337151
 49
0
 49
-2.517082308337151
  0
LTYPE
  2
DASHED
 70
64
  3
__ __ __ __ __
 72
65
 73
2
 40
7.551246925011452
 49
5.034164616674302
 49
-2.517082308337151
  0
LTYPE
  2
DIVIDE
 70
64
  3
__ . . __ . . 
 72
65
 73
6
 40
12.58541154168576
 49
5.034164616674302
 49
-2.517082308337151
 49
0
 49
-2.517082308337151
 49
0
 49
-2.517082308337151
  0
LTYPE
  2
DOT
 70
64
  3
..............
 72
65
 73
4
 40
5.034164616674302
 49
0
 49
-2.517082308337151
 49
0
 49
-2.517082308337151
  0
LTYPE
  2
HIDDEN
 70
64
  3
_ _ _ _ _ _ _
 72
65
 73
2
 40
3.775623462505726
 49
2.517082308337151
 49
-1.258541154168575
  0
LTYPE
  2
PHANTOM
 70
64
  3
_____ _ _ _____ _ _ 
 72
65
 73
6
 40
25.17082308337151
 49
12.58541154168576
 49
-2.517082308337151
 49
2.517082308337151
 49
-2.517082308337151
 49
2.517082308337151
 49
-2.517082308337151
  0
ENDTAB
  0
TABLE
  2
LAYER
 70
4
  0
LAYER
  2
1
 70
0
 62
7
  6
CONTINUOUS
  0
LAYER
  2
-4880_37571997535_-6589_4863227
 70
0
 62
7
  6
CONTINUOUS
  0
LAYER
  2
0
 70
0
 62
7
  6
CONTINUOUS
  0
ENDTAB
  0
TABLE
  2
STYLE
 70
4
  0
STYLE
  2
STANDARD
 70
0
 40
0
 41
1
 50
0
 71
0
 42
3.5
  3
txt
  4

  0
STYLE
  2
SIMPLEX
 70
0
 40
0
 41
1
 50
0
 71
0
 42
3.5
  3
simplex
  4

  0
STYLE
  2
COMPLEX
 70
0
 40
0
 41
1
 50
0
 71
0
 42
3.5
  3
complex
  4

  0
STYLE
  2
ITALIC
 70
0
 40
0
 41
1
 50
0
 71
0
 42
3.5
  3
italic
  4

  0
ENDTAB
  0
TABLE
  2
VIEW
 70
0
  0
ENDTAB
  0
ENDSEC
  0
SECTION
  2
BLOCKS
  0
BLOCK
  8
1
  2
*X0
 70
1
 10
0
 20
0
 30
0
  0
LINE
  8
1
 62
2
 10
1618.236971875544
 20
-440.8579749396822
 30
0
 11
1621.085014043111
 21
-438.0099327721152
 31
0
  0
LINE
  8
1
 62
2
 10
1620.413441167857
 20
-441.5099327721152
 30
0
 11
1623.913441167857
 21
-438.0099327721152
 31
0
  0
LINE
  8
1
 62
2
 10
1623.241868292604
 20
-441.5099327721152
 30
0
 11
1626.741868292604
 21
-438.0099327721152
 31
0
  0
LINE
  8
1
 62
2
 10
1626.07029541735
 20
-441.5099327721152
 30
0
 11
1629.57029541735
 21
-438.0099327721152
 31
0
  0
LINE
  8
1
 62
2
 10
1628.898722542096
 20
-441.5099327721152
 30
0
 11
1630.236971875544
 21
-440.1716834386671
 31
0
  0
ENDBLK
  8
0
  0
BLOCK
  8
1
  2
*X1
 70
1
 10
0
 20
0
 30
0
  0
LINE
  8
1
 62
2
 10
1575.673325797679
 20
-432.5099327721155
 30
0
 11
1576.173325797679
 21
-432.0099327721155
 31
0
  0
LINE
  8
1
 62
2
 10
1573.70259071977
 20
-434.4806678500249
 30
0
 11
1574.20259071977
 21
-433.980667850025
 31
0
  0
LINE
  8
1
 62
2
 10
1578.501752922426
 20
-432.5099327721155
 30
0
 11
1579.001752922425
 21
-432.0099327721155
 31
0
  0
LINE
  8
1
 62
2
 10
1573.70259071977
 20
-437.3090949747711
 30
0
 11
1574.20259071977
 21
-436.8090949747713
 31
0
  0
LINE
  8
1
 62
2
 10
1581.330180047172
 20
-432.5099327721155
 30
0
 11
1581.830180047171
 21
-432.0099327721155
 31
0
  0
LINE
  8
1
 62
2
 10
1573.70259071977
 20
-440.1375220995174
 30
0
 11
1574.20259071977
 21
-439.6375220995175
 31
0
  0
LINE
  8
1
 62
2
 10
1584.158607171918
 20
-432.5099327721155
 30
0
 11
1584.658607171918
 21
-432.0099327721155
 31
0
  0
LINE
  8
1
 62
2
 10
1573.70259071977
 20
-442.9659492242636
 30
0
 11
1574.20259071977
 21
-442.4659492242637
 31
0
  0
LINE
  8
1
 62
2
 10
1586.987034296664
 20
-432.5099327721155
 30
0
 11
1587.487034296664
 21
-432.0099327721155
 31
0
  0
LINE
  8
1
 62
2
 10
1575.487034296664
 20
-444.0099327721151
 30
0
 11
1575.987034296664
 21
-443.5099327721154
 31
0
  0
LINE
  8
1
 62
2
 10
1589.81546142141
 20
-432.5099327721155
 30
0
 11
1590.31546142141
 21
-432.0099327721155
 31
0
  0
LINE
  8
1
 62
2
 10
1578.31546142141
 20
-444.0099327721151
 30
0
 11
1578.81546142141
 21
-443.5099327721154
 31
0
  0
LINE
  8
1
 62
2
 10
1592.643888546157
 20
-432.5099327721155
 30
0
 11
1593.143888546156
 21
-432.0099327721155
 31
0
  0
LINE
  8
1
 62
2
 10
1581.143888546157
 20
-444.0099327721151
 30
0
 11
1581.643888546157
 21
-443.5099327721154
 31
0
  0
LINE
  8
1
 62
2
 10
1595.472315670903
 20
-432.5099327721155
 30
0
 11
1595.972315670902
 21
-432.0099327721155
 31
0
  0
LINE
  8
1
 62
2
 10
1583.972315670903
 20
-444.0099327721151
 30
0
 11
1584.472315670903
 21
-443.5099327721154
 31
0
  0
LINE
  8
1
 62
2
 10
1598.300742795649
 20
-432.5099327721155
 30
0
 11
1598.800742795649
 21
-432.0099327721155
 31
0
  0
LINE
  8
1
 62
2
 10
1586.800742795649
 20
-444.0099327721151
 30
0
 11
1587.300742795649
 21
-443.5099327721154
 31
0
  0
LINE
  8
1
 62
2
 10
1601.129169920395
 20
-432.5099327721155
 30
0
 11
1601.629169920395
 21
-432.0099327721155
 31
0
  0
LINE
  8
1
 62
2
 10
1589.629169920395
 20
-444.0099327721151
 30
0
 11
1590.129169920395
 21
-443.5099327721154
 31
0
  0
LINE
  8
1
 62
2
 10
1603.957597045141
 20
-432.5099327721155
 30
0
 11
1604.457597045141
 21
-432.0099327721155
 31
0
  0
LINE
  8
1
 62
2
 10
1603.45259071977
 20
-433.0149390974868
 30
0
 11
1603.95259071977
 21
-432.5149390974869
 31
0
  0
LINE
  8
1
 62
2
 10
1592.457597045142
 20
-444.0099327721151
 30
0
 11
1592.957597045142
 21
-443.5099327721154
 31
0
  0
LINE
  8
1
 62
2
 10
1606.786024169887
 20
-432.5099327721155
 30
0
 11
1607.286024169887
 21
-432.0099327721155
 31
0
  0
LINE
  8
1
 62
2
 10
1603.45259071977
 20
-435.843366222233
 30
0
 11
1603.95259071977
 21
-435.3433662222332
 31
0
  0
LINE
  8
1
 62
2
 10
1595.286024169888
 20
-444.0099327721151
 30
0
 11
1595.786024169888
 21
-443.5099327721154
 31
0
  0
LINE
  8
1
 62
2
 10
1609.614451294634
 20
-432.5099327721155
 30
0
 11
1610.114451294634
 21
-432.0099327721155
 31
0
  0
LINE
  8
1
 62
2
 10
1603.45259071977
 20
-438.6717933469793
 30
0
 11
1603.95259071977
 21
-438.1717933469794
 31
0
  0
LINE
  8
1
 62
2
 10
1598.114451294634
 20
-444.0099327721151
 30
0
 11
1598.614451294634
 21
-443.5099327721154
 31
0
  0
LINE
  8
1
 62
2
 10
1612.44287841938
 20
-432.5099327721155
 30
0
 11
1612.94287841938
 21
-432.0099327721155
 31
0
  0
LINE
  8
1
 62
2
 10
1603.45259071977
 20
-441.5002204717255
 30
0
 11
1603.95259071977
 21
-441.0002204717256
 31
0
  0
LINE
  8
1
 62
2
 10
1600.94287841938
 20
-444.0099327721151
 30
0
 11
1601.44287841938
 21
-443.5099327721154
 31
0
  0
LINE
  8
1
 62
2
 10
1615.271305544126
 20
-432.5099327721155
 30
0
 11
1615.771305544126
 21
-432.0099327721155
 31
0
  0
LINE
  8
1
 62
2
 10
1603.771305544126
 20
-444.0099327721151
 30
0
 11
1604.271305544126
 21
-443.5099327721152
 31
0
  0
LINE
  8
1
 62
2
 10
1618.099732668872
 20
-432.5099327721155
 30
0
 11
1618.599732668872
 21
-432.0099327721155
 31
0
  0
LINE
  8
1
 62
2
 10
1606.599732668873
 20
-444.0099327721151
 30
0
 11
1607.099732668873
 21
-443.5099327721152
 31
0
  0
LINE
  8
1
 62
2
 10
1620.928159793618
 20
-432.5099327721155
 30
0
 11
1621.428159793618
 21
-432.0099327721155
 31
0
  0
LINE
  8
1
 62
2
 10
1609.428159793619
 20
-444.0099327721151
 30
0
 11
1609.928159793619
 21
-443.5099327721152
 31
0
  0
LINE
  8
1
 62
2
 10
1623.756586918365
 20
-432.5099327721155
 30
0
 11
1624.256586918365
 21
-432.0099327721155
 31
0
  0
LINE
  8
1
 62
2
 10
1612.256586918365
 20
-444.0099327721151
 30
0
 11
1612.756586918365
 21
-443.5099327721152
 31
0
  0
LINE
  8
1
 62
2
 10
1626.585014043111
 20
-432.5099327721155
 30
0
 11
1627.085014043111
 21
-432.0099327721155
 31
0
  0
LINE
  8
1
 62
2
 10
1615.085014043111
 20
-444.0099327721151
 30
0
 11
1615.585014043111
 21
-443.5099327721152
 31
0
  0
LINE
  8
1
 62
2
 10
1629.413441167857
 20
-432.5099327721155
 30
0
 11
1629.913441167857
 21
-432.0099327721155
 31
0
  0
LINE
  8
1
 62
2
 10
1617.913441167857
 20
-444.0099327721151
 30
0
 11
1618.413441167857
 21
-443.5099327721152
 31
0
  0
LINE
  8
1
 62
2
 10
1632.241868292603
 20
-432.5099327721155
 30
0
 11
1632.741868292603
 21
-432.0099327721155
 31
0
  0
LINE
  8
1
 62
2
 10
1620.741868292604
 20
-444.0099327721151
 30
0
 11
1621.241868292604
 21
-443.5099327721152
 31
0
  0
LINE
  8
1
 62
2
 10
1633.20259071977
 20
-434.3776374696951
 30
0
 11
1633.70259071977
 21
-433.8776374696951
 31
0
  0
LINE
  8
1
 62
2
 10
1623.57029541735
 20
-444.0099327721151
 30
0
 11
1624.07029541735
 21
-443.5099327721152
 31
0
  0
LINE
  8
1
 62
2
 10
1633.20259071977
 20
-437.2060645944413
 30
0
 11
1633.70259071977
 21
-436.7060645944413
 31
0
  0
LINE
  8
1
 62
2
 10
1626.398722542096
 20
-444.0099327721151
 30
0
 11
1626.898722542096
 21
-443.5099327721152
 31
0
  0
LINE
  8
1
 62
2
 10
1633.20259071977
 20
-440.0344917191875
 30
0
 11
1633.70259071977
 21
-439.5344917191875
 31
0
  0
LINE
  8
1
 62
2
 10
1629.227149666842
 20
-444.0099327721151
 30
0
 11
1629.727149666842
 21
-443.5099327721152
 31
0
  0
LINE
  8
1
 62
2
 10
1633.20259071977
 20
-442.8629188439337
 30
0
 11
1633.70259071977
 21
-442.3629188439337
 31
0
  0
LINE
  8
1
 62
2
 10
1632.055576791589
 20
-444.0099327721151
 30
0
 11
1632.555576791589
 21
-443.5099327721152
 31
0
  0
ENDBLK
  8
0
  0
BLOCK
  8
1
  2
*X2
 70
1
 10
0
 20
0
 30
0
  0
LINE
  8
1
 62
2
 10
1605.71958971977
 20
-447.7185028459641
 30
0
 11
1606.398661793619
 21
-447.0394307721153
 31
0
  0
LINE
  8
1
 62
2
 10
1605.71958971977
 20
-447.152817421015
 30
0
 11
1605.83297636867
 21
-447.0394307721153
 31
0
  0
LINE
  8
1
 62
2
 10
1605.71958971977
 20
-447.2942387772523
 30
0
 11
1605.974397724907
 21
-447.0394307721153
 31
0
  0
LINE
  8
1
 62
2
 10
1605.71958971977
 20
-447.4356601334896
 30
0
 11
1606.115819081144
 21
-447.0394307721153
 31
0
  0
LINE
  8
1
 62
2
 10
1605.71958971977
 20
-447.5770814897269
 30
0
 11
1606.257240437382
 21
-447.0394307721153
 31
0
  0
LINE
  8
1
 62
2
 10
1605.71958971977
 20
-447.7185028459642
 30
0
 11
1606.398661793619
 21
-447.0394307721153
 31
0
  0
LINE
  8
1
 62
2
 10
1605.71958971977
 20
-447.8599242022015
 30
0
 11
1606.51958871977
 21
-447.0599252022017
 31
0
  0
LINE
  8
1
 62
2
 10
1605.71958971977
 20
-448.0013455584387
 30
0
 11
1606.51958871977
 21
-447.201346558439
 31
0
  0
LINE
  8
1
 62
2
 10
1605.71958971977
 20
-448.142766914676
 30
0
 11
1606.51958871977
 21
-447.3427679146763
 31
0
  0
LINE
  8
1
 62
2
 10
1605.71958971977
 20
-448.2841882709133
 30
0
 11
1606.51958871977
 21
-447.4841892709136
 31
0
  0
LINE
  8
1
 62
2
 10
1605.741370022599
 20
-448.4038293243218
 30
0
 11
1606.51958871977
 21
-447.6256106271509
 31
0
  0
LINE
  8
1
 62
2
 10
1605.882791378836
 20
-448.4038293243218
 30
0
 11
1606.51958871977
 21
-447.7670319833882
 31
0
  0
LINE
  8
1
 62
2
 10
1606.024212735074
 20
-448.4038293243218
 30
0
 11
1606.51958871977
 21
-447.9084533396255
 31
0
  0
LINE
  8
1
 62
2
 10
1606.165634091311
 20
-448.4038293243218
 30
0
 11
1606.51958871977
 21
-448.0498746958627
 31
0
  0
LINE
  8
1
 62
2
 10
1606.307055447548
 20
-448.4038293243218
 30
0
 11
1606.51958871977
 21
-448.1912960521
 31
0
  0
LINE
  8
1
 62
2
 10
1606.448476803786
 20
-448.4038293243218
 30
0
 11
1606.51958871977
 21
-448.3327174083373
 31
0
  0
ENDBLK
  8
0
  0
BLOCK
  8
1
  2
*X3
 70
1
 10
0
 20
0
 30
0
  0
LINE
  8
1
 62
2
 10
1605.034263241412
 20
-448.4038293243217
 30
0
 11
1605.24959271977
 21
-448.1884998459642
 31
0
  0
LINE
  8
1
 62
2
 10
1604.44959371977
 20
-447.1500212148793
 30
0
 11
1604.560184162534
 21
-447.0394307721152
 31
0
  0
LINE
  8
1
 62
2
 10
1604.44959371977
 20
-447.2914425711166
 30
0
 11
1604.701605518771
 21
-447.0394307721152
 31
0
  0
LINE
  8
1
 62
2
 10
1604.44959371977
 20
-447.4328639273539
 30
0
 11
1604.843026875009
 21
-447.0394307721152
 31
0
  0
LINE
  8
1
 62
2
 10
1604.44959371977
 20
-447.5742852835912
 30
0
 11
1604.984448231246
 21
-447.0394307721152
 31
0
  0
LINE
  8
1
 62
2
 10
1604.44959371977
 20
-447.7157066398285
 30
0
 11
1605.125869587483
 21
-447.0394307721152
 31
0
  0
LINE
  8
1
 62
2
 10
1604.44959371977
 20
-447.8571279960657
 30
0
 11
1605.24959271977
 21
-447.0571289960658
 31
0
  0
LINE
  8
1
 62
2
 10
1604.44959371977
 20
-447.998549352303
 30
0
 11
1605.24959271977
 21
-447.1985503523031
 31
0
  0
LINE
  8
1
 62
2
 10
1604.44959371977
 20
-448.1399707085403
 30
0
 11
1605.24959271977
 21
-447.3399717085404
 31
0
  0
LINE
  8
1
 62
2
 10
1604.44959371977
 20
-448.2813920647776
 30
0
 11
1605.24959271977
 21
-447.4813930647777
 31
0
  0
LINE
  8
1
 62
2
 10
1604.468577816463
 20
-448.4038293243218
 30
0
 11
1605.24959271977
 21
-447.6228144210149
 31
0
  0
LINE
  8
1
 62
2
 10
1604.609999172701
 20
-448.4038293243218
 30
0
 11
1605.24959271977
 21
-447.7642357772522
 31
0
  0
LINE
  8
1
 62
2
 10
1604.751420528938
 20
-448.4038293243218
 30
0
 11
1605.24959271977
 21
-447.9056571334895
 31
0
  0
LINE
  8
1
 62
2
 10
1604.892841885175
 20
-448.4038293243218
 30
0
 11
1605.24959271977
 21
-448.0470784897268
 31
0
  0
LINE
  8
1
 62
2
 10
1605.034263241412
 20
-448.4038293243218
 30
0
 11
1605.24959271977
 21
-448.1884998459641
 31
0
  0
LINE
  8
1
 62
2
 10
1605.17568459765
 20
-448.4038293243218
 30
0
 11
1605.24959271977
 21
-448.3299212022014
 31
0
  0
ENDBLK
  8
0
  0
BLOCK
  8
1
  2
*X4
 70
1
 10
0
 20
0
 30
0
  0
LINE
  8
1
 62
2
 10
1603.17959771977
 20
-447.4300677212178
 30
0
 11
1603.570234668873
 21
-447.0394307721153
 31
0
  0
LINE
  8
1
 62
2
 10
1603.17959771977
 20
-447.1472250087436
 30
0
 11
1603.287391956399
 21
-447.0394307721153
 31
0
  0
LINE
  8
1
 62
2
 10
1603.17959771977
 20
-447.2886463649809
 30
0
 11
1603.428813312636
 21
-447.0394307721153
 31
0
  0
LINE
  8
1
 62
2
 10
1603.17959771977
 20
-447.4300677212182
 30
0
 11
1603.570234668873
 21
-447.0394307721153
 31
0
  0
LINE
  8
1
 62
2
 10
1603.17959771977
 20
-447.5714890774555
 30
0
 11
1603.71165602511
 21
-447.0394307721153
 31
0
  0
LINE
  8
1
 62
2
 10
1603.17959771977
 20
-447.7129104336927
 30
0
 11
1603.853077381348
 21
-447.0394307721153
 31
0
  0
LINE
  8
1
 62
2
 10
1603.17959771977
 20
-447.85433178993
 30
0
 11
1603.97959671977
 21
-447.0543327899303
 31
0
  0
LINE
  8
1
 62
2
 10
1603.17959771977
 20
-447.9957531461673
 30
0
 11
1603.97959671977
 21
-447.1957541461676
 31
0
  0
LINE
  8
1
 62
2
 10
1603.17959771977
 20
-448.1371745024046
 30
0
 11
1603.97959671977
 21
-447.3371755024049
 31
0
  0
LINE
  8
1
 62
2
 10
1603.17959771977
 20
-448.2785958586419
 30
0
 11
1603.97959671977
 21
-447.4785968586422
 31
0
  0
LINE
  8
1
 62
2
 10
1603.195785610328
 20
-448.4038293243217
 30
0
 11
1603.97959671977
 21
-447.6200182148795
 31
0
  0
LINE
  8
1
 62
2
 10
1603.337206966565
 20
-448.4038293243217
 30
0
 11
1603.97959671977
 21
-447.7614395711167
 31
0
  0
LINE
  8
1
 62
2
 10
1603.478628322802
 20
-448.4038293243217
 30
0
 11
1603.97959671977
 21
-447.902860927354
 31
0
  0
LINE
  8
1
 62
2
 10
1603.62004967904
 20
-448.4038293243217
 30
0
 11
1603.97959671977
 21
-448.0442822835913
 31
0
  0
LINE
  8
1
 62
2
 10
1603.761471035277
 20
-448.4038293243217
 30
0
 11
1603.97959671977
 21
-448.1857036398286
 31
0
  0
LINE
  8
1
 62
2
 10
1603.902892391514
 20
-448.4038293243217
 30
0
 11
1603.97959671977
 21
-448.3271249960659
 31
0
  0
ENDBLK
  8
0
  0
BLOCK
  8
1
  2
*X5
 70
1
 10
0
 20
0
 30
0
  0
LINE
  8
1
 62
2
 10
1602.205836116666
 20
-448.4038293243217
 30
0
 11
1602.70960071977
 21
-447.900064721218
 31
0
  0
LINE
  8
1
 62
2
 10
1601.90960171977
 20
-447.1444288026079
 30
0
 11
1602.014599750263
 21
-447.0394307721152
 31
0
  0
LINE
  8
1
 62
2
 10
1601.90960171977
 20
-447.2858501588452
 30
0
 11
1602.1560211065
 21
-447.0394307721152
 31
0
  0
LINE
  8
1
 62
2
 10
1601.90960171977
 20
-447.4272715150825
 30
0
 11
1602.297442462737
 21
-447.0394307721152
 31
0
  0
LINE
  8
1
 62
2
 10
1601.90960171977
 20
-447.5686928713197
 30
0
 11
1602.438863818975
 21
-447.0394307721152
 31
0
  0
LINE
  8
1
 62
2
 10
1601.90960171977
 20
-447.710114227557
 30
0
 11
1602.580285175212
 21
-447.0394307721152
 31
0
  0
LINE
  8
1
 62
2
 10
1601.90960171977
 20
-447.8515355837943
 30
0
 11
1602.70960071977
 21
-447.0515365837944
 31
0
  0
LINE
  8
1
 62
2
 10
1601.90960171977
 20
-447.9929569400316
 30
0
 11
1602.70960071977
 21
-447.1929579400317
 31
0
  0
LINE
  8
1
 62
2
 10
1601.90960171977
 20
-448.1343782962689
 30
0
 11
1602.70960071977
 21
-447.3343792962689
 31
0
  0
LINE
  8
1
 62
2
 10
1601.90960171977
 20
-448.2757996525062
 30
0
 11
1602.70960071977
 21
-447.4758006525062
 31
0
  0
LINE
  8
1
 62
2
 10
1601.922993404192
 20
-448.4038293243218
 30
0
 11
1602.70960071977
 21
-447.6172220087435
 31
0
  0
LINE
  8
1
 62
2
 10
1602.064414760429
 20
-448.4038293243218
 30
0
 11
1602.70960071977
 21
-447.7586433649808
 31
0
  0
LINE
  8
1
 62
2
 10
1602.205836116666
 20
-448.4038293243218
 30
0
 11
1602.70960071977
 21
-447.9000647212181
 31
0
  0
LINE
  8
1
 62
2
 10
1602.347257472904
 20
-448.4038293243218
 30
0
 11
1602.70960071977
 21
-448.0414860774554
 31
0
  0
LINE
  8
1
 62
2
 10
1602.488678829141
 20
-448.4038293243218
 30
0
 11
1602.70960071977
 21
-448.1829074336927
 31
0
  0
LINE
  8
1
 62
2
 10
1602.630100185378
 20
-448.4038293243218
 30
0
 11
1602.70960071977
 21
-448.32432878993
 31
0
  0
ENDBLK
  8
0
  0
BLOCK
  8
1
  2
*D0
 70
1
 10
0
 20
0
 30
0
  0
LINE
  8
1
 62
2
 10
1567.20259071977
 20
-372.8775452351089
 30
0
 11
1640.20259071977
 21
-372.8775452351089
 31
0
  0
LINE
  8
1
 62
2
 10
1640.20259071977
 20
-398.0099327721153
 30
0
 11
1640.20259071977
 21
-371.3775452351089
 31
0
  0
LINE
  8
1
 62
2
 10
1567.20259071977
 20
-398.0099327721153
 30
0
 11
1567.20259071977
 21
-371.3775452351089
 31
0
  0
SOLID
  8
1
 62
2
 10
1567.20259071977
 20
-372.8775452351089
 30
0
 11
1570.40259071977
 21
-372.4615452351089
 31
0
 12
1570.40259071977
 22
-373.2935452351089
 32
0
 13
1570.40259071977
 23
-373.2935452351089
 33
0
  0
SOLID
  8
1
 62
2
 10
1640.20259071977
 20
-372.8775452351089
 30
0
 11
1637.00259071977
 21
-373.2935452351089
 31
0
 12
1637.00259071977
 22
-372.4615452351089
 32
0
 13
1637.00259071977
 23
-372.4615452351089
 33
0
  0
TEXT
  8
1
 62
2
 10
1599.956112358598
 20
-370.8775452351089
 30
0
 40
3.2
  1
(73)
 41
0.9
  0
ENDBLK
  8
0
  0
BLOCK
  8
1
  2
*D1
 70
1
 10
0
 20
0
 30
0
  0
LINE
  8
1
 62
2
 10
1570.70259071977
 20
-381.0398619379018
 30
0
 11
1636.70259071977
 21
-381.0398619379018
 31
0
  0
LINE
  8
1
 62
2
 10
1570.70259071977
 20
-398.0996365267598
 30
0
 11
1570.70259071977
 21
-379.5398619379018
 31
0
  0
LINE
  8
1
 62
2
 10
1636.70259071977
 20
-398.0996365267598
 30
0
 11
1636.70259071977
 21
-379.5398619379018
 31
0
  0
SOLID
  8
1
 62
2
 10
1636.70259071977
 20
-381.0398619379018
 30
0
 11
1633.50259071977
 21
-381.4558619379018
 31
0
 12
1633.50259071977
 22
-380.6238619379018
 32
0
 13
1633.50259071977
 23
-380.6238619379018
 33
0
  0
SOLID
  8
1
 62
2
 10
1570.70259071977
 20
-381.0398619379018
 30
0
 11
1573.90259071977
 21
-380.6238619379018
 31
0
 12
1573.90259071977
 22
-381.4558619379018
 32
0
 13
1573.90259071977
 23
-381.4558619379018
 33
0
  0
TEXT
  8
1
 62
2
 10
1598.124112358598
 20
-379.0398619379018
 30
0
 40
3.2
  1
66
 41
0.9
  0
TEXT
  8
1
 62
2
 10
1604.524112358598
 20
-378.3998619379018
 30
0
 40
1.92
  1
%%p0.2
 41
0.9
  0
ENDBLK
  8
0
  0
BLOCK
  8
1
  2
*D2
 70
1
 10
0
 20
0
 30
0
  0
LINE
  8
1
 62
2
 10
1550.747750408298
 20
-523.4229783737931
 30
0
 11
1550.747750408298
 21
-482.0366860979285
 31
0
  0
LINE
  8
1
 62
2
 10
1566.40259071977
 20
-523.4229783737931
 30
0
 11
1549.247750408298
 21
-523.4229783737931
 31
0
  0
LINE
  8
1
 62
2
 10
1569.34009071977
 20
-482.0366860979285
 30
0
 11
1549.247750408298
 21
-482.0366860979285
 31
0
  0
SOLID
  8
1
 62
2
 10
1550.747750408298
 20
-482.0366860979285
 30
0
 11
1551.163750408298
 21
-485.2366860979284
 31
0
 12
1550.331750408298
 22
-485.2366860979284
 32
0
 13
1550.331750408298
 23
-485.2366860979284
 33
0
  0
SOLID
  8
1
 62
2
 10
1550.747750408298
 20
-523.4229783737931
 30
0
 11
1550.331750408298
 21
-520.222978373793
 31
0
 12
1551.163750408298
 22
-520.222978373793
 32
0
 13
1551.163750408298
 23
-520.222978373793
 33
0
  0
TEXT
  8
1
 62
2
 10
1548.747750408298
 20
-507.8714500496259
 30
0
 40
3.2
  1
(42)
 50
90
 41
0.9
  0
ENDBLK
  8
0
  0
BLOCK
  8
1
  2
*D3
 70
1
 10
0
 20
0
 30
0
  0
LINE
  8
1
 62
2
 10
1561.750016653384
 20
-529.8229783737929
 30
0
 11
1561.750016653384
 21
-523.4229783737929
 31
0
  0
LINE
  8
1
 62
2
 10
1561.750016653384
 20
-523.4229783737929
 30
0
 11
1561.750016653384
 21
-516.4229783737929
 31
0
  0
LINE
  8
1
 62
2
 10
1561.750016653384
 20
-516.4229783737929
 30
0
 11
1561.750016653384
 21
-505.4555789268458
 31
0
  0
LINE
  8
1
 62
2
 10
1573.00259071977
 20
-523.4229783737929
 30
0
 11
1560.250016653384
 21
-523.4229783737929
 31
0
  0
LINE
  8
1
 62
2
 10
1573.00259071977
 20
-516.4229783737929
 30
0
 11
1560.250016653384
 21
-516.4229783737929
 31
0
  0
SOLID
  8
1
 62
2
 10
1561.750016653384
 20
-516.4229783737929
 30
0
 11
1561.334016653384
 21
-513.2229783737929
 31
0
 12
1562.166016653384
 22
-513.2229783737929
 32
0
 13
1562.166016653384
 23
-513.2229783737929
 33
0
  0
SOLID
  8
1
 62
2
 10
1561.750016653384
 20
-523.4229783737929
 30
0
 11
1562.166016653384
 21
-526.622978373793
 31
0
 12
1561.334016653384
 22
-526.622978373793
 32
0
 13
1561.334016653384
 23
-526.622978373793
 33
0
  0
TEXT
  8
1
 62
2
 10
1559.750016653384
 20
-510.2555789268458
 30
0
 40
3.2
  1
(7)
 50
90
 41
0.9
  0
ENDBLK
  8
0
  0
BLOCK
  8
1
  2
*D4
 70
1
 10
0
 20
0
 30
0
  0
LINE
  8
1
 62
2
 10
1551.856268053262
 20
-451.5099327721153
 30
0
 11
1551.856268053262
 21
-401.5099327721153
 31
0
  0
LINE
  8
1
 62
2
 10
1567.318871953465
 20
-451.5099327721153
 30
0
 11
1550.356268053262
 21
-451.5099327721153
 31
0
  0
LINE
  8
1
 62
2
 10
1567.318871953465
 20
-401.5099327721153
 30
0
 11
1550.356268053262
 21
-401.5099327721153
 31
0
  0
SOLID
  8
1
 62
2
 10
1551.856268053262
 20
-401.5099327721153
 30
0
 11
1552.272268053262
 21
-404.7099327721153
 31
0
 12
1551.440268053262
 22
-404.7099327721153
 32
0
 13
1551.440268053262
 23
-404.7099327721153
 33
0
  0
SOLID
  8
1
 62
2
 10
1551.856268053262
 20
-451.5099327721153
 30
0
 11
1551.440268053262
 21
-448.3099327721153
 31
0
 12
1552.272268053262
 22
-448.3099327721153
 32
0
 13
1552.272268053262
 23
-448.3099327721153
 33
0
  0
TEXT
  8
1
 62
2
 10
1549.856268053262
 20
-431.2745416788379
 30
0
 40
3.2
  1
50
 50
90
 41
0.9
  0
TEXT
  8
1
 62
2
 10
1549.216268053262
 20
-424.8745416788379
 30
0
 40
1.92
  1
%%p0.2
 50
90
 41
0.9
  0
ENDBLK
  8
0
  0
BLOCK
  8
1
  2
*D5
 70
1
 10
0
 20
0
 30
0
  0
LINE
  8
1
 62
2
 10
1540.862468637719
 20
-455.0099327721153
 30
0
 11
1540.862468637719
 21
-398.0099327721153
 31
0
  0
LINE
  8
1
 62
2
 10
1567.20259071977
 20
-398.0099327721153
 30
0
 11
1539.362468637719
 21
-398.0099327721153
 31
0
  0
LINE
  8
1
 62
2
 10
1567.20259071977
 20
-455.0099327721153
 30
0
 11
1539.362468637719
 21
-455.0099327721153
 31
0
  0
SOLID
  8
1
 62
2
 10
1540.862468637719
 20
-398.0099327721153
 30
0
 11
1541.278468637719
 21
-401.2099327721153
 31
0
 12
1540.446468637719
 22
-401.2099327721153
 32
0
 13
1540.446468637719
 23
-401.2099327721153
 33
0
  0
SOLID
  8
1
 62
2
 10
1540.862468637719
 20
-455.0099327721153
 30
0
 11
1540.446468637719
 21
-451.8099327721153
 31
0
 12
1541.278468637719
 22
-451.8099327721153
 32
0
 13
1541.278468637719
 23
-451.8099327721153
 33
0
  0
TEXT
  8
1
 62
2
 10
1538.862468637719
 20
-429.8708715261969
 30
0
 40
3.2
  1
(57)
 50
90
 41
0.9
  0
ENDBLK
  8
0
  0
BLOCK
  8
1
  2
*D6
 70
1
 10
0
 20
0
 30
0
  0
LINE
  8
1
 62
2
 10
1627.00259071977
 20
-534.619339355561
 30
0
 11
1633.40259071977
 21
-534.619339355561
 31
0
  0
LINE
  8
1
 62
2
 10
1633.40259071977
 20
-534.619339355561
 30
0
 11
1640.00259071977
 21
-534.619339355561
 31
0
  0
LINE
  8
1
 62
2
 10
1640.00259071977
 20
-534.619339355561
 30
0
 11
1659.435153284542
 21
-534.619339355561
 31
0
  0
LINE
  8
1
 62
2
 10
1633.40259071977
 20
-524.4229783737929
 30
0
 11
1633.40259071977
 21
-536.119339355561
 31
0
  0
LINE
  8
1
 62
2
 10
1640.00259071977
 20
-524.4229783737929
 30
0
 11
1640.00259071977
 21
-536.119339355561
 31
0
  0
SOLID
  8
1
 62
2
 10
1633.40259071977
 20
-534.619339355561
 30
0
 11
1630.20259071977
 21
-535.0353393555611
 31
0
 12
1630.20259071977
 22
-534.203339355561
 32
0
 13
1630.20259071977
 23
-534.203339355561
 33
0
  0
SOLID
  8
1
 62
2
 10
1640.00259071977
 20
-534.619339355561
 30
0
 11
1643.20259071977
 21
-534.203339355561
 31
0
 12
1643.20259071977
 22
-535.0353393555611
 32
0
 13
1643.20259071977
 23
-535.0353393555611
 33
0
  0
TEXT
  8
1
 62
2
 10
1646.539153284542
 20
-532.619339355561
 30
0
 40
3.2
  1
6.6
 41
0.9
  0
TEXT
  8
1
 62
2
 10
1654.139153284542
 20
-531.979339355561
 30
0
 40
1.92
  1
%%p0.2
 41
0.9
  0
ENDBLK
  8
0
  0
BLOCK
  8
1
  2
*D7
 70
1
 10
0
 20
0
 30
0
  0
LINE
  8
1
 62
2
 10
1561.00259071977
 20
-534.0530495938041
 30
0
 11
1567.40259071977
 21
-534.0530495938041
 31
0
  0
LINE
  8
1
 62
2
 10
1567.40259071977
 20
-534.0530495938041
 30
0
 11
1574.00259071977
 21
-534.0530495938041
 31
0
  0
LINE
  8
1
 62
2
 10
1574.00259071977
 20
-534.0530495938041
 30
0
 11
1593.462396039869
 21
-534.0530495938041
 31
0
  0
LINE
  8
1
 62
2
 10
1567.40259071977
 20
-524.4229783737929
 30
0
 11
1567.40259071977
 21
-535.5530495938041
 31
0
  0
LINE
  8
1
 62
2
 10
1574.00259071977
 20
-524.4229783737929
 30
0
 11
1574.00259071977
 21
-535.5530495938041
 31
0
  0
SOLID
  8
1
 62
2
 10
1567.40259071977
 20
-534.0530495938041
 30
0
 11
1564.20259071977
 21
-534.4690495938041
 31
0
 12
1564.20259071977
 22
-533.637049593804
 32
0
 13
1564.20259071977
 23
-533.637049593804
 33
0
  0
SOLID
  8
1
 62
2
 10
1574.00259071977
 20
-534.0530495938041
 30
0
 11
1577.20259071977
 21
-533.637049593804
 31
0
 12
1577.20259071977
 22
-534.4690495938041
 32
0
 13
1577.20259071977
 23
-534.4690495938041
 33
0
  0
TEXT
  8
1
 62
2
 10
1580.566396039869
 20
-532.0530495938041
 30
0
 40
3.2
  1
6.6
 41
0.9
  0
TEXT
  8
1
 62
2
 10
1588.166396039869
 20
-531.4130495938041
 30
0
 40
1.92
  1
%%p0.2
 41
0.9
  0
ENDBLK
  8
0
  0
BLOCK
  8
1
  2
*D8
 70
1
 10
0
 20
0
 30
0
  0
LINE
  8
1
 62
2
 10
1651.961718641906
 20
-523.4229783737931
 30
0
 11
1651.961718641906
 21
-484.422978373793
 31
0
  0
LINE
  8
1
 62
2
 10
1641.00259071977
 20
-523.4229783737931
 30
0
 11
1653.461718641906
 21
-523.4229783737931
 31
0
  0
LINE
  8
1
 62
2
 10
1640.90259071977
 20
-484.422978373793
 30
0
 11
1653.461718641906
 21
-484.422978373793
 31
0
  0
SOLID
  8
1
 62
2
 10
1651.961718641906
 20
-484.422978373793
 30
0
 11
1652.377718641906
 21
-487.622978373793
 31
0
 12
1651.545718641906
 22
-487.622978373793
 32
0
 13
1651.545718641906
 23
-487.622978373793
 33
0
  0
SOLID
  8
1
 62
2
 10
1651.961718641906
 20
-523.4229783737931
 30
0
 11
1651.545718641906
 21
-520.222978373793
 31
0
 12
1652.377718641906
 22
-520.222978373793
 32
0
 13
1652.377718641906
 23
-520.222978373793
 33
0
  0
TEXT
  8
1
 62
2
 10
1649.961718641906
 20
-509.9948371015699
 30
0
 40
3.2
  1
39
 50
90
 41
0.9
  0
TEXT
  8
1
 62
2
 10
1649.321718641906
 20
-503.5948371015699
 30
0
 40
1.92
  1
%%p0.5
 50
90
 41
0.9
  0
ENDBLK
  8
0
  0
BLOCK
  8
1
  2
*D9
 70
1
 10
0
 20
0
 30
0
  0
LINE
  8
1
 62
2
 10
1681.331925609649
 20
-441.5099327721152
 30
0
 11
1681.331925609649
 21
-411.5099327721152
 31
0
  0
LINE
  8
1
 62
2
 10
1699.779710651505
 20
-441.5099327721152
 30
0
 11
1679.831925609649
 21
-441.5099327721152
 31
0
  0
LINE
  8
1
 62
2
 10
1700.014435407857
 20
-411.5099327721152
 30
0
 11
1679.831925609649
 21
-411.5099327721152
 31
0
  0
SOLID
  8
1
 62
2
 10
1681.331925609649
 20
-411.5099327721152
 30
0
 11
1681.747925609649
 21
-414.7099327721152
 31
0
 12
1680.915925609649
 22
-414.7099327721152
 32
0
 13
1680.915925609649
 23
-414.7099327721152
 33
0
  0
SOLID
  8
1
 62
2
 10
1681.331925609649
 20
-441.5099327721152
 30
0
 11
1680.915925609649
 21
-438.3099327721153
 31
0
 12
1681.747925609649
 22
-438.3099327721153
 32
0
 13
1681.747925609649
 23
-438.3099327721153
 33
0
  0
TEXT
  8
1
 62
2
 10
1679.331925609649
 20
-432.9794295026388
 30
0
 40
3.2
  1
30
 50
90
 41
0.9
  0
TEXT
  8
1
 62
2
 10
1678.691925609649
 20
-426.5794295026388
 30
0
 40
1.92
  1
%%p0.2
 50
90
 41
0.9
  0
ENDBLK
  8
0
  0
BLOCK
  8
1
  2
*D10
 70
1
 10
0
 20
0
 30
0
  0
LINE
  8
1
 62
2
 10
1686.947595611485
 20
-464.9656986594688
 30
0
 11
1703.33388788735
 21
-464.9656986594688
 31
0
  0
LINE
  8
1
 62
2
 10
1686.947595611485
 20
-452.8724327721153
 30
0
 11
1686.947595611485
 21
-466.4656986594688
 31
0
  0
LINE
  8
1
 62
2
 10
1703.33388788735
 20
-444.6957426307482
 30
0
 11
1703.33388788735
 21
-466.4656986594688
 31
0
  0
SOLID
  8
1
 62
2
 10
1703.33388788735
 20
-464.9656986594688
 30
0
 11
1700.13388788735
 21
-465.3816986594688
 31
0
 12
1700.13388788735
 22
-464.5496986594688
 32
0
 13
1700.13388788735
 23
-464.5496986594688
 33
0
  0
SOLID
  8
1
 62
2
 10
1686.947595611485
 20
-464.9656986594688
 30
0
 11
1690.147595611486
 21
-464.5496986594688
 31
0
 12
1690.147595611486
 22
-465.3816986594688
 32
0
 13
1690.147595611486
 23
-465.3816986594688
 33
0
  0
TEXT
  8
1
 62
2
 10
1693.683675395116
 20
-462.9656986594688
 30
0
 40
3.2
  1
17
 41
0.9
  0
TEXT
  8
1
 62
2
 10
1691.603675395116
 20
-462.9656986594688
 30
0
 40
3.2
  1
(
 41
0.9
  0
TEXT
  8
1
 62
2
 10
1699.123675395116
 20
-462.9656986594688
 30
0
 40
3.2
  1
)
 41
0.9
  0
ENDBLK
  8
0
  0
BLOCK
  8
1
  2
*D11
 70
1
 10
0
 20
0
 30
0
  0
LINE
  8
1
 62
2
 10
1681.446431351195
 20
-411.5099327721153
 30
0
 11
1681.446431351195
 21
-398.0099327721153
 31
0
  0
LINE
  8
1
 62
2
 10
1681.446431351195
 20
-398.0099327721153
 30
0
 11
1681.446431351195
 21
-379.5168564179029
 31
0
  0
LINE
  8
1
 62
2
 10
1700.014435407857
 20
-411.5099327721153
 30
0
 11
1679.946431351195
 21
-411.5099327721153
 31
0
  0
LINE
  8
1
 62
2
 10
1689.33388788735
 20
-398.0099327721153
 30
0
 11
1679.946431351195
 21
-398.0099327721153
 31
0
  0
SOLID
  8
1
 62
2
 10
1681.446431351195
 20
-398.0099327721153
 30
0
 11
1681.862431351195
 21
-401.2099327721153
 31
0
 12
1681.030431351195
 22
-401.2099327721153
 32
0
 13
1681.030431351195
 23
-401.2099327721153
 33
0
  0
SOLID
  8
1
 62
2
 10
1681.446431351195
 20
-411.5099327721153
 30
0
 11
1681.030431351195
 21
-408.3099327721153
 31
0
 12
1681.862431351195
 22
-408.3099327721153
 32
0
 13
1681.862431351195
 23
-408.3099327721153
 33
0
  0
TEXT
  8
1
 62
2
 10
1679.446431351195
 20
-394.3328564179029
 30
0
 40
3.2
  1
13.5
 50
90
 41
0.9
  0
TEXT
  8
1
 62
2
 10
1678.806431351195
 20
-384.8128564179029
 30
0
 40
1.92
  1
%%p0.5
 50
90
 41
0.9
  0
ENDBLK
  8
0
  0
BLOCK
  8
1
  2
*D12
 70
1
 10
0
 20
0
 30
0
  0
LINE
  8
1
 62
2
 10
1681.446431351195
 20
-455.0099327721152
 30
0
 11
1681.446431351195
 21
-441.5099327721152
 31
0
  0
LINE
  8
1
 62
2
 10
1681.446431351195
 20
-455.0099327721152
 30
0
 11
1681.446431351195
 21
-473.6822781829828
 31
0
  0
LINE
  8
1
 62
2
 10
1689.33388788735
 20
-455.0099327721152
 30
0
 11
1679.946431351195
 21
-455.0099327721152
 31
0
  0
LINE
  8
1
 62
2
 10
1699.779710651505
 20
-441.5099327721152
 30
0
 11
1679.946431351195
 21
-441.5099327721152
 31
0
  0
SOLID
  8
1
 62
2
 10
1681.446431351195
 20
-441.5099327721152
 30
0
 11
1681.862431351195
 21
-444.7099327721152
 31
0
 12
1681.030431351195
 22
-444.7099327721152
 32
0
 13
1681.030431351195
 23
-444.7099327721152
 33
0
  0
SOLID
  8
1
 62
2
 10
1681.446431351195
 20
-455.0099327721152
 30
0
 11
1681.030431351195
 21
-451.8099327721153
 31
0
 12
1681.862431351195
 22
-451.8099327721153
 32
0
 13
1681.862431351195
 23
-451.8099327721153
 33
0
  0
TEXT
  8
1
 62
2
 10
1679.446431351195
 20
-473.3302781829829
 30
0
 40
3.2
  1
13.5
 50
90
 41
0.9
  0
TEXT
  8
1
 62
2
 10
1678.806431351195
 20
-463.8102781829828
 30
0
 40
1.92
  1
%%p0.5
 50
90
 41
0.9
  0
ENDBLK
  8
0
  0
BLOCK
  8
1
  2
*D13
 70
1
 10
0
 20
0
 30
0
  0
LINE
  8
1
 62
2
 10
1741.456028945571
 20
-441.9099327721153
 30
0
 11
1741.456028945571
 21
-448.3099327721153
 31
0
  0
LINE
  8
1
 62
2
 10
1741.456028945571
 20
-454.5099327721153
 30
0
 11
1741.456028945571
 21
-448.3099327721153
 31
0
  0
LINE
  8
1
 62
2
 10
1741.456028945571
 20
-454.5099327721153
 30
0
 11
1741.456028945571
 21
-474.8879735154449
 31
0
  0
LINE
  8
1
 62
2
 10
1729.33388788735
 20
-454.5099327721153
 30
0
 11
1742.956028945571
 21
-454.5099327721153
 31
0
  0
LINE
  8
1
 62
2
 10
1729.33388788735
 20
-448.3099327721153
 30
0
 11
1742.956028945571
 21
-448.3099327721153
 31
0
  0
SOLID
  8
1
 62
2
 10
1741.456028945571
 20
-454.5099327721153
 30
0
 11
1741.872028945571
 21
-457.7099327721153
 31
0
 12
1741.040028945571
 22
-457.7099327721153
 32
0
 13
1741.040028945571
 23
-457.7099327721153
 33
0
  0
SOLID
  8
1
 62
2
 10
1741.456028945571
 20
-448.3099327721153
 30
0
 11
1741.040028945571
 21
-445.1099327721153
 31
0
 12
1741.872028945571
 22
-445.1099327721153
 32
0
 13
1741.872028945571
 23
-445.1099327721153
 33
0
  0
TEXT
  8
1
 62
2
 10
1739.456028945571
 20
-474.5359735154449
 30
0
 40
3.2
  1
6.2
 50
90
 41
0.9
  0
TEXT
  8
1
 62
2
 10
1738.816028945571
 20
-466.9359735154449
 30
0
 40
1.92
  1
%%p0.2
 50
90
 41
0.9
  0
ENDBLK
  8
0
  0
BLOCK
  8
1
  2
*D14
 70
1
 10
0
 20
0
 30
0
  0
LINE
  8
1
 62
2
 10
1741.438297496696
 20
-448.3099327721152
 30
0
 11
1741.438297496696
 21
-410.7099327721152
 31
0
  0
LINE
  8
1
 62
2
 10
1729.33388788735
 20
-410.7099327721152
 30
0
 11
1742.938297496696
 21
-410.7099327721152
 31
0
  0
LINE
  8
1
 62
2
 10
1726.33388788735
 20
-448.3099327721152
 30
0
 11
1742.938297496696
 21
-448.3099327721152
 31
0
  0
SOLID
  8
1
 62
2
 10
1741.438297496696
 20
-448.3099327721152
 30
0
 11
1741.022297496696
 21
-445.1099327721152
 31
0
 12
1741.854297496696
 22
-445.1099327721152
 32
0
 13
1741.854297496696
 23
-445.1099327721152
 33
0
  0
SOLID
  8
1
 62
2
 10
1741.438297496696
 20
-410.7099327721152
 30
0
 11
1741.854297496696
 21
-413.9099327721152
 31
0
 12
1741.022297496696
 22
-413.9099327721152
 32
0
 13
1741.022297496696
 23
-413.9099327721152
 33
0
  0
TEXT
  8
1
 62
2
 10
1739.438297496696
 20
-433.1984148577188
 30
0
 40
3.2
  1
(38)
 50
90
 41
0.9
  0
ENDBLK
  8
0
  0
BLOCK
  8
1
  2
*D15
 70
1
 10
0
 20
0
 30
0
  0
LINE
  8
1
 62
2
 10
1741.456028945571
 20
-417.1099327721153
 30
0
 11
1741.456028945571
 21
-410.7099327721152
 31
0
  0
LINE
  8
1
 62
2
 10
1741.456028945571
 20
-410.7099327721152
 30
0
 11
1741.456028945571
 21
-405.7099327721152
 31
0
  0
LINE
  8
1
 62
2
 10
1741.456028945571
 20
-405.7099327721152
 30
0
 11
1741.456028945571
 21
-389.4295669589128
 31
0
  0
LINE
  8
1
 62
2
 10
1729.33388788735
 20
-410.7099327721152
 30
0
 11
1742.956028945571
 21
-410.7099327721152
 31
0
  0
LINE
  8
1
 62
2
 10
1729.33388788735
 20
-405.7099327721152
 30
0
 11
1742.956028945571
 21
-405.7099327721152
 31
0
  0
SOLID
  8
1
 62
2
 10
1741.456028945571
 20
-410.7099327721152
 30
0
 11
1741.872028945571
 21
-413.9099327721152
 31
0
 12
1741.040028945571
 22
-413.9099327721152
 32
0
 13
1741.040028945571
 23
-413.9099327721152
 33
0
  0
SOLID
  8
1
 62
2
 10
1741.456028945571
 20
-405.7099327721152
 30
0
 11
1741.040028945571
 21
-402.5099327721152
 31
0
 12
1741.872028945571
 22
-402.5099327721152
 32
0
 13
1741.872028945571
 23
-402.5099327721152
 33
0
  0
TEXT
  8
1
 62
2
 10
1739.456028945571
 20
-398.3255669589128
 30
0
 40
3.2
  1
5
 50
90
 41
0.9
  0
TEXT
  8
1
 62
2
 10
1738.816028945571
 20
-394.8055669589128
 30
0
 40
1.92
  1
%%p0.2
 50
90
 41
0.9
  0
ENDBLK
  8
0
  0
BLOCK
  8
1
  2
*D16
 70
1
 10
0
 20
0
 30
0
  0
LINE
  8
1
 62
2
 10
1472.737028802456
 20
-411.1099327721152
 30
0
 11
1472.737028802456
 21
-404.7099327721152
 31
0
  0
LINE
  8
1
 62
2
 10
1472.737028802456
 20
-404.7099327721152
 30
0
 11
1472.737028802456
 21
-398.5099327721152
 31
0
  0
LINE
  8
1
 62
2
 10
1472.737028802456
 20
-398.5099327721152
 30
0
 11
1472.737028802456
 21
-383.0399541660428
 31
0
  0
LINE
  8
1
 62
2
 10
1482.169722397998
 20
-404.7099327721152
 30
0
 11
1471.237028802456
 21
-404.7099327721152
 31
0
  0
LINE
  8
1
 62
2
 10
1482.169722397998
 20
-398.5099327721152
 30
0
 11
1471.237028802456
 21
-398.5099327721152
 31
0
  0
SOLID
  8
1
 62
2
 10
1472.737028802456
 20
-398.5099327721152
 30
0
 11
1472.321028802456
 21
-395.3099327721153
 31
0
 12
1473.153028802456
 22
-395.3099327721153
 32
0
 13
1473.153028802456
 23
-395.3099327721153
 33
0
  0
SOLID
  8
1
 62
2
 10
1472.737028802456
 20
-404.7099327721152
 30
0
 11
1473.153028802456
 21
-407.9099327721152
 31
0
 12
1472.321028802456
 22
-407.9099327721152
 32
0
 13
1472.321028802456
 23
-407.9099327721152
 33
0
  0
TEXT
  8
1
 62
2
 10
1470.737028802456
 20
-395.9359541660428
 30
0
 40
3.2
  1
6.2
 50
90
 41
0.9
  0
TEXT
  8
1
 62
2
 10
1470.097028802456
 20
-388.3359541660428
 30
0
 40
1.92
  1
%%p0.2
 50
90
 41
0.9
  0
ENDBLK
  8
0
  0
BLOCK
  8
1
  2
*D17
 70
1
 10
0
 20
0
 30
0
  0
LINE
  8
1
 62
2
 10
1472.684846730749
 20
-442.3099327721153
 30
0
 11
1472.684846730749
 21
-404.7099327721153
 31
0
  0
LINE
  8
1
 62
2
 10
1485.169722397998
 20
-404.7099327721153
 30
0
 11
1471.184846730749
 21
-404.7099327721153
 31
0
  0
LINE
  8
1
 62
2
 10
1485.169722397998
 20
-442.3099327721153
 30
0
 11
1471.184846730749
 21
-442.3099327721153
 31
0
  0
SOLID
  8
1
 62
2
 10
1472.684846730749
 20
-404.7099327721153
 30
0
 11
1473.100846730749
 21
-407.9099327721153
 31
0
 12
1472.268846730749
 22
-407.9099327721153
 32
0
 13
1472.268846730749
 23
-407.9099327721153
 33
0
  0
SOLID
  8
1
 62
2
 10
1472.684846730749
 20
-442.3099327721153
 30
0
 11
1472.268846730749
 21
-439.1099327721153
 31
0
 12
1473.100846730749
 22
-439.1099327721153
 32
0
 13
1473.100846730749
 23
-439.1099327721153
 33
0
  0
TEXT
  8
1
 62
2
 10
1470.684846730749
 20
-427.3762784951779
 30
0
 40
3.2
  1
(38)
 50
90
 41
0.9
  0
ENDBLK
  8
0
  0
BLOCK
  8
1
  2
*D18
 70
1
 10
0
 20
0
 30
0
  0
LINE
  8
1
 62
2
 10
1472.737028802456
 20
-435.9099327721152
 30
0
 11
1472.737028802456
 21
-442.3099327721152
 31
0
  0
LINE
  8
1
 62
2
 10
1472.737028802456
 20
-447.3099327721152
 30
0
 11
1472.737028802456
 21
-442.3099327721152
 31
0
  0
LINE
  8
1
 62
2
 10
1472.737028802456
 20
-447.3099327721152
 30
0
 11
1472.737028802456
 21
-461.6819660035218
 31
0
  0
LINE
  8
1
 62
2
 10
1482.169722397998
 20
-447.3099327721152
 30
0
 11
1471.237028802456
 21
-447.3099327721152
 31
0
  0
LINE
  8
1
 62
2
 10
1482.169722397998
 20
-442.3099327721152
 30
0
 11
1471.237028802456
 21
-442.3099327721152
 31
0
  0
SOLID
  8
1
 62
2
 10
1472.737028802456
 20
-442.3099327721152
 30
0
 11
1472.321028802456
 21
-439.1099327721152
 31
0
 12
1473.153028802456
 22
-439.1099327721152
 32
0
 13
1473.153028802456
 23
-439.1099327721152
 33
0
  0
SOLID
  8
1
 62
2
 10
1472.737028802456
 20
-447.3099327721152
 30
0
 11
1473.153028802456
 21
-450.5099327721152
 31
0
 12
1472.321028802456
 22
-450.5099327721152
 32
0
 13
1472.321028802456
 23
-450.5099327721152
 33
0
  0
TEXT
  8
1
 62
2
 10
1470.737028802456
 20
-461.2499660035218
 30
0
 40
3.2
  1
5
 50
90
 41
0.9
  0
TEXT
  8
1
 62
2
 10
1470.097028802456
 20
-457.7299660035218
 30
0
 40
1.92
  1
%%p0.2
 50
90
 41
0.9
  0
ENDBLK
  8
0
  0
BLOCK
  8
1
  2
*D19
 70
1
 10
0
 20
0
 30
0
  0
LINE
  8
1
 62
2
 10
1718.93388788735
 20
-418.9274493375978
 30
0
 11
1725.33388788735
 21
-418.9274493375978
 31
0
  0
LINE
  8
1
 62
2
 10
1725.33388788735
 20
-418.9274493375978
 30
0
 11
1728.33388788735
 21
-418.9274493375978
 31
0
  0
LINE
  8
1
 62
2
 10
1728.33388788735
 20
-418.9274493375978
 30
0
 11
1739.062859365873
 21
-418.9274493375978
 31
0
  0
LINE
  8
1
 62
2
 10
1725.33388788735
 20
-411.7099327721152
 30
0
 11
1725.33388788735
 21
-420.4274493375978
 31
0
  0
LINE
  8
1
 62
2
 10
1728.33388788735
 20
-411.7099327721152
 30
0
 11
1728.33388788735
 21
-420.4274493375978
 31
0
  0
SOLID
  8
1
 62
2
 10
1728.33388788735
 20
-418.9274493375978
 30
0
 11
1731.53388788735
 21
-418.5114493375978
 31
0
 12
1731.53388788735
 22
-419.3434493375978
 32
0
 13
1731.53388788735
 23
-419.3434493375978
 33
0
  0
SOLID
  8
1
 62
2
 10
1725.33388788735
 20
-418.9274493375978
 30
0
 11
1722.13388788735
 21
-419.3434493375978
 31
0
 12
1722.13388788735
 22
-418.5114493375978
 32
0
 13
1722.13388788735
 23
-418.5114493375978
 33
0
  0
TEXT
  8
1
 62
2
 10
1730.166859365873
 20
-416.9274493375978
 30
0
 40
3.2
  1
3
 41
0.9
  0
TEXT
  8
1
 62
2
 10
1733.686859365873
 20
-416.2874493375978
 30
0
 40
1.92
  1
%%p0.2
 41
0.9
  0
ENDBLK
  8
0
  0
BLOCK
  8
1
  2
*D20
 70
1
 10
0
 20
0
 30
0
  0
LINE
  8
1
 62
2
 10
1703.33388788735
 20
-464.9746212480599
 30
0
 11
1728.33388788735
 21
-464.9746212480599
 31
0
  0
LINE
  8
1
 62
2
 10
1703.33388788735
 20
-444.6957426307483
 30
0
 11
1703.33388788735
 21
-466.4746212480599
 31
0
  0
LINE
  8
1
 62
2
 10
1728.33388788735
 20
-455.5099327721153
 30
0
 11
1728.33388788735
 21
-466.4746212480599
 31
0
  0
SOLID
  8
1
 62
2
 10
1728.33388788735
 20
-464.9746212480599
 30
0
 11
1725.13388788735
 21
-465.3906212480599
 31
0
 12
1725.13388788735
 22
-464.5586212480599
 32
0
 13
1725.13388788735
 23
-464.5586212480599
 33
0
  0
SOLID
  8
1
 62
2
 10
1703.33388788735
 20
-464.9746212480599
 30
0
 11
1706.53388788735
 21
-464.5586212480599
 31
0
 12
1706.53388788735
 22
-465.3906212480599
 32
0
 13
1706.53388788735
 23
-465.3906212480599
 33
0
  0
TEXT
  8
1
 62
2
 10
1709.930032344379
 20
-462.9746212480599
 30
0
 40
3.2
  1
25
 41
0.9
  0
TEXT
  8
1
 62
2
 10
1716.330032344379
 20
-462.3346212480599
 30
0
 40
1.92
  1
%%p0.5
 41
0.9
  0
ENDBLK
  8
0
  0
BLOCK
  8
1
  2
*D21
 70
1
 10
0
 20
0
 30
0
  0
LINE
  8
1
 62
2
 10
1417.628149893582
 20
-557.07901652614
 30
0
 11
1499.32038669287
 21
-557.07901652614
 31
0
  0
LINE
  8
1
 62
2
 10
1417.628149893582
 20
-566.780312435323
 30
0
 11
1417.628149893582
 21
-555.57901652614
 31
0
  0
LINE
  8
1
 62
2
 10
1499.32038669287
 20
-565.9803124353231
 30
0
 11
1499.32038669287
 21
-555.57901652614
 31
0
  0
SOLID
  8
1
 62
2
 10
1499.32038669287
 20
-557.07901652614
 30
0
 11
1496.12038669287
 21
-557.49501652614
 31
0
 12
1496.12038669287
 22
-556.6630165261399
 32
0
 13
1496.12038669287
 23
-556.6630165261399
 33
0
  0
SOLID
  8
1
 62
2
 10
1417.628149893582
 20
-557.07901652614
 30
0
 11
1420.828149893582
 21
-556.6630165261399
 31
0
 12
1420.828149893582
 22
-557.49501652614
 32
0
 13
1420.828149893582
 23
-557.49501652614
 33
0
  0
TEXT
  8
1
 62
2
 10
1449.677955942687
 20
-554.27901652614
 30
0
 40
3.2
  1
300
 41
0.9
  0
TEXT
  8
1
 62
2
 10
1458.957955942687
 20
-552.19901652614
 30
0
 40
1.92
  1
+20
 41
0.9
  0
TEXT
  8
1
 62
2
 10
1458.957955942687
 20
-555.07901652614
 30
0
 40
1.92
  1
 0
 41
0.9
  0
ENDBLK
  8
0
  0
BLOCK
  8
1
  2
*D22
 70
1
 10
0
 20
0
 30
0
  0
LINE
  8
1
 62
2
 10
1407.628149893582
 20
-557.0500486064121
 30
0
 11
1417.628149893582
 21
-557.0500486064121
 31
0
  0
LINE
  8
1
 62
2
 10
1407.628149893582
 20
-567.1303124353232
 30
0
 11
1407.628149893582
 21
-556.0500486064121
 31
0
  0
LINE
  8
1
 62
2
 10
1417.628149893582
 20
-566.7803124353231
 30
0
 11
1417.628149893582
 21
-556.0500486064121
 31
0
  0
SOLID
  8
1
 62
2
 10
1407.628149893582
 20
-557.0500486064121
 30
0
 11
1410.828149893582
 21
-556.6340486064121
 31
0
 12
1410.828149893582
 22
-557.4660486064122
 32
0
 13
1410.828149893582
 23
-557.4660486064122
 33
0
  0
SOLID
  8
1
 62
2
 10
1417.628149893582
 20
-557.0500486064121
 30
0
 11
1414.428149893582
 21
-557.4660486064122
 31
0
 12
1414.428149893582
 22
-556.6340486064121
 32
0
 13
1414.428149893582
 23
-556.6340486064121
 33
0
  0
TEXT
  8
1
 62
2
 10
1408.452149893582
 20
-555.0500486064121
 30
0
 40
3.2
  1
10
 41
0.9
  0
TEXT
  8
1
 62
2
 10
1413.892149893582
 20
-554.5700486064121
 30
0
 40
2.24
  1
%%p3
 41
0.9
  0
ENDBLK
  8
0
  0
BLOCK
  8
1
  2
*D23
 70
1
 10
0
 20
0
 30
0
  0
LINE
  8
1
 62
2
 10
1417.628149893582
 20
-489.9330480458071
 30
0
 11
1499.32038669287
 21
-489.9330480458071
 31
0
  0
LINE
  8
1
 62
2
 10
1417.628149893582
 20
-499.6343439549898
 30
0
 11
1417.628149893582
 21
-488.4330480458071
 31
0
  0
LINE
  8
1
 62
2
 10
1499.32038669287
 20
-498.8343439549901
 30
0
 11
1499.32038669287
 21
-488.4330480458071
 31
0
  0
SOLID
  8
1
 62
2
 10
1499.32038669287
 20
-489.9330480458071
 30
0
 11
1496.12038669287
 21
-490.3490480458071
 31
0
 12
1496.12038669287
 22
-489.5170480458071
 32
0
 13
1496.12038669287
 23
-489.5170480458071
 33
0
  0
SOLID
  8
1
 62
2
 10
1417.628149893582
 20
-489.9330480458071
 30
0
 11
1420.828149893582
 21
-489.5170480458071
 31
0
 12
1420.828149893582
 22
-490.3490480458071
 32
0
 13
1420.828149893582
 23
-490.3490480458071
 33
0
  0
TEXT
  8
1
 62
2
 10
1449.677955942687
 20
-487.1330480458071
 30
0
 40
3.2
  1
300
 41
0.9
  0
TEXT
  8
1
 62
2
 10
1458.957955942687
 20
-485.0530480458071
 30
0
 40
1.92
  1
+20
 41
0.9
  0
TEXT
  8
1
 62
2
 10
1458.957955942687
 20
-487.9330480458071
 30
0
 40
1.92
  1
 0
 41
0.9
  0
ENDBLK
  8
0
  0
BLOCK
  8
1
  2
*D24
 70
1
 10
0
 20
0
 30
0
  0
LINE
  8
1
 62
2
 10
1407.628149893582
 20
-489.9040801260792
 30
0
 11
1417.628149893582
 21
-489.9040801260792
 31
0
  0
LINE
  8
1
 62
2
 10
1417.628149893582
 20
-499.6343439549902
 30
0
 11
1417.628149893582
 21
-488.9040801260792
 31
0
  0
LINE
  8
1
 62
2
 10
1407.628149893582
 20
-499.9843439549902
 30
0
 11
1407.628149893582
 21
-488.9040801260792
 31
0
  0
SOLID
  8
1
 62
2
 10
1407.628149893582
 20
-489.9040801260792
 30
0
 11
1410.828149893582
 21
-489.4880801260792
 31
0
 12
1410.828149893582
 22
-490.3200801260792
 32
0
 13
1410.828149893582
 23
-490.3200801260792
 33
0
  0
SOLID
  8
1
 62
2
 10
1417.628149893582
 20
-489.9040801260792
 30
0
 11
1414.428149893582
 21
-490.3200801260792
 31
0
 12
1414.428149893582
 22
-489.4880801260792
 32
0
 13
1414.428149893582
 23
-489.4880801260792
 33
0
  0
TEXT
  8
1
 62
2
 10
1408.452149893582
 20
-487.9040801260792
 30
0
 40
3.2
  1
10
 41
0.9
  0
TEXT
  8
1
 62
2
 10
1413.892149893582
 20
-487.4240801260792
 30
0
 40
2.24
  1
%%p3
 41
0.9
  0
ENDBLK
  8
0
  0
BLOCK
  8
1
  2
*D25
 70
1
 10
0
 20
0
 30
0
  0
LINE
  8
1
 62
2
 10
1638.143600953182
 20
-450.516962728658
 30
0
 11
1648.814973560766
 21
-443.1635428318307
 31
0
  0
LINE
  8
1
 62
2
 10
1648.814973560766
 20
-443.1635428318307
 30
0
 11
1663.49941800521
 21
-443.1635428318307
 31
0
  0
SOLID
  8
1
 62
2
 10
1638.143600953182
 20
-450.516962728658
 30
0
 11
1640.542547929661
 21
-448.3586973594226
 31
0
 12
1641.014634258893
 22
-449.0437947961074
 32
0
 13
1641.014634258893
 23
-449.0437947961074
 33
0
  0
TEXT
  8
1
 62
2
 10
1657.65941800521
 20
-441.1635428318308
 30
0
 40
3.2
  1
3.2
 41
0.9
  0
TEXT
  8
1
 62
2
 10
1654.014973560766
 20
-441.1635428318308
 30
0
 40
3.2
  1
âË
 41
0.9
  0
ENDBLK
  8
0
  0
BLOCK
  8
1
  2
*D26
 70
1
 10
0
 20
0
 30
0
  0
LINE
  8
1
 62
2
 10
1569.372124190418
 20
-400.3731131671329
 30
0
 11
1553.176306606814
 21
-386.5345666561458
 31
0
  0
LINE
  8
1
 62
2
 10
1553.176306606814
 20
-386.5345666561458
 30
0
 11
1538.49186216237
 21
-386.5345666561458
 31
0
  0
SOLID
  8
1
 62
2
 10
1569.372124190418
 20
-400.3731131671329
 30
0
 11
1566.669032847788
 21
-398.6106282187141
 31
0
 12
1567.209509368557
 22
-397.9780864173304
 32
0
 13
1567.209509368557
 23
-397.9780864173304
 33
0
  0
TEXT
  8
1
 62
2
 10
1542.136306606814
 20
-384.5345666561459
 30
0
 40
3.2
  1
3.2
 41
0.9
  0
TEXT
  8
1
 62
2
 10
1538.49186216237
 20
-384.5345666561459
 30
0
 40
3.2
  1
âË
 41
0.9
  0
ENDBLK
  8
0
  0
BLOCK
  8
1
  2
*D27
 70
1
 10
0
 20
0
 30
0
  0
LINE
  8
1
 62
2
 10
1703.897982125359
 20
-410.1200415207417
 30
0
 11
1717.302458462118
 21
-377.0922898892799
 31
0
  0
LINE
  8
1
 62
2
 10
1717.302458462118
 20
-377.0922898892799
 30
0
 11
1744.342458462118
 21
-377.0922898892799
 31
0
  0
SOLID
  8
1
 62
2
 10
1703.897982125359
 20
-410.1200415207417
 30
0
 11
1704.715919992731
 21
-406.9984980491368
 31
0
 12
1705.486846340159
 22
-407.3113823198192
 32
0
 13
1705.486846340159
 23
-407.3113823198192
 33
0
  0
TEXT
  8
1
 62
2
 10
1731.782458462118
 20
-375.0922898892799
 30
0
 40
3.2
  1
3
 41
0.9
  0
TEXT
  8
1
 62
2
 10
1722.502458462118
 20
-375.0922898892799
 30
0
 40
3.2
  1
2-M
 41
0.9
  0
TEXT
  8
1
 62
2
 10
1735.302458462118
 20
-375.0922898892799
 30
0
 40
3.2
  1
ü~0.5
 41
0.9
  0
ENDBLK
  8
0
  0
ENDSEC
  0
SECTION
  2
ENTITIES
  0
INSERT
  8
1
  2
*X0
 10
0
 20
0
 30
0
  0
INSERT
  8
1
  2
*X1
 10
0
 20
0
 30
0
  0
INSERT
  8
1
  2
*X2
 10
0
 20
0
 30
0
  0
INSERT
  8
1
  2
*X3
 10
0
 20
0
 30
0
  0
INSERT
  8
1
  2
*X4
 10
0
 20
0
 30
0
  0
INSERT
  8
1
  2
*X5
 10
0
 20
0
 30
0
  0
POINT
  8
1
 62
4
  6
DIVIDE
 10
1632.57759071977
 20
-436.0099327721154
 30
0
  0
POINT
  8
1
 62
4
  6
DIVIDE
 10
1632.57759071977
 20
-433.5099327721154
 30
0
  0
POINT
  8
1
 62
4
  6
DIVIDE
 10
1574.74880404227
 20
-437.5099327721154
 30
0
  0
POINT
  8
1
 62
4
  6
DIVIDE
 10
1574.74880404227
 20
-439.0099327721154
 30
0
  0
POINT
  8
1
 62
4
  6
DIVIDE
 10
1604.57759071977
 20
-437.5099327721154
 30
0
  0
POINT
  8
1
 62
4
  6
DIVIDE
 10
1604.57759071977
 20
-443.0099327721154
 30
0
  0
POINT
  8
1
 62
4
  6
DIVIDE
 10
1604.57759071977
 20
-442.0099327721154
 30
0
  0
POINT
  8
1
 62
4
  6
DIVIDE
 10
1574.74880404227
 20
-441.5099327721154
 30
0
  0
POINT
  8
1
 62
4
  6
DIVIDE
 10
1604.57759071977
 20
-440.0099327721154
 30
0
  0
POINT
  8
1
 62
4
  6
DIVIDE
 10
1574.74880404227
 20
-443.0099327721154
 30
0
  0
POINT
  8
1
 62
4
  6
DIVIDE
 10
1574.74880404227
 20
-442.0099327721154
 30
0
  0
POINT
  8
1
 62
4
  6
DIVIDE
 10
1574.74880404227
 20
-440.0099327721154
 30
0
  0
POINT
  8
1
 62
4
  6
DIVIDE
 10
1574.74880404227
 20
-434.0099327721154
 30
0
  0
POINT
  8
1
 62
4
  6
DIVIDE
 10
1604.57759071977
 20
-436.0099327721154
 30
0
  0
POINT
  8
1
 62
4
  6
DIVIDE
 10
1604.57759071977
 20
-433.5099327721154
 30
0
  0
POINT
  8
1
 62
4
  6
DIVIDE
 10
1574.911241579047
 20
-433.5099327721154
 30
0
  0
POINT
  8
1
 62
4
  6
DIVIDE
 10
1602.82759071977
 20
-433.5099327721154
 30
0
  0
POINT
  8
1
 62
4
  6
DIVIDE
 10
1603.70259071977
 20
-438.0099327721153
 30
0
  0
POINT
  8
1
 62
4
  6
DIVIDE
 10
1570.70259071977
 20
-401.5099327721153
 30
0
  0
POINT
  8
1
 62
4
  6
DIVIDE
 10
1597.90758971977
 20
-450.3274327721153
 30
0
  0
POINT
  8
1
 62
4
  6
DIVIDE
 10
1595.40758971977
 20
-450.3274327721153
 30
0
  0
POINT
  8
1
 62
4
  6
DIVIDE
 10
1592.90758971977
 20
-450.3274327721153
 30
0
  0
POINT
  8
1
 62
4
  6
DIVIDE
 10
1590.40758971977
 20
-450.3274327721153
 30
0
  0
POINT
  8
1
 62
4
  6
DIVIDE
 10
1587.90758971977
 20
-450.3274327721153
 30
0
  0
POINT
  8
1
 62
4
  6
DIVIDE
 10
1585.40758971977
 20
-450.3274327721153
 30
0
  0
POINT
  8
1
 62
4
  6
DIVIDE
 10
1582.90758971977
 20
-450.3274327721153
 30
0
  0
POINT
  8
1
 62
4
  6
DIVIDE
 10
1580.40758971977
 20
-450.3274327721153
 30
0
  0
POINT
  8
1
 62
4
  6
DIVIDE
 10
1577.90758971977
 20
-450.3274327721153
 30
0
  0
POINT
  8
1
 62
4
  6
DIVIDE
 10
1627.67509071977
 20
-450.3274327721153
 30
0
  0
POINT
  8
1
 62
4
  6
DIVIDE
 10
1625.17509071977
 20
-450.3274327721153
 30
0
  0
POINT
  8
1
 62
4
  6
DIVIDE
 10
1622.67509171977
 20
-450.3274327721153
 30
0
  0
POINT
  8
1
 62
4
  6
DIVIDE
 10
1625.17509071977
 20
-450.3274327721153
 30
0
  0
POINT
  8
1
 62
4
  6
DIVIDE
 10
1622.67509071977
 20
-450.3274327721153
 30
0
  0
POINT
  8
1
 62
4
  6
DIVIDE
 10
1597.90758971977
 20
-450.3274327721153
 30
0
  0
POINT
  8
1
 62
4
  6
DIVIDE
 10
1595.40758971977
 20
-450.3274327721153
 30
0
  0
POINT
  8
1
 62
4
  6
DIVIDE
 10
1595.40758971977
 20
-450.3274327721153
 30
0
  0
POINT
  8
1
 62
4
  6
DIVIDE
 10
1592.90758971977
 20
-450.3274327721153
 30
0
  0
POINT
  8
1
 62
4
  6
DIVIDE
 10
1592.90758971977
 20
-450.3274327721153
 30
0
  0
POINT
  8
1
 62
4
  6
DIVIDE
 10
1590.40758971977
 20
-450.3274327721153
 30
0
  0
POINT
  8
1
 62
4
  6
DIVIDE
 10
1590.40758971977
 20
-450.3274327721153
 30
0
  0
POINT
  8
1
 62
4
  6
DIVIDE
 10
1587.90758971977
 20
-450.3274327721153
 30
0
  0
POINT
  8
1
 62
4
  6
DIVIDE
 10
1587.90758971977
 20
-450.3274327721153
 30
0
  0
POINT
  8
1
 62
4
  6
DIVIDE
 10
1585.40758971977
 20
-450.3274327721153
 30
0
  0
POINT
  8
1
 62
4
  6
DIVIDE
 10
1585.40758971977
 20
-450.3274327721153
 30
0
  0
POINT
  8
1
 62
4
  6
DIVIDE
 10
1582.90758971977
 20
-450.3274327721153
 30
0
  0
POINT
  8
1
 62
4
  6
DIVIDE
 10
1582.90758971977
 20
-450.3274327721153
 30
0
  0
POINT
  8
1
 62
4
  6
DIVIDE
 10
1580.40758971977
 20
-450.3274327721153
 30
0
  0
POINT
  8
1
 62
4
  6
DIVIDE
 10
1580.40758971977
 20
-450.3274327721153
 30
0
  0
POINT
  8
1
 62
4
  6
DIVIDE
 10
1577.90758971977
 20
-450.3274327721153
 30
0
  0
POINT
  8
1
 62
4
  6
DIVIDE
 10
1577.90758971977
 20
-450.3274327721153
 30
0
  0
LINE
  8
1
 62
2
 10
1574.20259071977
 20
-443.3099327721152
 30
0
 11
1574.20259071977
 21
-432.7099327721153
 31
0
  0
LINE
  8
1
 62
2
 10
1574.40259071977
 20
-443.5099327721153
 30
0
 11
1603.45259071977
 21
-443.5099327721153
 31
0
  0
LINE
  8
1
 62
2
 10
1633.20259071977
 20
-432.7099327721153
 30
0
 11
1633.20259071977
 21
-443.3099327721152
 31
0
  0
LINE
  8
1
 62
2
 10
1583.446355368396
 20
-434.1722367426792
 30
0
 11
1579.660684152385
 21
-434.1722367426794
 31
0
  0
LINE
  8
1
 62
2
 10
1579.660684152385
 20
-434.1722367426794
 30
0
 11
1579.660684152385
 21
-439.9722367604116
 31
0
  0
LINE
  8
1
 62
2
 10
1579.660684152385
 20
-439.9722367604116
 30
0
 11
1583.446355368396
 21
-439.9722367604114
 31
0
  0
LINE
  8
1
 62
2
 10
1583.446355368396
 20
-439.9722367604114
 30
0
 11
1583.446355368396
 21
-439.2469288063643
 31
0
  0
LINE
  8
1
 62
2
 10
1583.446355368396
 20
-439.2469288063643
 30
0
 11
1581.152108145548
 21
-439.2469288063643
 31
0
  0
LINE
  8
1
 62
2
 10
1581.152108145548
 20
-439.2469288063643
 30
0
 11
1581.152108145548
 21
-437.2797163420391
 31
0
  0
LINE
  8
1
 62
2
 10
1581.152108145548
 20
-437.2797163420391
 30
0
 11
1583.446355368396
 21
-437.2797163420391
 31
0
  0
LINE
  8
1
 62
2
 10
1583.446355368396
 20
-437.2797163420391
 30
0
 11
1583.446355368396
 21
-436.7205349169165
 31
0
  0
LINE
  8
1
 62
2
 10
1583.446355368396
 20
-436.7205349169165
 30
0
 11
1581.152108145548
 21
-436.7205349169165
 31
0
  0
LINE
  8
1
 62
2
 10
1581.152108145548
 20
-436.7205349169165
 30
0
 11
1581.152108145548
 21
-434.8979812955529
 31
0
  0
LINE
  8
1
 62
2
 10
1581.152108145548
 20
-434.8979812955529
 30
0
 11
1583.446355368396
 21
-434.8979812955529
 31
0
  0
LINE
  8
1
 62
2
 10
1583.446355368396
 20
-434.8979812955529
 30
0
 11
1583.446355368396
 21
-434.1722367426792
 31
0
  0
LINE
  8
1
 62
2
 10
1584.207600838521
 20
-434.1722367426792
 30
0
 11
1584.207600838521
 21
-439.9722367604116
 31
0
  0
LINE
  8
1
 62
2
 10
1584.207600838521
 20
-439.9722367604116
 30
0
 11
1585.616167943175
 21
-439.9722367604116
 31
0
  0
LINE
  8
1
 62
2
 10
1585.616167943175
 20
-439.9722367604116
 30
0
 11
1585.616167943175
 21
-437.3625732305491
 31
0
  0
LINE
  8
1
 62
2
 10
1585.616167943175
 20
-437.3625732305491
 30
0
 11
1585.909653742047
 21
-437.3625732305491
 31
0
  0
LINE
  8
1
 62
2
 10
1584.207600838521
 20
-434.1722367426792
 30
0
 11
1585.616167943175
 21
-434.1722367426792
 31
0
  0
LINE
  8
1
 62
2
 10
1587.107591936338
 20
-434.1722367426792
 30
0
 11
1585.616167943175
 21
-434.1722367426792
 31
0
  0
LINE
  8
1
 62
2
 10
1585.616167943175
 20
-434.8979812955529
 30
0
 11
1586.482033771801
 21
-434.8979812955529
 31
0
  0
LINE
  8
1
 62
2
 10
1586.482033771801
 20
-436.8033918054255
 30
0
 11
1585.616167943175
 21
-436.8033918054255
 31
0
  0
LINE
  8
1
 62
2
 10
1585.616167943175
 20
-436.8033918054255
 30
0
 11
1585.616167943175
 21
-434.8979812955529
 31
0
  0
LINE
  8
1
 62
2
 10
1585.909653742047
 20
-437.3625732305491
 30
0
 11
1586.94187815932
 21
-439.9722367604114
 31
0
  0
LINE
  8
1
 62
2
 10
1587.524006454842
 20
-437.2098690536075
 30
0
 11
1588.694639898069
 21
-439.9722367604114
 31
0
  0
LINE
  8
1
 62
2
 10
1588.694639898069
 20
-439.9722367604114
 30
0
 11
1586.94187815932
 21
-439.9722367604114
 31
0
  0
LINE
  8
1
 62
2
 10
1588.796827132855
 20
-434.1722367426792
 30
0
 11
1591.430231358504
 21
-439.9722367604116
 31
0
  0
LINE
  8
1
 62
2
 10
1591.430231358504
 20
-439.9722367604116
 30
0
 11
1591.519062684209
 21
-439.9722367604116
 31
0
  0
LINE
  8
1
 62
2
 10
1591.519062684209
 20
-439.9722367604116
 30
0
 11
1593.760972385416
 21
-434.1722367426792
 31
0
  0
LINE
  8
1
 62
2
 10
1593.760972385416
 20
-434.1722367426792
 30
0
 11
1593.233958868384
 21
-434.1722367426792
 31
0
  0
LINE
  8
1
 62
2
 10
1593.233958868384
 20
-434.1722367426792
 30
0
 11
1591.965044299459
 21
-437.4442854364882
 31
0
  0
LINE
  8
1
 62
2
 10
1591.965044299459
 20
-437.4442854364882
 30
0
 11
1590.312934107029
 21
-434.1722367426792
 31
0
  0
LINE
  8
1
 62
2
 10
1588.796827132855
 20
-434.1722367426792
 30
0
 11
1590.312934107029
 21
-434.1722367426792
 31
0
  0
LINE
  8
1
 62
2
 10
1597.913322657164
 20
-434.1722367426792
 30
0
 11
1594.127651441154
 21
-434.1722367426792
 31
0
  0
LINE
  8
1
 62
2
 10
1594.127651441154
 20
-434.1722367426792
 30
0
 11
1594.127651441154
 21
-439.9722367604116
 31
0
  0
LINE
  8
1
 62
2
 10
1594.127651441154
 20
-439.9722367604116
 30
0
 11
1597.913322657164
 21
-439.9722367604116
 31
0
  0
LINE
  8
1
 62
2
 10
1597.913322657164
 20
-439.9722367604116
 30
0
 11
1597.913322657164
 21
-439.2469288063643
 31
0
  0
LINE
  8
1
 62
2
 10
1597.913322657164
 20
-439.2469288063643
 30
0
 11
1595.619075434317
 21
-439.2469288063643
 31
0
  0
LINE
  8
1
 62
2
 10
1595.619075434317
 20
-439.2469288063643
 30
0
 11
1595.619075434317
 21
-437.2797163420391
 31
0
  0
LINE
  8
1
 62
2
 10
1595.619075434317
 20
-437.2797163420391
 30
0
 11
1597.913322657164
 21
-437.2797163420391
 31
0
  0
LINE
  8
1
 62
2
 10
1597.913322657164
 20
-437.2797163420391
 30
0
 11
1597.913322657164
 21
-436.7205349169165
 31
0
  0
LINE
  8
1
 62
2
 10
1597.913322657164
 20
-436.7205349169165
 30
0
 11
1595.619075434317
 21
-436.7205349169165
 31
0
  0
LINE
  8
1
 62
2
 10
1595.619075434317
 20
-436.7205349169165
 30
0
 11
1595.619075434317
 21
-434.8979812955529
 31
0
  0
LINE
  8
1
 62
2
 10
1595.619075434317
 20
-434.8979812955529
 30
0
 11
1597.913322657164
 21
-434.8979812955529
 31
0
  0
LINE
  8
1
 62
2
 10
1597.913322657164
 20
-434.8979812955529
 30
0
 11
1597.913322657164
 21
-434.1722367426792
 31
0
  0
LINE
  8
1
 62
2
 10
1598.678079519946
 20
-434.1722367426792
 30
0
 11
1600.116439635613
 21
-437.3401851400868
 31
0
  0
LINE
  8
1
 62
2
 10
1598.99383751248
 20
-439.9722367604116
 30
0
 11
1600.367035024445
 21
-437.8921145573459
 31
0
  0
LINE
  8
1
 62
2
 10
1598.678079519946
 20
-434.1722367426792
 30
0
 11
1600.19418649412
 21
-434.1722367426792
 31
0
  0
LINE
  8
1
 62
2
 10
1600.19418649412
 20
-434.1722367426792
 30
0
 11
1600.911636415976
 21
-435.7524003647162
 31
0
  0
LINE
  8
1
 62
2
 10
1598.466823995447
 20
-439.9722367604116
 30
0
 11
1600.116439635613
 21
-437.3401851400868
 31
0
  0
LINE
  8
1
 62
2
 10
1598.466823995447
 20
-439.9722367604116
 30
0
 11
1598.99383751248
 21
-439.9722367604116
 31
0
  0
LINE
  8
1
 62
2
 10
1601.311483745596
 20
-439.9722367604116
 30
0
 11
1602.82759071977
 21
-439.9722367604116
 31
0
  0
LINE
  8
1
 62
2
 10
1601.162231804809
 20
-436.3043297819752
 30
0
 11
1602.82759071977
 21
-439.9722367604116
 31
0
  0
LINE
  8
1
 62
2
 10
1600.911636415976
 20
-435.7524003647162
 30
0
 11
1602.034443912799
 21
-434.1722367426792
 31
0
  0
LINE
  8
1
 62
2
 10
1601.162231804809
 20
-436.3043297819752
 30
0
 11
1602.561457429831
 21
-434.1722367426792
 31
0
  0
LINE
  8
1
 62
2
 10
1600.367035024445
 20
-437.8921145573459
 30
0
 11
1601.311483745596
 21
-439.9722367604116
 31
0
  0
LINE
  8
1
 62
2
 10
1575.693873266216
 20
-437.2777135619847
 30
0
 11
1577.055703735743
 21
-437.8096830107463
 31
0
  0
LINE
  8
1
 62
2
 10
1577.737231030716
 20
-435.3355486350213
 30
0
 11
1578.637361903519
 21
-434.9120733356295
 31
0
  0
LINE
  8
1
 62
2
 10
1575.685115034124
 20
-438.5172198287028
 30
0
 11
1575.003706960308
 21
-439.1341416591095
 31
0
  0
LINE
  8
1
 62
2
 10
1576.721721811044
 20
-436.0622473104108
 30
0
 11
1578.325228818097
 21
-436.8012999052892
 31
0
  0
LINE
  8
1
 62
2
 10
1602.561457429831
 20
-434.1722367426792
 30
0
 11
1602.034443912799
 21
-434.1722367426792
 31
0
  0
LINE
  8
1
 62
2
 10
1574.20259071977
 20
-432.0099327721154
 30
0
 11
1633.20259071977
 21
-432.0099327721154
 31
0
  0
LINE
  8
1
 62
2
 10
1633.20259071977
 20
-444.0099327721151
 30
0
 11
1574.20259071977
 21
-444.0099327721154
 31
0
  0
LINE
  8
1
 62
2
 10
1633.00259071977
 20
-443.5099327721153
 30
0
 11
1603.95259071977
 21
-443.5099327721153
 31
0
  0
LINE
  8
1
 62
2
 10
1603.95259071977
 20
-443.5099327721153
 30
0
 11
1603.95259071977
 21
-432.5099327721154
 31
0
  0
LINE
  8
1
 62
2
 10
1574.40259071977
 20
-432.5099327721154
 30
0
 11
1603.45259071977
 21
-432.5099327721154
 31
0
  0
LINE
  8
1
 62
2
 10
1603.45259071977
 20
-432.5099327721154
 30
0
 11
1603.45259071977
 21
-443.5099327721153
 31
0
  0
LINE
  8
1
 62
2
 10
1603.95259071977
 20
-432.5099327721154
 30
0
 11
1633.00259071977
 21
-432.5099327721154
 31
0
  0
LINE
  8
1
 62
2
 10
1629.936971875544
 20
-438.0099327721153
 30
0
 11
1618.536971875544
 21
-438.0099327721153
 31
0
  0
LINE
  8
1
 62
2
 10
1618.236971875544
 20
-438.3099327721152
 30
0
 11
1618.236971875544
 21
-441.2099327721153
 31
0
  0
LINE
  8
1
 62
2
 10
1618.536971875544
 20
-441.5099327721153
 30
0
 11
1629.936971875544
 21
-441.5099327721153
 31
0
  0
LINE
  8
1
 62
2
 10
1630.236971875544
 20
-441.2099327721153
 30
0
 11
1630.236971875544
 21
-438.3099327721152
 31
0
  0
LINE
  8
1
 62
2
 10
1633.70259071977
 20
-432.5099327721154
 30
0
 11
1633.70259071977
 21
-443.5099327721153
 31
0
  0
LINE
  8
1
 62
2
 10
1573.70259071977
 20
-432.5099327721154
 30
0
 11
1573.70259071977
 21
-443.5099327721153
 31
0
  0
LINE
  8
1
 62
3
 10
1573.50259071977
 20
-413.8099327721153
 30
0
 11
1594.70259071977
 21
-413.8099327721153
 31
0
  0
LINE
  8
1
 62
3
 10
1573.50259071977
 20
-411.8099327721153
 30
0
 11
1594.70259071977
 21
-411.8099327721153
 31
0
  0
LINE
  8
1
 62
3
 10
1573.50259071977
 20
-417.8099327721153
 30
0
 11
1597.20259071977
 21
-417.8099327721153
 31
0
  0
LINE
  8
1
 62
3
 10
1573.50259071977
 20
-415.8099327721153
 30
0
 11
1597.20259071977
 21
-415.8099327721153
 31
0
  0
LINE
  8
1
 62
3
 10
1573.50259071977
 20
-421.8099327721153
 30
0
 11
1599.70259071977
 21
-421.8099327721153
 31
0
  0
LINE
  8
1
 62
3
 10
1573.50259071977
 20
-419.8099327721153
 30
0
 11
1599.70259071977
 21
-419.8099327721153
 31
0
  0
LINE
  8
1
 62
3
 10
1573.50259071977
 20
-425.8099327721153
 30
0
 11
1602.20259071977
 21
-425.8099327721153
 31
0
  0
LINE
  8
1
 62
3
 10
1573.50259071977
 20
-423.8099327721153
 30
0
 11
1602.20259071977
 21
-423.8099327721153
 31
0
  0
LINE
  8
1
 62
3
 10
1573.50259071977
 20
-425.8099327721153
 30
0
 11
1602.20259071977
 21
-425.8099327721153
 31
0
  0
LINE
  8
1
 62
3
 10
1573.50259071977
 20
-423.8099327721153
 30
0
 11
1602.20259071977
 21
-423.8099327721153
 31
0
  0
LINE
  8
1
 62
3
 10
1573.50259071977
 20
-429.8099327721153
 30
0
 11
1604.70259071977
 21
-429.8099327721153
 31
0
  0
LINE
  8
1
 62
3
 10
1573.50259071977
 20
-427.8099327721153
 30
0
 11
1604.70259071977
 21
-427.8099327721153
 31
0
  0
LINE
  8
1
 62
1
 10
1568.318871953465
 20
-401.5099327721153
 30
0
 11
1573.210525446953
 21
-401.5099327721153
 31
0
  0
LINE
  8
1
 62
1
 10
1570.70259071977
 20
-399.0996365267598
 30
0
 11
1570.70259071977
 21
-403.9089389513338
 31
0
  0
LINE
  8
1
 62
3
 10
1602.70259071977
 20
-411.8099327721153
 30
0
 11
1633.90259071977
 21
-411.8099327721153
 31
0
  0
LINE
  8
1
 62
3
 10
1602.70259071977
 20
-413.8099327721153
 30
0
 11
1633.90259071977
 21
-413.8099327721153
 31
0
  0
LINE
  8
1
 62
3
 10
1605.20259071977
 20
-415.8099327721153
 30
0
 11
1633.90259071977
 21
-415.8099327721153
 31
0
  0
LINE
  8
1
 62
3
 10
1605.20259071977
 20
-417.8099327721153
 30
0
 11
1633.90259071977
 21
-417.8099327721153
 31
0
  0
LINE
  8
1
 62
3
 10
1607.70259071977
 20
-419.8099327721153
 30
0
 11
1633.90259071977
 21
-419.8099327721153
 31
0
  0
LINE
  8
1
 62
3
 10
1607.70259071977
 20
-421.8099327721153
 30
0
 11
1633.90259071977
 21
-421.8099327721153
 31
0
  0
LINE
  8
1
 62
3
 10
1610.20259071977
 20
-423.8099327721153
 30
0
 11
1633.90259071977
 21
-423.8099327721153
 31
0
  0
LINE
  8
1
 62
3
 10
1610.20259071977
 20
-425.8099327721153
 30
0
 11
1633.90259071977
 21
-425.8099327721153
 31
0
  0
LINE
  8
1
 62
3
 10
1612.70259071977
 20
-427.8099327721153
 30
0
 11
1633.90259071977
 21
-427.8099327721153
 31
0
  0
LINE
  8
1
 62
3
 10
1612.70259071977
 20
-429.8099327721153
 30
0
 11
1633.90259071977
 21
-429.8099327721153
 31
0
  0
LINE
  8
1
 62
7
 10
1586.70259071977
 20
-402.0099327721153
 30
0
 11
1588.90259071977
 21
-402.0099327721153
 31
0
  0
LINE
  8
1
 62
7
 10
1578.90259071977
 20
-403.8099327721152
 30
0
 11
1588.90259071977
 21
-403.8099327721152
 31
0
  0
LINE
  8
1
 62
7
 10
1580.95259071977
 20
-403.8099327721152
 30
0
 11
1586.85259071977
 21
-403.8099327721152
 31
0
  0
LINE
  8
1
 62
7
 10
1580.95259071977
 20
-403.1099327721153
 30
0
 11
1580.95259071977
 21
-403.8099327721152
 31
0
  0
LINE
  8
1
 62
7
 10
1586.85259071977
 20
-403.1099327721153
 30
0
 11
1580.95259071977
 21
-403.1099327721153
 31
0
  0
LINE
  8
1
 62
7
 10
1586.85259071977
 20
-403.8099327721152
 30
0
 11
1586.85259071977
 21
-403.1099327721153
 31
0
  0
LINE
  8
1
 62
7
 10
1582.19259071977
 20
-403.1099327721153
 30
0
 11
1585.61259071977
 21
-403.1099327721153
 31
0
  0
LINE
  8
1
 62
7
 10
1585.61259071977
 20
-403.1099327721153
 30
0
 11
1586.70259071977
 21
-403.1099327721153
 31
0
  0
LINE
  8
1
 62
7
 10
1584.26509071977
 20
-400.8986404962507
 30
0
 11
1584.26509071977
 21
-400.7236404962507
 31
0
  0
LINE
  8
1
 62
7
 10
1583.54009071977
 20
-400.8986404962507
 30
0
 11
1584.26509071977
 21
-400.8986404962507
 31
0
  0
LINE
  8
1
 62
7
 10
1583.54009071977
 20
-400.7236404962507
 30
0
 11
1583.54009071977
 21
-400.8986404962507
 31
0
  0
LINE
  8
1
 62
7
 10
1586.70259071977
 20
-403.1099327721153
 30
0
 11
1586.70259071977
 21
-401.6112150341916
 31
0
  0
LINE
  8
1
 62
7
 10
1581.10259071977
 20
-403.1099327721153
 30
0
 11
1582.19259071977
 21
-403.1099327721153
 31
0
  0
LINE
  8
1
 62
7
 10
1581.10259071977
 20
-401.6112150341916
 30
0
 11
1581.10259071977
 21
-403.1099327721153
 31
0
  0
LINE
  8
1
 62
7
 10
1578.90259071977
 20
-406.5099327721153
 30
0
 11
1578.90259071977
 21
-402.0099327721153
 31
0
  0
LINE
  8
1
 62
7
 10
1588.90259071977
 20
-406.5099327721153
 30
0
 11
1578.90259071977
 21
-406.5099327721153
 31
0
  0
LINE
  8
1
 62
7
 10
1588.90259071977
 20
-402.0099327721153
 30
0
 11
1588.90259071977
 21
-406.5099327721153
 31
0
  0
LINE
  8
1
 62
7
 10
1578.90259071977
 20
-402.0099327721153
 30
0
 11
1581.10259071977
 21
-402.0099327721153
 31
0
  0
LINE
  8
1
 62
1
 10
1603.70259071977
 20
-404.2365317375909
 30
0
 11
1603.70259071977
 21
-449.0682897716179
 31
0
  0
LINE
  8
1
 62
1
 10
1564.689146829488
 20
-426.5099327721153
 30
0
 11
1643.464950232135
 21
-426.5099327721153
 31
0
  0
LINE
  8
1
 62
1
 10
1570.70259071977
 20
-399.0996365267598
 30
0
 11
1570.70259071977
 21
-403.9089389513338
 31
0
  0
LINE
  8
1
 62
1
 10
1568.318871953465
 20
-401.5099327721153
 30
0
 11
1573.210525446953
 21
-401.5099327721153
 31
0
  0
LINE
  8
1
 62
1
 10
1570.70259071977
 20
-449.0996365267598
 30
0
 11
1570.70259071977
 21
-453.9089389513338
 31
0
  0
LINE
  8
1
 62
1
 10
1568.318871953465
 20
-451.5099327721153
 30
0
 11
1573.210525446953
 21
-451.5099327721153
 31
0
  0
LINE
  8
1
 62
1
 10
1636.70259071977
 20
-449.0996365267598
 30
0
 11
1636.70259071977
 21
-453.9089389513338
 31
0
  0
LINE
  8
1
 62
1
 10
1634.318871953465
 20
-451.5099327721153
 30
0
 11
1639.210525446953
 21
-451.5099327721153
 31
0
  0
LINE
  8
1
 62
1
 10
1636.70259071977
 20
-399.0996365267598
 30
0
 11
1636.70259071977
 21
-403.9089389513338
 31
0
  0
LINE
  8
1
 62
1
 10
1634.318871953465
 20
-401.5099327721153
 30
0
 11
1639.210525446953
 21
-401.5099327721153
 31
0
  0
LINE
  8
1
 62
3
 10
1567.50259071977
 20
-485.422978373793
 30
0
 11
1567.50259071977
 21
-484.422978373793
 31
0
  0
LINE
  8
1
 62
3
 10
1567.50259071977
 20
-484.422978373793
 30
0
 11
1639.90259071977
 21
-484.422978373793
 31
0
  0
LINE
  8
1
 62
3
 10
1639.90259071977
 20
-484.422978373793
 30
0
 11
1639.90259071977
 21
-485.422978373793
 31
0
  0
LINE
  8
1
 62
3
 10
1639.90259071977
 20
-485.422978373793
 30
0
 11
1567.50259071977
 21
-485.422978373793
 31
0
  0
LINE
  8
1
 62
3
 10
1567.50259071977
 20
-453.7099327721153
 30
0
 11
1567.50259071977
 21
-399.3099327721152
 31
0
  0
LINE
  8
1
 62
3
 10
1568.50259071977
 20
-454.7099327721153
 30
0
 11
1572.90259071977
 21
-454.7099327721153
 31
0
  0
LINE
  8
1
 62
3
 10
1639.90259071977
 20
-399.3099327721153
 30
0
 11
1639.90259071977
 21
-453.7099327721153
 31
0
  0
LINE
  8
1
 62
3
 10
1574.90259071977
 20
-446.2099327721153
 30
0
 11
1632.50259071977
 21
-446.2099327721153
 31
0
  0
LINE
  8
1
 62
3
 10
1634.50259071977
 20
-454.7099327721153
 30
0
 11
1638.90259071977
 21
-454.7099327721153
 31
0
  0
LINE
  8
1
 62
3
 10
1633.50259071977
 20
-447.2099327721153
 30
0
 11
1633.50259071977
 21
-453.7099327721153
 31
0
  0
LINE
  8
1
 62
3
 10
1573.90259071977
 20
-447.2099327721153
 30
0
 11
1573.90259071977
 21
-453.7099327721153
 31
0
  0
LINE
  8
1
 62
3
 10
1633.50259071977
 20
-399.3099327721153
 30
0
 11
1633.50259071977
 21
-405.8099327721153
 31
0
  0
LINE
  8
1
 62
3
 10
1632.50259071977
 20
-406.8099327721153
 30
0
 11
1574.90259071977
 21
-406.8099327721153
 31
0
  0
LINE
  8
1
 62
3
 10
1573.90259071977
 20
-399.3099327721153
 30
0
 11
1573.90259071977
 21
-405.8099327721153
 31
0
  0
LINE
  8
1
 62
3
 10
1638.90259071977
 20
-398.3099327721153
 30
0
 11
1634.50259071977
 21
-398.3099327721153
 31
0
  0
LINE
  8
1
 62
3
 10
1572.90259071977
 20
-398.3099327721153
 30
0
 11
1568.50259071977
 21
-398.3099327721152
 31
0
  0
LINE
  8
1
 62
3
 10
1633.50259071977
 20
-484.422978373793
 30
0
 11
1633.50259071977
 21
-485.422978373793
 31
0
  0
LINE
  8
1
 62
3
 10
1573.90259071977
 20
-484.422978373793
 30
0
 11
1573.90259071977
 21
-485.422978373793
 31
0
  0
LINE
  8
1
 62
3
 10
1689.33388788735
 20
-398.3099327721153
 30
0
 11
1689.33388788735
 21
-454.7099327721153
 31
0
  0
LINE
  8
1
 62
3
 10
1690.33388788735
 20
-398.3099327721153
 30
0
 11
1690.33388788735
 21
-454.7099327721153
 31
0
  0
LINE
  8
1
 62
3
 10
1689.33388788735
 20
-398.3099327721153
 30
0
 11
1690.33388788735
 21
-398.3099327721153
 31
0
  0
LINE
  8
1
 62
3
 10
1689.33388788735
 20
-454.7099327721153
 30
0
 11
1690.33388788735
 21
-454.7099327721153
 31
0
  0
LINE
  8
1
 62
1
 10
1564.626274509227
 20
-426.5099327721153
 30
0
 11
1642.845900916597
 21
-426.5099327721153
 31
0
  0
LINE
  8
1
 62
1
 10
1603.70259071977
 20
-402.6099327721154
 30
0
 11
1603.70259071977
 21
-449.6078068576094
 31
0
  0
LINE
  8
1
 62
3
 10
1573.20259071977
 20
-455.0099327721153
 30
0
 11
1568.20259071977
 21
-455.0099327721153
 31
0
  0
LINE
  8
1
 62
3
 10
1575.20259071977
 20
-406.5099327721153
 30
0
 11
1632.20259071977
 21
-406.5099327721153
 31
0
  0
LINE
  8
1
 62
3
 10
1574.20259071977
 20
-399.0099327721153
 30
0
 11
1574.20259071977
 21
-400.4099327721154
 31
0
  0
LINE
  8
1
 62
3
 10
1568.20259071977
 20
-398.0099327721153
 30
0
 11
1573.20259071977
 21
-398.0099327721153
 31
0
  0
LINE
  8
1
 62
3
 10
1574.20259071977
 20
-405.5099327721153
 30
0
 11
1574.20259071977
 21
-402.6099327721154
 31
0
  0
LINE
  8
1
 62
3
 10
1634.20259071977
 20
-398.0099327721153
 30
0
 11
1639.20259071977
 21
-398.0099327721153
 31
0
  0
LINE
  8
1
 62
3
 10
1633.20259071977
 20
-454.0099327721153
 30
0
 11
1633.20259071977
 21
-452.6099327721154
 31
0
  0
LINE
  8
1
 62
3
 10
1633.20259071977
 20
-447.5099327721153
 30
0
 11
1633.20259071977
 21
-450.4099327721155
 31
0
  0
LINE
  8
1
 62
3
 10
1632.20259071977
 20
-446.5099327721153
 30
0
 11
1575.20259071977
 21
-446.5099327721153
 31
0
  0
LINE
  8
1
 62
1
 10
1636.139955079546
 20
-401.5099327721153
 30
0
 11
1637.376420145625
 21
-401.5099327721153
 31
0
  0
LINE
  8
1
 62
1
 10
1636.70259071977
 20
-402.1352293123734
 30
0
 11
1636.70259071977
 21
-400.7810056685724
 31
0
  0
LINE
  8
1
 62
1
 10
1636.139955079546
 20
-451.5099327721153
 30
0
 11
1637.376420145625
 21
-451.5099327721153
 31
0
  0
LINE
  8
1
 62
1
 10
1636.70259071977
 20
-452.1352293123735
 30
0
 11
1636.70259071977
 21
-450.7810056685722
 31
0
  0
LINE
  8
1
 62
1
 10
1570.139955079546
 20
-451.5099327721153
 30
0
 11
1571.376420145625
 21
-451.5099327721153
 31
0
  0
LINE
  8
1
 62
1
 10
1570.70259071977
 20
-452.1352293123735
 30
0
 11
1570.70259071977
 21
-450.7810056685722
 31
0
  0
LINE
  8
1
 62
1
 10
1570.139955079546
 20
-401.5099327721153
 30
0
 11
1571.376420145625
 21
-401.5099327721153
 31
0
  0
LINE
  8
1
 62
1
 10
1570.70259071977
 20
-402.1352293123734
 30
0
 11
1570.70259071977
 21
-400.7810056685724
 31
0
  0
LINE
  8
1
 62
3
 10
1639.20259071977
 20
-455.0099327721153
 30
0
 11
1634.20259071977
 21
-455.0099327721153
 31
0
  0
LINE
  8
1
 62
1
 10
1637.265226359994
 20
-451.5099327721153
 30
0
 11
1636.028761293915
 21
-451.5099327721153
 31
0
  0
LINE
  8
1
 62
1
 10
1636.70259071977
 20
-450.8846362318574
 30
0
 11
1636.70259071977
 21
-452.2388598756584
 31
0
  0
LINE
  8
1
 62
3
 10
1567.20259071977
 20
-454.0099327721153
 30
0
 11
1567.20259071977
 21
-399.0099327721153
 31
0
  0
LINE
  8
1
 62
1
 10
1637.265226359994
 20
-401.5099327721153
 30
0
 11
1636.028761293915
 21
-401.5099327721153
 31
0
  0
LINE
  8
1
 62
1
 10
1636.70259071977
 20
-400.8846362318574
 30
0
 11
1636.70259071977
 21
-402.2388598756584
 31
0
  0
LINE
  8
1
 62
3
 10
1640.20259071977
 20
-399.0099327721153
 30
0
 11
1640.20259071977
 21
-454.0099327721153
 31
0
  0
LINE
  8
1
 62
3
 10
1633.20259071977
 20
-400.4099327721154
 30
0
 11
1633.20259071977
 21
-399.0099327721153
 31
0
  0
LINE
  8
1
 62
3
 10
1633.20259071977
 20
-402.6099327721154
 30
0
 11
1633.20259071977
 21
-405.5099327721153
 31
0
  0
LINE
  8
1
 62
3
 10
1574.20259071977
 20
-452.6099327721154
 30
0
 11
1574.20259071977
 21
-454.0099327721153
 31
0
  0
LINE
  8
1
 62
3
 10
1574.20259071977
 20
-450.4099327721155
 30
0
 11
1574.20259071977
 21
-447.5099327721153
 31
0
  0
LINE
  8
1
 62
3
 10
1690.33388788735
 20
-398.0099327721153
 30
0
 11
1690.33388788735
 21
-455.0099327721153
 31
0
  0
LINE
  8
1
 62
3
 10
1716.33388788735
 20
-398.0099327721153
 30
0
 11
1716.33388788735
 21
-455.0099327721153
 31
0
  0
LINE
  8
1
 62
3
 10
1690.33388788735
 20
-398.0099327721153
 30
0
 11
1716.33388788735
 21
-398.0099327721153
 31
0
  0
LINE
  8
1
 62
3
 10
1690.33388788735
 20
-455.0099327721153
 30
0
 11
1716.33388788735
 21
-455.0099327721153
 31
0
  0
LINE
  8
1
 62
1
 10
1687.579441415602
 20
-426.5099327721153
 30
0
 11
1719.150770387758
 21
-426.5099327721153
 31
0
  0
LINE
  8
1
 62
3
 10
1567.20259071977
 20
-485.422978373793
 30
0
 11
1640.20259071977
 21
-485.422978373793
 31
0
  0
LINE
  8
1
 62
3
 10
1567.20259071977
 20
-511.4229783737929
 30
0
 11
1576.40758971977
 21
-511.4229783737929
 31
0
  0
LINE
  8
1
 62
3
 10
1640.20259071977
 20
-485.422978373793
 30
0
 11
1640.20259071977
 21
-511.4229783737929
 31
0
  0
LINE
  8
1
 62
3
 10
1633.20259071977
 20
-485.422978373793
 30
0
 11
1633.20259071977
 21
-511.4229783737929
 31
0
  0
LINE
  8
1
 62
3
 10
1574.20259071977
 20
-485.422978373793
 30
0
 11
1574.20259071977
 21
-511.4229783737929
 31
0
  0
LINE
  8
1
 62
3
 10
1567.20259071977
 20
-485.422978373793
 30
0
 11
1567.20259071977
 21
-511.4229783737929
 31
0
  0
LINE
  8
1
 62
1
 10
1603.70259071977
 20
-482.53249730931
 30
0
 11
1603.70259071977
 21
-514.3876661936499
 31
0
  0
LINE
  8
1
 62
1
 10
1700.779710651505
 20
-441.5099327721153
 30
0
 11
1705.787172120361
 21
-441.5099327721153
 31
0
  0
LINE
  8
1
 62
1
 10
1701.014435407857
 20
-411.5099327721153
 30
0
 11
1705.865413705812
 21
-411.5099327721153
 31
0
  0
LINE
  8
1
 62
1
 10
1703.33388788735
 20
-409.1181672893563
 30
0
 11
1703.33388788735
 21
-413.7292154030622
 31
0
  0
LINE
  8
1
 62
1
 10
1703.33388788735
 20
-438.8447643327943
 30
0
 11
1703.33388788735
 21
-443.6957426307482
 31
0
  0
LINE
  8
1
 62
2
 10
1609.315531450686
 20
-452.0026631776159
 30
0
 11
1615.715531450686
 21
-452.0026631776159
 31
0
  0
LINE
  8
1
 62
2
 10
1612.515531450686
 20
-448.7524253952954
 30
0
 11
1612.515531450686
 21
-450.8818765429582
 31
0
  0
LINE
  8
1
 62
2
 10
1611.468232728227
 20
-449.7849347721153
 30
0
 11
1613.643314971911
 21
-449.7849347721153
 31
0
  0
LINE
  8
1
 62
2
 10
1609.315531450686
 20
-453.4849347721153
 30
0
 11
1615.715531450686
 21
-453.4849347721153
 31
0
  0
LINE
  8
1
 62
2
 10
1609.315531450686
 20
-447.0849347721153
 30
0
 11
1615.715531450686
 21
-447.0849347721153
 31
0
  0
LINE
  8
1
 62
2
 10
1615.715531450686
 20
-447.0849347721153
 30
0
 11
1615.715531450686
 21
-453.4849347721153
 31
0
  0
LINE
  8
1
 62
2
 10
1609.315531450686
 20
-447.0849347721153
 30
0
 11
1609.315531450686
 21
-453.4849347721153
 31
0
  0
LINE
  8
1
 62
7
 10
1597.946346972473
 20
-406.5099327721153
 30
0
 11
1629.246346972473
 21
-406.5099327721153
 31
0
  0
LINE
  8
1
 62
7
 10
1629.246346972473
 20
-406.5099327721153
 30
0
 11
1629.246346972473
 21
-401.5099327721154
 31
0
  0
LINE
  8
1
 62
7
 10
1629.246346972473
 20
-401.5099327721154
 30
0
 11
1626.771026406954
 21
-401.5099327721154
 31
0
  0
LINE
  8
1
 62
7
 10
1597.946346972473
 20
-406.5099327721153
 30
0
 11
1597.946346972473
 21
-401.5099327721154
 31
0
  0
LINE
  8
1
 62
7
 10
1621.796346972473
 20
-401.5099327721154
 30
0
 11
1621.796346972473
 21
-404.5099327721153
 31
0
  0
LINE
  8
1
 62
7
 10
1621.796346972473
 20
-404.5099327721153
 30
0
 11
1629.246346972473
 21
-404.5099327721153
 31
0
  0
LINE
  8
1
 62
7
 10
1605.396346972473
 20
-404.5099327721153
 30
0
 11
1605.396346972473
 21
-401.5099327721154
 31
0
  0
LINE
  8
1
 62
7
 10
1597.946346972473
 20
-404.5099327721153
 30
0
 11
1605.396346972473
 21
-404.5099327721153
 31
0
  0
LINE
  8
1
 62
7
 10
1605.396346972473
 20
-404.5099327721153
 30
0
 11
1621.796346972473
 21
-404.5099327721153
 31
0
  0
LINE
  8
1
 62
7
 10
1598.446346972473
 20
-404.5099327721153
 30
0
 11
1604.346346972473
 21
-404.5099327721153
 31
0
  0
LINE
  8
1
 62
7
 10
1598.446346972473
 20
-403.8099327721152
 30
0
 11
1598.446346972473
 21
-404.5099327721153
 31
0
  0
LINE
  8
1
 62
7
 10
1604.346346972473
 20
-403.8099327721152
 30
0
 11
1598.446346972473
 21
-403.8099327721152
 31
0
  0
LINE
  8
1
 62
7
 10
1604.346346972473
 20
-404.5099327721153
 30
0
 11
1604.346346972473
 21
-403.8099327721152
 31
0
  0
LINE
  8
1
 62
7
 10
1599.686346972473
 20
-403.8099327721152
 30
0
 11
1603.106346972473
 21
-403.8099327721152
 31
0
  0
LINE
  8
1
 62
7
 10
1603.106346972473
 20
-403.8099327721152
 30
0
 11
1604.196346972473
 21
-403.8099327721152
 31
0
  0
LINE
  8
1
 62
7
 10
1601.758846972473
 20
-401.5986404962507
 30
0
 11
1601.758846972473
 21
-401.4236404962508
 31
0
  0
LINE
  8
1
 62
7
 10
1601.033846972473
 20
-401.5986404962507
 30
0
 11
1601.758846972473
 21
-401.5986404962507
 31
0
  0
LINE
  8
1
 62
7
 10
1601.033846972473
 20
-401.4236404962508
 30
0
 11
1601.033846972473
 21
-401.5986404962507
 31
0
  0
LINE
  8
1
 62
7
 10
1604.196346972473
 20
-403.8099327721152
 30
0
 11
1604.196346972473
 21
-402.3112150341916
 31
0
  0
LINE
  8
1
 62
7
 10
1598.596346972473
 20
-403.8099327721152
 30
0
 11
1599.686346972473
 21
-403.8099327721152
 31
0
  0
LINE
  8
1
 62
7
 10
1598.596346972473
 20
-402.3112150341916
 30
0
 11
1598.596346972473
 21
-403.8099327721152
 31
0
  0
LINE
  8
1
 62
7
 10
1622.846346972473
 20
-404.5099327721153
 30
0
 11
1628.746346972473
 21
-404.5099327721153
 31
0
  0
LINE
  8
1
 62
7
 10
1622.846346972473
 20
-403.8099327721152
 30
0
 11
1622.846346972473
 21
-404.5099327721153
 31
0
  0
LINE
  8
1
 62
7
 10
1628.746346972473
 20
-403.8099327721152
 30
0
 11
1622.846346972473
 21
-403.8099327721152
 31
0
  0
LINE
  8
1
 62
7
 10
1628.746346972473
 20
-404.5099327721153
 30
0
 11
1628.746346972473
 21
-403.8099327721152
 31
0
  0
LINE
  8
1
 62
7
 10
1624.086346972473
 20
-403.8099327721152
 30
0
 11
1627.506346972473
 21
-403.8099327721152
 31
0
  0
LINE
  8
1
 62
7
 10
1627.506346972473
 20
-403.8099327721152
 30
0
 11
1628.596346972473
 21
-403.8099327721152
 31
0
  0
LINE
  8
1
 62
7
 10
1626.158846972473
 20
-401.5986404962507
 30
0
 11
1626.158846972473
 21
-401.4236404962508
 31
0
  0
LINE
  8
1
 62
7
 10
1625.433846972473
 20
-401.5986404962507
 30
0
 11
1626.158846972473
 21
-401.5986404962507
 31
0
  0
LINE
  8
1
 62
7
 10
1625.433846972473
 20
-401.4236404962508
 30
0
 11
1625.433846972473
 21
-401.5986404962507
 31
0
  0
LINE
  8
1
 62
7
 10
1628.596346972473
 20
-403.8099327721152
 30
0
 11
1628.596346972473
 21
-402.3112150341916
 31
0
  0
LINE
  8
1
 62
7
 10
1622.996346972473
 20
-403.8099327721152
 30
0
 11
1624.086346972473
 21
-403.8099327721152
 31
0
  0
LINE
  8
1
 62
7
 10
1622.996346972473
 20
-402.3112150341916
 30
0
 11
1622.996346972473
 21
-403.8099327721152
 31
0
  0
LINE
  8
1
 62
7
 10
1624.821667537992
 20
-401.5099327721154
 30
0
 11
1602.371026406955
 21
-401.5099327721154
 31
0
  0
LINE
  8
1
 62
7
 10
1600.421667537992
 20
-401.5099327721154
 30
0
 11
1597.946346972473
 21
-401.5099327721154
 31
0
  0
LINE
  8
1
 62
2
 10
1617.40259071977
 20
-447.7599317721153
 30
0
 11
1617.40259071977
 21
-452.1599337721152
 31
0
  0
LINE
  8
1
 62
2
 10
1619.10259071977
 20
-447.7599317721153
 30
0
 11
1619.10259071977
 21
-452.1599337721152
 31
0
  0
LINE
  8
1
 62
2
 10
1617.40259071977
 20
-447.7599317721153
 30
0
 11
1619.10259071977
 21
-447.7599317721153
 31
0
  0
LINE
  8
1
 62
2
 10
1617.40259071977
 20
-452.1599337721152
 30
0
 11
1619.10259071977
 21
-452.1599337721152
 31
0
  0
LINE
  8
1
 62
2
 10
1617.40259071977
 20
-449.2152415710458
 30
0
 11
1619.10259071977
 21
-449.2152415710458
 31
0
  0
LINE
  8
1
 62
2
 10
1617.40259071977
 20
-450.6820314080758
 30
0
 11
1619.10259071977
 21
-450.6820314080758
 31
0
  0
LINE
  8
1
 62
2
 10
1600.41458971977
 20
-452.4394327721152
 30
0
 11
1608.01458971977
 21
-452.4394327721152
 31
0
  0
LINE
  8
1
 62
2
 10
1606.51958871977
 20
-447.0394307721153
 30
0
 11
1606.51958871977
 21
-448.4038293243218
 31
0
  0
LINE
  8
1
 62
2
 10
1605.71958971977
 20
-447.0394307721153
 30
0
 11
1605.71958971977
 21
-448.4038293243218
 31
0
  0
LINE
  8
1
 62
2
 10
1605.71958971977
 20
-447.0394307721153
 30
0
 11
1606.51958871977
 21
-447.0394307721153
 31
0
  0
LINE
  8
1
 62
2
 10
1605.71958971977
 20
-450.4394327721152
 30
0
 11
1606.51958871977
 21
-450.4394327721152
 31
0
  0
LINE
  8
1
 62
2
 10
1605.71958971977
 20
-448.4038293243218
 30
0
 11
1606.51958871977
 21
-448.4038293243218
 31
0
  0
LINE
  8
1
 62
2
 10
1606.51958871977
 20
-448.4038293243218
 30
0
 11
1606.51958871977
 21
-450.4394327721152
 31
0
  0
LINE
  8
1
 62
2
 10
1605.71958971977
 20
-448.4038293243218
 30
0
 11
1605.71958971977
 21
-450.4394327721152
 31
0
  0
LINE
  8
1
 62
2
 10
1605.24959271977
 20
-447.0394307721153
 30
0
 11
1605.24959271977
 21
-448.4038293243218
 31
0
  0
LINE
  8
1
 62
2
 10
1604.44959371977
 20
-447.0394307721153
 30
0
 11
1604.44959371977
 21
-448.4038293243218
 31
0
  0
LINE
  8
1
 62
2
 10
1604.44959371977
 20
-447.0394307721153
 30
0
 11
1605.24959271977
 21
-447.0394307721153
 31
0
  0
LINE
  8
1
 62
2
 10
1604.44959371977
 20
-450.4394327721152
 30
0
 11
1605.24959271977
 21
-450.4394327721152
 31
0
  0
LINE
  8
1
 62
2
 10
1604.44959371977
 20
-448.4038293243218
 30
0
 11
1605.24959271977
 21
-448.4038293243218
 31
0
  0
LINE
  8
1
 62
2
 10
1605.24959271977
 20
-448.4038293243218
 30
0
 11
1605.24959271977
 21
-450.4394327721152
 31
0
  0
LINE
  8
1
 62
2
 10
1604.44959371977
 20
-448.4038293243218
 30
0
 11
1604.44959371977
 21
-450.4394327721152
 31
0
  0
LINE
  8
1
 62
2
 10
1603.97959671977
 20
-447.0394307721153
 30
0
 11
1603.97959671977
 21
-448.4038293243218
 31
0
  0
LINE
  8
1
 62
2
 10
1603.17959771977
 20
-447.0394307721153
 30
0
 11
1603.17959771977
 21
-448.4038293243218
 31
0
  0
LINE
  8
1
 62
2
 10
1603.17959771977
 20
-447.0394307721153
 30
0
 11
1603.97959671977
 21
-447.0394307721153
 31
0
  0
LINE
  8
1
 62
2
 10
1603.17959771977
 20
-450.4394327721152
 30
0
 11
1603.97959671977
 21
-450.4394327721152
 31
0
  0
LINE
  8
1
 62
2
 10
1603.17959771977
 20
-448.4038293243218
 30
0
 11
1603.97959671977
 21
-448.4038293243218
 31
0
  0
LINE
  8
1
 62
2
 10
1603.97959671977
 20
-448.4038293243218
 30
0
 11
1603.97959671977
 21
-450.4394327721152
 31
0
  0
LINE
  8
1
 62
2
 10
1603.17959771977
 20
-448.4038293243218
 30
0
 11
1603.17959771977
 21
-450.4394327721152
 31
0
  0
LINE
  8
1
 62
2
 10
1602.70960071977
 20
-447.0394307721153
 30
0
 11
1602.70960071977
 21
-448.4038293243218
 31
0
  0
LINE
  8
1
 62
2
 10
1601.90960171977
 20
-447.0394307721153
 30
0
 11
1601.90960171977
 21
-448.4038293243218
 31
0
  0
LINE
  8
1
 62
2
 10
1601.90960171977
 20
-447.0394307721153
 30
0
 11
1602.70960071977
 21
-447.0394307721153
 31
0
  0
LINE
  8
1
 62
2
 10
1601.90960171977
 20
-450.4394327721152
 30
0
 11
1602.70960071977
 21
-450.4394327721152
 31
0
  0
LINE
  8
1
 62
2
 10
1601.90960171977
 20
-448.4038293243218
 30
0
 11
1602.70960071977
 21
-448.4038293243218
 31
0
  0
LINE
  8
1
 62
2
 10
1602.70960071977
 20
-448.4038293243218
 30
0
 11
1602.70960071977
 21
-450.4394327721152
 31
0
  0
LINE
  8
1
 62
2
 10
1601.90960171977
 20
-448.4038293243218
 30
0
 11
1601.90960171977
 21
-450.4394327721152
 31
0
  0
LINE
  8
1
 62
2
 10
1608.01458971977
 20
-446.5099327721153
 30
0
 11
1608.01458971977
 21
-452.4394327721152
 31
0
  0
LINE
  8
1
 62
2
 10
1600.41458971977
 20
-446.5099327721153
 30
0
 11
1600.41458971977
 21
-452.4394327721152
 31
0
  0
LINE
  8
1
 62
2
 10
1599.40758971977
 20
-447.2574337721153
 30
0
 11
1599.40758971977
 21
-453.2574337721153
 31
0
  0
LINE
  8
1
 62
2
 10
1576.40758971977
 20
-447.2574337721153
 30
0
 11
1576.40758971977
 21
-453.2574337721153
 31
0
  0
LINE
  8
1
 62
2
 10
1576.40758971977
 20
-447.2574337721153
 30
0
 11
1599.40758971977
 21
-447.2574337721153
 31
0
  0
LINE
  8
1
 62
2
 10
1576.28258971977
 20
-448.2574337721153
 30
0
 11
1599.40758971977
 21
-448.2574337721153
 31
0
  0
LINE
  8
1
 62
2
 10
1576.40758971977
 20
-453.2574337721153
 30
0
 11
1599.40758971977
 21
-453.2574337721153
 31
0
  0
LINE
  8
1
 62
2
 10
1621.17509171977
 20
-447.2574337721153
 30
0
 11
1629.17509071977
 21
-447.2574337721153
 31
0
  0
LINE
  8
1
 62
2
 10
1621.05009171977
 20
-453.2574337721153
 30
0
 11
1629.17509071977
 21
-453.2574337721153
 31
0
  0
LINE
  8
1
 62
2
 10
1629.17509071977
 20
-447.2574337721153
 30
0
 11
1629.17509071977
 21
-453.2574337721153
 31
0
  0
LINE
  8
1
 62
2
 10
1621.17509171977
 20
-447.2574337721153
 30
0
 11
1621.17509171977
 21
-453.2574337721153
 31
0
  0
LINE
  8
1
 62
2
 10
1629.17509071977
 20
-448.2574337721153
 30
0
 11
1621.05009171977
 21
-448.2574337721153
 31
0
  0
LINE
  8
1
 62
2
 10
1629.17509071977
 20
-507.7229783737928
 30
0
 11
1629.17509071977
 21
-514.8229783737929
 31
0
  0
LINE
  8
1
 62
2
 10
1621.17509171977
 20
-507.7229783737928
 30
0
 11
1621.17509171977
 21
-514.8229783737929
 31
0
  0
LINE
  8
1
 62
2
 10
1629.17509071977
 20
-507.7229783737928
 30
0
 11
1621.17509171977
 21
-507.7229783737928
 31
0
  0
LINE
  8
1
 62
2
 10
1621.17509171977
 20
-512.7229783737928
 30
0
 11
1629.17509071977
 21
-512.7229783737928
 31
0
  0
LINE
  8
1
 62
2
 10
1621.17509171977
 20
-514.8229783737929
 30
0
 11
1629.17509071977
 21
-514.8229783737929
 31
0
  0
LINE
  8
1
 62
3
 10
1629.17509071977
 20
-511.4229783737929
 30
0
 11
1640.20259071977
 21
-511.4229783737929
 31
0
  0
LINE
  8
1
 62
2
 10
1576.40758971977
 20
-507.7229783737928
 30
0
 11
1576.40758971977
 21
-514.8229783737929
 31
0
  0
LINE
  8
1
 62
2
 10
1599.40758971977
 20
-507.7229783737928
 30
0
 11
1599.40758971977
 21
-514.8229783737929
 31
0
  0
LINE
  8
1
 62
2
 10
1599.40758971977
 20
-507.7229783737928
 30
0
 11
1576.40758971977
 21
-507.7229783737928
 31
0
  0
LINE
  8
1
 62
2
 10
1576.40758971977
 20
-512.7229783737928
 30
0
 11
1599.40758971977
 21
-512.7229783737928
 31
0
  0
LINE
  8
1
 62
2
 10
1599.40758971977
 20
-514.8229783737929
 30
0
 11
1576.40758971977
 21
-514.8229783737929
 31
0
  0
LINE
  8
1
 62
3
 10
1599.40758971977
 20
-511.4229783737929
 30
0
 11
1609.315531450686
 21
-511.4229783737929
 31
0
  0
LINE
  8
1
 62
2
 10
1627.35509071977
 20
-508.4639978564363
 30
0
 11
1627.35509071977
 21
-512.7229783737928
 31
0
  0
LINE
  8
1
 62
2
 10
1627.99509071977
 20
-508.4639978564363
 30
0
 11
1627.99509071977
 21
-512.7229783737928
 31
0
  0
LINE
  8
1
 62
2
 10
1627.35509071977
 20
-508.4639978564363
 30
0
 11
1627.99509071977
 21
-508.4639978564363
 31
0
  0
LINE
  8
1
 62
2
 10
1624.85509071977
 20
-508.4639978564363
 30
0
 11
1624.85509071977
 21
-512.7229783737928
 31
0
  0
LINE
  8
1
 62
2
 10
1625.49509071977
 20
-508.4639978564363
 30
0
 11
1625.49509071977
 21
-512.7229783737928
 31
0
  0
LINE
  8
1
 62
2
 10
1624.85509071977
 20
-508.4639978564363
 30
0
 11
1625.49509071977
 21
-508.4639978564363
 31
0
  0
LINE
  8
1
 62
2
 10
1622.35509071977
 20
-508.4639978564363
 30
0
 11
1622.35509071977
 21
-512.7229783737928
 31
0
  0
LINE
  8
1
 62
2
 10
1622.99509071977
 20
-508.4639978564363
 30
0
 11
1622.99509071977
 21
-512.7229783737928
 31
0
  0
LINE
  8
1
 62
2
 10
1622.35509071977
 20
-508.4639978564363
 30
0
 11
1622.99509071977
 21
-508.4639978564363
 31
0
  0
LINE
  8
1
 62
2
 10
1597.583960948578
 20
-508.4639978564363
 30
0
 11
1597.583960948578
 21
-512.7229783737928
 31
0
  0
LINE
  8
1
 62
2
 10
1598.223960948578
 20
-508.4639978564363
 30
0
 11
1598.223960948578
 21
-512.7229783737928
 31
0
  0
LINE
  8
1
 62
2
 10
1597.583960948578
 20
-508.4639978564363
 30
0
 11
1598.223960948578
 21
-508.4639978564363
 31
0
  0
LINE
  8
1
 62
2
 10
1595.083960948578
 20
-508.4639978564363
 30
0
 11
1595.083960948578
 21
-512.7229783737928
 31
0
  0
LINE
  8
1
 62
2
 10
1595.723960948578
 20
-508.4639978564363
 30
0
 11
1595.723960948578
 21
-512.7229783737928
 31
0
  0
LINE
  8
1
 62
2
 10
1595.083960948578
 20
-508.4639978564363
 30
0
 11
1595.723960948578
 21
-508.4639978564363
 31
0
  0
LINE
  8
1
 62
2
 10
1592.583960948578
 20
-508.4639978564363
 30
0
 11
1592.583960948578
 21
-512.7229783737928
 31
0
  0
LINE
  8
1
 62
2
 10
1593.223960948578
 20
-508.4639978564363
 30
0
 11
1593.223960948578
 21
-512.7229783737928
 31
0
  0
LINE
  8
1
 62
2
 10
1592.583960948578
 20
-508.4639978564363
 30
0
 11
1593.223960948578
 21
-508.4639978564363
 31
0
  0
LINE
  8
1
 62
2
 10
1590.083960948578
 20
-508.4639978564363
 30
0
 11
1590.083960948578
 21
-512.7229783737928
 31
0
  0
LINE
  8
1
 62
2
 10
1590.723960948578
 20
-508.4639978564363
 30
0
 11
1590.723960948578
 21
-512.7229783737928
 31
0
  0
LINE
  8
1
 62
2
 10
1590.083960948578
 20
-508.4639978564363
 30
0
 11
1590.723960948578
 21
-508.4639978564363
 31
0
  0
LINE
  8
1
 62
2
 10
1587.583960948578
 20
-508.4639978564363
 30
0
 11
1587.583960948578
 21
-512.7229783737928
 31
0
  0
LINE
  8
1
 62
2
 10
1588.223960948578
 20
-508.4639978564363
 30
0
 11
1588.223960948578
 21
-512.7229783737928
 31
0
  0
LINE
  8
1
 62
2
 10
1587.583960948578
 20
-508.4639978564363
 30
0
 11
1588.223960948578
 21
-508.4639978564363
 31
0
  0
LINE
  8
1
 62
2
 10
1585.083960948578
 20
-508.4639978564363
 30
0
 11
1585.083960948578
 21
-512.7229783737928
 31
0
  0
LINE
  8
1
 62
2
 10
1585.723960948578
 20
-508.4639978564363
 30
0
 11
1585.723960948578
 21
-512.7229783737928
 31
0
  0
LINE
  8
1
 62
2
 10
1585.083960948578
 20
-508.4639978564363
 30
0
 11
1585.723960948578
 21
-508.4639978564363
 31
0
  0
LINE
  8
1
 62
2
 10
1582.583960948578
 20
-508.4639978564363
 30
0
 11
1582.583960948578
 21
-512.7229783737928
 31
0
  0
LINE
  8
1
 62
2
 10
1583.223960948578
 20
-508.4639978564363
 30
0
 11
1583.223960948578
 21
-512.7229783737928
 31
0
  0
LINE
  8
1
 62
2
 10
1582.583960948578
 20
-508.4639978564363
 30
0
 11
1583.223960948578
 21
-508.4639978564363
 31
0
  0
LINE
  8
1
 62
2
 10
1580.083960948578
 20
-508.4639978564363
 30
0
 11
1580.083960948578
 21
-512.7229783737928
 31
0
  0
LINE
  8
1
 62
2
 10
1580.723960948578
 20
-508.4639978564363
 30
0
 11
1580.723960948578
 21
-512.7229783737928
 31
0
  0
LINE
  8
1
 62
2
 10
1580.083960948578
 20
-508.4639978564363
 30
0
 11
1580.723960948578
 21
-508.4639978564363
 31
0
  0
LINE
  8
1
 62
2
 10
1577.583960948578
 20
-508.4639978564363
 30
0
 11
1577.583960948578
 21
-512.7229783737928
 31
0
  0
LINE
  8
1
 62
2
 10
1578.223960948578
 20
-508.4639978564363
 30
0
 11
1578.223960948578
 21
-512.7229783737928
 31
0
  0
LINE
  8
1
 62
2
 10
1577.583960948578
 20
-508.4639978564363
 30
0
 11
1578.223960948578
 21
-508.4639978564363
 31
0
  0
LINE
  8
1
 62
2
 10
1617.40259071977
 20
-513.3229783737929
 30
0
 11
1617.40259071977
 21
-514.8229783737929
 31
0
  0
LINE
  8
1
 62
2
 10
1619.10259071977
 20
-513.3229783737929
 30
0
 11
1619.10259071977
 21
-514.8229783737929
 31
0
  0
LINE
  8
1
 62
2
 10
1617.40259071977
 20
-513.3229783737929
 30
0
 11
1619.10259071977
 21
-513.3229783737929
 31
0
  0
LINE
  8
1
 62
2
 10
1617.40259071977
 20
-514.8229783737929
 30
0
 11
1619.10259071977
 21
-514.8229783737929
 31
0
  0
LINE
  8
1
 62
2
 10
1617.40259071977
 20
-513.872377079975
 30
0
 11
1619.10259071977
 21
-513.872377079975
 31
0
  0
LINE
  8
1
 62
2
 10
1608.01458971977
 20
-512.3229783737929
 30
0
 11
1608.01458971977
 21
-514.8229783737929
 31
0
  0
LINE
  8
1
 62
2
 10
1600.41458971977
 20
-512.3229783737929
 30
0
 11
1600.41458971977
 21
-514.8229783737929
 31
0
  0
LINE
  8
1
 62
2
 10
1600.41458971977
 20
-512.3229783737929
 30
0
 11
1608.01458971977
 21
-512.3229783737929
 31
0
  0
LINE
  8
1
 62
2
 10
1600.41458971977
 20
-514.8229783737929
 30
0
 11
1608.01458971977
 21
-514.8229783737929
 31
0
  0
LINE
  8
1
 62
2
 10
1615.715531450686
 20
-509.1229783737929
 30
0
 11
1615.715531450686
 21
-514.8229783737929
 31
0
  0
LINE
  8
1
 62
2
 10
1609.315531450686
 20
-509.1229783737929
 30
0
 11
1609.315531450686
 21
-514.8229783737929
 31
0
  0
LINE
  8
1
 62
2
 10
1609.315531450686
 20
-509.1229783737929
 30
0
 11
1615.715531450686
 21
-509.1229783737929
 31
0
  0
LINE
  8
1
 62
2
 10
1609.315531450686
 20
-514.8229783737929
 30
0
 11
1615.715531450686
 21
-514.8229783737929
 31
0
  0
LINE
  8
1
 62
3
 10
1615.715531450686
 20
-511.4229783737929
 30
0
 11
1621.17509171977
 21
-511.4229783737929
 31
0
  0
LINE
  8
1
 62
2
 10
1609.315531450686
 20
-509.8869983532871
 30
0
 11
1615.715531450686
 21
-509.8869983532871
 31
0
  0
LINE
  8
1
 62
3
 10
1723.33388788735
 20
-399.7999327721152
 30
0
 11
1723.33388788735
 21
-403.2199327721153
 31
0
  0
LINE
  8
1
 62
3
 10
1723.33388788735
 20
-403.2199327721153
 30
0
 11
1723.33388788735
 21
-404.3099327721152
 31
0
  0
LINE
  8
1
 62
3
 10
1725.545180163215
 20
-401.8724327721152
 30
0
 11
1725.720180163214
 21
-401.8724327721152
 31
0
  0
LINE
  8
1
 62
3
 10
1725.545180163215
 20
-401.1474327721152
 30
0
 11
1725.545180163215
 21
-401.8724327721152
 31
0
  0
LINE
  8
1
 62
3
 10
1725.720180163214
 20
-401.1474327721152
 30
0
 11
1725.545180163215
 21
-401.1474327721152
 31
0
  0
LINE
  8
1
 62
3
 10
1723.33388788735
 20
-404.3099327721152
 30
0
 11
1724.832605625274
 21
-404.3099327721152
 31
0
  0
LINE
  8
1
 62
3
 10
1723.33388788735
 20
-398.7099327721152
 30
0
 11
1723.33388788735
 21
-399.7999327721152
 31
0
  0
LINE
  8
1
 62
3
 10
1724.832605625274
 20
-398.7099327721152
 30
0
 11
1723.33388788735
 21
-398.7099327721152
 31
0
  0
LINE
  8
1
 62
1
 10
1730.83388788735
 20
-401.5099327721153
 30
0
 11
1718.296324850352
 21
-401.5099327721153
 31
0
  0
LINE
  8
1
 62
3
 10
1689.33388788735
 20
-403.2199327721153
 30
0
 11
1689.33388788735
 21
-399.7999327721153
 31
0
  0
LINE
  8
1
 62
3
 10
1689.33388788735
 20
-399.7999327721153
 30
0
 11
1689.33388788735
 21
-398.7099327721153
 31
0
  0
LINE
  8
1
 62
3
 10
1687.122595611486
 20
-401.1474327721153
 30
0
 11
1686.947595611486
 21
-401.1474327721153
 31
0
  0
LINE
  8
1
 62
3
 10
1687.122595611486
 20
-401.8724327721153
 30
0
 11
1687.122595611486
 21
-401.1474327721153
 31
0
  0
LINE
  8
1
 62
3
 10
1686.947595611486
 20
-401.8724327721153
 30
0
 11
1687.122595611486
 21
-401.8724327721153
 31
0
  0
LINE
  8
1
 62
3
 10
1689.33388788735
 20
-398.7099327721153
 30
0
 11
1687.835170149427
 21
-398.7099327721153
 31
0
  0
LINE
  8
1
 62
3
 10
1689.33388788735
 20
-404.3099327721153
 30
0
 11
1689.33388788735
 21
-403.2199327721153
 31
0
  0
LINE
  8
1
 62
3
 10
1687.835170149427
 20
-404.3099327721153
 30
0
 11
1689.33388788735
 21
-404.3099327721153
 31
0
  0
LINE
  8
1
 62
1
 10
1681.83388788735
 20
-401.5099327721153
 30
0
 11
1694.371450924348
 21
-401.5099327721153
 31
0
  0
LINE
  8
1
 62
3
 10
1689.33388788735
 20
-453.2199327721153
 30
0
 11
1689.33388788735
 21
-449.7999327721153
 31
0
  0
LINE
  8
1
 62
3
 10
1689.33388788735
 20
-449.7999327721153
 30
0
 11
1689.33388788735
 21
-448.7099327721153
 31
0
  0
LINE
  8
1
 62
3
 10
1687.122595611486
 20
-451.1474327721153
 30
0
 11
1686.947595611486
 21
-451.1474327721153
 31
0
  0
LINE
  8
1
 62
3
 10
1687.122595611486
 20
-451.8724327721153
 30
0
 11
1687.122595611486
 21
-451.1474327721153
 31
0
  0
LINE
  8
1
 62
3
 10
1686.947595611486
 20
-451.8724327721153
 30
0
 11
1687.122595611486
 21
-451.8724327721153
 31
0
  0
LINE
  8
1
 62
3
 10
1689.33388788735
 20
-448.7099327721153
 30
0
 11
1687.835170149427
 21
-448.7099327721153
 31
0
  0
LINE
  8
1
 62
3
 10
1689.33388788735
 20
-454.3099327721153
 30
0
 11
1689.33388788735
 21
-453.2199327721153
 31
0
  0
LINE
  8
1
 62
3
 10
1687.835170149427
 20
-454.3099327721153
 30
0
 11
1689.33388788735
 21
-454.3099327721153
 31
0
  0
LINE
  8
1
 62
1
 10
1681.83388788735
 20
-451.5099327721153
 30
0
 11
1694.371450924348
 21
-451.5099327721153
 31
0
  0
LINE
  8
1
 62
3
 10
1634.99259071977
 20
-484.422978373793
 30
0
 11
1638.41259071977
 21
-484.422978373793
 31
0
  0
LINE
  8
1
 62
3
 10
1638.41259071977
 20
-484.422978373793
 30
0
 11
1639.50259071977
 21
-484.422978373793
 31
0
  0
LINE
  8
1
 62
3
 10
1637.06509071977
 20
-482.2116860979285
 30
0
 11
1637.06509071977
 21
-482.0366860979284
 31
0
  0
LINE
  8
1
 62
3
 10
1636.34009071977
 20
-482.2116860979285
 30
0
 11
1637.06509071977
 21
-482.2116860979285
 31
0
  0
LINE
  8
1
 62
3
 10
1636.34009071977
 20
-482.0366860979284
 30
0
 11
1636.34009071977
 21
-482.2116860979285
 31
0
  0
LINE
  8
1
 62
3
 10
1639.50259071977
 20
-484.422978373793
 30
0
 11
1639.50259071977
 21
-482.9242606358694
 31
0
  0
LINE
  8
1
 62
3
 10
1633.90259071977
 20
-484.422978373793
 30
0
 11
1634.99259071977
 21
-484.422978373793
 31
0
  0
LINE
  8
1
 62
3
 10
1633.90259071977
 20
-482.9242606358694
 30
0
 11
1633.90259071977
 21
-484.422978373793
 31
0
  0
LINE
  8
1
 62
1
 10
1636.70259071977
 20
-476.922978373793
 30
0
 11
1636.70259071977
 21
-489.4605414107909
 31
0
  0
LINE
  8
1
 62
3
 10
1568.99259071977
 20
-484.422978373793
 30
0
 11
1572.41259071977
 21
-484.422978373793
 31
0
  0
LINE
  8
1
 62
3
 10
1572.41259071977
 20
-484.422978373793
 30
0
 11
1573.50259071977
 21
-484.422978373793
 31
0
  0
LINE
  8
1
 62
3
 10
1571.06509071977
 20
-482.2116860979285
 30
0
 11
1571.06509071977
 21
-482.0366860979284
 31
0
  0
LINE
  8
1
 62
3
 10
1570.34009071977
 20
-482.2116860979285
 30
0
 11
1571.06509071977
 21
-482.2116860979285
 31
0
  0
LINE
  8
1
 62
3
 10
1570.34009071977
 20
-482.0366860979284
 30
0
 11
1570.34009071977
 21
-482.2116860979285
 31
0
  0
LINE
  8
1
 62
3
 10
1573.50259071977
 20
-484.422978373793
 30
0
 11
1573.50259071977
 21
-482.9242606358694
 31
0
  0
LINE
  8
1
 62
3
 10
1567.90259071977
 20
-484.422978373793
 30
0
 11
1568.99259071977
 21
-484.422978373793
 31
0
  0
LINE
  8
1
 62
3
 10
1567.90259071977
 20
-482.9242606358694
 30
0
 11
1567.90259071977
 21
-484.422978373793
 31
0
  0
LINE
  8
1
 62
1
 10
1570.70259071977
 20
-476.922978373793
 30
0
 11
1570.70259071977
 21
-489.4605414107909
 31
0
  0
LINE
  8
1
 62
3
 10
1572.41259071977
 20
-518.4229783737928
 30
0
 11
1568.99259071977
 21
-518.4229783737928
 31
0
  0
LINE
  8
1
 62
3
 10
1568.99259071977
 20
-518.4229783737928
 30
0
 11
1567.90259071977
 21
-518.4229783737928
 31
0
  0
LINE
  8
1
 62
3
 10
1570.34009071977
 20
-520.6342706496573
 30
0
 11
1570.34009071977
 21
-520.8092706496575
 31
0
  0
LINE
  8
1
 62
3
 10
1571.06509071977
 20
-520.6342706496573
 30
0
 11
1570.34009071977
 21
-520.6342706496573
 31
0
  0
LINE
  8
1
 62
3
 10
1571.06509071977
 20
-520.8092706496575
 30
0
 11
1571.06509071977
 21
-520.6342706496573
 31
0
  0
LINE
  8
1
 62
3
 10
1567.90259071977
 20
-518.4229783737928
 30
0
 11
1567.90259071977
 21
-519.9216961117165
 31
0
  0
LINE
  8
1
 62
3
 10
1573.50259071977
 20
-518.4229783737928
 30
0
 11
1572.41259071977
 21
-518.4229783737928
 31
0
  0
LINE
  8
1
 62
3
 10
1573.50259071977
 20
-519.9216961117165
 30
0
 11
1573.50259071977
 21
-518.4229783737928
 31
0
  0
LINE
  8
1
 62
3
 10
1574.00259071977
 20
-516.4229783737928
 30
0
 11
1633.40259071977
 21
-516.4229783737928
 31
0
  0
LINE
  8
1
 62
3
 10
1574.00259071977
 20
-514.8229783737929
 30
0
 11
1633.40259071977
 21
-514.8229783737929
 31
0
  0
LINE
  8
1
 62
3
 10
1567.60259071977
 20
-514.8229783737929
 30
0
 11
1567.60259071977
 21
-516.4229783737928
 31
0
  0
LINE
  8
1
 62
3
 10
1574.156529921187
 20
-454.3099327721153
 30
0
 11
1574.60259071977
 21
-454.3099327721153
 31
0
  0
LINE
  8
1
 62
3
 10
1574.60259071977
 20
-454.3099327721153
 30
0
 11
1633.20259071977
 21
-454.3099327721153
 31
0
  0
LINE
  8
1
 62
3
 10
1574.50259071977
 20
-398.7099327721154
 30
0
 11
1633.248651518353
 21
-398.7099327721153
 31
0
  0
LINE
  8
1
 62
1
 10
1603.70259071977
 20
-389.8282541641315
 30
0
 11
1603.70259071977
 21
-463.5969337956568
 31
0
  0
LINE
  8
1
 62
1
 10
1563.841764589436
 20
-426.5099327721153
 30
0
 11
1648.946705356413
 21
-426.5099327721153
 31
0
  0
LINE
  8
1
 62
1
 10
1570.70259071977
 20
-509.7180610861011
 30
0
 11
1570.70259071977
 21
-524.8219502914908
 31
0
  0
LINE
  8
1
 62
3
 10
1567.40259071977
 20
-511.4229783737929
 30
0
 11
1567.40259071977
 21
-514.8229783737929
 31
0
  0
LINE
  8
1
 62
3
 10
1574.00259071977
 20
-511.4229783737929
 30
0
 11
1574.00259071977
 21
-514.8229783737929
 31
0
  0
LINE
  8
1
 62
3
 10
1569.70259071977
 20
-514.8229783737929
 30
0
 11
1567.40259071977
 21
-514.8229783737929
 31
0
  0
LINE
  8
1
 62
3
 10
1571.70259071977
 20
-514.8229783737929
 30
0
 11
1574.00259071977
 21
-514.8229783737929
 31
0
  0
LINE
  8
1
 62
3
 10
1571.70259071977
 20
-516.4229783737928
 30
0
 11
1574.00259071977
 21
-516.4229783737928
 31
0
  0
LINE
  8
1
 62
3
 10
1569.70259071977
 20
-514.8229783737929
 30
0
 11
1569.70259071977
 21
-516.4229783737928
 31
0
  0
LINE
  8
1
 62
3
 10
1571.70259071977
 20
-514.8229783737929
 30
0
 11
1571.70259071977
 21
-516.4229783737928
 31
0
  0
LINE
  8
1
 62
3
 10
1567.40259071977
 20
-511.4229783737929
 30
0
 11
1574.00259071977
 21
-511.4229783737929
 31
0
  0
LINE
  8
1
 62
3
 10
1567.40259071977
 20
-523.4229783737928
 30
0
 11
1574.00259071977
 21
-523.4229783737928
 31
0
  0
LINE
  8
1
 62
3
 10
1567.40259071977
 20
-518.4229783737928
 30
0
 11
1574.00259071977
 21
-518.4229783737928
 31
0
  0
LINE
  8
1
 62
3
 10
1567.40259071977
 20
-516.4229783737928
 30
0
 11
1569.70259071977
 21
-516.4229783737928
 31
0
  0
LINE
  8
1
 62
3
 10
1574.00259071977
 20
-516.4229783737928
 30
0
 11
1574.00259071977
 21
-518.4229783737928
 31
0
  0
LINE
  8
1
 62
3
 10
1567.40259071977
 20
-516.4229783737928
 30
0
 11
1567.40259071977
 21
-518.4229783737928
 31
0
  0
LINE
  8
1
 62
3
 10
1574.00259071977
 20
-518.4229783737928
 30
0
 11
1574.00259071977
 21
-523.4229783737928
 31
0
  0
LINE
  8
1
 62
3
 10
1567.40259071977
 20
-518.4229783737928
 30
0
 11
1567.40259071977
 21
-523.4229783737928
 31
0
  0
LINE
  8
1
 62
1
 10
1636.70259071977
 20
-508.7346161712169
 30
0
 11
1636.70259071977
 21
-526.8597175944619
 31
0
  0
LINE
  8
1
 62
3
 10
1633.40259071977
 20
-523.4229783737928
 30
0
 11
1640.00259071977
 21
-523.4229783737928
 31
0
  0
LINE
  8
1
 62
3
 10
1633.40259071977
 20
-511.4229783737929
 30
0
 11
1640.00259071977
 21
-511.4229783737929
 31
0
  0
LINE
  8
1
 62
3
 10
1633.40259071977
 20
-511.4229783737929
 30
0
 11
1633.40259071977
 21
-523.4229783737928
 31
0
  0
LINE
  8
1
 62
3
 10
1640.00259071977
 20
-511.4229783737929
 30
0
 11
1640.00259071977
 21
-523.4229783737928
 31
0
  0
LINE
  8
1
 62
3
 10
1719.88388788735
 20
-398.3513372544188
 30
0
 11
1721.18388788735
 21
-398.3513372544188
 31
0
  0
LINE
  8
1
 62
3
 10
1721.38388788735
 20
-398.1513372544189
 30
0
 11
1719.68388788735
 21
-398.1513372544189
 31
0
  0
LINE
  8
1
 62
3
 10
1719.73388788735
 20
-398.5099327721151
 30
0
 11
1719.73388788735
 21
-398.5013372544188
 31
0
  0
LINE
  8
1
 62
3
 10
1719.53388788735
 20
-398.509932772115
 30
0
 11
1719.53388788735
 21
-398.3013372544189
 31
0
  0
LINE
  8
1
 62
3
 10
1719.73388788735
 20
-446.5099327721151
 30
0
 11
1716.33388788735
 21
-446.5099327721153
 31
0
  0
LINE
  8
1
 62
3
 10
1719.73388788735
 20
-398.7099327721153
 30
0
 11
1721.33388788735
 21
-398.7099327721153
 31
0
  0
LINE
  8
1
 62
3
 10
1719.73388788735
 20
-398.7099327721153
 30
0
 11
1719.73388788735
 21
-446.5099327721151
 31
0
  0
LINE
  8
1
 62
1
 10
1715.730172330169
 20
-401.5099327721153
 30
0
 11
1720.442013215388
 21
-401.5099327721153
 31
0
  0
LINE
  8
1
 62
3
 10
1721.53388788735
 20
-398.5099327721151
 30
0
 11
1721.53388788735
 21
-398.3013372544189
 31
0
  0
LINE
  8
1
 62
1
 10
1728.92347860324
 20
-451.5099327721153
 30
0
 11
1715.629818187302
 21
-451.5099327721153
 31
0
  0
LINE
  8
1
 62
1
 10
1724.457988368321
 20
-401.5099327721153
 30
0
 11
1715.352967101781
 21
-401.5099327721153
 31
0
  0
LINE
  8
1
 62
3
 10
1716.33388788735
 20
-448.3099327721152
 30
0
 11
1716.33388788735
 21
-454.5099327721153
 31
0
  0
LINE
  8
1
 62
3
 10
1721.33388788735
 20
-448.3099327721152
 30
0
 11
1716.33388788735
 21
-448.3099327721152
 31
0
  0
LINE
  8
1
 62
3
 10
1721.33388788735
 20
-446.5099327721153
 30
0
 11
1721.33388788735
 21
-448.3099327721152
 31
0
  0
LINE
  8
1
 62
3
 10
1719.53388788735
 20
-398.509932772115
 30
0
 11
1716.33388788735
 21
-398.5099327721151
 31
0
  0
LINE
  8
1
 62
3
 10
1719.73388788735
 20
-405.2099327721152
 30
0
 11
1719.73388788735
 21
-398.5099327721151
 31
0
  0
LINE
  8
1
 62
3
 10
1716.33388788735
 20
-398.5099327721151
 30
0
 11
1716.33388788735
 21
-405.2099327721152
 31
0
  0
LINE
  8
1
 62
3
 10
1716.33388788735
 20
-405.2099327721152
 30
0
 11
1719.73388788735
 21
-405.2099327721152
 31
0
  0
LINE
  8
1
 62
3
 10
1721.33388788735
 20
-398.5099327721151
 30
0
 11
1721.33388788735
 21
-398.5013372544188
 31
0
  0
LINE
  8
1
 62
3
 10
1721.33388788735
 20
-398.5099327721151
 30
0
 11
1721.33388788735
 21
-446.5099327721153
 31
0
  0
LINE
  8
1
 62
3
 10
1728.33388788735
 20
-454.5099327721153
 30
0
 11
1728.33388788735
 21
-448.3099327721152
 31
0
  0
LINE
  8
1
 62
3
 10
1716.33388788735
 20
-454.5099327721153
 30
0
 11
1728.33388788735
 21
-454.5099327721153
 31
0
  0
LINE
  8
1
 62
3
 10
1728.33388788735
 20
-448.3099327721152
 30
0
 11
1725.33388788735
 21
-448.3099327721152
 31
0
  0
LINE
  8
1
 62
3
 10
1721.33388788735
 20
-446.5099327721153
 30
0
 11
1719.73388788735
 21
-446.5099327721151
 31
0
  0
LINE
  8
1
 62
3
 10
1725.33388788735
 20
-410.7099327721153
 30
0
 11
1725.33388788735
 21
-448.3099327721152
 31
0
  0
LINE
  8
1
 62
3
 10
1723.33388788735
 20
-398.5099327721151
 30
0
 11
1721.53388788735
 21
-398.5099327721151
 31
0
  0
LINE
  8
1
 62
3
 10
1723.33388788735
 20
-405.7099327721153
 30
0
 11
1723.33388788735
 21
-398.5099327721151
 31
0
  0
LINE
  8
1
 62
3
 10
1723.33388788735
 20
-405.7099327721153
 30
0
 11
1728.33388788735
 21
-405.7099327721153
 31
0
  0
LINE
  8
1
 62
3
 10
1728.33388788735
 20
-410.7099327721153
 30
0
 11
1725.33388788735
 21
-410.7099327721153
 31
0
  0
LINE
  8
1
 62
3
 10
1728.33388788735
 20
-405.7099327721153
 30
0
 11
1728.33388788735
 21
-410.7099327721153
 31
0
  0
LINE
  8
1
 62
3
 10
1635.972857530298
 20
-400.2569405645648
 30
0
 11
1636.58389690145
 21
-400.8679799357174
 31
0
  0
LINE
  8
1
 62
3
 10
1637.432323909243
 20
-400.2569405645648
 30
0
 11
1636.82128453809
 21
-400.8679799357174
 31
0
  0
LINE
  8
1
 62
3
 10
1635.44959851222
 20
-402.2396659615878
 30
0
 11
1636.060637883372
 21
-401.6286265904352
 31
0
  0
LINE
  8
1
 62
3
 10
1635.44959851222
 20
-400.7801995826427
 30
0
 11
1636.060637883372
 21
-401.3912389537953
 31
0
  0
LINE
  8
1
 62
3
 10
1636.82128453809
 20
-402.1518856085131
 30
0
 11
1636.82741948791
 21
-402.158020558333
 31
0
  0
LINE
  8
1
 62
3
 10
1636.82741948791
 20
-402.158020558333
 30
0
 11
1637.432323909243
 21
-402.7629249796658
 31
0
  0
LINE
  8
1
 62
3
 10
1635.972857530298
 20
-402.7629249796658
 30
0
 11
1636.58389690145
 21
-402.1518856085131
 31
0
  0
LINE
  8
1
 62
3
 10
1637.955582927321
 20
-400.7801995826427
 30
0
 11
1637.344543556168
 21
-401.3912389537953
 31
0
  0
LINE
  8
1
 62
3
 10
1637.955582927321
 20
-402.2396659615878
 30
0
 11
1637.344543556168
 21
-401.6286265904352
 31
0
  0
LINE
  8
1
 62
3
 10
1569.972857530298
 20
-450.2569405645648
 30
0
 11
1570.58389690145
 21
-450.8679799357174
 31
0
  0
LINE
  8
1
 62
3
 10
1571.432323909242
 20
-450.2569405645648
 30
0
 11
1570.82128453809
 21
-450.8679799357174
 31
0
  0
LINE
  8
1
 62
3
 10
1569.44959851222
 20
-452.2396659615878
 30
0
 11
1570.060637883372
 21
-451.6286265904352
 31
0
  0
LINE
  8
1
 62
3
 10
1569.44959851222
 20
-450.7801995826427
 30
0
 11
1570.060637883372
 21
-451.3912389537953
 31
0
  0
LINE
  8
1
 62
3
 10
1570.82128453809
 20
-452.1518856085131
 30
0
 11
1570.82741948791
 21
-452.158020558333
 31
0
  0
LINE
  8
1
 62
3
 10
1570.82741948791
 20
-452.158020558333
 30
0
 11
1571.432323909242
 21
-452.7629249796658
 31
0
  0
LINE
  8
1
 62
3
 10
1569.972857530298
 20
-452.7629249796658
 30
0
 11
1570.58389690145
 21
-452.1518856085131
 31
0
  0
LINE
  8
1
 62
3
 10
1571.955582927321
 20
-450.7801995826427
 30
0
 11
1571.344543556168
 21
-451.3912389537953
 31
0
  0
LINE
  8
1
 62
3
 10
1571.955582927321
 20
-452.2396659615878
 30
0
 11
1571.344543556168
 21
-451.6286265904352
 31
0
  0
LINE
  8
1
 62
3
 10
1728.33388788735
 20
-398.4099327721152
 30
0
 11
1721.53388788735
 21
-398.4099327721152
 31
0
  0
LINE
  8
1
 62
3
 10
1719.53388788735
 20
-398.4099327721152
 30
0
 11
1716.33388788735
 21
-398.4099327721152
 31
0
  0
LINE
  8
1
 62
3
 10
1728.33388788735
 20
-404.6099327721153
 30
0
 11
1723.33388788735
 21
-404.6099327721153
 31
0
  0
LINE
  8
1
 62
3
 10
1728.33388788735
 20
-398.4099327721152
 30
0
 11
1728.33388788735
 21
-404.6099327721153
 31
0
  0
LINE
  8
1
 62
3
 10
1522.169722397998
 20
-454.7099327721153
 30
0
 11
1522.169722397998
 21
-398.3099327721153
 31
0
  0
LINE
  8
1
 62
3
 10
1521.169722397998
 20
-454.7099327721153
 30
0
 11
1521.169722397998
 21
-398.3099327721153
 31
0
  0
LINE
  8
1
 62
3
 10
1521.169722397998
 20
-398.3099327721153
 30
0
 11
1522.169722397998
 21
-398.3099327721153
 31
0
  0
LINE
  8
1
 62
3
 10
1521.169722397998
 20
-454.7099327721153
 30
0
 11
1522.169722397998
 21
-454.7099327721153
 31
0
  0
LINE
  8
1
 62
3
 10
1521.169722397998
 20
-455.0099327721153
 30
0
 11
1521.169722397998
 21
-398.0099327721153
 31
0
  0
LINE
  8
1
 62
3
 10
1495.169722397998
 20
-455.0099327721153
 30
0
 11
1495.169722397998
 21
-398.0099327721153
 31
0
  0
LINE
  8
1
 62
3
 10
1495.169722397998
 20
-398.0099327721153
 30
0
 11
1521.169722397998
 21
-398.0099327721153
 31
0
  0
LINE
  8
1
 62
3
 10
1495.169722397998
 20
-455.0099327721153
 30
0
 11
1521.169722397998
 21
-455.0099327721153
 31
0
  0
LINE
  8
1
 62
1
 10
1492.352839897591
 20
-426.5099327721153
 30
0
 11
1523.924168869747
 21
-426.5099327721153
 31
0
  0
LINE
  8
1
 62
3
 10
1488.169722397998
 20
-453.2199327721153
 30
0
 11
1488.169722397998
 21
-449.7999327721152
 31
0
  0
LINE
  8
1
 62
3
 10
1488.169722397998
 20
-449.7999327721152
 30
0
 11
1488.169722397998
 21
-448.7099327721153
 31
0
  0
LINE
  8
1
 62
3
 10
1485.958430122134
 20
-451.1474327721153
 30
0
 11
1485.783430122134
 21
-451.1474327721153
 31
0
  0
LINE
  8
1
 62
3
 10
1485.958430122134
 20
-451.8724327721153
 30
0
 11
1485.958430122134
 21
-451.1474327721153
 31
0
  0
LINE
  8
1
 62
3
 10
1485.783430122134
 20
-451.8724327721153
 30
0
 11
1485.958430122134
 21
-451.8724327721153
 31
0
  0
LINE
  8
1
 62
3
 10
1488.169722397998
 20
-448.7099327721153
 30
0
 11
1486.671004660075
 21
-448.7099327721153
 31
0
  0
LINE
  8
1
 62
3
 10
1488.169722397998
 20
-454.3099327721153
 30
0
 11
1488.169722397998
 21
-453.2199327721153
 31
0
  0
LINE
  8
1
 62
3
 10
1486.671004660075
 20
-454.3099327721153
 30
0
 11
1488.169722397998
 21
-454.3099327721153
 31
0
  0
LINE
  8
1
 62
1
 10
1480.669722397998
 20
-451.5099327721153
 30
0
 11
1493.207285434996
 21
-451.5099327721153
 31
0
  0
LINE
  8
1
 62
3
 10
1522.169722397998
 20
-399.7999327721153
 30
0
 11
1522.169722397998
 21
-403.2199327721153
 31
0
  0
LINE
  8
1
 62
3
 10
1522.169722397998
 20
-398.7099327721153
 30
0
 11
1522.169722397998
 21
-399.7999327721153
 31
0
  0
LINE
  8
1
 62
3
 10
1524.556014673863
 20
-401.1474327721153
 30
0
 11
1524.381014673863
 21
-401.1474327721153
 31
0
  0
LINE
  8
1
 62
3
 10
1524.381014673863
 20
-401.1474327721153
 30
0
 11
1524.381014673863
 21
-401.8724327721153
 31
0
  0
LINE
  8
1
 62
3
 10
1524.381014673863
 20
-401.8724327721153
 30
0
 11
1524.556014673863
 21
-401.8724327721153
 31
0
  0
LINE
  8
1
 62
3
 10
1523.668440135922
 20
-398.7099327721153
 30
0
 11
1522.169722397998
 21
-398.7099327721153
 31
0
  0
LINE
  8
1
 62
3
 10
1522.169722397998
 20
-403.2199327721153
 30
0
 11
1522.169722397998
 21
-404.3099327721153
 31
0
  0
LINE
  8
1
 62
3
 10
1522.169722397998
 20
-404.3099327721153
 30
0
 11
1523.668440135922
 21
-404.3099327721153
 31
0
  0
LINE
  8
1
 62
1
 10
1517.132159361
 20
-401.5099327721153
 30
0
 11
1529.669722397999
 21
-401.5099327721153
 31
0
  0
LINE
  8
1
 62
3
 10
1522.169722397998
 20
-449.7999327721153
 30
0
 11
1522.169722397998
 21
-453.2199327721153
 31
0
  0
LINE
  8
1
 62
3
 10
1522.169722397998
 20
-448.7099327721153
 30
0
 11
1522.169722397998
 21
-449.7999327721153
 31
0
  0
LINE
  8
1
 62
3
 10
1524.556014673863
 20
-451.1474327721153
 30
0
 11
1524.381014673863
 21
-451.1474327721153
 31
0
  0
LINE
  8
1
 62
3
 10
1524.381014673863
 20
-451.1474327721153
 30
0
 11
1524.381014673863
 21
-451.8724327721153
 31
0
  0
LINE
  8
1
 62
3
 10
1524.381014673863
 20
-451.8724327721153
 30
0
 11
1524.556014673863
 21
-451.8724327721153
 31
0
  0
LINE
  8
1
 62
3
 10
1523.668440135922
 20
-448.7099327721153
 30
0
 11
1522.169722397998
 21
-448.7099327721153
 31
0
  0
LINE
  8
1
 62
3
 10
1522.169722397998
 20
-453.2199327721153
 30
0
 11
1522.169722397998
 21
-454.3099327721153
 31
0
  0
LINE
  8
1
 62
3
 10
1522.169722397998
 20
-454.3099327721153
 30
0
 11
1523.668440135922
 21
-454.3099327721153
 31
0
  0
LINE
  8
1
 62
1
 10
1517.132159361
 20
-451.5099327721153
 30
0
 11
1529.669722397999
 21
-451.5099327721153
 31
0
  0
LINE
  8
1
 62
3
 10
1491.619722397998
 20
-454.6685282898117
 30
0
 11
1490.319722397998
 21
-454.6685282898117
 31
0
  0
LINE
  8
1
 62
3
 10
1490.119722397998
 20
-454.8685282898116
 30
0
 11
1491.819722397998
 21
-454.8685282898116
 31
0
  0
LINE
  8
1
 62
3
 10
1491.769722397998
 20
-454.5099327721154
 30
0
 11
1491.769722397998
 21
-454.5185282898117
 31
0
  0
LINE
  8
1
 62
3
 10
1491.969722397998
 20
-454.5099327721155
 30
0
 11
1491.969722397998
 21
-454.7185282898116
 31
0
  0
LINE
  8
1
 62
3
 10
1491.769722397998
 20
-406.5099327721154
 30
0
 11
1495.169722397998
 21
-406.5099327721153
 31
0
  0
LINE
  8
1
 62
3
 10
1491.769722397998
 20
-454.3099327721152
 30
0
 11
1490.169722397998
 21
-454.3099327721152
 31
0
  0
LINE
  8
1
 62
3
 10
1491.769722397998
 20
-454.3099327721152
 30
0
 11
1491.769722397998
 21
-406.5099327721154
 31
0
  0
LINE
  8
1
 62
1
 10
1495.77343795518
 20
-451.5099327721153
 30
0
 11
1491.061597069961
 21
-451.5099327721153
 31
0
  0
LINE
  8
1
 62
3
 10
1489.969722397998
 20
-454.5099327721154
 30
0
 11
1489.969722397998
 21
-454.7185282898116
 31
0
  0
LINE
  8
1
 62
1
 10
1482.580131682108
 20
-401.5099327721153
 30
0
 11
1495.873792098046
 21
-401.5099327721153
 31
0
  0
LINE
  8
1
 62
1
 10
1487.045621917027
 20
-451.5099327721153
 30
0
 11
1496.150643183567
 21
-451.5099327721153
 31
0
  0
LINE
  8
1
 62
3
 10
1495.169722397998
 20
-404.7099327721153
 30
0
 11
1495.169722397998
 21
-398.5099327721153
 31
0
  0
LINE
  8
1
 62
3
 10
1490.169722397998
 20
-404.7099327721153
 30
0
 11
1495.169722397998
 21
-404.7099327721153
 31
0
  0
LINE
  8
1
 62
3
 10
1490.169722397998
 20
-406.5099327721154
 30
0
 11
1490.169722397998
 21
-404.7099327721153
 31
0
  0
LINE
  8
1
 62
3
 10
1491.969722397998
 20
-454.5099327721155
 30
0
 11
1495.169722397998
 21
-454.5099327721154
 31
0
  0
LINE
  8
1
 62
3
 10
1491.769722397998
 20
-447.8099327721153
 30
0
 11
1491.769722397998
 21
-454.5099327721154
 31
0
  0
LINE
  8
1
 62
3
 10
1495.169722397998
 20
-454.5099327721154
 30
0
 11
1495.169722397998
 21
-447.8099327721153
 31
0
  0
LINE
  8
1
 62
3
 10
1495.169722397998
 20
-447.8099327721153
 30
0
 11
1491.769722397998
 21
-447.8099327721153
 31
0
  0
LINE
  8
1
 62
3
 10
1490.169722397998
 20
-454.5099327721154
 30
0
 11
1490.169722397998
 21
-454.5185282898117
 31
0
  0
LINE
  8
1
 62
3
 10
1490.169722397998
 20
-454.5099327721154
 30
0
 11
1490.169722397998
 21
-406.5099327721154
 31
0
  0
LINE
  8
1
 62
3
 10
1483.169722397998
 20
-398.5099327721153
 30
0
 11
1483.169722397998
 21
-404.7099327721153
 31
0
  0
LINE
  8
1
 62
3
 10
1495.169722397998
 20
-398.5099327721153
 30
0
 11
1483.169722397998
 21
-398.5099327721153
 31
0
  0
LINE
  8
1
 62
3
 10
1483.169722397998
 20
-404.7099327721153
 30
0
 11
1486.169722397998
 21
-404.7099327721153
 31
0
  0
LINE
  8
1
 62
3
 10
1490.169722397998
 20
-406.5099327721154
 30
0
 11
1491.769722397998
 21
-406.5099327721154
 31
0
  0
LINE
  8
1
 62
3
 10
1486.169722397998
 20
-442.3099327721152
 30
0
 11
1486.169722397998
 21
-404.7099327721153
 31
0
  0
LINE
  8
1
 62
3
 10
1488.169722397998
 20
-454.5099327721154
 30
0
 11
1489.969722397998
 21
-454.5099327721154
 31
0
  0
LINE
  8
1
 62
3
 10
1488.169722397998
 20
-447.3099327721152
 30
0
 11
1488.169722397998
 21
-454.5099327721154
 31
0
  0
LINE
  8
1
 62
3
 10
1488.169722397998
 20
-447.3099327721152
 30
0
 11
1483.169722397998
 21
-447.3099327721152
 31
0
  0
LINE
  8
1
 62
3
 10
1483.169722397998
 20
-442.3099327721152
 30
0
 11
1486.169722397998
 21
-442.3099327721152
 31
0
  0
LINE
  8
1
 62
3
 10
1483.169722397998
 20
-447.3099327721152
 30
0
 11
1483.169722397998
 21
-442.3099327721152
 31
0
  0
LINE
  8
1
 62
3
 10
1483.169722397998
 20
-454.6099327721153
 30
0
 11
1489.969722397998
 21
-454.6099327721153
 31
0
  0
LINE
  8
1
 62
3
 10
1491.969722397998
 20
-454.6099327721153
 30
0
 11
1495.169722397998
 21
-454.6099327721153
 31
0
  0
LINE
  8
1
 62
3
 10
1483.169722397998
 20
-448.4099327721152
 30
0
 11
1488.169722397998
 21
-448.4099327721152
 31
0
  0
LINE
  8
1
 62
3
 10
1483.169722397998
 20
-454.6099327721153
 30
0
 11
1483.169722397998
 21
-448.4099327721152
 31
0
  0
LINE
  8
1
 62
2
 10
1627.35509071977
 20
-450.0074327721152
 30
0
 11
1627.35509071977
 21
-450.6474327721153
 31
0
  0
LINE
  8
1
 62
2
 10
1627.99509071977
 20
-450.0074327721152
 30
0
 11
1627.99509071977
 21
-450.6474327721153
 31
0
  0
LINE
  8
1
 62
2
 10
1627.35509071977
 20
-450.0074327721152
 30
0
 11
1627.99509071977
 21
-450.0074327721152
 31
0
  0
LINE
  8
1
 62
2
 10
1627.35509071977
 20
-450.6474327721153
 30
0
 11
1627.99509071977
 21
-450.6474327721153
 31
0
  0
LINE
  8
1
 62
2
 10
1624.85509071977
 20
-450.0074327721152
 30
0
 11
1624.85509071977
 21
-450.6474327721153
 31
0
  0
LINE
  8
1
 62
2
 10
1625.49509071977
 20
-450.0074327721152
 30
0
 11
1625.49509071977
 21
-450.6474327721153
 31
0
  0
LINE
  8
1
 62
2
 10
1624.85509071977
 20
-450.0074327721152
 30
0
 11
1625.49509071977
 21
-450.0074327721152
 31
0
  0
LINE
  8
1
 62
2
 10
1624.85509071977
 20
-450.6474327721153
 30
0
 11
1625.49509071977
 21
-450.6474327721153
 31
0
  0
LINE
  8
1
 62
2
 10
1622.35509071977
 20
-450.0074327721152
 30
0
 11
1622.35509071977
 21
-450.6474327721153
 31
0
  0
LINE
  8
1
 62
2
 10
1622.99509071977
 20
-450.0074327721152
 30
0
 11
1622.99509071977
 21
-450.6474327721153
 31
0
  0
LINE
  8
1
 62
2
 10
1622.35509071977
 20
-450.0074327721152
 30
0
 11
1622.99509071977
 21
-450.0074327721152
 31
0
  0
LINE
  8
1
 62
2
 10
1622.35509071977
 20
-450.6474327721153
 30
0
 11
1622.99509071977
 21
-450.6474327721153
 31
0
  0
LINE
  8
1
 62
2
 10
1597.58758971977
 20
-450.0074327721152
 30
0
 11
1597.58758971977
 21
-450.6474327721153
 31
0
  0
LINE
  8
1
 62
2
 10
1598.22758971977
 20
-450.0074327721152
 30
0
 11
1598.22758971977
 21
-450.6474327721153
 31
0
  0
LINE
  8
1
 62
2
 10
1597.58758971977
 20
-450.0074327721152
 30
0
 11
1598.22758971977
 21
-450.0074327721152
 31
0
  0
LINE
  8
1
 62
2
 10
1597.58758971977
 20
-450.6474327721153
 30
0
 11
1598.22758971977
 21
-450.6474327721153
 31
0
  0
LINE
  8
1
 62
2
 10
1595.08758971977
 20
-450.0074327721152
 30
0
 11
1595.08758971977
 21
-450.6474327721153
 31
0
  0
LINE
  8
1
 62
2
 10
1595.72758971977
 20
-450.0074327721152
 30
0
 11
1595.72758971977
 21
-450.6474327721153
 31
0
  0
LINE
  8
1
 62
2
 10
1595.08758971977
 20
-450.0074327721152
 30
0
 11
1595.72758971977
 21
-450.0074327721152
 31
0
  0
LINE
  8
1
 62
2
 10
1595.08758971977
 20
-450.6474327721153
 30
0
 11
1595.72758971977
 21
-450.6474327721153
 31
0
  0
LINE
  8
1
 62
2
 10
1592.58758971977
 20
-450.0074327721152
 30
0
 11
1592.58758971977
 21
-450.6474327721153
 31
0
  0
LINE
  8
1
 62
2
 10
1593.22758971977
 20
-450.0074327721152
 30
0
 11
1593.22758971977
 21
-450.6474327721153
 31
0
  0
LINE
  8
1
 62
2
 10
1592.58758971977
 20
-450.0074327721152
 30
0
 11
1593.22758971977
 21
-450.0074327721152
 31
0
  0
LINE
  8
1
 62
2
 10
1592.58758971977
 20
-450.6474327721153
 30
0
 11
1593.22758971977
 21
-450.6474327721153
 31
0
  0
LINE
  8
1
 62
2
 10
1590.08758971977
 20
-450.0074327721152
 30
0
 11
1590.08758971977
 21
-450.6474327721153
 31
0
  0
LINE
  8
1
 62
2
 10
1590.72758971977
 20
-450.0074327721152
 30
0
 11
1590.72758971977
 21
-450.6474327721153
 31
0
  0
LINE
  8
1
 62
2
 10
1590.08758971977
 20
-450.0074327721152
 30
0
 11
1590.72758971977
 21
-450.0074327721152
 31
0
  0
LINE
  8
1
 62
2
 10
1590.08758971977
 20
-450.6474327721153
 30
0
 11
1590.72758971977
 21
-450.6474327721153
 31
0
  0
LINE
  8
1
 62
2
 10
1587.58758971977
 20
-450.0074327721152
 30
0
 11
1587.58758971977
 21
-450.6474327721153
 31
0
  0
LINE
  8
1
 62
2
 10
1588.22758971977
 20
-450.0074327721152
 30
0
 11
1588.22758971977
 21
-450.6474327721153
 31
0
  0
LINE
  8
1
 62
2
 10
1587.58758971977
 20
-450.0074327721152
 30
0
 11
1588.22758971977
 21
-450.0074327721152
 31
0
  0
LINE
  8
1
 62
2
 10
1587.58758971977
 20
-450.6474327721153
 30
0
 11
1588.22758971977
 21
-450.6474327721153
 31
0
  0
LINE
  8
1
 62
2
 10
1585.08758971977
 20
-450.0074327721152
 30
0
 11
1585.08758971977
 21
-450.6474327721153
 31
0
  0
LINE
  8
1
 62
2
 10
1585.72758971977
 20
-450.0074327721152
 30
0
 11
1585.72758971977
 21
-450.6474327721153
 31
0
  0
LINE
  8
1
 62
2
 10
1585.08758971977
 20
-450.0074327721152
 30
0
 11
1585.72758971977
 21
-450.0074327721152
 31
0
  0
LINE
  8
1
 62
2
 10
1585.08758971977
 20
-450.6474327721153
 30
0
 11
1585.72758971977
 21
-450.6474327721153
 31
0
  0
LINE
  8
1
 62
2
 10
1582.58758971977
 20
-450.0074327721152
 30
0
 11
1582.58758971977
 21
-450.6474327721153
 31
0
  0
LINE
  8
1
 62
2
 10
1583.22758971977
 20
-450.0074327721152
 30
0
 11
1583.22758971977
 21
-450.6474327721153
 31
0
  0
LINE
  8
1
 62
2
 10
1582.58758971977
 20
-450.0074327721152
 30
0
 11
1583.22758971977
 21
-450.0074327721152
 31
0
  0
LINE
  8
1
 62
2
 10
1582.58758971977
 20
-450.6474327721153
 30
0
 11
1583.22758971977
 21
-450.6474327721153
 31
0
  0
LINE
  8
1
 62
2
 10
1580.08758971977
 20
-450.0074327721152
 30
0
 11
1580.08758971977
 21
-450.6474327721153
 31
0
  0
LINE
  8
1
 62
2
 10
1580.72758971977
 20
-450.0074327721152
 30
0
 11
1580.72758971977
 21
-450.6474327721153
 31
0
  0
LINE
  8
1
 62
2
 10
1580.08758971977
 20
-450.0074327721152
 30
0
 11
1580.72758971977
 21
-450.0074327721152
 31
0
  0
LINE
  8
1
 62
2
 10
1580.08758971977
 20
-450.6474327721153
 30
0
 11
1580.72758971977
 21
-450.6474327721153
 31
0
  0
LINE
  8
1
 62
2
 10
1577.58758971977
 20
-450.0074327721152
 30
0
 11
1577.58758971977
 21
-450.6474327721153
 31
0
  0
LINE
  8
1
 62
2
 10
1578.22758971977
 20
-450.0074327721152
 30
0
 11
1578.22758971977
 21
-450.6474327721153
 31
0
  0
LINE
  8
1
 62
2
 10
1577.58758971977
 20
-450.0074327721152
 30
0
 11
1578.22758971977
 21
-450.0074327721152
 31
0
  0
LINE
  8
1
 62
2
 10
1577.58758971977
 20
-450.6474327721153
 30
0
 11
1578.22758971977
 21
-450.6474327721153
 31
0
  0
LINE
  8
1
 62
2
 10
1400.310125614796
 20
-527.8250466413638
 30
0
 11
1400.310125614796
 21
-538.3250466413638
 31
0
  0
LINE
  8
1
 62
2
 10
1451.119056318359
 20
-527.8250466413638
 30
0
 11
1451.119056318359
 21
-538.3250466413638
 31
0
  0
LINE
  8
1
 62
2
 10
1502.328057342423
 20
-527.8250466413638
 30
0
 11
1502.328057342423
 21
-538.3250466413638
 31
0
  0
LINE
  8
1
 62
2
 10
1361.745947594871
 20
-533.0750466413638
 30
0
 11
1529.083447513344
 21
-533.0750466413638
 31
0
  0
LINE
  8
1
 62
3
 10
1361.745947594871
 20
-538.3250466413638
 30
0
 11
1361.745947594871
 21
-527.8250466413638
 31
0
  0
LINE
  8
1
 62
3
 10
1529.083447513344
 20
-538.3250466413638
 30
0
 11
1361.745947594871
 21
-538.3250466413638
 31
0
  0
LINE
  8
1
 62
3
 10
1529.083447513344
 20
-527.8250466413638
 30
0
 11
1529.083447513344
 21
-538.3250466413638
 31
0
  0
LINE
  8
1
 62
3
 10
1361.745947594871
 20
-527.8250466413638
 30
0
 11
1529.083447513344
 21
-527.8250466413638
 31
0
  0
LINE
  8
1
 62
2
 10
1400.310125614796
 20
-586.9178509824596
 30
0
 11
1400.310125614796
 21
-597.4178509824596
 31
0
  0
LINE
  8
1
 62
2
 10
1451.119056318359
 20
-586.9178509824596
 30
0
 11
1451.119056318359
 21
-597.4178509824596
 31
0
  0
LINE
  8
1
 62
2
 10
1502.328057342423
 20
-586.9178509824596
 30
0
 11
1502.328057342423
 21
-597.4178509824596
 31
0
  0
LINE
  8
1
 62
2
 10
1361.745947594871
 20
-592.1678509824596
 30
0
 11
1529.083447513344
 21
-592.1678509824596
 31
0
  0
LINE
  8
1
 62
3
 10
1361.745947594871
 20
-597.4178509824596
 30
0
 11
1361.745947594871
 21
-586.9178509824596
 31
0
  0
LINE
  8
1
 62
3
 10
1529.083447513344
 20
-597.4178509824596
 30
0
 11
1361.745947594871
 21
-597.4178509824596
 31
0
  0
LINE
  8
1
 62
3
 10
1529.083447513344
 20
-586.9178509824596
 30
0
 11
1529.083447513344
 21
-597.4178509824596
 31
0
  0
LINE
  8
1
 62
3
 10
1361.745947594871
 20
-586.9178509824596
 30
0
 11
1529.083447513344
 21
-586.9178509824596
 31
0
  0
LINE
  8
1
 62
2
 10
1523.283447513344
 20
-571.9803124353231
 30
0
 11
1523.283447513344
 21
-574.9803124353228
 31
0
  0
LINE
  8
1
 62
2
 10
1523.283447513344
 20
-566.980312435323
 30
0
 11
1523.283447513344
 21
-569.980312435323
 31
0
  0
LINE
  8
1
 62
2
 10
1524.083447513344
 20
-574.980312435323
 30
0
 11
1523.283447513344
 21
-574.9803124353228
 31
0
  0
LINE
  8
1
 62
2
 10
1524.083447513344
 20
-571.980312435323
 30
0
 11
1523.283447513344
 21
-571.9803124353231
 31
0
  0
LINE
  8
1
 62
2
 10
1524.083447513344
 20
-569.980312435323
 30
0
 11
1523.283447513344
 21
-569.980312435323
 31
0
  0
LINE
  8
1
 62
2
 10
1524.083447513344
 20
-566.980312435323
 30
0
 11
1523.283447513344
 21
-566.980312435323
 31
0
  0
LINE
  8
1
 62
3
 10
1499.32038669287
 20
-574.0679685385879
 30
0
 11
1499.32038669287
 21
-572.9528389610063
 31
0
  0
LINE
  8
1
 62
3
 10
1499.32038669287
 20
-574.0679685385879
 30
0
 11
1499.32038669287
 21
-572.9528389610063
 31
0
  0
LINE
  8
1
 62
3
 10
1522.633447513344
 20
-571.980312435323
 30
0
 11
1522.633447513344
 21
-569.980312435323
 31
0
  0
LINE
  8
1
 62
3
 10
1524.083447513344
 20
-571.980312435323
 30
0
 11
1522.633447513344
 21
-571.980312435323
 31
0
  0
LINE
  8
1
 62
3
 10
1524.083447513344
 20
-569.980312435323
 30
0
 11
1522.633447513344
 21
-569.980312435323
 31
0
  0
LINE
  8
1
 62
3
 10
1524.583447513344
 20
-574.980312435323
 30
0
 11
1524.583447513344
 21
-566.980312435323
 31
0
  0
LINE
  8
1
 62
3
 10
1524.583447513344
 20
-566.980312435323
 30
0
 11
1529.083447513344
 21
-566.980312435323
 31
0
  0
LINE
  8
1
 62
3
 10
1529.083447513344
 20
-566.980312435323
 30
0
 11
1529.083447513344
 21
-574.980312435323
 31
0
  0
LINE
  8
1
 62
3
 10
1529.083447513344
 20
-574.980312435323
 30
0
 11
1524.583447513344
 21
-574.980312435323
 31
0
  0
LINE
  8
1
 62
3
 10
1524.583447513344
 20
-574.980312435323
 30
0
 11
1524.083447513344
 21
-574.980312435323
 31
0
  0
LINE
  8
1
 62
3
 10
1524.083447513344
 20
-574.980312435323
 30
0
 11
1524.083447513344
 21
-566.980312435323
 31
0
  0
LINE
  8
1
 62
2
 10
1525.544342640739
 20
-573.980312435323
 30
0
 11
1525.544342640739
 21
-572.980312435323
 31
0
  0
LINE
  8
1
 62
2
 10
1525.544342640739
 20
-572.980312435323
 30
0
 11
1526.544342640739
 21
-572.980312435323
 31
0
  0
LINE
  8
1
 62
2
 10
1526.544342640739
 20
-572.980312435323
 30
0
 11
1526.544342640739
 21
-573.980312435323
 31
0
  0
LINE
  8
1
 62
2
 10
1526.544342640739
 20
-573.980312435323
 30
0
 11
1525.544342640739
 21
-573.980312435323
 31
0
  0
LINE
  8
1
 62
2
 10
1527.044342640739
 20
-572.480312435323
 30
0
 11
1527.044342640739
 21
-574.480312435323
 31
0
  0
LINE
  8
1
 62
2
 10
1527.044342640739
 20
-574.480312435323
 30
0
 11
1525.044342640739
 21
-574.480312435323
 31
0
  0
LINE
  8
1
 62
2
 10
1525.044342640739
 20
-574.480312435323
 30
0
 11
1525.044342640739
 21
-572.480312435323
 31
0
  0
LINE
  8
1
 62
2
 10
1525.044342640739
 20
-572.480312435323
 30
0
 11
1527.044342640739
 21
-572.480312435323
 31
0
  0
LINE
  8
1
 62
2
 10
1527.044342640739
 20
-572.480312435323
 30
0
 11
1526.544342640739
 21
-572.980312435323
 31
0
  0
LINE
  8
1
 62
2
 10
1526.544342640739
 20
-573.980312435323
 30
0
 11
1527.044342640739
 21
-574.480312435323
 31
0
  0
LINE
  8
1
 62
2
 10
1525.544342640739
 20
-573.980312435323
 30
0
 11
1525.044342640739
 21
-574.480312435323
 31
0
  0
LINE
  8
1
 62
2
 10
1525.544342640739
 20
-572.980312435323
 30
0
 11
1525.044342640739
 21
-572.480312435323
 31
0
  0
LINE
  8
1
 62
2
 10
1525.544342640739
 20
-571.480312435323
 30
0
 11
1525.544342640739
 21
-570.4803124353228
 31
0
  0
LINE
  8
1
 62
2
 10
1525.544342640739
 20
-570.4803124353228
 30
0
 11
1526.544342640739
 21
-570.4803124353228
 31
0
  0
LINE
  8
1
 62
2
 10
1526.544342640739
 20
-570.4803124353228
 30
0
 11
1526.544342640739
 21
-571.480312435323
 31
0
  0
LINE
  8
1
 62
2
 10
1526.544342640739
 20
-571.480312435323
 30
0
 11
1525.544342640739
 21
-571.480312435323
 31
0
  0
LINE
  8
1
 62
2
 10
1527.044342640739
 20
-569.9803124353228
 30
0
 11
1527.044342640739
 21
-571.980312435323
 31
0
  0
LINE
  8
1
 62
2
 10
1527.044342640739
 20
-571.980312435323
 30
0
 11
1525.044342640739
 21
-571.980312435323
 31
0
  0
LINE
  8
1
 62
2
 10
1525.044342640739
 20
-571.980312435323
 30
0
 11
1525.044342640739
 21
-569.9803124353228
 31
0
  0
LINE
  8
1
 62
2
 10
1525.044342640739
 20
-569.9803124353228
 30
0
 11
1527.044342640739
 21
-569.9803124353228
 31
0
  0
LINE
  8
1
 62
2
 10
1527.044342640739
 20
-569.9803124353228
 30
0
 11
1526.544342640739
 21
-570.4803124353228
 31
0
  0
LINE
  8
1
 62
2
 10
1526.544342640739
 20
-571.480312435323
 30
0
 11
1527.044342640739
 21
-571.980312435323
 31
0
  0
LINE
  8
1
 62
2
 10
1525.544342640739
 20
-571.480312435323
 30
0
 11
1525.044342640739
 21
-571.980312435323
 31
0
  0
LINE
  8
1
 62
2
 10
1525.544342640739
 20
-570.4803124353228
 30
0
 11
1525.044342640739
 21
-569.9803124353228
 31
0
  0
LINE
  8
1
 62
2
 10
1525.544342640739
 20
-568.9803124353228
 30
0
 11
1525.544342640739
 21
-567.9803124353228
 31
0
  0
LINE
  8
1
 62
2
 10
1525.544342640739
 20
-567.9803124353228
 30
0
 11
1526.544342640739
 21
-567.9803124353228
 31
0
  0
LINE
  8
1
 62
2
 10
1526.544342640739
 20
-567.9803124353228
 30
0
 11
1526.544342640739
 21
-568.9803124353228
 31
0
  0
LINE
  8
1
 62
2
 10
1526.544342640739
 20
-568.9803124353228
 30
0
 11
1525.544342640739
 21
-568.9803124353228
 31
0
  0
LINE
  8
1
 62
2
 10
1527.044342640739
 20
-567.4803124353228
 30
0
 11
1527.044342640739
 21
-569.4803124353228
 31
0
  0
LINE
  8
1
 62
2
 10
1527.044342640739
 20
-569.4803124353228
 30
0
 11
1525.044342640739
 21
-569.4803124353228
 31
0
  0
LINE
  8
1
 62
2
 10
1525.044342640739
 20
-569.4803124353228
 30
0
 11
1525.044342640739
 21
-567.4803124353228
 31
0
  0
LINE
  8
1
 62
2
 10
1525.044342640739
 20
-567.4803124353228
 30
0
 11
1527.044342640739
 21
-567.4803124353228
 31
0
  0
LINE
  8
1
 62
2
 10
1527.044342640739
 20
-567.4803124353228
 30
0
 11
1526.544342640739
 21
-567.9803124353228
 31
0
  0
LINE
  8
1
 62
2
 10
1526.544342640739
 20
-568.9803124353228
 30
0
 11
1527.044342640739
 21
-569.4803124353228
 31
0
  0
LINE
  8
1
 62
2
 10
1525.544342640739
 20
-568.9803124353228
 30
0
 11
1525.044342640739
 21
-569.4803124353228
 31
0
  0
LINE
  8
1
 62
2
 10
1525.544342640739
 20
-567.9803124353228
 30
0
 11
1525.044342640739
 21
-567.4803124353228
 31
0
  0
LINE
  8
1
 62
2
 10
1499.32038669287
 20
-569.1803124353231
 30
0
 11
1459.348797924401
 21
-569.1803124353231
 31
0
  0
LINE
  8
1
 62
2
 10
1499.32038669287
 20
-567.780312435323
 30
0
 11
1458.867573769451
 21
-567.780312435323
 31
0
  0
LINE
  8
1
 62
2
 10
1417.628149893582
 20
-567.780312435323
 30
0
 11
1417.628149893582
 21
-569.1803124353231
 31
0
  0
LINE
  8
1
 62
2
 10
1417.628149893582
 20
-568.1303124353229
 30
0
 11
1407.628149893582
 21
-568.1303124353229
 31
0
  0
LINE
  8
1
 62
2
 10
1407.628149893582
 20
-568.1303124353229
 30
0
 11
1407.628149893582
 21
-568.830312435323
 31
0
  0
LINE
  8
1
 62
2
 10
1407.628149893582
 20
-568.830312435323
 30
0
 11
1417.628149893582
 21
-568.830312435323
 31
0
  0
LINE
  8
1
 62
2
 10
1417.628149893582
 20
-570.280312435323
 30
0
 11
1417.628149893582
 21
-571.680312435323
 31
0
  0
LINE
  8
1
 62
2
 10
1417.628149893582
 20
-570.6303124353229
 30
0
 11
1407.628149893582
 21
-570.6303124353229
 31
0
  0
LINE
  8
1
 62
2
 10
1407.628149893582
 20
-570.6303124353229
 30
0
 11
1407.628149893582
 21
-571.330312435323
 31
0
  0
LINE
  8
1
 62
2
 10
1407.628149893582
 20
-571.330312435323
 30
0
 11
1417.628149893582
 21
-571.330312435323
 31
0
  0
LINE
  8
1
 62
2
 10
1417.628149893582
 20
-572.780312435323
 30
0
 11
1417.628149893582
 21
-574.180312435323
 31
0
  0
LINE
  8
1
 62
2
 10
1417.628149893582
 20
-573.1303124353231
 30
0
 11
1407.628149893582
 21
-573.1303124353231
 31
0
  0
LINE
  8
1
 62
2
 10
1407.628149893582
 20
-573.1303124353231
 30
0
 11
1407.628149893582
 21
-573.830312435323
 31
0
  0
LINE
  8
1
 62
2
 10
1407.628149893582
 20
-573.830312435323
 30
0
 11
1417.628149893582
 21
-573.830312435323
 31
0
  0
LINE
  8
1
 62
2
 10
1499.32038669287
 20
-570.280312435323
 30
0
 11
1459.669484407359
 21
-570.280312435323
 31
0
  0
LINE
  8
1
 62
2
 10
1499.32038669287
 20
-572.780312435323
 30
0
 11
1460.121426673531
 21
-572.780312435323
 31
0
  0
LINE
  8
1
 62
2
 10
1499.32038669287
 20
-571.680312435323
 30
0
 11
1459.977576218846
 21
-571.680312435323
 31
0
  0
LINE
  8
1
 62
2
 10
1499.32038669287
 20
-574.180312435323
 30
0
 11
1460.152392313372
 21
-574.180312435323
 31
0
  0
LINE
  8
1
 62
2
 10
1391.485410550164
 20
-564.027129492981
 30
0
 11
1391.485410550164
 21
-584.027129492981
 31
0
  0
LINE
  8
1
 62
2
 10
1377.759897941896
 20
-564.027129492981
 30
0
 11
1377.759897941896
 21
-584.027129492981
 31
0
  0
LINE
  8
1
 62
2
 10
1361.745947594871
 20
-564.027129492981
 30
0
 11
1375.373632000162
 21
-564.027129492981
 31
0
  0
LINE
  8
1
 62
2
 10
1361.745947594871
 20
-569.027129492981
 30
0
 11
1391.485410550164
 21
-569.027129492981
 31
0
  0
LINE
  8
1
 62
2
 10
1361.745947594871
 20
-574.027129492981
 30
0
 11
1391.485410550164
 21
-574.027129492981
 31
0
  0
LINE
  8
1
 62
2
 10
1361.745947594871
 20
-579.027129492981
 30
0
 11
1391.485410550164
 21
-579.027129492981
 31
0
  0
LINE
  8
1
 62
2
 10
1361.745947594871
 20
-584.027129492981
 30
0
 11
1391.485410550164
 21
-584.027129492981
 31
0
  0
LINE
  8
1
 62
2
 10
1456.867573769451
 20
-567.780312435323
 30
0
 11
1417.628149893582
 21
-567.780312435323
 31
0
  0
LINE
  8
1
 62
2
 10
1457.348797924401
 20
-569.1803124353231
 30
0
 11
1417.628149893582
 21
-569.1803124353231
 31
0
  0
LINE
  8
1
 62
2
 10
1457.669484407359
 20
-570.280312435323
 30
0
 11
1417.628149893582
 21
-570.280312435323
 31
0
  0
LINE
  8
1
 62
2
 10
1457.977576218847
 20
-571.680312435323
 30
0
 11
1417.628149893582
 21
-571.680312435323
 31
0
  0
LINE
  8
1
 62
2
 10
1458.121426673531
 20
-572.780312435323
 30
0
 11
1417.628149893582
 21
-572.780312435323
 31
0
  0
LINE
  8
1
 62
2
 10
1458.152392313372
 20
-574.180312435323
 30
0
 11
1417.628149893582
 21
-574.180312435323
 31
0
  0
LINE
  8
1
 62
2
 10
1361.745947594871
 20
-564.027129492981
 30
0
 11
1361.745947594871
 21
-584.027129492981
 31
0
  0
LINE
  8
1
 62
2
 10
1375.373632000162
 20
-564.027129492981
 30
0
 11
1391.485410550164
 21
-564.027129492981
 31
0
  0
LINE
  8
1
 62
3
 10
1524.583447513344
 20
-566.980312435323
 30
0
 11
1524.083447513344
 21
-566.980312435323
 31
0
  0
LINE
  8
1
 62
3
 10
1499.32038669287
 20
-574.9803124353231
 30
0
 11
1499.32038669287
 21
-574.6179685385876
 31
0
  0
LINE
  8
1
 62
3
 10
1499.32038669287
 20
-574.9803124353231
 30
0
 11
1499.32038669287
 21
-574.6179685385876
 31
0
  0
LINE
  8
1
 62
3
 10
1499.32038669287
 20
-570.4803124353231
 30
0
 11
1499.32038669287
 21
-571.4803124353231
 31
0
  0
LINE
  8
1
 62
3
 10
1499.32038669287
 20
-566.9803124353231
 30
0
 11
1499.32038669287
 21
-572.530312435323
 31
0
  0
LINE
  8
1
 62
3
 10
1499.32038669287
 20
-574.9803124353231
 30
0
 11
1499.32038669287
 21
-566.9803124353231
 31
0
  0
LINE
  8
1
 62
3
 10
1499.32038669287
 20
-574.9803124353231
 30
0
 11
1499.32038669287
 21
-569.4803124353231
 31
0
  0
LINE
  8
1
 62
3
 10
1499.32038669287
 20
-566.9803124353231
 30
0
 11
1499.32038669287
 21
-572.530312435323
 31
0
  0
LINE
  8
1
 62
3
 10
1502.475722021831
 20
-569.9803124353231
 30
0
 11
1501.915003793331
 21
-569.9803124353231
 31
0
  0
LINE
  8
1
 62
3
 10
1502.475722021831
 20
-571.9803124353231
 30
0
 11
1507.22038669287
 21
-571.9803124353231
 31
0
  0
LINE
  8
1
 62
3
 10
1502.475722021831
 20
-571.9803124353231
 30
0
 11
1502.475722021831
 21
-569.9803124353231
 31
0
  0
LINE
  8
1
 62
3
 10
1503.82144577023
 20
-566.9803124353231
 30
0
 11
1503.372871187431
 21
-566.9803124353231
 31
0
  0
LINE
  8
1
 62
3
 10
1503.82144577023
 20
-569.9803124353231
 30
0
 11
1503.372871187431
 21
-569.9803124353231
 31
0
  0
LINE
  8
1
 62
3
 10
1503.82144577023
 20
-569.9803124353231
 30
0
 11
1503.82144577023
 21
-566.9803124353231
 31
0
  0
LINE
  8
1
 62
3
 10
1505.092407088163
 20
-569.9803124353231
 30
0
 11
1503.82144577023
 21
-569.9803124353231
 31
0
  0
LINE
  8
1
 62
3
 10
1505.092407088163
 20
-566.9803124353231
 30
0
 11
1503.82144577023
 21
-566.9803124353231
 31
0
  0
LINE
  8
1
 62
3
 10
1505.092407088163
 20
-566.9803124353231
 30
0
 11
1505.092407088163
 21
-569.9803124353231
 31
0
  0
LINE
  8
1
 62
3
 10
1503.82144577023
 20
-571.9803124353241
 30
0
 11
1503.372871187431
 21
-571.9803124353232
 31
0
  0
LINE
  8
1
 62
3
 10
1503.82144577023
 20
-574.980312435323
 30
0
 11
1505.092407088163
 21
-574.980312435323
 31
0
  0
LINE
  8
1
 62
3
 10
1503.82144577023
 20
-574.980312435323
 30
0
 11
1503.82144577023
 21
-571.9803124353241
 31
0
  0
LINE
  8
1
 62
3
 10
1505.092407088163
 20
-574.980312435323
 30
0
 11
1506.101699899463
 21
-574.980312435323
 31
0
  0
LINE
  8
1
 62
3
 10
1505.092407088163
 20
-571.9803124353232
 30
0
 11
1503.82144577023
 21
-571.9803124353241
 31
0
  0
LINE
  8
1
 62
3
 10
1505.092407088163
 20
-571.9803124353232
 30
0
 11
1505.092407088163
 21
-574.980312435323
 31
0
  0
LINE
  8
1
 62
3
 10
1503.372871187431
 20
-566.9803124353231
 30
0
 11
1499.32038669287
 21
-566.9803124353231
 31
0
  0
LINE
  8
1
 62
3
 10
1503.372871187431
 20
-569.9803124353231
 30
0
 11
1503.372871187431
 21
-566.9803124353231
 31
0
  0
LINE
  8
1
 62
3
 10
1506.101699899463
 20
-569.9803124353231
 30
0
 11
1505.092407088163
 21
-569.9803124353231
 31
0
  0
LINE
  8
1
 62
3
 10
1506.101699899463
 20
-566.9803124353231
 30
0
 11
1505.092407088163
 21
-566.9803124353231
 31
0
  0
LINE
  8
1
 62
3
 10
1506.101699899463
 20
-566.9803124353231
 30
0
 11
1506.101699899463
 21
-569.9803124353231
 31
0
  0
LINE
  8
1
 62
3
 10
1503.372871187431
 20
-574.980312435323
 30
0
 11
1503.82144577023
 21
-574.980312435323
 31
0
  0
LINE
  8
1
 62
3
 10
1503.372871187431
 20
-571.9803124353232
 30
0
 11
1503.372871187431
 21
-574.980312435323
 31
0
  0
LINE
  8
1
 62
3
 10
1506.101699899463
 20
-571.9803124353241
 30
0
 11
1505.092407088163
 21
-571.9803124353232
 31
0
  0
LINE
  8
1
 62
3
 10
1506.101699899463
 20
-574.980312435323
 30
0
 11
1507.22038669287
 21
-574.9803124353231
 31
0
  0
LINE
  8
1
 62
3
 10
1506.101699899463
 20
-574.980312435323
 30
0
 11
1506.101699899463
 21
-571.9803124353241
 31
0
  0
LINE
  8
1
 62
3
 10
1501.915003793331
 20
-571.9803124353231
 30
0
 11
1502.475722021831
 21
-571.9803124353231
 31
0
  0
LINE
  8
1
 62
3
 10
1501.915003793331
 20
-569.9803124353231
 30
0
 11
1501.915003793331
 21
-571.9803124353231
 31
0
  0
LINE
  8
1
 62
3
 10
1507.22038669287
 20
-569.9803124353231
 30
0
 11
1502.475722021831
 21
-569.9803124353231
 31
0
  0
LINE
  8
1
 62
3
 10
1507.22038669287
 20
-566.9803124353231
 30
0
 11
1506.101699899463
 21
-566.9803124353231
 31
0
  0
LINE
  8
1
 62
3
 10
1499.32038669287
 20
-574.9803124353231
 30
0
 11
1503.372871187431
 21
-574.980312435323
 31
0
  0
LINE
  8
1
 62
3
 10
1499.32038669287
 20
-566.9803124353231
 30
0
 11
1499.32038669287
 21
-574.9803124353231
 31
0
  0
LINE
  8
1
 62
3
 10
1507.22038669287
 20
-566.9803124353231
 30
0
 11
1507.22038669287
 21
-574.9803124353231
 31
0
  0
LINE
  8
1
 62
2
 10
1361.745947594871
 20
-523.058659624314
 30
0
 11
1391.485410550163
 21
-523.058659624314
 31
0
  0
LINE
  8
1
 62
2
 10
1391.485410550163
 20
-513.058659624314
 30
0
 11
1391.485410550163
 21
-523.058659624314
 31
0
  0
LINE
  8
1
 62
2
 10
1377.759897941896
 20
-513.058659624314
 30
0
 11
1377.759897941896
 21
-523.058659624314
 31
0
  0
LINE
  8
1
 62
2
 10
1361.745947594871
 20
-513.058659624314
 30
0
 11
1361.745947594871
 21
-523.058659624314
 31
0
  0
LINE
  8
1
 62
2
 10
1417.628149893582
 20
-495.6343439549897
 30
0
 11
1454.68024972384
 21
-495.6343439549897
 31
0
  0
LINE
  8
1
 62
2
 10
1417.628149893582
 20
-497.0343439549898
 30
0
 11
1455.4424802936
 21
-497.0343439549898
 31
0
  0
LINE
  8
1
 62
2
 10
1417.628149893582
 20
-498.1343439549897
 30
0
 11
1456.007566476034
 21
-498.1343439549897
 31
0
  0
LINE
  8
1
 62
2
 10
1417.628149893582
 20
-499.5343439549898
 30
0
 11
1456.451249784854
 21
-499.5343439549898
 31
0
  0
LINE
  8
1
 62
2
 10
1417.628149893582
 20
-495.6343439549897
 30
0
 11
1417.628149893582
 21
-497.0343439549898
 31
0
  0
LINE
  8
1
 62
2
 10
1417.628149893582
 20
-495.9843439549901
 30
0
 11
1407.628149893582
 21
-495.9843439549901
 31
0
  0
LINE
  8
1
 62
2
 10
1407.628149893582
 20
-495.9843439549901
 30
0
 11
1407.628149893582
 21
-496.6843439549899
 31
0
  0
LINE
  8
1
 62
2
 10
1407.628149893582
 20
-496.6843439549899
 30
0
 11
1417.628149893582
 21
-496.6843439549899
 31
0
  0
LINE
  8
1
 62
2
 10
1417.628149893582
 20
-498.1343439549897
 30
0
 11
1417.628149893582
 21
-499.5343439549898
 31
0
  0
LINE
  8
1
 62
2
 10
1417.628149893582
 20
-498.4843439549901
 30
0
 11
1407.628149893582
 21
-498.4843439549901
 31
0
  0
LINE
  8
1
 62
2
 10
1407.628149893582
 20
-498.4843439549901
 30
0
 11
1407.628149893582
 21
-499.1843439549899
 31
0
  0
LINE
  8
1
 62
2
 10
1407.628149893582
 20
-499.1843439549899
 30
0
 11
1417.628149893582
 21
-499.1843439549899
 31
0
  0
LINE
  8
1
 62
2
 10
1499.32038669287
 20
-495.6343439549897
 30
0
 11
1456.68024972384
 21
-495.6343439549897
 31
0
  0
LINE
  8
1
 62
2
 10
1499.32038669287
 20
-497.0343439549898
 30
0
 11
1457.157391878664
 21
-497.0343439549898
 31
0
  0
LINE
  8
1
 62
2
 10
1499.32038669287
 20
-498.1343439549897
 30
0
 11
1458.007566476034
 21
-498.1343439549897
 31
0
  0
LINE
  8
1
 62
2
 10
1499.32038669287
 20
-499.5343439549898
 30
0
 11
1458.501748940983
 21
-499.5343439549898
 31
0
  0
LINE
  8
1
 62
2
 10
1499.32038669287
 20
-500.6343439549897
 30
0
 11
1497.0813168394
 21
-500.6343439549897
 31
0
  0
LINE
  8
1
 62
2
 10
1499.32038669287
 20
-502.0343439549898
 30
0
 11
1496.89891265507
 21
-502.0343439549898
 31
0
  0
LINE
  8
1
 62
3
 10
1499.32038669287
 20
-498.33434395499
 30
0
 11
1499.32038669287
 21
-499.33434395499
 31
0
  0
LINE
  8
1
 62
3
 10
1499.32038669287
 20
-494.83434395499
 30
0
 11
1499.32038669287
 21
-500.3843439549897
 31
0
  0
LINE
  8
1
 62
3
 10
1499.32038669287
 20
-494.83434395499
 30
0
 11
1499.32038669287
 21
-500.3843439549897
 31
0
  0
LINE
  8
1
 62
2
 10
1499.32038669287
 20
-507.0343439549898
 30
0
 11
1460.152392313372
 21
-507.0343439549898
 31
0
  0
LINE
  8
1
 62
2
 10
1499.32038669287
 20
-505.6343439549897
 30
0
 11
1460.121426673531
 21
-505.6343439549897
 31
0
  0
LINE
  8
1
 62
2
 10
1499.32038669287
 20
-504.5343439549898
 30
0
 11
1459.977576218846
 21
-504.5343439549898
 31
0
  0
LINE
  8
1
 62
2
 10
1499.32038669287
 20
-503.1343439549897
 30
0
 11
1459.669484407359
 21
-503.1343439549897
 31
0
  0
LINE
  8
1
 62
2
 10
1497.30425528691
 20
-502.0343439549898
 30
0
 11
1459.348797924401
 21
-502.0343439549898
 31
0
  0
LINE
  8
1
 62
2
 10
1499.32038669287
 20
-500.6343439549897
 30
0
 11
1458.867573769451
 21
-500.6343439549897
 31
0
  0
LINE
  8
1
 62
3
 10
1499.32038669287
 20
-494.83434395499
 30
0
 11
1499.32038669287
 21
-499.83434395499
 31
0
  0
LINE
  8
1
 62
3
 10
1507.22038669287
 20
-494.83434395499
 30
0
 11
1507.22038669287
 21
-499.83434395499
 31
0
  0
LINE
  8
1
 62
2
 10
1525.544342640739
 20
-501.83434395499
 30
0
 11
1525.544342640739
 21
-500.83434395499
 31
0
  0
LINE
  8
1
 62
2
 10
1525.544342640739
 20
-500.83434395499
 30
0
 11
1526.544342640739
 21
-500.83434395499
 31
0
  0
LINE
  8
1
 62
2
 10
1526.544342640739
 20
-500.83434395499
 30
0
 11
1526.544342640739
 21
-501.83434395499
 31
0
  0
LINE
  8
1
 62
2
 10
1526.544342640739
 20
-501.83434395499
 30
0
 11
1525.544342640739
 21
-501.83434395499
 31
0
  0
LINE
  8
1
 62
2
 10
1527.044342640739
 20
-500.33434395499
 30
0
 11
1527.044342640739
 21
-502.33434395499
 31
0
  0
LINE
  8
1
 62
2
 10
1527.044342640739
 20
-502.33434395499
 30
0
 11
1525.044342640739
 21
-502.33434395499
 31
0
  0
LINE
  8
1
 62
2
 10
1525.044342640739
 20
-502.33434395499
 30
0
 11
1525.044342640739
 21
-500.33434395499
 31
0
  0
LINE
  8
1
 62
2
 10
1525.044342640739
 20
-500.33434395499
 30
0
 11
1527.044342640739
 21
-500.33434395499
 31
0
  0
LINE
  8
1
 62
2
 10
1527.044342640739
 20
-500.33434395499
 30
0
 11
1526.544342640739
 21
-500.83434395499
 31
0
  0
LINE
  8
1
 62
2
 10
1526.544342640739
 20
-501.83434395499
 30
0
 11
1527.044342640739
 21
-502.33434395499
 31
0
  0
LINE
  8
1
 62
2
 10
1525.544342640739
 20
-501.83434395499
 30
0
 11
1525.044342640739
 21
-502.33434395499
 31
0
  0
LINE
  8
1
 62
2
 10
1525.544342640739
 20
-500.83434395499
 30
0
 11
1525.044342640739
 21
-500.33434395499
 31
0
  0
LINE
  8
1
 62
2
 10
1525.544342640739
 20
-499.33434395499
 30
0
 11
1525.544342640739
 21
-498.33434395499
 31
0
  0
LINE
  8
1
 62
2
 10
1525.544342640739
 20
-498.33434395499
 30
0
 11
1526.544342640739
 21
-498.33434395499
 31
0
  0
LINE
  8
1
 62
2
 10
1526.544342640739
 20
-498.33434395499
 30
0
 11
1526.544342640739
 21
-499.33434395499
 31
0
  0
LINE
  8
1
 62
2
 10
1526.544342640739
 20
-499.33434395499
 30
0
 11
1525.544342640739
 21
-499.33434395499
 31
0
  0
LINE
  8
1
 62
2
 10
1527.044342640739
 20
-497.83434395499
 30
0
 11
1527.044342640739
 21
-499.83434395499
 31
0
  0
LINE
  8
1
 62
2
 10
1527.044342640739
 20
-499.83434395499
 30
0
 11
1525.044342640739
 21
-499.83434395499
 31
0
  0
LINE
  8
1
 62
2
 10
1525.044342640739
 20
-499.83434395499
 30
0
 11
1525.044342640739
 21
-497.83434395499
 31
0
  0
LINE
  8
1
 62
2
 10
1525.044342640739
 20
-497.83434395499
 30
0
 11
1527.044342640739
 21
-497.83434395499
 31
0
  0
LINE
  8
1
 62
2
 10
1527.044342640739
 20
-497.83434395499
 30
0
 11
1526.544342640739
 21
-498.33434395499
 31
0
  0
LINE
  8
1
 62
2
 10
1526.544342640739
 20
-499.33434395499
 30
0
 11
1527.044342640739
 21
-499.83434395499
 31
0
  0
LINE
  8
1
 62
2
 10
1525.544342640739
 20
-499.33434395499
 30
0
 11
1525.044342640739
 21
-499.83434395499
 31
0
  0
LINE
  8
1
 62
2
 10
1525.544342640739
 20
-498.33434395499
 30
0
 11
1525.044342640739
 21
-497.83434395499
 31
0
  0
LINE
  8
1
 62
2
 10
1525.544342640739
 20
-496.83434395499
 30
0
 11
1525.544342640739
 21
-495.83434395499
 31
0
  0
LINE
  8
1
 62
2
 10
1525.544342640739
 20
-495.83434395499
 30
0
 11
1526.544342640739
 21
-495.83434395499
 31
0
  0
LINE
  8
1
 62
2
 10
1526.544342640739
 20
-495.83434395499
 30
0
 11
1526.544342640739
 21
-496.83434395499
 31
0
  0
LINE
  8
1
 62
2
 10
1526.544342640739
 20
-496.83434395499
 30
0
 11
1525.544342640739
 21
-496.83434395499
 31
0
  0
LINE
  8
1
 62
2
 10
1527.044342640739
 20
-495.33434395499
 30
0
 11
1527.044342640739
 21
-497.33434395499
 31
0
  0
LINE
  8
1
 62
2
 10
1527.044342640739
 20
-497.33434395499
 30
0
 11
1525.044342640739
 21
-497.33434395499
 31
0
  0
LINE
  8
1
 62
2
 10
1525.044342640739
 20
-497.33434395499
 30
0
 11
1525.044342640739
 21
-495.33434395499
 31
0
  0
LINE
  8
1
 62
2
 10
1525.044342640739
 20
-495.33434395499
 30
0
 11
1527.044342640739
 21
-495.33434395499
 31
0
  0
LINE
  8
1
 62
2
 10
1527.044342640739
 20
-495.33434395499
 30
0
 11
1526.544342640739
 21
-495.83434395499
 31
0
  0
LINE
  8
1
 62
2
 10
1526.544342640739
 20
-496.83434395499
 30
0
 11
1527.044342640739
 21
-497.33434395499
 31
0
  0
LINE
  8
1
 62
2
 10
1525.544342640739
 20
-496.83434395499
 30
0
 11
1525.044342640739
 21
-497.33434395499
 31
0
  0
LINE
  8
1
 62
2
 10
1525.544342640739
 20
-495.83434395499
 30
0
 11
1525.044342640739
 21
-495.33434395499
 31
0
  0
LINE
  8
1
 62
2
 10
1361.745947594871
 20
-518.058659624314
 30
0
 11
1391.485410550163
 21
-518.058659624314
 31
0
  0
LINE
  8
1
 62
2
 10
1361.745947594871
 20
-513.058659624314
 30
0
 11
1391.485410550163
 21
-513.058659624314
 31
0
  0
LINE
  8
1
 62
2
 10
1361.745947594871
 20
-508.058659624314
 30
0
 11
1391.485410550163
 21
-508.058659624314
 31
0
  0
LINE
  8
1
 62
2
 10
1525.544342640739
 20
-516.83434395499
 30
0
 11
1525.544342640739
 21
-515.83434395499
 31
0
  0
LINE
  8
1
 62
2
 10
1525.544342640739
 20
-515.83434395499
 30
0
 11
1526.544342640739
 21
-515.83434395499
 31
0
  0
LINE
  8
1
 62
2
 10
1526.544342640739
 20
-515.83434395499
 30
0
 11
1526.544342640739
 21
-516.83434395499
 31
0
  0
LINE
  8
1
 62
2
 10
1526.544342640739
 20
-516.83434395499
 30
0
 11
1525.544342640739
 21
-516.83434395499
 31
0
  0
LINE
  8
1
 62
2
 10
1527.044342640739
 20
-515.33434395499
 30
0
 11
1527.044342640739
 21
-517.33434395499
 31
0
  0
LINE
  8
1
 62
2
 10
1527.044342640739
 20
-517.33434395499
 30
0
 11
1525.044342640739
 21
-517.33434395499
 31
0
  0
LINE
  8
1
 62
2
 10
1525.044342640739
 20
-517.33434395499
 30
0
 11
1525.044342640739
 21
-515.33434395499
 31
0
  0
LINE
  8
1
 62
2
 10
1525.044342640739
 20
-515.33434395499
 30
0
 11
1527.044342640739
 21
-515.33434395499
 31
0
  0
LINE
  8
1
 62
2
 10
1527.044342640739
 20
-515.33434395499
 30
0
 11
1526.544342640739
 21
-515.83434395499
 31
0
  0
LINE
  8
1
 62
2
 10
1526.544342640739
 20
-516.83434395499
 30
0
 11
1527.044342640739
 21
-517.33434395499
 31
0
  0
LINE
  8
1
 62
2
 10
1525.544342640739
 20
-516.83434395499
 30
0
 11
1525.044342640739
 21
-517.33434395499
 31
0
  0
LINE
  8
1
 62
2
 10
1525.544342640739
 20
-515.83434395499
 30
0
 11
1525.044342640739
 21
-515.33434395499
 31
0
  0
LINE
  8
1
 62
2
 10
1525.544342640739
 20
-514.33434395499
 30
0
 11
1525.544342640739
 21
-513.33434395499
 31
0
  0
LINE
  8
1
 62
2
 10
1525.544342640739
 20
-513.33434395499
 30
0
 11
1526.544342640739
 21
-513.33434395499
 31
0
  0
LINE
  8
1
 62
2
 10
1526.544342640739
 20
-513.33434395499
 30
0
 11
1526.544342640739
 21
-514.33434395499
 31
0
  0
LINE
  8
1
 62
2
 10
1526.544342640739
 20
-514.33434395499
 30
0
 11
1525.544342640739
 21
-514.33434395499
 31
0
  0
LINE
  8
1
 62
2
 10
1527.044342640739
 20
-512.83434395499
 30
0
 11
1527.044342640739
 21
-514.83434395499
 31
0
  0
LINE
  8
1
 62
2
 10
1527.044342640739
 20
-514.83434395499
 30
0
 11
1525.044342640739
 21
-514.83434395499
 31
0
  0
LINE
  8
1
 62
2
 10
1525.044342640739
 20
-514.83434395499
 30
0
 11
1525.044342640739
 21
-512.83434395499
 31
0
  0
LINE
  8
1
 62
2
 10
1525.044342640739
 20
-512.83434395499
 30
0
 11
1527.044342640739
 21
-512.83434395499
 31
0
  0
LINE
  8
1
 62
2
 10
1527.044342640739
 20
-512.83434395499
 30
0
 11
1526.544342640739
 21
-513.33434395499
 31
0
  0
LINE
  8
1
 62
2
 10
1526.544342640739
 20
-514.33434395499
 30
0
 11
1527.044342640739
 21
-514.83434395499
 31
0
  0
LINE
  8
1
 62
2
 10
1525.544342640739
 20
-514.33434395499
 30
0
 11
1525.044342640739
 21
-514.83434395499
 31
0
  0
LINE
  8
1
 62
2
 10
1525.544342640739
 20
-513.33434395499
 30
0
 11
1525.044342640739
 21
-512.83434395499
 31
0
  0
LINE
  8
1
 62
2
 10
1523.283447513344
 20
-514.83434395499
 30
0
 11
1523.283447513344
 21
-517.83434395499
 31
0
  0
LINE
  8
1
 62
2
 10
1523.283447513344
 20
-494.83434395499
 30
0
 11
1523.283447513344
 21
-497.83434395499
 31
0
  0
LINE
  8
1
 62
2
 10
1524.083447513344
 20
-517.83434395499
 30
0
 11
1523.283447513344
 21
-517.83434395499
 31
0
  0
LINE
  8
1
 62
2
 10
1524.083447513344
 20
-514.83434395499
 30
0
 11
1523.283447513344
 21
-514.83434395499
 31
0
  0
LINE
  8
1
 62
2
 10
1524.083447513344
 20
-497.83434395499
 30
0
 11
1523.283447513344
 21
-497.83434395499
 31
0
  0
LINE
  8
1
 62
2
 10
1524.083447513344
 20
-494.83434395499
 30
0
 11
1523.283447513344
 21
-494.83434395499
 31
0
  0
LINE
  8
1
 62
2
 10
1455.146529303907
 20
-517.0343439549898
 30
0
 11
1417.628149893582
 21
-517.0343439549898
 31
0
  0
LINE
  8
1
 62
2
 10
1455.482482970988
 20
-515.6343439549897
 30
0
 11
1417.628149893582
 21
-515.6343439549897
 31
0
  0
LINE
  8
1
 62
3
 10
1499.32038669287
 20
-516.9220000582551
 30
0
 11
1499.32038669287
 21
-515.806870480673
 31
0
  0
LINE
  8
1
 62
3
 10
1499.32038669287
 20
-516.9220000582551
 30
0
 11
1499.32038669287
 21
-515.806870480673
 31
0
  0
LINE
  8
1
 62
3
 10
1499.32038669287
 20
-514.4220000582551
 30
0
 11
1499.32038669287
 21
-513.306870480673
 31
0
  0
LINE
  8
1
 62
3
 10
1499.32038669287
 20
-514.4220000582551
 30
0
 11
1499.32038669287
 21
-513.306870480673
 31
0
  0
LINE
  8
1
 62
2
 10
1417.628149893582
 20
-515.6343439549897
 30
0
 11
1417.628149893582
 21
-517.0343439549898
 31
0
  0
LINE
  8
1
 62
2
 10
1417.628149893582
 20
-515.9843439549901
 30
0
 11
1407.628149893582
 21
-515.9843439549901
 31
0
  0
LINE
  8
1
 62
2
 10
1407.628149893582
 20
-515.9843439549901
 30
0
 11
1407.628149893582
 21
-516.6843439549899
 31
0
  0
LINE
  8
1
 62
2
 10
1407.628149893582
 20
-516.6843439549899
 30
0
 11
1417.628149893582
 21
-516.6843439549899
 31
0
  0
LINE
  8
1
 62
2
 10
1499.32038669287
 20
-515.6343439549897
 30
0
 11
1457.468290166373
 21
-515.6343439549897
 31
0
  0
LINE
  8
1
 62
2
 10
1499.32038669287
 20
-517.0343439549898
 30
0
 11
1457.164403700668
 21
-517.0343439549898
 31
0
  0
LINE
  8
1
 62
3
 10
1499.32038669287
 20
-511.9220000582551
 30
0
 11
1499.32038669287
 21
-510.806870480673
 31
0
  0
LINE
  8
1
 62
3
 10
1499.32038669287
 20
-511.9220000582551
 30
0
 11
1499.32038669287
 21
-510.806870480673
 31
0
  0
LINE
  8
1
 62
3
 10
1522.633447513344
 20
-502.33434395499
 30
0
 11
1522.633447513344
 21
-500.33434395499
 31
0
  0
LINE
  8
1
 62
3
 10
1524.083447513344
 20
-502.33434395499
 30
0
 11
1522.633447513344
 21
-502.33434395499
 31
0
  0
LINE
  8
1
 62
3
 10
1524.083447513344
 20
-500.33434395499
 30
0
 11
1522.633447513344
 21
-500.33434395499
 31
0
  0
LINE
  8
1
 62
3
 10
1522.633447513344
 20
-512.33434395499
 30
0
 11
1522.633447513344
 21
-510.33434395499
 31
0
  0
LINE
  8
1
 62
3
 10
1524.083447513344
 20
-510.33434395499
 30
0
 11
1522.633447513344
 21
-510.33434395499
 31
0
  0
LINE
  8
1
 62
3
 10
1524.083447513344
 20
-512.33434395499
 30
0
 11
1522.633447513344
 21
-512.33434395499
 31
0
  0
LINE
  8
1
 62
3
 10
1524.583447513344
 20
-517.83434395499
 30
0
 11
1524.583447513344
 21
-494.83434395499
 31
0
  0
LINE
  8
1
 62
3
 10
1524.583447513344
 20
-494.83434395499
 30
0
 11
1529.083447513344
 21
-494.83434395499
 31
0
  0
LINE
  8
1
 62
3
 10
1529.083447513344
 20
-494.83434395499
 30
0
 11
1529.083447513344
 21
-517.83434395499
 31
0
  0
LINE
  8
1
 62
3
 10
1529.083447513344
 20
-517.83434395499
 30
0
 11
1524.083447513344
 21
-517.83434395499
 31
0
  0
LINE
  8
1
 62
3
 10
1524.083447513344
 20
-517.83434395499
 30
0
 11
1524.083447513344
 21
-494.83434395499
 31
0
  0
LINE
  8
1
 62
2
 10
1525.544342640739
 20
-511.83434395499
 30
0
 11
1525.544342640739
 21
-510.83434395499
 31
0
  0
LINE
  8
1
 62
2
 10
1525.544342640739
 20
-510.83434395499
 30
0
 11
1526.544342640739
 21
-510.83434395499
 31
0
  0
LINE
  8
1
 62
2
 10
1526.544342640739
 20
-510.83434395499
 30
0
 11
1526.544342640739
 21
-511.83434395499
 31
0
  0
LINE
  8
1
 62
2
 10
1526.544342640739
 20
-511.83434395499
 30
0
 11
1525.544342640739
 21
-511.83434395499
 31
0
  0
LINE
  8
1
 62
2
 10
1527.044342640739
 20
-510.33434395499
 30
0
 11
1527.044342640739
 21
-512.33434395499
 31
0
  0
LINE
  8
1
 62
2
 10
1527.044342640739
 20
-512.33434395499
 30
0
 11
1525.044342640739
 21
-512.33434395499
 31
0
  0
LINE
  8
1
 62
2
 10
1525.044342640739
 20
-512.33434395499
 30
0
 11
1525.044342640739
 21
-510.33434395499
 31
0
  0
LINE
  8
1
 62
2
 10
1525.044342640739
 20
-510.33434395499
 30
0
 11
1527.044342640739
 21
-510.33434395499
 31
0
  0
LINE
  8
1
 62
2
 10
1527.044342640739
 20
-510.33434395499
 30
0
 11
1526.544342640739
 21
-510.83434395499
 31
0
  0
LINE
  8
1
 62
2
 10
1526.544342640739
 20
-511.83434395499
 30
0
 11
1527.044342640739
 21
-512.33434395499
 31
0
  0
LINE
  8
1
 62
2
 10
1525.544342640739
 20
-511.83434395499
 30
0
 11
1525.044342640739
 21
-512.33434395499
 31
0
  0
LINE
  8
1
 62
2
 10
1525.544342640739
 20
-510.83434395499
 30
0
 11
1525.044342640739
 21
-510.33434395499
 31
0
  0
LINE
  8
1
 62
2
 10
1525.544342640739
 20
-509.33434395499
 30
0
 11
1525.544342640739
 21
-508.33434395499
 31
0
  0
LINE
  8
1
 62
2
 10
1525.544342640739
 20
-508.33434395499
 30
0
 11
1526.544342640739
 21
-508.33434395499
 31
0
  0
LINE
  8
1
 62
2
 10
1526.544342640739
 20
-508.33434395499
 30
0
 11
1526.544342640739
 21
-509.33434395499
 31
0
  0
LINE
  8
1
 62
2
 10
1526.544342640739
 20
-509.33434395499
 30
0
 11
1525.544342640739
 21
-509.33434395499
 31
0
  0
LINE
  8
1
 62
2
 10
1527.044342640739
 20
-507.83434395499
 30
0
 11
1527.044342640739
 21
-509.83434395499
 31
0
  0
LINE
  8
1
 62
2
 10
1527.044342640739
 20
-509.83434395499
 30
0
 11
1525.044342640739
 21
-509.83434395499
 31
0
  0
LINE
  8
1
 62
2
 10
1525.044342640739
 20
-509.83434395499
 30
0
 11
1525.044342640739
 21
-507.83434395499
 31
0
  0
LINE
  8
1
 62
2
 10
1525.044342640739
 20
-507.83434395499
 30
0
 11
1527.044342640739
 21
-507.83434395499
 31
0
  0
LINE
  8
1
 62
2
 10
1527.044342640739
 20
-507.83434395499
 30
0
 11
1526.544342640739
 21
-508.33434395499
 31
0
  0
LINE
  8
1
 62
2
 10
1526.544342640739
 20
-509.33434395499
 30
0
 11
1527.044342640739
 21
-509.83434395499
 31
0
  0
LINE
  8
1
 62
2
 10
1525.544342640739
 20
-509.33434395499
 30
0
 11
1525.044342640739
 21
-509.83434395499
 31
0
  0
LINE
  8
1
 62
2
 10
1525.544342640739
 20
-508.33434395499
 30
0
 11
1525.044342640739
 21
-507.83434395499
 31
0
  0
LINE
  8
1
 62
2
 10
1525.544342640739
 20
-506.83434395499
 30
0
 11
1525.544342640739
 21
-505.83434395499
 31
0
  0
LINE
  8
1
 62
2
 10
1525.544342640739
 20
-505.83434395499
 30
0
 11
1526.544342640739
 21
-505.83434395499
 31
0
  0
LINE
  8
1
 62
2
 10
1526.544342640739
 20
-505.83434395499
 30
0
 11
1526.544342640739
 21
-506.83434395499
 31
0
  0
LINE
  8
1
 62
2
 10
1526.544342640739
 20
-506.83434395499
 30
0
 11
1525.544342640739
 21
-506.83434395499
 31
0
  0
LINE
  8
1
 62
2
 10
1527.044342640739
 20
-505.33434395499
 30
0
 11
1527.044342640739
 21
-507.33434395499
 31
0
  0
LINE
  8
1
 62
2
 10
1527.044342640739
 20
-507.33434395499
 30
0
 11
1525.044342640739
 21
-507.33434395499
 31
0
  0
LINE
  8
1
 62
2
 10
1525.044342640739
 20
-507.33434395499
 30
0
 11
1525.044342640739
 21
-505.33434395499
 31
0
  0
LINE
  8
1
 62
2
 10
1525.044342640739
 20
-505.33434395499
 30
0
 11
1527.044342640739
 21
-505.33434395499
 31
0
  0
LINE
  8
1
 62
2
 10
1527.044342640739
 20
-505.33434395499
 30
0
 11
1526.544342640739
 21
-505.83434395499
 31
0
  0
LINE
  8
1
 62
2
 10
1526.544342640739
 20
-506.83434395499
 30
0
 11
1527.044342640739
 21
-507.33434395499
 31
0
  0
LINE
  8
1
 62
2
 10
1525.544342640739
 20
-506.83434395499
 30
0
 11
1525.044342640739
 21
-507.33434395499
 31
0
  0
LINE
  8
1
 62
2
 10
1525.544342640739
 20
-505.83434395499
 30
0
 11
1525.044342640739
 21
-505.33434395499
 31
0
  0
LINE
  8
1
 62
2
 10
1525.544342640739
 20
-504.33434395499
 30
0
 11
1525.544342640739
 21
-503.33434395499
 31
0
  0
LINE
  8
1
 62
2
 10
1525.544342640739
 20
-503.33434395499
 30
0
 11
1526.544342640739
 21
-503.33434395499
 31
0
  0
LINE
  8
1
 62
2
 10
1526.544342640739
 20
-503.33434395499
 30
0
 11
1526.544342640739
 21
-504.33434395499
 31
0
  0
LINE
  8
1
 62
2
 10
1526.544342640739
 20
-504.33434395499
 30
0
 11
1525.544342640739
 21
-504.33434395499
 31
0
  0
LINE
  8
1
 62
2
 10
1527.044342640739
 20
-502.83434395499
 30
0
 11
1527.044342640739
 21
-504.83434395499
 31
0
  0
LINE
  8
1
 62
2
 10
1527.044342640739
 20
-504.83434395499
 30
0
 11
1525.044342640739
 21
-504.83434395499
 31
0
  0
LINE
  8
1
 62
2
 10
1525.044342640739
 20
-504.83434395499
 30
0
 11
1525.044342640739
 21
-502.83434395499
 31
0
  0
LINE
  8
1
 62
2
 10
1525.044342640739
 20
-502.83434395499
 30
0
 11
1527.044342640739
 21
-502.83434395499
 31
0
  0
LINE
  8
1
 62
2
 10
1527.044342640739
 20
-502.83434395499
 30
0
 11
1526.544342640739
 21
-503.33434395499
 31
0
  0
LINE
  8
1
 62
2
 10
1526.544342640739
 20
-504.33434395499
 30
0
 11
1527.044342640739
 21
-504.83434395499
 31
0
  0
LINE
  8
1
 62
2
 10
1525.544342640739
 20
-504.33434395499
 30
0
 11
1525.044342640739
 21
-504.83434395499
 31
0
  0
LINE
  8
1
 62
2
 10
1525.544342640739
 20
-503.33434395499
 30
0
 11
1525.044342640739
 21
-502.83434395499
 31
0
  0
LINE
  8
1
 62
2
 10
1525.544342640739
 20
-501.83434395499
 30
0
 11
1525.544342640739
 21
-500.83434395499
 31
0
  0
LINE
  8
1
 62
2
 10
1525.544342640739
 20
-500.83434395499
 30
0
 11
1526.544342640739
 21
-500.83434395499
 31
0
  0
LINE
  8
1
 62
2
 10
1526.544342640739
 20
-500.83434395499
 30
0
 11
1526.544342640739
 21
-501.83434395499
 31
0
  0
LINE
  8
1
 62
2
 10
1526.544342640739
 20
-501.83434395499
 30
0
 11
1525.544342640739
 21
-501.83434395499
 31
0
  0
LINE
  8
1
 62
2
 10
1527.044342640739
 20
-500.33434395499
 30
0
 11
1527.044342640739
 21
-502.33434395499
 31
0
  0
LINE
  8
1
 62
2
 10
1527.044342640739
 20
-502.33434395499
 30
0
 11
1525.044342640739
 21
-502.33434395499
 31
0
  0
LINE
  8
1
 62
2
 10
1525.044342640739
 20
-502.33434395499
 30
0
 11
1525.044342640739
 21
-500.33434395499
 31
0
  0
LINE
  8
1
 62
2
 10
1525.044342640739
 20
-500.33434395499
 30
0
 11
1527.044342640739
 21
-500.33434395499
 31
0
  0
LINE
  8
1
 62
2
 10
1527.044342640739
 20
-500.33434395499
 30
0
 11
1526.544342640739
 21
-500.83434395499
 31
0
  0
LINE
  8
1
 62
2
 10
1526.544342640739
 20
-501.83434395499
 30
0
 11
1527.044342640739
 21
-502.33434395499
 31
0
  0
LINE
  8
1
 62
2
 10
1525.544342640739
 20
-501.83434395499
 30
0
 11
1525.044342640739
 21
-502.33434395499
 31
0
  0
LINE
  8
1
 62
2
 10
1525.544342640739
 20
-500.83434395499
 30
0
 11
1525.044342640739
 21
-500.33434395499
 31
0
  0
LINE
  8
1
 62
2
 10
1499.32038669287
 20
-502.0343439549898
 30
0
 11
1497.30425528691
 21
-502.0343439549898
 31
0
  0
LINE
  8
1
 62
2
 10
1417.628149893582
 20
-500.6343439549897
 30
0
 11
1417.628149893582
 21
-502.0343439549898
 31
0
  0
LINE
  8
1
 62
2
 10
1417.628149893582
 20
-500.9843439549901
 30
0
 11
1407.628149893582
 21
-500.9843439549901
 31
0
  0
LINE
  8
1
 62
2
 10
1407.628149893582
 20
-500.9843439549901
 30
0
 11
1407.628149893582
 21
-501.6843439549899
 31
0
  0
LINE
  8
1
 62
2
 10
1407.628149893582
 20
-501.6843439549899
 30
0
 11
1417.628149893582
 21
-501.6843439549899
 31
0
  0
LINE
  8
1
 62
2
 10
1417.628149893582
 20
-503.1343439549897
 30
0
 11
1417.628149893582
 21
-504.5343439549898
 31
0
  0
LINE
  8
1
 62
2
 10
1417.628149893582
 20
-503.4843439549901
 30
0
 11
1407.628149893582
 21
-503.4843439549901
 31
0
  0
LINE
  8
1
 62
2
 10
1407.628149893582
 20
-503.4843439549901
 30
0
 11
1407.628149893582
 21
-504.1843439549899
 31
0
  0
LINE
  8
1
 62
2
 10
1407.628149893582
 20
-504.1843439549899
 30
0
 11
1417.628149893582
 21
-504.1843439549899
 31
0
  0
LINE
  8
1
 62
2
 10
1417.628149893582
 20
-505.6343439549897
 30
0
 11
1417.628149893582
 21
-507.0343439549898
 31
0
  0
LINE
  8
1
 62
2
 10
1417.628149893582
 20
-505.9843439549901
 30
0
 11
1407.628149893582
 21
-505.9843439549901
 31
0
  0
LINE
  8
1
 62
2
 10
1407.628149893582
 20
-505.9843439549901
 30
0
 11
1407.628149893582
 21
-506.6843439549899
 31
0
  0
LINE
  8
1
 62
2
 10
1407.628149893582
 20
-506.6843439549899
 30
0
 11
1417.628149893582
 21
-506.6843439549899
 31
0
  0
LINE
  8
1
 62
2
 10
1417.628149893582
 20
-508.1343439549897
 30
0
 11
1417.628149893582
 21
-509.5343439549898
 31
0
  0
LINE
  8
1
 62
2
 10
1417.628149893582
 20
-508.4843439549901
 30
0
 11
1407.628149893582
 21
-508.4843439549901
 31
0
  0
LINE
  8
1
 62
2
 10
1407.628149893582
 20
-508.4843439549901
 30
0
 11
1407.628149893582
 21
-509.1843439549899
 31
0
  0
LINE
  8
1
 62
2
 10
1407.628149893582
 20
-509.1843439549899
 30
0
 11
1417.628149893582
 21
-509.1843439549899
 31
0
  0
LINE
  8
1
 62
2
 10
1417.628149893582
 20
-510.6343439549897
 30
0
 11
1417.628149893582
 21
-512.0343439549898
 31
0
  0
LINE
  8
1
 62
2
 10
1417.628149893582
 20
-510.9843439549901
 30
0
 11
1407.628149893582
 21
-510.9843439549901
 31
0
  0
LINE
  8
1
 62
2
 10
1407.628149893582
 20
-510.9843439549901
 30
0
 11
1407.628149893582
 21
-511.6843439549899
 31
0
  0
LINE
  8
1
 62
2
 10
1407.628149893582
 20
-511.6843439549899
 30
0
 11
1417.628149893582
 21
-511.6843439549899
 31
0
  0
LINE
  8
1
 62
2
 10
1417.628149893582
 20
-513.1343439549897
 30
0
 11
1417.628149893582
 21
-514.5343439549898
 31
0
  0
LINE
  8
1
 62
2
 10
1417.628149893582
 20
-513.4843439549901
 30
0
 11
1407.628149893582
 21
-513.4843439549901
 31
0
  0
LINE
  8
1
 62
2
 10
1407.628149893582
 20
-513.4843439549901
 30
0
 11
1407.628149893582
 21
-514.1843439549899
 31
0
  0
LINE
  8
1
 62
2
 10
1407.628149893582
 20
-514.1843439549899
 30
0
 11
1417.628149893582
 21
-514.1843439549899
 31
0
  0
LINE
  8
1
 62
2
 10
1499.32038669287
 20
-508.1343439549897
 30
0
 11
1460.037478135592
 21
-508.1343439549897
 31
0
  0
LINE
  8
1
 62
2
 10
1499.32038669287
 20
-510.6343439549897
 30
0
 11
1459.333329456075
 21
-510.6343439549897
 31
0
  0
LINE
  8
1
 62
2
 10
1499.32038669287
 20
-513.1343439549897
 30
0
 11
1458.335162881612
 21
-513.1343439549897
 31
0
  0
LINE
  8
1
 62
2
 10
1499.32038669287
 20
-509.5343439549898
 30
0
 11
1459.704771294083
 21
-509.5343439549898
 31
0
  0
LINE
  8
1
 62
2
 10
1499.32038669287
 20
-512.0343439549898
 30
0
 11
1458.78291549487
 21
-512.0343439549898
 31
0
  0
LINE
  8
1
 62
2
 10
1499.32038669287
 20
-514.5343439549898
 30
0
 11
1457.810434838869
 21
-514.5343439549898
 31
0
  0
LINE
  8
1
 62
2
 10
1391.485410550163
 20
-473.058659624314
 30
0
 11
1391.485410550163
 21
-513.058659624314
 31
0
  0
LINE
  8
1
 62
2
 10
1377.759897941896
 20
-473.058659624314
 30
0
 11
1377.759897941896
 21
-513.058659624314
 31
0
  0
LINE
  8
1
 62
2
 10
1361.745947594871
 20
-473.058659624314
 30
0
 11
1375.373632000162
 21
-473.058659624314
 31
0
  0
LINE
  8
1
 62
2
 10
1361.745947594871
 20
-478.058659624314
 30
0
 11
1391.485410550163
 21
-478.058659624314
 31
0
  0
LINE
  8
1
 62
2
 10
1361.745947594871
 20
-483.058659624314
 30
0
 11
1391.485410550163
 21
-483.058659624314
 31
0
  0
LINE
  8
1
 62
2
 10
1361.745947594871
 20
-488.058659624314
 30
0
 11
1391.485410550163
 21
-488.058659624314
 31
0
  0
LINE
  8
1
 62
2
 10
1361.745947594871
 20
-493.058659624314
 30
0
 11
1391.485410550163
 21
-493.058659624314
 31
0
  0
LINE
  8
1
 62
2
 10
1361.745947594871
 20
-498.058659624314
 30
0
 11
1391.485410550163
 21
-498.058659624314
 31
0
  0
LINE
  8
1
 62
2
 10
1361.745947594871
 20
-503.058659624314
 30
0
 11
1391.485410550163
 21
-503.058659624314
 31
0
  0
LINE
  8
1
 62
2
 10
1361.745947594871
 20
-523.058659624314
 30
0
 11
1391.485410550163
 21
-523.058659624314
 31
0
  0
LINE
  8
1
 62
2
 10
1456.867573769451
 20
-500.6343439549897
 30
0
 11
1417.628149893582
 21
-500.6343439549897
 31
0
  0
LINE
  8
1
 62
2
 10
1457.348797924401
 20
-502.0343439549898
 30
0
 11
1417.628149893582
 21
-502.0343439549898
 31
0
  0
LINE
  8
1
 62
2
 10
1457.669484407359
 20
-503.1343439549897
 30
0
 11
1417.628149893582
 21
-503.1343439549897
 31
0
  0
LINE
  8
1
 62
2
 10
1457.977576218846
 20
-504.5343439549898
 30
0
 11
1417.628149893582
 21
-504.5343439549898
 31
0
  0
LINE
  8
1
 62
2
 10
1458.121426673531
 20
-505.6343439549897
 30
0
 11
1417.628149893582
 21
-505.6343439549897
 31
0
  0
LINE
  8
1
 62
2
 10
1458.152392313372
 20
-507.0343439549898
 30
0
 11
1417.628149893582
 21
-507.0343439549898
 31
0
  0
LINE
  8
1
 62
2
 10
1458.037478135592
 20
-508.1343439549897
 30
0
 11
1417.628149893582
 21
-508.1343439549897
 31
0
  0
LINE
  8
1
 62
2
 10
1457.704771294083
 20
-509.5343439549898
 30
0
 11
1417.628149893582
 21
-509.5343439549898
 31
0
  0
LINE
  8
1
 62
2
 10
1457.333329456075
 20
-510.6343439549897
 30
0
 11
1417.628149893582
 21
-510.6343439549897
 31
0
  0
LINE
  8
1
 62
2
 10
1456.782915494874
 20
-512.0343439549898
 30
0
 11
1417.628149893582
 21
-512.0343439549898
 31
0
  0
LINE
  8
1
 62
2
 10
1456.335162881688
 20
-513.1343439549897
 30
0
 11
1417.628149893582
 21
-513.1343439549897
 31
0
  0
LINE
  8
1
 62
2
 10
1455.81043483887
 20
-514.5343439549898
 30
0
 11
1417.628149893582
 21
-514.5343439549898
 31
0
  0
LINE
  8
1
 62
2
 10
1361.745947594871
 20
-473.058659624314
 30
0
 11
1361.745947594871
 21
-513.058659624314
 31
0
  0
LINE
  8
1
 62
2
 10
1375.373632000162
 20
-473.058659624314
 30
0
 11
1391.485410550163
 21
-473.058659624314
 31
0
  0
LINE
  8
1
 62
3
 10
1524.583447513344
 20
-494.83434395499
 30
0
 11
1524.083447513344
 21
-494.83434395499
 31
0
  0
LINE
  8
1
 62
3
 10
1499.32038669287
 20
-517.83434395499
 30
0
 11
1499.32038669287
 21
-509.4220000582551
 31
0
  0
LINE
  8
1
 62
3
 10
1499.32038669287
 20
-517.83434395499
 30
0
 11
1499.32038669287
 21
-509.4220000582551
 31
0
  0
LINE
  8
1
 62
3
 10
1499.32038669287
 20
-509.4220000582551
 30
0
 11
1499.32038669287
 21
-508.306870480673
 31
0
  0
LINE
  8
1
 62
3
 10
1499.32038669287
 20
-509.4220000582551
 30
0
 11
1499.32038669287
 21
-508.306870480673
 31
0
  0
LINE
  8
1
 62
3
 10
1499.32038669287
 20
-513.306870480673
 30
0
 11
1499.32038669287
 21
-499.83434395499
 31
0
  0
LINE
  8
1
 62
3
 10
1499.32038669287
 20
-513.306870480673
 30
0
 11
1499.32038669287
 21
-502.33434395499
 31
0
  0
LINE
  8
1
 62
3
 10
1499.32038669287
 20
-503.33434395499
 30
0
 11
1499.32038669287
 21
-504.33434395499
 31
0
  0
LINE
  8
1
 62
3
 10
1499.32038669287
 20
-499.83434395499
 30
0
 11
1499.32038669287
 21
-505.3843439549897
 31
0
  0
LINE
  8
1
 62
3
 10
1499.32038669287
 20
-499.83434395499
 30
0
 11
1499.32038669287
 21
-505.3843439549897
 31
0
  0
LINE
  8
1
 62
3
 10
1502.475722021831
 20
-500.33434395499
 30
0
 11
1501.915003793331
 21
-500.33434395499
 31
0
  0
LINE
  8
1
 62
3
 10
1502.475722021831
 20
-502.33434395499
 30
0
 11
1507.22038669287
 21
-502.33434395499
 31
0
  0
LINE
  8
1
 62
3
 10
1502.475722021831
 20
-502.33434395499
 30
0
 11
1502.475722021831
 21
-500.33434395499
 31
0
  0
LINE
  8
1
 62
3
 10
1502.475722021831
 20
-510.33434395499
 30
0
 11
1501.915003793331
 21
-510.33434395499
 31
0
  0
LINE
  8
1
 62
3
 10
1502.475722021831
 20
-512.33434395499
 30
0
 11
1507.22038669287
 21
-512.33434395499
 31
0
  0
LINE
  8
1
 62
3
 10
1502.475722021831
 20
-512.33434395499
 30
0
 11
1502.475722021831
 21
-510.33434395499
 31
0
  0
LINE
  8
1
 62
3
 10
1503.82144577023
 20
-494.83434395499
 30
0
 11
1503.372871187431
 21
-494.83434395499
 31
0
  0
LINE
  8
1
 62
3
 10
1503.82144577023
 20
-497.83434395499
 30
0
 11
1503.372871187431
 21
-497.83434395499
 31
0
  0
LINE
  8
1
 62
3
 10
1503.82144577023
 20
-497.83434395499
 30
0
 11
1503.82144577023
 21
-494.83434395499
 31
0
  0
LINE
  8
1
 62
3
 10
1505.092407088163
 20
-497.83434395499
 30
0
 11
1503.82144577023
 21
-497.83434395499
 31
0
  0
LINE
  8
1
 62
3
 10
1505.092407088163
 20
-494.83434395499
 30
0
 11
1503.82144577023
 21
-494.83434395499
 31
0
  0
LINE
  8
1
 62
3
 10
1505.092407088163
 20
-494.83434395499
 30
0
 11
1505.092407088163
 21
-497.83434395499
 31
0
  0
LINE
  8
1
 62
3
 10
1503.82144577023
 20
-514.83434395499
 30
0
 11
1503.372871187431
 21
-514.83434395499
 31
0
  0
LINE
  8
1
 62
3
 10
1503.82144577023
 20
-517.83434395499
 30
0
 11
1505.092407088163
 21
-517.83434395499
 31
0
  0
LINE
  8
1
 62
3
 10
1503.82144577023
 20
-517.83434395499
 30
0
 11
1503.82144577023
 21
-514.83434395499
 31
0
  0
LINE
  8
1
 62
3
 10
1505.092407088163
 20
-517.83434395499
 30
0
 11
1506.101699899463
 21
-517.83434395499
 31
0
  0
LINE
  8
1
 62
3
 10
1505.092407088163
 20
-514.83434395499
 30
0
 11
1503.82144577023
 21
-514.83434395499
 31
0
  0
LINE
  8
1
 62
3
 10
1505.092407088163
 20
-514.83434395499
 30
0
 11
1505.092407088163
 21
-517.83434395499
 31
0
  0
LINE
  8
1
 62
3
 10
1503.372871187431
 20
-494.83434395499
 30
0
 11
1499.32038669287
 21
-494.83434395499
 31
0
  0
LINE
  8
1
 62
3
 10
1503.372871187431
 20
-497.83434395499
 30
0
 11
1503.372871187431
 21
-494.83434395499
 31
0
  0
LINE
  8
1
 62
3
 10
1506.101699899463
 20
-497.83434395499
 30
0
 11
1505.092407088163
 21
-497.83434395499
 31
0
  0
LINE
  8
1
 62
3
 10
1506.101699899463
 20
-494.83434395499
 30
0
 11
1505.092407088163
 21
-494.83434395499
 31
0
  0
LINE
  8
1
 62
3
 10
1506.101699899463
 20
-494.83434395499
 30
0
 11
1506.101699899463
 21
-497.83434395499
 31
0
  0
LINE
  8
1
 62
3
 10
1503.372871187431
 20
-517.83434395499
 30
0
 11
1503.82144577023
 21
-517.83434395499
 31
0
  0
LINE
  8
1
 62
3
 10
1503.372871187431
 20
-514.83434395499
 30
0
 11
1503.372871187431
 21
-517.83434395499
 31
0
  0
LINE
  8
1
 62
3
 10
1506.101699899463
 20
-514.83434395499
 30
0
 11
1505.092407088163
 21
-514.83434395499
 31
0
  0
LINE
  8
1
 62
3
 10
1506.101699899463
 20
-517.83434395499
 30
0
 11
1507.22038669287
 21
-517.83434395499
 31
0
  0
LINE
  8
1
 62
3
 10
1506.101699899463
 20
-517.83434395499
 30
0
 11
1506.101699899463
 21
-514.83434395499
 31
0
  0
LINE
  8
1
 62
3
 10
1507.22038669287
 20
-512.33434395499
 30
0
 11
1507.22038669287
 21
-510.33434395499
 31
0
  0
LINE
  8
1
 62
3
 10
1501.915003793331
 20
-512.33434395499
 30
0
 11
1502.475722021831
 21
-512.33434395499
 31
0
  0
LINE
  8
1
 62
3
 10
1501.915003793331
 20
-510.33434395499
 30
0
 11
1501.915003793331
 21
-512.33434395499
 31
0
  0
LINE
  8
1
 62
3
 10
1507.22038669287
 20
-510.33434395499
 30
0
 11
1502.475722021831
 21
-510.33434395499
 31
0
  0
LINE
  8
1
 62
3
 10
1507.22038669287
 20
-514.7843439549898
 30
0
 11
1507.22038669287
 21
-507.8843439549897
 31
0
  0
LINE
  8
1
 62
3
 10
1507.22038669287
 20
-502.33434395499
 30
0
 11
1507.22038669287
 21
-500.33434395499
 31
0
  0
LINE
  8
1
 62
3
 10
1501.915003793331
 20
-502.33434395499
 30
0
 11
1502.475722021831
 21
-502.33434395499
 31
0
  0
LINE
  8
1
 62
3
 10
1501.915003793331
 20
-500.33434395499
 30
0
 11
1501.915003793331
 21
-502.33434395499
 31
0
  0
LINE
  8
1
 62
3
 10
1507.22038669287
 20
-515.33434395499
 30
0
 11
1507.22038669287
 21
-499.83434395499
 31
0
  0
LINE
  8
1
 62
3
 10
1507.22038669287
 20
-500.33434395499
 30
0
 11
1502.475722021831
 21
-500.33434395499
 31
0
  0
LINE
  8
1
 62
3
 10
1507.22038669287
 20
-494.83434395499
 30
0
 11
1506.101699899463
 21
-494.83434395499
 31
0
  0
LINE
  8
1
 62
3
 10
1507.22038669287
 20
-517.83434395499
 30
0
 11
1507.22038669287
 21
-511.7843439549898
 31
0
  0
LINE
  8
1
 62
3
 10
1499.32038669287
 20
-517.83434395499
 30
0
 11
1503.372871187431
 21
-517.83434395499
 31
0
  0
LINE
  8
1
 62
3
 10
1499.32038669287
 20
-499.83434395499
 30
0
 11
1499.32038669287
 21
-517.83434395499
 31
0
  0
ARC
  8
1
 62
2
 10
1586.917382604729
 20
-435.7456699274174
 30
0
 40
1.584888506066548
 50
292.5044325750835
 51
83.107070416054
  0
ARC
  8
1
 62
2
 10
1586.178788918015
 20
-435.8506865504886
 30
0
 40
0.9998023525338093
 50
287.656205720258
 51
72.34379427972132
  0
ARC
  8
1
 62
2
 10
1576.627724261793
 20
-435.8371131440538
 30
0
 40
1.716801457968214
 50
104.1275487593594
 51
237.0471861042959
  0
ARC
  8
1
 62
2
 10
1577.083790155669
 20
-438.1547839180187
 30
0
 40
1.836597104779014
 50
268.6990129510779
 51
47.47242068584732
  0
ARC
  8
1
 62
2
 10
1576.980867115997
 20
-435.5306606062288
 30
0
 40
0.5913888003185482
 50
74.29211887374446
 51
244.0110462534871
  0
ARC
  8
1
 62
2
 10
1576.75172205454
 20
-437.828537222313
 30
0
 40
2.181779025255827
 50
216.7563052697649
 51
277.6480825424247
  0
ARC
  8
1
 62
2
 10
1576.948309740583
 20
-435.9305089024896
 30
0
 40
0.9881166539892813
 50
37.02155366937018
 51
78.75628078729953
  0
ARC
  8
1
 62
2
 10
1576.714826893651
 20
-438.4027370533844
 30
0
 40
0.6840395595015929
 50
254.0820754217119
 51
60.11048209808716
  0
ARC
  8
1
 62
2
 10
1577.992326167361
 20
-435.8655156661553
 30
0
 40
3.514933595248168
 50
228.973920752899
 51
245.3658485484449
  0
ARC
  8
1
 62
2
 10
1577.033721398278
 20
-436.1422254687185
 30
0
 40
2.021122742584644
 50
37.4918021342351
 51
77.08435358757228
  0
ARC
  8
1
 62
2
 10
1576.847080187503
 20
-437.3874937764261
 30
0
 40
3.278021670666693
 50
78.76987389931394
 51
101.2301261006705
  0
ARC
  8
1
 62
7
 10
1583.90259071977
 20
-405.5099327721153
 30
0
 40
4.800000000000046
 50
54.31466528734902
 51
72.41722399157419
  0
ARC
  8
1
 62
7
 10
1583.90259071977
 20
-405.5099327721153
 30
0
 40
4.800000000000097
 50
94.33114873078814
 51
107.5827760084258
  0
ARC
  8
1
 62
7
 10
1583.90259071977
 20
-405.5099327721153
 30
0
 40
4.800000000000041
 50
107.5827760084258
 51
125.685334712651
  0
ARC
  8
1
 62
7
 10
1583.90259071977
 20
-405.5099327721153
 30
0
 40
4.800000000000041
 50
72.41722399157419
 51
85.66885126921187
  0
ARC
  8
1
 62
7
 10
1601.396346972473
 20
-406.2099327721153
 30
0
 40
4.800000000000046
 50
54.31466528734902
 51
72.41722399157655
  0
ARC
  8
1
 62
7
 10
1601.396346972473
 20
-406.2099327721153
 30
0
 40
4.800000000000001
 50
94.33114873079094
 51
107.582776008426
  0
ARC
  8
1
 62
7
 10
1601.396346972473
 20
-406.2099327721153
 30
0
 40
4.799999999999987
 50
107.582776008426
 51
125.6853347126532
  0
ARC
  8
1
 62
7
 10
1601.396346972473
 20
-406.2099327721153
 30
0
 40
4.799999999999917
 50
72.41722399157655
 51
85.66885126921176
  0
ARC
  8
1
 62
7
 10
1625.796346972473
 20
-406.2099327721153
 30
0
 40
4.800000000000046
 50
54.31466528734902
 51
72.41722399157398
  0
ARC
  8
1
 62
7
 10
1625.796346972473
 20
-406.2099327721153
 30
0
 40
4.799999999999984
 50
94.33114873078823
 51
107.582776008426
  0
ARC
  8
1
 62
7
 10
1625.796346972473
 20
-406.2099327721153
 30
0
 40
4.799999999999987
 50
107.582776008426
 51
125.685334712651
  0
ARC
  8
1
 62
7
 10
1625.796346972473
 20
-406.2099327721153
 30
0
 40
4.799999999999987
 50
72.41722399157398
 51
85.66885126921176
  0
ARC
  8
1
 62
3
 10
1720.93388788735
 20
-401.5099327721153
 30
0
 40
4.80000000000029
 50
324.3146652873519
 51
342.4172239915759
  0
ARC
  8
1
 62
3
 10
1720.93388788735
 20
-401.5099327721153
 30
0
 40
4.799999999999596
 50
4.331148730789954
 51
17.58277600842606
  0
ARC
  8
1
 62
3
 10
1720.93388788735
 20
-401.5099327721153
 30
0
 40
4.800000000000166
 50
17.58277600842606
 51
35.68533471264972
  0
ARC
  8
1
 62
3
 10
1720.93388788735
 20
-401.5099327721153
 30
0
 40
4.800000000000114
 50
342.4172239915759
 51
355.6688512692121
  0
ARC
  8
1
 62
3
 10
1691.73388788735
 20
-401.5099327721153
 30
0
 40
4.799999999999433
 50
144.3146652873429
 51
162.4172239915752
  0
ARC
  8
1
 62
3
 10
1691.73388788735
 20
-401.5099327721153
 30
0
 40
4.799999999999591
 50
184.3311487307893
 51
197.5827760084248
  0
ARC
  8
1
 62
3
 10
1691.73388788735
 20
-401.5099327721153
 30
0
 40
4.800000000000131
 50
197.5827760084248
 51
215.6853347126571
  0
ARC
  8
1
 62
3
 10
1691.73388788735
 20
-401.5099327721153
 30
0
 40
4.800000000000131
 50
162.4172239915752
 51
175.6688512692107
  0
ARC
  8
1
 62
3
 10
1691.73388788735
 20
-451.5099327721153
 30
0
 40
4.799999999999433
 50
144.3146652873429
 51
162.4172239915752
  0
ARC
  8
1
 62
3
 10
1691.73388788735
 20
-451.5099327721153
 30
0
 40
4.799999999999591
 50
184.3311487307893
 51
197.5827760084248
  0
ARC
  8
1
 62
3
 10
1691.73388788735
 20
-451.5099327721153
 30
0
 40
4.800000000000131
 50
197.5827760084248
 51
215.6853347126571
  0
ARC
  8
1
 62
3
 10
1691.73388788735
 20
-451.5099327721153
 30
0
 40
4.800000000000131
 50
162.4172239915752
 51
175.6688512692107
  0
ARC
  8
1
 62
3
 10
1636.70259071977
 20
-486.8229783737929
 30
0
 40
4.800000000000041
 50
54.31466528734563
 51
72.41722399157459
  0
ARC
  8
1
 62
3
 10
1636.70259071977
 20
-486.8229783737929
 30
0
 40
4.80000000000004
 50
94.33114873078817
 51
107.5827760084228
  0
ARC
  8
1
 62
3
 10
1636.70259071977
 20
-486.8229783737929
 30
0
 40
4.800000000000081
 50
107.5827760084228
 51
125.6853347126522
  0
ARC
  8
1
 62
3
 10
1636.70259071977
 20
-486.8229783737929
 30
0
 40
4.800000000000149
 50
72.41722399157459
 51
85.66885126920911
  0
ARC
  8
1
 62
3
 10
1570.70259071977
 20
-486.8229783737929
 30
0
 40
4.800000000000041
 50
54.31466528734563
 51
72.41722399157459
  0
ARC
  8
1
 62
3
 10
1570.70259071977
 20
-486.8229783737929
 30
0
 40
4.80000000000004
 50
94.33114873078817
 51
107.5827760084228
  0
ARC
  8
1
 62
3
 10
1570.70259071977
 20
-486.8229783737929
 30
0
 40
4.800000000000081
 50
107.5827760084228
 51
125.6853347126522
  0
ARC
  8
1
 62
3
 10
1570.70259071977
 20
-486.8229783737929
 30
0
 40
4.800000000000149
 50
72.41722399157459
 51
85.66885126920911
  0
ARC
  8
1
 62
3
 10
1570.70259071977
 20
-516.022978373793
 30
0
 40
4.799999999999955
 50
234.3146652873483
 51
252.4172239915764
  0
ARC
  8
1
 62
3
 10
1570.70259071977
 20
-516.022978373793
 30
0
 40
4.800000000000058
 50
274.3311487307909
 51
287.5827760084262
  0
ARC
  8
1
 62
3
 10
1570.70259071977
 20
-516.022978373793
 30
0
 40
4.799999999999931
 50
287.5827760084262
 51
305.685334712654
  0
ARC
  8
1
 62
3
 10
1570.70259071977
 20
-516.022978373793
 30
0
 40
4.799999999999864
 50
252.4172239915764
 51
265.6688512692118
  0
ARC
  8
1
 62
3
 10
1636.70259071977
 20
-401.5099327721153
 30
0
 40
1.450000000000637
 50
30.21619828524174
 51
59.78380171472724
  0
ARC
  8
1
 62
3
 10
1636.70259071977
 20
-401.5099327721153
 30
0
 40
0.6350000000000327
 50
82.54155094371387
 51
97.45844905626578
  0
ARC
  8
1
 62
3
 10
1636.70259071977
 20
-401.5099327721153
 30
0
 40
1.449999999999733
 50
120.216198285234
 51
149.7838017147311
  0
ARC
  8
1
 62
3
 10
1636.70259071977
 20
-401.5099327721153
 30
0
 40
0.6349999999998931
 50
172.5415509436915
 51
187.4584490563085
  0
ARC
  8
1
 62
3
 10
1636.70259071977
 20
-401.5099327721153
 30
0
 40
1.449999999999401
 50
210.216198285265
 51
239.783801714766
  0
ARC
  8
1
 62
3
 10
1636.70259071977
 20
-401.5099327721153
 30
0
 40
0.6349999999998904
 50
262.5415509437329
 51
277.4584490562875
  0
ARC
  8
1
 62
3
 10
1636.70259071977
 20
-401.5099327721153
 30
0
 40
1.450000000000306
 50
300.2161982852728
 51
329.7838017147622
  0
ARC
  8
1
 62
3
 10
1636.70259071977
 20
-401.5099327721153
 30
0
 40
0.6350000000001185
 50
352.5415509436942
 51
7.458449056305795
  0
ARC
  8
1
 62
3
 10
1570.70259071977
 20
-451.5099327721153
 30
0
 40
1.450000000000637
 50
30.21619828524174
 51
59.78380171475829
  0
ARC
  8
1
 62
3
 10
1570.70259071977
 20
-451.5099327721153
 30
0
 40
0.6350000000001507
 50
82.54155094363252
 51
97.45844905626578
  0
ARC
  8
1
 62
3
 10
1570.70259071977
 20
-451.5099327721153
 30
0
 40
1.449999999999733
 50
120.216198285234
 51
149.7838017147311
  0
ARC
  8
1
 62
3
 10
1570.70259071977
 20
-451.5099327721153
 30
0
 40
0.6349999999998931
 50
172.5415509436915
 51
187.4584490563085
  0
ARC
  8
1
 62
3
 10
1570.70259071977
 20
-451.5099327721153
 30
0
 40
1.449999999999401
 50
210.216198285265
 51
239.783801714766
  0
ARC
  8
1
 62
3
 10
1570.70259071977
 20
-451.5099327721153
 30
0
 40
0.6349999999998904
 50
262.5415509437329
 51
277.4584490563688
  0
ARC
  8
1
 62
3
 10
1570.70259071977
 20
-451.5099327721153
 30
0
 40
1.449999999999847
 50
300.2161982852417
 51
329.7838017147622
  0
ARC
  8
1
 62
3
 10
1570.70259071977
 20
-451.5099327721153
 30
0
 40
0.6350000000001185
 50
352.5415509436942
 51
7.458449056305795
  0
ARC
  8
1
 62
3
 10
1490.569722397998
 20
-451.5099327721153
 30
0
 40
4.799999999999618
 50
144.3146652873445
 51
162.417223991572
  0
ARC
  8
1
 62
3
 10
1490.569722397998
 20
-451.5099327721153
 30
0
 40
4.799999999999591
 50
184.3311487307893
 51
197.5827760084281
  0
ARC
  8
1
 62
3
 10
1490.569722397998
 20
-451.5099327721153
 30
0
 40
4.799999999999265
 50
197.5827760084281
 51
215.6853347126555
  0
ARC
  8
1
 62
3
 10
1490.569722397998
 20
-451.5099327721153
 30
0
 40
4.799999999999265
 50
162.417223991572
 51
175.6688512692107
  0
ARC
  8
1
 62
3
 10
1519.769722397998
 20
-401.5099327721153
 30
0
 40
4.800000000000131
 50
17.58277600842477
 51
35.68533471264916
  0
ARC
  8
1
 62
3
 10
1519.769722397998
 20
-401.5099327721153
 30
0
 40
4.800000000000131
 50
342.4172239915752
 51
355.6688512692115
  0
ARC
  8
1
 62
3
 10
1519.769722397998
 20
-401.5099327721153
 30
0
 40
4.800000000000357
 50
324.3146652873509
 51
342.4172239915752
  0
ARC
  8
1
 62
3
 10
1519.769722397998
 20
-401.5099327721153
 30
0
 40
4.800000000000498
 50
4.331148730788457
 51
17.58277600842477
  0
ARC
  8
1
 62
3
 10
1519.769722397998
 20
-451.5099327721153
 30
0
 40
4.800000000000131
 50
17.58277600842477
 51
35.68533471264916
  0
ARC
  8
1
 62
3
 10
1519.769722397998
 20
-451.5099327721153
 30
0
 40
4.800000000000131
 50
342.4172239915752
 51
355.6688512692115
  0
ARC
  8
1
 62
3
 10
1519.769722397998
 20
-451.5099327721153
 30
0
 40
4.800000000000357
 50
324.3146652873509
 51
342.4172239915752
  0
ARC
  8
1
 62
3
 10
1519.769722397998
 20
-451.5099327721153
 30
0
 40
4.800000000000498
 50
4.331148730788457
 51
17.58277600842477
  0
CIRCLE
  8
1
 62
3
 10
1636.70259071977
 20
-451.5099327721153
 30
0
 40
1.75
  0
CIRCLE
  8
1
 62
3
 10
1570.70259071977
 20
-401.5099327721153
 30
0
 40
1.75
  0
CIRCLE
  8
1
 62
3
 10
1703.33388788735
 20
-411.5099327721153
 30
0
 40
1
  0
CIRCLE
  8
1
 62
3
 10
1703.33388788735
 20
-441.5099327721153
 30
0
 40
1
  0
CIRCLE
  8
1
 62
2
 10
1613.080531454315
 20
-449.1478948941471
 30
0
 40
0.2999999999999545
  0
CIRCLE
  8
1
 62
2
 10
1611.92454368844
 20
-449.1783156248279
 30
0
 40
0.2999999999999545
  0
CIRCLE
  8
1
 62
2
 10
1612.515531450686
 20
-449.7849347721153
 30
0
 40
1.5
  0
CIRCLE
  8
1
 62
2
 10
1618.209518818671
 20
-449.9261397129189
 30
0
 40
0.4919752389268831
  0
CIRCLE
  8
1
 62
3
 10
1636.70259071977
 20
-401.5099327721153
 30
0
 40
2.800000000000182
  0
CIRCLE
  8
1
 62
3
 10
1570.70259071977
 20
-451.5099327721153
 30
0
 40
2.800000000000182
  0
CIRCLE
  8
1
 62
2
 10
1703.33388788735
 20
-411.5099327721153
 30
0
 40
1.5
  0
CIRCLE
  8
1
 62
2
 10
1703.33388788735
 20
-441.5099327721153
 30
0
 40
1.5
  0
POLYLINE
  8
1
 62
3
 66
1
  0
VERTEX
  8
1
 10
1458.007566476034
 20
-565.550303680809
 30
0
 42
-0.007224408510057723
  0
VERTEX
  8
1
 10
1458.932629684322
 20
-567.9591256120066
 30
0
 42
-0.009916265205420502
  0
VERTEX
  8
1
 10
1459.516021942684
 20
-569.728275943696
 30
0
 42
-0.01837413107910832
  0
VERTEX
  8
1
 10
1459.838572053609
 20
-570.9770455973329
 30
0
 42
-0.01905729126180707
  0
VERTEX
  8
1
 10
1460.061276314666
 20
-572.2287452330654
 30
0
 42
-0.02993047442224712
  0
VERTEX
  8
1
 10
1460.15991557109
 20
-573.479827140361
 30
0
 42
-0.02814195255184393
  0
VERTEX
  8
1
 10
1460.111187722097
 20
-574.7320726272873
 30
0
 42
-0.01487770886530281
  0
VERTEX
  8
1
 10
1459.989517987049
 20
-575.5452234390633
 30
0
 42
-0.01267377000784878
  0
VERTEX
  8
1
 10
1459.853963674424
 20
-576.1487990449031
 30
0
  0
VERTEX
  8
1
 10
1459.758168818421
 20
-576.5263116892949
 30
0
  0
SEQEND
  8
1
  0
POLYLINE
  8
1
 62
3
 66
1
  0
VERTEX
  8
1
 10
1456.007566476034
 20
-565.550303680809
 30
0
 42
-0.007224408510074091
  0
VERTEX
  8
1
 10
1456.932629684322
 20
-567.9591256120065
 30
0
 42
-0.009916265205198506
  0
VERTEX
  8
1
 10
1457.516021942685
 20
-569.7282759436961
 30
0
 42
-0.01837413107851463
  0
VERTEX
  8
1
 10
1457.838572053609
 20
-570.977045597333
 30
0
 42
-0.01905729126149608
  0
VERTEX
  8
1
 10
1458.061276314666
 20
-572.2287452330655
 30
0
 42
-0.02993047442243547
  0
VERTEX
  8
1
 10
1458.15991557109
 20
-573.4798271403608
 30
0
 42
-0.02814195255134042
  0
VERTEX
  8
1
 10
1458.111187722097
 20
-574.7320726272872
 30
0
 42
-0.0152918091539247
  0
VERTEX
  8
1
 10
1457.988200885132
 20
-575.5517058876644
 30
0
 42
-0.01275282525652362
  0
VERTEX
  8
1
 10
1457.842653649711
 20
-576.1951967622614
 30
0
  0
SEQEND
  8
1
  0
POLYLINE
  8
1
 62
3
 66
1
  0
VERTEX
  8
1
 10
1456.007566476034
 20
-498.4043352004761
 30
0
 42
0.0168112044959394
  0
VERTEX
  8
1
 10
1455.471917221998
 20
-497.356009748238
 30
0
 42
-0.01063846203531826
  0
VERTEX
  8
1
 10
1454.922793340039
 20
-496.3130337553127
 30
0
 42
-0.03234627670841126
  0
VERTEX
  8
1
 10
1454.491110345029
 20
-495.2710037336726
 30
0
 42
-0.02858640754571401
  0
VERTEX
  8
1
 10
1454.20714109434
 20
-494.2265382709679
 30
0
 42
-0.02634365304918235
  0
VERTEX
  8
1
 10
1454.018201771658
 20
-493.0237842128343
 30
0
 42
-0.02118608698351235
  0
VERTEX
  8
1
 10
1453.94430296683
 20
-491.8084274979379
 30
0
  0
SEQEND
  8
1
  0
POLYLINE
  8
1
 62
3
 66
1
  0
VERTEX
  8
1
 10
1458.007566476034
 20
-498.4043352004761
 30
0
 42
0.01681120449542041
  0
VERTEX
  8
1
 10
1457.471917221999
 20
-497.356009748238
 30
0
 42
-0.01063846203565741
  0
VERTEX
  8
1
 10
1456.922793340039
 20
-496.3130337553127
 30
0
 42
-0.03234627670857704
  0
VERTEX
  8
1
 10
1456.491110345029
 20
-495.2710037336726
 30
0
 42
-0.02858640754551497
  0
VERTEX
  8
1
 10
1456.20714109434
 20
-494.2265382709679
 30
0
 42
-0.02634365304936475
  0
VERTEX
  8
1
 10
1456.018201771658
 20
-493.0237842128343
 30
0
 42
-0.02118608698351235
  0
VERTEX
  8
1
 10
1455.94430296683
 20
-491.8084274979379
 30
0
  0
SEQEND
  8
1
  0
POLYLINE
  8
1
 62
3
 66
1
  0
VERTEX
  8
1
 10
1458.007566476034
 20
-498.4043352004761
 30
0
 42
-0.01703707655696357
  0
VERTEX
  8
1
 10
1459.348797924401
 20
-502.0343439549904
 30
0
 42
-0.01252441510321817
  0
VERTEX
  8
1
 10
1459.669484407359
 20
-503.1343439549904
 30
0
 42
-0.02146569261500289
  0
VERTEX
  8
1
 10
1459.977576218847
 20
-504.5343439549894
 30
0
 42
-0.02140811598726007
  0
VERTEX
  8
1
 10
1460.121426673531
 20
-505.6343439549892
 30
0
 42
-0.03283443794972902
  0
VERTEX
  8
1
 10
1460.152392313372
 20
-507.0343439549897
 30
0
 42
-0.02953689724208092
  0
VERTEX
  8
1
 10
1460.037478135592
 20
-508.13434395499
 30
0
 42
-0.03201209822749298
  0
VERTEX
  8
1
 10
1459.704771294084
 20
-509.5343439549896
 30
0
 42
-0.0153713199507544
  0
VERTEX
  8
1
 10
1459.333329456075
 20
-510.6343439549898
 30
0
 42
-0.008474022541388371
  0
VERTEX
  8
1
 10
1458.782915494871
 20
-512.0343439549901
 30
0
 42
0.001677210171735786
  0
VERTEX
  8
1
 10
1458.335162881612
 20
-513.1343439549901
 30
0
 42
0.01333123803913861
  0
VERTEX
  8
1
 10
1457.810434838869
 20
-514.5343439549896
 30
0
 42
0.0103316354405342
  0
VERTEX
  8
1
 10
1457.552812253321
 20
-515.3484963292545
 30
0
 42
0.001721734762714155
  0
VERTEX
  8
1
 10
1457.346377125875
 20
-516.0566193886905
 30
0
 42
0.01978934105650009
  0
VERTEX
  8
1
 10
1457.262464248058
 20
-516.4115835637825
 30
0
 42
0.0183266514610209
  0
VERTEX
  8
1
 10
1457.174311226909
 20
-516.957488483056
 30
0
 42
0.01216731286562509
  0
VERTEX
  8
1
 10
1457.084771847407
 20
-517.8004990367065
 30
0
 42
0.007716959306457436
  0
VERTEX
  8
1
 10
1456.996699894528
 20
-519.04678011493
 30
0
 42
0.005030492548846073
  0
VERTEX
  8
1
 10
1456.912949153252
 20
-520.8024966079223
 30
0
 42
0.003420853595269805
  0
VERTEX
  8
1
 10
1456.836373408556
 20
-523.1738134058788
 30
0
  0
SEQEND
  8
1
  0
POLYLINE
  8
1
 62
3
 66
1
  0
VERTEX
  8
1
 10
1456.007566476034
 20
-498.4043352004761
 30
0
 42
-0.01703707655695291
  0
VERTEX
  8
1
 10
1457.348797924401
 20
-502.0343439549904
 30
0
 42
-0.01252441510396214
  0
VERTEX
  8
1
 10
1457.669484407359
 20
-503.1343439549904
 30
0
 42
-0.02146569261530236
  0
VERTEX
  8
1
 10
1457.977576218847
 20
-504.5343439549894
 30
0
 42
-0.02140811598743094
  0
VERTEX
  8
1
 10
1458.121426673531
 20
-505.6343439549892
 30
0
 42
-0.03283443794923777
  0
VERTEX
  8
1
 10
1458.152392313372
 20
-507.0343439549896
 30
0
 42
-0.02953689724311992
  0
VERTEX
  8
1
 10
1458.037478135592
 20
-508.13434395499
 30
0
 42
-0.03201209822728059
  0
VERTEX
  8
1
 10
1457.704771294084
 20
-509.53434395499
 30
0
 42
-0.01537131995270335
  0
VERTEX
  8
1
 10
1457.333329456076
 20
-510.6343439549902
 30
0
 42
-0.008474022533196143
  0
VERTEX
  8
1
 10
1456.782915494873
 20
-512.0343439549898
 30
0
 42
0.001677210184950798
  0
VERTEX
  8
1
 10
1456.335162881687
 20
-513.1343439549898
 30
0
 42
0.01333123793873617
  0
VERTEX
  8
1
 10
1455.81043483887
 20
-514.5343439549894
 30
0
 42
0.01065951541571603
  0
VERTEX
  8
1
 10
1455.656392953173
 20
-515.0172475736313
 30
0
 42
0.008033761176559446
  0
VERTEX
  8
1
 10
1455.442966533897
 20
-515.7813550391976
 30
0
 42
0.001909745184048111
  0
VERTEX
  8
1
 10
1455.248965284903
 20
-516.5254927842296
 30
0
 42
0.01941387121385823
  0
VERTEX
  8
1
 10
1455.160145338175
 20
-516.9521995935243
 30
0
 42
0.01921305081458932
  0
VERTEX
  8
1
 10
1455.076219433215
 20
-517.5861178647169
 30
0
 42
0.01356886055846044
  0
VERTEX
  8
1
 10
1455.007168628224
 20
-518.5368987271251
 30
0
 42
0.008995755470406734
  0
VERTEX
  8
1
 10
1454.962973981405
 20
-519.9141933100656
 30
0
 42
0.006047743823271713
  0
VERTEX
  8
1
 10
1454.95361655096
 20
-521.8276527428559
 30
0
  0
VERTEX
  8
1
 10
1454.965120872566
 20
-523.019710255856
 30
0
  0
SEQEND
  8
1
  0
ARC
  8
1
 62
2
 10
1574.40259071977
 20
-443.3099327721152
 30
0
 40
0.2000000000000455
 50
180
 51
270
  0
ARC
  8
1
 62
2
 10
1633.00259071977
 20
-432.7099327721153
 30
0
 40
0.1999999999998181
 50
0
 51
90
  0
ARC
  8
1
 62
2
 10
1574.40259071977
 20
-432.7099327721153
 30
0
 40
0.1999999999998749
 50
90
 51
180
  0
ARC
  8
1
 62
2
 10
1633.00259071977
 20
-443.3099327721152
 30
0
 40
0.2000000000001023
 50
270
 51
0
  0
ARC
  8
1
 62
2
 10
1629.936971875544
 20
-441.2099327721153
 30
0
 40
0.3000000000000114
 50
270
 51
0
  0
ARC
  8
1
 62
2
 10
1629.936971875544
 20
-438.3099327721152
 30
0
 40
0.2999999999999545
 50
0
 51
90
  0
ARC
  8
1
 62
2
 10
1618.536971875544
 20
-438.3099327721152
 30
0
 40
0.2999999999998977
 50
90
 51
180
  0
ARC
  8
1
 62
2
 10
1618.536971875544
 20
-441.2099327721153
 30
0
 40
0.2999999999999545
 50
180
 51
270
  0
ARC
  8
1
 62
2
 10
1633.20259071977
 20
-432.5099327721154
 30
0
 40
0.5
 50
0
 51
90
  0
ARC
  8
1
 62
2
 10
1574.20259071977
 20
-432.5099327721154
 30
0
 40
0.5
 50
90
 51
180
  0
ARC
  8
1
 62
2
 10
1574.20259071977
 20
-443.5099327721153
 30
0
 40
0.5
 50
180
 51
270
  0
ARC
  8
1
 62
2
 10
1633.20259071977
 20
-443.5099327721153
 30
0
 40
0.4999999999998295
 50
270
 51
0
  0
ARC
  8
1
 62
3
 10
1594.70259071977
 20
-412.8099327721153
 30
0
 40
1
 50
270
 51
0
  0
ARC
  8
1
 62
3
 10
1594.70259071977
 20
-412.8099327721153
 30
0
 40
1
 50
0
 51
90
  0
ARC
  8
1
 62
3
 10
1573.50259071977
 20
-412.8099327721153
 30
0
 40
1
 50
180
 51
270
  0
ARC
  8
1
 62
3
 10
1573.50259071977
 20
-412.8099327721153
 30
0
 40
1
 50
90
 51
180
  0
ARC
  8
1
 62
3
 10
1597.20259071977
 20
-416.8099327721153
 30
0
 40
1
 50
270
 51
0
  0
ARC
  8
1
 62
3
 10
1597.20259071977
 20
-416.8099327721153
 30
0
 40
1
 50
0
 51
90
  0
ARC
  8
1
 62
3
 10
1573.50259071977
 20
-416.8099327721153
 30
0
 40
1
 50
180
 51
270
  0
ARC
  8
1
 62
3
 10
1573.50259071977
 20
-416.8099327721153
 30
0
 40
1
 50
90
 51
180
  0
ARC
  8
1
 62
3
 10
1599.70259071977
 20
-420.8099327721153
 30
0
 40
1
 50
270
 51
0
  0
ARC
  8
1
 62
3
 10
1599.70259071977
 20
-420.8099327721153
 30
0
 40
1
 50
0
 51
90
  0
ARC
  8
1
 62
3
 10
1573.50259071977
 20
-420.8099327721153
 30
0
 40
1
 50
180
 51
270
  0
ARC
  8
1
 62
3
 10
1573.50259071977
 20
-420.8099327721153
 30
0
 40
1
 50
90
 51
180
  0
ARC
  8
1
 62
3
 10
1602.20259071977
 20
-424.8099327721153
 30
0
 40
1
 50
270
 51
0
  0
ARC
  8
1
 62
3
 10
1602.20259071977
 20
-424.8099327721153
 30
0
 40
1
 50
0
 51
90
  0
ARC
  8
1
 62
3
 10
1573.50259071977
 20
-424.8099327721153
 30
0
 40
1
 50
180
 51
270
  0
ARC
  8
1
 62
3
 10
1573.50259071977
 20
-424.8099327721153
 30
0
 40
1
 50
90
 51
180
  0
ARC
  8
1
 62
3
 10
1602.20259071977
 20
-424.8099327721153
 30
0
 40
1
 50
270
 51
0
  0
ARC
  8
1
 62
3
 10
1602.20259071977
 20
-424.8099327721153
 30
0
 40
1
 50
0
 51
90
  0
ARC
  8
1
 62
3
 10
1573.50259071977
 20
-424.8099327721153
 30
0
 40
1
 50
180
 51
270
  0
ARC
  8
1
 62
3
 10
1573.50259071977
 20
-424.8099327721153
 30
0
 40
1
 50
90
 51
180
  0
ARC
  8
1
 62
3
 10
1604.70259071977
 20
-428.8099327721153
 30
0
 40
1
 50
270
 51
0
  0
ARC
  8
1
 62
3
 10
1604.70259071977
 20
-428.8099327721153
 30
0
 40
1
 50
0
 51
90
  0
ARC
  8
1
 62
3
 10
1573.50259071977
 20
-428.8099327721153
 30
0
 40
1
 50
180
 51
270
  0
ARC
  8
1
 62
3
 10
1573.50259071977
 20
-428.8099327721153
 30
0
 40
1
 50
90
 51
180
  0
ARC
  8
1
 62
3
 10
1602.20259071977
 20
-424.8099327721153
 30
0
 40
1
 50
270
 51
0
  0
ARC
  8
1
 62
3
 10
1602.20259071977
 20
-424.8099327721153
 30
0
 40
1
 50
0
 51
90
  0
ARC
  8
1
 62
3
 10
1599.70259071977
 20
-420.8099327721153
 30
0
 40
1
 50
270
 51
0
  0
ARC
  8
1
 62
3
 10
1599.70259071977
 20
-420.8099327721153
 30
0
 40
1
 50
0
 51
90
  0
ARC
  8
1
 62
3
 10
1599.70259071977
 20
-420.8099327721153
 30
0
 40
1
 50
270
 51
0
  0
ARC
  8
1
 62
3
 10
1599.70259071977
 20
-420.8099327721153
 30
0
 40
1
 50
0
 51
90
  0
ARC
  8
1
 62
3
 10
1599.70259071977
 20
-420.8099327721153
 30
0
 40
1
 50
270
 51
0
  0
ARC
  8
1
 62
3
 10
1599.70259071977
 20
-420.8099327721153
 30
0
 40
1
 50
0
 51
90
  0
ARC
  8
1
 62
3
 10
1597.20259071977
 20
-416.8099327721153
 30
0
 40
1
 50
270
 51
0
  0
ARC
  8
1
 62
3
 10
1597.20259071977
 20
-416.8099327721153
 30
0
 40
1
 50
0
 51
90
  0
ARC
  8
1
 62
3
 10
1597.20259071977
 20
-416.8099327721153
 30
0
 40
1
 50
270
 51
0
  0
ARC
  8
1
 62
3
 10
1597.20259071977
 20
-416.8099327721153
 30
0
 40
1
 50
0
 51
90
  0
ARC
  8
1
 62
3
 10
1597.20259071977
 20
-416.8099327721153
 30
0
 40
1
 50
270
 51
0
  0
ARC
  8
1
 62
3
 10
1597.20259071977
 20
-416.8099327721153
 30
0
 40
1
 50
0
 51
90
  0
ARC
  8
1
 62
3
 10
1597.20259071977
 20
-416.8099327721153
 30
0
 40
1
 50
270
 51
0
  0
ARC
  8
1
 62
3
 10
1597.20259071977
 20
-416.8099327721153
 30
0
 40
1
 50
0
 51
90
  0
ARC
  8
1
 62
3
 10
1594.70259071977
 20
-412.8099327721153
 30
0
 40
1
 50
270
 51
0
  0
ARC
  8
1
 62
3
 10
1594.70259071977
 20
-412.8099327721153
 30
0
 40
1
 50
0
 51
90
  0
ARC
  8
1
 62
3
 10
1594.70259071977
 20
-412.8099327721153
 30
0
 40
1
 50
270
 51
0
  0
ARC
  8
1
 62
3
 10
1594.70259071977
 20
-412.8099327721153
 30
0
 40
1
 50
0
 51
90
  0
ARC
  8
1
 62
3
 10
1594.70259071977
 20
-412.8099327721153
 30
0
 40
1
 50
270
 51
0
  0
ARC
  8
1
 62
3
 10
1594.70259071977
 20
-412.8099327721153
 30
0
 40
1
 50
0
 51
90
  0
ARC
  8
1
 62
3
 10
1594.70259071977
 20
-412.8099327721153
 30
0
 40
1
 50
270
 51
0
  0
ARC
  8
1
 62
3
 10
1594.70259071977
 20
-412.8099327721153
 30
0
 40
1
 50
0
 51
90
  0
ARC
  8
1
 62
3
 10
1594.70259071977
 20
-412.8099327721153
 30
0
 40
1
 50
270
 51
0
  0
ARC
  8
1
 62
3
 10
1594.70259071977
 20
-412.8099327721153
 30
0
 40
1
 50
0
 51
90
  0
ARC
  8
1
 62
3
 10
1573.50259071977
 20
-416.8099327721153
 30
0
 40
1
 50
180
 51
270
  0
ARC
  8
1
 62
3
 10
1573.50259071977
 20
-416.8099327721153
 30
0
 40
1
 50
90
 51
180
  0
ARC
  8
1
 62
3
 10
1573.50259071977
 20
-420.8099327721153
 30
0
 40
1
 50
180
 51
270
  0
ARC
  8
1
 62
3
 10
1573.50259071977
 20
-420.8099327721153
 30
0
 40
1
 50
90
 51
180
  0
ARC
  8
1
 62
3
 10
1573.50259071977
 20
-420.8099327721153
 30
0
 40
1
 50
180
 51
270
  0
ARC
  8
1
 62
3
 10
1573.50259071977
 20
-420.8099327721153
 30
0
 40
1
 50
90
 51
180
  0
ARC
  8
1
 62
3
 10
1573.50259071977
 20
-424.8099327721153
 30
0
 40
1
 50
180
 51
270
  0
ARC
  8
1
 62
3
 10
1573.50259071977
 20
-424.8099327721153
 30
0
 40
1
 50
90
 51
180
  0
ARC
  8
1
 62
3
 10
1573.50259071977
 20
-424.8099327721153
 30
0
 40
1
 50
180
 51
270
  0
ARC
  8
1
 62
3
 10
1573.50259071977
 20
-424.8099327721153
 30
0
 40
1
 50
90
 51
180
  0
ARC
  8
1
 62
3
 10
1573.50259071977
 20
-424.8099327721153
 30
0
 40
1
 50
180
 51
270
  0
ARC
  8
1
 62
3
 10
1573.50259071977
 20
-424.8099327721153
 30
0
 40
1
 50
90
 51
180
  0
ARC
  8
1
 62
3
 10
1573.50259071977
 20
-428.8099327721153
 30
0
 40
1
 50
180
 51
270
  0
ARC
  8
1
 62
3
 10
1573.50259071977
 20
-428.8099327721153
 30
0
 40
1
 50
90
 51
180
  0
ARC
  8
1
 62
3
 10
1573.50259071977
 20
-428.8099327721153
 30
0
 40
1
 50
180
 51
270
  0
ARC
  8
1
 62
3
 10
1573.50259071977
 20
-428.8099327721153
 30
0
 40
1
 50
90
 51
180
  0
ARC
  8
1
 62
3
 10
1573.50259071977
 20
-428.8099327721153
 30
0
 40
1
 50
180
 51
270
  0
ARC
  8
1
 62
3
 10
1573.50259071977
 20
-428.8099327721153
 30
0
 40
1
 50
90
 51
180
  0
ARC
  8
1
 62
3
 10
1573.50259071977
 20
-428.8099327721153
 30
0
 40
1
 50
180
 51
270
  0
ARC
  8
1
 62
3
 10
1573.50259071977
 20
-428.8099327721153
 30
0
 40
1
 50
90
 51
180
  0
ARC
  8
1
 62
3
 10
1573.50259071977
 20
-428.8099327721153
 30
0
 40
1
 50
180
 51
270
  0
ARC
  8
1
 62
3
 10
1573.50259071977
 20
-428.8099327721153
 30
0
 40
1
 50
90
 51
180
  0
ARC
  8
1
 62
3
 10
1602.70259071977
 20
-412.8099327721153
 30
0
 40
1
 50
180
 51
270
  0
ARC
  8
1
 62
3
 10
1602.70259071977
 20
-412.8099327721153
 30
0
 40
1
 50
90
 51
180
  0
ARC
  8
1
 62
3
 10
1605.20259071977
 20
-416.8099327721153
 30
0
 40
1
 50
180
 51
270
  0
ARC
  8
1
 62
3
 10
1605.20259071977
 20
-416.8099327721153
 30
0
 40
1
 50
90
 51
180
  0
ARC
  8
1
 62
3
 10
1607.70259071977
 20
-420.8099327721153
 30
0
 40
1
 50
180
 51
270
  0
ARC
  8
1
 62
3
 10
1607.70259071977
 20
-420.8099327721153
 30
0
 40
1
 50
90
 51
180
  0
ARC
  8
1
 62
3
 10
1610.20259071977
 20
-424.8099327721153
 30
0
 40
1
 50
180
 51
270
  0
ARC
  8
1
 62
3
 10
1610.20259071977
 20
-424.8099327721153
 30
0
 40
1
 50
90
 51
180
  0
ARC
  8
1
 62
3
 10
1610.20259071977
 20
-424.8099327721153
 30
0
 40
1
 50
180
 51
270
  0
ARC
  8
1
 62
3
 10
1610.20259071977
 20
-424.8099327721153
 30
0
 40
1
 50
90
 51
180
  0
ARC
  8
1
 62
3
 10
1612.70259071977
 20
-428.8099327721153
 30
0
 40
1
 50
180
 51
270
  0
ARC
  8
1
 62
3
 10
1612.70259071977
 20
-428.8099327721153
 30
0
 40
1
 50
90
 51
180
  0
ARC
  8
1
 62
3
 10
1605.20259071977
 20
-416.8099327721153
 30
0
 40
1
 50
180
 51
270
  0
ARC
  8
1
 62
3
 10
1605.20259071977
 20
-416.8099327721153
 30
0
 40
1
 50
90
 51
180
  0
ARC
  8
1
 62
3
 10
1607.70259071977
 20
-420.8099327721153
 30
0
 40
1
 50
180
 51
270
  0
ARC
  8
1
 62
3
 10
1607.70259071977
 20
-420.8099327721153
 30
0
 40
1
 50
90
 51
180
  0
ARC
  8
1
 62
3
 10
1607.70259071977
 20
-420.8099327721153
 30
0
 40
1
 50
180
 51
270
  0
ARC
  8
1
 62
3
 10
1607.70259071977
 20
-420.8099327721153
 30
0
 40
1
 50
90
 51
180
  0
ARC
  8
1
 62
3
 10
1610.20259071977
 20
-424.8099327721153
 30
0
 40
1
 50
180
 51
270
  0
ARC
  8
1
 62
3
 10
1610.20259071977
 20
-424.8099327721153
 30
0
 40
1
 50
90
 51
180
  0
ARC
  8
1
 62
3
 10
1610.20259071977
 20
-424.8099327721153
 30
0
 40
1
 50
180
 51
270
  0
ARC
  8
1
 62
3
 10
1610.20259071977
 20
-424.8099327721153
 30
0
 40
1
 50
90
 51
180
  0
ARC
  8
1
 62
3
 10
1610.20259071977
 20
-424.8099327721153
 30
0
 40
1
 50
180
 51
270
  0
ARC
  8
1
 62
3
 10
1610.20259071977
 20
-424.8099327721153
 30
0
 40
1
 50
90
 51
180
  0
ARC
  8
1
 62
3
 10
1612.70259071977
 20
-428.8099327721153
 30
0
 40
1
 50
180
 51
270
  0
ARC
  8
1
 62
3
 10
1612.70259071977
 20
-428.8099327721153
 30
0
 40
1
 50
90
 51
180
  0
ARC
  8
1
 62
3
 10
1612.70259071977
 20
-428.8099327721153
 30
0
 40
1
 50
180
 51
270
  0
ARC
  8
1
 62
3
 10
1612.70259071977
 20
-428.8099327721153
 30
0
 40
1
 50
90
 51
180
  0
ARC
  8
1
 62
3
 10
1612.70259071977
 20
-428.8099327721153
 30
0
 40
1
 50
180
 51
270
  0
ARC
  8
1
 62
3
 10
1612.70259071977
 20
-428.8099327721153
 30
0
 40
1
 50
90
 51
180
  0
ARC
  8
1
 62
3
 10
1612.70259071977
 20
-428.8099327721153
 30
0
 40
1
 50
180
 51
270
  0
ARC
  8
1
 62
3
 10
1612.70259071977
 20
-428.8099327721153
 30
0
 40
1
 50
90
 51
180
  0
ARC
  8
1
 62
3
 10
1612.70259071977
 20
-428.8099327721153
 30
0
 40
1
 50
180
 51
270
  0
ARC
  8
1
 62
3
 10
1612.70259071977
 20
-428.8099327721153
 30
0
 40
1
 50
90
 51
180
  0
ARC
  8
1
 62
3
 10
1633.90259071977
 20
-412.8099327721153
 30
0
 40
1
 50
270
 51
0
  0
ARC
  8
1
 62
3
 10
1633.90259071977
 20
-412.8099327721153
 30
0
 40
1
 50
0
 51
90
  0
ARC
  8
1
 62
3
 10
1633.90259071977
 20
-412.8099327721153
 30
0
 40
1
 50
270
 51
0
  0
ARC
  8
1
 62
3
 10
1633.90259071977
 20
-412.8099327721153
 30
0
 40
1
 50
0
 51
90
  0
ARC
  8
1
 62
3
 10
1633.90259071977
 20
-412.8099327721153
 30
0
 40
1
 50
270
 51
0
  0
ARC
  8
1
 62
3
 10
1633.90259071977
 20
-412.8099327721153
 30
0
 40
1
 50
0
 51
90
  0
ARC
  8
1
 62
3
 10
1633.90259071977
 20
-412.8099327721153
 30
0
 40
1
 50
270
 51
0
  0
ARC
  8
1
 62
3
 10
1633.90259071977
 20
-412.8099327721153
 30
0
 40
1
 50
0
 51
90
  0
ARC
  8
1
 62
3
 10
1633.90259071977
 20
-412.8099327721153
 30
0
 40
1
 50
270
 51
0
  0
ARC
  8
1
 62
3
 10
1633.90259071977
 20
-412.8099327721153
 30
0
 40
1
 50
0
 51
90
  0
ARC
  8
1
 62
3
 10
1633.90259071977
 20
-412.8099327721153
 30
0
 40
1
 50
270
 51
0
  0
ARC
  8
1
 62
3
 10
1633.90259071977
 20
-412.8099327721153
 30
0
 40
1
 50
0
 51
90
  0
ARC
  8
1
 62
3
 10
1633.90259071977
 20
-416.8099327721153
 30
0
 40
1
 50
270
 51
0
  0
ARC
  8
1
 62
3
 10
1633.90259071977
 20
-416.8099327721153
 30
0
 40
1
 50
0
 51
90
  0
ARC
  8
1
 62
3
 10
1633.90259071977
 20
-416.8099327721153
 30
0
 40
1
 50
270
 51
0
  0
ARC
  8
1
 62
3
 10
1633.90259071977
 20
-416.8099327721153
 30
0
 40
1
 50
0
 51
90
  0
ARC
  8
1
 62
3
 10
1633.90259071977
 20
-416.8099327721153
 30
0
 40
1
 50
270
 51
0
  0
ARC
  8
1
 62
3
 10
1633.90259071977
 20
-416.8099327721153
 30
0
 40
1
 50
0
 51
90
  0
ARC
  8
1
 62
3
 10
1633.90259071977
 20
-416.8099327721153
 30
0
 40
1
 50
270
 51
0
  0
ARC
  8
1
 62
3
 10
1633.90259071977
 20
-416.8099327721153
 30
0
 40
1
 50
0
 51
90
  0
ARC
  8
1
 62
3
 10
1633.90259071977
 20
-416.8099327721153
 30
0
 40
1
 50
270
 51
0
  0
ARC
  8
1
 62
3
 10
1633.90259071977
 20
-416.8099327721153
 30
0
 40
1
 50
0
 51
90
  0
ARC
  8
1
 62
3
 10
1633.90259071977
 20
-416.8099327721153
 30
0
 40
1
 50
270
 51
0
  0
ARC
  8
1
 62
3
 10
1633.90259071977
 20
-416.8099327721153
 30
0
 40
1
 50
0
 51
90
  0
ARC
  8
1
 62
3
 10
1633.90259071977
 20
-420.8099327721153
 30
0
 40
1
 50
270
 51
0
  0
ARC
  8
1
 62
3
 10
1633.90259071977
 20
-420.8099327721153
 30
0
 40
1
 50
0
 51
90
  0
ARC
  8
1
 62
3
 10
1633.90259071977
 20
-420.8099327721153
 30
0
 40
1
 50
270
 51
0
  0
ARC
  8
1
 62
3
 10
1633.90259071977
 20
-420.8099327721153
 30
0
 40
1
 50
0
 51
90
  0
ARC
  8
1
 62
3
 10
1633.90259071977
 20
-420.8099327721153
 30
0
 40
1
 50
270
 51
0
  0
ARC
  8
1
 62
3
 10
1633.90259071977
 20
-420.8099327721153
 30
0
 40
1
 50
0
 51
90
  0
ARC
  8
1
 62
3
 10
1633.90259071977
 20
-420.8099327721153
 30
0
 40
1
 50
270
 51
0
  0
ARC
  8
1
 62
3
 10
1633.90259071977
 20
-420.8099327721153
 30
0
 40
1
 50
0
 51
90
  0
ARC
  8
1
 62
3
 10
1633.90259071977
 20
-420.8099327721153
 30
0
 40
1
 50
270
 51
0
  0
ARC
  8
1
 62
3
 10
1633.90259071977
 20
-420.8099327721153
 30
0
 40
1
 50
0
 51
90
  0
ARC
  8
1
 62
3
 10
1633.90259071977
 20
-420.8099327721153
 30
0
 40
1
 50
270
 51
0
  0
ARC
  8
1
 62
3
 10
1633.90259071977
 20
-420.8099327721153
 30
0
 40
1
 50
0
 51
90
  0
ARC
  8
1
 62
3
 10
1633.90259071977
 20
-424.8099327721153
 30
0
 40
1
 50
270
 51
0
  0
ARC
  8
1
 62
3
 10
1633.90259071977
 20
-424.8099327721153
 30
0
 40
1
 50
0
 51
90
  0
ARC
  8
1
 62
3
 10
1633.90259071977
 20
-424.8099327721153
 30
0
 40
1
 50
270
 51
0
  0
ARC
  8
1
 62
3
 10
1633.90259071977
 20
-424.8099327721153
 30
0
 40
1
 50
0
 51
90
  0
ARC
  8
1
 62
3
 10
1633.90259071977
 20
-424.8099327721153
 30
0
 40
1
 50
270
 51
0
  0
ARC
  8
1
 62
3
 10
1633.90259071977
 20
-424.8099327721153
 30
0
 40
1
 50
0
 51
90
  0
ARC
  8
1
 62
3
 10
1633.90259071977
 20
-424.8099327721153
 30
0
 40
1
 50
270
 51
0
  0
ARC
  8
1
 62
3
 10
1633.90259071977
 20
-424.8099327721153
 30
0
 40
1
 50
0
 51
90
  0
ARC
  8
1
 62
3
 10
1633.90259071977
 20
-424.8099327721153
 30
0
 40
1
 50
270
 51
0
  0
ARC
  8
1
 62
3
 10
1633.90259071977
 20
-424.8099327721153
 30
0
 40
1
 50
0
 51
90
  0
ARC
  8
1
 62
3
 10
1633.90259071977
 20
-424.8099327721153
 30
0
 40
1
 50
270
 51
0
  0
ARC
  8
1
 62
3
 10
1633.90259071977
 20
-424.8099327721153
 30
0
 40
1
 50
0
 51
90
  0
ARC
  8
1
 62
3
 10
1633.90259071977
 20
-428.8099327721153
 30
0
 40
1
 50
270
 51
0
  0
ARC
  8
1
 62
3
 10
1633.90259071977
 20
-428.8099327721153
 30
0
 40
1
 50
0
 51
90
  0
ARC
  8
1
 62
3
 10
1633.90259071977
 20
-428.8099327721153
 30
0
 40
1
 50
270
 51
0
  0
ARC
  8
1
 62
3
 10
1633.90259071977
 20
-428.8099327721153
 30
0
 40
1
 50
0
 51
90
  0
ARC
  8
1
 62
3
 10
1633.90259071977
 20
-428.8099327721153
 30
0
 40
1
 50
270
 51
0
  0
ARC
  8
1
 62
3
 10
1633.90259071977
 20
-428.8099327721153
 30
0
 40
1
 50
0
 51
90
  0
ARC
  8
1
 62
3
 10
1633.90259071977
 20
-428.8099327721153
 30
0
 40
1
 50
270
 51
0
  0
ARC
  8
1
 62
3
 10
1633.90259071977
 20
-428.8099327721153
 30
0
 40
1
 50
0
 51
90
  0
ARC
  8
1
 62
3
 10
1633.90259071977
 20
-428.8099327721153
 30
0
 40
1
 50
270
 51
0
  0
ARC
  8
1
 62
3
 10
1633.90259071977
 20
-428.8099327721153
 30
0
 40
1
 50
0
 51
90
  0
ARC
  8
1
 62
3
 10
1633.90259071977
 20
-428.8099327721153
 30
0
 40
1
 50
270
 51
0
  0
ARC
  8
1
 62
3
 10
1633.90259071977
 20
-428.8099327721153
 30
0
 40
1
 50
0
 51
90
  0
ARC
  8
1
 62
3
 10
1638.90259071977
 20
-453.7099327721153
 30
0
 40
1
 50
270
 51
0
  0
ARC
  8
1
 62
3
 10
1634.50259071977
 20
-453.7099327721153
 30
0
 40
1
 50
180
 51
270
  0
ARC
  8
1
 62
3
 10
1632.50259071977
 20
-447.2099327721153
 30
0
 40
1
 50
0
 51
90
  0
ARC
  8
1
 62
3
 10
1638.90259071977
 20
-399.3099327721153
 30
0
 40
1
 50
0
 51
90
  0
ARC
  8
1
 62
3
 10
1634.50259071977
 20
-399.3099327721153
 30
0
 40
1
 50
90
 51
180
  0
ARC
  8
1
 62
3
 10
1632.50259071977
 20
-405.8099327721153
 30
0
 40
1
 50
270
 51
0
  0
ARC
  8
1
 62
3
 10
1574.90259071977
 20
-447.2099327721153
 30
0
 40
1
 50
90
 51
180
  0
ARC
  8
1
 62
3
 10
1572.90259071977
 20
-453.7099327721153
 30
0
 40
1
 50
270
 51
0
  0
ARC
  8
1
 62
3
 10
1568.50259071977
 20
-453.7099327721153
 30
0
 40
1
 50
180
 51
270
  0
ARC
  8
1
 62
3
 10
1568.50259071977
 20
-399.3099327721152
 30
0
 40
1
 50
90
 51
180
  0
ARC
  8
1
 62
3
 10
1572.90259071977
 20
-399.3099327721153
 30
0
 40
1
 50
0
 51
90
  0
ARC
  8
1
 62
3
 10
1574.90259071977
 20
-405.8099327721153
 30
0
 40
1
 50
180
 51
270
  0
ARC
  8
1
 62
3
 10
1633.70259071977
 20
-400.4099327721154
 30
0
 40
0.5
 50
180
 51
246.4218215218141
  0
ARC
  8
1
 62
3
 10
1633.70259071977
 20
-450.4099327721155
 30
0
 40
0.5
 50
180
 51
246.4218215218141
  0
ARC
  8
1
 62
3
 10
1573.70259071977
 20
-402.6099327721154
 30
0
 40
0.5
 50
0
 51
66.42182152179545
  0
ARC
  8
1
 62
3
 10
1573.70259071977
 20
-452.6099327721154
 30
0
 40
0.5
 50
0
 51
66.42182152179545
  0
ARC
  8
1
 62
3
 10
1573.70259071977
 20
-400.4099327721154
 30
0
 40
0.5000000000000594
 50
293.5781784782045
 51
0
  0
ARC
  8
1
 62
3
 10
1568.20259071977
 20
-399.0099327721153
 30
0
 40
1
 50
90
 51
180
  0
ARC
  8
1
 62
3
 10
1573.20259071977
 20
-399.0099327721153
 30
0
 40
1
 50
0
 51
90
  0
ARC
  8
1
 62
3
 10
1633.70259071977
 20
-452.6099327721154
 30
0
 40
0.4999999999999685
 50
113.5781784781807
 51
180
  0
ARC
  8
1
 62
3
 10
1639.20259071977
 20
-454.0099327721153
 30
0
 40
1
 50
270
 51
0
  0
ARC
  8
1
 62
3
 10
1573.70259071977
 20
-450.4099327721155
 30
0
 40
0.4999999999999553
 50
293.5781784782097
 51
0
  0
ARC
  8
1
 62
3
 10
1573.20259071977
 20
-454.0099327721153
 30
0
 40
1
 50
270
 51
0
  0
ARC
  8
1
 62
3
 10
1568.20259071977
 20
-454.0099327721153
 30
0
 40
1
 50
180
 51
270
  0
ARC
  8
1
 62
3
 10
1575.20259071977
 20
-405.5099327721153
 30
0
 40
1
 50
180
 51
270
  0
ARC
  8
1
 62
3
 10
1632.20259071977
 20
-405.5099327721153
 30
0
 40
1
 50
270
 51
0
  0
ARC
  8
1
 62
3
 10
1632.20259071977
 20
-447.5099327721153
 30
0
 40
1
 50
0
 51
90
  0
ARC
  8
1
 62
3
 10
1634.20259071977
 20
-399.0099327721153
 30
0
 40
1
 50
90
 51
180
  0
ARC
  8
1
 62
3
 10
1639.20259071977
 20
-399.0099327721153
 30
0
 40
1
 50
0
 51
90
  0
ARC
  8
1
 62
3
 10
1634.20259071977
 20
-454.0099327721153
 30
0
 40
1
 50
180
 51
270
  0
ARC
  8
1
 62
3
 10
1633.70259071977
 20
-402.6099327721154
 30
0
 40
0.4999999999999685
 50
113.5781784781807
 51
180
  0
ARC
  8
1
 62
3
 10
1575.20259071977
 20
-447.5099327721153
 30
0
 40
1
 50
90
 51
180
  0
ARC
  8
1
 62
3
 10
1719.68388788735
 20
-398.3013372544189
 30
0
 40
0.1500000000000341
 50
90
 51
180
  0
ARC
  8
1
 62
3
 10
1719.88388788735
 20
-398.5013372544188
 30
0
 40
0.1499999999999773
 50
90
 51
180
  0
ARC
  8
1
 62
3
 10
1721.38388788735
 20
-398.3013372544189
 30
0
 40
0.1499999999998636
 50
0
 51
90
  0
ARC
  8
1
 62
3
 10
1721.18388788735
 20
-398.5013372544188
 30
0
 40
0.150000000000091
 50
0
 51
90
  0
ARC
  8
1
 62
3
 10
1636.614538195302
 20
-400.837338641866
 30
0
 40
0.04333333333367507
 50
224.9999999995749
 51
277.4584490561959
  0
ARC
  8
1
 62
3
 10
1636.790643244238
 20
-400.837338641866
 30
0
 40
0.04333333333324523
 50
262.5415509438041
 51
315.0000000004252
  0
ARC
  8
1
 62
3
 10
1636.029996589521
 20
-401.5979852965836
 30
0
 40
0.04333333333315254
 50
314.9999999994154
 51
7.458449056170172
  0
ARC
  8
1
 62
3
 10
1636.029996589521
 20
-401.4218802476468
 30
0
 40
0.04333333333297817
 50
352.5415509436062
 51
45.00000000047831
  0
ARC
  8
1
 62
3
 10
1636.790643244238
 20
-402.1825269023646
 30
0
 40
0.04333333333371527
 50
44.99999999962798
 51
97.45844905617641
  0
ARC
  8
1
 62
3
 10
1636.614538195302
 20
-402.1825269023646
 30
0
 40
0.04333333333335795
 50
82.54155094382359
 51
135.000000000372
  0
ARC
  8
1
 62
3
 10
1637.37518485002
 20
-401.4218802476468
 30
0
 40
0.04333333333387604
 50
135.0000000005846
 51
187.4584490561986
  0
ARC
  8
1
 62
3
 10
1637.37518485002
 20
-401.5979852965836
 30
0
 40
0.04333333333408328
 50
172.5415509440249
 51
224.9999999995217
  0
ARC
  8
1
 62
3
 10
1570.614538195302
 20
-450.837338641866
 30
0
 40
0.04333333333367507
 50
224.9999999995749
 51
277.4584490561959
  0
ARC
  8
1
 62
3
 10
1570.790643244239
 20
-450.837338641866
 30
0
 40
0.04333333333324523
 50
262.5415509438041
 51
314.9999999995748
  0
ARC
  8
1
 62
3
 10
1570.029996589521
 20
-451.5979852965836
 30
0
 40
0.04333333333315254
 50
314.9999999994154
 51
7.458449056170172
  0
ARC
  8
1
 62
3
 10
1570.029996589521
 20
-451.4218802476468
 30
0
 40
0.04333333333297817
 50
352.5415509436062
 51
45.00000000047831
  0
ARC
  8
1
 62
3
 10
1570.790643244239
 20
-452.1825269023646
 30
0
 40
0.04333333333307215
 50
45.00000000047831
 51
97.45844905617641
  0
ARC
  8
1
 62
3
 10
1570.614538195302
 20
-452.1825269023646
 30
0
 40
0.04333333333335795
 50
82.54155094382359
 51
135.000000000372
  0
ARC
  8
1
 62
3
 10
1571.37518485002
 20
-451.4218802476468
 30
0
 40
0.04333333333387604
 50
135.0000000005846
 51
187.4584490561986
  0
ARC
  8
1
 62
3
 10
1571.37518485002
 20
-451.5979852965836
 30
0
 40
0.04333333333408328
 50
172.5415509440249
 51
224.9999999995217
  0
ARC
  8
1
 62
3
 10
1491.819722397998
 20
-454.7185282898116
 30
0
 40
0.1499999999999773
 50
270
 51
0
  0
ARC
  8
1
 62
3
 10
1491.619722397998
 20
-454.5185282898117
 30
0
 40
0.1500000000000341
 50
270
 51
0
  0
ARC
  8
1
 62
3
 10
1490.119722397998
 20
-454.7185282898116
 30
0
 40
0.1499999999998636
 50
180
 51
270
  0
ARC
  8
1
 62
3
 10
1490.319722397998
 20
-454.5185282898117
 30
0
 40
0.150000000000091
 50
180
 51
270
  0
TEXT
  8
1
 62
2
 10
1661.022233796153
 20
-580.6491544031358
 30
0
 40
5
  1
FTD3S2P22-01
 41
0.9
  0
TEXT
  8
1
 62
2
 10
1607.340151825287
 20
-439.0099327721154
 30
0
 40
1.5
  1
DC24V
 41
0.9
  0
TEXT
  8
1
 62
2
 10
1579.37759071977
 20
-442.9934392639352
 30
0
 40
1
  1
STEPPING MOTOR DRIVER
 41
0.9
 72
1
 11
1588.82759071977
 21
-442.9934392639352
 31
0
  0
TEXT
  8
1
 62
2
 10
1609.46509071977
 20
-436.0099327721154
 30
0
 40
2.5
  1
FTD3S2P22
 41
0.8100000000000001
  7
COMPLEX
 72
1
 11
1618.57759071977
 21
-436.0099327721154
 31
0
  0
TEXT
  8
1
 62
2
 10
1607.340151825287
 20
-441.5099327721154
 30
0
 40
1.5
  1
LOT NOüD
 41
0.9
  0
TEXT
  8
1
 62
2
 10
1606.720005405182
 20
-443.0078362888901
 30
0
 40
1
  1
JAPAN SERVO  MADE IN JAPAN
 41
0.9
 72
1
 11
1618.420005405182
 21
-443.0078362888901
 31
0
  0
TEXT
  8
1
 62
2
 10
1362.862993192615
 20
-532.1661399431171
 30
0
 40
3
  1
ü@ü@ü@ü@âèü[âhü@ü@ü@ü@ü@ü@ü@ü@ü@ü@ü@ü@ânâEâWâôâOü@ü@ü@ü@ü@ü@ü@ü@ü@ü@ü@âRâôâ^âNâgü@ü@ü@ü@ü@ü@ü@âRâlâNâ^âüü[âJ
 41
0.9
  0
TEXT
  8
1
 62
2
 10
1362.862993192615
 20
-537.4161399431171
 30
0
 40
3
  1
étékéRéQéUéUüCé`évéféQéQü@éhékü|éfü|éXérü|éréRébéQü|éré`ü@ü@éhékü|éfü|ébéQü|érébü|éPéOéOéOéOü@ô·û{ìqï%%côdÄqìHïã
 41
0.9
  0
TEXT
  8
1
 62
2
 10
1362.862993192615
 20
-591.2589442842129
 30
0
 40
3
  1
ü@ü@ü@ü@âèü[âhü@ü@ü@ü@ü@ü@ü@ü@ü@ü@ü@ü@ânâEâWâôâOü@ü@ü@ü@ü@ü@ü@ü@ü@ü@ü@âRâôâ^âNâgü@ü@ü@ü@ü@ü@ü@âRâlâNâ^âüü[âJ
 41
0.9
  0
TEXT
  8
1
 62
2
 10
1362.862993192615
 20
-596.5089442842129
 30
0
 40
3
  1
étékéRéQéUéUüCé`évéféQéQü@éhékü|éfü|éRérü|éréRébéQü|éré`ü@ü@éhékü|éfü|ébéQü|érébü|éPéOéOéOéOü@ô·û{ìqï%%côdÄqìHïã
 41
0.9
  0
TEXT
  8
1
 62
2
 10
1533.888967938691
 20
-581.7025686489213
 30
0
 40
3.199999999999999
  1
3âsâô
 50
90
 41
0.9
  0
TEXT
  8
1
 62
2
 10
1534.127903601077
 20
-567.3249879558335
 30
0
 40
3.200000000000001
  1
1âsâô
 50
90
 41
0.9
  0
TEXT
  8
1
 62
2
 10
1364.725661973887
 20
-568.287241491475
 30
0
 40
3.199999999999997
  1
âsâô No.
 41
0.6300000000000001
  0
TEXT
  8
1
 62
2
 10
1378.576134827693
 20
-568.287241491475
 30
0
 40
3.199999999999997
  1
âèü[âhÉF
 41
0.9
  0
TEXT
  8
1
 62
2
 10
1364.21847556672
 20
-578.287241491475
 30
0
 40
3.199999999999997
  1
  2
 41
0.9
  0
TEXT
  8
1
 62
2
 10
1364.21847556672
 20
-583.287241491475
 30
0
 40
3.199999999999997
  1
  3
 41
0.9
  0
TEXT
  8
1
 62
2
 10
1382.606945709784
 20
-573.287241491475
 30
0
 40
3.199999999999999
  1
É┬
 41
0.9
  0
TEXT
  8
1
 62
2
 10
1382.637240306612
 20
-578.197891604628
 30
0
 40
3.199999999999999
  1
ë®
 41
0.9
  0
TEXT
  8
1
 62
2
 10
1382.606945709784
 20
-583.287241491475
 30
0
 40
3.199999999999999
  1
ÉÈ
 41
0.9
  0
TEXT
  8
1
 62
2
 10
1364.21847556672
 20
-573.287241491475
 30
0
 40
3.199999999999997
  1
  1
 41
0.9
  0
TEXT
  8
1
 62
2
 10
1511.390436163627
 20
-575.2152003528644
 30
0
 40
3.200000000000001
  1
3
 50
90
 41
0.9
  0
TEXT
  8
1
 62
2
 10
1511.222544544597
 20
-568.3744373215302
 30
0
 40
3.200000000000001
  1
1
 50
90
 41
0.9
  0
TEXT
  8
1
 62
2
 10
1382.815636187377
 20
-516.9244064940506
 30
0
 40
3.199999999999999
  1
èD
 41
0.9
  0
TEXT
  8
1
 62
2
 10
1382.977153965677
 20
-512.1614770641827
 30
0
 40
3.199999999999999
  1
Äç
 41
0.9
  0
TEXT
  8
1
 62
2
 10
1364.21847556672
 20
-522.3187716228078
 30
0
 40
3.199999999999997
  1
  9
 41
0.9
  0
TEXT
  8
1
 62
2
 10
1364.21847556672
 20
-517.3187716228078
 30
0
 40
3.199999999999997
  1
  8
 41
0.9
  0
TEXT
  8
1
 62
2
 10
1364.21847556672
 20
-512.3187716228078
 30
0
 40
3.199999999999997
  1
  7
 41
0.9
  0
TEXT
  8
1
 62
2
 10
1533.264733423431
 20
-521.512979875434
 30
0
 40
3.199999999999999
  1
9âsâô
 50
90
 41
0.9
  0
TEXT
  8
1
 62
2
 10
1533.701835853687
 20
-497.9520805773901
 30
0
 40
3.200000000000001
  1
1âsâô
 50
90
 41
0.9
  0
TEXT
  8
1
 62
2
 10
1364.725661973887
 20
-477.3187716228078
 30
0
 40
3.199999999999997
  1
âsâô No.
 41
0.6300000000000001
  0
TEXT
  8
1
 62
2
 10
1378.324209147562
 20
-477.4027468495179
 30
0
 40
3.199999999999997
  1
âèü[âhÉF
 41
0.9
  0
TEXT
  8
1
 62
2
 10
1364.21847556672
 20
-487.3187716228078
 30
0
 40
3.199999999999997
  1
  2
 41
0.9
  0
TEXT
  8
1
 62
2
 10
1364.21847556672
 20
-492.3187716228078
 30
0
 40
3.199999999999997
  1
  3
 41
0.9
  0
TEXT
  8
1
 62
2
 10
1364.21847556672
 20
-497.3187716228078
 30
0
 40
3.199999999999997
  1
  4
 41
0.9
  0
TEXT
  8
1
 62
2
 10
1364.21847556672
 20
-502.3187716228078
 30
0
 40
3.199999999999997
  1
  5
 41
0.9
  0
TEXT
  8
1
 62
2
 10
1364.21847556672
 20
-507.3187716228078
 30
0
 40
3.199999999999997
  1
  6
 41
0.9
  0
TEXT
  8
1
 62
2
 10
1382.606945709784
 20
-482.3187716228078
 30
0
 40
3.199999999999999
  1
ÉÈ
 41
0.9
  0
TEXT
  8
1
 62
2
 10
1382.606945709784
 20
-487.3187716228078
 30
0
 40
3.199999999999999
  1
ìò
 41
0.9
  0
TEXT
  8
1
 62
2
 10
1382.687704598934
 20
-491.9803989542776
 30
0
 40
3.199999999999999
  1
×%%d
 41
0.9
  0
TEXT
  8
1
 62
2
 10
1382.815636187368
 20
-502.1455534494253
 30
0
 40
3.199999999999999
  1
ù╬
 41
0.9
  0
TEXT
  8
1
 62
2
 10
1382.896395076527
 20
-507.1455534494153
 30
0
 40
3.199999999999999
  1
É┬
 41
0.9
  0
TEXT
  8
1
 62
2
 10
1364.21847556672
 20
-482.3187716228078
 30
0
 40
3.199999999999997
  1
  1
 41
0.9
  0
TEXT
  8
1
 62
2
 10
1511.105781305699
 20
-519.8349559617151
 30
0
 40
3.200000000000001
  1
9
 50
90
 41
0.9
  0
TEXT
  8
1
 62
2
 10
1510.845674915577
 20
-497.0833435437381
 30
0
 40
3.200000000000001
  1
1
 50
90
 41
0.9
  0
TEXT
  8
1
 62
2
 10
1382.630977246111
 20
-497.1781098031198
 30
0
 40
3.199999999999999
  1
ë®
 41
0.9
  0
TEXT
  8
1
 62
2
 10
1382.815636187377
 20
-521.9956022131765
 30
0
 40
3.199999999999999
  1
öÆ
 41
0.9
  0
DIMENSION
  8
1
  6
CONTINUOUS
 62
2
  2
*D0
  3
DMST_1
 10
1640.20259071977
 20
-372.8775452351089
 30
0
 11
1603.796112358598
 21
-369.2775452351089
 31
0
 12
0
 22
0
 32
0
 70
0
  1
(73)
 13
1567.20259071977
 23
-399.0099327721153
 33
0
 14
1640.20259071977
 24
-399.0099327721153
 34
0
 53
0
  0
DIMENSION
  8
1
  6
CONTINUOUS
 62
2
  2
*D1
  3
DMST_2
 10
1636.70259071977
 20
-381.0398619379018
 30
0
 11
1603.796112358598
 21
-377.4398619379018
 31
0
 12
0
 22
0
 32
0
 70
0
 13
1570.70259071977
 23
-399.0996365267598
 33
0
 14
1636.70259071977
 24
-399.0996365267598
 34
0
 53
0
  0
DIMENSION
  8
1
  6
CONTINUOUS
 62
2
  2
*D6
  3
DMST_2
 10
1640.00259071977
 20
-534.619339355561
 30
0
 11
1652.811153284542
 21
-531.019339355561
 31
0
 12
0
 22
0
 32
0
 70
0
 13
1633.40259071977
 23
-523.4229783737928
 33
0
 14
1640.00259071977
 24
-523.4229783737928
 34
0
 53
0
  0
DIMENSION
  8
1
  6
CONTINUOUS
 62
2
  2
*D7
  3
DMST_2
 10
1574.00259071977
 20
-534.0530495938041
 30
0
 11
1586.838396039869
 21
-530.4530495938041
 31
0
 12
0
 22
0
 32
0
 70
0
 13
1567.40259071977
 23
-523.4229783737928
 33
0
 14
1574.00259071977
 24
-523.4229783737928
 34
0
 53
0
  0
DIMENSION
  8
1
  6
CONTINUOUS
 62
2
  2
*D10
  3
DMST_3
 10
1703.33388788735
 20
-464.9656986594688
 30
0
 11
1695.603675395116
 21
-461.3656986594688
 31
0
 12
0
 22
0
 32
0
 70
0
  1
17
 13
1686.947595611486
 23
-451.8724327721153
 33
0
 14
1703.33388788735
 24
-443.6957426307482
 34
0
 53
0
  0
DIMENSION
  8
1
  6
CONTINUOUS
 62
2
  2
*D19
  3
DMST_2
 10
1728.33388788735
 20
-418.9274493375978
 30
0
 11
1734.398859365873
 21
-415.3274493375978
 31
0
 12
0
 22
0
 32
0
 70
0
 13
1725.33388788735
 23
-410.7099327721153
 33
0
 14
1728.33388788735
 24
-410.7099327721153
 34
0
 53
0
  0
DIMENSION
  8
1
  6
CONTINUOUS
 62
2
  2
*D20
  3
DMST_4
 10
1703.33388788735
 20
-464.9746212480599
 30
0
 11
1715.602032344379
 21
-461.3746212480599
 31
0
 12
0
 22
0
 32
0
 70
0
 13
1728.33388788735
 23
-454.5099327721153
 33
0
 14
1703.33388788735
 24
-443.6957426307482
 34
0
 53
0
  0
DIMENSION
  8
1
  6
CONTINUOUS
 62
2
  2
*D21
  3
DMST_5
 10
1417.628149893582
 20
-557.07901652614
 30
0
 11
1456.525955942687
 21
-552.67901652614
 31
0
 12
0
 22
0
 32
0
 70
0
  1
300
 13
1499.32038669287
 23
-566.9803124353231
 33
0
 14
1417.628149893582
 24
-567.780312435323
 34
0
 53
0
  0
DIMENSION
  8
1
  6
CONTINUOUS
 62
2
  2
*D22
  3
DMST_6
 10
1407.628149893582
 20
-557.0500486064121
 30
0
 11
1412.628149893582
 21
-553.4500486064121
 31
0
 12
0
 22
0
 32
0
 70
0
 13
1417.628149893582
 23
-567.780312435323
 33
0
 14
1407.628149893582
 24
-568.1303124353229
 34
0
 53
0
  0
DIMENSION
  8
1
  6
CONTINUOUS
 62
2
  2
*D23
  3
DMST_5
 10
1417.628149893582
 20
-489.9330480458071
 30
0
 11
1456.525955942687
 21
-485.5330480458071
 31
0
 12
0
 22
0
 32
0
 70
0
  1
300
 13
1499.32038669287
 23
-499.83434395499
 33
0
 14
1417.628149893582
 24
-500.6343439549897
 34
0
 53
0
  0
DIMENSION
  8
1
  6
CONTINUOUS
 62
2
  2
*D24
  3
DMST_6
 10
1417.628149893582
 20
-489.9040801260792
 30
0
 11
1412.628149893582
 21
-486.3040801260792
 31
0
 12
0
 22
0
 32
0
 70
0
 13
1407.628149893582
 23
-500.9843439549901
 33
0
 14
1417.628149893582
 24
-500.6343439549897
 34
0
 53
0
  0
INSERT
  8
1
  2
*D2
 10
0
 20
0
 30
0
  0
INSERT
  8
1
  2
*D3
 10
0
 20
0
 30
0
  0
INSERT
  8
1
  2
*D4
 10
0
 20
0
 30
0
  0
INSERT
  8
1
  2
*D5
 10
0
 20
0
 30
0
  0
INSERT
  8
1
  2
*D8
 10
0
 20
0
 30
0
  0
INSERT
  8
1
  2
*D9
 10
0
 20
0
 30
0
  0
INSERT
  8
1
  2
*D11
 10
0
 20
0
 30
0
  0
INSERT
  8
1
  2
*D12
 10
0
 20
0
 30
0
  0
INSERT
  8
1
  2
*D13
 10
0
 20
0
 30
0
  0
INSERT
  8
1
  2
*D14
 10
0
 20
0
 30
0
  0
INSERT
  8
1
  2
*D15
 10
0
 20
0
 30
0
  0
INSERT
  8
1
  2
*D16
 10
0
 20
0
 30
0
  0
INSERT
  8
1
  2
*D17
 10
0
 20
0
 30
0
  0
INSERT
  8
1
  2
*D18
 10
0
 20
0
 30
0
  0
INSERT
  8
1
  2
*D25
 10
0
 20
0
 30
0
  0
INSERT
  8
1
  2
*D26
 10
0
 20
0
 30
0
  0
INSERT
  8
1
  2
*D27
 10
0
 20
0
 30
0
  0
ENDSEC
  0
EOF
