  0
SECTION
  2
HEADER
  9
$ACADVER
  1
AC1009
  9
$INSBASE
 10
0
 20
0
  9
$EXTMIN
 10
3062.510702241887
 20
663.5393022157941
  9
$EXTMAX
 10
3435.71815308903
 20
911.113031484775
  9
$LIMMIN
 10
3062.510702241887
 20
663.5393022157941
  9
$LIMMAX
 10
3435.71815308903
 20
911.113031484775
  9
$VIEWCTR
 10
10
 20
10
  9
$VIEWSIZE
 40
10
  9
$SNAPMODE
 70
0
  9
$SNAPUNIT
 10
1
 20
1
  9
$SNAPBASE
 10
0
 20
0
  9
$SNAPANG
 50
0
  9
$SNAPSTYLE
 70
0
  9
$SNAPISOPAIR
 70
0
  9
$GRIDMODE
 70
0
  9
$GRIDUNIT
 10
0
 20
0
  9
$ORTHOMODE
 70
0
  9
$REGENMODE
 70
1
  9
$FILLMODE
 70
1
  9
$QTEXTMODE
 70
0
  9
$DRAGMODE
 70
2
  9
$LTSCALE
 40
1
  9
$OSMODE
 70
0
  9
$ATTMODE
 70
1
  9
$TEXTSIZE
 40
3.5
  9
$TRACEWID
 40
0.5
  9
$TEXTSTYLE
  7
STANDARD
  9
$CLAYER
  8
0
  9
$CELTYPE
  6
BYLAYER
  9
$CECOLOR
 62
256
  9
$DIMSCALE
 40
1
  9
$DIMASZ
 40
0.18
  9
$DIMEXO
 40
0.0625
  9
$DIMDLI
 40
0.38
  9
$DIMRND
 40
0
  9
$DIMDLE
 40
0
  9
$DIMEXE
 40
0.18
  9
$DIMTP
 40
0
  9
$DIMTM
 40
0
  9
$DIMTXT
 40
0.18
  9
$DIMCEN
 40
0.09
  9
$DIMTSZ
 40
0
  9
$DIMTOL
 70
0
  9
$DIMLIM
 70
0
  9
$DIMTIH
 70
1
  9
$DIMTOH
 70
1
  9
$DIMSE1
 70
0
  9
$DIMSE2
 70
0
  9
$DIMTAD
 70
0
  9
$DIMZIN
 70
0
  9
$DIMBLK
  1

  9
$DIMASO
 70
1
  9
$DIMSHO
 70
1
  9
$DIMPOST
  1

  9
$DIMAPOST
  1

  9
$DIMALT
 70
0
  9
$DIMALTD
 70
2
  9
$DIMALTF
 40
25.4
  9
$DIMLFAC
 40
1
  9
$DIMTOFL
 70
0
  9
$DIMTVP
 40
0
  9
$DIMTIX
 70
0
  9
$DIMSOXD
 70
0
  9
$DIMSAH
 70
0
  9
$DIMBLK1
  1

  9
$DIMBLK2
  1

  9
$DIMSTYLE
  2
*UNNAMED
  9
$DIMCLRD
 70
0
  9
$DIMCLRE
 70
0
  9
$DIMCLRT
 70
0
  9
$DIMTFAC
 40
1
  9
$DIMGAP
 40
0.09
  9
$LUNITS
 70
2
  9
$LUPREC
 70
4
  9
$AXISMODE
 70
0
  9
$AXISUNIT
 10
0
 20
0
  9
$SKETCHINC
 40
0.1
  9
$FILLETRAD
 40
2
  9
$AUNITS
 70
0
  9
$AUPREC
 70
0
  9
$MENU
  1
ACAD
  9
$ELEVATION
 40
0
  9
$THICKNESS
 40
0
  9
$VIEWDIR
 10
0
 20
0
 30
1
  9
$LIMCHECK
 70
0
  9
$BLIPMODE
 70
1
  9
$CHAMFERA
 40
0
  9
$CHAMFERB
 40
0
  9
$FASTZOOM
 70
1
  9
$SKPOLY
 70
0
  9
$ANGBASE
 50
0
  9
$ANGDIR
 70
0
  9
$PDMODE
 70
0
  9
$PDSIZE
 40
0
  9
$PLINEWID
 40
0
  9
$COORDS
 70
2
  0
ENDSEC
  0
SECTION
  2
TABLES
  0
TABLE
  2
DIMSTYLE
 70
8
  0
DIMSTYLE
  2
DMST_1
 70
0
  3

  4

  5

  6

  7

 40
1
 41
3.2
 42
1
 43
7
 44
1.5
 45
0
 46
0
 47
0
 48
0
140
3.2
141
0
142
0
143
25.4
144
1
145
0
146
0.6
147
0.09
 71
1
 72
0
 73
1
 74
1
 75
0
 76
0
 77
1
 78
9
170
0
171
2
172
0
173
0
174
0
175
0
176
2
177
2
178
2
  0
DIMSTYLE
  2
DMST_2
 70
0
  3

  4

  5

  6

  7

 40
1
 41
3.2
 42
1
 43
7
 44
1
 45
0
 46
0
 47
3
 48
3
140
3.2
141
0
142
0
143
25.4
144
1
145
0
146
0.7
147
0.09
 71
1
 72
0
 73
0
 74
0
 75
0
 76
0
 77
1
 78
9
170
0
171
2
172
0
173
0
174
0
175
0
176
2
177
2
178
2
  0
DIMSTYLE
  2
DMST_3
 70
0
  3

  4

  5

  6

  7

 40
1
 41
4.800000000000001
 42
1
 43
7
 44
1.5
 45
0
 46
0
 47
0.5
 48
0.5
140
3.2
141
0
142
0
143
25.4
144
1
145
0
146
0.6
147
0.09
 71
1
 72
0
 73
1
 74
1
 75
0
 76
0
 77
1
 78
9
170
0
171
2
172
0
173
0
174
0
175
0
176
2
177
2
178
2
  0
DIMSTYLE
  2
DMST_4
 70
0
  3

  4

  5

  6

  7

 40
1
 41
3.2
 42
1
 43
7
 44
1.5
 45
0
 46
0
 47
0
 48
0
140
3.2
141
0
142
0
143
25.4
144
1
145
0
146
1
147
0.09
 71
0
 72
0
 73
0
 74
0
 75
0
 76
0
 77
1
 78
9
170
0
171
2
172
0
173
0
174
0
175
0
176
2
177
2
178
2
  0
DIMSTYLE
  2
DMST_5
 70
0
  3

  4

  5

  6

  7

 40
1
 41
3.2
 42
1
 43
7
 44
1.5
 45
0
 46
0
 47
0.5
 48
0.5
140
3.2
141
0
142
0
143
25.4
144
1
145
0
146
0.6
147
0.09
 71
1
 72
0
 73
1
 74
1
 75
0
 76
0
 77
1
 78
9
170
0
171
2
172
0
173
0
174
0
175
0
176
2
177
2
178
2
  0
DIMSTYLE
  2
DMST_6
 70
0
  3

  4

  5

  6

  7

 40
1
 41
3.2
 42
1
 43
7
 44
1.5
 45
0
 46
0
 47
1
 48
1
140
3.2
141
0
142
0
143
25.4
144
1
145
0
146
0.6
147
0.09
 71
1
 72
0
 73
1
 74
1
 75
0
 76
0
 77
1
 78
9
170
0
171
2
172
0
173
0
174
0
175
0
176
2
177
2
178
2
  0
DIMSTYLE
  2
DMST_7
 70
0
  3

  4

  5

  6

  7

 40
1
 41
3.2
 42
1
 43
7
 44
1.5
 45
0
 46
0
 47
0.5
 48
0.5
140
3.2
141
0
142
0
143
25.4
144
1
145
0
146
0.6
147
0.09
 71
1
 72
0
 73
0
 74
0
 75
0
 76
0
 77
1
 78
9
170
0
171
2
172
0
173
0
174
0
175
0
176
2
177
2
178
2
  0
DIMSTYLE
  2
DMST_8
 70
0
  3

  4

  5

  6

  7

 40
1
 41
3.2
 42
1
 43
7
 44
1.5
 45
0
 46
0
 47
1
 48
0
140
3.2
141
0
142
0
143
25.4
144
1
145
0
146
0.6
147
0.09
 71
1
 72
0
 73
0
 74
0
 75
0
 76
0
 77
1
 78
9
170
0
171
2
172
0
173
0
174
0
175
0
176
2
177
2
178
2
  0
ENDTAB
  0
TABLE
  2
LTYPE
 70
9
  0
LTYPE
  2
CONTINUOUS
 70
64
  3
Solid line
 72
65
 73
0
 40
0
  0
LTYPE
  2
BORDER
 70
64
  3
__ __ . __ __ .
 72
65
 73
6
 40
17.18718523638158
 49
4.910624353251879
 49
-2.455312176625939
 49
4.910624353251879
 49
-2.455312176625939
 49
0
 49
-2.455312176625939
  0
LTYPE
  2
CENTER
 70
64
  3
____ _ ____ _
 72
65
 73
4
 40
19.64249741300752
 49
12.2765608831297
 49
-2.455312176625939
 49
2.455312176625939
 49
-2.455312176625939
  0
LTYPE
  2
DASHDOT
 70
64
  3
__ . __ . __ .
 72
65
 73
4
 40
9.821248706503758
 49
4.910624353251879
 49
-2.455312176625939
 49
0
 49
-2.455312176625939
  0
LTYPE
  2
DASHED
 70
64
  3
__ __ __ __ __
 72
65
 73
2
 40
7.365936529877818
 49
4.910624353251879
 49
-2.455312176625939
  0
LTYPE
  2
DIVIDE
 70
64
  3
__ . . __ . . 
 72
65
 73
6
 40
12.2765608831297
 49
4.910624353251879
 49
-2.455312176625939
 49
0
 49
-2.455312176625939
 49
0
 49
-2.455312176625939
  0
LTYPE
  2
DOT
 70
64
  3
..............
 72
65
 73
4
 40
4.910624353251879
 49
0
 49
-2.455312176625939
 49
0
 49
-2.455312176625939
  0
LTYPE
  2
HIDDEN
 70
64
  3
_ _ _ _ _ _ _
 72
65
 73
2
 40
3.682968264938909
 49
2.455312176625939
 49
-1.22765608831297
  0
LTYPE
  2
PHANTOM
 70
64
  3
_____ _ _ _____ _ _ 
 72
65
 73
6
 40
24.5531217662594
 49
12.2765608831297
 49
-2.455312176625939
 49
2.455312176625939
 49
-2.455312176625939
 49
2.455312176625939
 49
-2.455312176625939
  0
ENDTAB
  0
TABLE
  2
LAYER
 70
5
  0
LAYER
  2
LAYER16
 70
0
 62
7
  6
CONTINUOUS
  0
LAYER
  2
1
 70
0
 62
7
  6
CONTINUOUS
  0
LAYER
  2
-4880_37571997535_-6589_4863227
 70
0
 62
7
  6
CONTINUOUS
  0
LAYER
  2
0
 70
0
 62
7
  6
CONTINUOUS
  0
ENDTAB
  0
TABLE
  2
STYLE
 70
4
  0
STYLE
  2
STANDARD
 70
0
 40
0
 41
1
 50
0
 71
0
 42
3.5
  3
txt
  4

  0
STYLE
  2
SIMPLEX
 70
0
 40
0
 41
1
 50
0
 71
0
 42
3.5
  3
simplex
  4

  0
STYLE
  2
COMPLEX
 70
0
 40
0
 41
1
 50
0
 71
0
 42
3.5
  3
complex
  4

  0
STYLE
  2
ITALIC
 70
0
 40
0
 41
1
 50
0
 71
0
 42
3.5
  3
italic
  4

  0
ENDTAB
  0
TABLE
  2
VIEW
 70
0
  0
ENDTAB
  0
ENDSEC
  0
SECTION
  2
BLOCKS
  0
BLOCK
  8
1
  2
*X0
 70
1
 10
0
 20
0
 30
0
  0
LINE
  8
1
 62
2
 10
3312.482688162562
 20
814.9815370116755
 30
0
 11
3312.597294399041
 21
815.0961432481547
 31
0
  0
LINE
  8
1
 62
2
 10
3312.482688162562
 20
814.698694299201
 30
0
 11
3312.880137111516
 21
815.0961432481547
 31
0
  0
LINE
  8
1
 62
2
 10
3312.482688162562
 20
814.4158515867264
 30
0
 11
3313.162979823991
 21
815.0961432481547
 31
0
  0
LINE
  8
1
 62
2
 10
3312.482688162562
 20
814.1330088742518
 30
0
 11
3313.445822536465
 21
815.0961432481547
 31
0
  0
LINE
  8
1
 62
2
 10
3312.576665248939
 20
813.9441432481547
 30
0
 11
3313.72866524894
 21
815.0961432481547
 31
0
  0
LINE
  8
1
 62
2
 10
3313.435444749102
 20
814.5200800358427
 30
0
 11
3314.011507961414
 21
815.0961432481547
 31
0
  0
LINE
  8
1
 62
2
 10
3312.859507961414
 20
813.9441432481547
 30
0
 11
3312.866751374873
 21
813.9513866616137
 31
0
  0
LINE
  8
1
 62
2
 10
3313.671103164471
 20
814.4728957387372
 30
0
 11
3314.294350673889
 21
815.0961432481547
 31
0
  0
LINE
  8
1
 62
2
 10
3313.841129325358
 20
814.3600791871486
 30
0
 11
3314.402688162562
 21
814.9216380243527
 31
0
  0
LINE
  8
1
 62
2
 10
3313.960440148482
 20
814.1965472977979
 30
0
 11
3314.402688162562
 21
814.6387953118781
 31
0
  0
LINE
  8
1
 62
2
 10
3314.018029530026
 20
813.9712939668684
 30
0
 11
3314.402688162562
 21
814.3559525994035
 31
0
  0
LINE
  8
1
 62
2
 10
3314.273721523788
 20
813.9441432481551
 30
0
 11
3314.402688162562
 21
814.0731098869289
 31
0
  0
ENDBLK
  8
0
  0
BLOCK
  8
1
  2
*D0
 70
1
 10
0
 20
0
 30
0
  0
LINE
  8
1
 62
2
 10
3072.510702241887
 20
710.9238171699252
 30
0
 11
3139.918280885588
 21
710.9238171699252
 31
0
  0
LINE
  8
1
 62
2
 10
3139.918280885588
 20
702.0225212607421
 30
0
 11
3139.918280885588
 21
712.4238171699252
 31
0
  0
LINE
  8
1
 62
2
 10
3072.510702241887
 20
701.2225212607422
 30
0
 11
3072.510702241887
 21
712.4238171699252
 31
0
  0
SOLID
  8
1
 62
2
 10
3139.918280885588
 20
710.9238171699252
 30
0
 11
3136.718280885588
 21
710.5078171699252
 31
0
 12
3136.718280885588
 22
711.3398171699253
 32
0
 13
3136.718280885588
 23
711.3398171699253
 33
0
  0
SOLID
  8
1
 62
2
 10
3072.510702241887
 20
710.9238171699252
 30
0
 11
3075.710702241886
 21
711.3398171699253
 31
0
 12
3075.710702241886
 22
710.5078171699252
 32
0
 13
3075.710702241886
 23
710.5078171699252
 33
0
  0
TEXT
  8
1
 62
2
 10
3097.758860004889
 20
713.7238171699252
 30
0
 40
3.2
  1
300
 41
0.9
  0
TEXT
  8
1
 62
2
 10
3107.038860004889
 20
715.8038171699252
 30
0
 40
1.92
  1
+20
 41
0.9
  0
TEXT
  8
1
 62
2
 10
3107.038860004889
 20
712.9238171699252
 30
0
 40
1.92
  1
 0
 41
0.9
  0
ENDBLK
  8
0
  0
BLOCK
  8
1
  2
*D1
 70
1
 10
0
 20
0
 30
0
  0
LINE
  8
1
 62
2
 10
3062.510702241887
 20
710.9527850896531
 30
0
 11
3072.510702241887
 21
710.9527850896531
 31
0
  0
LINE
  8
1
 62
2
 10
3062.510702241887
 20
700.872521260742
 30
0
 11
3062.510702241887
 21
711.9527850896531
 31
0
  0
LINE
  8
1
 62
2
 10
3072.510702241887
 20
701.222521260742
 30
0
 11
3072.510702241887
 21
711.9527850896531
 31
0
  0
SOLID
  8
1
 62
2
 10
3062.510702241887
 20
710.9527850896531
 30
0
 11
3065.710702241887
 21
711.3687850896531
 31
0
 12
3065.710702241887
 22
710.536785089653
 32
0
 13
3065.710702241887
 23
710.536785089653
 33
0
  0
SOLID
  8
1
 62
2
 10
3072.510702241887
 20
710.9527850896531
 30
0
 11
3069.310702241887
 21
710.536785089653
 31
0
 12
3069.310702241887
 22
711.3687850896531
 32
0
 13
3069.310702241887
 23
711.3687850896531
 33
0
  0
TEXT
  8
1
 62
2
 10
3063.334702241887
 20
712.9527850896531
 30
0
 40
3.2
  1
10
 41
0.9
  0
TEXT
  8
1
 62
2
 10
3068.774702241887
 20
713.4327850896531
 30
0
 40
2.24
  1
%%p3
 41
0.9
  0
ENDBLK
  8
0
  0
BLOCK
  8
1
  2
*D2
 70
1
 10
0
 20
0
 30
0
  0
LINE
  8
1
 62
2
 10
3069.254863757636
 20
797.1840994564751
 30
0
 11
3079.254863757636
 21
797.1840994564751
 31
0
  0
LINE
  8
1
 62
2
 10
3079.254863757636
 20
787.4538356275641
 30
0
 11
3079.254863757636
 21
798.1840994564751
 31
0
  0
LINE
  8
1
 62
2
 10
3069.254863757636
 20
787.1038356275642
 30
0
 11
3069.254863757636
 21
798.1840994564751
 31
0
  0
SOLID
  8
1
 62
2
 10
3069.254863757636
 20
797.1840994564751
 30
0
 11
3072.454863757635
 21
797.6000994564752
 31
0
 12
3072.454863757635
 22
796.7680994564751
 32
0
 13
3072.454863757635
 23
796.7680994564751
 33
0
  0
SOLID
  8
1
 62
2
 10
3079.254863757636
 20
797.1840994564751
 30
0
 11
3076.054863757636
 21
796.7680994564751
 31
0
 12
3076.054863757636
 22
797.6000994564752
 32
0
 13
3076.054863757636
 23
797.6000994564752
 33
0
  0
TEXT
  8
1
 62
2
 10
3070.078863757636
 20
799.1840994564751
 30
0
 40
3.2
  1
10
 41
0.9
  0
TEXT
  8
1
 62
2
 10
3075.518863757636
 20
799.6640994564751
 30
0
 40
2.24
  1
%%p3
 41
0.9
  0
ENDBLK
  8
0
  0
BLOCK
  8
1
  2
*D3
 70
1
 10
0
 20
0
 30
0
  0
LINE
  8
1
 62
2
 10
3079.254863757635
 20
797.1551315367473
 30
0
 11
3146.662442401337
 21
797.1551315367473
 31
0
  0
LINE
  8
1
 62
2
 10
3146.662442401337
 20
788.2538356275642
 30
0
 11
3146.662442401337
 21
798.6551315367473
 31
0
  0
LINE
  8
1
 62
2
 10
3079.254863757635
 20
787.4538356275641
 30
0
 11
3079.254863757635
 21
798.6551315367473
 31
0
  0
SOLID
  8
1
 62
2
 10
3146.662442401337
 20
797.1551315367473
 30
0
 11
3143.462442401337
 21
796.7391315367472
 31
0
 12
3143.462442401337
 22
797.5711315367473
 32
0
 13
3143.462442401337
 23
797.5711315367473
 33
0
  0
SOLID
  8
1
 62
2
 10
3079.254863757635
 20
797.1551315367473
 30
0
 11
3082.454863757635
 21
797.5711315367473
 31
0
 12
3082.454863757635
 22
796.7391315367472
 32
0
 13
3082.454863757635
 23
796.7391315367472
 33
0
  0
TEXT
  8
1
 62
2
 10
3104.503021520638
 20
799.9551315367472
 30
0
 40
3.2
  1
300
 41
0.9
  0
TEXT
  8
1
 62
2
 10
3113.783021520638
 20
802.0351315367473
 30
0
 40
1.92
  1
+20
 41
0.9
  0
TEXT
  8
1
 62
2
 10
3113.783021520638
 20
799.1551315367473
 30
0
 40
1.92
  1
 0
 41
0.9
  0
ENDBLK
  8
0
  0
BLOCK
  8
1
  2
*D4
 70
1
 10
0
 20
0
 30
0
  0
LINE
  8
1
 62
2
 10
3269.141021988889
 20
896.385623968435
 30
0
 11
3248.513273530449
 21
896.385623968435
 31
0
  0
LINE
  8
1
 62
2
 10
3269.141021988889
 20
896.385623968435
 30
0
 11
3272.641021988889
 21
896.385623968435
 31
0
  0
LINE
  8
1
 62
2
 10
3282.241021988889
 20
896.385623968435
 30
0
 11
3272.641021988889
 21
896.385623968435
 31
0
  0
LINE
  8
1
 62
2
 10
3272.641021988889
 20
868.1684044992454
 30
0
 11
3272.641021988889
 21
897.885623968435
 31
0
  0
LINE
  8
1
 62
2
 10
3269.141021988889
 20
868.2581082538901
 30
0
 11
3269.141021988889
 21
897.885623968435
 31
0
  0
SOLID
  8
1
 62
2
 10
3272.641021988889
 20
896.385623968435
 30
0
 11
3277.441021988889
 21
897.009623968435
 31
0
 12
3277.441021988889
 22
895.761623968435
 32
0
 13
3277.441021988889
 23
895.761623968435
 33
0
  0
SOLID
  8
1
 62
2
 10
3269.141021988889
 20
896.385623968435
 30
0
 11
3264.341021988889
 21
895.761623968435
 31
0
 12
3264.341021988889
 22
897.009623968435
 32
0
 13
3264.341021988889
 23
897.009623968435
 33
0
  0
TEXT
  8
1
 62
2
 10
3248.513273530449
 20
898.385623968435
 30
0
 40
3.2
  1
3.5
 41
0.9
  0
TEXT
  8
1
 62
2
 10
3256.113273530449
 20
899.025623968435
 30
0
 40
1.92
  1
%%p0.5
 41
0.9
  0
ENDBLK
  8
0
  0
BLOCK
  8
1
  2
*D5
 70
1
 10
0
 20
0
 30
0
  0
LINE
  8
1
 62
2
 10
3354.538388259149
 20
814.7581082538901
 30
0
 11
3354.538388259149
 21
864.7581082538901
 31
0
  0
LINE
  8
1
 62
2
 10
3342.148956716071
 20
864.7581082538901
 30
0
 11
3356.038388259149
 21
864.7581082538901
 31
0
  0
LINE
  8
1
 62
2
 10
3342.148956716071
 20
814.7581082538901
 30
0
 11
3356.038388259149
 21
814.7581082538901
 31
0
  0
SOLID
  8
1
 62
2
 10
3354.538388259149
 20
864.7581082538901
 30
0
 11
3355.162388259149
 21
859.9581082538902
 31
0
 12
3353.914388259149
 22
859.9581082538902
 32
0
 13
3353.914388259149
 23
859.9581082538902
 33
0
  0
SOLID
  8
1
 62
2
 10
3354.538388259149
 20
814.7581082538901
 30
0
 11
3353.914388259149
 21
819.5581082538901
 31
0
 12
3355.162388259149
 22
819.5581082538901
 32
0
 13
3355.162388259149
 23
819.5581082538901
 33
0
  0
TEXT
  8
1
 62
2
 10
3352.538388259149
 20
836.3372761621089
 30
0
 40
3.2
  1
50
 50
90
 41
0.9
  0
TEXT
  8
1
 62
2
 10
3351.898388259149
 20
842.7372761621089
 30
0
 40
1.92
  1
%%p0.5
 50
90
 41
0.9
  0
ENDBLK
  8
0
  0
BLOCK
  8
1
  2
*D6
 70
1
 10
0
 20
0
 30
0
  0
LINE
  8
1
 62
2
 10
3242.289903262629
 20
732.8450626522126
 30
0
 11
3242.289903262629
 21
785.8450626522126
 31
0
  0
LINE
  8
1
 62
2
 10
3284.641021988888
 20
785.8450626522126
 30
0
 11
3240.789903262629
 21
785.8450626522126
 31
0
  0
LINE
  8
1
 62
2
 10
3268.341021988887
 20
732.8450626522126
 30
0
 11
3240.789903262629
 21
732.8450626522126
 31
0
  0
SOLID
  8
1
 62
2
 10
3242.289903262629
 20
732.8450626522126
 30
0
 11
3241.873903262629
 21
736.0450626522127
 31
0
 12
3242.705903262629
 22
736.0450626522127
 32
0
 13
3242.705903262629
 23
736.0450626522127
 33
0
  0
SOLID
  8
1
 62
2
 10
3242.289903262629
 20
785.8450626522126
 30
0
 11
3242.705903262629
 21
782.6450626522126
 31
0
 12
3241.873903262629
 22
782.6450626522126
 32
0
 13
3241.873903262629
 23
782.6450626522126
 33
0
  0
TEXT
  8
1
 62
2
 10
3240.289903262629
 20
748.1514016402073
 30
0
 40
3.2
  1
(53)
 50
90
 41
0.9
  0
ENDBLK
  8
0
  0
BLOCK
  8
1
  2
*D7
 70
1
 10
0
 20
0
 30
0
  0
LINE
  8
1
 62
2
 10
3272.641021988889
 20
896.385623968435
 30
0
 11
3338.641021988889
 21
896.385623968435
 31
0
  0
LINE
  8
1
 62
2
 10
3338.641021988889
 20
868.1684044992454
 30
0
 11
3338.641021988889
 21
897.885623968435
 31
0
  0
LINE
  8
1
 62
2
 10
3272.641021988889
 20
868.1684044992454
 30
0
 11
3272.641021988889
 21
897.885623968435
 31
0
  0
SOLID
  8
1
 62
2
 10
3338.641021988889
 20
896.385623968435
 30
0
 11
3335.441021988889
 21
895.9696239684349
 31
0
 12
3335.441021988889
 22
896.801623968435
 32
0
 13
3335.441021988889
 23
896.801623968435
 33
0
  0
SOLID
  8
1
 62
2
 10
3272.641021988889
 20
896.385623968435
 30
0
 11
3275.841021988889
 21
896.801623968435
 31
0
 12
3275.841021988889
 22
895.9696239684349
 32
0
 13
3275.841021988889
 23
895.9696239684349
 33
0
  0
TEXT
  8
1
 62
2
 10
3300.884846449429
 20
898.385623968435
 30
0
 40
3.2
  1
66
 41
0.9
  0
TEXT
  8
1
 62
2
 10
3307.284846449429
 20
899.025623968435
 30
0
 40
1.92
  1
%%p0.5
 41
0.9
  0
ENDBLK
  8
0
  0
BLOCK
  8
1
  2
*D8
 70
1
 10
0
 20
0
 30
0
  0
LINE
  8
1
 62
2
 10
3255.682911445739
 20
814.7581082538901
 30
0
 11
3255.682911445739
 21
864.7581082538901
 31
0
  0
LINE
  8
1
 62
2
 10
3269.257303222582
 20
864.7581082538901
 30
0
 11
3254.182911445739
 21
864.7581082538901
 31
0
  0
LINE
  8
1
 62
2
 10
3269.257303222582
 20
814.7581082538901
 30
0
 11
3254.182911445739
 21
814.7581082538901
 31
0
  0
SOLID
  8
1
 62
2
 10
3255.682911445739
 20
864.7581082538901
 30
0
 11
3256.098911445739
 21
861.5581082538901
 31
0
 12
3255.266911445739
 22
861.5581082538901
 32
0
 13
3255.266911445739
 23
861.5581082538901
 33
0
  0
SOLID
  8
1
 62
2
 10
3255.682911445739
 20
814.7581082538901
 30
0
 11
3255.266911445739
 21
817.9581082538902
 31
0
 12
3256.098911445739
 22
817.9581082538902
 32
0
 13
3256.098911445739
 23
817.9581082538902
 33
0
  0
TEXT
  8
1
 62
2
 10
3253.682911445739
 20
834.1296093166959
 30
0
 40
3.2
  1
50
 50
90
 41
0.9
  0
TEXT
  8
1
 62
2
 10
3253.042911445739
 20
840.5296093166959
 30
0
 40
1.92
  1
%%p0.5
 50
90
 41
0.9
  0
ENDBLK
  8
0
  0
BLOCK
  8
1
  2
*D9
 70
1
 10
0
 20
0
 30
0
  0
LINE
  8
1
 62
2
 10
3341.941021988889
 20
721.6487016704446
 30
0
 11
3361.373584553661
 21
721.6487016704446
 31
0
  0
LINE
  8
1
 62
2
 10
3335.341021988889
 20
721.6487016704446
 30
0
 11
3341.941021988889
 21
721.6487016704446
 31
0
  0
LINE
  8
1
 62
2
 10
3328.941021988889
 20
721.6487016704446
 30
0
 11
3335.341021988889
 21
721.6487016704446
 31
0
  0
LINE
  8
1
 62
2
 10
3341.941021988889
 20
731.8450626522126
 30
0
 11
3341.941021988889
 21
720.1487016704446
 31
0
  0
LINE
  8
1
 62
2
 10
3335.341021988889
 20
731.8450626522126
 30
0
 11
3335.341021988889
 21
720.1487016704446
 31
0
  0
SOLID
  8
1
 62
2
 10
3335.341021988889
 20
721.6487016704446
 30
0
 11
3332.141021988889
 21
721.2327016704445
 31
0
 12
3332.141021988889
 22
722.0647016704446
 32
0
 13
3332.141021988889
 23
722.0647016704446
 33
0
  0
SOLID
  8
1
 62
2
 10
3341.941021988889
 20
721.6487016704446
 30
0
 11
3345.141021988889
 21
722.0647016704446
 31
0
 12
3345.141021988889
 22
721.2327016704445
 32
0
 13
3345.141021988889
 23
721.2327016704445
 33
0
  0
TEXT
  8
1
 62
2
 10
3348.477584553661
 20
723.6487016704446
 30
0
 40
3.2
  1
6.6
 41
0.9
  0
TEXT
  8
1
 62
2
 10
3356.077584553661
 20
724.2887016704445
 30
0
 40
1.92
  1
%%p0.5
 41
0.9
  0
ENDBLK
  8
0
  0
BLOCK
  8
1
  2
*D10
 70
1
 10
0
 20
0
 30
0
  0
LINE
  8
1
 62
2
 10
3275.941021988888
 20
722.2149914322013
 30
0
 11
3295.400827308987
 21
722.2149914322013
 31
0
  0
LINE
  8
1
 62
2
 10
3269.341021988888
 20
722.2149914322013
 30
0
 11
3275.941021988888
 21
722.2149914322013
 31
0
  0
LINE
  8
1
 62
2
 10
3262.941021988888
 20
722.2149914322013
 30
0
 11
3269.341021988888
 21
722.2149914322013
 31
0
  0
LINE
  8
1
 62
2
 10
3275.941021988888
 20
731.8450626522124
 30
0
 11
3275.941021988888
 21
720.7149914322013
 31
0
  0
LINE
  8
1
 62
2
 10
3269.341021988888
 20
731.8450626522124
 30
0
 11
3269.341021988888
 21
720.7149914322013
 31
0
  0
SOLID
  8
1
 62
2
 10
3269.341021988888
 20
722.2149914322013
 30
0
 11
3266.141021988888
 21
721.7989914322012
 31
0
 12
3266.141021988888
 22
722.6309914322013
 32
0
 13
3266.141021988888
 23
722.6309914322013
 33
0
  0
SOLID
  8
1
 62
2
 10
3275.941021988888
 20
722.2149914322013
 30
0
 11
3279.141021988888
 21
722.6309914322013
 31
0
 12
3279.141021988888
 22
721.7989914322012
 32
0
 13
3279.141021988888
 23
721.7989914322012
 33
0
  0
TEXT
  8
1
 62
2
 10
3282.504827308987
 20
724.2149914322013
 30
0
 40
3.2
  1
6.6
 41
0.9
  0
TEXT
  8
1
 62
2
 10
3290.104827308987
 20
724.8549914322013
 30
0
 40
1.92
  1
%%p0.5
 41
0.9
  0
ENDBLK
  8
0
  0
BLOCK
  8
1
  2
*D11
 70
1
 10
0
 20
0
 30
0
  0
LINE
  8
1
 62
2
 10
3269.141021988889
 20
905.9130314847749
 30
0
 11
3342.141021988889
 21
905.9130314847749
 31
0
  0
LINE
  8
1
 62
2
 10
3342.141021988889
 20
868.2581082538901
 30
0
 11
3342.141021988889
 21
907.4130314847749
 31
0
  0
LINE
  8
1
 62
2
 10
3269.141021988889
 20
868.2581082538901
 30
0
 11
3269.141021988889
 21
907.4130314847749
 31
0
  0
SOLID
  8
1
 62
2
 10
3342.141021988889
 20
905.9130314847749
 30
0
 11
3338.941021988889
 21
905.4970314847749
 31
0
 12
3338.941021988889
 22
906.329031484775
 32
0
 13
3338.941021988889
 23
906.329031484775
 33
0
  0
SOLID
  8
1
 62
2
 10
3269.141021988889
 20
905.9130314847749
 30
0
 11
3272.341021988889
 21
906.329031484775
 31
0
 12
3272.341021988889
 22
905.4970314847749
 32
0
 13
3272.341021988889
 23
905.4970314847749
 33
0
  0
TEXT
  8
1
 62
2
 10
3301.677796825559
 20
907.9130314847749
 30
0
 40
3.2
  1
73
 41
0.9
  0
TEXT
  8
1
 62
2
 10
3308.077796825559
 20
908.5530314847749
 30
0
 40
1.92
  1
%%p1
 41
0.9
  0
ENDBLK
  8
0
  0
BLOCK
  8
1
  2
*D12
 70
1
 10
0
 20
0
 30
0
  0
LINE
  8
1
 62
2
 10
3245.448804418909
 20
811.2581082538901
 30
0
 11
3245.448804418909
 21
868.2581082538901
 31
0
  0
LINE
  8
1
 62
2
 10
3269.141021988889
 20
868.2581082538901
 30
0
 11
3243.948804418909
 21
868.2581082538901
 31
0
  0
LINE
  8
1
 62
2
 10
3269.141021988889
 20
811.2581082538901
 30
0
 11
3243.948804418909
 21
811.2581082538901
 31
0
  0
SOLID
  8
1
 62
2
 10
3245.448804418909
 20
868.2581082538901
 30
0
 11
3245.864804418909
 21
865.0581082538901
 31
0
 12
3245.032804418909
 22
865.0581082538901
 32
0
 13
3245.032804418909
 23
865.0581082538901
 33
0
  0
SOLID
  8
1
 62
2
 10
3245.448804418909
 20
811.2581082538901
 30
0
 11
3245.032804418909
 21
814.4581082538902
 31
0
 12
3245.864804418909
 22
814.4581082538902
 32
0
 13
3245.864804418909
 23
814.4581082538902
 33
0
  0
TEXT
  8
1
 62
2
 10
3243.448804418909
 20
835.379196316008
 30
0
 40
3.2
  1
57
 50
90
 41
0.9
  0
TEXT
  8
1
 62
2
 10
3242.808804418909
 20
841.779196316008
 30
0
 40
1.92
  1
%%p1
 50
90
 41
0.9
  0
ENDBLK
  8
0
  0
BLOCK
  8
1
  2
*D13
 70
1
 10
0
 20
0
 30
0
  0
LINE
  8
1
 62
2
 10
3376.140582998809
 20
793.723179987695
 30
0
 11
3407.640582998809
 21
793.723179987695
 31
0
  0
LINE
  8
1
 62
2
 10
3407.640582998809
 20
820.5102583413559
 30
0
 11
3407.640582998809
 21
792.223179987695
 31
0
  0
LINE
  8
1
 62
2
 10
3376.140582998809
 20
822.3956082538899
 30
0
 11
3376.140582998809
 21
792.223179987695
 31
0
  0
SOLID
  8
1
 62
2
 10
3407.640582998809
 20
793.723179987695
 30
0
 11
3404.44058299881
 21
793.3071799876949
 31
0
 12
3404.44058299881
 22
794.139179987695
 32
0
 13
3404.44058299881
 23
794.139179987695
 33
0
  0
SOLID
  8
1
 62
2
 10
3376.140582998809
 20
793.723179987695
 30
0
 11
3379.340582998809
 21
794.139179987695
 31
0
 12
3379.340582998809
 22
793.3071799876949
 32
0
 13
3379.340582998809
 23
793.3071799876949
 33
0
  0
TEXT
  8
1
 62
2
 10
3388.437799133078
 20
795.723179987695
 30
0
 40
3.2
  1
(31)
 41
0.9
  0
ENDBLK
  8
0
  0
BLOCK
  8
1
  2
*D14
 70
1
 10
0
 20
0
 30
0
  0
LINE
  8
1
 62
2
 10
3407.640582998809
 20
793.6602333346491
 30
0
 11
3432.640582998809
 21
793.6602333346491
 31
0
  0
LINE
  8
1
 62
2
 10
3432.640582998809
 20
810.7581082538901
 30
0
 11
3432.640582998809
 21
792.1602333346491
 31
0
  0
LINE
  8
1
 62
2
 10
3407.640582998809
 20
820.5102583413561
 30
0
 11
3407.640582998809
 21
792.1602333346491
 31
0
  0
SOLID
  8
1
 62
2
 10
3432.640582998809
 20
793.6602333346491
 30
0
 11
3429.440582998809
 21
793.244233334649
 31
0
 12
3429.440582998809
 22
794.0762333346492
 32
0
 13
3429.440582998809
 23
794.0762333346492
 33
0
  0
SOLID
  8
1
 62
2
 10
3407.640582998809
 20
793.6602333346491
 30
0
 11
3410.840582998809
 21
794.0762333346492
 31
0
 12
3410.840582998809
 22
793.244233334649
 32
0
 13
3410.840582998809
 23
793.244233334649
 33
0
  0
TEXT
  8
1
 62
2
 10
3412.542627036557
 20
795.6602333346491
 30
0
 40
3.2
  1
25
 41
0.9
  0
TEXT
  8
1
 62
2
 10
3418.942627036557
 20
796.3002333346491
 30
0
 40
1.92
  1
%%p0.5
 41
0.9
  0
ENDBLK
  8
0
  0
BLOCK
  8
1
  2
*D15
 70
1
 10
0
 20
0
 30
0
  0
LINE
  8
1
 62
2
 10
3370.329092963461
 20
811.2581082538902
 30
0
 11
3370.329092963461
 21
798.2512902363981
 31
0
  0
LINE
  8
1
 62
2
 10
3370.329092963461
 20
811.2581082538902
 30
0
 11
3370.329092963461
 21
824.75810825389
 31
0
  0
LINE
  8
1
 62
2
 10
3403.73036616351
 20
824.75810825389
 30
0
 11
3368.829092963461
 21
824.75810825389
 31
0
  0
LINE
  8
1
 62
2
 10
3393.640582998808
 20
811.2581082538902
 30
0
 11
3368.829092963461
 21
811.2581082538902
 31
0
  0
SOLID
  8
1
 62
2
 10
3370.329092963461
 20
824.75810825389
 30
0
 11
3370.745092963461
 21
821.5581082538899
 31
0
 12
3369.913092963461
 22
821.5581082538899
 32
0
 13
3369.913092963461
 23
821.5581082538899
 33
0
  0
SOLID
  8
1
 62
2
 10
3370.329092963461
 20
811.2581082538902
 30
0
 11
3369.913092963461
 21
814.4581082538903
 31
0
 12
3370.745092963461
 22
814.4581082538903
 32
0
 13
3370.745092963461
 23
814.4581082538903
 33
0
  0
TEXT
  8
1
 62
2
 10
3368.329092963461
 20
798.1712902363981
 30
0
 40
3.2
  1
(13.5)
 50
90
 41
0.9
  0
ENDBLK
  8
0
  0
BLOCK
  8
1
  2
*D16
 70
1
 10
0
 20
0
 30
0
  0
LINE
  8
1
 62
2
 10
3370.32032389829
 20
824.75810825389
 30
0
 11
3370.32032389829
 21
854.75810825389
 31
0
  0
LINE
  8
1
 62
2
 10
3403.730366163509
 20
854.75810825389
 30
0
 11
3368.82032389829
 21
854.75810825389
 31
0
  0
LINE
  8
1
 62
2
 10
3403.730366163509
 20
824.75810825389
 30
0
 11
3368.82032389829
 21
824.75810825389
 31
0
  0
SOLID
  8
1
 62
2
 10
3370.32032389829
 20
854.75810825389
 30
0
 11
3370.73632389829
 21
851.5581082538899
 31
0
 12
3369.90432389829
 22
851.5581082538899
 32
0
 13
3369.90432389829
 23
851.5581082538899
 33
0
  0
SOLID
  8
1
 62
2
 10
3370.32032389829
 20
824.75810825389
 30
0
 11
3369.90432389829
 21
827.95810825389
 31
0
 12
3370.73632389829
 22
827.95810825389
 32
0
 13
3370.73632389829
 23
827.95810825389
 33
0
  0
TEXT
  8
1
 62
2
 10
3368.32032389829
 20
834.2932576029551
 30
0
 40
3.2
  1
30
 50
90
 41
0.9
  0
TEXT
  8
1
 62
2
 10
3367.68032389829
 20
840.6932576029551
 30
0
 40
1.92
  1
%%p0.5
 50
90
 41
0.9
  0
ENDBLK
  8
0
  0
BLOCK
  8
1
  2
*D17
 70
1
 10
0
 20
0
 30
0
  0
LINE
  8
1
 62
2
 10
3370.308335282025
 20
868.2581082538902
 30
0
 11
3370.308335282025
 21
884.6537621375251
 31
0
  0
LINE
  8
1
 62
2
 10
3370.308335282025
 20
854.7581082538901
 30
0
 11
3370.308335282025
 21
868.2581082538902
 31
0
  0
LINE
  8
1
 62
2
 10
3393.640582998809
 20
868.2581082538902
 30
0
 11
3368.808335282025
 21
868.2581082538902
 31
0
  0
LINE
  8
1
 62
2
 10
3403.73036616351
 20
854.7581082538901
 30
0
 11
3368.808335282025
 21
854.7581082538901
 31
0
  0
SOLID
  8
1
 62
2
 10
3370.308335282025
 20
868.2581082538902
 30
0
 11
3370.724335282025
 21
865.0581082538902
 31
0
 12
3369.892335282025
 22
865.0581082538902
 32
0
 13
3369.892335282025
 23
865.0581082538902
 33
0
  0
SOLID
  8
1
 62
2
 10
3370.308335282025
 20
854.7581082538901
 30
0
 11
3369.892335282025
 21
857.9581082538902
 31
0
 12
3370.724335282025
 22
857.9581082538902
 32
0
 13
3370.724335282025
 23
857.9581082538902
 33
0
  0
TEXT
  8
1
 62
2
 10
3368.308335282025
 20
869.8377621375252
 30
0
 40
3.2
  1
13.5
 50
90
 41
0.9
  0
TEXT
  8
1
 62
2
 10
3367.668335282025
 20
879.3577621375251
 30
0
 40
1.92
  1
%%p0.5
 50
90
 41
0.9
  0
ENDBLK
  8
0
  0
BLOCK
  8
1
  2
*D18
 70
1
 10
0
 20
0
 30
0
  0
LINE
  8
1
 62
2
 10
3285.641021988889
 20
884.521305174501
 30
0
 11
3325.641021988889
 21
884.521305174501
 31
0
  0
LINE
  8
1
 62
2
 10
3325.641021988889
 20
856.7581082538903
 30
0
 11
3325.641021988889
 21
886.021305174501
 31
0
  0
LINE
  8
1
 62
2
 10
3285.641021988889
 20
856.7581082538903
 30
0
 11
3285.641021988889
 21
886.021305174501
 31
0
  0
SOLID
  8
1
 62
2
 10
3285.641021988889
 20
884.521305174501
 30
0
 11
3288.841021988889
 21
884.937305174501
 31
0
 12
3288.841021988889
 22
884.1053051745009
 32
0
 13
3288.841021988889
 23
884.1053051745009
 33
0
  0
SOLID
  8
1
 62
2
 10
3325.641021988889
 20
884.521305174501
 30
0
 11
3322.441021988889
 21
884.1053051745009
 31
0
 12
3322.441021988889
 22
884.937305174501
 32
0
 13
3322.441021988889
 23
884.937305174501
 33
0
  0
TEXT
  8
1
 62
2
 10
3301.833084043469
 20
887.3213051745009
 30
0
 40
3.2
  1
40
 41
0.9
  0
TEXT
  8
1
 62
2
 10
3308.233084043469
 20
889.401305174501
 30
0
 40
1.92
  1
+1
 41
0.9
  0
TEXT
  8
1
 62
2
 10
3308.233084043469
 20
886.521305174501
 30
0
 40
1.92
  1
 0
 41
0.9
  0
ENDBLK
  8
0
  0
BLOCK
  8
1
  2
*D19
 70
1
 10
0
 20
0
 30
0
  0
LINE
  8
1
 62
2
 10
3354.542812804309
 20
824.3581082538901
 30
0
 11
3354.542812804309
 21
814.7581082538901
 31
0
  0
LINE
  8
1
 62
2
 10
3354.542812804309
 20
811.2581082538901
 30
0
 11
3354.542812804309
 21
814.7581082538901
 31
0
  0
LINE
  8
1
 62
2
 10
3354.542812804309
 20
811.2581082538901
 30
0
 11
3354.542812804309
 21
790.3867939340139
 31
0
  0
LINE
  8
1
 62
2
 10
3342.141021988889
 20
811.2581082538901
 30
0
 11
3356.042812804309
 21
811.2581082538901
 31
0
  0
LINE
  8
1
 62
2
 10
3341.391021988889
 20
814.7581082538901
 30
0
 11
3356.042812804309
 21
814.7581082538901
 31
0
  0
SOLID
  8
1
 62
2
 10
3354.542812804309
 20
811.2581082538901
 30
0
 11
3355.166812804309
 21
806.4581082538902
 31
0
 12
3353.918812804309
 22
806.4581082538902
 32
0
 13
3353.918812804309
 23
806.4581082538902
 33
0
  0
SOLID
  8
1
 62
2
 10
3354.542812804309
 20
814.7581082538901
 30
0
 11
3353.918812804309
 21
819.5581082538901
 31
0
 12
3355.166812804309
 22
819.5581082538901
 32
0
 13
3355.166812804309
 23
819.5581082538901
 33
0
  0
TEXT
  8
1
 62
2
 10
3352.542812804309
 20
790.3867939340139
 30
0
 40
3.2
  1
3.5
 50
90
 41
0.9
  0
TEXT
  8
1
 62
2
 10
3351.902812804309
 20
797.9867939340139
 30
0
 40
1.92
  1
%%p0.5
 50
90
 41
0.9
  0
ENDBLK
  8
0
  0
BLOCK
  8
1
  2
*D20
 70
1
 10
0
 20
0
 30
0
  0
LINE
  8
1
 62
2
 10
3337.989153484557
 20
813.134049310052
 30
0
 11
3332.262158203384
 21
798.8658681570979
 31
0
  0
LINE
  8
1
 62
2
 10
3332.262158203384
 20
798.8658681570979
 30
0
 11
3317.015099379854
 21
798.8658681570979
 31
0
  0
SOLID
  8
1
 62
2
 10
3337.989153484557
 20
813.134049310052
 30
0
 11
3337.183227374143
 21
810.0093830711469
 31
0
 12
3336.411103350559
 22
810.3192999829206
 32
0
 13
3336.411103350559
 23
810.3192999829206
 33
0
  0
TEXT
  8
1
 62
2
 10
3321.062158203384
 20
801.7192014904313
 30
0
 40
3.2
  1
3.2
 41
0.9
  0
TEXT
  8
1
 62
2
 10
3317.015099379854
 20
801.7192014904313
 30
0
 40
3.2
  1
âË
 41
0.9
  0
ENDBLK
  8
0
  0
BLOCK
  8
1
  2
*D21
 70
1
 10
0
 20
0
 30
0
  0
LINE
  8
1
 62
2
 10
3265.549628582303
 20
871.5790717780112
 30
0
 11
3250.865184137859
 21
871.5790717780112
 31
0
  0
LINE
  8
1
 62
2
 10
3271.379769944834
 20
865.971262523293
 30
0
 11
3265.549628582303
 21
871.5790717780112
 31
0
  0
SOLID
  8
1
 62
2
 10
3271.379769944834
 20
865.971262523293
 30
0
 11
3268.785096392238
 21
867.8897841300146
 31
0
 12
3269.361864593463
 22
868.4894193875305
 32
0
 13
3269.361864593463
 23
868.4894193875305
 33
0
  0
TEXT
  8
1
 62
2
 10
3254.509628582303
 20
873.5790717780112
 30
0
 40
3.2
  1
3.2
 41
0.9
  0
TEXT
  8
1
 62
2
 10
3250.865184137859
 20
873.5790717780112
 30
0
 40
3.2
  1
âË
 41
0.9
  0
ENDBLK
  8
0
  0
ENDSEC
  0
SECTION
  2
ENTITIES
  0
INSERT
  8
1
  2
*X0
 10
0
 20
0
 30
0
  0
SOLID
  8
1
 62
2
 10
3304.642054700248
 20
816.3915069048868
 30
0
 11
3304.642054700248
 21
815.4915069048869
 31
0
 12
3303.742054700248
 22
816.3915069048868
 32
0
 13
3303.742054700248
 23
815.4915069048869
 33
0
  0
SOLID
  8
1
 62
2
 10
3305.785054700249
 20
816.3915069048868
 30
0
 11
3305.785054700249
 21
815.4915069048869
 31
0
 12
3304.885054700248
 22
816.3915069048868
 32
0
 13
3304.885054700248
 23
815.4915069048869
 33
0
  0
SOLID
  8
1
 62
2
 10
3306.928054700249
 20
816.3915069048868
 30
0
 11
3306.928054700249
 21
815.4915069048869
 31
0
 12
3306.028054700248
 22
816.3915069048868
 32
0
 13
3306.028054700248
 23
815.4915069048869
 33
0
  0
SOLID
  8
1
 62
2
 10
3308.071054700249
 20
816.3915069048868
 30
0
 11
3308.071054700249
 21
815.4915069048869
 31
0
 12
3307.171054700248
 22
816.3915069048868
 32
0
 13
3307.171054700248
 23
815.4915069048869
 33
0
  0
LINE
  8
1
 62
3
 10
3191.900962457423
 20
673.5393022157941
 30
0
 11
3191.900962457423
 21
663.5393022157941
 31
0
  0
LINE
  8
1
 62
3
 10
3170.02003124372
 20
673.5393022157941
 30
0
 11
3191.900962457423
 21
673.5393022157941
 31
0
  0
LINE
  8
1
 62
3
 10
3065.02003124372
 20
673.5393022157941
 30
0
 11
3170.02003124372
 21
673.5393022157941
 31
0
  0
LINE
  8
1
 62
3
 10
3065.02003124372
 20
663.5393022157941
 30
0
 11
3191.900962457423
 21
663.5393022157941
 31
0
  0
LINE
  8
1
 62
2
 10
3065.02003124372
 20
668.5393022157941
 30
0
 11
3191.900962457423
 21
668.5393022157941
 31
0
  0
LINE
  8
1
 62
3
 10
3065.02003124372
 20
673.5393022157941
 30
0
 11
3065.02003124372
 21
663.5393022157941
 31
0
  0
LINE
  8
1
 62
2
 10
3170.02003124372
 20
673.5393022157941
 30
0
 11
3170.02003124372
 21
663.5393022157941
 31
0
  0
LINE
  8
1
 62
2
 10
3135.02003124372
 20
673.5393022157941
 30
0
 11
3135.02003124372
 21
663.5393022157941
 31
0
  0
LINE
  8
1
 62
3
 10
3100.02003124372
 20
673.5393022157941
 30
0
 11
3100.02003124372
 21
663.5393022157941
 31
0
  0
LINE
  8
1
 62
2
 10
3072.510702241887
 20
687.722521260742
 30
0
 11
3072.510702241887
 21
686.3225212607422
 31
0
  0
LINE
  8
1
 62
2
 10
3072.510702241887
 20
687.3725212607421
 30
0
 11
3062.510702241887
 21
687.3725212607421
 31
0
  0
LINE
  8
1
 62
2
 10
3062.510702241887
 20
687.3725212607421
 30
0
 11
3062.510702241887
 21
686.6725212607421
 31
0
  0
LINE
  8
1
 62
2
 10
3062.510702241887
 20
686.6725212607421
 30
0
 11
3072.510702241887
 21
686.6725212607421
 31
0
  0
LINE
  8
1
 62
2
 10
3072.510702241887
 20
690.222521260742
 30
0
 11
3072.510702241887
 21
688.8225212607422
 31
0
  0
LINE
  8
1
 62
2
 10
3072.510702241887
 20
689.8725212607421
 30
0
 11
3062.510702241887
 21
689.8725212607421
 31
0
  0
LINE
  8
1
 62
2
 10
3062.510702241887
 20
689.8725212607421
 30
0
 11
3062.510702241887
 21
689.1725212607421
 31
0
  0
LINE
  8
1
 62
2
 10
3062.510702241887
 20
689.1725212607421
 30
0
 11
3072.510702241887
 21
689.1725212607421
 31
0
  0
LINE
  8
1
 62
2
 10
3111.108758088803
 20
686.3225212607422
 30
0
 11
3072.510702241887
 21
686.3225212607422
 31
0
  0
LINE
  8
1
 62
2
 10
3111.544180303839
 20
687.722521260742
 30
0
 11
3072.510702241887
 21
687.722521260742
 31
0
  0
LINE
  8
1
 62
2
 10
3111.874017665459
 20
688.8225212607422
 30
0
 11
3072.510702241887
 21
688.8225212607422
 31
0
  0
LINE
  8
1
 62
2
 10
3112.278115108933
 20
690.222521260742
 30
0
 11
3072.510702241887
 21
690.222521260742
 31
0
  0
LINE
  8
1
 62
2
 10
3139.918280885589
 20
686.3225212607422
 30
0
 11
3113.088831473131
 21
686.3225212607422
 31
0
  0
LINE
  8
1
 62
2
 10
3139.918280885589
 20
687.722521260742
 30
0
 11
3113.512644119297
 21
687.722521260742
 31
0
  0
LINE
  8
1
 62
2
 10
3139.918280885589
 20
688.8225212607422
 30
0
 11
3113.842913125199
 21
688.8225212607422
 31
0
  0
LINE
  8
1
 62
2
 10
3139.918280885589
 20
690.222521260742
 30
0
 11
3114.259248253979
 21
690.222521260742
 31
0
  0
LINE
  8
1
 62
3
 10
3143.07361621455
 20
691.022521260742
 30
0
 11
3147.818280885589
 21
691.022521260742
 31
0
  0
LINE
  8
1
 62
2
 10
3161.513804613232
 20
689.022521260742
 30
0
 11
3161.513804613232
 21
690.022521260742
 31
0
  0
LINE
  8
1
 62
2
 10
3161.513804613232
 20
690.022521260742
 30
0
 11
3162.513804613232
 21
690.022521260742
 31
0
  0
LINE
  8
1
 62
2
 10
3162.513804613232
 20
690.022521260742
 30
0
 11
3162.513804613232
 21
689.022521260742
 31
0
  0
LINE
  8
1
 62
2
 10
3162.513804613232
 20
689.022521260742
 30
0
 11
3161.513804613232
 21
689.022521260742
 31
0
  0
LINE
  8
1
 62
2
 10
3163.013804613232
 20
690.522521260742
 30
0
 11
3163.013804613232
 21
688.522521260742
 31
0
  0
LINE
  8
1
 62
2
 10
3163.013804613232
 20
688.522521260742
 30
0
 11
3161.013804613232
 21
688.522521260742
 31
0
  0
LINE
  8
1
 62
2
 10
3161.013804613232
 20
688.522521260742
 30
0
 11
3161.013804613232
 21
690.522521260742
 31
0
  0
LINE
  8
1
 62
2
 10
3161.013804613232
 20
690.522521260742
 30
0
 11
3163.013804613232
 21
690.522521260742
 31
0
  0
LINE
  8
1
 62
2
 10
3163.013804613232
 20
690.522521260742
 30
0
 11
3162.513804613232
 21
690.022521260742
 31
0
  0
LINE
  8
1
 62
2
 10
3162.513804613232
 20
689.022521260742
 30
0
 11
3163.013804613232
 21
688.522521260742
 31
0
  0
LINE
  8
1
 62
2
 10
3161.513804613232
 20
689.022521260742
 30
0
 11
3161.013804613232
 21
688.522521260742
 31
0
  0
LINE
  8
1
 62
2
 10
3161.513804613232
 20
690.022521260742
 30
0
 11
3161.013804613232
 21
690.522521260742
 31
0
  0
LINE
  8
1
 62
2
 10
3161.513804613232
 20
691.522521260742
 30
0
 11
3161.513804613232
 21
692.522521260742
 31
0
  0
LINE
  8
1
 62
2
 10
3161.513804613232
 20
692.522521260742
 30
0
 11
3162.513804613232
 21
692.522521260742
 31
0
  0
LINE
  8
1
 62
2
 10
3162.513804613232
 20
692.522521260742
 30
0
 11
3162.513804613232
 21
691.522521260742
 31
0
  0
LINE
  8
1
 62
2
 10
3162.513804613232
 20
691.522521260742
 30
0
 11
3161.513804613232
 21
691.522521260742
 31
0
  0
LINE
  8
1
 62
2
 10
3163.013804613232
 20
693.022521260742
 30
0
 11
3163.013804613232
 21
691.022521260742
 31
0
  0
LINE
  8
1
 62
2
 10
3163.013804613232
 20
691.022521260742
 30
0
 11
3161.013804613232
 21
691.022521260742
 31
0
  0
LINE
  8
1
 62
2
 10
3161.013804613232
 20
691.022521260742
 30
0
 11
3161.013804613232
 21
693.022521260742
 31
0
  0
LINE
  8
1
 62
2
 10
3161.013804613232
 20
693.022521260742
 30
0
 11
3163.013804613232
 21
693.022521260742
 31
0
  0
LINE
  8
1
 62
2
 10
3163.013804613232
 20
693.022521260742
 30
0
 11
3162.513804613232
 21
692.522521260742
 31
0
  0
LINE
  8
1
 62
2
 10
3162.513804613232
 20
691.522521260742
 30
0
 11
3163.013804613232
 21
691.022521260742
 31
0
  0
LINE
  8
1
 62
2
 10
3161.513804613232
 20
691.522521260742
 30
0
 11
3161.013804613232
 21
691.022521260742
 31
0
  0
LINE
  8
1
 62
2
 10
3161.513804613232
 20
692.522521260742
 30
0
 11
3161.013804613232
 21
693.022521260742
 31
0
  0
LINE
  8
1
 62
2
 10
3159.252909485836
 20
688.522521260742
 30
0
 11
3160.052909485838
 21
688.522521260742
 31
0
  0
LINE
  8
1
 62
2
 10
3159.252909485836
 20
685.522521260742
 30
0
 11
3159.252909485836
 21
688.522521260742
 31
0
  0
LINE
  8
1
 62
2
 10
3178.178806836033
 20
696.064851636201
 30
0
 11
3207.918269791326
 21
696.064851636201
 31
0
  0
LINE
  8
1
 62
2
 10
3178.178806836033
 20
691.064851636201
 30
0
 11
3207.918269791326
 21
691.064851636201
 31
0
  0
LINE
  8
1
 62
2
 10
3159.252909485836
 20
701.022521260742
 30
0
 11
3159.252909485836
 21
698.022521260742
 31
0
  0
LINE
  8
1
 62
2
 10
3160.052909485838
 20
685.522521260742
 30
0
 11
3159.252909485836
 21
685.522521260742
 31
0
  0
LINE
  8
1
 62
2
 10
3160.052909485838
 20
691.022521260742
 30
0
 11
3159.252909485836
 21
691.022521260742
 31
0
  0
LINE
  8
1
 62
2
 10
3160.052909485838
 20
698.022521260742
 30
0
 11
3159.252909485836
 21
698.022521260742
 31
0
  0
LINE
  8
1
 62
2
 10
3160.052909485838
 20
701.022521260742
 30
0
 11
3159.252909485836
 21
701.022521260742
 31
0
  0
LINE
  8
1
 62
3
 10
3139.918280885589
 20
691.4348651574771
 30
0
 11
3139.918280885589
 21
692.5499947350588
 31
0
  0
LINE
  8
1
 62
3
 10
3139.918280885589
 20
691.4348651574771
 30
0
 11
3139.918280885589
 21
692.5499947350588
 31
0
  0
LINE
  8
1
 62
3
 10
3139.918280885589
 20
693.9348651574771
 30
0
 11
3139.918280885589
 21
695.0499947350588
 31
0
  0
LINE
  8
1
 62
3
 10
3139.918280885589
 20
693.9348651574771
 30
0
 11
3139.918280885589
 21
695.0499947350588
 31
0
  0
LINE
  8
1
 62
3
 10
3158.602909485837
 20
691.022521260742
 30
0
 11
3158.602909485837
 21
695.522521260742
 31
0
  0
LINE
  8
1
 62
3
 10
3160.052909485838
 20
691.022521260742
 30
0
 11
3158.602909485837
 21
691.022521260742
 31
0
  0
LINE
  8
1
 62
3
 10
3160.052909485838
 20
695.522521260742
 30
0
 11
3158.602909485837
 21
695.522521260742
 31
0
  0
LINE
  8
1
 62
3
 10
3160.552909485838
 20
685.522521260742
 30
0
 11
3160.552909485838
 21
701.022521260742
 31
0
  0
LINE
  8
1
 62
3
 10
3160.552909485838
 20
701.022521260742
 30
0
 11
3165.052909485838
 21
701.022521260742
 31
0
  0
LINE
  8
1
 62
3
 10
3165.052909485838
 20
701.022521260742
 30
0
 11
3165.052909485838
 21
685.522521260742
 31
0
  0
LINE
  8
1
 62
3
 10
3165.052909485838
 20
685.522521260742
 30
0
 11
3160.552909485838
 21
685.522521260742
 31
0
  0
LINE
  8
1
 62
3
 10
3160.552909485838
 20
685.522521260742
 30
0
 11
3160.052909485838
 21
685.522521260742
 31
0
  0
LINE
  8
1
 62
3
 10
3160.052909485838
 20
685.522521260742
 30
0
 11
3160.052909485838
 21
701.022521260742
 31
0
  0
LINE
  8
1
 62
2
 10
3161.513804613232
 20
686.522521260742
 30
0
 11
3161.513804613232
 21
687.522521260742
 31
0
  0
LINE
  8
1
 62
2
 10
3161.513804613232
 20
687.522521260742
 30
0
 11
3162.513804613232
 21
687.522521260742
 31
0
  0
LINE
  8
1
 62
2
 10
3162.513804613232
 20
687.522521260742
 30
0
 11
3162.513804613232
 21
686.522521260742
 31
0
  0
LINE
  8
1
 62
2
 10
3162.513804613232
 20
686.522521260742
 30
0
 11
3161.513804613232
 21
686.522521260742
 31
0
  0
LINE
  8
1
 62
2
 10
3163.013804613232
 20
688.022521260742
 30
0
 11
3163.013804613232
 21
686.022521260742
 31
0
  0
LINE
  8
1
 62
2
 10
3163.013804613232
 20
686.022521260742
 30
0
 11
3161.013804613232
 21
686.022521260742
 31
0
  0
LINE
  8
1
 62
2
 10
3161.013804613232
 20
686.022521260742
 30
0
 11
3161.013804613232
 21
688.022521260742
 31
0
  0
LINE
  8
1
 62
2
 10
3161.013804613232
 20
688.022521260742
 30
0
 11
3163.013804613232
 21
688.022521260742
 31
0
  0
LINE
  8
1
 62
2
 10
3163.013804613232
 20
688.022521260742
 30
0
 11
3162.513804613232
 21
687.522521260742
 31
0
  0
LINE
  8
1
 62
2
 10
3162.513804613232
 20
686.522521260742
 30
0
 11
3163.013804613232
 21
686.022521260742
 31
0
  0
LINE
  8
1
 62
2
 10
3161.513804613232
 20
686.522521260742
 30
0
 11
3161.013804613232
 21
686.022521260742
 31
0
  0
LINE
  8
1
 62
2
 10
3161.513804613232
 20
687.522521260742
 30
0
 11
3161.013804613232
 21
688.022521260742
 31
0
  0
LINE
  8
1
 62
2
 10
3161.513804613232
 20
694.022521260742
 30
0
 11
3161.513804613232
 21
695.022521260742
 31
0
  0
LINE
  8
1
 62
2
 10
3161.513804613232
 20
695.022521260742
 30
0
 11
3162.513804613232
 21
695.022521260742
 31
0
  0
LINE
  8
1
 62
2
 10
3162.513804613232
 20
695.022521260742
 30
0
 11
3162.513804613232
 21
694.022521260742
 31
0
  0
LINE
  8
1
 62
2
 10
3162.513804613232
 20
694.022521260742
 30
0
 11
3161.513804613232
 21
694.022521260742
 31
0
  0
LINE
  8
1
 62
2
 10
3163.013804613232
 20
695.522521260742
 30
0
 11
3163.013804613232
 21
693.522521260742
 31
0
  0
LINE
  8
1
 62
2
 10
3163.013804613232
 20
693.522521260742
 30
0
 11
3161.013804613232
 21
693.522521260742
 31
0
  0
LINE
  8
1
 62
2
 10
3161.013804613232
 20
693.522521260742
 30
0
 11
3161.013804613232
 21
695.522521260742
 31
0
  0
LINE
  8
1
 62
2
 10
3161.013804613232
 20
695.522521260742
 30
0
 11
3163.013804613232
 21
695.522521260742
 31
0
  0
LINE
  8
1
 62
2
 10
3163.013804613232
 20
695.522521260742
 30
0
 11
3162.513804613232
 21
695.022521260742
 31
0
  0
LINE
  8
1
 62
2
 10
3162.513804613232
 20
694.022521260742
 30
0
 11
3163.013804613232
 21
693.522521260742
 31
0
  0
LINE
  8
1
 62
2
 10
3161.513804613232
 20
694.022521260742
 30
0
 11
3161.013804613232
 21
693.522521260742
 31
0
  0
LINE
  8
1
 62
2
 10
3161.513804613232
 20
695.022521260742
 30
0
 11
3161.013804613232
 21
695.522521260742
 31
0
  0
LINE
  8
1
 62
2
 10
3161.513804613232
 20
696.522521260742
 30
0
 11
3161.513804613232
 21
697.5225212607422
 31
0
  0
LINE
  8
1
 62
2
 10
3161.513804613232
 20
697.5225212607422
 30
0
 11
3162.513804613232
 21
697.5225212607422
 31
0
  0
LINE
  8
1
 62
2
 10
3162.513804613232
 20
697.5225212607422
 30
0
 11
3162.513804613232
 21
696.522521260742
 31
0
  0
LINE
  8
1
 62
2
 10
3162.513804613232
 20
696.522521260742
 30
0
 11
3161.513804613232
 21
696.522521260742
 31
0
  0
LINE
  8
1
 62
2
 10
3163.013804613232
 20
698.0225212607422
 30
0
 11
3163.013804613232
 21
696.022521260742
 31
0
  0
LINE
  8
1
 62
2
 10
3163.013804613232
 20
696.022521260742
 30
0
 11
3161.013804613232
 21
696.022521260742
 31
0
  0
LINE
  8
1
 62
2
 10
3161.013804613232
 20
696.022521260742
 30
0
 11
3161.013804613232
 21
698.0225212607422
 31
0
  0
LINE
  8
1
 62
2
 10
3161.013804613232
 20
698.0225212607422
 30
0
 11
3163.013804613232
 21
698.0225212607422
 31
0
  0
LINE
  8
1
 62
2
 10
3163.013804613232
 20
698.0225212607422
 30
0
 11
3162.513804613232
 21
697.5225212607422
 31
0
  0
LINE
  8
1
 62
2
 10
3162.513804613232
 20
696.522521260742
 30
0
 11
3163.013804613232
 21
696.022521260742
 31
0
  0
LINE
  8
1
 62
2
 10
3161.513804613232
 20
696.522521260742
 30
0
 11
3161.013804613232
 21
696.022521260742
 31
0
  0
LINE
  8
1
 62
2
 10
3161.513804613232
 20
697.5225212607422
 30
0
 11
3161.013804613232
 21
698.0225212607422
 31
0
  0
LINE
  8
1
 62
2
 10
3161.513804613232
 20
699.0225212607422
 30
0
 11
3161.513804613232
 21
700.0225212607422
 31
0
  0
LINE
  8
1
 62
2
 10
3161.513804613232
 20
700.0225212607422
 30
0
 11
3162.513804613232
 21
700.0225212607422
 31
0
  0
LINE
  8
1
 62
2
 10
3162.513804613232
 20
700.0225212607422
 30
0
 11
3162.513804613232
 21
699.0225212607422
 31
0
  0
LINE
  8
1
 62
2
 10
3162.513804613232
 20
699.0225212607422
 30
0
 11
3161.513804613232
 21
699.0225212607422
 31
0
  0
LINE
  8
1
 62
2
 10
3163.013804613232
 20
700.5225212607422
 30
0
 11
3163.013804613232
 21
698.5225212607422
 31
0
  0
LINE
  8
1
 62
2
 10
3163.013804613232
 20
698.5225212607422
 30
0
 11
3161.013804613232
 21
698.5225212607422
 31
0
  0
LINE
  8
1
 62
2
 10
3161.013804613232
 20
698.5225212607422
 30
0
 11
3161.013804613232
 21
700.5225212607422
 31
0
  0
LINE
  8
1
 62
2
 10
3161.013804613232
 20
700.5225212607422
 30
0
 11
3163.013804613232
 21
700.5225212607422
 31
0
  0
LINE
  8
1
 62
2
 10
3163.013804613232
 20
700.5225212607422
 30
0
 11
3162.513804613232
 21
700.0225212607422
 31
0
  0
LINE
  8
1
 62
2
 10
3162.513804613232
 20
699.0225212607422
 30
0
 11
3163.013804613232
 21
698.5225212607422
 31
0
  0
LINE
  8
1
 62
2
 10
3161.513804613232
 20
699.0225212607422
 30
0
 11
3161.013804613232
 21
698.5225212607422
 31
0
  0
LINE
  8
1
 62
2
 10
3161.513804613232
 20
700.0225212607422
 30
0
 11
3161.013804613232
 21
700.5225212607422
 31
0
  0
LINE
  8
1
 62
2
 10
3139.918280885589
 20
698.822521260742
 30
0
 11
3114.231350272707
 21
698.822521260742
 31
0
  0
LINE
  8
1
 62
2
 10
3139.918280885589
 20
700.222521260742
 30
0
 11
3113.750126117755
 21
700.222521260742
 31
0
  0
LINE
  8
1
 62
2
 10
3072.510702241887
 20
700.222521260742
 30
0
 11
3072.510702241887
 21
698.822521260742
 31
0
  0
LINE
  8
1
 62
2
 10
3072.510702241887
 20
699.8725212607421
 30
0
 11
3062.510702241887
 21
699.8725212607421
 31
0
  0
LINE
  8
1
 62
2
 10
3062.510702241887
 20
699.8725212607421
 30
0
 11
3062.510702241887
 21
699.1725212607421
 31
0
  0
LINE
  8
1
 62
2
 10
3062.510702241887
 20
699.1725212607421
 30
0
 11
3072.510702241887
 21
699.1725212607421
 31
0
  0
LINE
  8
1
 62
2
 10
3072.510702241887
 20
697.722521260742
 30
0
 11
3072.510702241887
 21
696.3225212607422
 31
0
  0
LINE
  8
1
 62
2
 10
3072.510702241887
 20
697.3725212607421
 30
0
 11
3062.510702241887
 21
697.3725212607421
 31
0
  0
LINE
  8
1
 62
2
 10
3062.510702241887
 20
697.3725212607421
 30
0
 11
3062.510702241887
 21
696.6725212607421
 31
0
  0
LINE
  8
1
 62
2
 10
3062.510702241887
 20
696.6725212607421
 30
0
 11
3072.510702241887
 21
696.6725212607421
 31
0
  0
LINE
  8
1
 62
2
 10
3072.510702241887
 20
695.222521260742
 30
0
 11
3072.510702241887
 21
693.8225212607422
 31
0
  0
LINE
  8
1
 62
2
 10
3072.510702241887
 20
694.8725212607421
 30
0
 11
3062.510702241887
 21
694.8725212607421
 31
0
  0
LINE
  8
1
 62
2
 10
3062.510702241887
 20
694.8725212607421
 30
0
 11
3062.510702241887
 21
694.1725212607421
 31
0
  0
LINE
  8
1
 62
2
 10
3062.510702241887
 20
694.1725212607421
 30
0
 11
3072.510702241887
 21
694.1725212607421
 31
0
  0
LINE
  8
1
 62
2
 10
3072.510702241887
 20
692.722521260742
 30
0
 11
3072.510702241887
 21
691.3225212607422
 31
0
  0
LINE
  8
1
 62
2
 10
3072.510702241887
 20
692.3725212607421
 30
0
 11
3062.510702241887
 21
692.3725212607421
 31
0
  0
LINE
  8
1
 62
2
 10
3062.510702241887
 20
692.3725212607421
 30
0
 11
3062.510702241887
 21
691.6725212607421
 31
0
  0
LINE
  8
1
 62
2
 10
3062.510702241887
 20
691.6725212607421
 30
0
 11
3072.510702241887
 21
691.6725212607421
 31
0
  0
LINE
  8
1
 62
2
 10
3139.918280885589
 20
697.722521260742
 30
0
 11
3114.552036755665
 21
697.722521260742
 31
0
  0
LINE
  8
1
 62
2
 10
3139.918280885589
 20
695.222521260742
 30
0
 11
3115.003979021836
 21
695.222521260742
 31
0
  0
LINE
  8
1
 62
2
 10
3139.918280885589
 20
692.722521260742
 30
0
 11
3114.920030483896
 21
692.722521260742
 31
0
  0
LINE
  8
1
 62
2
 10
3139.918280885589
 20
696.3225212607422
 30
0
 11
3114.860128567152
 21
696.3225212607422
 31
0
  0
LINE
  8
1
 62
2
 10
3139.918280885589
 20
693.8225212607422
 30
0
 11
3115.034944661677
 21
693.8225212607422
 31
0
  0
LINE
  8
1
 62
2
 10
3139.918280885589
 20
691.3225212607422
 30
0
 11
3114.57839784329
 21
691.3225212607422
 31
0
  0
LINE
  8
1
 62
2
 10
3207.918269791326
 20
716.064851636201
 30
0
 11
3207.918269791326
 21
681.064851636201
 31
0
  0
LINE
  8
1
 62
2
 10
3194.192757183057
 20
716.064851636201
 30
0
 11
3194.192757183057
 21
681.064851636201
 31
0
  0
LINE
  8
1
 62
2
 10
3178.178806836033
 20
716.064851636201
 30
0
 11
3191.806491241325
 21
716.064851636201
 31
0
  0
LINE
  8
1
 62
2
 10
3178.178806836033
 20
711.064851636201
 30
0
 11
3207.918269791326
 21
711.064851636201
 31
0
  0
LINE
  8
1
 62
2
 10
3178.178806836033
 20
706.064851636201
 30
0
 11
3207.918269791326
 21
706.064851636201
 31
0
  0
LINE
  8
1
 62
2
 10
3178.178806836033
 20
701.064851636201
 30
0
 11
3207.918269791326
 21
701.064851636201
 31
0
  0
LINE
  8
1
 62
2
 10
3178.178806836033
 20
686.064851636201
 30
0
 11
3207.918269791326
 21
686.064851636201
 31
0
  0
LINE
  8
1
 62
2
 10
3178.178806836033
 20
681.064851636201
 30
0
 11
3207.918269791326
 21
681.064851636201
 31
0
  0
LINE
  8
1
 62
2
 10
3111.750126117755
 20
700.222521260742
 30
0
 11
3072.510702241887
 21
700.222521260742
 31
0
  0
LINE
  8
1
 62
2
 10
3112.231350272707
 20
698.822521260742
 30
0
 11
3072.510702241887
 21
698.822521260742
 31
0
  0
LINE
  8
1
 62
2
 10
3112.552036755665
 20
697.722521260742
 30
0
 11
3072.510702241887
 21
697.722521260742
 31
0
  0
LINE
  8
1
 62
2
 10
3112.860128567152
 20
696.3225212607422
 30
0
 11
3072.510702241887
 21
696.3225212607422
 31
0
  0
LINE
  8
1
 62
2
 10
3113.003979021836
 20
695.222521260742
 30
0
 11
3072.510702241887
 21
695.222521260742
 31
0
  0
LINE
  8
1
 62
2
 10
3113.034944661677
 20
693.8225212607422
 30
0
 11
3072.510702241887
 21
693.8225212607422
 31
0
  0
LINE
  8
1
 62
2
 10
3112.920030483896
 20
692.722521260742
 30
0
 11
3072.510702241887
 21
692.722521260742
 31
0
  0
LINE
  8
1
 62
2
 10
3112.587323642389
 20
691.3225212607422
 30
0
 11
3072.510702241887
 21
691.3225212607422
 31
0
  0
LINE
  8
1
 62
2
 10
3178.178806836033
 20
716.064851636201
 30
0
 11
3178.178806836033
 21
681.064851636201
 31
0
  0
LINE
  8
1
 62
2
 10
3191.806491241325
 20
716.064851636201
 30
0
 11
3207.918269791326
 21
716.064851636201
 31
0
  0
LINE
  8
1
 62
3
 10
3160.552909485838
 20
701.022521260742
 30
0
 11
3160.052909485838
 21
701.022521260742
 31
0
  0
LINE
  8
1
 62
3
 10
3139.918280885589
 20
685.522521260742
 30
0
 11
3139.918280885589
 21
685.8848651574774
 31
0
  0
LINE
  8
1
 62
3
 10
3139.918280885589
 20
685.522521260742
 30
0
 11
3139.918280885589
 21
685.8848651574774
 31
0
  0
LINE
  8
1
 62
3
 10
3139.918280885589
 20
697.522521260742
 30
0
 11
3139.918280885589
 21
696.522521260742
 31
0
  0
LINE
  8
1
 62
3
 10
3139.918280885589
 20
701.022521260742
 30
0
 11
3139.918280885589
 21
695.472521260742
 31
0
  0
LINE
  8
1
 62
3
 10
3139.918280885589
 20
685.522521260742
 30
0
 11
3139.918280885589
 21
701.022521260742
 31
0
  0
LINE
  8
1
 62
3
 10
3139.918280885589
 20
685.522521260742
 30
0
 11
3139.918280885589
 21
698.522521260742
 31
0
  0
LINE
  8
1
 62
3
 10
3139.918280885589
 20
701.022521260742
 30
0
 11
3139.918280885589
 21
695.472521260742
 31
0
  0
LINE
  8
1
 62
3
 10
3143.07361621455
 20
695.522521260742
 30
0
 11
3142.512897986049
 21
695.522521260742
 31
0
  0
LINE
  8
1
 62
3
 10
3143.07361621455
 20
691.022521260742
 30
0
 11
3143.07361621455
 21
695.522521260742
 31
0
  0
LINE
  8
1
 62
3
 10
3144.419339962949
 20
701.022521260742
 30
0
 11
3143.97076538015
 21
701.022521260742
 31
0
  0
LINE
  8
1
 62
3
 10
3144.419339962949
 20
698.022521260742
 30
0
 11
3143.97076538015
 21
698.022521260742
 31
0
  0
LINE
  8
1
 62
3
 10
3144.419339962949
 20
698.022521260742
 30
0
 11
3144.419339962949
 21
701.022521260742
 31
0
  0
LINE
  8
1
 62
3
 10
3145.690301280882
 20
698.022521260742
 30
0
 11
3144.419339962949
 21
698.022521260742
 31
0
  0
LINE
  8
1
 62
3
 10
3145.690301280882
 20
701.022521260742
 30
0
 11
3144.419339962949
 21
701.022521260742
 31
0
  0
LINE
  8
1
 62
3
 10
3145.690301280882
 20
701.022521260742
 30
0
 11
3145.690301280882
 21
698.022521260742
 31
0
  0
LINE
  8
1
 62
3
 10
3144.419339962949
 20
688.522521260742
 30
0
 11
3143.97076538015
 21
688.522521260742
 31
0
  0
LINE
  8
1
 62
3
 10
3144.419339962949
 20
685.522521260742
 30
0
 11
3145.690301280882
 21
685.522521260742
 31
0
  0
LINE
  8
1
 62
3
 10
3144.419339962949
 20
685.522521260742
 30
0
 11
3144.419339962949
 21
688.522521260742
 31
0
  0
LINE
  8
1
 62
3
 10
3145.690301280882
 20
685.522521260742
 30
0
 11
3146.699594092182
 21
685.522521260742
 31
0
  0
LINE
  8
1
 62
3
 10
3145.690301280882
 20
688.522521260742
 30
0
 11
3144.419339962949
 21
688.522521260742
 31
0
  0
LINE
  8
1
 62
3
 10
3145.690301280882
 20
688.522521260742
 30
0
 11
3145.690301280882
 21
685.522521260742
 31
0
  0
LINE
  8
1
 62
3
 10
3143.97076538015
 20
701.022521260742
 30
0
 11
3139.918280885589
 21
701.022521260742
 31
0
  0
LINE
  8
1
 62
3
 10
3143.97076538015
 20
698.022521260742
 30
0
 11
3143.97076538015
 21
701.022521260742
 31
0
  0
LINE
  8
1
 62
3
 10
3146.699594092182
 20
698.022521260742
 30
0
 11
3145.690301280882
 21
698.022521260742
 31
0
  0
LINE
  8
1
 62
3
 10
3146.699594092182
 20
701.022521260742
 30
0
 11
3145.690301280882
 21
701.022521260742
 31
0
  0
LINE
  8
1
 62
3
 10
3146.699594092182
 20
701.022521260742
 30
0
 11
3146.699594092182
 21
698.022521260742
 31
0
  0
LINE
  8
1
 62
3
 10
3143.97076538015
 20
685.522521260742
 30
0
 11
3144.419339962949
 21
685.522521260742
 31
0
  0
LINE
  8
1
 62
3
 10
3143.97076538015
 20
688.522521260742
 30
0
 11
3143.97076538015
 21
685.522521260742
 31
0
  0
LINE
  8
1
 62
3
 10
3146.699594092182
 20
688.522521260742
 30
0
 11
3145.690301280882
 21
688.522521260742
 31
0
  0
LINE
  8
1
 62
3
 10
3146.699594092182
 20
685.522521260742
 30
0
 11
3147.818280885589
 21
685.5225212607425
 31
0
  0
LINE
  8
1
 62
3
 10
3146.699594092182
 20
685.522521260742
 30
0
 11
3146.699594092182
 21
688.522521260742
 31
0
  0
LINE
  8
1
 62
3
 10
3147.818280885589
 20
685.5225212607425
 30
0
 11
3147.818280885589
 21
687.9725212607418
 31
0
  0
LINE
  8
1
 62
3
 10
3147.818280885589
 20
687.9725212607418
 30
0
 11
3147.818280885589
 21
685.5225212607425
 31
0
  0
LINE
  8
1
 62
3
 10
3147.818280885589
 20
687.9725212607418
 30
0
 11
3147.818280885589
 21
687.472521260742
 31
0
  0
LINE
  8
1
 62
3
 10
3142.512897986049
 20
691.022521260742
 30
0
 11
3143.07361621455
 21
691.022521260742
 31
0
  0
LINE
  8
1
 62
3
 10
3142.512897986049
 20
695.522521260742
 30
0
 11
3142.512897986049
 21
691.022521260742
 31
0
  0
LINE
  8
1
 62
3
 10
3147.818280885589
 20
687.472521260742
 30
0
 11
3147.818280885589
 21
701.022521260742
 31
0
  0
LINE
  8
1
 62
3
 10
3147.818280885589
 20
695.522521260742
 30
0
 11
3143.07361621455
 21
695.522521260742
 31
0
  0
LINE
  8
1
 62
3
 10
3147.818280885589
 20
701.022521260742
 30
0
 11
3146.699594092182
 21
701.022521260742
 31
0
  0
LINE
  8
1
 62
3
 10
3139.918280885589
 20
685.522521260742
 30
0
 11
3143.97076538015
 21
685.522521260742
 31
0
  0
LINE
  8
1
 62
3
 10
3139.918280885589
 20
701.022521260742
 30
0
 11
3139.918280885589
 21
685.522521260742
 31
0
  0
LINE
  8
1
 62
3
 10
3191.900962457422
 20
744.5232199356249
 30
0
 11
3191.900962457422
 21
734.5232199356249
 31
0
  0
LINE
  8
1
 62
3
 10
3170.02003124372
 20
744.5232199356249
 30
0
 11
3191.900962457422
 21
744.5232199356249
 31
0
  0
LINE
  8
1
 62
3
 10
3065.02003124372
 20
744.5232199356249
 30
0
 11
3170.02003124372
 21
744.5232199356249
 31
0
  0
LINE
  8
1
 62
3
 10
3065.02003124372
 20
734.5232199356249
 30
0
 11
3191.900962457422
 21
734.5232199356249
 31
0
  0
LINE
  8
1
 62
2
 10
3065.02003124372
 20
739.5232199356249
 30
0
 11
3191.900962457422
 21
739.5232199356249
 31
0
  0
LINE
  8
1
 62
3
 10
3065.02003124372
 20
744.5232199356249
 30
0
 11
3065.02003124372
 21
734.5232199356249
 31
0
  0
LINE
  8
1
 62
2
 10
3170.02003124372
 20
744.5232199356249
 30
0
 11
3170.02003124372
 21
734.5232199356249
 31
0
  0
LINE
  8
1
 62
2
 10
3135.02003124372
 20
744.5232199356249
 30
0
 11
3135.02003124372
 21
734.5232199356249
 31
0
  0
LINE
  8
1
 62
3
 10
3100.02003124372
 20
744.5232199356249
 30
0
 11
3100.02003124372
 21
734.5232199356249
 31
0
  0
LINE
  8
1
 62
3
 10
3146.662442401337
 20
787.2538356275641
 30
0
 11
3146.662442401337
 21
764.2538356275641
 31
0
  0
LINE
  8
1
 62
3
 10
3146.662442401337
 20
764.2538356275641
 30
0
 11
3150.714926895897
 21
764.2538356275641
 31
0
  0
LINE
  8
1
 62
3
 10
3154.562442401338
 20
764.2538356275641
 30
0
 11
3154.562442401338
 21
770.303835627564
 31
0
  0
LINE
  8
1
 62
3
 10
3154.562442401338
 20
787.2538356275641
 30
0
 11
3153.44375560793
 21
787.2538356275641
 31
0
  0
LINE
  8
1
 62
3
 10
3154.562442401338
 20
781.2038356275639
 30
0
 11
3149.817777730298
 21
781.2038356275639
 31
0
  0
LINE
  8
1
 62
3
 10
3154.562442401338
 20
781.2038356275639
 30
0
 11
3154.562442401338
 21
787.2538356275641
 31
0
  0
LINE
  8
1
 62
3
 10
3149.257059501798
 20
781.2038356275639
 30
0
 11
3149.257059501798
 21
779.2038356275639
 31
0
  0
LINE
  8
1
 62
3
 10
3149.257059501798
 20
779.2038356275639
 30
0
 11
3149.817777730298
 21
779.2038356275639
 31
0
  0
LINE
  8
1
 62
3
 10
3154.562442401338
 20
779.2038356275639
 30
0
 11
3154.562442401338
 21
781.2038356275639
 31
0
  0
LINE
  8
1
 62
3
 10
3154.562442401338
 20
779.2038356275639
 30
0
 11
3154.562442401338
 21
772.303835627564
 31
0
  0
LINE
  8
1
 62
3
 10
3154.562442401338
 20
772.303835627564
 30
0
 11
3154.562442401338
 21
779.2038356275639
 31
0
  0
LINE
  8
1
 62
3
 10
3154.562442401338
 20
772.303835627564
 30
0
 11
3149.817777730298
 21
772.303835627564
 31
0
  0
LINE
  8
1
 62
3
 10
3149.257059501798
 20
772.303835627564
 30
0
 11
3149.257059501798
 21
770.303835627564
 31
0
  0
LINE
  8
1
 62
3
 10
3149.257059501798
 20
770.303835627564
 30
0
 11
3149.817777730298
 21
770.303835627564
 31
0
  0
LINE
  8
1
 62
3
 10
3154.562442401338
 20
770.303835627564
 30
0
 11
3154.562442401338
 21
772.303835627564
 31
0
  0
LINE
  8
1
 62
3
 10
3153.44375560793
 20
764.2538356275641
 30
0
 11
3153.44375560793
 21
767.2538356275641
 31
0
  0
LINE
  8
1
 62
3
 10
3153.44375560793
 20
764.2538356275641
 30
0
 11
3154.562442401338
 21
764.2538356275641
 31
0
  0
LINE
  8
1
 62
3
 10
3153.44375560793
 20
767.2538356275641
 30
0
 11
3152.43446279663
 21
767.2538356275641
 31
0
  0
LINE
  8
1
 62
3
 10
3150.714926895897
 20
767.2538356275641
 30
0
 11
3150.714926895897
 21
764.2538356275641
 31
0
  0
LINE
  8
1
 62
3
 10
3150.714926895897
 20
764.2538356275641
 30
0
 11
3151.163501478697
 21
764.2538356275641
 31
0
  0
LINE
  8
1
 62
3
 10
3153.44375560793
 20
787.2538356275641
 30
0
 11
3153.44375560793
 21
784.2538356275641
 31
0
  0
LINE
  8
1
 62
3
 10
3153.44375560793
 20
787.2538356275641
 30
0
 11
3152.43446279663
 21
787.2538356275641
 31
0
  0
LINE
  8
1
 62
3
 10
3153.44375560793
 20
784.2538356275641
 30
0
 11
3152.43446279663
 21
784.2538356275641
 31
0
  0
LINE
  8
1
 62
3
 10
3150.714926895897
 20
784.2538356275641
 30
0
 11
3150.714926895897
 21
787.2538356275641
 31
0
  0
LINE
  8
1
 62
3
 10
3150.714926895897
 20
787.2538356275641
 30
0
 11
3146.662442401337
 21
787.2538356275641
 31
0
  0
LINE
  8
1
 62
3
 10
3152.43446279663
 20
767.2538356275641
 30
0
 11
3152.43446279663
 21
764.2538356275641
 31
0
  0
LINE
  8
1
 62
3
 10
3152.43446279663
 20
767.2538356275641
 30
0
 11
3151.163501478697
 21
767.2538356275641
 31
0
  0
LINE
  8
1
 62
3
 10
3152.43446279663
 20
764.2538356275641
 30
0
 11
3153.44375560793
 21
764.2538356275641
 31
0
  0
LINE
  8
1
 62
3
 10
3151.163501478697
 20
764.2538356275641
 30
0
 11
3151.163501478697
 21
767.2538356275641
 31
0
  0
LINE
  8
1
 62
3
 10
3151.163501478697
 20
764.2538356275641
 30
0
 11
3152.43446279663
 21
764.2538356275641
 31
0
  0
LINE
  8
1
 62
3
 10
3151.163501478697
 20
767.2538356275641
 30
0
 11
3150.714926895897
 21
767.2538356275641
 31
0
  0
LINE
  8
1
 62
3
 10
3152.43446279663
 20
787.2538356275641
 30
0
 11
3152.43446279663
 21
784.2538356275641
 31
0
  0
LINE
  8
1
 62
3
 10
3152.43446279663
 20
787.2538356275641
 30
0
 11
3151.163501478697
 21
787.2538356275641
 31
0
  0
LINE
  8
1
 62
3
 10
3152.43446279663
 20
784.2538356275641
 30
0
 11
3151.163501478697
 21
784.2538356275641
 31
0
  0
LINE
  8
1
 62
3
 10
3151.163501478697
 20
784.2538356275641
 30
0
 11
3151.163501478697
 21
787.2538356275641
 31
0
  0
LINE
  8
1
 62
3
 10
3151.163501478697
 20
784.2538356275641
 30
0
 11
3150.714926895897
 21
784.2538356275641
 31
0
  0
LINE
  8
1
 62
3
 10
3151.163501478697
 20
787.2538356275641
 30
0
 11
3150.714926895897
 21
787.2538356275641
 31
0
  0
LINE
  8
1
 62
3
 10
3149.817777730298
 20
770.303835627564
 30
0
 11
3149.817777730298
 21
772.303835627564
 31
0
  0
LINE
  8
1
 62
3
 10
3149.817777730298
 20
770.303835627564
 30
0
 11
3154.562442401338
 21
770.303835627564
 31
0
  0
LINE
  8
1
 62
3
 10
3149.817777730298
 20
772.303835627564
 30
0
 11
3149.257059501798
 21
772.303835627564
 31
0
  0
LINE
  8
1
 62
3
 10
3149.817777730298
 20
779.2038356275639
 30
0
 11
3149.817777730298
 21
781.2038356275639
 31
0
  0
LINE
  8
1
 62
3
 10
3149.817777730298
 20
779.2038356275639
 30
0
 11
3154.562442401338
 21
779.2038356275639
 31
0
  0
LINE
  8
1
 62
3
 10
3149.817777730298
 20
781.2038356275639
 30
0
 11
3149.257059501798
 21
781.2038356275639
 31
0
  0
LINE
  8
1
 62
3
 10
3146.662442401337
 20
787.2538356275641
 30
0
 11
3146.662442401337
 21
781.7038356275639
 31
0
  0
LINE
  8
1
 62
3
 10
3146.662442401337
 20
764.2538356275641
 30
0
 11
3146.662442401337
 21
784.7538356275641
 31
0
  0
LINE
  8
1
 62
3
 10
3146.662442401337
 20
764.2538356275641
 30
0
 11
3146.662442401337
 21
787.2538356275641
 31
0
  0
LINE
  8
1
 62
3
 10
3146.662442401337
 20
787.2538356275641
 30
0
 11
3146.662442401337
 21
781.7038356275639
 31
0
  0
LINE
  8
1
 62
3
 10
3146.662442401337
 20
783.7538356275641
 30
0
 11
3146.662442401337
 21
782.7538356275641
 31
0
  0
LINE
  8
1
 62
3
 10
3146.662442401337
 20
773.7813091018811
 30
0
 11
3146.662442401337
 21
784.7538356275641
 31
0
  0
LINE
  8
1
 62
3
 10
3146.662442401337
 20
773.7813091018811
 30
0
 11
3146.662442401337
 21
787.2538356275641
 31
0
  0
LINE
  8
1
 62
3
 10
3146.662442401337
 20
772.6661795242994
 30
0
 11
3146.662442401337
 21
773.7813091018811
 31
0
  0
LINE
  8
1
 62
3
 10
3146.662442401337
 20
772.6661795242994
 30
0
 11
3146.662442401337
 21
773.7813091018811
 31
0
  0
LINE
  8
1
 62
3
 10
3146.662442401337
 20
764.2538356275641
 30
0
 11
3146.662442401337
 21
772.6661795242994
 31
0
  0
LINE
  8
1
 62
3
 10
3146.662442401337
 20
764.2538356275641
 30
0
 11
3146.662442401337
 21
772.6661795242994
 31
0
  0
LINE
  8
1
 62
3
 10
3167.297071001585
 20
787.2538356275641
 30
0
 11
3166.797071001585
 21
787.2538356275641
 31
0
  0
LINE
  8
1
 62
2
 10
3195.153292638353
 20
803.3875823346491
 30
0
 11
3211.265071188354
 21
803.3875823346491
 31
0
  0
LINE
  8
1
 62
2
 10
3181.525608233063
 20
803.3875823346491
 30
0
 11
3181.525608233063
 21
753.3875823346491
 31
0
  0
LINE
  8
1
 62
2
 10
3117.437148702923
 20
772.553835627564
 30
0
 11
3079.254863757636
 21
772.553835627564
 31
0
  0
LINE
  8
1
 62
2
 10
3117.961876745741
 20
773.9538356275639
 30
0
 11
3079.254863757636
 21
773.9538356275639
 31
0
  0
LINE
  8
1
 62
2
 10
3118.409629358927
 20
775.053835627564
 30
0
 11
3079.254863757636
 21
775.053835627564
 31
0
  0
LINE
  8
1
 62
2
 10
3118.960043320128
 20
776.4538356275639
 30
0
 11
3079.254863757636
 21
776.4538356275639
 31
0
  0
LINE
  8
1
 62
2
 10
3119.331485158136
 20
777.553835627564
 30
0
 11
3079.254863757636
 21
777.553835627564
 31
0
  0
LINE
  8
1
 62
2
 10
3119.664191999645
 20
778.9538356275639
 30
0
 11
3079.254863757636
 21
778.9538356275639
 31
0
  0
LINE
  8
1
 62
2
 10
3119.779106177425
 20
780.053835627564
 30
0
 11
3079.254863757636
 21
780.053835627564
 31
0
  0
LINE
  8
1
 62
2
 10
3119.748140537585
 20
781.4538356275639
 30
0
 11
3079.254863757636
 21
781.4538356275639
 31
0
  0
LINE
  8
1
 62
2
 10
3119.604290082901
 20
782.553835627564
 30
0
 11
3079.254863757636
 21
782.553835627564
 31
0
  0
LINE
  8
1
 62
2
 10
3119.296198271412
 20
783.9538356275639
 30
0
 11
3079.254863757636
 21
783.9538356275639
 31
0
  0
LINE
  8
1
 62
2
 10
3118.975511788455
 20
785.053835627564
 30
0
 11
3079.254863757636
 21
785.053835627564
 31
0
  0
LINE
  8
1
 62
2
 10
3118.494287633504
 20
786.4538356275639
 30
0
 11
3079.254863757636
 21
786.4538356275639
 31
0
  0
LINE
  8
1
 62
2
 10
3181.525608233063
 20
753.3875823346491
 30
0
 11
3211.265071188354
 21
753.3875823346491
 31
0
  0
LINE
  8
1
 62
2
 10
3181.525608233063
 20
773.3875823346491
 30
0
 11
3211.265071188354
 21
773.3875823346491
 31
0
  0
LINE
  8
1
 62
2
 10
3181.525608233063
 20
778.3875823346491
 30
0
 11
3211.265071188354
 21
778.3875823346491
 31
0
  0
LINE
  8
1
 62
2
 10
3181.525608233063
 20
783.3875823346491
 30
0
 11
3211.265071188354
 21
783.3875823346491
 31
0
  0
LINE
  8
1
 62
2
 10
3181.525608233063
 20
788.3875823346491
 30
0
 11
3211.265071188354
 21
788.3875823346491
 31
0
  0
LINE
  8
1
 62
2
 10
3181.525608233063
 20
793.3875823346491
 30
0
 11
3211.265071188354
 21
793.3875823346491
 31
0
  0
LINE
  8
1
 62
2
 10
3181.525608233063
 20
798.3875823346491
 30
0
 11
3211.265071188354
 21
798.3875823346491
 31
0
  0
LINE
  8
1
 62
2
 10
3181.525608233063
 20
803.3875823346491
 30
0
 11
3195.153292638353
 21
803.3875823346491
 31
0
  0
LINE
  8
1
 62
2
 10
3197.539558580086
 20
803.3875823346491
 30
0
 11
3197.539558580086
 21
753.3875823346491
 31
0
  0
LINE
  8
1
 62
2
 10
3211.265071188354
 20
803.3875823346491
 30
0
 11
3211.265071188354
 21
753.3875823346491
 31
0
  0
LINE
  8
1
 62
2
 10
3146.662442401337
 20
772.553835627564
 30
0
 11
3119.437148702922
 21
772.553835627564
 31
0
  0
LINE
  8
1
 62
2
 10
3146.662442401337
 20
775.053835627564
 30
0
 11
3120.409629358924
 21
775.053835627564
 31
0
  0
LINE
  8
1
 62
2
 10
3146.662442401337
 20
777.553835627564
 30
0
 11
3121.331485158136
 21
777.553835627564
 31
0
  0
LINE
  8
1
 62
2
 10
3146.662442401337
 20
780.053835627564
 30
0
 11
3121.779106177425
 21
780.053835627564
 31
0
  0
LINE
  8
1
 62
2
 10
3146.662442401337
 20
782.553835627564
 30
0
 11
3121.604290082901
 21
782.553835627564
 31
0
  0
LINE
  8
1
 62
2
 10
3146.662442401337
 20
773.9538356275639
 30
0
 11
3119.961876745665
 21
773.9538356275639
 31
0
  0
LINE
  8
1
 62
2
 10
3146.662442401337
 20
776.4538356275639
 30
0
 11
3120.960043320128
 21
776.4538356275639
 31
0
  0
LINE
  8
1
 62
2
 10
3146.662442401337
 20
778.9538356275639
 30
0
 11
3121.664191999645
 21
778.9538356275639
 31
0
  0
LINE
  8
1
 62
2
 10
3146.662442401337
 20
781.4538356275639
 30
0
 11
3121.748140537585
 21
781.4538356275639
 31
0
  0
LINE
  8
1
 62
2
 10
3146.662442401337
 20
783.9538356275639
 30
0
 11
3121.296198271412
 21
783.9538356275639
 31
0
  0
LINE
  8
1
 62
2
 10
3069.254863757636
 20
772.9038356275642
 30
0
 11
3079.254863757636
 21
772.9038356275642
 31
0
  0
LINE
  8
1
 62
2
 10
3069.254863757636
 20
773.603835627564
 30
0
 11
3069.254863757636
 21
772.9038356275642
 31
0
  0
LINE
  8
1
 62
2
 10
3079.254863757636
 20
773.603835627564
 30
0
 11
3069.254863757636
 21
773.603835627564
 31
0
  0
LINE
  8
1
 62
2
 10
3079.254863757636
 20
773.9538356275639
 30
0
 11
3079.254863757636
 21
772.553835627564
 31
0
  0
LINE
  8
1
 62
2
 10
3069.254863757636
 20
775.4038356275642
 30
0
 11
3079.254863757636
 21
775.4038356275642
 31
0
  0
LINE
  8
1
 62
2
 10
3069.254863757636
 20
776.103835627564
 30
0
 11
3069.254863757636
 21
775.4038356275642
 31
0
  0
LINE
  8
1
 62
2
 10
3079.254863757636
 20
776.103835627564
 30
0
 11
3069.254863757636
 21
776.103835627564
 31
0
  0
LINE
  8
1
 62
2
 10
3079.254863757636
 20
776.4538356275639
 30
0
 11
3079.254863757636
 21
775.053835627564
 31
0
  0
LINE
  8
1
 62
2
 10
3069.254863757636
 20
777.9038356275642
 30
0
 11
3079.254863757636
 21
777.9038356275642
 31
0
  0
LINE
  8
1
 62
2
 10
3069.254863757636
 20
778.603835627564
 30
0
 11
3069.254863757636
 21
777.9038356275642
 31
0
  0
LINE
  8
1
 62
2
 10
3079.254863757636
 20
778.603835627564
 30
0
 11
3069.254863757636
 21
778.603835627564
 31
0
  0
LINE
  8
1
 62
2
 10
3079.254863757636
 20
778.9538356275639
 30
0
 11
3079.254863757636
 21
777.553835627564
 31
0
  0
LINE
  8
1
 62
2
 10
3069.254863757636
 20
780.4038356275642
 30
0
 11
3079.254863757636
 21
780.4038356275642
 31
0
  0
LINE
  8
1
 62
2
 10
3069.254863757636
 20
781.103835627564
 30
0
 11
3069.254863757636
 21
780.4038356275642
 31
0
  0
LINE
  8
1
 62
2
 10
3079.254863757636
 20
781.103835627564
 30
0
 11
3069.254863757636
 21
781.103835627564
 31
0
  0
LINE
  8
1
 62
2
 10
3079.254863757636
 20
781.4538356275639
 30
0
 11
3079.254863757636
 21
780.053835627564
 31
0
  0
LINE
  8
1
 62
2
 10
3069.254863757636
 20
782.9038356275642
 30
0
 11
3079.254863757636
 21
782.9038356275642
 31
0
  0
LINE
  8
1
 62
2
 10
3069.254863757636
 20
783.603835627564
 30
0
 11
3069.254863757636
 21
782.9038356275642
 31
0
  0
LINE
  8
1
 62
2
 10
3079.254863757636
 20
783.603835627564
 30
0
 11
3069.254863757636
 21
783.603835627564
 31
0
  0
LINE
  8
1
 62
2
 10
3079.254863757636
 20
783.9538356275639
 30
0
 11
3079.254863757636
 21
782.553835627564
 31
0
  0
LINE
  8
1
 62
2
 10
3069.254863757636
 20
785.4038356275642
 30
0
 11
3079.254863757636
 21
785.4038356275642
 31
0
  0
LINE
  8
1
 62
2
 10
3069.254863757636
 20
786.103835627564
 30
0
 11
3069.254863757636
 21
785.4038356275642
 31
0
  0
LINE
  8
1
 62
2
 10
3079.254863757636
 20
786.103835627564
 30
0
 11
3069.254863757636
 21
786.103835627564
 31
0
  0
LINE
  8
1
 62
2
 10
3079.254863757636
 20
786.4538356275639
 30
0
 11
3079.254863757636
 21
785.053835627564
 31
0
  0
LINE
  8
1
 62
2
 10
3146.662442401337
 20
786.4538356275639
 30
0
 11
3120.494287633504
 21
786.4538356275639
 31
0
  0
LINE
  8
1
 62
2
 10
3146.662442401337
 20
785.053835627564
 30
0
 11
3120.975511788455
 21
785.053835627564
 31
0
  0
LINE
  8
1
 62
2
 10
3168.25796612898
 20
786.2538356275641
 30
0
 11
3167.75796612898
 21
786.7538356275641
 31
0
  0
LINE
  8
1
 62
2
 10
3168.25796612898
 20
785.2538356275641
 30
0
 11
3167.75796612898
 21
784.7538356275641
 31
0
  0
LINE
  8
1
 62
2
 10
3169.25796612898
 20
785.2538356275641
 30
0
 11
3169.75796612898
 21
784.7538356275641
 31
0
  0
LINE
  8
1
 62
2
 10
3169.75796612898
 20
786.7538356275641
 30
0
 11
3169.25796612898
 21
786.2538356275641
 31
0
  0
LINE
  8
1
 62
2
 10
3167.75796612898
 20
786.7538356275641
 30
0
 11
3169.75796612898
 21
786.7538356275641
 31
0
  0
LINE
  8
1
 62
2
 10
3167.75796612898
 20
784.7538356275641
 30
0
 11
3167.75796612898
 21
786.7538356275641
 31
0
  0
LINE
  8
1
 62
2
 10
3169.75796612898
 20
784.7538356275641
 30
0
 11
3167.75796612898
 21
784.7538356275641
 31
0
  0
LINE
  8
1
 62
2
 10
3169.75796612898
 20
786.7538356275641
 30
0
 11
3169.75796612898
 21
784.7538356275641
 31
0
  0
LINE
  8
1
 62
2
 10
3169.25796612898
 20
785.2538356275641
 30
0
 11
3168.25796612898
 21
785.2538356275641
 31
0
  0
LINE
  8
1
 62
2
 10
3169.25796612898
 20
786.2538356275641
 30
0
 11
3169.25796612898
 21
785.2538356275641
 31
0
  0
LINE
  8
1
 62
2
 10
3168.25796612898
 20
786.2538356275641
 30
0
 11
3169.25796612898
 21
786.2538356275641
 31
0
  0
LINE
  8
1
 62
2
 10
3168.25796612898
 20
785.2538356275641
 30
0
 11
3168.25796612898
 21
786.2538356275641
 31
0
  0
LINE
  8
1
 62
2
 10
3168.25796612898
 20
783.7538356275641
 30
0
 11
3167.75796612898
 21
784.2538356275641
 31
0
  0
LINE
  8
1
 62
2
 10
3168.25796612898
 20
782.7538356275641
 30
0
 11
3167.75796612898
 21
782.2538356275641
 31
0
  0
LINE
  8
1
 62
2
 10
3169.25796612898
 20
782.7538356275641
 30
0
 11
3169.75796612898
 21
782.2538356275641
 31
0
  0
LINE
  8
1
 62
2
 10
3169.75796612898
 20
784.2538356275641
 30
0
 11
3169.25796612898
 21
783.7538356275641
 31
0
  0
LINE
  8
1
 62
2
 10
3167.75796612898
 20
784.2538356275641
 30
0
 11
3169.75796612898
 21
784.2538356275641
 31
0
  0
LINE
  8
1
 62
2
 10
3167.75796612898
 20
782.2538356275641
 30
0
 11
3167.75796612898
 21
784.2538356275641
 31
0
  0
LINE
  8
1
 62
2
 10
3169.75796612898
 20
782.2538356275641
 30
0
 11
3167.75796612898
 21
782.2538356275641
 31
0
  0
LINE
  8
1
 62
2
 10
3169.75796612898
 20
784.2538356275641
 30
0
 11
3169.75796612898
 21
782.2538356275641
 31
0
  0
LINE
  8
1
 62
2
 10
3169.25796612898
 20
782.7538356275641
 30
0
 11
3168.25796612898
 21
782.7538356275641
 31
0
  0
LINE
  8
1
 62
2
 10
3169.25796612898
 20
783.7538356275641
 30
0
 11
3169.25796612898
 21
782.7538356275641
 31
0
  0
LINE
  8
1
 62
2
 10
3168.25796612898
 20
783.7538356275641
 30
0
 11
3169.25796612898
 21
783.7538356275641
 31
0
  0
LINE
  8
1
 62
2
 10
3168.25796612898
 20
782.7538356275641
 30
0
 11
3168.25796612898
 21
783.7538356275641
 31
0
  0
LINE
  8
1
 62
2
 10
3168.25796612898
 20
781.2538356275641
 30
0
 11
3167.75796612898
 21
781.7538356275641
 31
0
  0
LINE
  8
1
 62
2
 10
3168.25796612898
 20
780.2538356275641
 30
0
 11
3167.75796612898
 21
779.7538356275641
 31
0
  0
LINE
  8
1
 62
2
 10
3169.25796612898
 20
780.2538356275641
 30
0
 11
3169.75796612898
 21
779.7538356275641
 31
0
  0
LINE
  8
1
 62
2
 10
3169.75796612898
 20
781.7538356275641
 30
0
 11
3169.25796612898
 21
781.2538356275641
 31
0
  0
LINE
  8
1
 62
2
 10
3167.75796612898
 20
781.7538356275641
 30
0
 11
3169.75796612898
 21
781.7538356275641
 31
0
  0
LINE
  8
1
 62
2
 10
3167.75796612898
 20
779.7538356275641
 30
0
 11
3167.75796612898
 21
781.7538356275641
 31
0
  0
LINE
  8
1
 62
2
 10
3169.75796612898
 20
779.7538356275641
 30
0
 11
3167.75796612898
 21
779.7538356275641
 31
0
  0
LINE
  8
1
 62
2
 10
3169.75796612898
 20
781.7538356275641
 30
0
 11
3169.75796612898
 21
779.7538356275641
 31
0
  0
LINE
  8
1
 62
2
 10
3169.25796612898
 20
780.2538356275641
 30
0
 11
3168.25796612898
 21
780.2538356275641
 31
0
  0
LINE
  8
1
 62
2
 10
3169.25796612898
 20
781.2538356275641
 30
0
 11
3169.25796612898
 21
780.2538356275641
 31
0
  0
LINE
  8
1
 62
2
 10
3168.25796612898
 20
781.2538356275641
 30
0
 11
3169.25796612898
 21
781.2538356275641
 31
0
  0
LINE
  8
1
 62
2
 10
3168.25796612898
 20
780.2538356275641
 30
0
 11
3168.25796612898
 21
781.2538356275641
 31
0
  0
LINE
  8
1
 62
2
 10
3168.25796612898
 20
778.7538356275641
 30
0
 11
3167.75796612898
 21
779.2538356275641
 31
0
  0
LINE
  8
1
 62
2
 10
3168.25796612898
 20
777.7538356275641
 30
0
 11
3167.75796612898
 21
777.2538356275641
 31
0
  0
LINE
  8
1
 62
2
 10
3169.25796612898
 20
777.7538356275641
 30
0
 11
3169.75796612898
 21
777.2538356275641
 31
0
  0
LINE
  8
1
 62
2
 10
3169.75796612898
 20
779.2538356275641
 30
0
 11
3169.25796612898
 21
778.7538356275641
 31
0
  0
LINE
  8
1
 62
2
 10
3167.75796612898
 20
779.2538356275641
 30
0
 11
3169.75796612898
 21
779.2538356275641
 31
0
  0
LINE
  8
1
 62
2
 10
3167.75796612898
 20
777.2538356275641
 30
0
 11
3167.75796612898
 21
779.2538356275641
 31
0
  0
LINE
  8
1
 62
2
 10
3169.75796612898
 20
777.2538356275641
 30
0
 11
3167.75796612898
 21
777.2538356275641
 31
0
  0
LINE
  8
1
 62
2
 10
3169.75796612898
 20
779.2538356275641
 30
0
 11
3169.75796612898
 21
777.2538356275641
 31
0
  0
LINE
  8
1
 62
2
 10
3169.25796612898
 20
777.7538356275641
 30
0
 11
3168.25796612898
 21
777.7538356275641
 31
0
  0
LINE
  8
1
 62
2
 10
3169.25796612898
 20
778.7538356275641
 30
0
 11
3169.25796612898
 21
777.7538356275641
 31
0
  0
LINE
  8
1
 62
2
 10
3168.25796612898
 20
778.7538356275641
 30
0
 11
3169.25796612898
 21
778.7538356275641
 31
0
  0
LINE
  8
1
 62
2
 10
3168.25796612898
 20
777.7538356275641
 30
0
 11
3168.25796612898
 21
778.7538356275641
 31
0
  0
LINE
  8
1
 62
2
 10
3168.25796612898
 20
776.2538356275641
 30
0
 11
3167.75796612898
 21
776.7538356275641
 31
0
  0
LINE
  8
1
 62
2
 10
3168.25796612898
 20
775.2538356275641
 30
0
 11
3167.75796612898
 21
774.7538356275641
 31
0
  0
LINE
  8
1
 62
2
 10
3169.25796612898
 20
775.2538356275641
 30
0
 11
3169.75796612898
 21
774.7538356275641
 31
0
  0
LINE
  8
1
 62
2
 10
3169.75796612898
 20
776.7538356275641
 30
0
 11
3169.25796612898
 21
776.2538356275641
 31
0
  0
LINE
  8
1
 62
2
 10
3167.75796612898
 20
776.7538356275641
 30
0
 11
3169.75796612898
 21
776.7538356275641
 31
0
  0
LINE
  8
1
 62
2
 10
3167.75796612898
 20
774.7538356275641
 30
0
 11
3167.75796612898
 21
776.7538356275641
 31
0
  0
LINE
  8
1
 62
2
 10
3169.75796612898
 20
774.7538356275641
 30
0
 11
3167.75796612898
 21
774.7538356275641
 31
0
  0
LINE
  8
1
 62
2
 10
3169.75796612898
 20
776.7538356275641
 30
0
 11
3169.75796612898
 21
774.7538356275641
 31
0
  0
LINE
  8
1
 62
2
 10
3169.25796612898
 20
775.2538356275641
 30
0
 11
3168.25796612898
 21
775.2538356275641
 31
0
  0
LINE
  8
1
 62
2
 10
3169.25796612898
 20
776.2538356275641
 30
0
 11
3169.25796612898
 21
775.2538356275641
 31
0
  0
LINE
  8
1
 62
2
 10
3168.25796612898
 20
776.2538356275641
 30
0
 11
3169.25796612898
 21
776.2538356275641
 31
0
  0
LINE
  8
1
 62
2
 10
3168.25796612898
 20
775.2538356275641
 30
0
 11
3168.25796612898
 21
776.2538356275641
 31
0
  0
LINE
  8
1
 62
2
 10
3168.25796612898
 20
766.2538356275641
 30
0
 11
3167.75796612898
 21
766.7538356275641
 31
0
  0
LINE
  8
1
 62
2
 10
3168.25796612898
 20
765.2538356275641
 30
0
 11
3167.75796612898
 21
764.7538356275641
 31
0
  0
LINE
  8
1
 62
2
 10
3169.25796612898
 20
765.2538356275641
 30
0
 11
3169.75796612898
 21
764.7538356275641
 31
0
  0
LINE
  8
1
 62
2
 10
3169.75796612898
 20
766.7538356275641
 30
0
 11
3169.25796612898
 21
766.2538356275641
 31
0
  0
LINE
  8
1
 62
2
 10
3167.75796612898
 20
766.7538356275641
 30
0
 11
3169.75796612898
 21
766.7538356275641
 31
0
  0
LINE
  8
1
 62
2
 10
3167.75796612898
 20
764.7538356275641
 30
0
 11
3167.75796612898
 21
766.7538356275641
 31
0
  0
LINE
  8
1
 62
2
 10
3169.75796612898
 20
764.7538356275641
 30
0
 11
3167.75796612898
 21
764.7538356275641
 31
0
  0
LINE
  8
1
 62
2
 10
3169.75796612898
 20
766.7538356275641
 30
0
 11
3169.75796612898
 21
764.7538356275641
 31
0
  0
LINE
  8
1
 62
2
 10
3169.25796612898
 20
765.2538356275641
 30
0
 11
3168.25796612898
 21
765.2538356275641
 31
0
  0
LINE
  8
1
 62
2
 10
3169.25796612898
 20
766.2538356275641
 30
0
 11
3169.25796612898
 21
765.2538356275641
 31
0
  0
LINE
  8
1
 62
2
 10
3168.25796612898
 20
766.2538356275641
 30
0
 11
3169.25796612898
 21
766.2538356275641
 31
0
  0
LINE
  8
1
 62
2
 10
3168.25796612898
 20
765.2538356275641
 30
0
 11
3168.25796612898
 21
766.2538356275641
 31
0
  0
LINE
  8
1
 62
3
 10
3166.797071001585
 20
764.2538356275641
 30
0
 11
3166.797071001585
 21
787.2538356275641
 31
0
  0
LINE
  8
1
 62
3
 10
3167.297071001585
 20
764.2538356275641
 30
0
 11
3166.797071001585
 21
764.2538356275641
 31
0
  0
LINE
  8
1
 62
3
 10
3171.797071001585
 20
764.2538356275641
 30
0
 11
3167.297071001585
 21
764.2538356275641
 31
0
  0
LINE
  8
1
 62
3
 10
3171.797071001585
 20
787.2538356275641
 30
0
 11
3171.797071001585
 21
764.2538356275641
 31
0
  0
LINE
  8
1
 62
3
 10
3167.297071001585
 20
787.2538356275641
 30
0
 11
3171.797071001585
 21
787.2538356275641
 31
0
  0
LINE
  8
1
 62
3
 10
3167.297071001585
 20
764.2538356275641
 30
0
 11
3167.297071001585
 21
787.2538356275641
 31
0
  0
LINE
  8
1
 62
3
 10
3166.797071001585
 20
770.303835627564
 30
0
 11
3165.347071001585
 21
770.303835627564
 31
0
  0
LINE
  8
1
 62
3
 10
3166.797071001585
 20
772.303835627564
 30
0
 11
3165.347071001585
 21
772.303835627564
 31
0
  0
LINE
  8
1
 62
3
 10
3165.347071001585
 20
770.303835627564
 30
0
 11
3165.347071001585
 21
772.303835627564
 31
0
  0
LINE
  8
1
 62
3
 10
3166.797071001585
 20
781.2038356275639
 30
0
 11
3165.347071001585
 21
781.2038356275639
 31
0
  0
LINE
  8
1
 62
3
 10
3166.797071001585
 20
779.2038356275639
 30
0
 11
3165.347071001585
 21
779.2038356275639
 31
0
  0
LINE
  8
1
 62
3
 10
3165.347071001585
 20
779.2038356275639
 30
0
 11
3165.347071001585
 21
781.2038356275639
 31
0
  0
LINE
  8
1
 62
3
 10
3146.662442401337
 20
770.1661795242994
 30
0
 11
3146.662442401337
 21
771.2813091018809
 31
0
  0
LINE
  8
1
 62
3
 10
3146.662442401337
 20
770.1661795242994
 30
0
 11
3146.662442401337
 21
771.2813091018809
 31
0
  0
LINE
  8
1
 62
2
 10
3146.662442401337
 20
770.053835627564
 30
0
 11
3118.791117564721
 21
770.053835627564
 31
0
  0
LINE
  8
1
 62
2
 10
3146.662442401337
 20
771.4538356275639
 30
0
 11
3119.095004030426
 21
771.4538356275639
 31
0
  0
LINE
  8
1
 62
2
 10
3069.254863757636
 20
770.4038356275639
 30
0
 11
3079.254863757636
 21
770.4038356275639
 31
0
  0
LINE
  8
1
 62
2
 10
3069.254863757636
 20
771.1038356275637
 30
0
 11
3069.254863757636
 21
770.4038356275639
 31
0
  0
LINE
  8
1
 62
2
 10
3079.254863757636
 20
771.1038356275637
 30
0
 11
3069.254863757636
 21
771.1038356275637
 31
0
  0
LINE
  8
1
 62
2
 10
3079.254863757636
 20
771.4538356275639
 30
0
 11
3079.254863757636
 21
770.053835627564
 31
0
  0
LINE
  8
1
 62
3
 10
3146.662442401337
 20
767.666179524299
 30
0
 11
3146.662442401337
 21
768.7813091018809
 31
0
  0
LINE
  8
1
 62
3
 10
3146.662442401337
 20
767.666179524299
 30
0
 11
3146.662442401337
 21
768.7813091018809
 31
0
  0
LINE
  8
1
 62
2
 10
3146.662442401337
 20
767.5538356275638
 30
0
 11
3118.5967146425
 21
767.5538356275638
 31
0
  0
LINE
  8
1
 62
2
 10
3146.662442401337
 20
768.9538356275637
 30
0
 11
3118.684231811601
 21
768.9538356275637
 31
0
  0
LINE
  8
1
 62
2
 10
3069.254863757636
 20
767.9038356275639
 30
0
 11
3079.254863757636
 21
767.9038356275639
 31
0
  0
LINE
  8
1
 62
2
 10
3069.254863757636
 20
768.6038356275637
 30
0
 11
3069.254863757636
 21
767.9038356275639
 31
0
  0
LINE
  8
1
 62
2
 10
3079.254863757636
 20
768.6038356275637
 30
0
 11
3069.254863757636
 21
768.6038356275637
 31
0
  0
LINE
  8
1
 62
2
 10
3079.254863757636
 20
768.9538356275637
 30
0
 11
3079.254863757636
 21
767.5538356275638
 31
0
  0
LINE
  8
1
 62
3
 10
3146.662442401337
 20
765.166179524299
 30
0
 11
3146.662442401337
 21
766.2813091018807
 31
0
  0
LINE
  8
1
 62
3
 10
3146.662442401337
 20
765.166179524299
 30
0
 11
3146.662442401337
 21
766.2813091018807
 31
0
  0
LINE
  8
1
 62
2
 10
3146.662442401337
 20
765.0538356275636
 30
0
 11
3118.4961397945
 21
765.0538356275636
 31
0
  0
LINE
  8
1
 62
2
 10
3146.662442401337
 20
766.4538356275637
 30
0
 11
3118.546399202518
 21
766.4538356275637
 31
0
  0
LINE
  8
1
 62
2
 10
3069.254863757636
 20
765.4038356275639
 30
0
 11
3079.254863757636
 21
765.4038356275639
 31
0
  0
LINE
  8
1
 62
2
 10
3069.254863757636
 20
766.1038356275637
 30
0
 11
3069.254863757636
 21
765.4038356275639
 31
0
  0
LINE
  8
1
 62
2
 10
3079.254863757636
 20
766.1038356275637
 30
0
 11
3069.254863757636
 21
766.1038356275637
 31
0
  0
LINE
  8
1
 62
2
 10
3079.254863757636
 20
766.4538356275637
 30
0
 11
3079.254863757636
 21
765.0538356275636
 31
0
  0
LINE
  8
1
 62
2
 10
3117.109196835041
 20
771.4538356275637
 30
0
 11
3079.254863757636
 21
771.4538356275639
 31
0
  0
LINE
  8
1
 62
2
 10
3116.773243167961
 20
770.053835627564
 30
0
 11
3079.254863757636
 21
770.053835627564
 31
0
  0
LINE
  8
1
 62
2
 10
3116.65752914347
 20
768.9538356275637
 30
0
 11
3079.254863757636
 21
768.9538356275637
 31
0
  0
LINE
  8
1
 62
2
 10
3116.597604103497
 20
767.5538356275636
 30
0
 11
3079.254863757636
 21
767.5538356275638
 31
0
  0
LINE
  8
1
 62
2
 10
3116.581022454915
 20
766.4538356275637
 30
0
 11
3079.254863757636
 21
766.4538356275637
 31
0
  0
LINE
  8
1
 62
2
 10
3116.581568272078
 20
765.0538356275636
 30
0
 11
3079.254863757636
 21
765.0538356275636
 31
0
  0
LINE
  8
1
 62
2
 10
3166.797071001585
 20
787.2538356275641
 30
0
 11
3165.997071001585
 21
787.2538356275641
 31
0
  0
LINE
  8
1
 62
2
 10
3166.797071001585
 20
784.2538356275641
 30
0
 11
3165.997071001585
 21
784.2538356275641
 31
0
  0
LINE
  8
1
 62
2
 10
3166.797071001585
 20
767.2538356275641
 30
0
 11
3165.997071001585
 21
767.2538356275641
 31
0
  0
LINE
  8
1
 62
2
 10
3166.797071001585
 20
764.2538356275641
 30
0
 11
3165.997071001585
 21
764.2538356275641
 31
0
  0
LINE
  8
1
 62
2
 10
3165.997071001585
 20
787.2538356275641
 30
0
 11
3165.997071001585
 21
784.2538356275641
 31
0
  0
LINE
  8
1
 62
2
 10
3165.997071001585
 20
767.2538356275641
 30
0
 11
3165.997071001585
 21
764.2538356275641
 31
0
  0
LINE
  8
1
 62
2
 10
3168.25796612898
 20
773.7538356275641
 30
0
 11
3167.75796612898
 21
774.2538356275641
 31
0
  0
LINE
  8
1
 62
2
 10
3168.25796612898
 20
772.7538356275641
 30
0
 11
3167.75796612898
 21
772.2538356275641
 31
0
  0
LINE
  8
1
 62
2
 10
3169.25796612898
 20
772.7538356275641
 30
0
 11
3169.75796612898
 21
772.2538356275641
 31
0
  0
LINE
  8
1
 62
2
 10
3169.75796612898
 20
774.2538356275641
 30
0
 11
3169.25796612898
 21
773.7538356275641
 31
0
  0
LINE
  8
1
 62
2
 10
3167.75796612898
 20
774.2538356275641
 30
0
 11
3169.75796612898
 21
774.2538356275641
 31
0
  0
LINE
  8
1
 62
2
 10
3167.75796612898
 20
772.2538356275641
 30
0
 11
3167.75796612898
 21
774.2538356275641
 31
0
  0
LINE
  8
1
 62
2
 10
3169.75796612898
 20
772.2538356275641
 30
0
 11
3167.75796612898
 21
772.2538356275641
 31
0
  0
LINE
  8
1
 62
2
 10
3169.75796612898
 20
774.2538356275641
 30
0
 11
3169.75796612898
 21
772.2538356275641
 31
0
  0
LINE
  8
1
 62
2
 10
3169.25796612898
 20
772.7538356275641
 30
0
 11
3168.25796612898
 21
772.7538356275641
 31
0
  0
LINE
  8
1
 62
2
 10
3169.25796612898
 20
773.7538356275641
 30
0
 11
3169.25796612898
 21
772.7538356275641
 31
0
  0
LINE
  8
1
 62
2
 10
3168.25796612898
 20
773.7538356275641
 30
0
 11
3169.25796612898
 21
773.7538356275641
 31
0
  0
LINE
  8
1
 62
2
 10
3168.25796612898
 20
772.7538356275641
 30
0
 11
3168.25796612898
 21
773.7538356275641
 31
0
  0
LINE
  8
1
 62
2
 10
3168.25796612898
 20
771.2538356275641
 30
0
 11
3167.75796612898
 21
771.7538356275641
 31
0
  0
LINE
  8
1
 62
2
 10
3168.25796612898
 20
770.2538356275641
 30
0
 11
3167.75796612898
 21
769.7538356275641
 31
0
  0
LINE
  8
1
 62
2
 10
3169.25796612898
 20
770.2538356275641
 30
0
 11
3169.75796612898
 21
769.7538356275641
 31
0
  0
LINE
  8
1
 62
2
 10
3169.75796612898
 20
771.7538356275641
 30
0
 11
3169.25796612898
 21
771.2538356275641
 31
0
  0
LINE
  8
1
 62
2
 10
3167.75796612898
 20
771.7538356275641
 30
0
 11
3169.75796612898
 21
771.7538356275641
 31
0
  0
LINE
  8
1
 62
2
 10
3167.75796612898
 20
769.7538356275641
 30
0
 11
3167.75796612898
 21
771.7538356275641
 31
0
  0
LINE
  8
1
 62
2
 10
3169.75796612898
 20
769.7538356275641
 30
0
 11
3167.75796612898
 21
769.7538356275641
 31
0
  0
LINE
  8
1
 62
2
 10
3169.75796612898
 20
771.7538356275641
 30
0
 11
3169.75796612898
 21
769.7538356275641
 31
0
  0
LINE
  8
1
 62
2
 10
3169.25796612898
 20
770.2538356275641
 30
0
 11
3168.25796612898
 21
770.2538356275641
 31
0
  0
LINE
  8
1
 62
2
 10
3169.25796612898
 20
771.2538356275641
 30
0
 11
3169.25796612898
 21
770.2538356275641
 31
0
  0
LINE
  8
1
 62
2
 10
3168.25796612898
 20
771.2538356275641
 30
0
 11
3169.25796612898
 21
771.2538356275641
 31
0
  0
LINE
  8
1
 62
2
 10
3168.25796612898
 20
770.2538356275641
 30
0
 11
3168.25796612898
 21
771.2538356275641
 31
0
  0
LINE
  8
1
 62
2
 10
3168.25796612898
 20
768.7538356275641
 30
0
 11
3167.75796612898
 21
769.2538356275641
 31
0
  0
LINE
  8
1
 62
2
 10
3168.25796612898
 20
767.7538356275641
 30
0
 11
3167.75796612898
 21
767.2538356275641
 31
0
  0
LINE
  8
1
 62
2
 10
3169.25796612898
 20
767.7538356275641
 30
0
 11
3169.75796612898
 21
767.2538356275641
 31
0
  0
LINE
  8
1
 62
2
 10
3169.75796612898
 20
769.2538356275641
 30
0
 11
3169.25796612898
 21
768.7538356275641
 31
0
  0
LINE
  8
1
 62
2
 10
3167.75796612898
 20
769.2538356275641
 30
0
 11
3169.75796612898
 21
769.2538356275641
 31
0
  0
LINE
  8
1
 62
2
 10
3167.75796612898
 20
767.2538356275641
 30
0
 11
3167.75796612898
 21
769.2538356275641
 31
0
  0
LINE
  8
1
 62
2
 10
3169.75796612898
 20
767.2538356275641
 30
0
 11
3167.75796612898
 21
767.2538356275641
 31
0
  0
LINE
  8
1
 62
2
 10
3169.75796612898
 20
769.2538356275641
 30
0
 11
3169.75796612898
 21
767.2538356275641
 31
0
  0
LINE
  8
1
 62
2
 10
3169.25796612898
 20
767.7538356275641
 30
0
 11
3168.25796612898
 21
767.7538356275641
 31
0
  0
LINE
  8
1
 62
2
 10
3169.25796612898
 20
768.7538356275641
 30
0
 11
3169.25796612898
 21
767.7538356275641
 31
0
  0
LINE
  8
1
 62
2
 10
3168.25796612898
 20
768.7538356275641
 30
0
 11
3169.25796612898
 21
768.7538356275641
 31
0
  0
LINE
  8
1
 62
2
 10
3168.25796612898
 20
767.7538356275641
 30
0
 11
3168.25796612898
 21
768.7538356275641
 31
0
  0
LINE
  8
1
 62
2
 10
3181.525608233063
 20
768.3875823346491
 30
0
 11
3211.265071188354
 21
768.3875823346491
 31
0
  0
LINE
  8
1
 62
2
 10
3181.525608233063
 20
763.3875823346491
 30
0
 11
3211.265071188354
 21
763.3875823346491
 31
0
  0
LINE
  8
1
 62
2
 10
3181.525608233063
 20
758.3875823346491
 30
0
 11
3211.265071188354
 21
758.3875823346491
 31
0
  0
LINE
  8
1
 62
3
 10
3225.817170631178
 20
838.3081082538898
 30
0
 11
3214.567170631178
 21
838.3081082538898
 31
0
  0
LINE
  8
1
 62
3
 10
3225.817170631178
 20
841.2081082538899
 30
0
 11
3214.567170631178
 21
841.2081082538899
 31
0
  0
LINE
  8
1
 62
3
 10
3214.567170631178
 20
828.7581082538901
 30
0
 11
3223.567170631178
 21
828.7581082538901
 31
0
  0
LINE
  8
1
 62
3
 10
3214.567170631178
 20
850.7581082538903
 30
0
 11
3223.567170631178
 21
850.7581082538903
 31
0
  0
LINE
  8
1
 62
3
 10
3181.567170631178
 20
811.3995127361937
 30
0
 11
3181.517170631179
 21
811.3995127361937
 31
0
  0
LINE
  8
1
 62
3
 10
3181.567170631178
 20
811.3995127361937
 30
0
 11
3183.167170631178
 21
811.3995127361937
 31
0
  0
LINE
  8
1
 62
3
 10
3183.217170631179
 20
811.3995127361937
 30
0
 11
3181.567170631178
 21
811.3995127361937
 31
0
  0
LINE
  8
1
 62
3
 10
3214.567170631178
 20
859.7581082538903
 30
0
 11
3227.567170631178
 21
859.7581082538903
 31
0
  0
LINE
  8
1
 62
3
 10
3227.567170631178
 20
819.7581082538901
 30
0
 11
3214.567170631178
 21
819.7581082538901
 31
0
  0
LINE
  8
1
 62
3
 10
3214.567170631178
 20
819.7581082538901
 30
0
 11
3214.567170631178
 21
859.7581082538903
 31
0
  0
LINE
  8
1
 62
1
  6
CENTER
 10
3222.167170631178
 20
855.7581082538903
 30
0
 11
3232.767170631179
 21
855.7581082538903
 31
0
  0
LINE
  8
1
 62
1
  6
CENTER
 10
3222.167170631178
 20
823.7581082538903
 30
0
 11
3232.767170631179
 21
823.7581082538903
 31
0
  0
LINE
  8
1
 62
1
  6
CENTER
 10
3172.567170631178
 20
814.7581082538901
 30
0
 11
3188.567170631178
 21
814.7581082538901
 31
0
  0
LINE
  8
1
 62
1
  6
CENTER
 10
3208.567170631178
 20
814.7581082538901
 30
0
 11
3219.567170631178
 21
814.7581082538901
 31
0
  0
LINE
  8
1
 62
3
 10
3174.567170631178
 20
811.6581082538902
 30
0
 11
3174.567170631178
 21
817.8581082538902
 31
0
  0
LINE
  8
1
 62
3
 10
3174.567170631178
 20
817.8581082538902
 30
0
 11
3179.567170631178
 21
817.8581082538902
 31
0
  0
LINE
  8
1
 62
3
 10
3183.367170631179
 20
811.6581082538902
 30
0
 11
3186.567170631178
 21
811.6581082538902
 31
0
  0
LINE
  8
1
 62
3
 10
3174.567170631178
 20
811.6581082538902
 30
0
 11
3181.367170631179
 21
811.6581082538902
 31
0
  0
LINE
  8
1
 62
3
 10
3174.567170631178
 20
818.9581082538902
 30
0
 11
3174.567170631178
 21
823.9581082538902
 31
0
  0
LINE
  8
1
 62
3
 10
3174.567170631178
 20
823.9581082538902
 30
0
 11
3177.567170631178
 21
823.9581082538902
 31
0
  0
LINE
  8
1
 62
3
 10
3179.567170631178
 20
818.9581082538902
 30
0
 11
3174.567170631178
 21
818.9581082538902
 31
0
  0
LINE
  8
1
 62
3
 10
3179.567170631178
 20
818.9581082538902
 30
0
 11
3179.567170631178
 21
811.7581082538899
 31
0
  0
LINE
  8
1
 62
3
 10
3179.567170631178
 20
811.7581082538899
 30
0
 11
3181.367170631179
 21
811.7581082538899
 31
0
  0
LINE
  8
1
 62
3
 10
3177.567170631178
 20
823.9581082538902
 30
0
 11
3177.567170631178
 21
861.5581082538901
 31
0
  0
LINE
  8
1
 62
3
 10
3181.567170631178
 20
859.7581082538901
 30
0
 11
3183.167170631178
 21
859.7581082538899
 31
0
  0
LINE
  8
1
 62
3
 10
3174.567170631178
 20
861.5581082538901
 30
0
 11
3177.567170631178
 21
861.5581082538901
 31
0
  0
LINE
  8
1
 62
3
 10
3186.567170631178
 20
867.7581082538901
 30
0
 11
3174.567170631178
 21
867.7581082538901
 31
0
  0
LINE
  8
1
 62
3
 10
3174.567170631178
 20
867.7581082538901
 30
0
 11
3174.567170631178
 21
861.5581082538901
 31
0
  0
LINE
  8
1
 62
3
 10
3181.567170631178
 20
811.7581082538899
 30
0
 11
3181.567170631178
 21
859.7581082538901
 31
0
  0
LINE
  8
1
 62
3
 10
3181.567170631178
 20
811.7581082538899
 30
0
 11
3181.567170631178
 21
811.7495127361937
 31
0
  0
LINE
  8
1
 62
3
 10
3186.567170631178
 20
818.4581082538899
 30
0
 11
3183.167170631178
 21
818.4581082538899
 31
0
  0
LINE
  8
1
 62
3
 10
3186.567170631178
 20
811.7581082538899
 30
0
 11
3186.567170631178
 21
818.4581082538899
 31
0
  0
LINE
  8
1
 62
3
 10
3183.167170631178
 20
818.4581082538899
 30
0
 11
3183.167170631178
 21
811.7581082538899
 31
0
  0
LINE
  8
1
 62
3
 10
3183.367170631179
 20
811.7581082538899
 30
0
 11
3186.567170631178
 21
811.7581082538899
 31
0
  0
LINE
  8
1
 62
3
 10
3181.567170631178
 20
859.7581082538901
 30
0
 11
3181.567170631178
 21
861.5581082538901
 31
0
  0
LINE
  8
1
 62
3
 10
3181.567170631178
 20
861.5581082538901
 30
0
 11
3186.567170631178
 21
861.5581082538901
 31
0
  0
LINE
  8
1
 62
3
 10
3186.567170631178
 20
861.5581082538901
 30
0
 11
3186.567170631178
 21
867.7581082538901
 31
0
  0
LINE
  8
1
 62
3
 10
3181.367170631179
 20
811.7581082538899
 30
0
 11
3181.367170631179
 21
811.5495127361938
 31
0
  0
LINE
  8
1
 62
3
 10
3183.167170631178
 20
811.9581082538902
 30
0
 11
3183.167170631178
 21
859.7581082538899
 31
0
  0
LINE
  8
1
 62
3
 10
3183.167170631178
 20
811.9581082538902
 30
0
 11
3181.567170631178
 21
811.9581082538902
 31
0
  0
LINE
  8
1
 62
3
 10
3183.167170631178
 20
859.7581082538899
 30
0
 11
3186.567170631178
 21
859.7581082538901
 31
0
  0
LINE
  8
1
 62
3
 10
3183.367170631179
 20
811.7581082538899
 30
0
 11
3183.367170631179
 21
811.5495127361938
 31
0
  0
LINE
  8
1
 62
3
 10
3183.167170631178
 20
811.7581082538899
 30
0
 11
3183.167170631178
 21
811.7495127361937
 31
0
  0
LINE
  8
1
 62
3
 10
3181.517170631179
 20
811.3995127361937
 30
0
 11
3183.217170631179
 21
811.3995127361937
 31
0
  0
LINE
  8
1
 62
3
 10
3183.017170631179
 20
811.5995127361936
 30
0
 11
3181.717170631179
 21
811.5995127361936
 31
0
  0
LINE
  8
1
 62
3
 10
3214.567170631178
 20
811.9581082538899
 30
0
 11
3216.679596093237
 21
811.9581082538899
 31
0
  0
LINE
  8
1
 62
3
 10
3214.567170631178
 20
813.0481082538901
 30
0
 11
3214.567170631178
 21
811.9581082538899
 31
0
  0
LINE
  8
1
 62
3
 10
3216.679596093237
 20
817.5581082538901
 30
0
 11
3214.567170631178
 21
817.5581082538901
 31
0
  0
LINE
  8
1
 62
3
 10
3217.392170631179
 20
814.3956082538899
 30
0
 11
3217.567170631178
 21
814.3956082538899
 31
0
  0
LINE
  8
1
 62
3
 10
3217.392170631179
 20
815.1206082538901
 30
0
 11
3217.392170631179
 21
814.3956082538899
 31
0
  0
LINE
  8
1
 62
3
 10
3217.567170631178
 20
815.1206082538901
 30
0
 11
3217.392170631179
 21
815.1206082538901
 31
0
  0
LINE
  8
1
 62
3
 10
3214.567170631178
 20
817.5581082538901
 30
0
 11
3214.567170631178
 21
816.4681082538901
 31
0
  0
LINE
  8
1
 62
3
 10
3214.567170631178
 20
816.4681082538901
 30
0
 11
3214.567170631178
 21
813.0481082538901
 31
0
  0
LINE
  8
1
 62
3
 10
3214.567170631178
 20
861.9581082538899
 30
0
 11
3216.679596093237
 21
861.9581082538899
 31
0
  0
LINE
  8
1
 62
3
 10
3214.567170631178
 20
863.0481082538901
 30
0
 11
3214.567170631178
 21
861.9581082538899
 31
0
  0
LINE
  8
1
 62
3
 10
3216.679596093237
 20
867.5581082538901
 30
0
 11
3214.567170631178
 21
867.5581082538901
 31
0
  0
LINE
  8
1
 62
3
 10
3217.392170631179
 20
864.3956082538899
 30
0
 11
3217.567170631178
 21
864.3956082538899
 31
0
  0
LINE
  8
1
 62
3
 10
3217.392170631179
 20
865.1206082538901
 30
0
 11
3217.392170631179
 21
864.3956082538899
 31
0
  0
LINE
  8
1
 62
3
 10
3217.567170631178
 20
865.1206082538901
 30
0
 11
3217.392170631179
 21
865.1206082538901
 31
0
  0
LINE
  8
1
 62
3
 10
3214.567170631178
 20
867.5581082538901
 30
0
 11
3214.567170631178
 21
866.4681082538901
 31
0
  0
LINE
  8
1
 62
3
 10
3214.567170631178
 20
866.4681082538901
 30
0
 11
3214.567170631178
 21
863.0481082538901
 31
0
  0
LINE
  8
1
 62
3
 10
3178.068452893256
 20
811.9581082538899
 30
0
 11
3179.567170631178
 21
811.9581082538899
 31
0
  0
LINE
  8
1
 62
3
 10
3179.567170631178
 20
811.9581082538899
 30
0
 11
3179.567170631178
 21
813.0481082538901
 31
0
  0
LINE
  8
1
 62
3
 10
3179.567170631178
 20
817.5581082538901
 30
0
 11
3178.068452893256
 21
817.5581082538901
 31
0
  0
LINE
  8
1
 62
3
 10
3177.180878355315
 20
814.3956082538899
 30
0
 11
3177.355878355315
 21
814.3956082538899
 31
0
  0
LINE
  8
1
 62
3
 10
3177.355878355315
 20
814.3956082538899
 30
0
 11
3177.355878355315
 21
815.1206082538901
 31
0
  0
LINE
  8
1
 62
3
 10
3177.355878355315
 20
815.1206082538901
 30
0
 11
3177.180878355315
 21
815.1206082538901
 31
0
  0
LINE
  8
1
 62
3
 10
3179.567170631178
 20
816.4681082538901
 30
0
 11
3179.567170631178
 21
817.5581082538901
 31
0
  0
LINE
  8
1
 62
3
 10
3179.567170631178
 20
813.0481082538901
 30
0
 11
3179.567170631178
 21
816.4681082538901
 31
0
  0
LINE
  8
1
 62
3
 10
3186.567170631178
 20
811.2581082538901
 30
0
 11
3212.567170631178
 21
811.2581082538901
 31
0
  0
LINE
  8
1
 62
3
 10
3186.567170631178
 20
868.2581082538901
 30
0
 11
3212.567170631178
 21
868.2581082538901
 31
0
  0
LINE
  8
1
 62
3
 10
3186.567170631178
 20
811.2581082538901
 30
0
 11
3186.567170631178
 21
868.2581082538901
 31
0
  0
LINE
  8
1
 62
3
 10
3212.567170631178
 20
811.2581082538901
 30
0
 11
3212.567170631178
 21
868.2581082538901
 31
0
  0
LINE
  8
1
 62
3
 10
3212.567170631178
 20
811.5581082538901
 30
0
 11
3214.567170631178
 21
811.5581082538901
 31
0
  0
LINE
  8
1
 62
3
 10
3212.567170631178
 20
867.9581082538899
 30
0
 11
3214.567170631178
 21
867.9581082538899
 31
0
  0
LINE
  8
1
 62
3
 10
3212.567170631178
 20
811.5581082538901
 30
0
 11
3212.567170631178
 21
867.9581082538899
 31
0
  0
LINE
  8
1
 62
3
 10
3214.567170631178
 20
811.5581082538901
 30
0
 11
3214.567170631178
 21
867.9581082538899
 31
0
  0
LINE
  8
1
 62
1
  6
CENTER
 10
3172.567170631178
 20
864.7581082538899
 30
0
 11
3188.567170631178
 21
864.7581082538899
 31
0
  0
LINE
  8
1
 62
1
  6
CENTER
 10
3208.567170631178
 20
864.7581082538899
 30
0
 11
3219.567170631178
 21
864.7581082538899
 31
0
  0
LINE
  8
1
 62
1
  6
CENTER
 10
3172.567170631178
 20
839.7581082538899
 30
0
 11
3233.410353891618
 21
839.7581082538899
 31
0
  0
LINE
  8
1
 62
3
 10
3335.341021988889
 20
744.8450626522123
 30
0
 11
3331.097311478244
 21
744.8450626522123
 31
0
  0
LINE
  8
1
 62
3
 10
3275.941021988888
 20
744.8450626522123
 30
0
 11
3278.441021988888
 21
744.8450626522123
 31
0
  0
LINE
  8
1
 62
2
 10
3316.773682707053
 20
747.8040431695691
 30
0
 11
3317.413682707052
 21
747.8040431695691
 31
0
  0
LINE
  8
1
 62
2
 10
3317.413682707052
 20
747.8040431695691
 30
0
 11
3317.413682707052
 21
743.5450626522126
 31
0
  0
LINE
  8
1
 62
2
 10
3316.773682707053
 20
747.8040431695691
 30
0
 11
3316.773682707053
 21
743.5450626522126
 31
0
  0
LINE
  8
1
 62
2
 10
3316.773682707053
 20
738.3450626522123
 30
0
 11
3317.413682707052
 21
738.3450626522123
 31
0
  0
LINE
  8
1
 62
2
 10
3317.413682707052
 20
738.3450626522123
 30
0
 11
3317.413682707052
 21
738.8450626522123
 31
0
  0
LINE
  8
1
 62
2
 10
3317.413682707052
 20
738.8450626522123
 30
0
 11
3316.773682707053
 21
738.8450626522123
 31
0
  0
LINE
  8
1
 62
2
 10
3316.773682707053
 20
738.8450626522123
 30
0
 11
3316.773682707053
 21
738.3450626522123
 31
0
  0
LINE
  8
1
 62
2
 10
3317.413682707052
 20
738.8450626522123
 30
0
 11
3317.893682707053
 21
739.8450626522123
 31
0
  0
LINE
  8
1
 62
2
 10
3316.773682707053
 20
738.8450626522123
 30
0
 11
3316.293682707053
 21
739.8450626522123
 31
0
  0
LINE
  8
1
 62
2
 10
3319.273682707053
 20
747.8040431695691
 30
0
 11
3319.913682707052
 21
747.8040431695691
 31
0
  0
LINE
  8
1
 62
2
 10
3319.913682707052
 20
747.8040431695691
 30
0
 11
3319.913682707052
 21
743.5450626522126
 31
0
  0
LINE
  8
1
 62
2
 10
3319.273682707053
 20
747.8040431695691
 30
0
 11
3319.273682707053
 21
743.5450626522126
 31
0
  0
LINE
  8
1
 62
2
 10
3319.273682707053
 20
738.3450626522123
 30
0
 11
3319.913682707052
 21
738.3450626522123
 31
0
  0
LINE
  8
1
 62
2
 10
3319.913682707052
 20
738.3450626522123
 30
0
 11
3319.913682707052
 21
738.8450626522123
 31
0
  0
LINE
  8
1
 62
2
 10
3319.913682707052
 20
738.8450626522123
 30
0
 11
3319.273682707053
 21
738.8450626522123
 31
0
  0
LINE
  8
1
 62
2
 10
3319.273682707053
 20
738.8450626522123
 30
0
 11
3319.273682707053
 21
738.3450626522123
 31
0
  0
LINE
  8
1
 62
2
 10
3319.913682707052
 20
738.8450626522123
 30
0
 11
3320.393682707053
 21
739.8450626522123
 31
0
  0
LINE
  8
1
 62
2
 10
3319.273682707053
 20
738.8450626522123
 30
0
 11
3318.793682707053
 21
739.8450626522123
 31
0
  0
LINE
  8
1
 62
2
 10
3311.89102198889
 20
742.9450626522126
 30
0
 11
3313.39102198889
 21
742.9450626522126
 31
0
  0
LINE
  8
1
 62
2
 10
3313.39102198889
 20
742.0450626522126
 30
0
 11
3313.39102198889
 21
742.9450626522126
 31
0
  0
LINE
  8
1
 62
2
 10
3311.89102198889
 20
742.0450626522126
 30
0
 11
3311.89102198889
 21
742.9450626522126
 31
0
  0
LINE
  8
1
 62
2
 10
3311.89102198889
 20
742.0450626522126
 30
0
 11
3313.39102198889
 21
742.0450626522126
 31
0
  0
LINE
  8
1
 62
2
 10
3313.39102198889
 20
741.4450626522126
 30
0
 11
3313.39102198889
 21
742.0450626522126
 31
0
  0
LINE
  8
1
 62
2
 10
3311.89102198889
 20
741.4450626522126
 30
0
 11
3311.89102198889
 21
742.0450626522126
 31
0
  0
LINE
  8
1
 62
2
 10
3311.79102198889
 20
741.4450626522126
 30
0
 11
3313.491021988889
 21
741.4450626522126
 31
0
  0
LINE
  8
1
 62
2
 10
3301.441021988888
 20
741.4450626522126
 30
0
 11
3301.441021988888
 21
748.5450626522126
 31
0
  0
LINE
  8
1
 62
2
 10
3278.441021988888
 20
741.4450626522126
 30
0
 11
3278.441021988888
 21
748.5450626522126
 31
0
  0
LINE
  8
1
 62
2
 10
3278.441021988888
 20
748.5450626522126
 30
0
 11
3301.441021988888
 21
748.5450626522126
 31
0
  0
LINE
  8
1
 62
2
 10
3278.441021988888
 20
741.4450626522126
 30
0
 11
3301.441021988888
 21
741.4450626522126
 31
0
  0
LINE
  8
1
 62
2
 10
3278.441021988888
 20
743.5450626522126
 30
0
 11
3301.441021988888
 21
743.5450626522126
 31
0
  0
LINE
  8
1
 62
2
 10
3300.26102198889
 20
743.5450626522126
 30
0
 11
3300.26102198889
 21
747.4450626522126
 31
0
  0
LINE
  8
1
 62
2
 10
3299.621021988889
 20
743.5450626522126
 30
0
 11
3299.621021988889
 21
747.4450626522126
 31
0
  0
LINE
  8
1
 62
2
 10
3299.621021988889
 20
747.4450626522126
 30
0
 11
3300.26102198889
 21
747.4450626522126
 31
0
  0
LINE
  8
1
 62
2
 10
3297.76102198889
 20
743.5450626522126
 30
0
 11
3297.76102198889
 21
747.4450626522126
 31
0
  0
LINE
  8
1
 62
2
 10
3297.121021988889
 20
743.5450626522126
 30
0
 11
3297.121021988889
 21
747.4450626522126
 31
0
  0
LINE
  8
1
 62
2
 10
3297.121021988889
 20
747.4450626522126
 30
0
 11
3297.76102198889
 21
747.4450626522126
 31
0
  0
LINE
  8
1
 62
2
 10
3295.26102198889
 20
743.5450626522126
 30
0
 11
3295.26102198889
 21
747.4450626522126
 31
0
  0
LINE
  8
1
 62
2
 10
3294.621021988889
 20
743.5450626522126
 30
0
 11
3294.621021988889
 21
747.4450626522126
 31
0
  0
LINE
  8
1
 62
2
 10
3294.621021988889
 20
747.4450626522126
 30
0
 11
3295.26102198889
 21
747.4450626522126
 31
0
  0
LINE
  8
1
 62
2
 10
3292.76102198889
 20
743.5450626522126
 30
0
 11
3292.76102198889
 21
747.4450626522126
 31
0
  0
LINE
  8
1
 62
2
 10
3292.121021988889
 20
743.5450626522126
 30
0
 11
3292.121021988889
 21
747.4450626522126
 31
0
  0
LINE
  8
1
 62
2
 10
3292.121021988889
 20
747.4450626522126
 30
0
 11
3292.76102198889
 21
747.4450626522126
 31
0
  0
LINE
  8
1
 62
2
 10
3290.26102198889
 20
743.5450626522126
 30
0
 11
3290.26102198889
 21
747.4450626522126
 31
0
  0
LINE
  8
1
 62
2
 10
3289.621021988889
 20
743.5450626522126
 30
0
 11
3289.621021988889
 21
747.4450626522126
 31
0
  0
LINE
  8
1
 62
2
 10
3289.621021988889
 20
747.4450626522126
 30
0
 11
3290.26102198889
 21
747.4450626522126
 31
0
  0
LINE
  8
1
 62
2
 10
3287.76102198889
 20
743.5450626522126
 30
0
 11
3287.76102198889
 21
747.4450626522126
 31
0
  0
LINE
  8
1
 62
2
 10
3287.121021988889
 20
743.5450626522126
 30
0
 11
3287.121021988889
 21
747.4450626522126
 31
0
  0
LINE
  8
1
 62
2
 10
3287.121021988889
 20
747.4450626522126
 30
0
 11
3287.76102198889
 21
747.4450626522126
 31
0
  0
LINE
  8
1
 62
2
 10
3285.26102198889
 20
743.5450626522126
 30
0
 11
3285.26102198889
 21
747.4450626522126
 31
0
  0
LINE
  8
1
 62
2
 10
3284.621021988889
 20
743.5450626522126
 30
0
 11
3284.621021988889
 21
747.4450626522126
 31
0
  0
LINE
  8
1
 62
2
 10
3284.621021988889
 20
747.4450626522126
 30
0
 11
3285.26102198889
 21
747.4450626522126
 31
0
  0
LINE
  8
1
 62
2
 10
3282.76102198889
 20
743.5450626522126
 30
0
 11
3282.76102198889
 21
747.4450626522126
 31
0
  0
LINE
  8
1
 62
2
 10
3282.121021988889
 20
743.5450626522126
 30
0
 11
3282.121021988889
 21
747.4450626522126
 31
0
  0
LINE
  8
1
 62
2
 10
3282.121021988889
 20
747.4450626522126
 30
0
 11
3282.76102198889
 21
747.4450626522126
 31
0
  0
LINE
  8
1
 62
2
 10
3280.26102198889
 20
743.5450626522126
 30
0
 11
3280.26102198889
 21
747.4450626522126
 31
0
  0
LINE
  8
1
 62
2
 10
3279.621021988889
 20
743.5450626522126
 30
0
 11
3279.621021988889
 21
747.4450626522126
 31
0
  0
LINE
  8
1
 62
2
 10
3279.621021988889
 20
747.4450626522126
 30
0
 11
3280.26102198889
 21
747.4450626522126
 31
0
  0
LINE
  8
1
 62
2
 10
3299.621021988889
 20
738.8450626522123
 30
0
 11
3299.14102198889
 21
739.8450626522123
 31
0
  0
LINE
  8
1
 62
2
 10
3300.26102198889
 20
738.8450626522123
 30
0
 11
3300.741021988889
 21
739.8450626522123
 31
0
  0
LINE
  8
1
 62
2
 10
3299.621021988889
 20
738.8450626522123
 30
0
 11
3299.621021988889
 21
738.3450626522123
 31
0
  0
LINE
  8
1
 62
2
 10
3300.26102198889
 20
738.8450626522123
 30
0
 11
3299.621021988889
 21
738.8450626522123
 31
0
  0
LINE
  8
1
 62
2
 10
3300.26102198889
 20
738.3450626522123
 30
0
 11
3300.26102198889
 21
738.8450626522123
 31
0
  0
LINE
  8
1
 62
2
 10
3299.621021988889
 20
738.3450626522123
 30
0
 11
3300.26102198889
 21
738.3450626522123
 31
0
  0
LINE
  8
1
 62
2
 10
3297.121021988889
 20
738.8450626522123
 30
0
 11
3296.64102198889
 21
739.8450626522123
 31
0
  0
LINE
  8
1
 62
2
 10
3297.76102198889
 20
738.8450626522123
 30
0
 11
3298.241021988889
 21
739.8450626522123
 31
0
  0
LINE
  8
1
 62
2
 10
3297.121021988889
 20
738.8450626522123
 30
0
 11
3297.121021988889
 21
738.3450626522123
 31
0
  0
LINE
  8
1
 62
2
 10
3297.76102198889
 20
738.8450626522123
 30
0
 11
3297.121021988889
 21
738.8450626522123
 31
0
  0
LINE
  8
1
 62
2
 10
3297.76102198889
 20
738.3450626522123
 30
0
 11
3297.76102198889
 21
738.8450626522123
 31
0
  0
LINE
  8
1
 62
2
 10
3297.121021988889
 20
738.3450626522123
 30
0
 11
3297.76102198889
 21
738.3450626522123
 31
0
  0
LINE
  8
1
 62
2
 10
3294.621021988889
 20
738.8450626522123
 30
0
 11
3294.14102198889
 21
739.8450626522123
 31
0
  0
LINE
  8
1
 62
2
 10
3295.26102198889
 20
738.8450626522123
 30
0
 11
3295.741021988889
 21
739.8450626522123
 31
0
  0
LINE
  8
1
 62
2
 10
3294.621021988889
 20
738.8450626522123
 30
0
 11
3294.621021988889
 21
738.3450626522123
 31
0
  0
LINE
  8
1
 62
2
 10
3295.26102198889
 20
738.8450626522123
 30
0
 11
3294.621021988889
 21
738.8450626522123
 31
0
  0
LINE
  8
1
 62
2
 10
3295.26102198889
 20
738.3450626522123
 30
0
 11
3295.26102198889
 21
738.8450626522123
 31
0
  0
LINE
  8
1
 62
2
 10
3294.621021988889
 20
738.3450626522123
 30
0
 11
3295.26102198889
 21
738.3450626522123
 31
0
  0
LINE
  8
1
 62
2
 10
3292.121021988889
 20
738.8450626522123
 30
0
 11
3291.64102198889
 21
739.8450626522123
 31
0
  0
LINE
  8
1
 62
2
 10
3292.76102198889
 20
738.8450626522123
 30
0
 11
3293.241021988889
 21
739.8450626522123
 31
0
  0
LINE
  8
1
 62
2
 10
3292.121021988889
 20
738.8450626522123
 30
0
 11
3292.121021988889
 21
738.3450626522123
 31
0
  0
LINE
  8
1
 62
2
 10
3292.76102198889
 20
738.8450626522123
 30
0
 11
3292.121021988889
 21
738.8450626522123
 31
0
  0
LINE
  8
1
 62
2
 10
3292.76102198889
 20
738.3450626522123
 30
0
 11
3292.76102198889
 21
738.8450626522123
 31
0
  0
LINE
  8
1
 62
2
 10
3292.121021988889
 20
738.3450626522123
 30
0
 11
3292.76102198889
 21
738.3450626522123
 31
0
  0
LINE
  8
1
 62
2
 10
3289.621021988889
 20
738.8450626522123
 30
0
 11
3289.14102198889
 21
739.8450626522123
 31
0
  0
LINE
  8
1
 62
2
 10
3290.26102198889
 20
738.8450626522123
 30
0
 11
3290.741021988889
 21
739.8450626522123
 31
0
  0
LINE
  8
1
 62
2
 10
3289.621021988889
 20
738.8450626522123
 30
0
 11
3289.621021988889
 21
738.3450626522123
 31
0
  0
LINE
  8
1
 62
2
 10
3290.26102198889
 20
738.8450626522123
 30
0
 11
3289.621021988889
 21
738.8450626522123
 31
0
  0
LINE
  8
1
 62
2
 10
3290.26102198889
 20
738.3450626522123
 30
0
 11
3290.26102198889
 21
738.8450626522123
 31
0
  0
LINE
  8
1
 62
2
 10
3289.621021988889
 20
738.3450626522123
 30
0
 11
3290.26102198889
 21
738.3450626522123
 31
0
  0
LINE
  8
1
 62
2
 10
3287.121021988889
 20
738.8450626522123
 30
0
 11
3286.64102198889
 21
739.8450626522123
 31
0
  0
LINE
  8
1
 62
2
 10
3287.76102198889
 20
738.8450626522123
 30
0
 11
3288.241021988889
 21
739.8450626522123
 31
0
  0
LINE
  8
1
 62
2
 10
3287.121021988889
 20
738.8450626522123
 30
0
 11
3287.121021988889
 21
738.3450626522123
 31
0
  0
LINE
  8
1
 62
2
 10
3287.76102198889
 20
738.8450626522123
 30
0
 11
3287.121021988889
 21
738.8450626522123
 31
0
  0
LINE
  8
1
 62
2
 10
3287.76102198889
 20
738.3450626522123
 30
0
 11
3287.76102198889
 21
738.8450626522123
 31
0
  0
LINE
  8
1
 62
2
 10
3287.121021988889
 20
738.3450626522123
 30
0
 11
3287.76102198889
 21
738.3450626522123
 31
0
  0
LINE
  8
1
 62
2
 10
3284.621021988889
 20
738.8450626522123
 30
0
 11
3284.14102198889
 21
739.8450626522123
 31
0
  0
LINE
  8
1
 62
2
 10
3285.26102198889
 20
738.8450626522123
 30
0
 11
3285.741021988889
 21
739.8450626522123
 31
0
  0
LINE
  8
1
 62
2
 10
3284.621021988889
 20
738.8450626522123
 30
0
 11
3284.621021988889
 21
738.3450626522123
 31
0
  0
LINE
  8
1
 62
2
 10
3285.26102198889
 20
738.8450626522123
 30
0
 11
3284.621021988889
 21
738.8450626522123
 31
0
  0
LINE
  8
1
 62
2
 10
3285.26102198889
 20
738.3450626522123
 30
0
 11
3285.26102198889
 21
738.8450626522123
 31
0
  0
LINE
  8
1
 62
2
 10
3284.621021988889
 20
738.3450626522123
 30
0
 11
3285.26102198889
 21
738.3450626522123
 31
0
  0
LINE
  8
1
 62
2
 10
3282.121021988889
 20
738.8450626522123
 30
0
 11
3281.64102198889
 21
739.8450626522123
 31
0
  0
LINE
  8
1
 62
2
 10
3282.76102198889
 20
738.8450626522123
 30
0
 11
3283.241021988889
 21
739.8450626522123
 31
0
  0
LINE
  8
1
 62
2
 10
3282.121021988889
 20
738.8450626522123
 30
0
 11
3282.121021988889
 21
738.3450626522123
 31
0
  0
LINE
  8
1
 62
2
 10
3282.76102198889
 20
738.8450626522123
 30
0
 11
3282.121021988889
 21
738.8450626522123
 31
0
  0
LINE
  8
1
 62
2
 10
3282.76102198889
 20
738.3450626522123
 30
0
 11
3282.76102198889
 21
738.8450626522123
 31
0
  0
LINE
  8
1
 62
2
 10
3282.121021988889
 20
738.3450626522123
 30
0
 11
3282.76102198889
 21
738.3450626522123
 31
0
  0
LINE
  8
1
 62
2
 10
3279.621021988889
 20
738.8450626522123
 30
0
 11
3279.14102198889
 21
739.8450626522123
 31
0
  0
LINE
  8
1
 62
2
 10
3280.26102198889
 20
738.8450626522123
 30
0
 11
3280.741021988889
 21
739.8450626522123
 31
0
  0
LINE
  8
1
 62
2
 10
3279.621021988889
 20
738.8450626522123
 30
0
 11
3279.621021988889
 21
738.3450626522123
 31
0
  0
LINE
  8
1
 62
2
 10
3280.26102198889
 20
738.8450626522123
 30
0
 11
3279.621021988889
 21
738.8450626522123
 31
0
  0
LINE
  8
1
 62
2
 10
3280.26102198889
 20
738.3450626522123
 30
0
 11
3280.26102198889
 21
738.8450626522123
 31
0
  0
LINE
  8
1
 62
2
 10
3279.621021988889
 20
738.3450626522123
 30
0
 11
3280.26102198889
 21
738.3450626522123
 31
0
  0
LINE
  8
1
 62
2
 10
3321.773682707053
 20
747.8040431695691
 30
0
 11
3322.413682707052
 21
747.8040431695691
 31
0
  0
LINE
  8
1
 62
2
 10
3322.413682707052
 20
747.8040431695691
 30
0
 11
3322.413682707052
 21
743.5450626522126
 31
0
  0
LINE
  8
1
 62
2
 10
3321.773682707053
 20
747.8040431695691
 30
0
 11
3321.773682707053
 21
743.5450626522126
 31
0
  0
LINE
  8
1
 62
2
 10
3324.273682707053
 20
747.8040431695691
 30
0
 11
3324.913682707052
 21
747.8040431695691
 31
0
  0
LINE
  8
1
 62
2
 10
3324.913682707052
 20
747.8040431695691
 30
0
 11
3324.913682707052
 21
743.5450626522126
 31
0
  0
LINE
  8
1
 62
2
 10
3324.273682707053
 20
747.8040431695691
 30
0
 11
3324.273682707053
 21
743.5450626522126
 31
0
  0
LINE
  8
1
 62
2
 10
3326.773682707053
 20
747.8040431695691
 30
0
 11
3327.413682707052
 21
747.8040431695691
 31
0
  0
LINE
  8
1
 62
2
 10
3327.413682707052
 20
747.8040431695691
 30
0
 11
3327.413682707052
 21
743.5450626522126
 31
0
  0
LINE
  8
1
 62
2
 10
3326.773682707053
 20
747.8040431695691
 30
0
 11
3326.773682707053
 21
743.5450626522126
 31
0
  0
LINE
  8
1
 62
2
 10
3329.273682707053
 20
747.8040431695691
 30
0
 11
3329.913682707052
 21
747.8040431695691
 31
0
  0
LINE
  8
1
 62
2
 10
3329.913682707052
 20
747.8040431695691
 30
0
 11
3329.913682707052
 21
743.5450626522126
 31
0
  0
LINE
  8
1
 62
2
 10
3329.273682707053
 20
747.8040431695691
 30
0
 11
3329.273682707053
 21
743.5450626522126
 31
0
  0
LINE
  8
1
 62
2
 10
3331.097311478244
 20
741.4450626522126
 30
0
 11
3315.593684707054
 21
741.4450626522126
 31
0
  0
LINE
  8
1
 62
2
 10
3315.593684707054
 20
743.5450626522126
 30
0
 11
3331.097311478244
 21
743.5450626522126
 31
0
  0
LINE
  8
1
 62
2
 10
3331.097311478244
 20
748.5450626522126
 30
0
 11
3315.593684707054
 21
748.5450626522126
 31
0
  0
LINE
  8
1
 62
2
 10
3331.097311478244
 20
748.5450626522126
 30
0
 11
3331.097311478244
 21
741.4450626522126
 31
0
  0
LINE
  8
1
 62
2
 10
3315.593684707054
 20
748.5450626522126
 30
0
 11
3315.593684707054
 21
741.4450626522126
 31
0
  0
LINE
  8
1
 62
2
 10
3321.773682707053
 20
738.3450626522123
 30
0
 11
3322.413682707052
 21
738.3450626522123
 31
0
  0
LINE
  8
1
 62
2
 10
3322.413682707052
 20
738.3450626522123
 30
0
 11
3322.413682707052
 21
738.8450626522123
 31
0
  0
LINE
  8
1
 62
2
 10
3322.413682707052
 20
738.8450626522123
 30
0
 11
3321.773682707053
 21
738.8450626522123
 31
0
  0
LINE
  8
1
 62
2
 10
3321.773682707053
 20
738.8450626522123
 30
0
 11
3321.773682707053
 21
738.3450626522123
 31
0
  0
LINE
  8
1
 62
2
 10
3322.413682707052
 20
738.8450626522123
 30
0
 11
3322.893682707053
 21
739.8450626522123
 31
0
  0
LINE
  8
1
 62
2
 10
3321.773682707053
 20
738.8450626522123
 30
0
 11
3321.293682707053
 21
739.8450626522123
 31
0
  0
LINE
  8
1
 62
2
 10
3324.273682707053
 20
738.3450626522123
 30
0
 11
3324.913682707052
 21
738.3450626522123
 31
0
  0
LINE
  8
1
 62
2
 10
3324.913682707052
 20
738.3450626522123
 30
0
 11
3324.913682707052
 21
738.8450626522123
 31
0
  0
LINE
  8
1
 62
2
 10
3324.913682707052
 20
738.8450626522123
 30
0
 11
3324.273682707053
 21
738.8450626522123
 31
0
  0
LINE
  8
1
 62
2
 10
3324.273682707053
 20
738.8450626522123
 30
0
 11
3324.273682707053
 21
738.3450626522123
 31
0
  0
LINE
  8
1
 62
2
 10
3324.913682707052
 20
738.8450626522123
 30
0
 11
3325.393682707053
 21
739.8450626522123
 31
0
  0
LINE
  8
1
 62
2
 10
3324.273682707053
 20
738.8450626522123
 30
0
 11
3323.793682707053
 21
739.8450626522123
 31
0
  0
LINE
  8
1
 62
2
 10
3326.773682707053
 20
738.3450626522123
 30
0
 11
3327.413682707052
 21
738.3450626522123
 31
0
  0
LINE
  8
1
 62
2
 10
3327.413682707052
 20
738.3450626522123
 30
0
 11
3327.413682707052
 21
738.8450626522123
 31
0
  0
LINE
  8
1
 62
2
 10
3327.413682707052
 20
738.8450626522123
 30
0
 11
3326.773682707053
 21
738.8450626522123
 31
0
  0
LINE
  8
1
 62
2
 10
3326.773682707053
 20
738.8450626522123
 30
0
 11
3326.773682707053
 21
738.3450626522123
 31
0
  0
LINE
  8
1
 62
2
 10
3327.413682707052
 20
738.8450626522123
 30
0
 11
3327.893682707053
 21
739.8450626522123
 31
0
  0
LINE
  8
1
 62
2
 10
3326.773682707053
 20
738.8450626522123
 30
0
 11
3326.293682707053
 21
739.8450626522123
 31
0
  0
LINE
  8
1
 62
2
 10
3329.273682707053
 20
738.3450626522123
 30
0
 11
3329.913682707052
 21
738.3450626522123
 31
0
  0
LINE
  8
1
 62
2
 10
3329.913682707052
 20
738.3450626522123
 30
0
 11
3329.913682707052
 21
738.8450626522123
 31
0
  0
LINE
  8
1
 62
2
 10
3329.913682707052
 20
738.8450626522123
 30
0
 11
3329.273682707053
 21
738.8450626522123
 31
0
  0
LINE
  8
1
 62
2
 10
3329.273682707053
 20
738.8450626522123
 30
0
 11
3329.273682707053
 21
738.3450626522123
 31
0
  0
LINE
  8
1
 62
2
 10
3329.913682707052
 20
738.8450626522123
 30
0
 11
3330.393682707053
 21
739.8450626522123
 31
0
  0
LINE
  8
1
 62
2
 10
3329.273682707053
 20
738.8450626522123
 30
0
 11
3328.793682707053
 21
739.8450626522123
 31
0
  0
LINE
  8
1
 62
2
 10
3309.246021988889
 20
741.4450626522126
 30
0
 11
3309.246021988889
 21
743.896476200133
 31
0
  0
LINE
  8
1
 62
2
 10
3303.03602198889
 20
741.4450626522126
 30
0
 11
3309.246021988889
 21
741.4450626522126
 31
0
  0
LINE
  8
1
 62
3
 10
3301.441021988888
 20
744.8450626522123
 30
0
 11
3315.593684707054
 21
744.8450626522123
 31
0
  0
LINE
  8
1
 62
2
 10
3303.03602198889
 20
743.896476200133
 30
0
 11
3309.246021988889
 21
743.896476200133
 31
0
  0
LINE
  8
1
 62
2
 10
3303.03602198889
 20
743.896476200133
 30
0
 11
3303.03602198889
 21
741.4450626522126
 31
0
  0
LINE
  8
1
 62
3
 10
3303.03602198889
 20
741.4450626522126
 30
0
 11
3309.246021988889
 21
741.4450626522126
 31
0
  0
LINE
  8
1
 62
3
 10
3276.095170264003
 20
867.4503167129157
 30
0
 11
3335.187082787471
 21
867.4503167129161
 31
0
  0
LINE
  8
1
 62
3
 10
3276.060813896139
 20
811.8503237129158
 30
0
 11
3335.230738270673
 21
811.8503237129158
 31
0
  0
LINE
  8
1
 62
2
 10
3316.890271983621
 20
815.7648531428209
 30
0
 11
3316.890271983621
 21
815.1248531428211
 31
0
  0
LINE
  8
1
 62
2
 10
3317.530271983622
 20
815.7648531428209
 30
0
 11
3317.530271983622
 21
815.1248531428211
 31
0
  0
LINE
  8
1
 62
2
 10
3316.890271983621
 20
815.7648531428209
 30
0
 11
3317.530271983622
 21
815.7648531428209
 31
0
  0
LINE
  8
1
 62
2
 10
3316.890271983621
 20
815.1248531428211
 30
0
 11
3317.530271983622
 21
815.1248531428211
 31
0
  0
LINE
  8
1
 62
2
 10
3319.390271983621
 20
815.7648531428209
 30
0
 11
3319.390271983621
 21
815.1248531428211
 31
0
  0
LINE
  8
1
 62
2
 10
3320.030271983622
 20
815.7648531428209
 30
0
 11
3320.030271983622
 21
815.1248531428211
 31
0
  0
LINE
  8
1
 62
2
 10
3319.390271983621
 20
815.7648531428209
 30
0
 11
3320.030271983622
 21
815.7648531428209
 31
0
  0
LINE
  8
1
 62
2
 10
3319.390271983621
 20
815.1248531428211
 30
0
 11
3320.030271983622
 21
815.1248531428211
 31
0
  0
LINE
  8
1
 62
2
 10
3279.417611265457
 20
815.8081082538903
 30
0
 11
3280.057611265459
 21
815.8081082538903
 31
0
  0
LINE
  8
1
 62
2
 10
3281.917611265457
 20
815.8081082538903
 30
0
 11
3282.557611265459
 21
815.8081082538903
 31
0
  0
LINE
  8
1
 62
2
 10
3284.417611265457
 20
815.8081082538903
 30
0
 11
3285.057611265459
 21
815.8081082538903
 31
0
  0
LINE
  8
1
 62
2
 10
3286.917611265457
 20
815.8081082538903
 30
0
 11
3287.557611265459
 21
815.8081082538903
 31
0
  0
LINE
  8
1
 62
2
 10
3289.417611265457
 20
815.8081082538903
 30
0
 11
3290.057611265459
 21
815.8081082538903
 31
0
  0
LINE
  8
1
 62
2
 10
3291.917611265457
 20
815.8081082538903
 30
0
 11
3292.557611265459
 21
815.8081082538903
 31
0
  0
LINE
  8
1
 62
2
 10
3294.417611265457
 20
815.8081082538903
 30
0
 11
3295.057611265459
 21
815.8081082538903
 31
0
  0
LINE
  8
1
 62
2
 10
3296.917611265457
 20
815.8081082538903
 30
0
 11
3297.557611265459
 21
815.8081082538903
 31
0
  0
LINE
  8
1
 62
2
 10
3299.417611265457
 20
815.8081082538903
 30
0
 11
3300.057611265459
 21
815.8081082538903
 31
0
  0
LINE
  8
1
 62
2
 10
3300.057611265459
 20
815.16810825389
 30
0
 11
3299.417611265457
 21
815.16810825389
 31
0
  0
LINE
  8
1
 62
2
 10
3297.557611265459
 20
815.16810825389
 30
0
 11
3296.917611265457
 21
815.16810825389
 31
0
  0
LINE
  8
1
 62
2
 10
3295.057611265459
 20
815.16810825389
 30
0
 11
3294.417611265457
 21
815.16810825389
 31
0
  0
LINE
  8
1
 62
2
 10
3292.557611265459
 20
815.16810825389
 30
0
 11
3291.917611265457
 21
815.16810825389
 31
0
  0
LINE
  8
1
 62
2
 10
3290.057611265459
 20
815.16810825389
 30
0
 11
3289.417611265457
 21
815.16810825389
 31
0
  0
LINE
  8
1
 62
2
 10
3287.557611265459
 20
815.16810825389
 30
0
 11
3286.917611265457
 21
815.16810825389
 31
0
  0
LINE
  8
1
 62
2
 10
3285.057611265459
 20
815.16810825389
 30
0
 11
3284.417611265457
 21
815.16810825389
 31
0
  0
LINE
  8
1
 62
2
 10
3282.557611265459
 20
815.16810825389
 30
0
 11
3281.917611265457
 21
815.16810825389
 31
0
  0
LINE
  8
1
 62
2
 10
3280.057611265459
 20
815.16810825389
 30
0
 11
3279.417611265457
 21
815.16810825389
 31
0
  0
LINE
  8
1
 62
2
 10
3279.417611265457
 20
815.8081082538903
 30
0
 11
3279.417611265457
 21
815.16810825389
 31
0
  0
LINE
  8
1
 62
2
 10
3280.057611265459
 20
815.8081082538903
 30
0
 11
3280.057611265459
 21
815.16810825389
 31
0
  0
LINE
  8
1
 62
2
 10
3281.917611265457
 20
815.8081082538903
 30
0
 11
3281.917611265457
 21
815.16810825389
 31
0
  0
LINE
  8
1
 62
2
 10
3282.557611265459
 20
815.8081082538903
 30
0
 11
3282.557611265459
 21
815.16810825389
 31
0
  0
LINE
  8
1
 62
2
 10
3284.417611265457
 20
815.8081082538903
 30
0
 11
3284.417611265457
 21
815.16810825389
 31
0
  0
LINE
  8
1
 62
2
 10
3285.057611265459
 20
815.8081082538903
 30
0
 11
3285.057611265459
 21
815.16810825389
 31
0
  0
LINE
  8
1
 62
2
 10
3286.917611265457
 20
815.8081082538903
 30
0
 11
3286.917611265457
 21
815.16810825389
 31
0
  0
LINE
  8
1
 62
2
 10
3289.417611265457
 20
815.8081082538903
 30
0
 11
3289.417611265457
 21
815.16810825389
 31
0
  0
LINE
  8
1
 62
2
 10
3290.057611265459
 20
815.8081082538903
 30
0
 11
3290.057611265459
 21
815.16810825389
 31
0
  0
LINE
  8
1
 62
2
 10
3291.917611265457
 20
815.8081082538903
 30
0
 11
3291.917611265457
 21
815.16810825389
 31
0
  0
LINE
  8
1
 62
2
 10
3292.557611265459
 20
815.8081082538903
 30
0
 11
3292.557611265459
 21
815.16810825389
 31
0
  0
LINE
  8
1
 62
2
 10
3294.417611265457
 20
815.8081082538903
 30
0
 11
3294.417611265457
 21
815.16810825389
 31
0
  0
LINE
  8
1
 62
2
 10
3295.057611265459
 20
815.8081082538903
 30
0
 11
3295.057611265459
 21
815.16810825389
 31
0
  0
LINE
  8
1
 62
2
 10
3296.917611265457
 20
815.8081082538903
 30
0
 11
3296.917611265457
 21
815.16810825389
 31
0
  0
LINE
  8
1
 62
2
 10
3299.417611265457
 20
815.8081082538903
 30
0
 11
3299.417611265457
 21
815.16810825389
 31
0
  0
LINE
  8
1
 62
2
 10
3300.057611265459
 20
815.8081082538903
 30
0
 11
3300.057611265459
 21
815.16810825389
 31
0
  0
LINE
  8
1
 62
2
 10
3297.557611265459
 20
815.8081082538903
 30
0
 11
3297.557611265459
 21
815.16810825389
 31
0
  0
LINE
  8
1
 62
2
 10
3287.557611265459
 20
815.8081082538903
 30
0
 11
3287.557611265459
 21
815.16810825389
 31
0
  0
LINE
  8
1
 62
2
 10
3279.417611265457
 20
815.8081082538903
 30
0
 11
3280.057611265459
 21
815.16810825389
 31
0
  0
LINE
  8
1
 62
2
 10
3279.417611265457
 20
815.16810825389
 30
0
 11
3280.057611265459
 21
815.8081082538903
 31
0
  0
LINE
  8
1
 62
2
 10
3281.917611265457
 20
815.16810825389
 30
0
 11
3282.557611265459
 21
815.8081082538903
 31
0
  0
LINE
  8
1
 62
2
 10
3281.917611265457
 20
815.8081082538903
 30
0
 11
3282.557611265459
 21
815.16810825389
 31
0
  0
LINE
  8
1
 62
2
 10
3284.417611265457
 20
815.8081082538903
 30
0
 11
3285.057611265459
 21
815.16810825389
 31
0
  0
LINE
  8
1
 62
2
 10
3284.417611265457
 20
815.16810825389
 30
0
 11
3285.057611265459
 21
815.8081082538903
 31
0
  0
LINE
  8
1
 62
2
 10
3286.917611265457
 20
815.8081082538903
 30
0
 11
3287.557611265459
 21
815.16810825389
 31
0
  0
LINE
  8
1
 62
2
 10
3286.917611265457
 20
815.16810825389
 30
0
 11
3287.557611265459
 21
815.8081082538903
 31
0
  0
LINE
  8
1
 62
2
 10
3289.417611265457
 20
815.8081082538903
 30
0
 11
3290.057611265459
 21
815.16810825389
 31
0
  0
LINE
  8
1
 62
2
 10
3289.417611265457
 20
815.16810825389
 30
0
 11
3290.057611265459
 21
815.8081082538903
 31
0
  0
LINE
  8
1
 62
2
 10
3291.917611265457
 20
815.8081082538903
 30
0
 11
3292.557611265459
 21
815.16810825389
 31
0
  0
LINE
  8
1
 62
2
 10
3292.557611265459
 20
815.8081082538903
 30
0
 11
3291.917611265457
 21
815.16810825389
 31
0
  0
LINE
  8
1
 62
2
 10
3294.417611265457
 20
815.8081082538903
 30
0
 11
3295.057611265459
 21
815.16810825389
 31
0
  0
LINE
  8
1
 62
2
 10
3294.417611265457
 20
815.16810825389
 30
0
 11
3295.057611265459
 21
815.8081082538903
 31
0
  0
LINE
  8
1
 62
2
 10
3296.917611265457
 20
815.8081082538903
 30
0
 11
3297.557611265459
 21
815.16810825389
 31
0
  0
LINE
  8
1
 62
2
 10
3297.557611265459
 20
815.8081082538903
 30
0
 11
3296.917611265457
 21
815.16810825389
 31
0
  0
LINE
  8
1
 62
2
 10
3299.417611265457
 20
815.8081082538903
 30
0
 11
3300.057611265459
 21
815.16810825389
 31
0
  0
LINE
  8
1
 62
2
 10
3299.417611265457
 20
815.16810825389
 30
0
 11
3300.057611265459
 21
815.8081082538903
 31
0
  0
LINE
  8
1
 62
2
 10
3301.237611265458
 20
818.4881082538901
 30
0
 11
3301.237611265458
 21
812.4881082538901
 31
0
  0
LINE
  8
1
 62
2
 10
3278.237611265458
 20
818.4881082538901
 30
0
 11
3278.237611265458
 21
812.4881082538901
 31
0
  0
LINE
  8
1
 62
2
 10
3278.237611265458
 20
817.4881082538901
 30
0
 11
3301.237611265458
 21
817.4881082538901
 31
0
  0
LINE
  8
1
 62
2
 10
3278.237611265458
 20
818.4881082538901
 30
0
 11
3301.237611265458
 21
818.4881082538901
 31
0
  0
LINE
  8
1
 62
2
 10
3278.237611265458
 20
812.4881082538901
 30
0
 11
3301.237611265458
 21
812.4881082538901
 31
0
  0
LINE
  8
1
 62
2
 10
3315.710273983623
 20
818.514852142821
 30
0
 11
3331.210271983622
 21
818.514852142821
 31
0
  0
LINE
  8
1
 62
2
 10
3315.710273983623
 20
812.514852142821
 30
0
 11
3331.210271983622
 21
812.514852142821
 31
0
  0
LINE
  8
1
 62
2
 10
3331.210271983622
 20
818.514852142821
 30
0
 11
3331.210271983622
 21
812.514852142821
 31
0
  0
LINE
  8
1
 62
2
 10
3315.710273983623
 20
818.514852142821
 30
0
 11
3315.710273983623
 21
812.514852142821
 31
0
  0
LINE
  8
1
 62
2
 10
3331.210271983622
 20
817.514852142821
 30
0
 11
3315.710273983623
 21
817.514852142821
 31
0
  0
LINE
  8
1
 62
2
 10
3329.390271983621
 20
815.7648531428209
 30
0
 11
3329.390271983621
 21
815.1248531428211
 31
0
  0
LINE
  8
1
 62
2
 10
3330.030271983622
 20
815.7648531428209
 30
0
 11
3330.030271983622
 21
815.1248531428211
 31
0
  0
LINE
  8
1
 62
2
 10
3329.390271983621
 20
815.7648531428209
 30
0
 11
3330.030271983622
 21
815.7648531428209
 31
0
  0
LINE
  8
1
 62
2
 10
3329.390271983621
 20
815.1248531428211
 30
0
 11
3330.030271983622
 21
815.1248531428211
 31
0
  0
LINE
  8
1
 62
2
 10
3326.890271983621
 20
815.7648531428209
 30
0
 11
3326.890271983621
 21
815.1248531428211
 31
0
  0
LINE
  8
1
 62
2
 10
3327.530271983622
 20
815.7648531428209
 30
0
 11
3327.530271983622
 21
815.1248531428211
 31
0
  0
LINE
  8
1
 62
2
 10
3326.890271983621
 20
815.7648531428209
 30
0
 11
3327.530271983622
 21
815.7648531428209
 31
0
  0
LINE
  8
1
 62
2
 10
3326.890271983621
 20
815.1248531428211
 30
0
 11
3327.530271983622
 21
815.1248531428211
 31
0
  0
LINE
  8
1
 62
2
 10
3321.890271983621
 20
815.7648531428209
 30
0
 11
3321.890271983621
 21
815.1248531428211
 31
0
  0
LINE
  8
1
 62
2
 10
3322.530271983622
 20
815.7648531428209
 30
0
 11
3322.530271983622
 21
815.1248531428211
 31
0
  0
LINE
  8
1
 62
2
 10
3321.890271983621
 20
815.7648531428209
 30
0
 11
3322.530271983622
 21
815.7648531428209
 31
0
  0
LINE
  8
1
 62
2
 10
3321.890271983621
 20
815.1248531428211
 30
0
 11
3322.530271983622
 21
815.1248531428211
 31
0
  0
LINE
  8
1
 62
2
 10
3324.390271983621
 20
815.7648531428209
 30
0
 11
3324.390271983621
 21
815.1248531428211
 31
0
  0
LINE
  8
1
 62
2
 10
3325.030271983622
 20
815.7648531428209
 30
0
 11
3325.030271983622
 21
815.1248531428211
 31
0
  0
LINE
  8
1
 62
2
 10
3324.390271983621
 20
815.7648531428209
 30
0
 11
3325.030271983622
 21
815.7648531428209
 31
0
  0
LINE
  8
1
 62
2
 10
3324.390271983621
 20
815.1248531428211
 30
0
 11
3325.030271983622
 21
815.1248531428211
 31
0
  0
LINE
  8
1
 62
3
 10
3223.567170631178
 20
838.3081082538898
 30
0
 11
3223.567170631178
 21
819.7581082538901
 31
0
  0
LINE
  8
1
 62
3
 10
3225.817170631178
 20
838.3081082538898
 30
0
 11
3225.817170631178
 21
841.2081082538899
 31
0
  0
LINE
  8
1
 62
3
 10
3283.611509262693
 20
838.8081082538901
 30
0
 11
3283.611509262693
 21
840.7081082538899
 31
0
  0
LINE
  8
1
 62
3
 10
3284.75855263405
 20
838.3081082538901
 30
0
 11
3284.111509262693
 21
838.3081082538901
 31
0
  0
LINE
  8
1
 62
3
 10
3284.111509262693
 20
841.2081082538899
 30
0
 11
3284.75855263405
 21
841.2081082538899
 31
0
  0
LINE
  8
1
 62
2
 10
3283.811509262693
 20
839.0081082538901
 30
0
 11
3283.811509262693
 21
840.5081082538901
 31
0
  0
LINE
  8
1
 62
2
 10
3284.55855263405
 20
838.5081082538901
 30
0
 11
3284.311509262693
 21
838.5081082538901
 31
0
  0
LINE
  8
1
 62
2
 10
3284.311509262693
 20
841.0081082538901
 30
0
 11
3284.55855263405
 21
841.0081082538901
 31
0
  0
LINE
  8
1
 62
3
 10
3283.811509262693
 20
783.8695231307396
 30
0
 11
3284.938876413874
 21
783.8695231307396
 31
0
  0
LINE
  8
1
 62
3
 10
3283.611509262693
 20
783.8695231307396
 30
0
 11
3283.611509262693
 21
772.8450626522123
 31
0
  0
LINE
  8
1
 62
3
 10
3285.108380360378
 20
783.8695231307396
 30
0
 11
3285.108380360378
 21
772.8450626522123
 31
0
  0
LINE
  8
1
 62
3
 10
3283.811509262693
 20
783.8695231307396
 30
0
 11
3283.611509262693
 21
783.8695231307396
 31
0
  0
LINE
  8
1
 62
3
 10
3284.938876413874
 20
783.8695231307396
 30
0
 11
3285.108380360378
 21
783.8695231307396
 31
0
  0
LINE
  8
1
 62
7
 10
3331.184778241591
 20
860.4581082538899
 30
0
 11
3331.184778241591
 21
864.7581082538899
 31
0
  0
LINE
  8
1
 62
2
 10
3300.60425855814
 20
845.7104763809169
 30
0
 11
3300.60425855814
 21
847.2104763809169
 31
0
  0
LINE
  8
1
 62
2
 10
3298.765695648505
 20
845.7104763809169
 30
0
 11
3298.765695648505
 21
847.2104763809169
 31
0
  0
LINE
  8
1
 62
2
 10
3298.765695648505
 20
846.9604763809169
 30
0
 11
3300.60425855814
 21
846.9604763809169
 31
0
  0
LINE
  8
1
 62
2
 10
3298.765695648505
 20
845.9604763809169
 30
0
 11
3300.60425855814
 21
845.9604763809169
 31
0
  0
LINE
  8
1
 62
2
 10
3298.765695648505
 20
846.4604763809169
 30
0
 11
3300.60425855814
 21
846.4604763809169
 31
0
  0
LINE
  8
1
 62
2
 10
3323.160890404247
 20
860.4581082538899
 30
0
 11
3315.434387089813
 21
860.4581082538899
 31
0
  0
LINE
  8
1
 62
2
 10
3288.121153573532
 20
860.4581082538899
 30
0
 11
3276.841021988889
 21
860.4581082538899
 31
0
  0
LINE
  8
1
 62
2
 10
3323.160890404246
 20
819.0581082538901
 30
0
 11
3334.441021988888
 21
819.0581082538901
 31
0
  0
LINE
  8
1
 62
2
 10
3287.355107209878
 20
819.0581082538901
 30
0
 11
3295.081610524311
 21
819.0581082538901
 31
0
  0
LINE
  8
1
 62
2
 10
3295.847656887965
 20
819.0581082538901
 30
0
 11
3323.160890404246
 21
819.0581082538901
 31
0
  0
LINE
  8
1
 62
2
 10
3295.847656887965
 20
860.4581082538899
 30
0
 11
3288.121153573532
 21
860.4581082538899
 31
0
  0
LINE
  8
1
 62
2
 10
3315.434387089813
 20
860.4581082538899
 30
0
 11
3295.847656887965
 21
860.4581082538899
 31
0
  0
LINE
  8
1
 62
7
 10
3299.884778241592
 20
860.9917056392061
 30
0
 11
3299.884778241592
 21
864.7581082538899
 31
0
  0
LINE
  8
1
 62
3
 10
3284.915636190291
 20
785.1904524521914
 30
0
 11
3285.641021988889
 21
785.333176497389
 31
0
  0
LINE
  8
1
 62
3
 10
3284.915636190291
 20
785.1904524521914
 30
0
 11
3285.641021988889
 21
785.333176497389
 31
0
  0
LINE
  8
1
 62
3
 10
3285.641021988889
 20
772.8450626522123
 30
0
 11
3285.641021988889
 21
785.8450626522123
 31
0
  0
LINE
  8
1
 62
2
 10
3225.817170631178
 20
838.5081082538899
 30
0
 11
3225.817170631178
 21
836.7581082538903
 31
0
  0
LINE
  8
1
 62
3
 10
3226.442170631178
 20
838.5081082538899
 30
0
 11
3225.817170631178
 21
838.5081082538899
 31
0
  0
LINE
  8
1
 62
3
 10
3226.442170631178
 20
839.7581082538899
 30
0
 11
3225.817170631178
 21
839.7581082538899
 31
0
  0
LINE
  8
1
 62
3
 10
3226.442170631178
 20
841.0081082538901
 30
0
 11
3225.817170631178
 21
841.0081082538901
 31
0
  0
LINE
  8
1
 62
2
 10
3225.817170631178
 20
842.7581082538903
 30
0
 11
3225.817170631178
 21
841.0081082538901
 31
0
  0
LINE
  8
1
 62
2
 10
3227.067170631178
 20
839.0081082538899
 30
0
 11
3227.067170631178
 21
836.7581082538903
 31
0
  0
LINE
  8
1
 62
2
 10
3227.067170631178
 20
842.7581082538903
 30
0
 11
3227.067170631178
 21
840.5081082538903
 31
0
  0
LINE
  8
1
 62
2
 10
3225.817170631178
 20
836.7581082538903
 30
0
 11
3227.067170631178
 21
836.7581082538903
 31
0
  0
LINE
  8
1
 62
2
 10
3225.817170631178
 20
837.2581082538903
 30
0
 11
3227.067170631178
 21
837.2581082538903
 31
0
  0
LINE
  8
1
 62
2
 10
3225.817170631178
 20
842.7581082538903
 30
0
 11
3227.067170631178
 21
842.7581082538903
 31
0
  0
LINE
  8
1
 62
2
 10
3225.817170631178
 20
842.2581082538903
 30
0
 11
3227.067170631178
 21
842.2581082538903
 31
0
  0
LINE
  8
1
 62
2
 10
3227.067170631178
 20
839.0081082538899
 30
0
 11
3227.567170631178
 21
839.0081082538899
 31
0
  0
LINE
  8
1
 62
2
 10
3227.067170631178
 20
840.5081082538903
 30
0
 11
3227.567170631178
 21
840.5081082538903
 31
0
  0
LINE
  8
1
 62
3
 10
3383.640582998808
 20
834.7581082538899
 30
0
 11
3392.640582998808
 21
834.7581082538899
 31
0
  0
LINE
  8
1
 62
3
 10
3383.640582998808
 20
844.7581082538899
 30
0
 11
3392.640582998808
 21
844.7581082538899
 31
0
  0
LINE
  8
1
 62
3
 10
3383.640582998808
 20
828.7581082538901
 30
0
 11
3392.640582998808
 21
828.7581082538901
 31
0
  0
LINE
  8
1
 62
3
 10
3383.640582998808
 20
850.7581082538903
 30
0
 11
3392.640582998808
 21
850.7581082538903
 31
0
  0
LINE
  8
1
 62
1
  6
CENTER
 10
3321.641021988889
 20
859.2581082538899
 30
0
 11
3321.641021988889
 21
852.2581082538899
 31
0
  0
LINE
  8
1
 62
1
  6
CENTER
 10
3318.141021988889
 20
855.7581082538899
 30
0
 11
3325.141021988889
 21
855.7581082538899
 31
0
  0
LINE
  8
1
 62
1
  6
CENTER
 10
3289.641021988889
 20
859.2581082538899
 30
0
 11
3289.641021988889
 21
852.2581082538899
 31
0
  0
LINE
  8
1
 62
1
  6
CENTER
 10
3286.141021988889
 20
855.7581082538899
 30
0
 11
3293.141021988889
 21
855.7581082538899
 31
0
  0
LINE
  8
1
 62
1
  6
CENTER
 10
3321.641021988889
 20
827.2581082538899
 30
0
 11
3321.641021988889
 21
820.2581082538899
 31
0
  0
LINE
  8
1
 62
1
  6
CENTER
 10
3318.141021988889
 20
823.7581082538899
 30
0
 11
3325.141021988889
 21
823.7581082538899
 31
0
  0
LINE
  8
1
 62
1
  6
CENTER
 10
3289.641021988889
 20
827.2581082538899
 30
0
 11
3289.641021988889
 21
820.2581082538899
 31
0
  0
LINE
  8
1
 62
1
  6
CENTER
 10
3286.141021988889
 20
823.7581082538899
 30
0
 11
3293.141021988889
 21
823.7581082538899
 31
0
  0
LINE
  8
1
 62
3
 10
3424.040582998809
 20
811.7581082538901
 30
0
 11
3425.640582998808
 21
811.7581082538901
 31
0
  0
LINE
  8
1
 62
1
  6
CENTER
 10
3272.641021988889
 20
867.1684044992454
 30
0
 11
3272.641021988889
 21
862.3591020746716
 31
0
  0
LINE
  8
1
 62
1
  6
CENTER
 10
3270.257303222583
 20
864.7581082538901
 30
0
 11
3275.148956716071
 21
864.7581082538901
 31
0
  0
LINE
  8
1
 62
1
 10
3272.641021988889
 20
817.1684044992454
 30
0
 11
3272.641021988889
 21
812.3591020746713
 31
0
  0
LINE
  8
1
 62
1
 10
3270.257303222583
 20
814.7581082538901
 30
0
 11
3275.148956716071
 21
814.7581082538901
 31
0
  0
LINE
  8
1
 62
1
  6
CENTER
 10
3338.641021988889
 20
817.1684044992454
 30
0
 11
3338.641021988889
 21
812.3591020746713
 31
0
  0
LINE
  8
1
 62
1
  6
CENTER
 10
3336.257303222583
 20
814.7581082538901
 30
0
 11
3341.148956716071
 21
814.7581082538901
 31
0
  0
LINE
  8
1
 62
1
  6
CENTER
 10
3338.641021988889
 20
867.1684044992454
 30
0
 11
3338.641021988889
 21
862.3591020746716
 31
0
  0
LINE
  8
1
 62
1
  6
CENTER
 10
3336.257303222583
 20
864.7581082538901
 30
0
 11
3341.148956716071
 21
864.7581082538901
 31
0
  0
LINE
  8
1
 62
2
 10
3269.441021988888
 20
812.5581082538901
 30
0
 11
3269.441021988888
 21
866.9581082538899
 31
0
  0
LINE
  8
1
 62
2
 10
3270.441021988888
 20
811.5581082538901
 30
0
 11
3274.841021988889
 21
811.5581082538901
 31
0
  0
LINE
  8
1
 62
2
 10
3341.841021988888
 20
866.9581082538899
 30
0
 11
3341.841021988888
 21
812.5581082538901
 31
0
  0
LINE
  8
1
 62
2
 10
3276.841021988889
 20
819.0581082538901
 30
0
 11
3288.121153573532
 21
819.0581082538901
 31
0
  0
LINE
  8
1
 62
2
 10
3336.441021988888
 20
811.5581082538901
 30
0
 11
3340.841021988888
 21
811.5581082538901
 31
0
  0
LINE
  8
1
 62
2
 10
3335.441021988888
 20
866.9581082538899
 30
0
 11
3335.441021988888
 21
861.4581082538899
 31
0
  0
LINE
  8
1
 62
2
 10
3334.441021988888
 20
860.4581082538899
 30
0
 11
3323.160890404247
 21
860.4581082538899
 31
0
  0
LINE
  8
1
 62
2
 10
3275.841021988889
 20
866.9581082538899
 30
0
 11
3275.841021988889
 21
861.4581082538899
 31
0
  0
LINE
  8
1
 62
2
 10
3340.841021988888
 20
867.9581082538899
 30
0
 11
3336.441021988888
 21
867.9581082538899
 31
0
  0
LINE
  8
1
 62
2
 10
3274.841021988889
 20
867.9581082538899
 30
0
 11
3270.441021988888
 21
867.9581082538899
 31
0
  0
LINE
  8
1
 62
1
  6
CENTER
 10
3266.564705778346
 20
839.7581082538901
 30
0
 11
3344.784332185716
 21
839.7581082538901
 31
0
  0
LINE
  8
1
 62
2
 10
3275.141021988889
 20
811.2581082538901
 30
0
 11
3270.141021988889
 21
811.2581082538901
 31
0
  0
LINE
  8
1
 62
2
 10
3276.141021988889
 20
867.2581082538901
 30
0
 11
3276.141021988889
 21
865.8581082538898
 31
0
  0
LINE
  8
1
 62
2
 10
3270.141021988889
 20
868.2581082538901
 30
0
 11
3275.141021988889
 21
868.2581082538901
 31
0
  0
LINE
  8
1
 62
2
 10
3276.141021988889
 20
860.7581082538901
 30
0
 11
3276.141021988889
 21
863.65810825389
 31
0
  0
LINE
  8
1
 62
2
 10
3336.141021988889
 20
868.2581082538901
 30
0
 11
3341.141021988889
 21
868.2581082538901
 31
0
  0
LINE
  8
1
 62
2
 10
3335.141021988889
 20
812.2581082538901
 30
0
 11
3335.141021988889
 21
813.65810825389
 31
0
  0
LINE
  8
1
 62
2
 10
3335.141021988889
 20
818.7581082538901
 30
0
 11
3335.141021988889
 21
815.8581082538898
 31
0
  0
LINE
  8
1
 62
1
  6
CENTER
 10
3272.078386348665
 20
814.7581082538901
 30
0
 11
3273.314851414744
 21
814.7581082538901
 31
0
  0
LINE
  8
1
 62
1
  6
CENTER
 10
3272.641021988889
 20
814.1328117136319
 30
0
 11
3272.641021988889
 21
815.4870353574332
 31
0
  0
LINE
  8
1
 62
1
 10
3272.641021988889
 20
864.1328117136321
 30
0
 11
3272.641021988889
 21
865.487035357433
 31
0
  0
LINE
  8
1
 62
2
 10
3341.141021988889
 20
811.2581082538901
 30
0
 11
3336.141021988889
 21
811.2581082538901
 31
0
  0
LINE
  8
1
 62
2
 10
3269.141021988889
 20
812.2581082538901
 30
0
 11
3269.141021988889
 21
867.2581082538901
 31
0
  0
LINE
  8
1
 62
2
 10
3342.141021988889
 20
867.2581082538901
 30
0
 11
3342.141021988889
 21
812.2581082538901
 31
0
  0
LINE
  8
1
 62
2
 10
3335.141021988889
 20
865.85810825389
 30
0
 11
3335.141021988889
 21
867.2581082538901
 31
0
  0
LINE
  8
1
 62
2
 10
3335.141021988889
 20
863.65810825389
 30
0
 11
3335.141021988889
 21
860.7581082538901
 31
0
  0
LINE
  8
1
 62
2
 10
3276.141021988889
 20
813.65810825389
 30
0
 11
3276.141021988889
 21
812.2581082538901
 31
0
  0
LINE
  8
1
 62
2
 10
3276.141021988889
 20
815.8581082538898
 30
0
 11
3276.141021988889
 21
818.7581082538901
 31
0
  0
LINE
  8
1
 62
3
 10
3342.141021988889
 20
770.8450626522123
 30
0
 11
3342.141021988889
 21
744.8450626522123
 31
0
  0
LINE
  8
1
 62
3
 10
3335.141021988889
 20
770.8450626522123
 30
0
 11
3335.141021988889
 21
744.8450626522123
 31
0
  0
LINE
  8
1
 62
3
 10
3276.141021988889
 20
770.8450626522123
 30
0
 11
3276.141021988889
 21
744.8450626522123
 31
0
  0
LINE
  8
1
 62
3
 10
3269.141021988889
 20
770.8450626522123
 30
0
 11
3269.141021988889
 21
744.8450626522123
 31
0
  0
LINE
  8
1
 62
7
 10
3331.184778241591
 20
864.7581082538899
 30
0
 11
3328.709457676072
 21
864.7581082538899
 31
0
  0
LINE
  8
1
 62
7
 10
3323.734778241591
 20
864.7581082538899
 30
0
 11
3323.734778241591
 21
861.7581082538901
 31
0
  0
LINE
  8
1
 62
7
 10
3323.734778241591
 20
861.7581082538901
 30
0
 11
3331.184778241591
 21
861.7581082538901
 31
0
  0
LINE
  8
1
 62
7
 10
3307.334778241592
 20
861.7581082538901
 30
0
 11
3307.334778241592
 21
864.7581082538899
 31
0
  0
LINE
  8
1
 62
7
 10
3299.884778241592
 20
861.7581082538901
 30
0
 11
3307.334778241592
 21
861.7581082538901
 31
0
  0
LINE
  8
1
 62
7
 10
3307.334778241592
 20
861.7581082538901
 30
0
 11
3323.734778241591
 21
861.7581082538901
 31
0
  0
LINE
  8
1
 62
7
 10
3300.384778241592
 20
861.7581082538901
 30
0
 11
3306.284778241592
 21
861.7581082538901
 31
0
  0
LINE
  8
1
 62
7
 10
3300.384778241592
 20
862.4581082538899
 30
0
 11
3300.384778241592
 21
861.7581082538901
 31
0
  0
LINE
  8
1
 62
7
 10
3306.284778241592
 20
862.4581082538899
 30
0
 11
3300.384778241592
 21
862.4581082538899
 31
0
  0
LINE
  8
1
 62
7
 10
3306.284778241592
 20
861.7581082538901
 30
0
 11
3306.284778241592
 21
862.4581082538899
 31
0
  0
LINE
  8
1
 62
7
 10
3301.624778241592
 20
862.4581082538899
 30
0
 11
3305.044778241592
 21
862.4581082538899
 31
0
  0
LINE
  8
1
 62
7
 10
3305.044778241592
 20
862.4581082538899
 30
0
 11
3306.134778241592
 21
862.4581082538899
 31
0
  0
LINE
  8
1
 62
7
 10
3303.697278241592
 20
864.6694005297546
 30
0
 11
3303.697278241592
 21
864.8444005297546
 31
0
  0
LINE
  8
1
 62
7
 10
3302.972278241592
 20
864.6694005297546
 30
0
 11
3303.697278241592
 21
864.6694005297546
 31
0
  0
LINE
  8
1
 62
7
 10
3302.972278241592
 20
864.8444005297546
 30
0
 11
3302.972278241592
 21
864.6694005297546
 31
0
  0
LINE
  8
1
 62
7
 10
3306.134778241592
 20
862.4581082538899
 30
0
 11
3306.134778241592
 21
863.9568259918136
 31
0
  0
LINE
  8
1
 62
7
 10
3300.534778241592
 20
862.4581082538899
 30
0
 11
3301.624778241592
 21
862.4581082538899
 31
0
  0
LINE
  8
1
 62
7
 10
3300.534778241592
 20
863.9568259918136
 30
0
 11
3300.534778241592
 21
862.4581082538899
 31
0
  0
LINE
  8
1
 62
7
 10
3324.784778241592
 20
861.7581082538901
 30
0
 11
3330.684778241591
 21
861.7581082538901
 31
0
  0
LINE
  8
1
 62
7
 10
3324.784778241592
 20
862.4581082538899
 30
0
 11
3324.784778241592
 21
861.7581082538901
 31
0
  0
LINE
  8
1
 62
7
 10
3330.684778241591
 20
862.4581082538899
 30
0
 11
3324.784778241592
 21
862.4581082538899
 31
0
  0
LINE
  8
1
 62
7
 10
3330.684778241591
 20
861.7581082538901
 30
0
 11
3330.684778241591
 21
862.4581082538899
 31
0
  0
LINE
  8
1
 62
7
 10
3326.024778241591
 20
862.4581082538899
 30
0
 11
3329.444778241592
 21
862.4581082538899
 31
0
  0
LINE
  8
1
 62
7
 10
3329.444778241592
 20
862.4581082538899
 30
0
 11
3330.534778241592
 21
862.4581082538899
 31
0
  0
LINE
  8
1
 62
7
 10
3328.097278241592
 20
864.6694005297546
 30
0
 11
3328.097278241592
 21
864.8444005297546
 31
0
  0
LINE
  8
1
 62
7
 10
3327.372278241591
 20
864.6694005297546
 30
0
 11
3328.097278241592
 21
864.6694005297546
 31
0
  0
LINE
  8
1
 62
7
 10
3327.372278241591
 20
864.8444005297546
 30
0
 11
3327.372278241591
 21
864.6694005297546
 31
0
  0
LINE
  8
1
 62
7
 10
3330.534778241592
 20
862.4581082538899
 30
0
 11
3330.534778241592
 21
863.9568259918136
 31
0
  0
LINE
  8
1
 62
7
 10
3324.934778241591
 20
862.4581082538899
 30
0
 11
3326.024778241591
 21
862.4581082538899
 31
0
  0
LINE
  8
1
 62
7
 10
3324.934778241591
 20
863.9568259918136
 30
0
 11
3324.934778241591
 21
862.4581082538899
 31
0
  0
LINE
  8
1
 62
7
 10
3326.76009880711
 20
864.7581082538899
 30
0
 11
3304.309457676073
 21
864.7581082538899
 31
0
  0
LINE
  8
1
 62
7
 10
3302.360098807111
 20
864.7581082538899
 30
0
 11
3299.884778241592
 21
864.7581082538899
 31
0
  0
LINE
  8
1
 62
3
 10
3274.351021988888
 20
737.8450626522123
 30
0
 11
3270.931021988888
 21
737.8450626522123
 31
0
  0
LINE
  8
1
 62
3
 10
3270.931021988888
 20
737.8450626522123
 30
0
 11
3269.841021988889
 21
737.8450626522123
 31
0
  0
LINE
  8
1
 62
3
 10
3272.278521988889
 20
735.633770376348
 30
0
 11
3272.278521988889
 21
735.4587703763478
 31
0
  0
LINE
  8
1
 62
3
 10
3273.003521988888
 20
735.633770376348
 30
0
 11
3272.278521988889
 21
735.633770376348
 31
0
  0
LINE
  8
1
 62
3
 10
3273.003521988888
 20
735.4587703763478
 30
0
 11
3273.003521988888
 21
735.633770376348
 31
0
  0
LINE
  8
1
 62
3
 10
3269.841021988889
 20
737.8450626522123
 30
0
 11
3269.841021988889
 21
736.3463449142888
 31
0
  0
LINE
  8
1
 62
3
 10
3275.441021988888
 20
737.8450626522123
 30
0
 11
3274.351021988888
 21
737.8450626522123
 31
0
  0
LINE
  8
1
 62
3
 10
3275.441021988888
 20
736.3463449142888
 30
0
 11
3275.441021988888
 21
737.8450626522123
 31
0
  0
LINE
  8
1
 62
3
 10
3275.941021988888
 20
739.8450626522123
 30
0
 11
3335.341021988889
 21
739.8450626522123
 31
0
  0
LINE
  8
1
 62
3
 10
3275.941021988888
 20
741.4450626522122
 30
0
 11
3335.341021988889
 21
741.4450626522122
 31
0
  0
LINE
  8
1
 62
3
 10
3269.541021988889
 20
741.4450626522122
 30
0
 11
3269.541021988889
 21
739.8450626522123
 31
0
  0
LINE
  8
1
 62
1
  6
CENTER
 10
3305.641021988889
 20
876.4397868618736
 30
0
 11
3305.641021988889
 21
802.6711072303484
 31
0
  0
LINE
  8
1
 62
3
 10
3269.341021988889
 20
744.8450626522123
 30
0
 11
3269.341021988889
 21
741.4450626522122
 31
0
  0
LINE
  8
1
 62
3
 10
3275.941021988888
 20
744.8450626522123
 30
0
 11
3275.941021988888
 21
741.4450626522122
 31
0
  0
LINE
  8
1
 62
3
 10
3271.641021988889
 20
741.4450626522122
 30
0
 11
3269.341021988889
 21
741.4450626522122
 31
0
  0
LINE
  8
1
 62
3
 10
3273.641021988889
 20
741.4450626522122
 30
0
 11
3275.941021988888
 21
741.4450626522122
 31
0
  0
LINE
  8
1
 62
3
 10
3273.641021988889
 20
739.8450626522123
 30
0
 11
3275.941021988888
 21
739.8450626522123
 31
0
  0
LINE
  8
1
 62
3
 10
3271.641021988889
 20
741.4450626522122
 30
0
 11
3271.641021988889
 21
739.8450626522123
 31
0
  0
LINE
  8
1
 62
3
 10
3273.641021988889
 20
741.4450626522122
 30
0
 11
3273.641021988889
 21
739.8450626522123
 31
0
  0
LINE
  8
1
 62
3
 10
3269.341021988889
 20
744.8450626522123
 30
0
 11
3275.941021988888
 21
744.8450626522123
 31
0
  0
LINE
  8
1
 62
3
 10
3269.341021988889
 20
732.8450626522123
 30
0
 11
3275.941021988888
 21
732.8450626522123
 31
0
  0
LINE
  8
1
 62
3
 10
3269.341021988889
 20
737.8450626522123
 30
0
 11
3275.941021988888
 21
737.8450626522123
 31
0
  0
LINE
  8
1
 62
3
 10
3269.341021988889
 20
739.8450626522123
 30
0
 11
3271.641021988889
 21
739.8450626522123
 31
0
  0
LINE
  8
1
 62
3
 10
3275.941021988888
 20
739.8450626522123
 30
0
 11
3275.941021988888
 21
737.8450626522123
 31
0
  0
LINE
  8
1
 62
3
 10
3269.341021988889
 20
739.8450626522123
 30
0
 11
3269.341021988889
 21
737.8450626522123
 31
0
  0
LINE
  8
1
 62
3
 10
3275.941021988888
 20
737.8450626522123
 30
0
 11
3275.941021988888
 21
732.8450626522123
 31
0
  0
LINE
  8
1
 62
3
 10
3269.341021988889
 20
737.8450626522123
 30
0
 11
3269.341021988889
 21
732.8450626522123
 31
0
  0
LINE
  8
1
 62
1
  6
CENTER
 10
3338.641021988889
 20
747.5334248547885
 30
0
 11
3338.641021988889
 21
729.4083234315432
 31
0
  0
LINE
  8
1
 62
3
 10
3335.341021988889
 20
732.8450626522123
 30
0
 11
3341.941021988888
 21
732.8450626522123
 31
0
  0
LINE
  8
1
 62
3
 10
3335.341021988889
 20
744.8450626522123
 30
0
 11
3341.941021988888
 21
744.8450626522123
 31
0
  0
LINE
  8
1
 62
3
 10
3335.341021988889
 20
744.8450626522123
 30
0
 11
3335.341021988889
 21
732.8450626522123
 31
0
  0
LINE
  8
1
 62
3
 10
3341.941021988888
 20
744.8450626522123
 30
0
 11
3341.941021988888
 21
732.8450626522123
 31
0
  0
LINE
  8
1
 62
3
 10
3337.911288799417
 20
866.0111004614406
 30
0
 11
3338.522328170569
 21
865.400061090288
 31
0
  0
LINE
  8
1
 62
3
 10
3339.370755178361
 20
866.0111004614406
 30
0
 11
3338.759715807209
 21
865.400061090288
 31
0
  0
LINE
  8
1
 62
3
 10
3337.388029781337
 20
864.0283750644177
 30
0
 11
3337.999069152491
 21
864.6394144355701
 31
0
  0
LINE
  8
1
 62
3
 10
3337.388029781337
 20
865.4878414433625
 30
0
 11
3337.999069152491
 21
864.8768020722101
 31
0
  0
LINE
  8
1
 62
3
 10
3338.759715807209
 20
864.1161554174922
 30
0
 11
3338.765850757028
 21
864.1100204676724
 31
0
  0
LINE
  8
1
 62
3
 10
3338.765850757028
 20
864.1100204676724
 30
0
 11
3339.370755178361
 21
863.5051160463396
 31
0
  0
LINE
  8
1
 62
3
 10
3337.911288799417
 20
863.5051160463396
 30
0
 11
3338.522328170569
 21
864.1161554174922
 31
0
  0
LINE
  8
1
 62
3
 10
3339.894014196439
 20
865.4878414433625
 30
0
 11
3339.282974825287
 21
864.8768020722101
 31
0
  0
LINE
  8
1
 62
3
 10
3339.894014196439
 20
864.0283750644177
 30
0
 11
3339.282974825287
 21
864.6394144355701
 31
0
  0
LINE
  8
1
 62
3
 10
3271.911288799417
 20
816.0111004614406
 30
0
 11
3272.522328170569
 21
815.400061090288
 31
0
  0
LINE
  8
1
 62
3
 10
3273.370755178361
 20
816.0111004614406
 30
0
 11
3272.759715807209
 21
815.400061090288
 31
0
  0
LINE
  8
1
 62
3
 10
3271.388029781337
 20
814.0283750644177
 30
0
 11
3271.999069152491
 21
814.6394144355701
 31
0
  0
LINE
  8
1
 62
3
 10
3271.388029781337
 20
815.4878414433625
 30
0
 11
3271.999069152491
 21
814.8768020722101
 31
0
  0
LINE
  8
1
 62
3
 10
3272.759715807209
 20
814.1161554174922
 30
0
 11
3272.765850757028
 21
814.1100204676724
 31
0
  0
LINE
  8
1
 62
3
 10
3272.765850757028
 20
814.1100204676724
 30
0
 11
3273.370755178361
 21
813.5051160463396
 31
0
  0
LINE
  8
1
 62
3
 10
3271.911288799417
 20
813.5051160463396
 30
0
 11
3272.522328170569
 21
814.1161554174922
 31
0
  0
LINE
  8
1
 62
3
 10
3273.894014196439
 20
815.4878414433625
 30
0
 11
3273.282974825287
 21
814.8768020722101
 31
0
  0
LINE
  8
1
 62
3
 10
3273.894014196439
 20
814.0283750644177
 30
0
 11
3273.282974825287
 21
814.6394144355701
 31
0
  0
LINE
  8
1
 62
3
 10
3285.641021988889
 20
785.8450626522123
 30
0
 11
3325.641021988889
 21
785.8450626522123
 31
0
  0
LINE
  8
1
 62
3
 10
3325.641021988889
 20
785.8450626522123
 30
0
 11
3325.641021988889
 21
772.8450626522123
 31
0
  0
LINE
  8
1
 62
3
 10
3325.641021988889
 20
772.8450626522123
 30
0
 11
3285.641021988889
 21
772.8450626522123
 31
0
  0
LINE
  8
1
 62
3
 10
3285.641021988889
 20
781.8450626522123
 30
0
 11
3325.641021988889
 21
781.8450626522123
 31
0
  0
LINE
  8
1
 62
3
 10
3294.641021988889
 20
781.8450626522123
 30
0
 11
3294.641021988889
 21
772.8450626522123
 31
0
  0
LINE
  8
1
 62
3
 10
3316.641021988889
 20
781.8450626522123
 30
0
 11
3316.641021988889
 21
772.8450626522123
 31
0
  0
LINE
  8
1
 62
3
 10
3379.640582998808
 20
859.7581082538903
 30
0
 11
3392.640582998808
 21
859.7581082538903
 31
0
  0
LINE
  8
1
 62
3
 10
3392.640582998808
 20
859.7581082538903
 30
0
 11
3392.640582998808
 21
819.7581082538901
 31
0
  0
LINE
  8
1
 62
3
 10
3392.640582998808
 20
819.7581082538901
 30
0
 11
3379.640582998808
 21
819.7581082538901
 31
0
  0
LINE
  8
1
 62
3
 10
3379.640582998808
 20
819.7581082538901
 30
0
 11
3379.640582998808
 21
859.7581082538903
 31
0
  0
LINE
  8
1
 62
3
 10
3383.640582998808
 20
859.7581082538903
 30
0
 11
3383.640582998808
 21
819.7581082538901
 31
0
  0
LINE
  8
1
 62
3
 10
3227.567170631178
 20
859.7581082538903
 30
0
 11
3227.567170631178
 21
819.7581082538901
 31
0
  0
LINE
  8
1
 62
3
 10
3223.567170631178
 20
859.7581082538903
 30
0
 11
3223.567170631178
 21
841.2081082538899
 31
0
  0
LINE
  8
1
 62
3
 10
3320.911288799417
 20
857.0111004614404
 30
0
 11
3321.522328170569
 21
856.4000610902878
 31
0
  0
LINE
  8
1
 62
3
 10
3322.370755178361
 20
857.0111004614404
 30
0
 11
3321.759715807209
 21
856.4000610902878
 31
0
  0
LINE
  8
1
 62
3
 10
3320.388029781337
 20
855.0283750644172
 30
0
 11
3320.999069152491
 21
855.6394144355701
 31
0
  0
LINE
  8
1
 62
3
 10
3320.388029781337
 20
856.4878414433625
 30
0
 11
3320.999069152491
 21
855.8768020722097
 31
0
  0
LINE
  8
1
 62
3
 10
3321.759715807209
 20
855.116155417492
 30
0
 11
3322.370755178361
 21
854.5051160463394
 31
0
  0
LINE
  8
1
 62
3
 10
3320.911288799417
 20
854.5051160463394
 30
0
 11
3321.522328170569
 21
855.116155417492
 31
0
  0
LINE
  8
1
 62
3
 10
3322.894014196439
 20
856.4878414433625
 30
0
 11
3322.282974825287
 21
855.8768020722097
 31
0
  0
LINE
  8
1
 62
3
 10
3322.894014196439
 20
855.0283750644172
 30
0
 11
3322.282974825287
 21
855.6394144355701
 31
0
  0
LINE
  8
1
 62
3
 10
3320.911288799417
 20
825.0111004614404
 30
0
 11
3321.522328170569
 21
824.4000610902878
 31
0
  0
LINE
  8
1
 62
3
 10
3322.370755178361
 20
825.0111004614404
 30
0
 11
3321.759715807209
 21
824.4000610902878
 31
0
  0
LINE
  8
1
 62
3
 10
3320.388029781337
 20
824.4878414433625
 30
0
 11
3320.999069152491
 21
823.8768020722097
 31
0
  0
LINE
  8
1
 62
3
 10
3322.894014196439
 20
824.4878414433625
 30
0
 11
3322.282974825287
 21
823.8768020722097
 31
0
  0
LINE
  8
1
 62
3
 10
3322.282974825287
 20
823.6394144355701
 30
0
 11
3322.894014196439
 21
823.0283750644172
 31
0
  0
LINE
  8
1
 62
3
 10
3321.759715807209
 20
823.1161554174918
 30
0
 11
3322.370755178361
 21
822.5051160463394
 31
0
  0
LINE
  8
1
 62
3
 10
3321.522328170569
 20
823.1161554174918
 30
0
 11
3320.911288799417
 21
822.5051160463394
 31
0
  0
LINE
  8
1
 62
3
 10
3320.999069152491
 20
823.6394144355701
 30
0
 11
3320.388029781337
 21
823.0283750644172
 31
0
  0
LINE
  8
1
 62
3
 10
3288.911288799417
 20
825.0111004614404
 30
0
 11
3289.522328170569
 21
824.4000610902878
 31
0
  0
LINE
  8
1
 62
3
 10
3290.370755178361
 20
825.0111004614404
 30
0
 11
3289.759715807209
 21
824.4000610902878
 31
0
  0
LINE
  8
1
 62
3
 10
3288.388029781337
 20
824.4878414433625
 30
0
 11
3288.999069152491
 21
823.8768020722097
 31
0
  0
LINE
  8
1
 62
3
 10
3290.894014196439
 20
824.4878414433625
 30
0
 11
3290.282974825287
 21
823.8768020722097
 31
0
  0
LINE
  8
1
 62
3
 10
3290.282974825287
 20
823.6394144355701
 30
0
 11
3290.894014196439
 21
823.0283750644172
 31
0
  0
LINE
  8
1
 62
3
 10
3289.759715807209
 20
823.1161554174918
 30
0
 11
3290.370755178361
 21
822.5051160463394
 31
0
  0
LINE
  8
1
 62
3
 10
3289.522328170569
 20
823.1161554174918
 30
0
 11
3288.911288799417
 21
822.5051160463394
 31
0
  0
LINE
  8
1
 62
3
 10
3288.999069152491
 20
823.6394144355701
 30
0
 11
3288.388029781337
 21
823.0283750644172
 31
0
  0
LINE
  8
1
 62
3
 10
3288.911288799417
 20
857.0111004614404
 30
0
 11
3289.522328170569
 21
856.4000610902878
 31
0
  0
LINE
  8
1
 62
3
 10
3290.370755178361
 20
857.0111004614404
 30
0
 11
3289.759715807209
 21
856.4000610902878
 31
0
  0
LINE
  8
1
 62
3
 10
3288.388029781337
 20
856.4878414433625
 30
0
 11
3288.999069152491
 21
855.8768020722097
 31
0
  0
LINE
  8
1
 62
3
 10
3290.894014196439
 20
856.4878414433625
 30
0
 11
3290.282974825287
 21
855.8768020722097
 31
0
  0
LINE
  8
1
 62
3
 10
3290.282974825287
 20
855.6394144355701
 30
0
 11
3290.894014196439
 21
855.0283750644172
 31
0
  0
LINE
  8
1
 62
3
 10
3289.759715807209
 20
855.1161554174918
 30
0
 11
3290.370755178361
 21
854.5051160463391
 31
0
  0
LINE
  8
1
 62
3
 10
3289.522328170569
 20
855.1161554174918
 30
0
 11
3288.911288799417
 21
854.5051160463391
 31
0
  0
LINE
  8
1
 62
3
 10
3288.999069152491
 20
855.6394144355701
 30
0
 11
3288.388029781337
 21
855.0283750644172
 31
0
  0
LINE
  8
1
 62
3
 10
3285.641021988889
 20
784.2171084966172
 30
0
 11
3285.415079920063
 21
784.2171084966172
 31
0
  0
LINE
  8
1
 62
2
 10
3335.441021988888
 20
818.0581082538901
 30
0
 11
3335.441021988888
 21
812.5581082538901
 31
0
  0
LINE
  8
1
 62
2
 10
3275.841021988889
 20
818.0581082538901
 30
0
 11
3275.841021988889
 21
812.5581082538901
 31
0
  0
LINE
  8
1
 62
3
 10
3295.847656887965
 20
772.8450626522123
 30
0
 11
3295.847656887965
 21
770.8450626522123
 31
0
  0
LINE
  8
1
 62
3
 10
3315.434387089813
 20
772.8450626522123
 30
0
 11
3315.434387089813
 21
770.8450626522123
 31
0
  0
LINE
  8
1
 62
1
 10
3407.640582998808
 20
827.6969037069472
 30
0
 11
3407.640582998808
 21
821.5102583413562
 31
0
  0
LINE
  8
1
 62
1
 10
3404.73036616351
 20
824.7581082538899
 30
0
 11
3410.659234638867
 21
824.7581082538899
 31
0
  0
LINE
  8
1
 62
1
 10
3407.640582998808
 20
857.6969037069472
 30
0
 11
3407.640582998808
 21
851.5102583413562
 31
0
  0
LINE
  8
1
 62
1
 10
3404.73036616351
 20
854.7581082538899
 30
0
 11
3410.659234638867
 21
854.7581082538899
 31
0
  0
LINE
  8
1
 62
3
 10
3228.067170631178
 20
826.7581082538903
 30
0
 11
3228.067170631178
 21
820.7581082538899
 31
0
  0
LINE
  8
1
 62
3
 10
3227.567170631178
 20
820.7581082538899
 30
0
 11
3228.067170631178
 21
820.7581082538899
 31
0
  0
LINE
  8
1
 62
3
 10
3227.567170631178
 20
826.7581082538903
 30
0
 11
3228.067170631178
 21
826.7581082538903
 31
0
  0
LINE
  8
1
 62
3
 10
3228.067170631178
 20
820.9581082538902
 30
0
 11
3230.179596093237
 21
820.9581082538902
 31
0
  0
LINE
  8
1
 62
3
 10
3228.067170631178
 20
822.0481082538903
 30
0
 11
3228.067170631178
 21
820.9581082538902
 31
0
  0
LINE
  8
1
 62
3
 10
3230.179596093237
 20
826.5581082538903
 30
0
 11
3228.067170631178
 21
826.5581082538903
 31
0
  0
LINE
  8
1
 62
3
 10
3230.892170631179
 20
823.3956082538902
 30
0
 11
3231.067170631178
 21
823.3956082538902
 31
0
  0
LINE
  8
1
 62
3
 10
3230.892170631179
 20
824.1206082538903
 30
0
 11
3230.892170631179
 21
823.3956082538902
 31
0
  0
LINE
  8
1
 62
3
 10
3231.067170631178
 20
824.1206082538903
 30
0
 11
3230.892170631179
 21
824.1206082538903
 31
0
  0
LINE
  8
1
 62
3
 10
3228.067170631178
 20
826.5581082538903
 30
0
 11
3228.067170631178
 21
825.4681082538901
 31
0
  0
LINE
  8
1
 62
3
 10
3228.067170631178
 20
825.4681082538901
 30
0
 11
3228.067170631178
 21
822.0481082538903
 31
0
  0
LINE
  8
1
 62
3
 10
3228.067170631178
 20
858.7581082538903
 30
0
 11
3228.067170631178
 21
852.7581082538899
 31
0
  0
LINE
  8
1
 62
3
 10
3227.567170631178
 20
852.7581082538899
 30
0
 11
3228.067170631178
 21
852.7581082538899
 31
0
  0
LINE
  8
1
 62
3
 10
3227.567170631178
 20
858.7581082538903
 30
0
 11
3228.067170631178
 21
858.7581082538903
 31
0
  0
LINE
  8
1
 62
3
 10
3228.067170631178
 20
852.9581082538902
 30
0
 11
3230.179596093237
 21
852.9581082538902
 31
0
  0
LINE
  8
1
 62
3
 10
3228.067170631178
 20
854.0481082538903
 30
0
 11
3228.067170631178
 21
852.9581082538902
 31
0
  0
LINE
  8
1
 62
3
 10
3230.179596093237
 20
858.5581082538903
 30
0
 11
3228.067170631178
 21
858.5581082538903
 31
0
  0
LINE
  8
1
 62
3
 10
3230.892170631179
 20
855.3956082538902
 30
0
 11
3231.067170631178
 21
855.3956082538902
 31
0
  0
LINE
  8
1
 62
3
 10
3230.892170631179
 20
856.1206082538903
 30
0
 11
3230.892170631179
 21
855.3956082538902
 31
0
  0
LINE
  8
1
 62
3
 10
3231.067170631178
 20
856.1206082538903
 30
0
 11
3230.892170631179
 21
856.1206082538903
 31
0
  0
LINE
  8
1
 62
3
 10
3228.067170631178
 20
858.5581082538903
 30
0
 11
3228.067170631178
 21
857.4681082538901
 31
0
  0
LINE
  8
1
 62
3
 10
3228.067170631178
 20
857.4681082538901
 30
0
 11
3228.067170631178
 21
854.0481082538903
 31
0
  0
LINE
  8
1
 62
3
 10
3379.140582998808
 20
826.7581082538901
 30
0
 11
3379.140582998808
 21
820.7581082538899
 31
0
  0
LINE
  8
1
 62
3
 10
3379.140582998808
 20
820.7581082538899
 30
0
 11
3379.640582998808
 21
820.7581082538899
 31
0
  0
LINE
  8
1
 62
3
 10
3379.140582998808
 20
826.7581082538901
 30
0
 11
3379.640582998808
 21
826.7581082538901
 31
0
  0
LINE
  8
1
 62
3
 10
3377.028157536749
 20
820.9581082538902
 30
0
 11
3379.140582998808
 21
820.9581082538902
 31
0
  0
LINE
  8
1
 62
3
 10
3379.140582998808
 20
820.9581082538902
 30
0
 11
3379.140582998808
 21
822.0481082538903
 31
0
  0
LINE
  8
1
 62
3
 10
3379.140582998808
 20
826.5581082538903
 30
0
 11
3377.028157536749
 21
826.5581082538903
 31
0
  0
LINE
  8
1
 62
3
 10
3376.140582998808
 20
823.3956082538902
 30
0
 11
3376.31558299881
 21
823.3956082538902
 31
0
  0
LINE
  8
1
 62
3
 10
3376.31558299881
 20
823.3956082538902
 30
0
 11
3376.31558299881
 21
824.1206082538903
 31
0
  0
LINE
  8
1
 62
3
 10
3376.31558299881
 20
824.1206082538903
 30
0
 11
3376.140582998808
 21
824.1206082538903
 31
0
  0
LINE
  8
1
 62
3
 10
3379.140582998808
 20
825.4681082538901
 30
0
 11
3379.140582998808
 21
826.5581082538903
 31
0
  0
LINE
  8
1
 62
3
 10
3379.140582998808
 20
822.0481082538903
 30
0
 11
3379.140582998808
 21
825.4681082538901
 31
0
  0
LINE
  8
1
 62
3
 10
3379.140582998808
 20
858.7581082538901
 30
0
 11
3379.140582998808
 21
852.7581082538899
 31
0
  0
LINE
  8
1
 62
3
 10
3379.140582998808
 20
852.7581082538899
 30
0
 11
3379.640582998808
 21
852.7581082538899
 31
0
  0
LINE
  8
1
 62
3
 10
3379.140582998808
 20
858.7581082538901
 30
0
 11
3379.640582998808
 21
858.7581082538901
 31
0
  0
LINE
  8
1
 62
3
 10
3377.028157536749
 20
852.9581082538902
 30
0
 11
3379.140582998808
 21
852.9581082538902
 31
0
  0
LINE
  8
1
 62
3
 10
3379.140582998808
 20
852.9581082538902
 30
0
 11
3379.140582998808
 21
854.0481082538903
 31
0
  0
LINE
  8
1
 62
3
 10
3379.140582998808
 20
858.5581082538903
 30
0
 11
3377.028157536749
 21
858.5581082538903
 31
0
  0
LINE
  8
1
 62
3
 10
3376.140582998808
 20
855.3956082538902
 30
0
 11
3376.31558299881
 21
855.3956082538902
 31
0
  0
LINE
  8
1
 62
3
 10
3376.31558299881
 20
855.3956082538902
 30
0
 11
3376.31558299881
 21
856.1206082538903
 31
0
  0
LINE
  8
1
 62
3
 10
3376.31558299881
 20
856.1206082538903
 30
0
 11
3376.140582998808
 21
856.1206082538903
 31
0
  0
LINE
  8
1
 62
3
 10
3379.140582998808
 20
857.4681082538901
 30
0
 11
3379.140582998808
 21
858.5581082538903
 31
0
  0
LINE
  8
1
 62
3
 10
3379.140582998808
 20
854.0481082538903
 30
0
 11
3379.140582998808
 21
857.4681082538901
 31
0
  0
LINE
  8
1
 62
3
 10
3286.641021988889
 20
786.3450626522123
 30
0
 11
3286.641021988889
 21
785.8450626522123
 31
0
  0
LINE
  8
1
 62
3
 10
3292.641021988889
 20
786.3450626522123
 30
0
 11
3292.641021988889
 21
785.8450626522123
 31
0
  0
LINE
  8
1
 62
3
 10
3286.641021988889
 20
786.3450626522123
 30
0
 11
3292.641021988889
 21
786.3450626522123
 31
0
  0
LINE
  8
1
 62
3
 10
3278.820113710271
 20
772.8450626522123
 30
0
 11
3280.061930267506
 21
772.8450626522123
 31
0
  0
LINE
  8
1
 62
3
 10
3280.061930267506
 20
772.8450626522123
 30
0
 11
3341.841021988888
 21
772.8450626522123
 31
0
  0
LINE
  8
1
 62
1
  6
CENTER
 10
3374.44058299881
 20
823.7581082538903
 30
0
 11
3385.040582998809
 21
823.7581082538903
 31
0
  0
LINE
  8
1
 62
1
  6
CENTER
 10
3374.44058299881
 20
855.7581082538903
 30
0
 11
3385.040582998809
 21
855.7581082538903
 31
0
  0
LINE
  8
1
 62
3
 10
3390.528157536749
 20
811.9581082538899
 30
0
 11
3392.640582998808
 21
811.9581082538899
 31
0
  0
LINE
  8
1
 62
3
 10
3392.640582998808
 20
811.9581082538899
 30
0
 11
3392.640582998808
 21
813.0481082538901
 31
0
  0
LINE
  8
1
 62
3
 10
3392.640582998808
 20
817.5581082538901
 30
0
 11
3390.528157536749
 21
817.5581082538901
 31
0
  0
LINE
  8
1
 62
3
 10
3389.640582998808
 20
814.3956082538899
 30
0
 11
3389.81558299881
 21
814.3956082538899
 31
0
  0
LINE
  8
1
 62
3
 10
3389.81558299881
 20
814.3956082538899
 30
0
 11
3389.81558299881
 21
815.1206082538901
 31
0
  0
LINE
  8
1
 62
3
 10
3389.81558299881
 20
815.1206082538901
 30
0
 11
3389.640582998808
 21
815.1206082538901
 31
0
  0
LINE
  8
1
 62
3
 10
3392.640582998808
 20
816.4681082538901
 30
0
 11
3392.640582998808
 21
817.5581082538901
 31
0
  0
LINE
  8
1
 62
3
 10
3392.640582998808
 20
813.0481082538901
 30
0
 11
3392.640582998808
 21
816.4681082538901
 31
0
  0
LINE
  8
1
 62
3
 10
3390.528157536749
 20
861.9581082538899
 30
0
 11
3392.640582998808
 21
861.9581082538899
 31
0
  0
LINE
  8
1
 62
3
 10
3392.640582998808
 20
861.9581082538899
 30
0
 11
3392.640582998808
 21
863.0481082538901
 31
0
  0
LINE
  8
1
 62
3
 10
3392.640582998808
 20
867.5581082538901
 30
0
 11
3390.528157536749
 21
867.5581082538901
 31
0
  0
LINE
  8
1
 62
3
 10
3389.640582998808
 20
864.3956082538899
 30
0
 11
3389.81558299881
 21
864.3956082538899
 31
0
  0
LINE
  8
1
 62
3
 10
3389.81558299881
 20
864.3956082538899
 30
0
 11
3389.81558299881
 21
865.1206082538901
 31
0
  0
LINE
  8
1
 62
3
 10
3389.81558299881
 20
865.1206082538901
 30
0
 11
3389.640582998808
 21
865.1206082538901
 31
0
  0
LINE
  8
1
 62
3
 10
3392.640582998808
 20
866.4681082538901
 30
0
 11
3392.640582998808
 21
867.5581082538901
 31
0
  0
LINE
  8
1
 62
3
 10
3392.640582998808
 20
863.0481082538901
 30
0
 11
3392.640582998808
 21
866.4681082538901
 31
0
  0
LINE
  8
1
 62
1
  6
CENTER
 10
3289.641021988889
 20
790.905663863674
 30
0
 11
3289.641021988889
 21
780.905663863674
 31
0
  0
LINE
  8
1
 62
1
  6
CENTER
 10
3321.641021988889
 20
790.905663863674
 30
0
 11
3321.641021988889
 21
780.905663863674
 31
0
  0
LINE
  8
1
 62
3
 10
3432.640582998808
 20
867.8581082538902
 30
0
 11
3432.640582998808
 21
861.6581082538902
 31
0
  0
LINE
  8
1
 62
3
 10
3432.640582998808
 20
861.6581082538902
 30
0
 11
3427.640582998808
 21
861.6581082538902
 31
0
  0
LINE
  8
1
 62
3
 10
3423.840582998809
 20
867.8581082538902
 30
0
 11
3420.640582998808
 21
867.8581082538902
 31
0
  0
LINE
  8
1
 62
3
 10
3432.640582998808
 20
867.8581082538902
 30
0
 11
3425.840582998809
 21
867.8581082538902
 31
0
  0
LINE
  8
1
 62
3
 10
3432.640582998808
 20
860.5581082538901
 30
0
 11
3432.640582998808
 21
855.5581082538901
 31
0
  0
LINE
  8
1
 62
3
 10
3432.640582998808
 20
855.5581082538901
 30
0
 11
3429.640582998808
 21
855.5581082538901
 31
0
  0
LINE
  8
1
 62
3
 10
3427.640582998808
 20
860.5581082538901
 30
0
 11
3432.640582998808
 21
860.5581082538901
 31
0
  0
LINE
  8
1
 62
3
 10
3427.640582998808
 20
860.5581082538901
 30
0
 11
3427.640582998808
 21
867.7581082538903
 31
0
  0
LINE
  8
1
 62
3
 10
3427.640582998808
 20
867.7581082538903
 30
0
 11
3425.840582998809
 21
867.7581082538903
 31
0
  0
LINE
  8
1
 62
3
 10
3429.640582998808
 20
855.5581082538901
 30
0
 11
3429.640582998808
 21
817.9581082538902
 31
0
  0
LINE
  8
1
 62
3
 10
3425.640582998808
 20
819.7581082538901
 30
0
 11
3424.040582998809
 21
819.7581082538903
 31
0
  0
LINE
  8
1
 62
3
 10
3432.640582998808
 20
817.9581082538902
 30
0
 11
3429.640582998808
 21
817.9581082538902
 31
0
  0
LINE
  8
1
 62
3
 10
3420.640582998808
 20
811.7581082538901
 30
0
 11
3432.640582998808
 21
811.7581082538901
 31
0
  0
LINE
  8
1
 62
3
 10
3432.640582998808
 20
811.7581082538901
 30
0
 11
3432.640582998808
 21
817.9581082538902
 31
0
  0
LINE
  8
1
 62
3
 10
3425.640582998808
 20
867.7581082538903
 30
0
 11
3425.640582998808
 21
819.7581082538901
 31
0
  0
LINE
  8
1
 62
3
 10
3425.640582998808
 20
867.7581082538903
 30
0
 11
3425.640582998808
 21
867.7667037715866
 31
0
  0
LINE
  8
1
 62
3
 10
3420.640582998808
 20
861.0581082538903
 30
0
 11
3424.040582998809
 21
861.0581082538903
 31
0
  0
LINE
  8
1
 62
3
 10
3420.640582998808
 20
867.7581082538903
 30
0
 11
3420.640582998808
 21
861.0581082538903
 31
0
  0
LINE
  8
1
 62
3
 10
3424.040582998809
 20
861.0581082538903
 30
0
 11
3424.040582998809
 21
867.7581082538903
 31
0
  0
LINE
  8
1
 62
3
 10
3423.840582998809
 20
867.7581082538903
 30
0
 11
3420.640582998808
 21
867.7581082538903
 31
0
  0
LINE
  8
1
 62
3
 10
3425.640582998808
 20
819.7581082538901
 30
0
 11
3425.640582998808
 21
817.9581082538902
 31
0
  0
LINE
  8
1
 62
3
 10
3425.640582998808
 20
817.9581082538902
 30
0
 11
3420.640582998808
 21
817.9581082538902
 31
0
  0
LINE
  8
1
 62
3
 10
3420.640582998808
 20
817.9581082538902
 30
0
 11
3420.640582998808
 21
811.7581082538901
 31
0
  0
LINE
  8
1
 62
3
 10
3425.840582998809
 20
867.7581082538903
 30
0
 11
3425.840582998809
 21
867.9667037715864
 31
0
  0
LINE
  8
1
 62
3
 10
3424.040582998809
 20
867.5581082538901
 30
0
 11
3424.040582998809
 21
819.7581082538903
 31
0
  0
LINE
  8
1
 62
3
 10
3424.040582998809
 20
867.5581082538901
 30
0
 11
3425.640582998808
 21
867.5581082538901
 31
0
  0
LINE
  8
1
 62
3
 10
3424.040582998809
 20
819.7581082538903
 30
0
 11
3420.640582998808
 21
819.7581082538901
 31
0
  0
LINE
  8
1
 62
3
 10
3423.840582998809
 20
867.7581082538903
 30
0
 11
3423.840582998809
 21
867.9667037715864
 31
0
  0
LINE
  8
1
 62
3
 10
3424.040582998809
 20
867.7581082538903
 30
0
 11
3424.040582998809
 21
867.7667037715866
 31
0
  0
LINE
  8
1
 62
3
 10
3425.69058299881
 20
868.1167037715865
 30
0
 11
3423.990582998809
 21
868.1167037715865
 31
0
  0
LINE
  8
1
 62
3
 10
3424.19058299881
 20
867.9167037715864
 30
0
 11
3425.490582998809
 21
867.9167037715864
 31
0
  0
LINE
  8
1
 62
3
 10
3429.139300736732
 20
867.5581082538903
 30
0
 11
3427.640582998808
 21
867.5581082538903
 31
0
  0
LINE
  8
1
 62
3
 10
3427.640582998808
 20
867.5581082538903
 30
0
 11
3427.640582998808
 21
866.4681082538901
 31
0
  0
LINE
  8
1
 62
3
 10
3427.640582998808
 20
861.9581082538902
 30
0
 11
3429.139300736732
 21
861.9581082538902
 31
0
  0
LINE
  8
1
 62
3
 10
3430.026875274673
 20
865.1206082538903
 30
0
 11
3429.851875274675
 21
865.1206082538903
 31
0
  0
LINE
  8
1
 62
3
 10
3429.851875274675
 20
865.1206082538903
 30
0
 11
3429.851875274675
 21
864.3956082538902
 31
0
  0
LINE
  8
1
 62
3
 10
3429.851875274675
 20
864.3956082538902
 30
0
 11
3430.026875274673
 21
864.3956082538902
 31
0
  0
LINE
  8
1
 62
3
 10
3427.640582998808
 20
863.0481082538901
 30
0
 11
3427.640582998808
 21
861.9581082538902
 31
0
  0
LINE
  8
1
 62
3
 10
3427.640582998808
 20
866.4681082538901
 30
0
 11
3427.640582998808
 21
863.0481082538901
 31
0
  0
LINE
  8
1
 62
3
 10
3394.640582998808
 20
811.2581082538901
 30
0
 11
3420.640582998808
 21
811.2581082538901
 31
0
  0
LINE
  8
1
 62
3
 10
3394.640582998808
 20
868.2581082538903
 30
0
 11
3420.640582998808
 21
868.2581082538903
 31
0
  0
LINE
  8
1
 62
3
 10
3420.640582998808
 20
868.2581082538903
 30
0
 11
3420.640582998808
 21
811.2581082538901
 31
0
  0
LINE
  8
1
 62
3
 10
3394.640582998808
 20
868.2581082538903
 30
0
 11
3394.640582998808
 21
811.2581082538901
 31
0
  0
LINE
  8
1
 62
3
 10
3392.640582998808
 20
811.5581082538903
 30
0
 11
3394.640582998808
 21
811.5581082538903
 31
0
  0
LINE
  8
1
 62
3
 10
3392.640582998808
 20
867.9581082538899
 30
0
 11
3394.640582998808
 21
867.9581082538899
 31
0
  0
LINE
  8
1
 62
3
 10
3394.640582998808
 20
867.9581082538899
 30
0
 11
3394.640582998808
 21
811.5581082538903
 31
0
  0
LINE
  8
1
 62
3
 10
3392.640582998808
 20
867.9581082538899
 30
0
 11
3392.640582998808
 21
811.5581082538903
 31
0
  0
LINE
  8
1
 62
1
  6
CENTER
 10
3388.026875274673
 20
864.7581082538899
 30
0
 11
3399.640582998808
 21
864.7581082538899
 31
0
  0
LINE
  8
1
 62
1
  6
CENTER
 10
3388.026875274673
 20
814.7581082538899
 30
0
 11
3399.640582998808
 21
814.7581082538899
 31
0
  0
LINE
  8
1
 62
1
  6
CENTER
 10
3418.640582998808
 20
864.7581082538899
 30
0
 11
3434.640582998808
 21
864.7581082538899
 31
0
  0
LINE
  8
1
 62
1
  6
CENTER
 10
3371.800084888665
 20
839.7581082538899
 30
0
 11
3434.640582998808
 21
839.7581082538899
 31
0
  0
LINE
  8
1
 62
1
  6
CENTER
 10
3418.640582998808
 20
814.7581082538899
 30
0
 11
3434.640582998808
 21
814.7581082538899
 31
0
  0
LINE
  8
1
 62
3
 10
3269.841021988889
 20
774.9574881142713
 30
0
 11
3269.841021988889
 21
772.8450626522123
 31
0
  0
LINE
  8
1
 62
3
 10
3269.841021988889
 20
772.8450626522123
 30
0
 11
3270.931021988888
 21
772.8450626522123
 31
0
  0
LINE
  8
1
 62
3
 10
3275.441021988888
 20
772.8450626522123
 30
0
 11
3275.441021988888
 21
774.9574881142713
 31
0
  0
LINE
  8
1
 62
3
 10
3272.278521988889
 20
775.8450626522123
 30
0
 11
3272.278521988889
 21
775.6700626522126
 31
0
  0
LINE
  8
1
 62
3
 10
3272.278521988889
 20
775.6700626522126
 30
0
 11
3273.003521988888
 21
775.6700626522126
 31
0
  0
LINE
  8
1
 62
3
 10
3273.003521988888
 20
775.6700626522126
 30
0
 11
3273.003521988888
 21
775.8450626522123
 31
0
  0
LINE
  8
1
 62
3
 10
3274.351021988888
 20
772.8450626522123
 30
0
 11
3275.441021988888
 21
772.8450626522123
 31
0
  0
LINE
  8
1
 62
3
 10
3270.931021988888
 20
772.8450626522123
 30
0
 11
3274.351021988888
 21
772.8450626522123
 31
0
  0
LINE
  8
1
 62
3
 10
3335.841021988889
 20
774.9574881142713
 30
0
 11
3335.841021988889
 21
772.8450626522123
 31
0
  0
LINE
  8
1
 62
3
 10
3335.841021988889
 20
772.8450626522123
 30
0
 11
3336.931021988888
 21
772.8450626522123
 31
0
  0
LINE
  8
1
 62
3
 10
3341.441021988888
 20
772.8450626522123
 30
0
 11
3341.441021988888
 21
774.9574881142713
 31
0
  0
LINE
  8
1
 62
3
 10
3338.278521988889
 20
775.8450626522123
 30
0
 11
3338.278521988889
 21
775.6700626522126
 31
0
  0
LINE
  8
1
 62
3
 10
3338.278521988889
 20
775.6700626522126
 30
0
 11
3339.003521988888
 21
775.6700626522126
 31
0
  0
LINE
  8
1
 62
3
 10
3339.003521988888
 20
775.6700626522126
 30
0
 11
3339.003521988888
 21
775.8450626522123
 31
0
  0
LINE
  8
1
 62
3
 10
3340.351021988888
 20
772.8450626522123
 30
0
 11
3341.441021988888
 21
772.8450626522123
 31
0
  0
LINE
  8
1
 62
3
 10
3336.931021988888
 20
772.8450626522123
 30
0
 11
3340.351021988888
 21
772.8450626522123
 31
0
  0
LINE
  8
1
 62
3
 10
3269.141021988889
 20
770.8450626522123
 30
0
 11
3269.141021988889
 21
744.8450626522123
 31
0
  0
LINE
  8
1
 62
3
 10
3276.141021988889
 20
770.8450626522123
 30
0
 11
3276.141021988889
 21
744.8450626522123
 31
0
  0
LINE
  8
1
 62
3
 10
3335.141021988889
 20
770.8450626522123
 30
0
 11
3335.141021988889
 21
744.8450626522123
 31
0
  0
LINE
  8
1
 62
3
 10
3342.141021988889
 20
770.8450626522123
 30
0
 11
3342.141021988889
 21
744.8450626522123
 31
0
  0
LINE
  8
1
 62
3
 10
3269.141021988889
 20
770.8450626522123
 30
0
 11
3342.141021988889
 21
770.8450626522123
 31
0
  0
LINE
  8
1
 62
3
 10
3275.841021988889
 20
772.8450626522123
 30
0
 11
3275.841021988889
 21
770.8450626522123
 31
0
  0
LINE
  8
1
 62
3
 10
3335.441021988888
 20
772.8450626522123
 30
0
 11
3335.441021988888
 21
770.8450626522123
 31
0
  0
LINE
  8
1
 62
3
 10
3341.841021988888
 20
770.8450626522123
 30
0
 11
3269.441021988888
 21
770.8450626522123
 31
0
  0
LINE
  8
1
 62
3
 10
3341.841021988888
 20
772.8450626522123
 30
0
 11
3341.841021988888
 21
770.8450626522123
 31
0
  0
LINE
  8
1
 62
3
 10
3269.441021988888
 20
772.8450626522123
 30
0
 11
3278.820113710271
 21
772.8450626522123
 31
0
  0
LINE
  8
1
 62
3
 10
3269.441021988888
 20
770.8450626522123
 30
0
 11
3269.441021988888
 21
772.8450626522123
 31
0
  0
LINE
  8
1
 62
1
  6
CENTER
 10
3272.641021988889
 20
777.2450626522124
 30
0
 11
3272.641021988889
 21
766.8450626522123
 31
0
  0
LINE
  8
1
 62
1
  6
CENTER
 10
3305.641021988889
 20
791.615634522375
 30
0
 11
3305.641021988889
 21
730.8450626522123
 31
0
  0
LINE
  8
1
 62
1
  6
CENTER
 10
3338.641021988889
 20
777.2450626522124
 30
0
 11
3338.641021988889
 21
766.8450626522123
 31
0
  0
LINE
  8
1
 62
1
  6
CENTER
 10
3272.641021988889
 20
746.8450626522123
 30
0
 11
3272.641021988889
 21
730.8450626522123
 31
0
  0
LINE
  8
1
 62
3
 10
3318.841021988889
 20
788.4574881142713
 30
0
 11
3318.841021988889
 21
786.3450626522123
 31
0
  0
LINE
  8
1
 62
3
 10
3318.841021988889
 20
786.3450626522123
 30
0
 11
3319.931021988888
 21
786.3450626522123
 31
0
  0
LINE
  8
1
 62
3
 10
3324.441021988888
 20
786.3450626522123
 30
0
 11
3324.441021988888
 21
788.4574881142713
 31
0
  0
LINE
  8
1
 62
3
 10
3321.278521988889
 20
789.3450626522123
 30
0
 11
3321.278521988889
 21
789.1700626522126
 31
0
  0
LINE
  8
1
 62
3
 10
3321.278521988889
 20
789.1700626522126
 30
0
 11
3322.003521988888
 21
789.1700626522126
 31
0
  0
LINE
  8
1
 62
3
 10
3322.003521988888
 20
789.1700626522126
 30
0
 11
3322.003521988888
 21
789.3450626522123
 31
0
  0
LINE
  8
1
 62
3
 10
3323.351021988888
 20
786.3450626522123
 30
0
 11
3324.441021988888
 21
786.3450626522123
 31
0
  0
LINE
  8
1
 62
3
 10
3319.931021988888
 20
786.3450626522123
 30
0
 11
3323.351021988888
 21
786.3450626522123
 31
0
  0
LINE
  8
1
 62
3
 10
3286.841021988889
 20
788.4574881142713
 30
0
 11
3286.841021988889
 21
786.3450626522123
 31
0
  0
LINE
  8
1
 62
3
 10
3286.841021988889
 20
786.3450626522123
 30
0
 11
3287.931021988888
 21
786.3450626522123
 31
0
  0
LINE
  8
1
 62
3
 10
3292.441021988888
 20
786.3450626522123
 30
0
 11
3292.441021988888
 21
788.4574881142713
 31
0
  0
LINE
  8
1
 62
3
 10
3289.278521988889
 20
789.3450626522123
 30
0
 11
3289.278521988889
 21
789.1700626522126
 31
0
  0
LINE
  8
1
 62
3
 10
3289.278521988889
 20
789.1700626522126
 30
0
 11
3290.003521988888
 21
789.1700626522126
 31
0
  0
LINE
  8
1
 62
3
 10
3290.003521988888
 20
789.1700626522126
 30
0
 11
3290.003521988888
 21
789.3450626522123
 31
0
  0
LINE
  8
1
 62
3
 10
3291.351021988888
 20
786.3450626522123
 30
0
 11
3292.441021988888
 21
786.3450626522123
 31
0
  0
LINE
  8
1
 62
3
 10
3287.931021988888
 20
786.3450626522123
 30
0
 11
3291.351021988888
 21
786.3450626522123
 31
0
  0
LINE
  8
1
 62
3
 10
3318.641021988889
 20
786.3450626522123
 30
0
 11
3324.641021988889
 21
786.3450626522123
 31
0
  0
LINE
  8
1
 62
3
 10
3324.641021988889
 20
786.3450626522123
 30
0
 11
3324.641021988889
 21
785.8450626522123
 31
0
  0
LINE
  8
1
 62
3
 10
3318.641021988889
 20
786.3450626522123
 30
0
 11
3318.641021988889
 21
785.8450626522123
 31
0
  0
LINE
  8
1
 62
7
 10
3282.951022988888
 20
862.2331082538902
 30
0
 11
3280.901022988889
 21
862.2331082538902
 31
0
  0
LINE
  8
1
 62
7
 10
3288.851022988888
 20
862.2331082538902
 30
0
 11
3290.901022988889
 21
862.2331082538902
 31
0
  0
LINE
  8
1
 62
7
 10
3283.101022988888
 20
864.431825991814
 30
0
 11
3283.101022988888
 21
862.9331082538903
 31
0
  0
LINE
  8
1
 62
7
 10
3283.101022988888
 20
862.9331082538903
 30
0
 11
3284.191022988888
 21
862.9331082538903
 31
0
  0
LINE
  8
1
 62
7
 10
3288.701022988888
 20
862.9331082538903
 30
0
 11
3288.701022988888
 21
864.431825991814
 31
0
  0
LINE
  8
1
 62
7
 10
3285.538522988888
 20
865.3194005297547
 30
0
 11
3285.538522988888
 21
865.1444005297548
 31
0
  0
LINE
  8
1
 62
7
 10
3285.538522988888
 20
865.1444005297548
 30
0
 11
3286.263522988888
 21
865.1444005297548
 31
0
  0
LINE
  8
1
 62
7
 10
3286.263522988888
 20
865.1444005297548
 30
0
 11
3286.263522988888
 21
865.3194005297547
 31
0
  0
LINE
  8
1
 62
7
 10
3287.611022988888
 20
862.9331082538903
 30
0
 11
3288.701022988888
 21
862.9331082538903
 31
0
  0
LINE
  8
1
 62
7
 10
3284.191022988888
 20
862.9331082538903
 30
0
 11
3287.611022988888
 21
862.9331082538903
 31
0
  0
LINE
  8
1
 62
7
 10
3288.851022988888
 20
862.2331082538902
 30
0
 11
3288.851022988888
 21
862.9331082538903
 31
0
  0
LINE
  8
1
 62
7
 10
3288.851022988888
 20
862.9331082538903
 30
0
 11
3282.951022988888
 21
862.9331082538903
 31
0
  0
LINE
  8
1
 62
7
 10
3282.951022988888
 20
862.9331082538903
 30
0
 11
3282.951022988888
 21
862.2331082538902
 31
0
  0
LINE
  8
1
 62
7
 10
3282.951022988888
 20
862.2331082538902
 30
0
 11
3288.851022988888
 21
862.2331082538902
 31
0
  0
LINE
  8
1
 62
7
 10
3290.901022988889
 20
860.4581082538899
 30
0
 11
3290.901022988889
 21
862.2331082538902
 31
0
  0
LINE
  8
1
 62
7
 10
3280.901022988889
 20
860.4581082538899
 30
0
 11
3280.901022988889
 21
862.2331082538902
 31
0
  0
LINE
  8
1
 62
7
 10
3280.901022988889
 20
860.4581082538899
 30
0
 11
3290.901022988889
 21
860.4581082538899
 31
0
  0
LINE
  8
1
 62
3
 10
3291.132075344597
 20
836.2581082538903
 30
0
 11
3288.71486967047
 21
835.3590198609542
 31
0
  0
LINE
  8
1
 62
3
 10
3303.470419768051
 20
827.4480113412379
 30
0
 11
3302.59233130679
 21
824.7735066058402
 31
0
  0
LINE
  8
1
 62
3
 10
3295.502516574875
 20
825.5082900457466
 30
0
 11
3299.882271527402
 21
823.5686805834145
 31
0
  0
LINE
  8
1
 62
3
 10
3297.984325145023
 20
829.8775721631129
 30
0
 11
3295.502516574875
 21
825.5082900457466
 31
0
  0
LINE
  8
1
 62
3
 10
3296.065466449899
 20
831.7232631328101
 30
0
 11
3293.673673157623
 21
830.2388980252705
 31
0
  0
LINE
  8
1
 62
3
 10
3288.71486967047
 20
835.3590198609542
 30
0
 11
3290.82319968406
 21
831.0579405935661
 31
0
  0
LINE
  8
1
 62
3
 10
3294.581021988888
 20
845.5827455816583
 30
0
 11
3289.847157549084
 21
847.2681320256389
 31
0
  0
LINE
  8
1
 62
3
 10
3289.847157549084
 20
847.2681320256389
 30
0
 11
3288.855776643049
 21
843.2581082538903
 31
0
  0
LINE
  8
1
 62
3
 10
3300.912575153198
 20
851.3292702751447
 30
0
 11
3298.369570128332
 21
855.6632206029061
 31
0
  0
LINE
  8
1
 62
3
 10
3298.369570128332
 20
855.6632206029061
 30
0
 11
3294.499941584268
 21
852.840046282833
 31
0
  0
LINE
  8
1
 62
3
 10
3296.065466449901
 20
847.7929533749751
 30
0
 11
3294.188321637136
 21
849.8906526568961
 31
0
  0
LINE
  8
1
 62
3
 10
3309.456621142761
 20
851.6615196597455
 30
0
 11
3310.29437584632
 21
856.6161303464356
 31
0
  0
LINE
  8
1
 62
3
 10
3310.29437584632
 20
856.6161303464356
 30
0
 11
3305.515366930278
 21
856.9408026288007
 31
0
  0
LINE
  8
1
 62
3
 10
3303.470419768054
 20
852.0682051665459
 30
0
 11
3303.380818522571
 21
854.8817414720294
 31
0
  0
LINE
  8
1
 62
3
 10
3316.215305882567
 20
846.4240305558652
 30
0
 11
3320.041825578149
 21
849.6809841968176
 31
0
  0
LINE
  8
1
 62
3
 10
3320.041825578149
 20
849.6809841968176
 30
0
 11
3316.589587674712
 21
853.001585312372
 31
0
  0
LINE
  8
1
 62
3
 10
3318.026165668445
 20
838.0674823234177
 30
0
 11
3323.05097926346
 21
838.1028141130229
 31
0
  0
LINE
  8
1
 62
3
 10
3323.05097926346
 20
838.1028141130229
 30
0
 11
3322.540852854997
 21
842.8655978954276
 31
0
  0
LINE
  8
1
 62
3
 10
3317.387179748715
 20
844.033360045462
 30
0
 11
3320.142413022742
 21
844.610165498939
 31
0
  0
LINE
  8
1
 62
3
 10
3317.387179748713
 20
835.4828564623193
 30
0
 11
3319.868574286472
 21
834.1536852643754
 31
0
  0
LINE
  8
1
 62
3
 10
3317.913820449875
 20
827.2991745542855
 30
0
 11
3320.584499352329
 21
831.2755815393083
 31
0
  0
LINE
  8
1
 62
3
 10
3314.04187908112
 20
830.5019967530531
 30
0
 11
3317.913820449875
 21
827.2991745542855
 31
0
  0
LINE
  8
1
 62
3
 10
3306.126738095213
 20
827.2675486241514
 30
0
 11
3307.034082839433
 21
822.3252085392186
 31
0
  0
LINE
  8
1
 62
3
 10
3307.034082839433
 20
822.3252085392186
 30
0
 11
3311.635926713058
 21
823.6546337057258
 31
0
  0
LINE
  8
1
 62
3
 10
3285.641021988889
 20
840.5081082538903
 30
0
 11
3285.641021988889
 21
855.7581082538903
 31
0
  0
LINE
  8
1
 62
3
 10
3284.436263777919
 20
839.7581082538901
 30
0
 11
3293.141021988889
 21
839.7581082538901
 31
0
  0
LINE
  8
1
 62
3
 10
3284.436263777919
 20
838.5081082538901
 30
0
 11
3285.641021988889
 21
838.5081082538901
 31
0
  0
LINE
  8
1
 62
3
 10
3284.436263777919
 20
841.0081082538901
 30
0
 11
3285.641021988889
 21
841.0081082538901
 31
0
  0
LINE
  8
1
 62
3
 10
3286.700325064012
 20
838.5081082538901
 30
0
 11
3293.231348342898
 21
838.5081082538901
 31
0
  0
LINE
  8
1
 62
3
 10
3286.700325064012
 20
841.0081082538901
 30
0
 11
3293.231348342898
 21
841.0081082538901
 31
0
  0
LINE
  8
1
 62
3
 10
3285.641021988889
 20
823.7581082538901
 30
0
 11
3285.641021988889
 21
839.0081082538899
 31
0
  0
LINE
  8
1
 62
3
 10
3289.641021988889
 20
859.7581082538903
 30
0
 11
3321.641021988889
 21
859.7581082538903
 31
0
  0
LINE
  8
1
 62
3
 10
3325.641021988889
 20
855.7581082538903
 30
0
 11
3325.641021988889
 21
823.7581082538901
 31
0
  0
LINE
  8
1
 62
3
 10
3321.641021988889
 20
819.7581082538901
 30
0
 11
3289.641021988889
 21
819.7581082538901
 31
0
  0
LINE
  8
1
 62
2
 10
3286.641021988889
 20
848.7023801638892
 30
0
 11
3286.641021988889
 21
853.9553326161582
 31
0
  0
LINE
  8
1
 62
2
 10
3291.44379762662
 20
858.7581082538903
 30
0
 11
3296.69675007889
 21
858.7581082538903
 31
0
  0
LINE
  8
1
 62
2
 10
3296.69675007889
 20
820.7581082538903
 30
0
 11
3291.44379762662
 21
820.7581082538903
 31
0
  0
LINE
  8
1
 62
2
 10
3286.641021988889
 20
825.5608838916218
 30
0
 11
3286.641021988889
 21
830.8138363438912
 31
0
  0
LINE
  8
1
 62
2
 10
3324.641021988889
 20
830.813836343891
 30
0
 11
3324.641021988889
 21
825.560883891622
 31
0
  0
LINE
  8
1
 62
2
 10
3319.838246351158
 20
820.7581082538897
 30
0
 11
3314.585293898888
 21
820.7581082538897
 31
0
  0
LINE
  8
1
 62
2
 10
3324.641021988889
 20
853.9553326161584
 30
0
 11
3324.641021988889
 21
848.7023801638887
 31
0
  0
LINE
  8
1
 62
2
 10
3314.585293898888
 20
858.7581082538901
 30
0
 11
3319.838246351157
 21
858.7581082538901
 31
0
  0
LINE
  8
1
 62
3
 10
3310.822924841611
 20
851.1334272746893
 30
0
 11
3314.082825203265
 21
856.7797403286867
 31
0
  0
LINE
  8
1
 62
3
 10
3312.901385810692
 20
849.9334272746891
 30
0
 11
3316.161286172348
 21
855.5797403286866
 31
0
  0
LINE
  8
1
 62
3
 10
3314.082825203264
 20
822.7364761790929
 30
0
 11
3310.82292484161
 21
828.3827892330904
 31
0
  0
LINE
  8
1
 62
3
 10
3316.161286172347
 20
823.9364761790929
 30
0
 11
3312.901385810692
 21
829.5827892330905
 31
0
  0
LINE
  8
1
 62
3
 10
3285.641021988889
 20
839.0081082538899
 30
0
 11
3286.667356027878
 21
839.0081082538899
 31
0
  0
LINE
  8
1
 62
3
 10
3285.641021988889
 20
840.5081082538903
 30
0
 11
3286.667356027878
 21
840.5081082538903
 31
0
  0
LINE
  8
1
 62
3
 10
3293.641021988889
 20
836.2581082538903
 30
0
 11
3286.966172591906
 21
836.2581082538903
 31
0
  0
LINE
  8
1
 62
3
 10
3293.393573274973
 20
837.2581082538903
 30
0
 11
3286.806213787052
 21
837.2581082538903
 31
0
  0
LINE
  8
1
 62
3
 10
3293.393573274974
 20
842.2581082538903
 30
0
 11
3286.806213787052
 21
842.2581082538903
 31
0
  0
LINE
  8
1
 62
3
 10
3293.641021988889
 20
843.2581082538903
 30
0
 11
3286.966172591906
 21
843.2581082538903
 31
0
  0
LINE
  8
1
 62
2
 10
3333.141021988889
 20
859.0581082538896
 30
0
 11
3333.141021988889
 21
837.9581082538897
 31
0
  0
LINE
  8
1
 62
3
 10
3327.141021988889
 20
819.7581082538899
 30
0
 11
3333.141021988889
 21
819.7581082538899
 31
0
  0
LINE
  8
1
 62
3
 10
3327.141021988889
 20
859.7581082538899
 30
0
 11
3333.141021988889
 21
859.7581082538899
 31
0
  0
LINE
  8
1
 62
2
 10
3327.141021988889
 20
837.9581082538897
 30
0
 11
3327.141021988889
 21
859.0581082538896
 31
0
  0
LINE
  8
1
 62
2
 10
3332.941021988888
 20
837.7581082538899
 30
0
 11
3327.341021988889
 21
837.7581082538899
 31
0
  0
LINE
  8
1
 62
3
 10
3333.641021988889
 20
859.2581082538899
 30
0
 11
3333.641021988889
 21
820.2581082538899
 31
0
  0
LINE
  8
1
 62
3
 10
3326.641021988889
 20
820.2581082538899
 30
0
 11
3326.641021988889
 21
859.2581082538899
 31
0
  0
LINE
  8
1
 62
2
 10
3327.341021988889
 20
859.2581082538899
 30
0
 11
3332.941021988888
 21
859.2581082538899
 31
0
  0
LINE
  8
1
 62
2
 10
3327.391021988889
 20
830.2381727770893
 30
0
 11
3327.391021988889
 21
830.0574819766665
 31
0
  0
LINE
  8
1
 62
2
 10
3328.666411856669
 20
829.485797500024
 30
0
 11
3329.379598394969
 21
829.8096092996592
 31
0
  0
LINE
  8
1
 62
2
 10
3328.122027144156
 20
829.7584370777453
 30
0
 11
3327.391021988889
 21
830.2381727770893
 31
0
  0
LINE
  8
1
 62
2
 10
3327.932793728014
 20
829.6725184439214
 30
0
 11
3327.391021988889
 21
830.0574819766665
 31
0
  0
LINE
  8
1
 62
2
 10
3328.122027144156
 20
829.7584370777453
 30
0
 11
3329.379598394969
 21
830.3294187046116
 31
0
  0
LINE
  8
1
 62
2
 10
3329.379598394969
 20
829.8096092996592
 30
0
 11
3329.379598394969
 21
830.3294187046116
 31
0
  0
LINE
  8
1
 62
2
 10
3329.379598394969
 20
828.8342949470433
 30
0
 11
3329.379598394969
 21
829.0149857474661
 31
0
  0
LINE
  8
1
 62
2
 10
3329.379598394969
 20
828.8342949470433
 30
0
 11
3328.477178440527
 21
829.3998788661996
 31
0
  0
LINE
  8
1
 62
2
 10
3327.391021988889
 20
829.4265349986139
 30
0
 11
3327.932793728014
 21
829.6725184439214
 31
0
  0
LINE
  8
1
 62
2
 10
3327.391021988889
 20
828.9067255936628
 30
0
 11
3327.391021988889
 21
829.4265349986139
 31
0
  0
LINE
  8
1
 62
2
 10
3329.379598394969
 20
829.0149857474661
 30
0
 11
3328.666411856669
 21
829.485797500024
 31
0
  0
LINE
  8
1
 62
2
 10
3327.391021988889
 20
828.9067255936628
 30
0
 11
3328.477178440527
 21
829.3998788661996
 31
0
  0
LINE
  8
1
 62
2
 10
3327.639849314799
 20
828.6445225852025
 30
0
 11
3327.391021988889
 21
828.6445225852025
 31
0
  0
LINE
  8
1
 62
2
 10
3327.639849314799
 20
827.8579215708718
 30
0
 11
3327.639849314799
 21
828.6445225852025
 31
0
  0
LINE
  8
1
 62
2
 10
3328.264726404311
 20
827.8579215708718
 30
0
 11
3327.639849314799
 21
827.8579215708718
 31
0
  0
LINE
  8
1
 62
2
 10
3328.264726404311
 20
828.6445225852025
 30
0
 11
3328.264726404311
 21
827.8579215708718
 31
0
  0
LINE
  8
1
 62
2
 10
3328.456446229367
 20
828.6445225852025
 30
0
 11
3328.264726404311
 21
828.6445225852025
 31
0
  0
LINE
  8
1
 62
2
 10
3328.456446229367
 20
827.8579215708718
 30
0
 11
3328.456446229367
 21
828.6445225852025
 31
0
  0
LINE
  8
1
 62
2
 10
3329.13092076046
 20
827.8579215708718
 30
0
 11
3328.456446229367
 21
827.8579215708718
 31
0
  0
LINE
  8
1
 62
2
 10
3329.13092076046
 20
828.6445225852025
 30
0
 11
3329.13092076046
 21
827.8579215708718
 31
0
  0
LINE
  8
1
 62
2
 10
3329.379598394969
 20
828.6445225852025
 30
0
 11
3329.13092076046
 21
828.6445225852025
 31
0
  0
LINE
  8
1
 62
2
 10
3329.379598394969
 20
827.3465749234232
 30
0
 11
3329.379598394969
 21
828.6445225852025
 31
0
  0
LINE
  8
1
 62
2
 10
3327.391021988889
 20
827.3465749234232
 30
0
 11
3329.379598394969
 21
827.3465749234232
 31
0
  0
LINE
  8
1
 62
2
 10
3327.391021988889
 20
828.6445225852025
 30
0
 11
3327.391021988889
 21
827.3465749234232
 31
0
  0
LINE
  8
1
 62
2
 10
3327.391021988889
 20
825.5188591627283
 30
0
 11
3327.391021988889
 21
826.0386685676807
 31
0
  0
LINE
  8
1
 62
2
 10
3328.51287005995
 20
826.6051077640367
 30
0
 11
3327.391021988889
 21
826.0386685676807
 31
0
  0
LINE
  8
1
 62
2
 10
3327.391021988889
 20
827.0401652753093
 30
0
 11
3328.51287005995
 21
826.6051077640367
 31
0
  0
LINE
  8
1
 62
2
 10
3327.391021988889
 20
827.2208560757316
 30
0
 11
3327.391021988889
 21
827.0401652753093
 31
0
  0
LINE
  8
1
 62
2
 10
3329.379598394969
 20
826.4521993993948
 30
0
 11
3327.391021988889
 21
827.2208560757316
 31
0
  0
LINE
  8
1
 62
2
 10
3329.379598394969
 20
826.4217428687265
 30
0
 11
3329.379598394969
 21
826.4521993993948
 31
0
  0
LINE
  8
1
 62
2
 10
3327.391021988889
 20
825.5188591627283
 30
0
 11
3329.379598394969
 21
826.4217428687265
 31
0
  0
LINE
  8
1
 62
2
 10
3329.379598394969
 20
825.4838234517846
 30
0
 11
3329.379598394969
 21
824.8828750675606
 31
0
  0
LINE
  8
1
 62
2
 10
3328.43249852775
 20
825.0824624107062
 30
0
 11
3329.379598394969
 21
825.4838234517846
 31
0
  0
LINE
  8
1
 62
2
 10
3328.484854376447
 20
824.5289686683026
 30
0
 11
3329.379598394969
 21
824.8828750675606
 31
0
  0
LINE
  8
1
 62
2
 10
3328.293134551391
 20
824.4283447142733
 30
0
 11
3327.639849314799
 21
824.4283447142733
 31
0
  0
LINE
  8
1
 62
2
 10
3328.293134551391
 20
824.7252137405443
 30
0
 11
3328.293134551391
 21
824.4283447142733
 31
0
  0
LINE
  8
1
 62
2
 10
3327.639849314799
 20
824.4283447142733
 30
0
 11
3327.639849314799
 21
824.7252137405443
 31
0
  0
LINE
  8
1
 62
2
 10
3327.391021988889
 20
824.9396913617219
 30
0
 11
3327.391021988889
 21
824.4283447142733
 31
0
  0
LINE
  8
1
 62
2
 10
3327.391021988889
 20
823.9454062139065
 30
0
 11
3327.391021988889
 21
824.4283447142733
 31
0
  0
LINE
  8
1
 62
2
 10
3328.484854376447
 20
824.4283447142733
 30
0
 11
3328.484854376447
 21
824.5289686683026
 31
0
  0
LINE
  8
1
 62
2
 10
3329.379598394969
 20
824.4283447142733
 30
0
 11
3328.484854376447
 21
824.4283447142733
 31
0
  0
LINE
  8
1
 62
2
 10
3329.379598394969
 20
823.9454062139065
 30
0
 11
3329.379598394969
 21
824.4283447142733
 31
0
  0
LINE
  8
1
 62
2
 10
3327.391021988889
 20
823.9454062139065
 30
0
 11
3329.379598394969
 21
823.9454062139065
 31
0
  0
LINE
  8
1
 62
2
 10
3327.639849314799
 20
823.6844071145091
 30
0
 11
3327.391021988889
 21
823.6844071145091
 31
0
  0
LINE
  8
1
 62
2
 10
3327.639849314799
 20
822.8978061001793
 30
0
 11
3327.639849314799
 21
823.6844071145091
 31
0
  0
LINE
  8
1
 62
2
 10
3328.264726404311
 20
822.8978061001793
 30
0
 11
3327.639849314799
 21
822.8978061001793
 31
0
  0
LINE
  8
1
 62
2
 10
3328.264726404311
 20
823.6844071145091
 30
0
 11
3328.264726404311
 21
822.8978061001793
 31
0
  0
LINE
  8
1
 62
2
 10
3328.456446229367
 20
823.6844071145091
 30
0
 11
3328.264726404311
 21
823.6844071145091
 31
0
  0
LINE
  8
1
 62
2
 10
3328.456446229367
 20
822.8978061001793
 30
0
 11
3328.456446229367
 21
823.6844071145091
 31
0
  0
LINE
  8
1
 62
2
 10
3329.13092076046
 20
822.8978061001793
 30
0
 11
3328.456446229367
 21
822.8978061001793
 31
0
  0
LINE
  8
1
 62
2
 10
3329.13092076046
 20
823.6844071145091
 30
0
 11
3329.13092076046
 21
822.8978061001793
 31
0
  0
LINE
  8
1
 62
2
 10
3329.379598394969
 20
823.6844071145091
 30
0
 11
3329.13092076046
 21
823.6844071145091
 31
0
  0
LINE
  8
1
 62
2
 10
3329.379598394969
 20
822.3864594527307
 30
0
 11
3329.379598394969
 21
823.6844071145091
 31
0
  0
LINE
  8
1
 62
2
 10
3327.391021988889
 20
822.3864594527307
 30
0
 11
3329.379598394969
 21
822.3864594527307
 31
0
  0
LINE
  8
1
 62
2
 10
3327.391021988889
 20
823.6844071145091
 30
0
 11
3327.391021988889
 21
822.3864594527307
 31
0
  0
LINE
  8
1
 62
2
 10
3328.030442108232
 20
821.3567573405752
 30
0
 11
3328.28911051644
 21
821.9179847930444
 31
0
  0
LINE
  8
1
 62
2
 10
3328.889682489634
 20
820.9939449686548
 30
0
 11
3329.105605130276
 21
820.7554521428182
 31
0
  0
LINE
  8
1
 62
2
 10
3327.776097571846
 20
821.7121855674617
 30
0
 11
3327.627881217058
 21
822.0272313729423
 31
0
  0
LINE
  8
1
 62
2
 10
3328.455855296284
 20
820.9970103498853
 30
0
 11
3328.64204460335
 21
821.4736510142201
 31
0
  0
LINE
  8
1
 62
7
 10
3307.330140265421
 20
861.7581082538903
 30
0
 11
3307.330140265421
 21
864.7581082538892
 31
0
  0
LINE
  8
1
 62
7
 10
3299.880140265422
 20
861.7581082538903
 30
0
 11
3307.330140265421
 21
861.7581082538903
 31
0
  0
LINE
  8
1
 62
7
 10
3300.380140265422
 20
861.7581082538903
 30
0
 11
3306.280140265421
 21
861.7581082538903
 31
0
  0
LINE
  8
1
 62
7
 10
3306.280140265421
 20
862.4581082538892
 30
0
 11
3300.380140265422
 21
862.4581082538892
 31
0
  0
LINE
  8
1
 62
7
 10
3306.280140265421
 20
861.7581082538903
 30
0
 11
3306.280140265421
 21
862.4581082538892
 31
0
  0
LINE
  8
1
 62
7
 10
3301.620140265422
 20
862.4581082538892
 30
0
 11
3305.040140265421
 21
862.4581082538892
 31
0
  0
LINE
  8
1
 62
7
 10
3305.040140265421
 20
862.4581082538892
 30
0
 11
3306.130140265422
 21
862.4581082538892
 31
0
  0
LINE
  8
1
 62
7
 10
3306.130140265422
 20
862.4581082538892
 30
0
 11
3306.130140265422
 21
863.9568259918134
 31
0
  0
LINE
  8
1
 62
7
 10
3303.742054700248
 20
816.3915069048868
 30
0
 11
3303.742054700248
 21
815.4915069048869
 31
0
  0
LINE
  8
1
 62
7
 10
3303.742054700248
 20
815.4915069048869
 30
0
 11
3303.742054700248
 21
815.0415069048867
 31
0
  0
LINE
  8
1
 62
7
 10
3304.642054700248
 20
816.3915069048868
 30
0
 11
3304.642054700248
 21
815.4915069048869
 31
0
  0
LINE
  8
1
 62
7
 10
3304.642054700248
 20
815.4915069048869
 30
0
 11
3304.642054700248
 21
815.0415069048867
 31
0
  0
LINE
  8
1
 62
7
 10
3304.642054700248
 20
815.4915069048869
 30
0
 11
3303.742054700248
 21
815.4915069048869
 31
0
  0
LINE
  8
1
 62
7
 10
3304.642054700248
 20
816.3915069048868
 30
0
 11
3303.742054700248
 21
816.3915069048868
 31
0
  0
LINE
  8
1
 62
7
 10
3303.742054700248
 20
817.9215069048868
 30
0
 11
3303.742054700248
 21
816.3915069048868
 31
0
  0
LINE
  8
1
 62
7
 10
3304.642054700248
 20
817.9215069048868
 30
0
 11
3304.642054700248
 21
816.3915069048868
 31
0
  0
LINE
  8
1
 62
7
 10
3304.642054700248
 20
817.9215069048868
 30
0
 11
3303.742054700248
 21
817.9215069048868
 31
0
  0
LINE
  8
1
 62
7
 10
3304.642054700248
 20
815.0415069048867
 30
0
 11
3303.742054700248
 21
815.0415069048867
 31
0
  0
LINE
  8
1
 62
7
 10
3304.885054700248
 20
816.3915069048868
 30
0
 11
3304.885054700248
 21
815.4915069048869
 31
0
  0
LINE
  8
1
 62
7
 10
3304.885054700248
 20
815.4915069048869
 30
0
 11
3304.885054700248
 21
815.0415069048867
 31
0
  0
LINE
  8
1
 62
7
 10
3305.785054700249
 20
816.3915069048868
 30
0
 11
3305.785054700249
 21
815.4915069048869
 31
0
  0
LINE
  8
1
 62
7
 10
3305.785054700249
 20
815.4915069048869
 30
0
 11
3305.785054700249
 21
815.0415069048867
 31
0
  0
LINE
  8
1
 62
7
 10
3305.785054700249
 20
815.4915069048869
 30
0
 11
3304.885054700248
 21
815.4915069048869
 31
0
  0
LINE
  8
1
 62
7
 10
3305.785054700249
 20
816.3915069048868
 30
0
 11
3304.885054700248
 21
816.3915069048868
 31
0
  0
LINE
  8
1
 62
7
 10
3304.885054700248
 20
817.9215069048868
 30
0
 11
3304.885054700248
 21
816.3915069048868
 31
0
  0
LINE
  8
1
 62
7
 10
3305.785054700249
 20
817.9215069048868
 30
0
 11
3305.785054700249
 21
816.3915069048868
 31
0
  0
LINE
  8
1
 62
7
 10
3305.785054700249
 20
817.9215069048868
 30
0
 11
3304.885054700248
 21
817.9215069048868
 31
0
  0
LINE
  8
1
 62
7
 10
3305.785054700249
 20
815.0415069048867
 30
0
 11
3304.885054700248
 21
815.0415069048867
 31
0
  0
LINE
  8
1
 62
7
 10
3306.028054700248
 20
816.3915069048868
 30
0
 11
3306.028054700248
 21
815.4915069048869
 31
0
  0
LINE
  8
1
 62
7
 10
3306.028054700248
 20
815.4915069048869
 30
0
 11
3306.028054700248
 21
815.0415069048867
 31
0
  0
LINE
  8
1
 62
7
 10
3306.928054700249
 20
816.3915069048868
 30
0
 11
3306.928054700249
 21
815.4915069048869
 31
0
  0
LINE
  8
1
 62
7
 10
3306.928054700249
 20
815.4915069048869
 30
0
 11
3306.928054700249
 21
815.0415069048867
 31
0
  0
LINE
  8
1
 62
7
 10
3306.928054700249
 20
815.4915069048869
 30
0
 11
3306.028054700248
 21
815.4915069048869
 31
0
  0
LINE
  8
1
 62
7
 10
3306.928054700249
 20
816.3915069048868
 30
0
 11
3306.028054700248
 21
816.3915069048868
 31
0
  0
LINE
  8
1
 62
7
 10
3306.028054700248
 20
817.9215069048868
 30
0
 11
3306.028054700248
 21
816.3915069048868
 31
0
  0
LINE
  8
1
 62
7
 10
3306.928054700249
 20
817.9215069048868
 30
0
 11
3306.928054700249
 21
816.3915069048868
 31
0
  0
LINE
  8
1
 62
7
 10
3306.928054700249
 20
817.9215069048868
 30
0
 11
3306.028054700248
 21
817.9215069048868
 31
0
  0
LINE
  8
1
 62
7
 10
3306.928054700249
 20
815.0415069048867
 30
0
 11
3306.028054700248
 21
815.0415069048867
 31
0
  0
LINE
  8
1
 62
7
 10
3307.171054700248
 20
816.3915069048868
 30
0
 11
3307.171054700248
 21
815.4915069048869
 31
0
  0
LINE
  8
1
 62
7
 10
3307.171054700248
 20
815.4915069048869
 30
0
 11
3307.171054700248
 21
815.0415069048867
 31
0
  0
LINE
  8
1
 62
7
 10
3308.071054700249
 20
816.3915069048868
 30
0
 11
3308.071054700249
 21
815.4915069048869
 31
0
  0
LINE
  8
1
 62
7
 10
3308.071054700249
 20
815.4915069048869
 30
0
 11
3308.071054700249
 21
815.0415069048867
 31
0
  0
LINE
  8
1
 62
7
 10
3308.071054700249
 20
815.4915069048869
 30
0
 11
3307.171054700248
 21
815.4915069048869
 31
0
  0
LINE
  8
1
 62
7
 10
3308.071054700249
 20
816.3915069048868
 30
0
 11
3307.171054700248
 21
816.3915069048868
 31
0
  0
LINE
  8
1
 62
7
 10
3307.171054700248
 20
817.9215069048868
 30
0
 11
3307.171054700248
 21
816.3915069048868
 31
0
  0
LINE
  8
1
 62
7
 10
3308.071054700249
 20
817.9215069048868
 30
0
 11
3308.071054700249
 21
816.3915069048868
 31
0
  0
LINE
  8
1
 62
7
 10
3308.071054700249
 20
817.9215069048868
 30
0
 11
3307.171054700248
 21
817.9215069048868
 31
0
  0
LINE
  8
1
 62
7
 10
3308.071054700249
 20
815.0415069048867
 30
0
 11
3307.171054700248
 21
815.0415069048867
 31
0
  0
LINE
  8
1
 62
7
 10
3304.394554700248
 20
819.0915069048868
 30
0
 11
3303.989554700248
 21
819.0915069048868
 31
0
  0
LINE
  8
1
 62
7
 10
3303.989554700248
 20
818.9115069048868
 30
0
 11
3303.989554700248
 21
819.0915069048868
 31
0
  0
LINE
  8
1
 62
7
 10
3304.394554700248
 20
818.9115069048868
 30
0
 11
3304.394554700248
 21
819.0915069048868
 31
0
  0
LINE
  8
1
 62
7
 10
3305.537554700248
 20
819.0915069048868
 30
0
 11
3305.132554700248
 21
819.0915069048868
 31
0
  0
LINE
  8
1
 62
7
 10
3305.132554700248
 20
818.9115069048868
 30
0
 11
3305.132554700248
 21
819.0915069048868
 31
0
  0
LINE
  8
1
 62
7
 10
3305.537554700248
 20
818.9115069048868
 30
0
 11
3305.537554700248
 21
819.0915069048868
 31
0
  0
LINE
  8
1
 62
7
 10
3306.680554700248
 20
819.0915069048868
 30
0
 11
3306.275554700248
 21
819.0915069048868
 31
0
  0
LINE
  8
1
 62
7
 10
3306.275554700248
 20
818.9115069048868
 30
0
 11
3306.275554700248
 21
819.0915069048868
 31
0
  0
LINE
  8
1
 62
7
 10
3306.680554700248
 20
818.9115069048868
 30
0
 11
3306.680554700248
 21
819.0915069048868
 31
0
  0
LINE
  8
1
 62
7
 10
3307.823554700248
 20
819.0915069048868
 30
0
 11
3307.418554700248
 21
819.0915069048868
 31
0
  0
LINE
  8
1
 62
7
 10
3307.418554700248
 20
818.9115069048868
 30
0
 11
3307.418554700248
 21
819.0915069048868
 31
0
  0
LINE
  8
1
 62
7
 10
3307.823554700248
 20
818.9115069048868
 30
0
 11
3307.823554700248
 21
819.0915069048868
 31
0
  0
LINE
  8
1
 62
7
 10
3304.394554700248
 20
813.8715069048868
 30
0
 11
3303.989554700248
 21
813.8715069048868
 31
0
  0
LINE
  8
1
 62
7
 10
3303.989554700248
 20
814.0515069048869
 30
0
 11
3303.989554700248
 21
813.8715069048868
 31
0
  0
LINE
  8
1
 62
7
 10
3304.394554700248
 20
814.0515069048869
 30
0
 11
3304.394554700248
 21
813.8715069048868
 31
0
  0
LINE
  8
1
 62
7
 10
3305.537554700248
 20
813.8715069048868
 30
0
 11
3305.132554700248
 21
813.8715069048868
 31
0
  0
LINE
  8
1
 62
7
 10
3305.132554700248
 20
814.0515069048869
 30
0
 11
3305.132554700248
 21
813.8715069048868
 31
0
  0
LINE
  8
1
 62
7
 10
3305.537554700248
 20
814.0515069048869
 30
0
 11
3305.537554700248
 21
813.8715069048868
 31
0
  0
LINE
  8
1
 62
7
 10
3306.680554700248
 20
813.8715069048868
 30
0
 11
3306.275554700248
 21
813.8715069048868
 31
0
  0
LINE
  8
1
 62
7
 10
3306.275554700248
 20
814.0515069048869
 30
0
 11
3306.275554700248
 21
813.8715069048868
 31
0
  0
LINE
  8
1
 62
7
 10
3306.680554700248
 20
814.0515069048869
 30
0
 11
3306.680554700248
 21
813.8715069048868
 31
0
  0
LINE
  8
1
 62
7
 10
3307.823554700248
 20
813.8715069048868
 30
0
 11
3307.418554700248
 21
813.8715069048868
 31
0
  0
LINE
  8
1
 62
7
 10
3307.418554700248
 20
814.0515069048869
 30
0
 11
3307.418554700248
 21
813.8715069048868
 31
0
  0
LINE
  8
1
 62
7
 10
3307.823554700248
 20
814.0515069048869
 30
0
 11
3307.823554700248
 21
813.8715069048868
 31
0
  0
LINE
  8
1
 62
7
 10
3303.112054700248
 20
818.9115069048868
 30
0
 11
3303.112054700248
 21
814.0515069048869
 31
0
  0
LINE
  8
1
 62
7
 10
3308.701054700248
 20
818.9115069048868
 30
0
 11
3308.701054700248
 21
814.0515069048869
 31
0
  0
LINE
  8
1
 62
7
 10
3308.701054700248
 20
814.0515069048869
 30
0
 11
3303.112054700248
 21
814.0515069048869
 31
0
  0
LINE
  8
1
 62
7
 10
3308.701054700248
 20
818.9115069048868
 30
0
 11
3303.112054700248
 21
818.9115069048868
 31
0
  0
LINE
  8
1
 62
7
 10
3312.482688162562
 20
817.7841432481547
 30
0
 11
3312.866688162562
 21
817.7841432481547
 31
0
  0
LINE
  8
1
 62
7
 10
3314.402688162562
 20
817.7841432481547
 30
0
 11
3314.018688162562
 21
817.7841432481547
 31
0
  0
LINE
  8
1
 62
2
 10
3312.482688162562
 20
816.6321432481547
 30
0
 11
3314.402688162562
 21
816.6321432481547
 31
0
  0
LINE
  8
1
 62
2
 10
3312.482688162562
 20
815.0961432481546
 30
0
 11
3314.402688162562
 21
815.0961432481546
 31
0
  0
LINE
  8
1
 62
7
 10
3312.866688162562
 20
813.9441432481546
 30
0
 11
3312.482688162562
 21
813.9441432481546
 31
0
  0
LINE
  8
1
 62
7
 10
3314.018688162562
 20
813.9441432481546
 30
0
 11
3314.402688162562
 21
813.9441432481546
 31
0
  0
LINE
  8
1
 62
7
 10
3312.482688162562
 20
817.7841432481547
 30
0
 11
3312.482688162562
 21
815.0961432481546
 31
0
  0
LINE
  8
1
 62
7
 10
3314.402688162562
 20
817.7841432481547
 30
0
 11
3314.402688162562
 21
815.0961432481546
 31
0
  0
LINE
  8
1
 62
7
 10
3314.402688162562
 20
815.0961432481546
 30
0
 11
3314.402688162562
 21
813.9441432481546
 31
0
  0
LINE
  8
1
 62
7
 10
3312.482688162562
 20
815.0961432481546
 30
0
 11
3312.482688162562
 21
813.9441432481546
 31
0
  0
LINE
  8
1
 62
7
 10
3309.596080872209
 20
816.1295739127708
 30
0
 11
3311.314830872209
 21
816.1295739127708
 31
0
  0
LINE
  8
1
 62
7
 10
3309.596080872209
 20
814.3954705674306
 30
0
 11
3311.314830872209
 21
814.3954705674306
 31
0
  0
LINE
  8
1
 62
7
 10
3309.596080872209
 20
816.6604507933761
 30
0
 11
3309.596080872209
 21
813.9104507933761
 31
0
  0
LINE
  8
1
 62
7
 10
3311.314830872209
 20
816.6604507933761
 30
0
 11
3311.314830872209
 21
813.9104507933761
 31
0
  0
LINE
  8
1
 62
7
 10
3311.314830872209
 20
816.6604507933761
 30
0
 11
3309.596080872209
 21
816.6604507933761
 31
0
  0
LINE
  8
1
 62
7
 10
3309.596080872209
 20
813.9104507933761
 30
0
 11
3311.314830872209
 21
813.9104507933761
 31
0
  0
LINE
  8
1
 62
3
 10
3275.994383693174
 20
811.8503237129158
 30
0
 11
3335.164308067707
 21
811.8503237129158
 31
0
  0
ARC
  8
1
 62
3
 10
3212.780878355315
 20
814.7581082538901
 30
0
 40
4.79999999999868
 50
4.331148730789421
 51
17.58277600842611
  0
ARC
  8
1
 62
3
 10
3212.780878355315
 20
814.7581082538901
 30
0
 40
4.799999999998609
 50
324.3146652873334
 51
342.4172239915713
  0
ARC
  8
1
 62
3
 10
3212.780878355315
 20
814.7581082538901
 30
0
 40
4.799999999999282
 50
342.4172239915713
 51
355.6688512692079
  0
ARC
  8
1
 62
3
 10
3212.780878355315
 20
814.7581082538901
 30
0
 40
4.799999999999213
 50
17.58277600842611
 51
35.68533471266444
  0
ARC
  8
1
 62
3
 10
3212.780878355315
 20
864.7581082538901
 30
0
 40
4.79999999999868
 50
4.331148730789421
 51
17.58277600842611
  0
ARC
  8
1
 62
3
 10
3212.780878355315
 20
864.7581082538901
 30
0
 40
4.799999999998609
 50
324.3146652873334
 51
342.4172239915713
  0
ARC
  8
1
 62
3
 10
3212.780878355315
 20
864.7581082538901
 30
0
 40
4.799999999999282
 50
342.4172239915713
 51
355.6688512692079
  0
ARC
  8
1
 62
3
 10
3212.780878355315
 20
864.7581082538901
 30
0
 40
4.799999999999213
 50
17.58277600842611
 51
35.68533471266444
  0
ARC
  8
1
 62
3
 10
3181.967170631179
 20
814.7581082538901
 30
0
 40
4.799999999999213
 50
162.4172239915739
 51
175.6688512692114
  0
ARC
  8
1
 62
3
 10
3181.967170631179
 20
814.7581082538901
 30
0
 40
4.799999999999282
 50
197.5827760084287
 51
215.6853347126572
  0
ARC
  8
1
 62
3
 10
3181.967170631179
 20
814.7581082538901
 30
0
 40
4.799999999999604
 50
184.3311487307913
 51
197.5827760084287
  0
ARC
  8
1
 62
3
 10
3181.967170631179
 20
814.7581082538901
 30
0
 40
4.799999999999585
 50
144.3146652873451
 51
162.4172239915739
  0
ARC
  8
1
 62
3
 10
3284.436263777919
 20
840.3831082538901
 30
0
 40
0.625
 50
90
 51
270
  0
ARC
  8
1
 62
3
 10
3284.436263777919
 20
839.1331082538901
 30
0
 40
0.625
 50
90
 51
270
  0
ARC
  8
1
 62
3
 10
3226.442170631178
 20
839.1331082538899
 30
0
 40
0.625
 50
270
 51
90
  0
ARC
  8
1
 62
3
 10
3226.442170631178
 20
840.3831082538901
 30
0
 40
0.6250000000002274
 50
270
 51
90
  0
ARC
  8
1
 62
7
 10
3303.334778241592
 20
860.0581082538901
 30
0
 40
4.799999999999821
 50
54.31466528735044
 51
72.41722399157635
  0
ARC
  8
1
 62
7
 10
3303.334778241592
 20
860.0581082538901
 30
0
 40
4.800000000000058
 50
94.33114873079089
 51
107.5827760084288
  0
ARC
  8
1
 62
7
 10
3303.334778241592
 20
860.0581082538901
 30
0
 40
4.800000000000001
 50
107.5827760084288
 51
125.685334712654
  0
ARC
  8
1
 62
7
 10
3303.334778241592
 20
860.0581082538901
 30
0
 40
4.799999999999864
 50
72.41722399157635
 51
85.66885126921451
  0
ARC
  8
1
 62
7
 10
3327.734778241591
 20
860.0581082538901
 30
0
 40
4.800000000000618
 50
54.3146652873372
 51
72.41722399157118
  0
ARC
  8
1
 62
7
 10
3327.734778241591
 20
860.0581082538901
 30
0
 40
4.800000000000023
 50
94.33114873078547
 51
107.5827760084133
  0
ARC
  8
1
 62
7
 10
3327.734778241591
 20
860.0581082538901
 30
0
 40
4.799999999999589
 50
107.5827760084133
 51
125.6853347126496
  0
ARC
  8
1
 62
7
 10
3327.734778241591
 20
860.0581082538901
 30
0
 40
4.800000000000001
 50
72.41722399157118
 51
85.66885126919829
  0
ARC
  8
1
 62
3
 10
3272.641021988889
 20
740.2450626522124
 30
0
 40
4.799999999999821
 50
234.3146652873504
 51
252.4172239915668
  0
ARC
  8
1
 62
3
 10
3272.641021988889
 20
740.2450626522124
 30
0
 40
4.799999999999989
 50
274.3311487307801
 51
287.582776008428
  0
ARC
  8
1
 62
3
 10
3272.641021988889
 20
740.2450626522124
 30
0
 40
4.800000000000217
 50
287.582776008428
 51
305.6853347126452
  0
ARC
  8
1
 62
3
 10
3272.641021988889
 20
740.2450626522124
 30
0
 40
4.800000000000355
 50
252.4172239915668
 51
265.6688512692145
  0
ARC
  8
1
 62
3
 10
3338.641021988889
 20
864.7581082538903
 30
0
 40
1.449999999999455
 50
30.21619828525076
 51
59.78380171476152
  0
ARC
  8
1
 62
3
 10
3338.641021988889
 20
864.7581082538903
 30
0
 40
0.6349999999996382
 50
82.54155094370923
 51
97.45844905629078
  0
ARC
  8
1
 62
3
 10
3338.641021988889
 20
864.7581082538903
 30
0
 40
1.449999999999537
 50
120.2161982852385
 51
149.7838017147854
  0
ARC
  8
1
 62
3
 10
3338.641021988889
 20
864.7581082538903
 30
0
 40
0.6349999999998636
 50
172.5415509437119
 51
187.4584490563288
  0
ARC
  8
1
 62
3
 10
3338.641021988889
 20
864.7581082538903
 30
0
 40
1.450000000001255
 50
210.2161982852301
 51
239.7838017147706
  0
ARC
  8
1
 62
3
 10
3338.641021988889
 20
864.7581082538903
 30
0
 40
0.6350000000000889
 50
262.5415509437146
 51
277.4584490562854
  0
ARC
  8
1
 62
3
 10
3338.641021988889
 20
864.7581082538903
 30
0
 40
1.44999999999993
 50
300.2161982852294
 51
329.7838017147337
  0
ARC
  8
1
 62
3
 10
3338.641021988889
 20
864.7581082538903
 30
0
 40
0.6349999999999226
 50
352.5415509436712
 51
7.458449056288115
  0
ARC
  8
1
 62
3
 10
3272.641021988889
 20
814.7581082538901
 30
0
 40
1.449999999999569
 50
30.21619828525852
 51
59.78380171476606
  0
ARC
  8
1
 62
3
 10
3272.641021988889
 20
814.7581082538901
 30
0
 40
0.6349999999998636
 50
82.54155094371188
 51
97.45844905628812
  0
ARC
  8
1
 62
3
 10
3272.641021988889
 20
814.7581082538901
 30
0
 40
1.449999999999733
 50
120.216198285234
 51
149.7838017147776
  0
ARC
  8
1
 62
3
 10
3272.641021988889
 20
814.7581082538901
 30
0
 40
0.6349999999998931
 50
172.5415509436915
 51
187.4584490563085
  0
ARC
  8
1
 62
3
 10
3272.641021988889
 20
814.7581082538901
 30
0
 40
1.450000000001141
 50
210.2161982852224
 51
239.783801714766
  0
ARC
  8
1
 62
3
 10
3272.641021988889
 20
814.7581082538901
 30
0
 40
0.6349999999998636
 50
262.5415509437119
 51
277.4584490562882
  0
ARC
  8
1
 62
3
 10
3272.641021988889
 20
814.7581082538901
 30
0
 40
1.449999999999733
 50
300.216198285234
 51
329.7838017147414
  0
ARC
  8
1
 62
3
 10
3272.641021988889
 20
814.7581082538901
 30
0
 40
0.6349999999998931
 50
352.5415509436915
 51
7.458449056308459
  0
ARC
  8
1
 62
3
 10
3321.641021988889
 20
855.7581082538901
 30
0
 40
1.449999999999569
 50
30.21619828525852
 51
59.78380171476152
  0
ARC
  8
1
 62
3
 10
3321.641021988889
 20
855.7581082538901
 30
0
 40
0.6349999999998636
 50
82.54155094371188
 51
97.45844905636949
  0
ARC
  8
1
 62
3
 10
3321.641021988889
 20
855.7581082538901
 30
0
 40
1.449999999999537
 50
120.2161982852385
 51
149.7838017147776
  0
ARC
  8
1
 62
3
 10
3321.641021988889
 20
855.7581082538901
 30
0
 40
0.6349999999998636
 50
172.5415509437119
 51
187.4584490563288
  0
ARC
  8
1
 62
3
 10
3321.641021988889
 20
855.7581082538901
 30
0
 40
1.45000000000137
 50
210.2161982852379
 51
239.7838017147706
  0
ARC
  8
1
 62
3
 10
3321.641021988889
 20
855.7581082538901
 30
0
 40
0.6350000000004326
 50
262.5415509436359
 51
277.4584490562828
  0
ARC
  8
1
 62
3
 10
3321.641021988889
 20
855.7581082538901
 30
0
 40
1.44999999999993
 50
300.2161982852294
 51
329.7838017147259
  0
ARC
  8
1
 62
3
 10
3321.641021988889
 20
855.7581082538901
 30
0
 40
0.6349999999999226
 50
352.5415509436712
 51
7.458449056288115
  0
ARC
  8
1
 62
3
 10
3321.641021988889
 20
823.7581082538901
 30
0
 40
1.449999999999569
 50
30.21619828525852
 51
59.78380171476152
  0
ARC
  8
1
 62
3
 10
3321.641021988889
 20
823.7581082538901
 30
0
 40
0.6349999999998636
 50
82.54155094371188
 51
97.45844905636949
  0
ARC
  8
1
 62
3
 10
3321.641021988889
 20
823.7581082538901
 30
0
 40
1.449999999999537
 50
120.2161982852385
 51
149.7838017147776
  0
ARC
  8
1
 62
3
 10
3321.641021988889
 20
823.7581082538901
 30
0
 40
0.6349999999998636
 50
172.5415509437119
 51
187.4584490563288
  0
ARC
  8
1
 62
3
 10
3321.641021988889
 20
823.7581082538901
 30
0
 40
0.6349999999999226
 50
352.5415509436712
 51
7.458449056288115
  0
ARC
  8
1
 62
3
 10
3321.641021988889
 20
823.7581082538901
 30
0
 40
1.44999999999993
 50
300.2161982852294
 51
329.7838017147259
  0
ARC
  8
1
 62
3
 10
3321.641021988889
 20
823.7581082538901
 30
0
 40
0.6350000000004326
 50
262.5415509436359
 51
277.4584490562828
  0
ARC
  8
1
 62
3
 10
3321.641021988889
 20
823.7581082538901
 30
0
 40
1.45000000000137
 50
210.2161982852379
 51
239.7838017147706
  0
ARC
  8
1
 62
3
 10
3289.641021988889
 20
823.7581082538901
 30
0
 40
1.449999999999569
 50
30.21619828525852
 51
59.78380171476152
  0
ARC
  8
1
 62
3
 10
3289.641021988889
 20
823.7581082538901
 30
0
 40
0.6349999999998636
 50
82.54155094371188
 51
97.45844905628812
  0
ARC
  8
1
 62
3
 10
3289.641021988889
 20
823.7581082538901
 30
0
 40
1.449999999999537
 50
120.2161982852385
 51
149.7838017147776
  0
ARC
  8
1
 62
3
 10
3289.641021988889
 20
823.7581082538901
 30
0
 40
0.6349999999998636
 50
172.5415509437119
 51
187.4584490563288
  0
ARC
  8
1
 62
3
 10
3289.641021988889
 20
823.7581082538901
 30
0
 40
0.6349999999999226
 50
352.5415509436712
 51
7.458449056288115
  0
ARC
  8
1
 62
3
 10
3289.641021988889
 20
823.7581082538901
 30
0
 40
1.44999999999993
 50
300.2161982852294
 51
329.7838017147259
  0
ARC
  8
1
 62
3
 10
3289.641021988889
 20
823.7581082538901
 30
0
 40
0.6350000000003144
 50
262.5415509437172
 51
277.4584490562828
  0
ARC
  8
1
 62
3
 10
3289.641021988889
 20
823.7581082538901
 30
0
 40
1.45000000000137
 50
210.2161982852379
 51
239.7838017147706
  0
ARC
  8
1
 62
3
 10
3289.641021988889
 20
855.7581082538901
 30
0
 40
1.449999999999569
 50
30.21619828525852
 51
59.78380171476152
  0
ARC
  8
1
 62
3
 10
3289.641021988889
 20
855.7581082538901
 30
0
 40
0.6349999999998636
 50
82.54155094371188
 51
97.45844905628812
  0
ARC
  8
1
 62
3
 10
3289.641021988889
 20
855.7581082538901
 30
0
 40
1.449999999999537
 50
120.2161982852385
 51
149.7838017147776
  0
ARC
  8
1
 62
3
 10
3289.641021988889
 20
855.7581082538901
 30
0
 40
0.6349999999998636
 50
172.5415509437119
 51
187.4584490563288
  0
ARC
  8
1
 62
3
 10
3289.641021988889
 20
855.7581082538901
 30
0
 40
0.6349999999999226
 50
352.5415509436712
 51
7.458449056288115
  0
ARC
  8
1
 62
3
 10
3289.641021988889
 20
855.7581082538901
 30
0
 40
1.450000000000126
 50
300.2161982852249
 51
329.7838017147259
  0
ARC
  8
1
 62
3
 10
3289.641021988889
 20
855.7581082538901
 30
0
 40
0.6350000000003144
 50
262.5415509437172
 51
277.4584490562828
  0
ARC
  8
1
 62
3
 10
3289.641021988889
 20
855.7581082538901
 30
0
 40
1.45000000000137
 50
210.2161982852379
 51
239.7838017147751
  0
ARC
  8
1
 62
3
 10
3226.280878355315
 20
823.7581082538903
 30
0
 40
4.79999999999868
 50
4.331148730789421
 51
17.58277600842283
  0
ARC
  8
1
 62
3
 10
3226.280878355315
 20
823.7581082538903
 30
0
 40
4.799999999998609
 50
324.3146652873334
 51
342.4172239915746
  0
ARC
  8
1
 62
3
 10
3226.280878355315
 20
823.7581082538903
 30
0
 40
4.800000000000149
 50
342.4172239915746
 51
355.6688512692079
  0
ARC
  8
1
 62
3
 10
3226.280878355315
 20
823.7581082538903
 30
0
 40
4.800000000000081
 50
17.58277600842283
 51
35.68533471266444
  0
ARC
  8
1
 62
3
 10
3226.280878355315
 20
855.7581082538903
 30
0
 40
4.79999999999868
 50
4.331148730789421
 51
17.58277600842283
  0
ARC
  8
1
 62
3
 10
3226.280878355315
 20
855.7581082538903
 30
0
 40
4.799999999998609
 50
324.3146652873334
 51
342.4172239915746
  0
ARC
  8
1
 62
3
 10
3226.280878355315
 20
855.7581082538903
 30
0
 40
4.800000000000149
 50
342.4172239915746
 51
355.6688512692079
  0
ARC
  8
1
 62
3
 10
3226.280878355315
 20
855.7581082538903
 30
0
 40
4.800000000000081
 50
17.58277600842283
 51
35.68533471266444
  0
ARC
  8
1
 62
3
 10
3380.926875274673
 20
823.7581082538903
 30
0
 40
4.799999999999213
 50
162.4172239915739
 51
175.6688512692122
  0
ARC
  8
1
 62
3
 10
3380.926875274673
 20
823.7581082538903
 30
0
 40
4.799999999999282
 50
197.5827760084287
 51
215.6853347126508
  0
ARC
  8
1
 62
3
 10
3380.926875274673
 20
823.7581082538903
 30
0
 40
4.800000000000511
 50
184.3311487307905
 51
197.5827760084287
  0
ARC
  8
1
 62
3
 10
3380.926875274673
 20
823.7581082538903
 30
0
 40
4.800000000000324
 50
144.3146652873514
 51
162.4172239915739
  0
ARC
  8
1
 62
3
 10
3380.926875274673
 20
855.7581082538903
 30
0
 40
4.799999999999213
 50
162.4172239915739
 51
175.6688512692122
  0
ARC
  8
1
 62
3
 10
3380.926875274673
 20
855.7581082538903
 30
0
 40
4.799999999999282
 50
197.5827760084287
 51
215.6853347126508
  0
ARC
  8
1
 62
3
 10
3380.926875274673
 20
855.7581082538903
 30
0
 40
4.800000000000511
 50
184.3311487307905
 51
197.5827760084287
  0
ARC
  8
1
 62
3
 10
3380.926875274673
 20
855.7581082538903
 30
0
 40
4.800000000000324
 50
144.3146652873514
 51
162.4172239915739
  0
ARC
  8
1
 62
3
 10
3394.426875274673
 20
814.7581082538901
 30
0
 40
4.799999999999213
 50
162.4172239915739
 51
175.6688512692122
  0
ARC
  8
1
 62
3
 10
3394.426875274673
 20
814.7581082538901
 30
0
 40
4.799999999999282
 50
197.5827760084287
 51
215.6853347126508
  0
ARC
  8
1
 62
3
 10
3394.426875274673
 20
814.7581082538901
 30
0
 40
4.800000000000511
 50
184.3311487307905
 51
197.5827760084287
  0
ARC
  8
1
 62
3
 10
3394.426875274673
 20
814.7581082538901
 30
0
 40
4.800000000000324
 50
144.3146652873514
 51
162.4172239915739
  0
ARC
  8
1
 62
3
 10
3394.426875274673
 20
864.7581082538901
 30
0
 40
4.799999999999213
 50
162.4172239915739
 51
175.6688512692122
  0
ARC
  8
1
 62
3
 10
3394.426875274673
 20
864.7581082538901
 30
0
 40
4.799999999999282
 50
197.5827760084287
 51
215.6853347126508
  0
ARC
  8
1
 62
3
 10
3394.426875274673
 20
864.7581082538901
 30
0
 40
4.800000000000511
 50
184.3311487307905
 51
197.5827760084287
  0
ARC
  8
1
 62
3
 10
3394.426875274673
 20
864.7581082538901
 30
0
 40
4.800000000000324
 50
144.3146652873514
 51
162.4172239915739
  0
ARC
  8
1
 62
3
 10
3425.240582998809
 20
864.7581082538903
 30
0
 40
4.799999999999282
 50
342.4172239915713
 51
355.6688512692087
  0
ARC
  8
1
 62
3
 10
3425.240582998809
 20
864.7581082538903
 30
0
 40
4.799999999999213
 50
17.58277600842611
 51
35.68533471265495
  0
ARC
  8
1
 62
3
 10
3425.240582998809
 20
864.7581082538903
 30
0
 40
4.799999999999587
 50
4.3311487307886
 51
17.58277600842611
  0
ARC
  8
1
 62
3
 10
3425.240582998809
 20
864.7581082538903
 30
0
 40
4.799999999999717
 50
324.3146652873429
 51
342.4172239915713
  0
ARC
  8
1
 62
3
 10
3272.641021988889
 20
771.058770376348
 30
0
 40
4.800000000000001
 50
72.41722399157118
 51
85.66885126921974
  0
ARC
  8
1
 62
3
 10
3272.641021988889
 20
771.058770376348
 30
0
 40
4.800000000000138
 50
107.582776008434
 51
125.6853347126511
  0
ARC
  8
1
 62
3
 10
3272.641021988889
 20
771.058770376348
 30
0
 40
4.799999999999796
 50
94.3311487307857
 51
107.582776008434
  0
ARC
  8
1
 62
3
 10
3272.641021988889
 20
771.058770376348
 30
0
 40
4.799999999999372
 50
54.31466528735326
 51
72.41722399157118
  0
ARC
  8
1
 62
3
 10
3338.641021988889
 20
771.058770376348
 30
0
 40
4.800000000000001
 50
72.41722399157118
 51
85.66885126921974
  0
ARC
  8
1
 62
3
 10
3338.641021988889
 20
771.058770376348
 30
0
 40
4.800000000000138
 50
107.582776008434
 51
125.6853347126511
  0
ARC
  8
1
 62
3
 10
3338.641021988889
 20
771.058770376348
 30
0
 40
4.799999999999796
 50
94.3311487307857
 51
107.582776008434
  0
ARC
  8
1
 62
3
 10
3338.641021988889
 20
771.058770376348
 30
0
 40
4.799999999999372
 50
54.31466528735326
 51
72.41722399157118
  0
ARC
  8
1
 62
3
 10
3321.641021988889
 20
784.558770376348
 30
0
 40
4.800000000000001
 50
72.41722399157118
 51
85.66885126921974
  0
ARC
  8
1
 62
3
 10
3321.641021988889
 20
784.558770376348
 30
0
 40
4.800000000000138
 50
107.582776008434
 51
125.6853347126511
  0
ARC
  8
1
 62
3
 10
3321.641021988889
 20
784.558770376348
 30
0
 40
4.799999999999796
 50
94.3311487307857
 51
107.582776008434
  0
ARC
  8
1
 62
3
 10
3321.641021988889
 20
784.558770376348
 30
0
 40
4.799999999999372
 50
54.31466528735326
 51
72.41722399157118
  0
ARC
  8
1
 62
3
 10
3289.641021988889
 20
784.558770376348
 30
0
 40
4.800000000000001
 50
72.41722399157118
 51
85.66885126921974
  0
ARC
  8
1
 62
3
 10
3289.641021988889
 20
784.558770376348
 30
0
 40
4.800000000000138
 50
107.582776008434
 51
125.6853347126511
  0
ARC
  8
1
 62
3
 10
3289.641021988889
 20
784.558770376348
 30
0
 40
4.799999999999796
 50
94.3311487307857
 51
107.582776008434
  0
ARC
  8
1
 62
3
 10
3289.641021988889
 20
784.558770376348
 30
0
 40
4.799999999999372
 50
54.31466528735326
 51
72.41722399157118
  0
ARC
  8
1
 62
7
 10
3285.901022988889
 20
860.5331082538904
 30
0
 40
4.799999999999589
 50
72.41722399158671
 51
85.66885126922513
  0
ARC
  8
1
 62
7
 10
3285.901022988889
 20
860.5331082538904
 30
0
 40
4.800000000000276
 50
107.5827760084392
 51
125.6853347126628
  0
ARC
  8
1
 62
7
 10
3285.901022988889
 20
860.5331082538904
 30
0
 40
4.799999999999899
 50
94.33114873080193
 51
107.5827760084392
  0
ARC
  8
1
 62
7
 10
3285.901022988889
 20
860.5331082538904
 30
0
 40
4.799999999999291
 50
54.31466528735925
 51
72.41722399158671
  0
ARC
  8
1
 62
3
 10
3308.791728169127
 20
839.8831082538901
 30
0
 40
22.14166813147709
 50
182.264818751865
 51
186.80870061872
  0
ARC
  8
1
 62
3
 10
3305.641021988889
 20
839.7581082538901
 30
0
 40
18.99999999999991
 50
63.62109091120097
 51
169.3848921492914
  0
ARC
  8
1
 62
3
 10
3305.641021988889
 20
839.7581082538901
 30
0
 40
12.49999999999894
 50
168.4630409671825
 51
191.5369590328143
  0
ARC
  8
1
 62
3
 10
3305.641021988889
 20
839.7581082538901
 30
0
 40
12.50000000000022
 50
65.50887867119967
 51
163.7397952916871
  0
ARC
  8
1
 62
2
 10
3305.641021988889
 20
839.7581082538901
 30
0
 40
21.00000000000039
 50
143.1513900664334
 51
154.7912347032418
  0
ARC
  8
1
 62
2
 10
3289.641021988889
 20
855.7581082538901
 30
0
 40
3.499999999999943
 50
211.0027191338724
 51
256.7083067214517
  0
ARC
  8
1
 62
2
 10
3305.641021988889
 20
839.7581082538901
 30
0
 40
21.00000000000008
 50
115.2087652967574
 51
126.8486099335667
  0
ARC
  8
1
 62
2
 10
3289.641021988889
 20
855.7581082538901
 30
0
 40
3.500000000000555
 50
13.29169327853569
 51
58.99728086614225
  0
ARC
  8
1
 62
2
 10
3289.641021988889
 20
823.7581082538901
 30
0
 40
3.49999999999928
 50
301.0027191338616
 51
346.7083067214609
  0
ARC
  8
1
 62
2
 10
3305.641021988889
 20
839.7581082538901
 30
0
 40
21.00000000000012
 50
233.1513900664313
 51
244.7912347032421
  0
ARC
  8
1
 62
2
 10
3289.641021988889
 20
823.7581082538901
 30
0
 40
3.499999999999826
 50
103.29169327855
 51
148.9972808661308
  0
ARC
  8
1
 62
2
 10
3305.641021988889
 20
839.7581082538901
 30
0
 40
20.99999999999987
 50
205.2087652967576
 51
216.8486099335676
  0
ARC
  8
1
 62
2
 10
3305.641021988889
 20
839.7581082538901
 30
0
 40
21.00000000000053
 50
323.1513900664329
 51
334.7912347032418
  0
ARC
  8
1
 62
2
 10
3321.641021988889
 20
823.7581082538901
 30
0
 40
3.499999999999943
 50
31.00271913387244
 51
76.70830672145088
  0
ARC
  8
1
 62
2
 10
3305.641021988889
 20
839.7581082538901
 30
0
 40
21.00000000000028
 50
295.2087652967571
 51
306.8486099335664
  0
ARC
  8
1
 62
2
 10
3321.641021988889
 20
823.7581082538901
 30
0
 40
3.500000000000607
 50
193.2916932785393
 51
238.9972808661441
  0
ARC
  8
1
 62
2
 10
3305.641021988889
 20
839.7581082538901
 30
0
 40
20.99999999999977
 50
25.20876529675707
 51
36.84860993356712
  0
ARC
  8
1
 62
2
 10
3321.641021988889
 20
855.7581082538901
 30
0
 40
3.500000000000048
 50
283.2916932785491
 51
328.9972808661308
  0
ARC
  8
1
 62
2
 10
3321.641021988889
 20
855.7581082538901
 30
0
 40
3.499999999999943
 50
121.0027191338725
 51
166.7083067214643
  0
ARC
  8
1
 62
2
 10
3305.641021988889
 20
839.7581082538901
 30
0
 40
20.99999999999957
 50
53.15139006643326
 51
64.79123470324237
  0
ARC
  8
1
 62
3
 10
3305.641021988889
 20
839.7581082538901
 30
0
 40
12.49999999999977
 50
270
 51
294.4911213287957
  0
ARC
  8
1
 62
3
 10
3305.641021988889
 20
839.7581082538901
 30
0
 40
12.49999999999994
 50
196.2602047083109
 51
270
  0
ARC
  8
1
 62
3
 10
3305.641021988889
 20
839.7581082538901
 30
0
 40
19.00000000000023
 50
270
 51
296.3789090887944
  0
ARC
  8
1
 62
3
 10
3305.641021988889
 20
839.7581082538901
 30
0
 40
18.99999999999993
 50
190.6151078507073
 51
270
  0
ARC
  8
1
 62
3
 10
3305.641021988889
 20
839.7581082538901
 30
0
 40
12.49999999999966
 50
305.5088786711985
 51
54.49112132879966
  0
ARC
  8
1
 62
3
 10
3305.641021988889
 20
839.7581082538901
 30
0
 40
19.00000000000005
 50
303.6210909112018
 51
56.37890908879476
  0
ARC
  8
1
 62
3
 10
3308.791728169126
 20
839.6331082538899
 30
0
 40
22.14166813147536
 50
173.191299381278
 51
177.7351812481343
  0
ARC
  8
1
 62
3
 10
3285.641021988889
 20
839.7581082538901
 30
0
 40
3
 50
90
 51
180
  0
ARC
  8
1
 62
3
 10
3285.641021988889
 20
839.7581082538901
 30
0
 40
3
 50
180
 51
270
  0
ARC
  8
1
 62
2
 10
3327.966491933095
 20
824.6212438164656
 30
0
 40
0.342790234984023
 50
17.6562057201898
 51
162.3437942797872
  0
ARC
  8
1
 62
2
 10
3327.930486143742
 20
824.8744765707046
 30
0
 40
0.5433917034131489
 50
22.50443257502258
 51
173.1070704160023
  0
ARC
  8
1
 62
2
 10
3328.494278371337
 20
821.4006327723363
 30
0
 40
1.147307584732004
 50
168.7698738992839
 51
191.2301261006716
  0
ARC
  8
1
 62
2
 10
3328.058434463641
 20
821.4659571961073
 30
0
 40
0.7073929599061715
 50
127.4918021343076
 51
167.0843535875347
  0
ARC
  8
1
 62
2
 10
3327.961586032744
 20
821.8014688652878
 30
0
 40
1.230226758335862
 50
318.9739207528523
 51
335.3658485483937
  0
ARC
  8
1
 62
2
 10
3328.849613518274
 20
821.3543441194887
 30
0
 40
0.2394138458252165
 50
344.0820754216038
 51
150.1104820983631
  0
ARC
  8
1
 62
2
 10
3327.984333665461
 20
821.4360631159142
 30
0
 40
0.3458408288975008
 50
127.0215536693794
 51
168.7562807873177
  0
ARC
  8
1
 62
2
 10
3328.648643577398
 20
821.3672574257993
 30
0
 40
0.7636226588389726
 50
306.7563052697294
 51
7.648082542455016
  0
ARC
  8
1
 62
2
 10
3327.844386761769
 20
821.4474581973094
 30
0
 40
0.2069860801111468
 50
164.2921188738254
 51
334.0110462532356
  0
ARC
  8
1
 62
2
 10
3328.762829920895
 20
821.4834812611947
 30
0
 40
0.6428089866724915
 50
358.6990129510826
 51
137.4724206858388
  0
ARC
  8
1
 62
2
 10
3327.951645150007
 20
821.3238581983377
 30
0
 40
0.6008805102880421
 50
194.1275487593459
 51
327.0471861043077
  0
ARC
  8
1
 62
7
 10
3303.330140265421
 20
860.0581082538903
 30
0
 40
4.800000000000249
 50
54.31466528733404
 51
72.41722399157391
  0
ARC
  8
1
 62
7
 10
3303.330140265421
 20
860.0581082538903
 30
0
 40
4.799999999999213
 50
72.41722399157391
 51
85.66885126919789
  0
ARC
  8
1
 62
7
 10
3313.442688162562
 20
817.7841432481547
 30
0
 40
0.5760000000000218
 50
180
 51
0
  0
ARC
  8
1
 62
7
 10
3313.442688162562
 20
813.9441432481546
 30
0
 40
0.5760000000000218
 50
0
 51
180
  0
CIRCLE
  8
1
 62
2
 10
3305.641021988889
 20
839.7581082538901
 30
0
 40
11.5
  0
CIRCLE
  8
1
 62
3
 10
3338.641021988889
 20
814.7581082538901
 30
0
 40
1.75
  0
CIRCLE
  8
1
 62
3
 10
3272.641021988889
 20
864.7581082538901
 30
0
 40
1.75
  0
CIRCLE
  8
1
 62
3
 10
3338.641021988889
 20
864.7581082538903
 30
0
 40
2.799999999999272
  0
CIRCLE
  8
1
 62
3
 10
3272.641021988889
 20
814.7581082538901
 30
0
 40
2.799999999999272
  0
CIRCLE
  8
1
 62
3
 10
3321.641021988889
 20
855.7581082538901
 30
0
 40
2.799999999999272
  0
CIRCLE
  8
1
 62
3
 10
3321.641021988889
 20
823.7581082538901
 30
0
 40
2.799999999999272
  0
CIRCLE
  8
1
 62
3
 10
3289.641021988889
 20
823.7581082538901
 30
0
 40
2.799999999999272
  0
CIRCLE
  8
1
 62
3
 10
3289.641021988889
 20
855.7581082538901
 30
0
 40
2.799999999999272
  0
CIRCLE
  8
1
 62
2
 10
3407.640582998808
 20
824.7581082538899
 30
0
 40
1.5
  0
CIRCLE
  8
1
 62
3
 10
3407.640582998808
 20
824.7581082538899
 30
0
 40
1.300000000002001
  0
CIRCLE
  8
1
 62
2
 10
3407.640582998808
 20
854.7581082538899
 30
0
 40
1.5
  0
CIRCLE
  8
1
 62
3
 10
3407.640582998808
 20
854.7581082538899
 30
0
 40
1.300000000002001
  0
CIRCLE
  8
1
 62
2
 10
3313.434790597081
 20
815.8692707543893
 30
0
 40
0.1920000000000073
  0
POLYLINE
  8
1
 62
3
 66
1
  0
VERTEX
  8
1
 10
3112.890118824338
 20
702.4525300152561
 30
0
 42
-0.01703707655741149
  0
VERTEX
  8
1
 10
3114.231350272707
 20
698.822521260742
 30
0
 42
-0.01252441510285398
  0
VERTEX
  8
1
 10
3114.552036755664
 20
697.7225212607419
 30
0
 42
-0.0214656926139041
  0
VERTEX
  8
1
 10
3114.860128567152
 20
696.3225212607422
 30
0
 42
-0.02140811598761511
  0
VERTEX
  8
1
 10
3115.003979021837
 20
695.2225212607423
 30
0
 42
-0.03283443795021936
  0
VERTEX
  8
1
 10
3115.034944661677
 20
693.8225212607421
 30
0
 42
-0.02953689724127608
  0
VERTEX
  8
1
 10
3114.920030483896
 20
692.722521260742
 30
0
 42
-0.01200434537918307
  0
VERTEX
  8
1
 10
3114.863859019193
 20
692.423258437584
 30
0
 42
-0.01135713276991123
  0
VERTEX
  8
1
 10
3114.770787784617
 20
692.0295310967058
 30
0
 42
-0.00632668834345263
  0
VERTEX
  8
1
 10
3114.612995510626
 20
691.4453341345869
 30
0
 42
-0.003019909658482541
  0
VERTEX
  8
1
 10
3114.362660927677
 20
690.5746624477067
 30
0
 42
-0.001391686785572082
  0
VERTEX
  8
1
 10
3113.991962766226
 20
689.3215109325452
 30
0
 42
-0.0004992382839513572
  0
VERTEX
  8
1
 10
3113.675366381053
 20
688.263581739091
 30
0
 42
-0.0004751676951970397
  0
VERTEX
  8
1
 10
3113.337943103015
 20
687.143628773475
 30
0
 42
-0.0006588349045140889
  0
VERTEX
  8
1
 10
3113.023844592063
 20
686.1094422817783
 30
0
 42
-0.001341609812975396
  0
VERTEX
  8
1
 10
3112.777222508145
 20
685.3088125100819
 30
0
 42
-0.005477162407609139
  0
VERTEX
  8
1
 10
3112.642228511209
 20
684.8895297044662
 30
0
  0
SEQEND
  8
1
  0
POLYLINE
  8
1
 62
3
 66
1
  0
VERTEX
  8
1
 10
3110.890118824338
 20
702.4525300152561
 30
0
 42
-0.01703707655752168
  0
VERTEX
  8
1
 10
3112.231350272706
 20
698.822521260742
 30
0
 42
-0.01252441510480802
  0
VERTEX
  8
1
 10
3112.552036755664
 20
697.7225212607419
 30
0
 42
-0.02146569261521075
  0
VERTEX
  8
1
 10
3112.860128567152
 20
696.3225212607422
 30
0
 42
-0.02140811598848235
  0
VERTEX
  8
1
 10
3113.003979021837
 20
695.222521260742
 30
0
 42
-0.03283443794926415
  0
VERTEX
  8
1
 10
3113.034944661677
 20
693.822521260742
 30
0
 42
-0.02953689724211303
  0
VERTEX
  8
1
 10
3112.920030483898
 20
692.7225212607423
 30
0
 42
-0.01199997201388694
  0
VERTEX
  8
1
 10
3112.8575985642
 20
692.3909560363993
 30
0
 42
-0.0104786080364936
  0
VERTEX
  8
1
 10
3112.756293418384
 20
691.9597439869176
 30
0
 42
-0.005543943725242852
  0
VERTEX
  8
1
 10
3112.588449845432
 20
691.3273363293811
 30
0
 42
-0.002458149648879915
  0
VERTEX
  8
1
 10
3112.326402644322
 20
690.3921842808725
 30
0
 42
-0.0008480104774568821
  0
VERTEX
  8
1
 10
3112.027177376554
 20
689.3476437753037
 30
0
 42
-0.002576799404898915
  0
VERTEX
  8
1
 10
3111.720375624724
 20
688.3050783674926
 30
0
 42
-0.003006401467584008
  0
VERTEX
  8
1
 10
3111.301989128453
 20
686.937770555651
 30
0
 42
-0.002724757650537306
  0
VERTEX
  8
1
 10
3110.731463217074
 20
685.1426898193179
 30
0
  0
SEQEND
  8
1
  0
POLYLINE
  8
1
 62
3
 66
1
  0
VERTEX
  8
1
 10
3117.634280340087
 20
788.6838443820782
 30
0
 42
-0.01703707655728292
  0
VERTEX
  8
1
 10
3118.975511788454
 20
785.053835627564
 30
0
 42
-0.01252441510404899
  0
VERTEX
  8
1
 10
3119.296198271412
 20
783.953835627564
 30
0
 42
-0.02146569261547641
  0
VERTEX
  8
1
 10
3119.604290082901
 20
782.553835627564
 30
0
 42
-0.02140811598808571
  0
VERTEX
  8
1
 10
3119.748140537584
 20
781.4538356275641
 30
0
 42
-0.0328344379495782
  0
VERTEX
  8
1
 10
3119.779106177425
 20
780.053835627564
 30
0
 42
-0.02953689724250788
  0
VERTEX
  8
1
 10
3119.664191999646
 20
778.9538356275643
 30
0
 42
-0.03201209822773364
  0
VERTEX
  8
1
 10
3119.331485158136
 20
777.553835627564
 30
0
 42
-0.01537131995235093
  0
VERTEX
  8
1
 10
3118.960043320129
 20
776.4538356275641
 30
0
 42
-0.008474022532461869
  0
VERTEX
  8
1
 10
3118.409629358927
 20
775.0538356275639
 30
0
 42
0.001677210185941804
  0
VERTEX
  8
1
 10
3117.961876745741
 20
773.9538356275639
 30
0
 42
0.01333123793841802
  0
VERTEX
  8
1
 10
3117.437148702923
 20
772.553835627564
 30
0
 42
0.01065951541493607
  0
VERTEX
  8
1
 10
3117.283106817226
 20
772.0709320089219
 30
0
 42
0.008033761177379991
  0
VERTEX
  8
1
 10
3117.06968039795
 20
771.3068245433556
 30
0
 42
0.00190974518476465
  0
VERTEX
  8
1
 10
3116.875679148956
 20
770.5626867983236
 30
0
 42
0.01941387121342162
  0
VERTEX
  8
1
 10
3116.786859202228
 20
770.1359799890291
 30
0
 42
0.01921305081426034
  0
VERTEX
  8
1
 10
3116.702933297268
 20
769.5020617178363
 30
0
 42
0.01356886055688777
  0
VERTEX
  8
1
 10
3116.633882492277
 20
768.5512808554284
 30
0
 42
0.008995755470021686
  0
VERTEX
  8
1
 10
3116.589687845458
 20
767.1739862724879
 30
0
 42
0.006047743823746946
  0
VERTEX
  8
1
 10
3116.580330415015
 20
765.2605268396982
 30
0
  0
VERTEX
  8
1
 10
3116.59183473662
 20
764.0684693266978
 30
0
  0
SEQEND
  8
1
  0
POLYLINE
  8
1
 62
3
 66
1
  0
VERTEX
  8
1
 10
3119.634280340087
 20
788.6838443820782
 30
0
 42
-0.01703707655704275
  0
VERTEX
  8
1
 10
3120.975511788454
 20
785.053835627564
 30
0
 42
-0.01252441510369581
  0
VERTEX
  8
1
 10
3121.296198271412
 20
783.9538356275639
 30
0
 42
-0.02146569261607858
  0
VERTEX
  8
1
 10
3121.6042900829
 20
782.553835627564
 30
0
 42
-0.02140811598845837
  0
VERTEX
  8
1
 10
3121.748140537584
 20
781.4538356275641
 30
0
 42
-0.0328344379495782
  0
VERTEX
  8
1
 10
3121.779106177425
 20
780.053835627564
 30
0
 42
-0.02953689724127315
  0
VERTEX
  8
1
 10
3121.664191999646
 20
778.9538356275641
 30
0
 42
-0.03201209822714286
  0
VERTEX
  8
1
 10
3121.331485158137
 20
777.5538356275641
 30
0
 42
-0.01537131995133146
  0
VERTEX
  8
1
 10
3120.960043320129
 20
776.4538356275641
 30
0
 42
-0.008474022540300611
  0
VERTEX
  8
1
 10
3120.409629358924
 20
775.0538356275641
 30
0
 42
0.00167721017191292
  0
VERTEX
  8
1
 10
3119.961876745665
 20
773.9538356275641
 30
0
 42
0.01333123803893506
  0
VERTEX
  8
1
 10
3119.437148702923
 20
772.553835627564
 30
0
 42
0.01033163543994372
  0
VERTEX
  8
1
 10
3119.179526117375
 20
771.739683253299
 30
0
 42
0.001721734761826326
  0
VERTEX
  8
1
 10
3118.973090989929
 20
771.031560193863
 30
0
 42
0.01978934105730868
  0
VERTEX
  8
1
 10
3118.889178112112
 20
770.6765960187714
 30
0
 42
0.01832665146017668
  0
VERTEX
  8
1
 10
3118.801025090963
 20
770.1306910994981
 30
0
 42
0.01216731286467648
  0
VERTEX
  8
1
 10
3118.711485711461
 20
769.2876805458478
 30
0
 42
0.007716959306275916
  0
VERTEX
  8
1
 10
3118.623413758582
 20
768.0413994676243
 30
0
 42
0.005030492548933797
  0
VERTEX
  8
1
 10
3118.539663017306
 20
766.2856829746319
 30
0
 42
0.003420853595486442
  0
VERTEX
  8
1
 10
3118.46308727261
 20
763.9143661766746
 30
0
  0
SEQEND
  8
1
  0
POLYLINE
  8
1
 62
3
 66
1
  0
VERTEX
  8
1
 10
3284.915636190291
 20
785.1904524521914
 30
0
 42
0.03571687845969748
  0
VERTEX
  8
1
 10
3284.61791817565
 20
785.0485148888974
 30
0
 42
0.04187001181013002
  0
VERTEX
  8
1
 10
3284.366543488563
 20
784.8752903961553
 30
0
 42
0.04685639701221871
  0
VERTEX
  8
1
 10
3284.161512129031
 20
784.6707789739647
 30
0
 42
0.04908765175200735
  0
VERTEX
  8
1
 10
3284.002824097054
 20
784.4349806223264
 30
0
 42
0.04768157798557487
  0
VERTEX
  8
1
 10
3283.890479392631
 20
784.1678953412397
 30
0
 42
0.04320682089400185
  0
VERTEX
  8
1
 10
3283.824478015764
 20
783.8695231307048
 30
0
  0
SEQEND
  8
1
  0
ARC
  8
1
 62
3
 10
3181.717170631179
 20
811.7495127361937
 30
0
 40
0.1500000000010004
 50
180
 51
270
  0
ARC
  8
1
 62
3
 10
3181.517170631179
 20
811.5495127361938
 30
0
 40
0.150000000000091
 50
180
 51
270
  0
ARC
  8
1
 62
3
 10
3183.017170631179
 20
811.7495127361937
 30
0
 40
0.150000000000091
 50
270
 51
0
  0
ARC
  8
1
 62
3
 10
3183.217170631179
 20
811.5495127361938
 30
0
 40
0.150000000000091
 50
270
 51
0
  0
ARC
  8
1
 62
3
 10
3284.75855263405
 20
838.8081082538901
 30
0
 40
0.5
 50
270
 51
323.1301023541039
  0
ARC
  8
1
 62
3
 10
3284.75855263405
 20
840.7081082538899
 30
0
 40
0.4999999999994543
 50
36.86989764591698
 51
90
  0
ARC
  8
1
 62
3
 10
3284.111509262693
 20
840.7081082538899
 30
0
 40
0.5
 50
90
 51
180
  0
ARC
  8
1
 62
3
 10
3284.111509262693
 20
838.8081082538901
 30
0
 40
0.5
 50
180
 51
270
  0
ARC
  8
1
 62
2
 10
3284.311509262693
 20
839.0081082538901
 30
0
 40
0.5
 50
180
 51
270
  0
ARC
  8
1
 62
2
 10
3284.311509262693
 20
840.5081082538901
 30
0
 40
0.5
 50
90
 51
180
  0
ARC
  8
1
 62
3
 10
3285.415079920063
 20
783.7171084966172
 30
0
 40
0.5
 50
90
 51
162.2521074266277
  0
ARC
  8
1
 62
2
 10
3340.841021988888
 20
812.5581082538901
 30
0
 40
1
 50
270
 51
0
  0
ARC
  8
1
 62
2
 10
3336.441021988888
 20
812.5581082538901
 30
0
 40
1
 50
180
 51
270
  0
ARC
  8
1
 62
2
 10
3334.441021988888
 20
818.0581082538901
 30
0
 40
1
 50
0
 51
90
  0
ARC
  8
1
 62
2
 10
3340.841021988888
 20
866.9581082538899
 30
0
 40
1
 50
0
 51
90
  0
ARC
  8
1
 62
2
 10
3336.441021988888
 20
866.9581082538899
 30
0
 40
1
 50
90
 51
180
  0
ARC
  8
1
 62
2
 10
3334.441021988888
 20
861.4581082538899
 30
0
 40
1
 50
270
 51
0
  0
ARC
  8
1
 62
2
 10
3276.841021988889
 20
818.0581082538901
 30
0
 40
1
 50
90
 51
180
  0
ARC
  8
1
 62
2
 10
3274.841021988889
 20
812.5581082538901
 30
0
 40
1
 50
270
 51
0
  0
ARC
  8
1
 62
2
 10
3270.441021988888
 20
812.5581082538901
 30
0
 40
1
 50
180
 51
270
  0
ARC
  8
1
 62
2
 10
3270.441021988888
 20
866.9581082538899
 30
0
 40
1
 50
90
 51
180
  0
ARC
  8
1
 62
2
 10
3274.841021988889
 20
866.9581082538899
 30
0
 40
1
 50
0
 51
90
  0
ARC
  8
1
 62
2
 10
3276.841021988889
 20
861.4581082538899
 30
0
 40
1
 50
180
 51
270
  0
ARC
  8
1
 62
2
 10
3335.641021988889
 20
865.85810825389
 30
0
 40
0.5
 50
180
 51
246.4218215217316
  0
ARC
  8
1
 62
2
 10
3335.641021988889
 20
815.8581082538898
 30
0
 40
0.5
 50
180
 51
246.4218215217212
  0
ARC
  8
1
 62
3
 10
3275.641021988889
 20
863.65810825389
 30
0
 40
0.5
 50
0
 51
66.42182152176896
  0
ARC
  8
1
 62
2
 10
3275.641021988889
 20
813.65810825389
 30
0
 40
0.5
 50
0
 51
66.42182152176896
  0
ARC
  8
1
 62
2
 10
3275.641021988889
 20
865.8581082538898
 30
0
 40
0.5000000000000983
 50
293.5781784782311
 51
0
  0
ARC
  8
1
 62
2
 10
3270.141021988889
 20
867.2581082538901
 30
0
 40
1
 50
90
 51
180
  0
ARC
  8
1
 62
2
 10
3275.141021988889
 20
867.2581082538901
 30
0
 40
1
 50
0
 51
90
  0
ARC
  8
1
 62
2
 10
3335.641021988889
 20
813.65810825389
 30
0
 40
0.5000000000002802
 50
113.5781784782788
 51
180
  0
ARC
  8
1
 62
2
 10
3341.141021988889
 20
812.2581082538901
 30
0
 40
1
 50
270
 51
0
  0
ARC
  8
1
 62
2
 10
3275.641021988889
 20
815.8581082538898
 30
0
 40
0.5000000000000983
 50
293.5781784782311
 51
0
  0
ARC
  8
1
 62
2
 10
3275.141021988889
 20
812.2581082538901
 30
0
 40
1
 50
270
 51
0
  0
ARC
  8
1
 62
2
 10
3270.141021988889
 20
812.2581082538901
 30
0
 40
1
 50
180
 51
270
  0
ARC
  8
1
 62
2
 10
3336.141021988889
 20
867.2581082538901
 30
0
 40
1
 50
90
 51
180
  0
ARC
  8
1
 62
2
 10
3341.141021988889
 20
867.2581082538901
 30
0
 40
1
 50
0
 51
90
  0
ARC
  8
1
 62
2
 10
3336.141021988889
 20
812.2581082538901
 30
0
 40
1
 50
180
 51
270
  0
ARC
  8
1
 62
2
 10
3335.641021988889
 20
863.65810825389
 30
0
 40
0.5000000000002802
 50
113.5781784782788
 51
180
  0
ARC
  8
1
 62
3
 10
3338.552969464421
 20
865.4307023841394
 30
0
 40
0.04333333333383584
 50
224.9999999993623
 51
277.4584490558686
  0
ARC
  8
1
 62
3
 10
3338.729074513357
 20
865.4307023841394
 30
0
 40
0.0433333333333848
 50
262.5415509441315
 51
315.0000000006377
  0
ARC
  8
1
 62
3
 10
3337.96842785864
 20
864.6700557294217
 30
0
 40
0.04333333333303195
 50
314.9999999991497
 51
7.458449056244694
  0
ARC
  8
1
 62
3
 10
3337.96842785864
 20
864.8461607783585
 30
0
 40
0.04333333333296341
 50
352.5415509437553
 51
45.00000000085033
  0
ARC
  8
1
 62
3
 10
3338.729074513357
 20
864.0855141236408
 30
0
 40
0.04333333333383584
 50
44.99999999936226
 51
97.45844905586856
  0
ARC
  8
1
 62
3
 10
3338.552969464421
 20
864.0855141236408
 30
0
 40
0.0433333333333848
 50
82.54155094413144
 51
135.0000000006378
  0
ARC
  8
1
 62
3
 10
3339.313616119137
 20
864.8461607783585
 30
0
 40
0.04333333333238885
 50
134.9999999982993
 51
187.4584490564008
  0
ARC
  8
1
 62
3
 10
3339.313616119137
 20
864.6700557294217
 30
0
 40
0.04333333333206161
 50
172.5415509435992
 51
225.0000000017007
  0
ARC
  8
1
 62
3
 10
3272.552969464421
 20
815.4307023841394
 30
0
 40
0.04333333333383584
 50
224.9999999993623
 51
277.4584490558686
  0
ARC
  8
1
 62
3
 10
3272.729074513357
 20
815.4307023841394
 30
0
 40
0.0433333333333848
 50
262.5415509441315
 51
315.0000000006377
  0
ARC
  8
1
 62
3
 10
3271.96842785864
 20
814.6700557294217
 30
0
 40
0.04333333333303195
 50
314.9999999991497
 51
7.458449056244694
  0
ARC
  8
1
 62
3
 10
3271.96842785864
 20
814.8461607783585
 30
0
 40
0.04333333333296341
 50
352.5415509437553
 51
45.00000000085033
  0
ARC
  8
1
 62
3
 10
3272.729074513357
 20
814.0855141236408
 30
0
 40
0.04333333333383584
 50
44.99999999936226
 51
97.45844905586856
  0
ARC
  8
1
 62
3
 10
3272.552969464421
 20
814.0855141236408
 30
0
 40
0.0433333333333848
 50
82.54155094413144
 51
135.0000000006378
  0
ARC
  8
1
 62
3
 10
3273.313616119137
 20
814.8461607783585
 30
0
 40
0.04333333333238885
 50
134.9999999982993
 51
187.4584490564008
  0
ARC
  8
1
 62
3
 10
3273.313616119137
 20
814.6700557294217
 30
0
 40
0.04333333333206161
 50
172.5415509435992
 51
225.0000000017007
  0
ARC
  8
1
 62
3
 10
3321.552969464421
 20
856.430702384139
 30
0
 40
0.04333333333367506
 50
224.9999999991497
 51
277.4584490547542
  0
ARC
  8
1
 62
3
 10
3320.96842785864
 20
855.8461607783585
 30
0
 40
0.04333333333299293
 50
352.5415509434572
 51
45.00000000042516
  0
ARC
  8
1
 62
3
 10
3321.552969464421
 20
855.0855141236406
 30
0
 40
0.04333333333304129
 50
82.5415509452848
 51
135.0000000006378
  0
ARC
  8
1
 62
3
 10
3322.313616119137
 20
855.8461607783585
 30
0
 40
0.04333333333206729
 50
134.9999999987245
 51
187.4584490566989
  0
ARC
  8
1
 62
3
 10
3321.729074513357
 20
856.430702384139
 30
0
 40
0.0433333333329339
 50
262.5415509440534
 51
315.0000000008503
  0
ARC
  8
1
 62
3
 10
3321.729074513357
 20
855.0855141236406
 30
0
 40
0.04333333333383584
 50
44.99999999936226
 51
97.45844905590758
  0
ARC
  8
1
 62
3
 10
3322.313616119137
 20
855.6700557294213
 30
0
 40
0.04333333333209113
 50
172.5415509433011
 51
225.0000000012755
  0
ARC
  8
1
 62
3
 10
3320.96842785864
 20
855.6700557294215
 30
0
 40
0.04333333333287118
 50
314.9999999993623
 51
7.458449056244694
  0
ARC
  8
1
 62
3
 10
3321.552969464421
 20
824.430702384139
 30
0
 40
0.04333333333367506
 50
224.9999999991497
 51
277.4584490547542
  0
ARC
  8
1
 62
3
 10
3320.96842785864
 20
823.8461607783582
 30
0
 40
0.04333333333296341
 50
352.5415509437553
 51
45.00000000063775
  0
ARC
  8
1
 62
3
 10
3322.313616119137
 20
823.8461607783582
 30
0
 40
0.04333333333222807
 50
134.999999998512
 51
187.4584490564008
  0
ARC
  8
1
 62
3
 10
3321.729074513357
 20
824.430702384139
 30
0
 40
0.0433333333329339
 50
262.5415509440534
 51
315.0000000008503
  0
ARC
  8
1
 62
3
 10
3322.313616119137
 20
823.6700557294213
 30
0
 40
0.04333333333209113
 50
172.5415509433011
 51
225.0000000012755
  0
ARC
  8
1
 62
3
 10
3320.96842785864
 20
823.6700557294215
 30
0
 40
0.04333333333287118
 50
314.9999999993623
 51
7.458449056244694
  0
ARC
  8
1
 62
3
 10
3321.552969464421
 20
823.0855141236406
 30
0
 40
0.04333333333304129
 50
82.5415509452848
 51
135.0000000008503
  0
ARC
  8
1
 62
3
 10
3321.729074513357
 20
823.0855141236406
 30
0
 40
0.04333333333367506
 50
44.99999999914967
 51
97.45844905590758
  0
ARC
  8
1
 62
3
 10
3289.552969464421
 20
824.430702384139
 30
0
 40
0.04333333333367506
 50
224.9999999991497
 51
277.4584490559466
  0
ARC
  8
1
 62
3
 10
3288.96842785864
 20
823.8461607783582
 30
0
 40
0.04333333333296341
 50
352.5415509437553
 51
45.00000000063775
  0
ARC
  8
1
 62
3
 10
3290.313616119137
 20
823.8461607783582
 30
0
 40
0.04333333333222807
 50
134.999999998512
 51
187.4584490564008
  0
ARC
  8
1
 62
3
 10
3289.729074513357
 20
824.430702384139
 30
0
 40
0.0433333333329339
 50
262.5415509440534
 51
315.0000000008503
  0
ARC
  8
1
 62
3
 10
3290.313616119137
 20
823.6700557294213
 30
0
 40
0.04333333333209113
 50
172.5415509433011
 51
225.0000000012755
  0
ARC
  8
1
 62
3
 10
3288.96842785864
 20
823.6700557294215
 30
0
 40
0.04333333333287118
 50
314.9999999993623
 51
7.458449056244694
  0
ARC
  8
1
 62
3
 10
3289.552969464421
 20
823.0855141236406
 30
0
 40
0.04333333333315936
 50
82.54155094409242
 51
135.0000000008503
  0
ARC
  8
1
 62
3
 10
3289.729074513357
 20
823.0855141236406
 30
0
 40
0.04333333333367506
 50
44.99999999914967
 51
97.45844905590758
  0
ARC
  8
1
 62
3
 10
3289.552969464421
 20
856.430702384139
 30
0
 40
0.04333333333367506
 50
224.9999999991497
 51
277.4584490559466
  0
ARC
  8
1
 62
3
 10
3288.96842785864
 20
855.8461607783585
 30
0
 40
0.04333333333299293
 50
352.5415509434572
 51
45.00000000042516
  0
ARC
  8
1
 62
3
 10
3290.313616119137
 20
855.8461607783585
 30
0
 40
0.04333333333206729
 50
134.9999999987245
 51
187.4584490566989
  0
ARC
  8
1
 62
3
 10
3289.729074513357
 20
856.430702384139
 30
0
 40
0.0433333333329339
 50
262.5415509440534
 51
315.0000000008503
  0
ARC
  8
1
 62
3
 10
3290.313616119137
 20
855.6700557294213
 30
0
 40
0.04333333333209113
 50
172.5415509433011
 51
225.0000000012755
  0
ARC
  8
1
 62
3
 10
3288.96842785864
 20
855.6700557294215
 30
0
 40
0.04333333333287118
 50
314.9999999993623
 51
7.458449056244694
  0
ARC
  8
1
 62
3
 10
3289.552969464421
 20
855.0855141236403
 30
0
 40
0.0433333333333848
 50
82.54155094413144
 51
135.0000000006378
  0
ARC
  8
1
 62
3
 10
3289.729074513357
 20
855.0855141236403
 30
0
 40
0.04333333333383584
 50
44.99999999936226
 51
97.45844905586856
  0
ARC
  8
1
 62
3
 10
3425.490582998809
 20
867.7667037715866
 30
0
 40
0.1499999999991815
 50
0
 51
90
  0
ARC
  8
1
 62
3
 10
3425.69058299881
 20
867.9667037715864
 30
0
 40
0.1499999999991815
 50
0
 51
90
  0
ARC
  8
1
 62
3
 10
3424.19058299881
 20
867.7667037715866
 30
0
 40
0.1499999999998636
 50
90
 51
180
  0
ARC
  8
1
 62
3
 10
3423.990582998809
 20
867.9667037715864
 30
0
 40
0.150000000000091
 50
90
 51
180
  0
ARC
  8
1
 62
3
 10
3311.080846018913
 20
825.5760616702847
 30
0
 40
2.000000000000404
 50
286.1134596373884
 51
336.1569191312391
  0
ARC
  8
1
 62
3
 10
3315.203122592935
 20
851.5601573478133
 30
0
 40
1.999999999999844
 50
46.1134596373746
 51
96.15691913122944
  0
ARC
  8
1
 62
3
 10
3300.692125134694
 20
825.3973787910901
 30
0
 40
2.000000000000033
 50
246.1134596373564
 51
341.8240527748798
  0
ARC
  8
1
 62
3
 10
3292.619048089414
 20
831.9382408292707
 30
0
 40
1.999999999998384
 50
206.1134596373932
 51
301.8240527749108
  0
ARC
  8
1
 62
3
 10
3295.678713884324
 20
851.2243433817342
 30
0
 40
1.999999999999653
 50
126.1134596373651
 51
221.8240527748918
  0
ARC
  8
1
 62
3
 10
3305.379805094678
 20
854.9454021705648
 30
0
 40
1.999999999999892
 50
86.11345963737007
 51
181.8240527748683
  0
ARC
  8
1
 62
3
 10
3320.552226947647
 20
842.6526025888508
 30
0
 40
2.000000000001918
 50
6.113459637364612
 51
101.8240527748164
  0
ARC
  8
1
 62
3
 10
3318.924212782573
 20
832.3906817618396
 30
0
 40
2.000000000000704
 50
326.1134596373878
 51
61.82405277486625
  0
ARC
  8
1
 62
3
 10
3321.641021988889
 20
855.7581082538901
 30
0
 40
4
 50
0
 51
90
  0
ARC
  8
1
 62
3
 10
3321.641021988889
 20
823.7581082538901
 30
0
 40
4
 50
270
 51
0
  0
ARC
  8
1
 62
3
 10
3289.641021988889
 20
823.7581082538901
 30
0
 40
4
 50
180
 51
270
  0
ARC
  8
1
 62
3
 10
3289.641021988889
 20
855.7581082538901
 30
0
 40
4.000000000000227
 50
90
 51
180
  0
ARC
  8
1
 62
3
 10
3327.141021988889
 20
820.2581082538899
 30
0
 40
0.5
 50
180
 51
270
  0
ARC
  8
1
 62
3
 10
3333.141021988889
 20
820.2581082538899
 30
0
 40
0.5
 50
270
 51
0
  0
ARC
  8
1
 62
3
 10
3333.141021988889
 20
859.2581082538899
 30
0
 40
0.5
 50
0
 51
90
  0
ARC
  8
1
 62
3
 10
3327.141021988889
 20
859.2581082538899
 30
0
 40
0.5
 50
90
 51
180
  0
ARC
  8
1
 62
2
 10
3327.341021988889
 20
837.9581082538897
 30
0
 40
0.2000000000002729
 50
180
 51
270
  0
ARC
  8
1
 62
2
 10
3332.941021988888
 20
837.9581082538897
 30
0
 40
0.1999999999998181
 50
270
 51
0
  0
ARC
  8
1
 62
2
 10
3327.341021988889
 20
859.0581082538896
 30
0
 40
0.2000000000002729
 50
90
 51
180
  0
ARC
  8
1
 62
2
 10
3332.941021988888
 20
859.0581082538896
 30
0
 40
0.2000000000007276
 50
0
 51
90
  0
LINE
  8
1
 62
2
 10
3435.71815308903
 20
880.4818945857541
 30
0
 11
3414.595418025378
 21
880.4818945857541
 31
0
  0
LINE
  8
1
 62
2
 10
3414.595418025378
 20
880.4818945857541
 30
0
 11
3407.640582998808
 21
857.6969037069472
 31
0
  0
SOLID
  8
1
 62
2
 10
3408.171856901349
 20
860.8804915591852
 30
0
 11
3408.977727350022
 21
860.6345096295404
 31
0
 12
3407.640582998808
 22
857.6969037069472
 32
0
 13
3407.640582998808
 23
857.6969037069472
 33
0
  0
TEXT
  8
1
 62
2
 10
3135.905522395949
 20
664.524502455519
 30
0
 40
3
  1
IL-G-C2-SC-10000
 41
0.5850000000000001
  0
TEXT
  8
1
 62
2
 10
3142.466604926372
 20
669.6388038202365
 30
0
 40
3
  1
âRâôâ^âNâg
 41
0.9
  0
TEXT
  8
1
 62
2
 10
3174.202321273518
 20
669.8389732415021
 30
0
 40
3
  1
âRâlâNâ^âüü|âJ
 41
0.6300000000000001
  0
TEXT
  8
1
 62
2
 10
3107.668729083198
 20
669.93230349704
 30
0
 40
3
  1
ânâEâWâôâO
 41
0.9
  0
TEXT
  8
1
 62
2
 10
3171.454678775567
 20
664.5325066231351
 30
0
 40
3
  1
ô·û{ìqï%%côdÄqìHïã
 41
0.72
  0
TEXT
  8
1
 62
2
 10
3100.611922163128
 20
664.5198354171741
 30
0
 40
3
  1
IL-G-6S-S3C2-SA
 41
0.6300000000000001
  0
TEXT
  8
1
 62
2
 10
3072.668729083198
 20
669.93230349704
 30
0
 40
3
  1
âèü[âh
 41
0.9
  0
TEXT
  8
1
 62
2
 10
3066.357245135262
 20
664.5198354171741
 30
0
 40
3
  1
UL3266,AWG22
 41
0.72
  0
TEXT
  8
1
 62
2
 10
3180.651334807882
 20
696.8047396377071
 30
0
 40
3.199999999999997
  1
  3
 41
0.9
  0
TEXT
  8
1
 62
2
 10
3195.674803847587
 20
696.8047396377071
 30
0
 40
3.199999999999999
  1
öÆü^ÉÈ
 41
0.9
  0
TEXT
  8
1
 62
2
 10
3180.651334807882
 20
691.8047396377071
 30
0
 40
3.199999999999997
  1
  4
 41
0.9
  0
TEXT
  8
1
 62
2
 10
3199.039804950947
 20
691.8047396377071
 30
0
 40
3.199999999999999
  1
ù╬
 41
0.9
  0
TEXT
  8
1
 62
2
 10
3170.234848268217
 20
683.9162821192654
 30
0
 40
3.199999999999999
  1
6âsâô
 50
90
 41
0.9
  0
TEXT
  8
1
 62
2
 10
3170.09736557357
 20
697.791971669642
 30
0
 40
3.200000000000001
  1
1âsâô
 50
90
 41
0.9
  0
TEXT
  8
1
 62
2
 10
3181.158521215049
 20
711.8047396377071
 30
0
 40
3.199999999999997
  1
âsâô No.
 41
0.6300000000000001
  0
TEXT
  8
1
 62
2
 10
3199.039804950947
 20
711.8047396377071
 30
0
 40
3.199999999999997
  1
ÉF
 41
0.9
  0
TEXT
  8
1
 62
2
 10
3180.651334807882
 20
701.8047396377071
 30
0
 40
3.199999999999997
  1
  2
 41
0.9
  0
TEXT
  8
1
 62
2
 10
3180.651334807882
 20
686.8047396377071
 30
0
 40
3.199999999999997
  1
  5
 41
0.9
  0
TEXT
  8
1
 62
2
 10
3180.651334807882
 20
681.8047396377071
 30
0
 40
3.199999999999997
  1
  6
 41
0.9
  0
TEXT
  8
1
 62
2
 10
3199.039804950947
 20
706.8047396377071
 30
0
 40
3.199999999999999
  1
ÉÈ
 41
0.9
  0
TEXT
  8
1
 62
2
 10
3198.976531425926
 20
701.9619647604852
 30
0
 40
3.199999999999999
  1
ìò
 41
0.9
  0
TEXT
  8
1
 62
2
 10
3199.039804950947
 20
686.8047396377071
 30
0
 40
3.199999999999999
  1
öÆ
 41
0.9
  0
TEXT
  8
1
 62
2
 10
3195.674803847587
 20
681.8047396377071
 30
0
 40
3.199999999999999
  1
öÆü^ù╬
 41
0.9
  0
TEXT
  8
1
 62
2
 10
3180.651334807882
 20
706.8047396377071
 30
0
 40
3.199999999999997
  1
  1
 41
0.9
  0
TEXT
  8
1
 62
2
 10
3152.251476887917
 20
686.2089700538975
 30
0
 40
3.200000000000001
  1
6
 50
90
 41
0.9
  0
TEXT
  8
1
 62
2
 10
3152.478305066245
 20
701.3388488297537
 30
0
 40
3.200000000000001
  1
1
 50
90
 41
0.9
  0
TEXT
  8
1
 62
2
 10
3135.905522395949
 20
735.5084201753496
 30
0
 40
3
  1
IL-G-C2-SC-10000
 41
0.5850000000000001
  0
TEXT
  8
1
 62
2
 10
3142.46660492637
 20
740.6227215400672
 30
0
 40
3
  1
âRâôâ^âNâg
 41
0.9
  0
TEXT
  8
1
 62
2
 10
3174.202321273518
 20
740.8228909613329
 30
0
 40
3
  1
âRâlâNâ^âüü|âJ
 41
0.6300000000000001
  0
TEXT
  8
1
 62
2
 10
3107.668729083199
 20
740.9162212168708
 30
0
 40
3
  1
ânâEâWâôâO
 41
0.9
  0
TEXT
  8
1
 62
2
 10
3171.454678775566
 20
735.5164243429658
 30
0
 40
3
  1
ô·û{ìqï%%côdÄqìHïã
 41
0.72
  0
TEXT
  8
1
 62
2
 10
3100.611922163127
 20
735.5037531370049
 30
0
 40
3
  1
IL-G-9S-S3C2-SA
 41
0.6300000000000001
  0
TEXT
  8
1
 62
2
 10
3072.668729083199
 20
740.9162212168708
 30
0
 40
3
  1
âèü[âh
 41
0.9
  0
TEXT
  8
1
 62
2
 10
3066.357245135261
 20
735.5037531370049
 30
0
 40
3
  1
UL3266,AWG22
 41
0.72
  0
TEXT
  8
1
 62
2
 10
3159.222466581994
 20
787.5701631965758
 30
0
 40
3.200000000000001
  1
1
 50
90
 41
0.9
  0
TEXT
  8
1
 62
2
 10
3158.995638403666
 20
759.9402844207193
 30
0
 40
3.200000000000001
  1
9
 50
90
 41
0.9
  0
TEXT
  8
1
 62
2
 10
3183.998136204911
 20
794.1274703361553
 30
0
 40
3.199999999999997
  1
  1
 41
0.9
  0
TEXT
  8
1
 62
2
 10
3202.386606347975
 20
769.1274703361553
 30
0
 40
3.199999999999999
  1
É┬
 41
0.9
  0
TEXT
  8
1
 62
2
 10
3202.386606347975
 20
774.1274703361553
 30
0
 40
3.199999999999999
  1
ù╬
 41
0.9
  0
TEXT
  8
1
 62
2
 10
3202.386606347975
 20
779.1274703361553
 30
0
 40
3.199999999999999
  1
ë®
 41
0.9
  0
TEXT
  8
1
 62
2
 10
3202.386606347975
 20
784.1274703361553
 30
0
 40
3.199999999999999
  1
×%%d
 41
0.9
  0
TEXT
  8
1
 62
2
 10
3202.386606347975
 20
789.1274703361553
 30
0
 40
3.199999999999999
  1
ìò
 41
0.9
  0
TEXT
  8
1
 62
2
 10
3202.386606347975
 20
794.1274703361553
 30
0
 40
3.199999999999999
  1
ÉÈ
 41
0.9
  0
TEXT
  8
1
 62
2
 10
3183.998136204911
 20
769.1274703361553
 30
0
 40
3.199999999999997
  1
  6
 41
0.9
  0
TEXT
  8
1
 62
2
 10
3183.998136204911
 20
774.1274703361553
 30
0
 40
3.199999999999997
  1
  5
 41
0.9
  0
TEXT
  8
1
 62
2
 10
3183.998136204911
 20
779.1274703361553
 30
0
 40
3.199999999999997
  1
  4
 41
0.9
  0
TEXT
  8
1
 62
2
 10
3183.998136204911
 20
784.1274703361553
 30
0
 40
3.199999999999997
  1
  3
 41
0.9
  0
TEXT
  8
1
 62
2
 10
3183.998136204911
 20
789.1274703361553
 30
0
 40
3.199999999999997
  1
  2
 41
0.9
  0
TEXT
  8
1
 62
2
 10
3202.386606347975
 20
799.1274703361553
 30
0
 40
3.199999999999997
  1
ÉF
 41
0.9
  0
TEXT
  8
1
 62
2
 10
3184.505322612078
 20
799.1274703361553
 30
0
 40
3.199999999999997
  1
âsâô No.
 41
0.6300000000000001
  0
TEXT
  8
1
 62
2
 10
3176.841527089318
 20
784.0232860364638
 30
0
 40
3.200000000000001
  1
1âsâô
 50
90
 41
0.9
  0
TEXT
  8
1
 62
2
 10
3176.844409739832
 20
759.3795929553392
 30
0
 40
3.199999999999999
  1
9âsâô
 50
90
 41
0.9
  0
TEXT
  8
1
 62
2
 10
3183.998136204911
 20
764.1274703361553
 30
0
 40
3.199999999999997
  1
  7
 41
0.9
  0
TEXT
  8
1
 62
2
 10
3183.998136204911
 20
759.1274703361553
 30
0
 40
3.199999999999997
  1
  8
 41
0.9
  0
TEXT
  8
1
 62
2
 10
3183.998136204911
 20
754.1274703361553
 30
0
 40
3.199999999999997
  1
  9
 41
0.9
  0
TEXT
  8
1
 62
2
 10
3202.386606347975
 20
764.1274703361553
 30
0
 40
3.199999999999999
  1
Äç
 41
0.9
  0
TEXT
  8
1
 62
2
 10
3202.386606347975
 20
759.1274703361553
 30
0
 40
3.199999999999999
  1
èD
 41
0.9
  0
TEXT
  8
1
 62
2
 10
3202.386606347975
 20
754.1274703361553
 30
0
 40
3.199999999999999
  1
öÆ
 41
0.9
  0
TEXT
  8
1
 62
2
 10
3313.304564246673
 20
833.807195707094
 30
0
 40
1
  1
MADE IN INDONESIA
 50
90
 41
0.7200000000000002
 72
1
 11
3313.304564246673
 21
839.927195707094
 31
0
  0
TEXT
  8
1
 62
2
 10
3311.595576764703
 20
832.9916193928917
 30
0
 40
1
  1
JAPAN SERVO CO,,LTD.
 50
90
 41
0.7200000000000002
 72
1
 11
3311.595576764703
 21
840.1916193928918
 31
0
  0
TEXT
  8
1
 62
2
 10
3308.225073675265
 20
831.1332770068952
 30
0
 40
1.5
  1
DC24V 0.06A 1.5W
 50
90
 41
0.72
 72
1
 11
3308.225073675265
 21
839.7732770068952
 31
0
  0
TEXT
  8
1
 62
2
 10
3304.078090609577
 20
835.4601511927131
 30
0
 40
1.5
  1
EUDC24B4
 50
90
 41
0.72
 72
1
 11
3304.078090609577
 21
839.7801511927131
 31
0
  0
TEXT
  8
1
 62
2
 10
3300.556672945229
 20
833.6110160300767
 30
0
 40
1
  1
DC Elfin 13
 50
90
 41
0.7200000000000002
 72
1
 11
3300.556672945229
 21
837.5710160300768
 31
0
  0
TEXT
  8
1
 62
2
 10
3415.580982330633
 20
881.828371244883
 30
0
 40
3
  1
2-M3ü~0.5
 41
0.72
  0
TEXT
  8
1
 62
2
 10
3332.685653014222
 20
838.4176719482697
 30
0
 40
1
  1
LOT NOüD
 50
90
 41
0.9
  0
TEXT
  8
1
 62
2
 10
3332.926592958557
 20
820.748406839963
 30
0
 40
1
  1
JAPAN SERVO  MADE IN JAPAN
 50
90
 41
0.531
  0
TEXT
  8
1
 62
2
 10
3331.16060542408
 20
838.5086738668414
 30
0
 40
1
  1
DC24V
 50
90
 41
0.9
  0
TEXT
  8
1
 62
2
 10
3331.178849558716
 20
820.8074195299736
 30
0
 40
1
  1
STEPPING MOTOR DRIVER
 50
90
 41
0.657
  0
TEXT
  8
1
 62
2
 10
3329.546918465173
 20
838.5315036539163
 30
0
 40
2
  1
FSD2U3P13
 50
90
 41
0.783
  7
COMPLEX
  0
TEXT
  8
LAYER16
 62
7
 10
3285.091514442233
 20
865.4581102538892
 30
0
 40
1.2
  1
U2
 41
0.96937533
  0
TEXT
  8
LAYER16
 62
7
 10
3297.091514442233
 20
865.4581102538892
 30
0
 40
1.2
  1
U3
 41
0.96937533
  0
TEXT
  8
LAYER16
 62
7
 10
3277.474609785923
 20
812.8503257129156
 30
0
 40
1.2
  1
CN1
 50
90
 41
1.017500220000001
  0
TEXT
  8
LAYER16
 62
7
 10
3276.974609785923
 20
817.3503257129156
 30
0
 40
1.2
  1
1
 41
0.8249996700000002
  0
TEXT
  8
1
 62
7
 10
3308.048373288662
 20
814.1920264741988
 30
0
 40
0.9
  1
4
 50
90
 41
0.9
  0
TEXT
  8
1
 62
7
 10
3306.905373288662
 20
814.1920264741988
 30
0
 40
0.9
  1
3
 50
90
 41
0.9
  0
TEXT
  8
1
 62
7
 10
3305.762373288662
 20
814.1920264741988
 30
0
 40
0.9
  1
2
 50
90
 41
0.9
  0
TEXT
  8
1
 62
7
 10
3304.619373288662
 20
814.1920264741988
 30
0
 40
0.9
  1
1
 50
90
 41
0.9
  0
TEXT
  8
1
 62
7
 10
3304.599442175891
 20
818.0447118150404
 30
0
 40
0.9
  1
O
 50
90
 41
0.9
  0
TEXT
  8
1
 62
7
 10
3305.679442175891
 20
818.0447118150404
 30
0
 40
0.9
  1
N
 50
90
 41
0.9
  0
TEXT
  8
1
 62
2
 10
3364.026997106704
 20
673.5062584116911
 30
0
 40
5
  1
FSD2U3P13
 41
0.9
  0
DIMENSION
  8
1
  6
CONTINUOUS
 62
2
  2
*D0
  3
DMST_1
 10
3072.510702241887
 20
710.9238171699252
 30
0
 11
3104.606860004889
 21
715.3238171699252
 31
0
 12
0
 22
0
 32
0
 70
0
  1
300
 13
3139.918280885589
 23
701.022521260742
 33
0
 14
3072.510702241887
 24
700.222521260742
 34
0
 53
0
  0
DIMENSION
  8
1
  6
CONTINUOUS
 62
2
  2
*D1
  3
DMST_2
 10
3062.510702241887
 20
710.9527850896531
 30
0
 11
3067.510702241887
 21
714.5527850896531
 31
0
 12
0
 22
0
 32
0
 70
0
 13
3072.510702241887
 23
700.222521260742
 33
0
 14
3062.510702241887
 24
699.8725212607421
 34
0
 53
0
  0
DIMENSION
  8
1
  6
CONTINUOUS
 62
2
  2
*D2
  3
DMST_2
 10
3079.254863757636
 20
797.1840994564751
 30
0
 11
3074.254863757636
 21
800.7840994564751
 31
0
 12
0
 22
0
 32
0
 70
0
 13
3069.254863757636
 23
786.103835627564
 33
0
 14
3079.254863757636
 24
786.4538356275639
 34
0
 53
0
  0
DIMENSION
  8
1
  6
CONTINUOUS
 62
2
  2
*D3
  3
DMST_1
 10
3079.254863757635
 20
797.1551315367473
 30
0
 11
3111.351021520638
 21
801.5551315367472
 31
0
 12
0
 22
0
 32
0
 70
0
  1
300
 13
3146.662442401337
 23
787.2538356275641
 33
0
 14
3079.254863757636
 24
786.4538356275639
 34
0
 53
0
  0
DIMENSION
  8
1
  6
CONTINUOUS
 62
2
  2
*D4
  3
DMST_3
 10
3269.141021988889
 20
896.385623968435
 30
0
 11
3254.785273530449
 21
899.985623968435
 31
0
 12
0
 22
0
 32
0
 70
0
 13
3272.641021988889
 23
867.1684044992454
 33
0
 14
3269.141021988889
 24
867.2581082538901
 34
0
 53
0
  0
DIMENSION
  8
1
  6
CONTINUOUS
 62
2
  2
*D6
  3
DMST_4
 10
3242.289903262629
 20
732.8450626522126
 30
0
 11
3238.689903262629
 21
751.9914016402073
 31
0
 12
0
 22
0
 32
0
 70
0
  1
(53)
 13
3285.641021988889
 23
785.8450626522123
 33
0
 14
3269.341021988889
 24
732.8450626522123
 34
0
 50
90
 53
0
  0
DIMENSION
  8
1
  6
CONTINUOUS
 62
2
  2
*D7
  3
DMST_5
 10
3338.641021988889
 20
896.385623968435
 30
0
 11
3306.556846449429
 21
899.985623968435
 31
0
 12
0
 22
0
 32
0
 70
0
 13
3272.641021988889
 23
867.1684044992454
 33
0
 14
3338.641021988889
 24
867.1684044992454
 34
0
 53
0
  0
DIMENSION
  8
1
  6
CONTINUOUS
 62
2
  2
*D9
  3
DMST_5
 10
3341.941021988889
 20
721.6487016704446
 30
0
 11
3354.749584553661
 21
725.2487016704446
 31
0
 12
0
 22
0
 32
0
 70
0
 13
3335.341021988889
 23
732.8450626522123
 33
0
 14
3341.941021988888
 24
732.8450626522123
 34
0
 53
0
  0
DIMENSION
  8
1
  6
CONTINUOUS
 62
2
  2
*D10
  3
DMST_5
 10
3275.941021988888
 20
722.2149914322013
 30
0
 11
3288.776827308987
 21
725.8149914322013
 31
0
 12
0
 22
0
 32
0
 70
0
 13
3269.341021988889
 23
732.8450626522123
 33
0
 14
3275.941021988888
 24
732.8450626522123
 34
0
 53
0
  0
DIMENSION
  8
1
  6
CONTINUOUS
 62
2
  2
*D11
  3
DMST_6
 10
3342.141021988889
 20
905.9130314847749
 30
0
 11
3305.837796825559
 21
909.513031484775
 31
0
 12
0
 22
0
 32
0
 70
0
 13
3269.141021988889
 23
867.2581082538901
 33
0
 14
3342.141021988889
 24
867.2581082538901
 34
0
 53
0
  0
DIMENSION
  8
1
  6
CONTINUOUS
 62
2
  2
*D13
  3
DMST_4
 10
3376.140582998809
 20
793.723179987695
 30
0
 11
3391.797799133078
 21
797.323179987695
 31
0
 12
0
 22
0
 32
0
 70
0
  1
(31)
 13
3407.640582998808
 23
821.5102583413562
 33
0
 14
3376.140582998808
 24
823.3956082538902
 34
0
 53
0
  0
DIMENSION
  8
1
  6
CONTINUOUS
 62
2
  2
*D14
  3
DMST_7
 10
3407.640582998809
 20
793.6602333346491
 30
0
 11
3418.214627036557
 21
797.2602333346491
 31
0
 12
0
 22
0
 32
0
 70
0
 13
3432.640582998808
 23
811.7581082538901
 33
0
 14
3407.640582998808
 24
821.5102583413562
 34
0
 53
0
  0
DIMENSION
  8
1
  6
CONTINUOUS
 62
2
  2
*D15
  3
DMST_4
 10
3370.329092963461
 20
811.2581082538902
 30
0
 11
3366.729092963461
 21
803.5712902363981
 31
0
 12
0
 22
0
 32
0
 70
0
  1
(13.5)
 13
3404.73036616351
 23
824.7581082538899
 33
0
 14
3394.640582998808
 24
811.2581082538901
 34
0
 50
90
 53
0
  0
DIMENSION
  8
1
  6
CONTINUOUS
 62
2
  2
*D16
  3
DMST_7
 10
3370.32032389829
 20
854.75810825389
 30
0
 11
3366.72032389829
 21
839.9652576029552
 31
0
 12
0
 22
0
 32
0
 70
0
 13
3404.73036616351
 23
824.7581082538899
 33
0
 14
3404.73036616351
 24
854.7581082538899
 34
0
 50
90
 53
0
  0
DIMENSION
  8
1
  6
CONTINUOUS
 62
2
  2
*D17
  3
DMST_7
 10
3370.308335282025
 20
868.2581082538902
 30
0
 11
3366.708335282025
 21
877.0697621375251
 31
0
 12
0
 22
0
 32
0
 70
0
 13
3404.73036616351
 23
854.7581082538899
 33
0
 14
3394.640582998808
 24
868.2581082538903
 34
0
 50
90
 53
0
  0
DIMENSION
  8
1
  6
CONTINUOUS
 62
2
  2
*D18
  3
DMST_8
 10
3325.641021988889
 20
884.521305174501
 30
0
 11
3306.377084043469
 21
888.921305174501
 31
0
 12
0
 22
0
 32
0
 70
0
 13
3285.641021988889
 23
855.7581082538903
 33
0
 14
3325.641021988889
 24
855.7581082538903
 34
0
 53
0
  0
INSERT
  8
1
  2
*D5
 10
0
 20
0
 30
0
  0
INSERT
  8
1
  2
*D8
 10
0
 20
0
 30
0
  0
INSERT
  8
1
  2
*D12
 10
0
 20
0
 30
0
  0
INSERT
  8
1
  2
*D19
 10
0
 20
0
 30
0
  0
INSERT
  8
1
  2
*D20
 10
0
 20
0
 30
0
  0
INSERT
  8
1
  2
*D21
 10
0
 20
0
 30
0
  0
ENDSEC
  0
EOF
