  0
SECTION
  2
HEADER
  9
$ACADVER
  1
AC1009
  9
$INSBASE
 10
0
 20
0
  9
$EXTMIN
 10
-244.6930779656675
 20
-605.5952754454773
  9
$EXTMAX
 10
71.00543166939333
 20
-399.8
  9
$LIMMIN
 10
-244.6930779656675
 20
-605.5952754454773
  9
$LIMMAX
 10
71.00543166939333
 20
-399.8
  9
$VIEWCTR
 10
10
 20
10
  9
$VIEWSIZE
 40
10
  9
$SNAPMODE
 70
0
  9
$SNAPUNIT
 10
1
 20
1
  9
$SNAPBASE
 10
0
 20
0
  9
$SNAPANG
 50
0
  9
$SNAPSTYLE
 70
0
  9
$SNAPISOPAIR
 70
0
  9
$GRIDMODE
 70
0
  9
$GRIDUNIT
 10
0
 20
0
  9
$ORTHOMODE
 70
0
  9
$REGENMODE
 70
1
  9
$FILLMODE
 70
1
  9
$QTEXTMODE
 70
0
  9
$DRAGMODE
 70
2
  9
$LTSCALE
 40
1
  9
$OSMODE
 70
0
  9
$ATTMODE
 70
1
  9
$TEXTSIZE
 40
3.5
  9
$TRACEWID
 40
0.5
  9
$TEXTSTYLE
  7
STANDARD
  9
$CLAYER
  8
0
  9
$CELTYPE
  6
BYLAYER
  9
$CECOLOR
 62
256
  9
$DIMSCALE
 40
1
  9
$DIMASZ
 40
0.18
  9
$DIMEXO
 40
0.0625
  9
$DIMDLI
 40
0.38
  9
$DIMRND
 40
0
  9
$DIMDLE
 40
0
  9
$DIMEXE
 40
0.18
  9
$DIMTP
 40
0
  9
$DIMTM
 40
0
  9
$DIMTXT
 40
0.18
  9
$DIMCEN
 40
0.09
  9
$DIMTSZ
 40
0
  9
$DIMTOL
 70
0
  9
$DIMLIM
 70
0
  9
$DIMTIH
 70
1
  9
$DIMTOH
 70
1
  9
$DIMSE1
 70
0
  9
$DIMSE2
 70
0
  9
$DIMTAD
 70
0
  9
$DIMZIN
 70
0
  9
$DIMBLK
  1

  9
$DIMASO
 70
1
  9
$DIMSHO
 70
1
  9
$DIMPOST
  1

  9
$DIMAPOST
  1

  9
$DIMALT
 70
0
  9
$DIMALTD
 70
2
  9
$DIMALTF
 40
25.4
  9
$DIMLFAC
 40
1
  9
$DIMTOFL
 70
0
  9
$DIMTVP
 40
0
  9
$DIMTIX
 70
0
  9
$DIMSOXD
 70
0
  9
$DIMSAH
 70
0
  9
$DIMBLK1
  1

  9
$DIMBLK2
  1

  9
$DIMSTYLE
  2
*UNNAMED
  9
$DIMCLRD
 70
0
  9
$DIMCLRE
 70
0
  9
$DIMCLRT
 70
0
  9
$DIMTFAC
 40
1
  9
$DIMGAP
 40
0.09
  9
$LUNITS
 70
2
  9
$LUPREC
 70
4
  9
$AXISMODE
 70
0
  9
$AXISUNIT
 10
0
 20
0
  9
$SKETCHINC
 40
0.1
  9
$FILLETRAD
 40
2
  9
$AUNITS
 70
0
  9
$AUPREC
 70
0
  9
$MENU
  1
ACAD
  9
$ELEVATION
 40
0
  9
$THICKNESS
 40
0
  9
$VIEWDIR
 10
0
 20
0
 30
1
  9
$LIMCHECK
 70
0
  9
$BLIPMODE
 70
1
  9
$CHAMFERA
 40
0
  9
$CHAMFERB
 40
0
  9
$FASTZOOM
 70
1
  9
$SKPOLY
 70
0
  9
$ANGBASE
 50
0
  9
$ANGDIR
 70
0
  9
$PDMODE
 70
0
  9
$PDSIZE
 40
0
  9
$PLINEWID
 40
0
  9
$COORDS
 70
2
  0
ENDSEC
  0
SECTION
  2
TABLES
  0
TABLE
  2
DIMSTYLE
 70
5
  0
DIMSTYLE
  2
DMST_1
 70
0
  3

  4

  5

  6

  7

 40
1
 41
3.2
 42
1
 43
7
 44
1.5
 45
0
 46
0
 47
0
 48
0
140
3.2
141
0
142
0
143
25.4
144
1
145
0
146
1
147
0.09
 71
0
 72
0
 73
1
 74
1
 75
0
 76
0
 77
0
 78
9
170
0
171
2
172
0
173
0
174
0
175
0
176
2
177
2
178
2
  0
DIMSTYLE
  2
DMST_2
 70
0
  3

  4

  5

  6

  7

 40
1
 41
3.2
 42
1
 43
7
 44
1.5
 45
0
 46
0
 47
0.3
 48
0.3
140
3.2
141
0
142
0
143
25.4
144
1
145
0
146
0.6
147
0.09
 71
1
 72
0
 73
0
 74
0
 75
0
 76
0
 77
1
 78
9
170
0
171
2
172
0
173
0
174
0
175
0
176
2
177
2
178
2
  0
DIMSTYLE
  2
DMST_3
 70
0
  3

  4

  5

  6

  7

 40
1
 41
3.2
 42
1
 43
7
 44
1.5
 45
0
 46
0
 47
0
 48
0
140
3.2
141
0
142
0
143
25.4
144
1
145
0
146
1
147
0.09
 71
0
 72
0
 73
0
 74
0
 75
0
 76
0
 77
1
 78
9
170
0
171
2
172
0
173
0
174
0
175
0
176
2
177
2
178
2
  0
DIMSTYLE
  2
DMST_4
 70
0
  3
(èÐÆ╩îèüj
  4

  5

  6

  7

 40
1
 41
3.2
 42
1
 43
7
 44
1.5
 45
0
 46
0
 47
0
 48
0
140
3.2
141
0
142
0
143
25.4
144
1
145
0
146
1
147
0.09
 71
0
 72
0
 73
1
 74
1
 75
0
 76
0
 77
1
 78
9
170
0
171
2
172
0
173
0
174
0
175
0
176
2
177
2
178
2
  0
DIMSTYLE
  2
DMST_5
 70
0
  3
( ïzì×ôÓîaüj
  4

  5

  6

  7

 40
1
 41
3.2
 42
1
 43
7
 44
1.5
 45
0
 46
0
 47
0
 48
0
140
3.2
141
0
142
0
143
25.4
144
1
145
0
146
1
147
0.09
 71
0
 72
0
 73
1
 74
1
 75
0
 76
0
 77
1
 78
9
170
0
171
2
172
1
173
0
174
0
175
0
176
2
177
2
178
2
  0
ENDTAB
  0
TABLE
  2
LTYPE
 70
9
  0
LTYPE
  2
CONTINUOUS
 70
64
  3
Solid line
 72
65
 73
0
 40
0
  0
LTYPE
  2
BORDER
 70
64
  3
__ __ . __ __ .
 72
65
 73
6
 40
14.53874715424622
 49
4.153927758356064
 49
-2.076963879178032
 49
4.153927758356064
 49
-2.076963879178032
 49
0
 49
-2.076963879178032
  0
LTYPE
  2
CENTER
 70
64
  3
____ _ ____ _
 72
65
 73
4
 40
16.61571103342426
 49
10.38481939589016
 49
-2.076963879178032
 49
2.076963879178032
 49
-2.076963879178032
  0
LTYPE
  2
DASHDOT
 70
64
  3
__ . __ . __ .
 72
65
 73
4
 40
8.307855516712127
 49
4.153927758356064
 49
-2.076963879178032
 49
0
 49
-2.076963879178032
  0
LTYPE
  2
DASHED
 70
64
  3
__ __ __ __ __
 72
65
 73
2
 40
6.230891637534096
 49
4.153927758356064
 49
-2.076963879178032
  0
LTYPE
  2
DIVIDE
 70
64
  3
__ . . __ . . 
 72
65
 73
6
 40
10.38481939589016
 49
4.153927758356064
 49
-2.076963879178032
 49
0
 49
-2.076963879178032
 49
0
 49
-2.076963879178032
  0
LTYPE
  2
DOT
 70
64
  3
..............
 72
65
 73
4
 40
4.153927758356064
 49
0
 49
-2.076963879178032
 49
0
 49
-2.076963879178032
  0
LTYPE
  2
HIDDEN
 70
64
  3
_ _ _ _ _ _ _
 72
65
 73
2
 40
3.115445818767048
 49
2.076963879178032
 49
-1.038481939589016
  0
LTYPE
  2
PHANTOM
 70
64
  3
_____ _ _ _____ _ _ 
 72
65
 73
6
 40
20.76963879178032
 49
10.38481939589016
 49
-2.076963879178032
 49
2.076963879178032
 49
-2.076963879178032
 49
2.076963879178032
 49
-2.076963879178032
  0
ENDTAB
  0
TABLE
  2
LAYER
 70
3
  0
LAYER
  2
1
 70
0
 62
7
  6
CONTINUOUS
  0
LAYER
  2
0
 70
0
 62
7
  6
CONTINUOUS
  0
ENDTAB
  0
TABLE
  2
STYLE
 70
4
  0
STYLE
  2
STANDARD
 70
0
 40
0
 41
1
 50
0
 71
0
 42
3.5
  3
txt
  4

  0
STYLE
  2
SIMPLEX
 70
0
 40
0
 41
1
 50
0
 71
0
 42
3.5
  3
simplex
  4

  0
STYLE
  2
COMPLEX
 70
0
 40
0
 41
1
 50
0
 71
0
 42
3.5
  3
complex
  4

  0
STYLE
  2
ITALIC
 70
0
 40
0
 41
1
 50
0
 71
0
 42
3.5
  3
italic
  4

  0
ENDTAB
  0
TABLE
  2
VIEW
 70
0
  0
ENDTAB
  0
ENDSEC
  0
SECTION
  2
BLOCKS
  0
BLOCK
  8
1
  2
*X0
 70
1
 10
0
 20
0
 30
0
  0
LINE
  8
1
 62
2
 10
42.83522708328191
 20
-570.4384842398109
 30
0
 11
43.05684483360545
 21
-570.2168664894871
 31
0
  0
LINE
  8
1
 62
2
 10
43.12078943722548
 20
-570.6478966326979
 30
0
 11
43.55181958043603
 21
-570.2168664894871
 31
0
  0
LINE
  8
1
 62
2
 10
43.40635179116906
 20
-570.8573090255849
 30
0
 11
44.04679432726662
 21
-570.2168664894871
 31
0
  0
LINE
  8
1
 62
2
 10
43.69191414511263
 20
-571.0667214184718
 30
0
 11
44.5417690740972
 21
-570.2168664894871
 31
0
  0
LINE
  8
1
 62
2
 10
43.97747649905621
 20
-571.2761338113588
 30
0
 11
44.80574833283714
 21
-570.4478619775777
 31
0
  0
LINE
  8
1
 62
2
 10
44.26303885299978
 20
-571.4855462042458
 30
0
 11
44.80574833283714
 21
-570.9428367244083
 31
0
  0
LINE
  8
1
 62
2
 10
44.72669331461697
 20
-571.5168664894591
 30
0
 11
44.80574833283714
 21
-571.4378114712389
 31
0
  0
ENDBLK
  8
0
  0
BLOCK
  8
1
  2
*X1
 70
1
 10
0
 20
0
 30
0
  0
LINE
  8
1
 62
2
 10
3.3959796581901
 20
-485.6390702104265
 30
0
 11
3.465137426601308
 21
-485.569912442015
 31
0
  0
LINE
  8
1
 62
2
 10
3.3959796581901
 20
-485.7804915666638
 30
0
 11
3.606558782838617
 21
-485.569912442015
 31
0
  0
LINE
  8
1
 62
2
 10
3.3959796581901
 20
-485.9219129229011
 30
0
 11
3.747980139075927
 21
-485.569912442015
 31
0
  0
LINE
  8
1
 62
2
 10
3.3959796581901
 20
-486.0633342791384
 30
0
 11
3.889401495313237
 21
-485.569912442015
 31
0
  0
LINE
  8
1
 62
2
 10
3.3959796581901
 20
-486.2047556353757
 30
0
 11
4.030822851550546
 21
-485.569912442015
 31
0
  0
LINE
  8
1
 62
2
 10
3.3959796581901
 20
-486.3461769916129
 30
0
 11
4.172244207787855
 21
-485.569912442015
 31
0
  0
LINE
  8
1
 62
2
 10
3.3959796581901
 20
-486.4875983478502
 30
0
 11
4.313665564025165
 21
-485.569912442015
 31
0
  0
LINE
  8
1
 62
2
 10
3.3959796581901
 20
-486.6290197040875
 30
0
 11
4.455086920262474
 21
-485.569912442015
 31
0
  0
LINE
  8
1
 62
2
 10
3.3959796581901
 20
-486.7704410603248
 30
0
 11
4.596508276499783
 21
-485.569912442015
 31
0
  0
LINE
  8
1
 62
2
 10
3.3959796581901
 20
-486.9118624165621
 30
0
 11
4.737929632737092
 21
-485.569912442015
 31
0
  0
LINE
  8
1
 62
2
 10
3.3959796581901
 20
-487.0532837727994
 30
0
 11
4.879350988974402
 21
-485.569912442015
 31
0
  0
LINE
  8
1
 62
2
 10
3.3959796581901
 20
-487.1947051290367
 30
0
 11
5.020772345211711
 21
-485.569912442015
 31
0
  0
LINE
  8
1
 62
2
 10
3.3959796581901
 20
-487.336126485274
 30
0
 11
5.16219370144902
 21
-485.569912442015
 31
0
  0
LINE
  8
1
 62
2
 10
3.3959796581901
 20
-487.4775478415112
 30
0
 11
5.303615057686329
 21
-485.569912442015
 31
0
  0
LINE
  8
1
 62
2
 10
3.445036413923651
 20
-487.569912442015
 30
0
 11
5.445036413923639
 21
-485.569912442015
 31
0
  0
LINE
  8
1
 62
2
 10
3.586457770160961
 20
-487.569912442015
 30
0
 11
5.586457770160948
 21
-485.569912442015
 31
0
  0
LINE
  8
1
 62
2
 10
3.72787912639827
 20
-487.569912442015
 30
0
 11
5.727879126398257
 21
-485.569912442015
 31
0
  0
LINE
  8
1
 62
2
 10
3.86930048263558
 20
-487.569912442015
 30
0
 11
5.869300482635566
 21
-485.569912442015
 31
0
  0
LINE
  8
1
 62
2
 10
4.01072183887289
 20
-487.569912442015
 30
0
 11
6.010721838872875
 21
-485.569912442015
 31
0
  0
LINE
  8
1
 62
2
 10
4.152143195110199
 20
-487.569912442015
 30
0
 11
6.152143195110185
 21
-485.569912442015
 31
0
  0
LINE
  8
1
 62
2
 10
4.293564551347508
 20
-487.569912442015
 30
0
 11
6.293564551347494
 21
-485.569912442015
 31
0
  0
LINE
  8
1
 62
2
 10
4.434985907584817
 20
-487.569912442015
 30
0
 11
6.434985907584803
 21
-485.569912442015
 31
0
  0
LINE
  8
1
 62
2
 10
4.576407263822127
 20
-487.569912442015
 30
0
 11
6.576407263822112
 21
-485.569912442015
 31
0
  0
LINE
  8
1
 62
2
 10
4.717828620059436
 20
-487.569912442015
 30
0
 11
6.717828620059422
 21
-485.569912442015
 31
0
  0
LINE
  8
1
 62
2
 10
4.859249976296745
 20
-487.569912442015
 30
0
 11
6.859249976296731
 21
-485.569912442015
 31
0
  0
LINE
  8
1
 62
2
 10
5.000671332534054
 20
-487.569912442015
 30
0
 11
7.00067133253404
 21
-485.569912442015
 31
0
  0
LINE
  8
1
 62
2
 10
5.142092688771363
 20
-487.569912442015
 30
0
 11
7.142092688771349
 21
-485.569912442015
 31
0
  0
LINE
  8
1
 62
2
 10
5.283514045008673
 20
-487.569912442015
 30
0
 11
7.283514045008658
 21
-485.569912442015
 31
0
  0
LINE
  8
1
 62
2
 10
5.424935401245982
 20
-487.569912442015
 30
0
 11
7.424935401245968
 21
-485.569912442015
 31
0
  0
LINE
  8
1
 62
2
 10
5.566356757483291
 20
-487.569912442015
 30
0
 11
7.566356757483277
 21
-485.569912442015
 31
0
  0
LINE
  8
1
 62
2
 10
5.7077781137206
 20
-487.569912442015
 30
0
 11
7.707778113720586
 21
-485.569912442015
 31
0
  0
LINE
  8
1
 62
2
 10
5.84919946995791
 20
-487.569912442015
 30
0
 11
7.849199469957895
 21
-485.569912442015
 31
0
  0
LINE
  8
1
 62
2
 10
5.990620826195219
 20
-487.569912442015
 30
0
 11
7.990620826195205
 21
-485.569912442015
 31
0
  0
LINE
  8
1
 62
2
 10
6.132042182432528
 20
-487.569912442015
 30
0
 11
8.132042182432514
 21
-485.569912442015
 31
0
  0
LINE
  8
1
 62
2
 10
10.39597965819007
 20
-483.447396322495
 30
0
 11
10.44893280363313
 21
-483.3944431770534
 31
0
  0
LINE
  8
1
 62
2
 10
6.273463538669837
 20
-487.569912442015
 30
0
 11
8.273463538669823
 21
-485.569912442015
 31
0
  0
LINE
  8
1
 62
2
 10
10.39597965819007
 20
-483.5888176787323
 30
0
 11
10.53859035084987
 21
-483.4462069860739
 31
0
  0
LINE
  8
1
 62
2
 10
6.414884894907146
 20
-487.569912442015
 30
0
 11
8.414884894907132
 21
-485.569912442015
 31
0
  0
LINE
  8
1
 62
2
 10
10.39597965819007
 20
-483.7302390349696
 30
0
 11
10.62824789806661
 21
-483.4979707950944
 31
0
  0
LINE
  8
1
 62
2
 10
6.556306251144456
 20
-487.569912442015
 30
0
 11
8.556306251144441
 21
-485.569912442015
 31
0
  0
LINE
  8
1
 62
2
 10
10.39597965819007
 20
-483.8716603912069
 30
0
 11
10.71790544528335
 21
-483.549734604115
 31
0
  0
LINE
  8
1
 62
2
 10
6.697727607381765
 20
-487.569912442015
 30
0
 11
8.697727607381751
 21
-485.569912442015
 31
0
  0
LINE
  8
1
 62
2
 10
10.39597965819007
 20
-484.0130817474442
 30
0
 11
10.80756299250009
 21
-483.6014984131355
 31
0
  0
LINE
  8
1
 62
2
 10
6.839148963619074
 20
-487.569912442015
 30
0
 11
8.83914896361906
 21
-485.569912442015
 31
0
  0
LINE
  8
1
 62
2
 10
10.39597965819007
 20
-484.1545031036815
 30
0
 11
10.89722053971683
 21
-483.6532622221561
 31
0
  0
LINE
  8
1
 62
2
 10
6.980570319856383
 20
-487.569912442015
 30
0
 11
8.980570319856369
 21
-485.569912442015
 31
0
  0
LINE
  8
1
 62
2
 10
10.39597965819007
 20
-484.2959244599188
 30
0
 11
10.98687808693357
 21
-483.7050260311766
 31
0
  0
LINE
  8
1
 62
2
 10
7.121991676093693
 20
-487.569912442015
 30
0
 11
9.121991676093678
 21
-485.569912442015
 31
0
  0
LINE
  8
1
 62
2
 10
10.39597965819007
 20
-484.437345816156
 30
0
 11
11.07653563415031
 21
-483.7567898401971
 31
0
  0
LINE
  8
1
 62
2
 10
7.263413032331002
 20
-487.569912442015
 30
0
 11
9.263413032330988
 21
-485.569912442015
 31
0
  0
LINE
  8
1
 62
2
 10
10.39597965819007
 20
-484.5787671723933
 30
0
 11
11.16619318136705
 21
-483.8085536492177
 31
0
  0
LINE
  8
1
 62
2
 10
7.404834388568311
 20
-487.569912442015
 30
0
 11
9.404834388568297
 21
-485.569912442015
 31
0
  0
LINE
  8
1
 62
2
 10
10.39597965819007
 20
-484.7201885286306
 30
0
 11
11.25585072858379
 21
-483.8603174582382
 31
0
  0
LINE
  8
1
 62
2
 10
7.54625574480562
 20
-487.569912442015
 30
0
 11
9.546255744805606
 21
-485.569912442015
 31
0
  0
LINE
  8
1
 62
2
 10
10.39597965819007
 20
-484.8616098848679
 30
0
 11
11.34550827580053
 21
-483.9120812672588
 31
0
  0
LINE
  8
1
 62
2
 10
7.68767710104293
 20
-487.569912442015
 30
0
 11
9.687677101042915
 21
-485.569912442015
 31
0
  0
LINE
  8
1
 62
2
 10
10.39597965819007
 20
-485.0030312411052
 30
0
 11
11.43516582301727
 21
-483.9638450762793
 31
0
  0
LINE
  8
1
 62
2
 10
7.829098457280239
 20
-487.569912442015
 30
0
 11
9.829098457280225
 21
-485.569912442015
 31
0
  0
LINE
  8
1
 62
2
 10
10.39597965819007
 20
-485.1444525973425
 30
0
 11
11.52482337023401
 21
-484.0156088852999
 31
0
  0
LINE
  8
1
 62
2
 10
7.970519813517548
 20
-487.569912442015
 30
0
 11
9.970519813517534
 21
-485.569912442015
 31
0
  0
LINE
  8
1
 62
2
 10
10.39597965819007
 20
-485.2858739535798
 30
0
 11
11.61448091745075
 21
-484.0673726943204
 31
0
  0
LINE
  8
1
 62
2
 10
8.111941169754857
 20
-487.569912442015
 30
0
 11
10.11194116975484
 21
-485.569912442015
 31
0
  0
LINE
  8
1
 62
2
 10
10.39597965819007
 20
-485.4272953098171
 30
0
 11
11.70413846466749
 21
-484.1191365033409
 31
0
  0
LINE
  8
1
 62
2
 10
8.253362525992166
 20
-487.569912442015
 30
0
 11
10.25336252599215
 21
-485.569912442015
 31
0
  0
LINE
  8
1
 62
2
 10
10.39597965819007
 20
-485.5687166660543
 30
0
 11
11.79379601188423
 21
-484.1709003123615
 31
0
  0
LINE
  8
1
 62
2
 10
8.394783882229476
 20
-487.569912442015
 30
0
 11
10.39478388222946
 21
-485.569912442015
 31
0
  0
LINE
  8
1
 62
2
 10
8.536205238466785
 20
-487.569912442015
 30
0
 11
11.88345355910097
 21
-484.222664121382
 31
0
  0
LINE
  8
1
 62
2
 10
8.677626594704094
 20
-487.569912442015
 30
0
 11
11.97311110631771
 21
-484.2744279304026
 31
0
  0
LINE
  8
1
 62
2
 10
8.819047950941403
 20
-487.569912442015
 30
0
 11
12.06276865353445
 21
-484.3261917394231
 31
0
  0
LINE
  8
1
 62
2
 10
8.960469307178713
 20
-487.569912442015
 30
0
 11
12.15242620075119
 21
-484.3779555484437
 31
0
  0
LINE
  8
1
 62
2
 10
9.101890663416022
 20
-487.569912442015
 30
0
 11
12.24208374796793
 21
-484.4297193574642
 31
0
  0
LINE
  8
1
 62
2
 10
9.243312019653331
 20
-487.569912442015
 30
0
 11
12.33174129518467
 21
-484.4814831664847
 31
0
  0
LINE
  8
1
 62
2
 10
9.38473337589064
 20
-487.569912442015
 30
0
 11
12.42139884240141
 21
-484.5332469755053
 31
0
  0
LINE
  8
1
 62
2
 10
9.526154732127949
 20
-487.569912442015
 30
0
 11
12.51105638961815
 21
-484.5850107845258
 31
0
  0
LINE
  8
1
 62
2
 10
9.667576088365259
 20
-487.569912442015
 30
0
 11
12.60071393683489
 21
-484.6367745935464
 31
0
  0
LINE
  8
1
 62
2
 10
9.808997444602568
 20
-487.569912442015
 30
0
 11
12.69037148405163
 21
-484.6885384025669
 31
0
  0
LINE
  8
1
 62
2
 10
9.950418800839877
 20
-487.569912442015
 30
0
 11
12.78002903126837
 21
-484.7403022115875
 31
0
  0
LINE
  8
1
 62
2
 10
10.09184015707719
 20
-487.569912442015
 30
0
 11
12.86968657848511
 21
-484.792066020608
 31
0
  0
LINE
  8
1
 62
2
 10
10.2332615133145
 20
-487.569912442015
 30
0
 11
12.95934412570185
 21
-484.8438298296285
 31
0
  0
LINE
  8
1
 62
2
 10
10.37468286955181
 20
-487.569912442015
 30
0
 11
13.04900167291859
 21
-484.8955936386491
 31
0
  0
LINE
  8
1
 62
2
 10
10.3959796581901
 20
-487.6900370096143
 30
0
 11
13.13865922013533
 21
-484.9473574476696
 31
0
  0
LINE
  8
1
 62
2
 10
10.3959796581901
 20
-487.8314583658516
 30
0
 11
13.22831676735207
 21
-484.9991212566902
 31
0
  0
LINE
  8
1
 62
2
 10
10.3959796581901
 20
-487.9728797220889
 30
0
 11
13.31797431456881
 21
-485.0508850657107
 31
0
  0
LINE
  8
1
 62
2
 10
10.3959796581901
 20
-488.1143010783262
 30
0
 11
13.40763186178555
 21
-485.1026488747312
 31
0
  0
LINE
  8
1
 62
2
 10
10.3959796581901
 20
-488.2557224345634
 30
0
 11
13.49728940900229
 21
-485.1544126837518
 31
0
  0
LINE
  8
1
 62
2
 10
10.3959796581901
 20
-488.3971437908007
 30
0
 11
13.58694695621903
 21
-485.2061764927723
 31
0
  0
LINE
  8
1
 62
2
 10
10.3959796581901
 20
-488.538565147038
 30
0
 11
13.67660450343577
 21
-485.2579403017929
 31
0
  0
LINE
  8
1
 62
2
 10
10.3959796581901
 20
-488.6799865032753
 30
0
 11
13.76626205065251
 21
-485.3097041108134
 31
0
  0
LINE
  8
1
 62
2
 10
10.3959796581901
 20
-488.8214078595126
 30
0
 11
13.85591959786926
 21
-485.361467919834
 31
0
  0
LINE
  8
1
 62
2
 10
10.3959796581901
 20
-488.9628292157499
 30
0
 11
13.945577145086
 21
-485.4132317288545
 31
0
  0
LINE
  8
1
 62
2
 10
10.3959796581901
 20
-489.1042505719872
 30
0
 11
14.03523469230274
 21
-485.464995537875
 31
0
  0
LINE
  8
1
 62
2
 10
10.3959796581901
 20
-489.2456719282245
 30
0
 11
14.12489223951948
 21
-485.5167593468956
 31
0
  0
LINE
  8
1
 62
2
 10
10.3959796581901
 20
-489.3870932844617
 30
0
 11
14.21454978673622
 21
-485.5685231559161
 31
0
  0
LINE
  8
1
 62
2
 10
10.3959796581901
 20
-489.528514640699
 30
0
 11
14.30420733395296
 21
-485.6202869649367
 31
0
  0
LINE
  8
1
 62
2
 10
10.3959796581901
 20
-489.6699359969363
 30
0
 11
14.3938648811697
 21
-485.6720507739572
 31
0
  0
LINE
  8
1
 62
2
 10
10.4797443712649
 20
-489.7275926400993
 30
0
 11
14.48352242838644
 21
-485.7238145829778
 31
0
  0
LINE
  8
1
 62
2
 10
10.81435089275905
 20
-489.5344074748424
 30
0
 11
14.57317997560318
 21
-485.7755783919983
 31
0
  0
LINE
  8
1
 62
2
 10
11.1489574142532
 20
-489.3412223095855
 30
0
 11
14.66283752281992
 21
-485.8273422010188
 31
0
  0
LINE
  8
1
 62
2
 10
11.48356393574735
 20
-489.1480371443287
 30
0
 11
14.75249507003666
 21
-485.8791060100394
 31
0
  0
LINE
  8
1
 62
2
 10
11.81817045724149
 20
-488.9548519790718
 30
0
 11
14.8421526172534
 21
-485.9308698190599
 31
0
  0
LINE
  8
1
 62
2
 10
12.15277697873564
 20
-488.7616668138149
 30
0
 11
14.93181016447014
 21
-485.9826336280805
 31
0
  0
LINE
  8
1
 62
2
 10
12.48738350022979
 20
-488.5684816485581
 30
0
 11
15.02146771168688
 21
-486.034397437101
 31
0
  0
LINE
  8
1
 62
2
 10
12.82199002172394
 20
-488.3752964833012
 30
0
 11
15.11112525890362
 21
-486.0861612461216
 31
0
  0
LINE
  8
1
 62
2
 10
13.15659654321809
 20
-488.1821113180444
 30
0
 11
15.20078280612036
 21
-486.1379250551421
 31
0
  0
LINE
  8
1
 62
2
 10
13.49120306471223
 20
-487.9889261527875
 30
0
 11
15.2904403533371
 21
-486.1896888641626
 31
0
  0
LINE
  8
1
 62
2
 10
13.82580958620638
 20
-487.7957409875306
 30
0
 11
15.38009790055384
 21
-486.2414526731832
 31
0
  0
LINE
  8
1
 62
2
 10
14.16041610770053
 20
-487.6025558222738
 30
0
 11
15.46975544777058
 21
-486.2932164822037
 31
0
  0
LINE
  8
1
 62
2
 10
14.49502262919468
 20
-487.4093706570169
 30
0
 11
15.55941299498732
 21
-486.3449802912243
 31
0
  0
LINE
  8
1
 62
2
 10
14.82962915068883
 20
-487.21618549176
 30
0
 11
15.64907054220406
 21
-486.3967441002448
 31
0
  0
LINE
  8
1
 62
2
 10
15.16423567218298
 20
-487.0230003265032
 30
0
 11
15.7387280894208
 21
-486.4485079092654
 31
0
  0
LINE
  8
1
 62
2
 10
15.49884219367712
 20
-486.8298151612463
 30
0
 11
15.82838563663754
 21
-486.5002717182859
 31
0
  0
LINE
  8
1
 62
2
 10
15.83344871517127
 20
-486.6366299959894
 30
0
 11
15.91804318385428
 21
-486.5520355273064
 31
0
  0
ENDBLK
  8
0
  0
BLOCK
  8
1
  2
*X2
 70
1
 10
0
 20
0
 30
0
  0
LINE
  8
1
 62
2
 10
-50.23068227307971
 20
-535.4473555232889
 30
0
 11
-50.1494252708421
 21
-535.366098521051
 31
0
  0
LINE
  8
1
 62
2
 10
-50.23068227307971
 20
-535.5887768795262
 30
0
 11
-50.00800391460479
 21
-535.366098521051
 31
0
  0
LINE
  8
1
 62
2
 10
-50.23068227307971
 20
-535.7301982357635
 30
0
 11
-49.86658255836748
 21
-535.366098521051
 31
0
  0
LINE
  8
1
 62
2
 10
-50.23068227307971
 20
-535.8716195920008
 30
0
 11
-49.72516120213017
 21
-535.366098521051
 31
0
  0
LINE
  8
1
 62
2
 10
-50.23068227307971
 20
-536.0130409482381
 30
0
 11
-49.58373984589287
 21
-535.366098521051
 31
0
  0
LINE
  8
1
 62
2
 10
-50.23068227307971
 20
-536.1544623044754
 30
0
 11
-49.44231848965556
 21
-535.366098521051
 31
0
  0
LINE
  8
1
 62
2
 10
-50.23068227307971
 20
-536.2958836607127
 30
0
 11
-49.30089713341825
 21
-535.366098521051
 31
0
  0
LINE
  8
1
 62
2
 10
-50.23068227307971
 20
-536.43730501695
 30
0
 11
-49.15947577718094
 21
-535.366098521051
 31
0
  0
LINE
  8
1
 62
2
 10
-50.23068227307971
 20
-536.5787263731872
 30
0
 11
-49.01805442094363
 21
-535.366098521051
 31
0
  0
LINE
  8
1
 62
2
 10
-50.23068227307971
 20
-536.7201477294245
 30
0
 11
-48.87663306470632
 21
-535.366098521051
 31
0
  0
LINE
  8
1
 62
2
 10
-50.23068227307971
 20
-536.8615690856618
 30
0
 11
-48.73521170846901
 21
-535.366098521051
 31
0
  0
LINE
  8
1
 62
2
 10
-50.23068227307971
 20
-537.0029904418991
 30
0
 11
-48.5937903522317
 21
-535.366098521051
 31
0
  0
LINE
  8
1
 62
2
 10
-50.23068227307971
 20
-537.1444117981364
 30
0
 11
-48.45236899599439
 21
-535.366098521051
 31
0
  0
LINE
  8
1
 62
2
 10
-50.23068227307971
 20
-537.2858331543737
 30
0
 11
-48.31094763975708
 21
-535.366098521051
 31
0
  0
LINE
  8
1
 62
2
 10
-50.16952628351975
 20
-537.366098521051
 30
0
 11
-48.16952628351977
 21
-535.366098521051
 31
0
  0
LINE
  8
1
 62
2
 10
-50.02810492728244
 20
-537.366098521051
 30
0
 11
-48.02810492728246
 21
-535.366098521051
 31
0
  0
LINE
  8
1
 62
2
 10
-49.88668357104513
 20
-537.366098521051
 30
0
 11
-47.88668357104515
 21
-535.366098521051
 31
0
  0
LINE
  8
1
 62
2
 10
-49.74526221480782
 20
-537.366098521051
 30
0
 11
-47.74526221480785
 21
-535.366098521051
 31
0
  0
LINE
  8
1
 62
2
 10
-49.60384085857051
 20
-537.366098521051
 30
0
 11
-47.60384085857054
 21
-535.366098521051
 31
0
  0
LINE
  8
1
 62
2
 10
-49.46241950233321
 20
-537.366098521051
 30
0
 11
-47.46241950233323
 21
-535.366098521051
 31
0
  0
LINE
  8
1
 62
2
 10
-49.3209981460959
 20
-537.366098521051
 30
0
 11
-47.32099814609592
 21
-535.366098521051
 31
0
  0
LINE
  8
1
 62
2
 10
-49.17957678985859
 20
-537.366098521051
 30
0
 11
-47.17957678985861
 21
-535.366098521051
 31
0
  0
LINE
  8
1
 62
2
 10
-49.03815543362128
 20
-537.366098521051
 30
0
 11
-47.0381554336213
 21
-535.366098521051
 31
0
  0
LINE
  8
1
 62
2
 10
-48.89673407738397
 20
-537.366098521051
 30
0
 11
-46.89673407738399
 21
-535.366098521051
 31
0
  0
LINE
  8
1
 62
2
 10
-48.75531272114666
 20
-537.366098521051
 30
0
 11
-46.75531272114668
 21
-535.366098521051
 31
0
  0
LINE
  8
1
 62
2
 10
-48.61389136490935
 20
-537.366098521051
 30
0
 11
-46.61389136490937
 21
-535.366098521051
 31
0
  0
LINE
  8
1
 62
2
 10
-48.47247000867204
 20
-537.366098521051
 30
0
 11
-46.47247000867206
 21
-535.366098521051
 31
0
  0
LINE
  8
1
 62
2
 10
-48.33104865243473
 20
-537.366098521051
 30
0
 11
-46.33104865243475
 21
-535.366098521051
 31
0
  0
LINE
  8
1
 62
2
 10
-48.18962729619742
 20
-537.366098521051
 30
0
 11
-46.18962729619744
 21
-535.366098521051
 31
0
  0
LINE
  8
1
 62
2
 10
-48.04820593996011
 20
-537.366098521051
 30
0
 11
-46.04820593996013
 21
-535.366098521051
 31
0
  0
LINE
  8
1
 62
2
 10
-47.9067845837228
 20
-537.366098521051
 30
0
 11
-45.90678458372283
 21
-535.366098521051
 31
0
  0
LINE
  8
1
 62
2
 10
-47.76536322748549
 20
-537.366098521051
 30
0
 11
-45.76536322748552
 21
-535.366098521051
 31
0
  0
LINE
  8
1
 62
2
 10
-47.62394187124819
 20
-537.366098521051
 30
0
 11
-45.62394187124821
 21
-535.366098521051
 31
0
  0
LINE
  8
1
 62
2
 10
-47.48252051501088
 20
-537.366098521051
 30
0
 11
-45.4825205150109
 21
-535.366098521051
 31
0
  0
LINE
  8
1
 62
2
 10
-43.23068227307968
 20
-533.2556816353574
 30
0
 11
-43.17005852076651
 21
-533.1950578830465
 31
0
  0
LINE
  8
1
 62
2
 10
-47.34109915877357
 20
-537.366098521051
 30
0
 11
-45.34109915877359
 21
-535.366098521051
 31
0
  0
LINE
  8
1
 62
2
 10
-43.23068227307968
 20
-533.3971029915947
 30
0
 11
-43.08040097354962
 21
-533.2468216920669
 31
0
  0
LINE
  8
1
 62
2
 10
-47.19967780253626
 20
-537.366098521051
 30
0
 11
-45.19967780253628
 21
-535.366098521051
 31
0
  0
LINE
  8
1
 62
2
 10
-43.23068227307968
 20
-533.538524347832
 30
0
 11
-42.99074342633272
 21
-533.2985855010873
 31
0
  0
LINE
  8
1
 62
2
 10
-47.05825644629895
 20
-537.366098521051
 30
0
 11
-45.05825644629897
 21
-535.366098521051
 31
0
  0
LINE
  8
1
 62
2
 10
-43.23068227307968
 20
-533.6799457040693
 30
0
 11
-42.90108587911583
 21
-533.3503493101076
 31
0
  0
LINE
  8
1
 62
2
 10
-46.91683509006164
 20
-537.366098521051
 30
0
 11
-44.91683509006166
 21
-535.366098521051
 31
0
  0
LINE
  8
1
 62
2
 10
-43.23068227307968
 20
-533.8213670603066
 30
0
 11
-42.81142833189893
 21
-533.402113119128
 31
0
  0
LINE
  8
1
 62
2
 10
-46.77541373382433
 20
-537.366098521051
 30
0
 11
-44.77541373382435
 21
-535.366098521051
 31
0
  0
LINE
  8
1
 62
2
 10
-43.23068227307968
 20
-533.9627884165438
 30
0
 11
-42.72177078468204
 21
-533.4538769281484
 31
0
  0
LINE
  8
1
 62
2
 10
-46.63399237758702
 20
-537.366098521051
 30
0
 11
-44.63399237758704
 21
-535.366098521051
 31
0
  0
LINE
  8
1
 62
2
 10
-43.23068227307968
 20
-534.1042097727811
 30
0
 11
-42.63211323746514
 21
-533.5056407371687
 31
0
  0
LINE
  8
1
 62
2
 10
-46.49257102134971
 20
-537.366098521051
 30
0
 11
-44.49257102134973
 21
-535.366098521051
 31
0
  0
LINE
  8
1
 62
2
 10
-43.23068227307968
 20
-534.2456311290184
 30
0
 11
-42.54245569024825
 21
-533.5574045461891
 31
0
  0
LINE
  8
1
 62
2
 10
-46.3511496651124
 20
-537.366098521051
 30
0
 11
-44.35114966511242
 21
-535.366098521051
 31
0
  0
LINE
  8
1
 62
2
 10
-43.23068227307968
 20
-534.3870524852557
 30
0
 11
-42.45279814303135
 21
-533.6091683552095
 31
0
  0
LINE
  8
1
 62
2
 10
-46.20972830887509
 20
-537.366098521051
 30
0
 11
-44.20972830887511
 21
-535.366098521051
 31
0
  0
LINE
  8
1
 62
2
 10
-43.23068227307968
 20
-534.528473841493
 30
0
 11
-42.36314059581446
 21
-533.6609321642299
 31
0
  0
LINE
  8
1
 62
2
 10
-46.06830695263778
 20
-537.366098521051
 30
0
 11
-44.06830695263781
 21
-535.366098521051
 31
0
  0
LINE
  8
1
 62
2
 10
-43.23068227307968
 20
-534.6698951977303
 30
0
 11
-42.27348304859756
 21
-533.7126959732502
 31
0
  0
LINE
  8
1
 62
2
 10
-45.92688559640047
 20
-537.366098521051
 30
0
 11
-43.9268855964005
 21
-535.366098521051
 31
0
  0
LINE
  8
1
 62
2
 10
-43.23068227307968
 20
-534.8113165539676
 30
0
 11
-42.18382550138067
 21
-533.7644597822706
 31
0
  0
LINE
  8
1
 62
2
 10
-45.78546424016317
 20
-537.366098521051
 30
0
 11
-43.78546424016319
 21
-535.366098521051
 31
0
  0
LINE
  8
1
 62
2
 10
-43.23068227307968
 20
-534.9527379102049
 30
0
 11
-42.09416795416377
 21
-533.816223591291
 31
0
  0
LINE
  8
1
 62
2
 10
-45.64404288392586
 20
-537.366098521051
 30
0
 11
-43.64404288392588
 21
-535.366098521051
 31
0
  0
LINE
  8
1
 62
2
 10
-43.23068227307968
 20
-535.0941592664422
 30
0
 11
-42.00451040694688
 21
-533.8679874003113
 31
0
  0
LINE
  8
1
 62
2
 10
-45.50262152768855
 20
-537.366098521051
 30
0
 11
-43.50262152768857
 21
-535.366098521051
 31
0
  0
LINE
  8
1
 62
2
 10
-43.23068227307968
 20
-535.2355806226794
 30
0
 11
-41.91485285972998
 21
-533.9197512093317
 31
0
  0
LINE
  8
1
 62
2
 10
-45.36120017145124
 20
-537.366098521051
 30
0
 11
-43.36120017145126
 21
-535.366098521051
 31
0
  0
LINE
  8
1
 62
2
 10
-45.21977881521393
 20
-537.366098521051
 30
0
 11
-41.82519531251309
 21
-533.9715150183521
 31
0
  0
LINE
  8
1
 62
2
 10
-45.07835745897662
 20
-537.366098521051
 30
0
 11
-41.73553776529619
 21
-534.0232788273725
 31
0
  0
LINE
  8
1
 62
2
 10
-44.93693610273931
 20
-537.366098521051
 30
0
 11
-41.6458802180793
 21
-534.0750426363928
 31
0
  0
LINE
  8
1
 62
2
 10
-44.795514746502
 20
-537.366098521051
 30
0
 11
-41.5562226708624
 21
-534.1268064454132
 31
0
  0
LINE
  8
1
 62
2
 10
-44.65409339026469
 20
-537.366098521051
 30
0
 11
-41.46656512364551
 21
-534.1785702544336
 31
0
  0
LINE
  8
1
 62
2
 10
-44.51267203402738
 20
-537.366098521051
 30
0
 11
-41.37690757642861
 21
-534.2303340634539
 31
0
  0
LINE
  8
1
 62
2
 10
-44.37125067779007
 20
-537.366098521051
 30
0
 11
-41.28725002921172
 21
-534.2820978724743
 31
0
  0
LINE
  8
1
 62
2
 10
-44.22982932155276
 20
-537.366098521051
 30
0
 11
-41.19759248199483
 21
-534.3338616814947
 31
0
  0
LINE
  8
1
 62
2
 10
-44.08840796531545
 20
-537.366098521051
 30
0
 11
-41.10793493477793
 21
-534.3856254905151
 31
0
  0
LINE
  8
1
 62
2
 10
-43.94698660907815
 20
-537.366098521051
 30
0
 11
-41.01827738756104
 21
-534.4373892995354
 31
0
  0
LINE
  8
1
 62
2
 10
-43.80556525284084
 20
-537.366098521051
 30
0
 11
-40.92861984034414
 21
-534.4891531085558
 31
0
  0
LINE
  8
1
 62
2
 10
-43.66414389660353
 20
-537.366098521051
 30
0
 11
-40.83896229312725
 21
-534.5409169175762
 31
0
  0
LINE
  8
1
 62
2
 10
-43.52272254036622
 20
-537.366098521051
 30
0
 11
-40.74930474591035
 21
-534.5926807265965
 31
0
  0
LINE
  8
1
 62
2
 10
-43.38130118412891
 20
-537.366098521051
 30
0
 11
-40.65964719869346
 21
-534.6444445356169
 31
0
  0
LINE
  8
1
 62
2
 10
-43.2398798278916
 20
-537.366098521051
 30
0
 11
-40.56998965147656
 21
-534.6962083446373
 31
0
  0
LINE
  8
1
 62
2
 10
-43.23068227307968
 20
-537.4983223224767
 30
0
 11
-40.48033210425967
 21
-534.7479721536577
 31
0
  0
LINE
  8
1
 62
2
 10
-43.23068227307968
 20
-537.639743678714
 30
0
 11
-40.39067455704277
 21
-534.799735962678
 31
0
  0
LINE
  8
1
 62
2
 10
-43.23068227307968
 20
-537.7811650349513
 30
0
 11
-40.30101700982588
 21
-534.8514997716984
 31
0
  0
LINE
  8
1
 62
2
 10
-43.23068227307968
 20
-537.9225863911886
 30
0
 11
-40.21135946260898
 21
-534.9032635807188
 31
0
  0
LINE
  8
1
 62
2
 10
-43.23068227307968
 20
-538.0640077474259
 30
0
 11
-40.12170191539209
 21
-534.9550273897391
 31
0
  0
LINE
  8
1
 62
2
 10
-43.23068227307968
 20
-538.2054291036632
 30
0
 11
-40.03204436817519
 21
-535.0067911987595
 31
0
  0
LINE
  8
1
 62
2
 10
-43.23068227307968
 20
-538.3468504599005
 30
0
 11
-39.9423868209583
 21
-535.0585550077799
 31
0
  0
LINE
  8
1
 62
2
 10
-43.23068227307968
 20
-538.4882718161377
 30
0
 11
-39.8527292737414
 21
-535.1103188168003
 31
0
  0
LINE
  8
1
 62
2
 10
-43.23068227307968
 20
-538.629693172375
 30
0
 11
-39.76307172652451
 21
-535.1620826258206
 31
0
  0
LINE
  8
1
 62
2
 10
-43.23068227307968
 20
-538.7711145286123
 30
0
 11
-39.67341417930761
 21
-535.213846434841
 31
0
  0
LINE
  8
1
 62
2
 10
-43.23068227307968
 20
-538.9125358848496
 30
0
 11
-39.58375663209072
 21
-535.2656102438614
 31
0
  0
LINE
  8
1
 62
2
 10
-43.23068227307968
 20
-539.0539572410869
 30
0
 11
-39.49409908487382
 21
-535.3173740528818
 31
0
  0
LINE
  8
1
 62
2
 10
-43.23068227307968
 20
-539.1953785973242
 30
0
 11
-39.40444153765693
 21
-535.3691378619021
 31
0
  0
LINE
  8
1
 62
2
 10
-43.23068227307968
 20
-539.3367999535615
 30
0
 11
-39.31478399044003
 21
-535.4209016709225
 31
0
  0
LINE
  8
1
 62
2
 10
-43.23068227307968
 20
-539.4782213097988
 30
0
 11
-39.22512644322314
 21
-535.4726654799429
 31
0
  0
LINE
  8
1
 62
2
 10
-43.11829046543997
 20
-539.5072508583957
 30
0
 11
-39.13546889600625
 21
-535.5244292889632
 31
0
  0
LINE
  8
1
 62
2
 10
-42.78368394394371
 20
-539.3140656931367
 30
0
 11
-39.04581134878935
 21
-535.5761930979836
 31
0
  0
LINE
  8
1
 62
2
 10
-42.44907742244745
 20
-539.1208805278778
 30
0
 11
-38.95615380157246
 21
-535.627956907004
 31
0
  0
LINE
  8
1
 62
2
 10
-42.11447090095118
 20
-538.9276953626189
 30
0
 11
-38.86649625435556
 21
-535.6797207160244
 31
0
  0
LINE
  8
1
 62
2
 10
-41.77986437945492
 20
-538.73451019736
 30
0
 11
-38.77683870713867
 21
-535.7314845250447
 31
0
  0
LINE
  8
1
 62
2
 10
-41.44525785795866
 20
-538.5413250321011
 30
0
 11
-38.68718115992177
 21
-535.7832483340651
 31
0
  0
LINE
  8
1
 62
2
 10
-41.1106513364624
 20
-538.3481398668422
 30
0
 11
-38.59752361270488
 21
-535.8350121430855
 31
0
  0
LINE
  8
1
 62
2
 10
-40.77604481496613
 20
-538.1549547015833
 30
0
 11
-38.50786606548798
 21
-535.8867759521058
 31
0
  0
LINE
  8
1
 62
2
 10
-40.44143829346987
 20
-537.9617695363244
 30
0
 11
-38.41820851827109
 21
-535.9385397611262
 31
0
  0
LINE
  8
1
 62
2
 10
-40.10683177197361
 20
-537.7685843710655
 30
0
 11
-38.32855097105419
 21
-535.9903035701466
 31
0
  0
LINE
  8
1
 62
2
 10
-39.77222525047735
 20
-537.5753992058066
 30
0
 11
-38.2388934238373
 21
-536.042067379167
 31
0
  0
LINE
  8
1
 62
2
 10
-39.43761872898109
 20
-537.3822140405476
 30
0
 11
-38.1492358766204
 21
-536.0938311881873
 31
0
  0
LINE
  8
1
 62
2
 10
-39.10301220748482
 20
-537.1890288752887
 30
0
 11
-38.05957832940351
 21
-536.1455949972077
 31
0
  0
LINE
  8
1
 62
2
 10
-38.76840568598856
 20
-536.9958437100298
 30
0
 11
-37.96992078218661
 21
-536.1973588062281
 31
0
  0
LINE
  8
1
 62
2
 10
-38.4337991644923
 20
-536.8026585447709
 30
0
 11
-37.88026323496972
 21
-536.2491226152484
 31
0
  0
LINE
  8
1
 62
2
 10
-38.09919264299604
 20
-536.609473379512
 30
0
 11
-37.79060568775282
 21
-536.3008864242688
 31
0
  0
LINE
  8
1
 62
2
 10
-37.76458612149978
 20
-536.4162882142531
 30
0
 11
-37.70094814053593
 21
-536.3526502332892
 31
0
  0
ENDBLK
  8
0
  0
BLOCK
  8
1
  2
*D0
 70
1
 10
0
 20
0
 30
0
  0
LINE
  8
1
 62
2
 10
25.6057483328113
 20
-585
 30
0
 11
65.60574833281117
 21
-585
 31
0
  0
LINE
  8
1
 62
2
 10
65.60574833281117
 20
-570.2168664894871
 30
0
 11
65.60574833281117
 21
-586.5
 31
0
  0
LINE
  8
1
 62
2
 10
25.6057483328113
 20
-570.2168664894871
 30
0
 11
25.6057483328113
 21
-586.5
 31
0
  0
SOLID
  8
1
 62
2
 10
25.6057483328113
 20
-585
 30
0
 11
28.8057483328113
 21
-584.584
 31
0
 12
28.8057483328113
 22
-585.4160000000001
 32
0
 13
28.8057483328113
 23
-585.4160000000001
 33
0
  0
SOLID
  8
1
 62
2
 10
65.60574833281117
 20
-585
 30
0
 11
62.40574833281117
 21
-585.4160000000001
 31
0
 12
62.40574833281117
 22
-584.584
 32
0
 13
62.40574833281117
 23
-584.584
 33
0
  0
TEXT
  8
1
 62
2
 10
42.6
 20
-583
 30
0
 40
3.2
  1
40
 41
0.9
  0
ENDBLK
  8
0
  0
BLOCK
  8
1
  2
*D1
 70
1
 10
0
 20
0
 30
0
  0
LINE
  8
1
 62
2
 10
-215
 20
-544.8168664894611
 30
0
 11
-215
 21
-486.3168664894613
 31
0
  0
LINE
  8
1
 62
2
 10
-209.9932045837046
 20
-486.3168664894613
 30
0
 11
-216.5
 21
-486.3168664894613
 31
0
  0
LINE
  8
1
 62
2
 10
-188.5454057871648
 20
-544.8168664894611
 30
0
 11
-216.5
 21
-544.8168664894611
 31
0
  0
SOLID
  8
1
 62
2
 10
-215
 20
-486.3168664894613
 30
0
 11
-214.584
 21
-489.5168664894613
 31
0
 12
-215.416
 22
-489.5168664894613
 32
0
 13
-215.416
 23
-489.5168664894613
 33
0
  0
SOLID
  8
1
 62
2
 10
-215
 20
-544.8168664894611
 30
0
 11
-215.416
 21
-541.616866489461
 31
0
 12
-214.584
 22
-541.616866489461
 32
0
 13
-214.584
 23
-541.616866489461
 33
0
  0
TEXT
  8
1
 62
2
 10
-217
 20
-522.712
 30
0
 40
3.2
  1
58.5
 50
90
 41
0.9
  0
TEXT
  8
1
 62
2
 10
-217.64
 20
-512.232
 30
0
 40
1.92
  1
%%p0.3
 50
90
 41
0.9
  0
ENDBLK
  8
0
  0
BLOCK
  8
1
  2
*D2
 70
1
 10
0
 20
0
 30
0
  0
LINE
  8
1
 62
2
 10
-201.2732111726911
 20
-600
 30
0
 11
-51.27321117269088
 21
-600
 31
0
  0
LINE
  8
1
 62
2
 10
-51.27321117269088
 20
-571.2168664894571
 30
0
 11
-51.27321117269088
 21
-601.5
 31
0
  0
LINE
  8
1
 62
2
 10
-201.2732111726911
 20
-492.1341353799792
 30
0
 11
-201.2732111726911
 21
-601.5
 31
0
  0
SOLID
  8
1
 62
2
 10
-201.2732111726911
 20
-600
 30
0
 11
-198.0732111726911
 21
-599.584
 31
0
 12
-198.0732111726911
 22
-600.4160000000001
 32
0
 13
-198.0732111726911
 23
-600.4160000000001
 33
0
  0
SOLID
  8
1
 62
2
 10
-51.27321117269088
 20
-600
 30
0
 11
-54.47321117269088
 21
-600.4160000000001
 31
0
 12
-54.47321117269088
 22
-599.584
 32
0
 13
-54.47321117269088
 23
-599.584
 33
0
  0
TEXT
  8
1
 62
2
 10
-128.36
 20
-598
 30
0
 40
3.2
  1
150
 41
0.9
  0
ENDBLK
  8
0
  0
BLOCK
  8
1
  2
*D3
 70
1
 10
0
 20
0
 30
0
  0
LINE
  8
1
 62
2
 10
-125.1731692181308
 20
-585
 30
0
 11
-51.27321117269087
 21
-585
 31
0
  0
LINE
  8
1
 62
2
 10
-51.27321117269087
 20
-571.2168664894571
 30
0
 11
-51.27321117269087
 21
-586.5
 31
0
  0
LINE
  8
1
 62
2
 10
-125.1731692181308
 20
-583.1295011657189
 30
0
 11
-125.1731692181308
 21
-586.5
 31
0
  0
SOLID
  8
1
 62
2
 10
-125.1731692181308
 20
-585
 30
0
 11
-121.9731692181308
 21
-584.584
 31
0
 12
-121.9731692181308
 22
-585.4160000000001
 32
0
 13
-121.9731692181308
 23
-585.4160000000001
 33
0
  0
SOLID
  8
1
 62
2
 10
-51.27321117269087
 20
-585
 30
0
 11
-54.47321117269087
 21
-585.4160000000001
 31
0
 12
-54.47321117269087
 22
-584.584
 32
0
 13
-54.47321117269087
 23
-584.584
 33
0
  0
TEXT
  8
1
 62
2
 10
-92.40000000000001
 20
-583
 30
0
 40
3.2
  1
74
 41
0.9
  0
ENDBLK
  8
0
  0
BLOCK
  8
1
  2
*D4
 70
1
 10
0
 20
0
 30
0
  0
LINE
  8
1
 62
2
 10
-183.6732111726857
 20
-585
 30
0
 11
-125.1731692181308
 21
-585
 31
0
  0
LINE
  8
1
 62
2
 10
-125.1731692181308
 20
-583.1295011657189
 30
0
 11
-125.1731692181308
 21
-586.5
 31
0
  0
LINE
  8
1
 62
2
 10
-183.6732111726857
 20
-549.926580375598
 30
0
 11
-183.6732111726857
 21
-586.5
 31
0
  0
SOLID
  8
1
 62
2
 10
-125.1731692181308
 20
-585
 30
0
 11
-128.3731692181308
 21
-585.4160000000001
 31
0
 12
-128.3731692181308
 22
-584.584
 32
0
 13
-128.3731692181308
 23
-584.584
 33
0
  0
SOLID
  8
1
 62
2
 10
-183.6732111726857
 20
-585
 30
0
 11
-180.4732111726857
 21
-584.584
 31
0
 12
-180.4732111726857
 22
-585.4160000000001
 32
0
 13
-180.4732111726857
 23
-585.4160000000001
 33
0
  0
TEXT
  8
1
 62
2
 10
-162.712
 20
-583
 30
0
 40
3.2
  1
58.5
 41
0.9
  0
TEXT
  8
1
 62
2
 10
-152.232
 20
-582.36
 30
0
 40
1.92
  1
%%p0.3
 41
0.9
  0
ENDBLK
  8
0
  0
BLOCK
  8
1
  2
*D5
 70
1
 10
0
 20
0
 30
0
  0
LINE
  8
1
 62
2
 10
-5.13872796475707
 20
-570.2168664894571
 30
0
 11
-5.13872796475707
 21
-418.2168664894573
 31
0
  0
LINE
  8
1
 62
2
 10
-50.27321117269087
 20
-570.2168664894571
 30
0
 11
-3.63872796475707
 21
-570.2168664894571
 31
0
  0
LINE
  8
1
 62
2
 10
-127.6753114358829
 20
-418.2168664894573
 30
0
 11
-3.63872796475707
 21
-418.2168664894573
 31
0
  0
SOLID
  8
1
 62
2
 10
-5.13872796475707
 20
-570.2168664894571
 30
0
 11
-5.554727964757071
 21
-567.016866489457
 31
0
 12
-4.722727964757072
 22
-567.016866489457
 32
0
 13
-4.722727964757072
 23
-567.016866489457
 33
0
  0
SOLID
  8
1
 62
2
 10
-5.13872796475707
 20
-418.2168664894573
 30
0
 11
-4.722727964757071
 21
-421.4168664894573
 31
0
 12
-5.55472796475707
 22
-421.4168664894573
 32
0
 13
-5.55472796475707
 23
-421.4168664894573
 33
0
  0
TEXT
  8
1
 62
2
 10
-7.13872796475707
 20
-495.6116051503
 30
0
 40
3.2
  1
152
 50
90
 41
0.9
  0
ENDBLK
  8
0
  0
BLOCK
  8
1
  2
*D6
 70
1
 10
0
 20
0
 30
0
  0
LINE
  8
1
 62
2
 10
-20
 20
-570.2168664894571
 30
0
 11
-20
 21
-486.3168664894613
 31
0
  0
LINE
  8
1
 62
2
 10
-50.27321117269087
 20
-570.2168664894571
 30
0
 11
-18.5
 21
-570.2168664894571
 31
0
  0
LINE
  8
1
 62
2
 10
-51.61513614708601
 20
-486.3168664894613
 30
0
 11
-18.5
 21
-486.3168664894613
 31
0
  0
SOLID
  8
1
 62
2
 10
-20
 20
-486.3168664894613
 30
0
 11
-19.584
 21
-489.5168664894613
 31
0
 12
-20.416
 22
-489.5168664894613
 32
0
 13
-20.416
 23
-489.5168664894613
 33
0
  0
SOLID
  8
1
 62
2
 10
-20
 20
-570.2168664894571
 30
0
 11
-20.416
 21
-567.016866489457
 31
0
 12
-19.584
 22
-567.016866489457
 32
0
 13
-19.584
 23
-567.016866489457
 33
0
  0
TEXT
  8
1
 62
2
 10
-22
 20
-532.4
 30
0
 40
3.2
  1
84
 50
90
 41
0.9
  0
ENDBLK
  8
0
  0
BLOCK
  8
1
  2
*D7
 70
1
 10
0
 20
0
 30
0
  0
LINE
  8
1
 62
2
 10
-34.7185137125607
 20
-570.2168664894571
 30
0
 11
-34.7185137125607
 21
-497.0168664894591
 31
0
  0
LINE
  8
1
 62
2
 10
-50.27321117269087
 20
-570.2168664894571
 30
0
 11
-33.2185137125607
 21
-570.2168664894571
 31
0
  0
LINE
  8
1
 62
2
 10
-50.27321117269087
 20
-497.0168664894591
 30
0
 11
-33.2185137125607
 21
-497.0168664894591
 31
0
  0
SOLID
  8
1
 62
2
 10
-34.7185137125607
 20
-497.0168664894591
 30
0
 11
-34.3025137125607
 21
-500.2168664894591
 31
0
 12
-35.1345137125607
 22
-500.2168664894591
 32
0
 13
-35.1345137125607
 23
-500.2168664894591
 33
0
  0
SOLID
  8
1
 62
2
 10
-34.7185137125607
 20
-570.2168664894571
 30
0
 11
-35.1345137125607
 21
-567.016866489457
 31
0
 12
-34.3025137125607
 22
-567.016866489457
 32
0
 13
-34.3025137125607
 23
-567.016866489457
 33
0
  0
TEXT
  8
1
 62
2
 10
-36.7185137125607
 20
-532.655517318493
 30
0
 40
3.2
  1
73.2
 50
90
 41
0.9
  0
ENDBLK
  8
0
  0
BLOCK
  8
1
  2
*D8
 70
1
 10
0
 20
0
 30
0
  0
LINE
  8
1
 62
2
 10
-20
 20
-486.3168664894613
 30
0
 11
-20
 21
-439.3168664894613
 31
0
  0
LINE
  8
1
 62
2
 10
-51.61513614708601
 20
-486.3168664894613
 30
0
 11
-18.5
 21
-486.3168664894613
 31
0
  0
LINE
  8
1
 62
2
 10
-73.06349728656295
 20
-439.3168664894613
 30
0
 11
-18.5
 21
-439.3168664894613
 31
0
  0
SOLID
  8
1
 62
2
 10
-20
 20
-439.3168664894613
 30
0
 11
-19.584
 21
-442.5168664894613
 31
0
 12
-20.416
 22
-442.5168664894613
 32
0
 13
-20.416
 23
-442.5168664894613
 33
0
  0
SOLID
  8
1
 62
2
 10
-20
 20
-486.3168664894613
 30
0
 11
-20.416
 21
-483.1168664894613
 31
0
 12
-19.584
 22
-483.1168664894613
 32
0
 13
-19.584
 23
-483.1168664894613
 33
0
  0
TEXT
  8
1
 62
2
 10
-22.5040036339539
 20
-468.94140182811
 30
0
 40
3.2
  1
47
 50
90
 41
0.9
  0
TEXT
  8
1
 62
2
 10
-23.1440036339539
 20
-462.54140182811
 30
0
 40
1.92
  1
%%p0.3
 50
90
 41
0.9
  0
ENDBLK
  8
0
  0
BLOCK
  8
1
  2
*D9
 70
1
 10
0
 20
0
 30
0
  0
LINE
  8
1
 62
2
 10
-125.1731692181308
 20
-405
 30
0
 11
-78.1732111726848
 21
-405
 31
0
  0
LINE
  8
1
 62
2
 10
-78.1732111726848
 20
-434.4446718749823
 30
0
 11
-78.1732111726848
 21
-403.5
 31
0
  0
LINE
  8
1
 62
2
 10
-125.1731692181308
 20
-409.932563400941
 30
0
 11
-125.1731692181308
 21
-403.5
 31
0
  0
SOLID
  8
1
 62
2
 10
-78.1732111726848
 20
-405
 30
0
 11
-81.37321117268481
 21
-405.416
 31
0
 12
-81.37321117268481
 22
-404.584
 32
0
 13
-81.37321117268481
 23
-404.584
 33
0
  0
SOLID
  8
1
 62
2
 10
-125.1731692181308
 20
-405
 30
0
 11
-121.9731692181308
 21
-404.584
 31
0
 12
-121.9731692181308
 22
-405.416
 32
0
 13
-121.9731692181308
 23
-405.416
 33
0
  0
TEXT
  8
1
 62
2
 10
-105.672
 20
-403
 30
0
 40
3.2
  1
47
 41
0.9
  0
TEXT
  8
1
 62
2
 10
-99.27200000000001
 20
-402.36
 30
0
 40
1.92
  1
%%p0.3
 41
0.9
  0
ENDBLK
  8
0
  0
BLOCK
  8
1
  2
*D10
 70
1
 10
0
 20
0
 30
0
  0
LINE
  8
1
 62
2
 10
-202.9540399030354
 20
-569.229714354934
 30
0
 11
-239.6505104912706
 21
-569.229714354934
 31
0
  0
LINE
  8
1
 62
2
 10
-185.0677462102843
 20
-546.5825878799725
 30
0
 11
-202.9540399030354
 21
-569.229714354934
 31
0
  0
SOLID
  8
1
 62
2
 10
-185.0677462102843
 20
-546.5825878799725
 30
0
 11
-186.7246226644456
 21
-549.3516701134292
 31
0
 12
-187.3775471964036
 22
-548.8360020461928
 32
0
 13
-187.3775471964036
 23
-548.8360020461928
 33
0
  0
TEXT
  8
1
 62
2
 10
-230.3705104912706
 20
-567.229714354934
 30
0
 40
3.2
  1
4.5
 41
0.9
  0
TEXT
  8
1
 62
2
 10
-239.6505104912706
 20
-567.229714354934
 30
0
 40
3.2
  1
2-%%c
 41
0.9
  0
TEXT
  8
1
 62
2
 10
-222.7705104912706
 20
-567.229714354934
 30
0
 40
3.2
  1
(èÐÆ╩îèüj
 41
0.9
  0
ENDBLK
  8
0
  0
BLOCK
  8
1
  2
*D11
 70
1
 10
0
 20
0
 30
0
  0
LINE
  8
1
 62
2
 10
-181.0490631988739
 20
-430.546616081367
 30
0
 11
-216.4702396694621
 21
-430.546616081367
 31
0
  0
LINE
  8
1
 62
2
 10
-92.96943553109099
 20
-518.4597791519113
 30
0
 11
-181.0490631988739
 21
-430.546616081367
 31
0
  0
SOLID
  8
1
 62
2
 10
-157.3769868142786
 20
-454.1739538270113
 30
0
 11
-154.8182278314066
 21
-456.1401197578451
 31
0
 12
-155.4059839486628
 22
-456.7289887981485
 32
0
 13
-155.4059839486628
 23
-456.7289887981485
 33
0
  0
SOLID
  8
1
 62
2
 10
-92.96943553109099
 20
-518.4597791519113
 30
0
 11
-95.52819451396307
 21
-516.4936132210776
 31
0
 12
-94.94043839670684
 22
-515.9047441807742
 32
0
 13
-94.94043839670684
 23
-515.9047441807742
 33
0
  0
TEXT
  8
1
 62
2
 10
-212.6302396694621
 20
-428.546616081367
 30
0
 40
3.2
  1
91
 41
0.9
  0
TEXT
  8
1
 62
2
 10
-216.4702396694621
 20
-428.546616081367
 30
0
 40
3.2
  1
%%c
 41
0.9
  0
TEXT
  8
1
 62
2
 10
-207.1902396694621
 20
-428.546616081367
 30
0
 40
3.2
  1
( ïzì×ôÓîaüj
 41
0.9
  0
ENDBLK
  8
0
  0
ENDSEC
  0
SECTION
  2
ENTITIES
  0
INSERT
  8
1
  2
*X0
 10
0
 20
0
 30
0
  0
INSERT
  8
1
  2
*X1
 10
0
 20
0
 30
0
  0
INSERT
  8
1
  2
*X2
 10
0
 20
0
 30
0
  0
LINE
  8
1
 62
1
 10
-125.1731692181308
 20
-410.932563400941
 30
0
 11
-125.1731692181308
 21
-582.1295011657189
 31
0
  0
LINE
  8
1
 62
1
 10
-52.615136147086
 20
-486.3168664894613
 30
0
 11
-208.9932045837046
 21
-486.3168664894613
 31
0
  0
LINE
  8
1
 62
3
 10
-119.2732111726909
 20
-570.2168664894571
 30
0
 11
-119.2732111726909
 21
-572.7168664894571
 31
0
  0
LINE
  8
1
 62
3
 10
-51.27321117269087
 20
-497.0168664894591
 30
0
 11
-63.7001632827268
 21
-497.0168664894591
 31
0
  0
LINE
  8
1
 62
3
 10
-51.27321117269087
 20
-497.0168664894591
 30
0
 11
-62.98197308182187
 21
-497.0168664894591
 31
0
  0
LINE
  8
1
 62
3
 10
-74.65523376354798
 20
-442.5824192679135
 30
0
 11
-75.84754970104785
 21
-443.7767109855333
 31
0
  0
LINE
  8
1
 62
2
 10
-81.5673237223638
 20
-435.9227539397563
 30
0
 11
-81.8147246889238
 21
-436.1701549063591
 31
0
  0
LINE
  8
1
 62
3
 10
-81.5673237223638
 20
-435.9227539397563
 30
0
 11
-81.8147246889238
 21
-436.1701549063591
 31
0
  0
LINE
  8
1
 62
3
 10
-81.56728176782391
 20
-435.9227539397563
 30
0
 11
-81.81468273438389
 21
-436.1701549063591
 31
0
  0
LINE
  8
1
 62
3
 10
-83.874287812094
 20
-431.7163628770163
 30
0
 11
-85.08140577919781
 21
-433.2482515288493
 31
0
  0
LINE
  8
1
 62
3
 10
-89.6866026703498
 20
-427.1362978132313
 30
0
 11
-92.00087622121481
 21
-430.0732182190393
 31
0
  0
LINE
  8
1
 62
3
 10
-84.65973576591199
 20
-431.0974351656953
 30
0
 11
-86.97400931677791
 21
-434.0343555715034
 31
0
  0
LINE
  8
1
 62
3
 10
-88.24071341770781
 20
-428.0493222898864
 30
0
 11
-86.10562501855381
 21
-430.1844106890403
 31
0
  0
LINE
  8
1
 62
3
 10
-88.24071341770781
 20
-430.1844106890403
 30
0
 11
-86.10562501855381
 21
-428.0493222898864
 31
0
  0
LINE
  8
1
 62
3
 10
-90.47205062416779
 20
-426.5173701019073
 30
0
 11
-91.67916859127189
 21
-428.0492587537423
 31
0
  0
LINE
  8
1
 62
3
 10
-96.50557225610481
 20
-427.1496486508994
 30
0
 11
-95.6564244189469
 21
-425.3286452375753
 31
0
  0
LINE
  8
1
 62
2
 10
-129.1732111726848
 20
-418.9341353799545
 30
0
 11
-129.1732111726848
 21
-417.5606140756585
 31
0
  0
LINE
  8
1
 62
2
 10
-128.4235362416909
 20
-418.2168664894573
 30
0
 11
-129.8737401651269
 21
-418.2168664894573
 31
0
  0
LINE
  8
1
 62
2
 10
-201.2732111726911
 20
-491.1341353799792
 30
0
 11
-201.2732111726911
 21
-489.7606140756543
 31
0
  0
LINE
  8
1
 62
2
 10
-200.523536241683
 20
-490.4168664894842
 30
0
 11
-201.9737401651038
 21
-490.4168664894842
 31
0
  0
LINE
  8
1
 62
3
 10
-198.3449917148648
 20
-511.6903834776031
 30
0
 11
-200.2299698342501
 21
-512.376459405279
 31
0
  0
LINE
  8
1
 62
3
 10
-195.9547180426709
 20
-524.1226171651201
 30
0
 11
-194.0697399232851
 21
-523.4365412374191
 31
0
  0
LINE
  8
1
 62
3
 10
-185.9202034683518
 20
-540.2756336857401
 30
0
 11
-187.0673237223638
 21
-541.4227539397559
 31
0
  0
LINE
  8
1
 62
3
 10
-179.7983534140469
 20
-547.7265469239801
 30
0
 11
-180.4076583942048
 21
-548.3348438985979
 31
0
  0
LINE
  8
1
 62
3
 10
-177.4217796994699
 20
-552.3548127821641
 30
0
 11
-176.2736039618426
 21
-550.9536480628181
 31
0
  0
LINE
  8
1
 62
3
 10
-170.9245587367929
 20
-557.678920196762
 30
0
 11
-169.7763829999018
 21
-556.277755478312
 31
0
  0
LINE
  8
1
 62
3
 10
-176.6483010134368
 20
-552.9886350934271
 30
0
 11
-174.34041275003
 21
-550.1722268512831
 31
0
  0
LINE
  8
1
 62
3
 10
-171.6980374228257
 20
-557.045097885501
 30
0
 11
-169.3901491598077
 21
-554.228689643832
 31
0
  0
LINE
  8
1
 62
3
 10
-175.240713417708
 20
-553.9493222898841
 30
0
 11
-173.105625018554
 21
-556.0844106890399
 31
0
  0
LINE
  8
1
 62
3
 10
-175.240713417708
 20
-556.0844106890399
 30
0
 11
-173.105625018554
 21
-553.9493222898841
 31
0
  0
LINE
  8
1
 62
3
 10
-111.2732111726909
 20
-572.7168664894571
 30
0
 11
-111.2732111726909
 21
-570.2168664894571
 31
0
  0
LINE
  8
1
 62
3
 10
-119.2732111726909
 20
-572.7168664894571
 30
0
 11
-111.2732111726909
 21
-572.7168664894571
 31
0
  0
LINE
  8
1
 62
3
 10
-90.07321117266491
 20
-570.2168664894571
 30
0
 11
-51.27321117269087
 21
-570.2168664894571
 31
0
  0
LINE
  8
1
 62
3
 10
-51.27321117269087
 20
-570.2168664894571
 30
0
 11
-51.27321117269087
 21
-497.0168664894591
 31
0
  0
LINE
  8
1
 62
3
 10
63.60574833281118
 20
-501.904004605074
 30
0
 11
63.60574833281118
 21
-567.7168664894871
 31
0
  0
LINE
  8
1
 62
1
 10
19.77418786481514
 20
-439.3168980206253
 30
0
 11
71.00543166939333
 21
-439.3168980206253
 31
0
  0
LINE
  8
1
 62
3
 10
61.60574833281118
 20
-499.0168664894591
 30
0
 11
63.60574833281118
 21
-501.904004605074
 31
0
  0
LINE
  8
1
 62
3
 10
58.04574833281306
 20
-531.7885564013441
 30
0
 11
33.04574833281306
 21
-531.7885564013441
 31
0
  0
LINE
  8
1
 62
3
 10
58.04574833281306
 20
-538.072840351919
 30
0
 11
33.04574833281306
 21
-538.072840351919
 31
0
  0
LINE
  8
1
 62
3
 10
58.04574833281306
 20
-499.674885605319
 30
0
 11
33.04574833281306
 21
-499.674885605319
 31
0
  0
LINE
  8
1
 62
3
 10
58.04574833281306
 20
-501.147352012168
 30
0
 11
33.04574833281306
 21
-501.147352012168
 31
0
  0
LINE
  8
1
 62
3
 10
58.04574833281306
 20
-503.040523106538
 30
0
 11
33.04574833281306
 21
-503.040523106538
 31
0
  0
LINE
  8
1
 62
3
 10
58.04574833281306
 20
-505.249222716739
 30
0
 11
33.04574833281306
 21
-505.249222716739
 31
0
  0
LINE
  8
1
 62
3
 10
58.04574833281306
 20
-508.19415553032
 30
0
 11
33.04574833281306
 21
-508.19415553032
 31
0
  0
LINE
  8
1
 62
3
 10
58.04574833281306
 20
-511.559793031542
 30
0
 11
33.04574833281306
 21
-511.559793031542
 31
0
  0
LINE
  8
1
 62
3
 10
58.04574833281306
 20
-515.661663736145
 30
0
 11
33.04574833281306
 21
-515.661663736145
 31
0
  0
LINE
  8
1
 62
3
 10
58.04574833281306
 20
-520.184239128518
 30
0
 11
33.04574833281306
 21
-520.184239128518
 31
0
  0
LINE
  8
1
 62
3
 10
58.04574833281306
 20
-525.8637524117371
 30
0
 11
33.04574833281306
 21
-525.8637524117371
 31
0
  0
LINE
  8
1
 62
3
 10
27.6057483328113
 20
-534.816866489464
 30
0
 11
27.6057483328113
 21
-533.8168664894631
 31
0
  0
LINE
  8
1
 62
3
 10
27.6057483328113
 20
-533.8168664894631
 30
0
 11
27.6057483328113
 21
-531.8168664894631
 31
0
  0
LINE
  8
1
 62
3
 10
29.1057483328113
 20
-533.8168664894631
 30
0
 11
28.6057483328113
 21
-533.8168664894631
 31
0
  0
LINE
  8
1
 62
3
 10
29.1057483328113
 20
-499.0168664894591
 30
0
 11
29.1057483328113
 21
-533.8168664894631
 31
0
  0
LINE
  8
1
 62
3
 10
42.50574833283413
 20
-572.2168664894871
 30
0
 11
39.80574833283715
 21
-572.2168664894871
 31
0
  0
LINE
  8
1
 62
3
 10
42.50574833283413
 20
-570.2168664894871
 30
0
 11
44.10574833281117
 21
-570.2168664894871
 31
0
  0
LINE
  8
1
 62
3
  6
DASHED
 10
42.50574833283413
 20
-570.2168664894871
 30
0
 11
42.50574833283413
 21
-572.2168664894871
 31
0
  0
LINE
  8
1
 62
3
 10
44.80574833283715
 20
-572.2168664894871
 30
0
 11
42.50574833283413
 21
-572.2168664894871
 31
0
  0
LINE
  8
1
 62
3
 10
44.80574833283715
 20
-571.5168664894591
 30
0
 11
44.80574833283715
 21
-572.2168664894871
 31
0
  0
LINE
  8
1
 62
3
 10
39.80574833283715
 20
-570.2168664894871
 30
0
 11
42.50574833283413
 21
-570.2168664894871
 31
0
  0
LINE
  8
1
 62
3
 10
39.80574833283715
 20
-570.2168664894871
 30
0
 11
39.80574833283715
 21
-572.2168664894871
 31
0
  0
LINE
  8
1
 62
3
 10
46.80574833283715
 20
-570.2168664894871
 30
0
 11
45.80574833283715
 21
-570.2168664894871
 31
0
  0
LINE
  8
1
 62
3
 10
46.80574833283715
 20
-570.2168664894871
 30
0
 11
44.80574833283715
 21
-570.2168664894871
 31
0
  0
LINE
  8
1
 62
3
 10
46.80574833283715
 20
-572.2168664894871
 30
0
 11
46.80574833283715
 21
-570.2168664894871
 31
0
  0
LINE
  8
1
 62
3
 10
46.80574833283715
 20
-572.2168664894871
 30
0
 11
44.80574833283715
 21
-572.2168664894871
 31
0
  0
LINE
  8
1
 62
3
 10
65.60574833281117
 20
-455.8168664894772
 30
0
 11
65.60574833281117
 21
-494.1668664894853
 31
0
  0
LINE
  8
1
 62
3
 10
44.80574833283715
 20
-418.2168664894873
 30
0
 11
44.10574833281117
 21
-418.2168664894873
 31
0
  0
LINE
  8
1
 62
3
 10
44.80574833283715
 20
-497.0168664894591
 30
0
 11
44.80574833283715
 21
-418.2168664894873
 31
0
  0
LINE
  8
1
 62
3
 10
42.50574833283413
 20
-498.0168664894591
 30
0
 11
42.50574833283413
 21
-499.0168664894591
 31
0
  0
LINE
  8
1
 62
3
 10
42.80574833283715
 20
-498.0168664894591
 30
0
 11
42.50574833283413
 21
-498.0168664894591
 31
0
  0
LINE
  8
1
 62
3
 10
44.80574833283715
 20
-497.0168664894591
 30
0
 11
65.60574833281117
 21
-497.0168664894591
 31
0
  0
LINE
  8
1
 62
3
 10
44.80574833283715
 20
-498.0168664894591
 30
0
 11
44.80574833283715
 21
-497.0168664894591
 31
0
  0
LINE
  8
1
 62
3
 10
42.80574833283715
 20
-498.0168664894591
 30
0
 11
42.80574833283715
 21
-499.0168664894591
 31
0
  0
LINE
  8
1
 62
3
 10
42.80574833283715
 20
-498.0168664894591
 30
0
 11
44.80574833283715
 21
-498.0168664894591
 31
0
  0
LINE
  8
1
 62
3
 10
65.60574833281117
 20
-497.0168664894591
 30
0
 11
65.60574833281117
 21
-494.1668664894853
 31
0
  0
LINE
  8
1
 62
3
 10
25.6057483328113
 20
-497.0168664894591
 30
0
 11
44.80574833283715
 21
-497.0168664894591
 31
0
  0
LINE
  8
1
 62
3
 10
65.60574833281117
 20
-516.816866489463
 30
0
 11
65.60574833281117
 21
-511.316866489463
 31
0
  0
LINE
  8
1
 62
3
 10
44.80574833283715
 20
-569.2168664894871
 30
0
 11
42.80574833283715
 21
-569.2168664894871
 31
0
  0
LINE
  8
1
 62
3
 10
44.80574833283715
 20
-570.2168664894871
 30
0
 11
44.80574833283715
 21
-569.2168664894871
 31
0
  0
LINE
  8
1
 62
3
 10
44.80574833283715
 20
-570.2168664894871
 30
0
 11
44.80574833283715
 21
-571.5168664894591
 31
0
  0
LINE
  8
1
 62
3
 10
44.80574833283715
 20
-571.5168664894591
 30
0
 11
44.30574833283715
 21
-571.5168664894591
 31
0
  0
LINE
  8
1
 62
3
 10
44.30574833283715
 20
-571.5168664894591
 30
0
 11
42.80574833283715
 21
-570.4168664894851
 31
0
  0
LINE
  8
1
 62
3
 10
44.30574833283715
 20
-571.5168664894591
 30
0
 11
44.50574833283413
 21
-571.5168664894591
 31
0
  0
LINE
  8
1
 62
3
 10
42.80574833283715
 20
-570.4168664894851
 30
0
 11
42.80574833283715
 21
-570.2168664894871
 31
0
  0
LINE
  8
1
 62
3
 10
47.80574833283715
 20
-570.2168664894871
 30
0
 11
46.80574833283715
 21
-570.2168664894871
 31
0
  0
LINE
  8
1
 62
3
 10
44.80574833283715
 20
-570.2168664894871
 30
0
 11
45.80574833283715
 21
-570.2168664894871
 31
0
  0
LINE
  8
1
 62
3
 10
25.6057483328113
 20
-497.0168664894591
 30
0
 11
25.6057483328113
 21
-456.3168664894635
 31
0
  0
LINE
  8
1
 62
3
 10
27.6057483328113
 20
-499.0168664894591
 30
0
 11
61.60574833281118
 21
-499.0168664894591
 31
0
  0
LINE
  8
1
 62
3
 10
64.60574833281117
 20
-570.2168664894871
 30
0
 11
46.80574833283715
 21
-570.2168664894871
 31
0
  0
LINE
  8
1
 62
3
 10
44.80574833283715
 20
-569.2168664894871
 30
0
 11
44.10574833281117
 21
-569.2168664894871
 31
0
  0
LINE
  8
1
 62
1
 10
69.33957392683824
 20
-486.3168664894635
 30
0
 11
19.13938902083887
 21
-486.3168664894635
 31
0
  0
LINE
  8
1
 62
3
 10
44.80574833283715
 20
-418.2168664894873
 30
0
 11
64.60574833281117
 21
-418.2168664894873
 31
0
  0
LINE
  8
1
 62
3
 10
65.60574833281117
 20
-419.2168664894873
 30
0
 11
65.60574833281117
 21
-455.8168664894772
 31
0
  0
LINE
  8
1
 62
3
 10
42.80574833283715
 20
-568.2168664894871
 30
0
 11
42.80574833283715
 21
-569.2168664894871
 31
0
  0
LINE
  8
1
 62
3
 10
44.10574833281117
 20
-569.2168664894871
 30
0
 11
42.80574833283715
 21
-569.2168664894871
 31
0
  0
LINE
  8
1
 62
3
 10
65.60574833281117
 20
-511.316866489463
 30
0
 11
65.60574833281117
 21
-497.0168664894591
 31
0
  0
LINE
  8
1
 62
3
 10
42.80574833283715
 20
-568.2168664894871
 30
0
 11
63.10574833281118
 21
-568.2168664894871
 31
0
  0
LINE
  8
1
 62
3
 10
65.60574833281117
 20
-516.816866489463
 30
0
 11
65.60574833281117
 21
-567.6168664894781
 31
0
  0
LINE
  8
1
 62
3
 10
65.60574833281117
 20
-567.6168664894781
 30
0
 11
65.60574833281117
 21
-569.2168664894871
 31
0
  0
LINE
  8
1
 62
3
 10
27.6057483328113
 20
-516.316866489463
 30
0
 11
27.6057483328113
 21
-499.0168664894591
 31
0
  0
LINE
  8
1
 62
3
 10
27.6057483328113
 20
-567.7168664894871
 30
0
 11
27.6057483328113
 21
-534.816866489464
 31
0
  0
LINE
  8
1
 62
3
 10
25.6057483328113
 20
-566.316866489464
 30
0
 11
25.6057483328113
 21
-497.0168664894591
 31
0
  0
LINE
  8
1
 62
3
 10
26.60574988595131
 20
-418.2168680425973
 30
0
 11
44.10574833281117
 21
-418.2168952224153
 31
0
  0
LINE
  8
1
 62
3
 10
26.6057483328113
 20
-570.2168664894871
 30
0
 11
39.80574833283715
 21
-570.2168664894871
 31
0
  0
LINE
  8
1
 62
3
 10
44.80574833283715
 20
-569.2168664894871
 30
0
 11
43.30574833283715
 21
-569.2168664894871
 31
0
  0
LINE
  8
1
 62
3
 10
42.50574833283413
 20
-569.2168664894871
 30
0
 11
42.50574833283413
 21
-568.2168664894871
 31
0
  0
LINE
  8
1
 62
3
 10
25.6057483328113
 20
-456.3168664894635
 30
0
 11
25.6057483328113
 21
-439.4669561164653
 31
0
  0
LINE
  8
1
 62
3
 10
27.6057483328113
 20
-531.8168664894631
 30
0
 11
27.6057483328113
 21
-516.316866489463
 31
0
  0
LINE
  8
1
 62
3
 10
25.6057483328113
 20
-569.2168664894871
 30
0
 11
25.6057483328113
 21
-566.316866489464
 31
0
  0
LINE
  8
1
 62
7
 10
31.20574833281712
 20
-419.5168664894593
 30
0
 11
31.20574833283121
 21
-419.5168664894593
 31
0
  0
LINE
  8
1
 62
3
 10
25.6057483328113
 20
-439.4669561164653
 30
0
 11
25.6057483328113
 21
-419.2168680425973
 31
0
  0
LINE
  8
1
 62
3
 10
44.80574833283715
 20
-570.2168664894871
 30
0
 11
44.10574833281117
 21
-570.2168664894871
 31
0
  0
LINE
  8
1
 62
3
 10
42.50574833283413
 20
-569.2168664894871
 30
0
 11
43.30574833283715
 21
-569.2168664894871
 31
0
  0
LINE
  8
1
 62
3
 10
42.50574833283413
 20
-568.2168664894871
 30
0
 11
28.1057483328113
 21
-568.2168664894871
 31
0
  0
LINE
  8
1
 62
3
 10
31.54574833281306
 20
-530.6669020903801
 30
0
 11
31.54574833281306
 21
-533.3169020903611
 31
0
  0
LINE
  8
1
 62
3
 10
58.04574833281306
 20
-523.8276576914091
 30
0
 11
58.04574833281306
 21
-527.3169020903611
 31
0
  0
LINE
  8
1
 62
3
 10
31.54574833281306
 20
-533.3169020903611
 30
0
 11
31.54574833281306
 21
-539.8169336215201
 31
0
  0
LINE
  8
1
 62
3
 10
59.54574833281306
 20
-539.3543744009221
 30
0
 11
58.04574833281306
 21
-539.3805569982801
 31
0
  0
LINE
  8
1
 62
3
 10
58.04574833281306
 20
-527.3169020903611
 30
0
 11
58.04574833281306
 21
-529.3169020903611
 31
0
  0
LINE
  8
1
 62
3
 10
31.54574833281306
 20
-528.3169336215201
 30
0
 11
31.54574833281306
 21
-530.6669020903801
 31
0
  0
LINE
  8
1
 62
3
 10
31.54574833281306
 20
-512.734074663941
 30
0
 11
31.54574833281306
 21
-524.1169020903481
 31
0
  0
LINE
  8
1
 62
3
 10
33.04574833281306
 20
-539.8169336215201
 30
0
 11
33.04574833281306
 21
-541.3169336215201
 31
0
  0
LINE
  8
1
 62
3
 10
33.04574833281306
 20
-541.3169336215201
 30
0
 11
31.54574833281306
 21
-541.3169336215201
 31
0
  0
LINE
  8
1
 62
3
 10
33.04574833281306
 20
-539.8169336215201
 30
0
 11
31.54574833281306
 21
-539.8169336215201
 31
0
  0
LINE
  8
1
 62
3
 10
31.54574833281306
 20
-541.3169336215201
 30
0
 11
31.54574833281306
 21
-539.8169336215201
 31
0
  0
LINE
  8
1
 62
3
 10
31.54574833281306
 20
-541.3169336215201
 30
0
 11
31.54574833281306
 21
-539.8169336215201
 31
0
  0
LINE
  8
1
 62
3
 10
31.54574833281306
 20
-524.1169020903481
 30
0
 11
31.54574833281306
 21
-528.3169336215201
 31
0
  0
LINE
  8
1
 62
3
 10
58.04574833281306
 20
-539.3805569982801
 30
0
 11
33.04574833281306
 21
-539.8169336215201
 31
0
  0
LINE
  8
1
 62
3
 10
59.54574833281306
 20
-522.239807554623
 30
0
 11
59.54574833281306
 21
-539.3543744009221
 31
0
  0
LINE
  8
1
 62
3
 10
58.04574833281306
 20
-529.3169020903611
 30
0
 11
58.04574833281306
 21
-539.3805569982801
 31
0
  0
LINE
  8
1
 62
3
 10
59.54574833281306
 20
-537.334849376364
 30
0
 11
59.84574833281619
 21
-537.334849376364
 31
0
  0
LINE
  8
1
 62
3
 10
59.54574833281306
 20
-535.1918834124381
 30
0
 11
59.84574833281619
 21
-535.1918834124381
 31
0
  0
LINE
  8
1
 62
3
 10
59.84574833281619
 20
-535.1918834124381
 30
0
 11
59.84574833281619
 21
-537.334849376364
 31
0
  0
LINE
  8
1
 62
3
 10
42.80574833283715
 20
-539.646572187821
 30
0
 11
42.80574833283715
 21
-568.2168664894871
 31
0
  0
LINE
  8
1
 62
3
 10
42.50574833283413
 20
-539.6518087072791
 30
0
 11
42.50574833283413
 21
-568.2168664894871
 31
0
  0
LINE
  8
1
 62
3
 10
59.54574833281306
 20
-522.239807554623
 30
0
 11
59.54574833281306
 21
-499.0168664894591
 31
0
  0
LINE
  8
1
 62
3
 10
58.04574833281306
 20
-499.0168664894591
 30
0
 11
58.04574833281306
 21
-523.8276576914091
 31
0
  0
LINE
  8
1
 62
3
 10
33.04574833281306
 20
-539.8169336215201
 30
0
 11
33.04574833281306
 21
-499.0168664894591
 31
0
  0
LINE
  8
1
 62
3
 10
31.54574834473107
 20
-507.031688836565
 30
0
 11
31.54574834473107
 21
-512.734074663941
 31
0
  0
LINE
  8
1
 62
3
 10
31.54574834473107
 20
-499.0168664894591
 30
0
 11
31.54574834473107
 21
-507.973237104059
 31
0
  0
LINE
  8
1
 62
3
 10
25.6057483328113
 20
-445.2818731704205
 30
0
 11
65.60574833281117
 21
-445.2818731704205
 31
0
  0
LINE
  8
1
 62
3
 10
65.60574833281117
 20
-434.5168664894593
 30
0
 11
25.6057483328113
 21
-434.5168664894593
 31
0
  0
LINE
  8
1
 62
3
 10
41.80574833281123
 20
-434.5168664894593
 30
0
 11
41.80574833281123
 21
-424.9168980206545
 31
0
  0
LINE
  8
1
 62
3
 10
41.80574833281123
 20
-424.9168980206545
 30
0
 11
44.80574833283715
 21
-424.9168980206545
 31
0
  0
LINE
  8
1
 62
3
 10
44.80574833283715
 20
-426.1714267701283
 30
0
 11
51.80574833281123
 21
-426.1714267701283
 31
0
  0
LINE
  8
1
 62
3
 10
51.80574833281123
 20
-426.1714267701283
 30
0
 11
51.80574833281123
 21
-434.5168664894593
 31
0
  0
LINE
  8
1
 62
3
 10
-66.27321117269088
 20
-565.2168664894571
 30
0
 11
-94.27321117269091
 21
-565.2168664894571
 31
0
  0
LINE
  8
1
 62
3
 10
-56.27321117269087
 20
-559.2168664894571
 30
0
 11
-56.27321117269087
 21
-565.2168664894571
 31
0
  0
LINE
  8
1
 62
3
 10
-94.27321117269091
 20
-559.2168664894571
 30
0
 11
-66.27321117269088
 21
-559.2168664894571
 31
0
  0
LINE
  8
1
 62
3
 10
-94.27321117269091
 20
-565.2168664894571
 30
0
 11
-94.27321117269091
 21
-559.2168664894571
 31
0
  0
LINE
  8
1
 62
3
 10
-66.27321117269088
 20
-565.2168664894571
 30
0
 11
-56.27321117269087
 21
-565.2168664894571
 31
0
  0
LINE
  8
1
 62
3
 10
-66.27321117269088
 20
-559.2168664894571
 30
0
 11
-56.27321117269087
 21
-559.2168664894571
 31
0
  0
LINE
  8
1
 62
3
 10
-81.56728176782391
 20
-435.9227539397563
 30
0
 11
-81.81468273438389
 21
-436.1701549063591
 31
0
  0
LINE
  8
1
 62
3
 10
-51.27321117269087
 20
-567.7012945410811
 30
0
 11
-51.27321117269087
 21
-567.6168664894781
 31
0
  0
LINE
  8
1
 62
3
 10
-198.6323177406259
 20
-515.2535393590371
 30
0
 11
-197.4098754374828
 21
-514.8086067475961
 31
0
  0
LINE
  8
1
 62
3
 10
-196.5801968807029
 20
-520.8916950837729
 30
0
 11
-195.3577545775449
 21
-520.4467624723191
 31
0
  0
LINE
  8
1
 62
3
 10
-104.7896810941269
 20
-423.0276127400582
 30
0
 11
-104.2396884753659
 21
-421.8481497628974
 31
0
  0
LINE
  8
1
 62
3
 10
-99.35183437188479
 20
-425.5633223105405
 30
0
 11
-98.8018417531238
 21
-424.3838593333771
 31
0
  0
LINE
  8
1
 62
3
 10
-72.17321117268483
 20
-571.5168664894591
 30
0
 11
-78.1732111726848
 21
-571.5168664894591
 31
0
  0
LINE
  8
1
 62
3
 10
-78.1732111726848
 20
-571.5168664894591
 30
0
 11
-78.1732111726848
 21
-570.2168664894571
 31
0
  0
LINE
  8
1
 62
3
 10
-72.17321117268483
 20
-571.5168664894591
 30
0
 11
-72.17321117268483
 21
-570.2168664894571
 31
0
  0
LINE
  8
1
 62
3
 10
-80.27321117269091
 20
-570.2168664894571
 30
0
 11
-77.9232111726848
 21
-570.2168664894571
 31
0
  0
LINE
  8
1
 62
3
 10
-90.07321117266491
 20
-570.2168664894571
 30
0
 11
-51.27321117269087
 21
-570.2168664894571
 31
0
  0
LINE
  8
1
 62
3
 10
-105.6732111726848
 20
-570.2168664894571
 30
0
 11
-102.4232111726848
 21
-570.2168664894571
 31
0
  0
LINE
  8
1
 62
3
 10
-102.4232111726848
 20
-570.2168664894571
 30
0
 11
-100.2732111726909
 21
-570.2168664894571
 31
0
  0
LINE
  8
1
 62
3
 10
-77.9232111726848
 20
-570.2168664894571
 30
0
 11
-74.67321117268483
 21
-570.2168664894571
 31
0
  0
LINE
  8
1
 62
3
 10
-74.67321117268483
 20
-570.2168664894571
 30
0
 11
-70.07321117266491
 21
-570.2168664894571
 31
0
  0
LINE
  8
1
 62
1
 10
-78.1732111726848
 20
-439.3168664894613
 30
0
 11
-74.06349728656295
 21
-439.3168664894613
 31
0
  0
LINE
  8
1
 62
3
 10
-74.65523376354798
 20
-442.5824192679135
 30
0
 11
-75.84754970104785
 21
-443.7767109855333
 31
0
  0
LINE
  8
1
 62
3
 10
-81.5673237223638
 20
-435.9227539397563
 30
0
 11
-81.8147246889238
 21
-436.1701549063591
 31
0
  0
LINE
  8
1
 62
1
 10
-78.1732111726848
 20
-435.4446718749823
 30
0
 11
-78.1732111726848
 21
-439.3168664894613
 31
0
  0
LINE
  8
1
 62
1
 10
-82.12831993134381
 20
-439.3168664894613
 30
0
 11
-78.1732111726848
 21
-439.3168664894613
 31
0
  0
LINE
  8
1
 62
3
 10
-51.27321117269087
 20
-570.2168664894571
 30
0
 11
-51.27321117269087
 21
-567.7012945410811
 31
0
  0
LINE
  8
1
 62
3
 10
-51.27321117269087
 20
-497.0168664894591
 30
0
 11
-62.98197308182187
 21
-497.0168664894591
 31
0
  0
LINE
  8
1
 62
2
 10
-200.523536241683
 20
-490.4168664894842
 30
0
 11
-201.9737401651038
 21
-490.4168664894842
 31
0
  0
LINE
  8
1
 62
2
 10
-201.2732111726911
 20
-491.1341353799792
 30
0
 11
-201.2732111726911
 21
-489.7606140756543
 31
0
  0
LINE
  8
1
 62
2
 10
-128.4235362416909
 20
-418.2168664894573
 30
0
 11
-129.8737401651269
 21
-418.2168664894573
 31
0
  0
LINE
  8
1
 62
2
 10
-129.1732111726848
 20
-418.9341353799545
 30
0
 11
-129.1732111726848
 21
-417.5606140756585
 31
0
  0
LINE
  8
1
 62
3
 10
-179.7983534140469
 20
-547.7265469239801
 30
0
 11
-180.4076583942048
 21
-548.3348438985979
 31
0
  0
LINE
  8
1
 62
3
 10
-185.9202034683518
 20
-540.2756336857401
 30
0
 11
-187.0673237223638
 21
-541.4227539397559
 31
0
  0
LINE
  8
1
 62
1
 10
-180.0313515181448
 20
-544.8168664894611
 30
0
 11
-187.5454057871648
 21
-544.8168664894611
 31
0
  0
LINE
  8
1
 62
1
 10
-183.6732111726857
 20
-548.926580375598
 30
0
 11
-183.6732111726857
 21
-540.861757730818
 31
0
  0
LINE
  8
1
 62
3
 10
-90.07321117266491
 20
-570.2168664894571
 30
0
 11
-100.2732111726909
 21
-570.2168664894571
 31
0
  0
LINE
  8
1
 62
3
 10
-68.92321117268483
 20
-570.2168664894571
 30
0
 11
-68.92321117268483
 21
-572.2168664894571
 31
0
  0
LINE
  8
1
 62
3
 10
-78.4232111726848
 20
-572.2168664894571
 30
0
 11
-81.4232111726848
 21
-572.2168664894571
 31
0
  0
LINE
  8
1
 62
3
 10
-78.4232111726848
 20
-570.2168664894571
 30
0
 11
-71.92321117268483
 21
-570.2168664894571
 31
0
  0
LINE
  8
1
 62
3
 10
-78.4232111726848
 20
-570.2168664894571
 30
0
 11
-78.4232111726848
 21
-572.2168664894571
 31
0
  0
LINE
  8
1
 62
3
 10
-71.92321117268483
 20
-572.2168664894571
 30
0
 11
-78.4232111726848
 21
-572.2168664894571
 31
0
  0
LINE
  8
1
 62
3
 10
-71.92321117268483
 20
-570.2168664894571
 30
0
 11
-71.92321117268483
 21
-572.2168664894571
 31
0
  0
LINE
  8
1
 62
3
 10
-104.1751181903639
 20
-421.1181279441373
 30
0
 11
-105.0214069971079
 21
-422.9330001468765
 31
0
  0
LINE
  8
1
 62
3
 10
-98.2841175746259
 20
-423.8651466454753
 30
0
 11
-99.1304063813688
 21
-425.6800188481565
 31
0
  0
LINE
  8
1
 62
3
 10
-197.486219703988
 20
-514.57034934504
 30
0
 11
-199.3671123462661
 21
-515.254938280676
 31
0
  0
LINE
  8
1
 62
3
 10
-197.1439814146258
 20
-521.3629403157961
 30
0
 11
-195.2630887723469
 21
-520.678351380179
 31
0
  0
LINE
  8
1
 62
3
 10
-106.9852717569248
 20
-420.0459169658415
 30
0
 11
-107.834419594084
 21
-421.8669203791353
 31
0
  0
LINE
  8
1
 62
3
 10
-198.3449917148648
 20
-511.6903834776031
 30
0
 11
-200.2299698342501
 21
-512.376459405279
 31
0
  0
LINE
  8
1
 62
3
 10
-78.4232111726848
 20
-570.2168664894571
 30
0
 11
-71.92321117268483
 21
-570.2168664894571
 31
0
  0
LINE
  8
1
 62
3
 10
-68.92321117268483
 20
-572.2168664894571
 30
0
 11
-71.92321117268483
 21
-572.2168664894571
 31
0
  0
LINE
  8
1
 62
3
 10
-81.4232111726848
 20
-570.2168664894571
 30
0
 11
-81.4232111726848
 21
-572.2168664894571
 31
0
  0
LINE
  8
1
 62
1
 10
-78.1732111726848
 20
-439.3168664894613
 30
0
 11
-78.1732111726848
 21
-442.9587261439733
 31
0
  0
LINE
  8
1
 62
2
 10
-81.5673237223638
 20
-435.9227539397563
 30
0
 11
-81.8147246889238
 21
-436.1701549063591
 31
0
  0
LINE
  8
1
 62
3
 10
-126.7335998519229
 20
-570.2168664894571
 30
0
 11
-78.4232111726848
 21
-570.2168664894571
 31
0
  0
LINE
  8
1
 62
3
 10
-179.7983534140469
 20
-547.7265469239801
 30
0
 11
-180.4076583942048
 21
-548.3348438985979
 31
0
  0
LINE
  8
1
 62
3
 10
-185.9202034683518
 20
-540.2756336857401
 30
0
 11
-187.0673237223638
 21
-541.4227539397559
 31
0
  0
LINE
  8
1
 62
3
 10
-54.92257855472092
 20
-453.5584585095023
 30
0
 11
-68.9730660873858
 21
-460.1103084467743
 31
0
  0
LINE
  8
1
 62
3
 10
-69.51199433778987
 20
-458.7065479386953
 30
0
 11
-55.08767596762794
 21
-451.9803778190423
 31
0
  0
LINE
  8
1
 62
3
 10
-70.08285123949094
 20
-457.3176760052163
 30
0
 11
-55.97132869358386
 21
-450.7373649738594
 31
0
  0
LINE
  8
1
 62
1
 10
39.0651934322906
 20
-429.1168664894334
 30
0
 11
54.5555002399775
 21
-429.1168664894334
 31
0
  0
LINE
  8
1
 62
2
 10
15.94900690841203
 20
-486.569912442015
 30
0
 11
10.3959796581901
 21
-483.3638706642757
 31
0
  0
LINE
  8
1
 62
2
 10
10.3959796581901
 20
-483.3638706642757
 30
0
 11
10.3959796581901
 21
-485.569912442015
 31
0
  0
LINE
  8
1
 62
2
 10
10.3959796581901
 20
-485.569912442015
 30
0
 11
3.3959796581901
 21
-485.569912442015
 31
0
  0
LINE
  8
1
 62
2
 10
3.3959796581901
 20
-485.569912442015
 30
0
 11
3.3959796581901
 21
-487.569912442015
 31
0
  0
LINE
  8
1
 62
2
 10
3.3959796581901
 20
-487.569912442015
 30
0
 11
10.3959796581901
 21
-487.569912442015
 31
0
  0
LINE
  8
1
 62
2
 10
10.3959796581901
 20
-487.569912442015
 30
0
 11
10.3959796581901
 21
-489.7759542197411
 31
0
  0
LINE
  8
1
 62
2
 10
10.3959796581901
 20
-489.7759542197411
 30
0
 11
15.94900690841203
 21
-486.569912442015
 31
0
  0
LINE
  8
1
 62
2
 10
-43.2306822730797
 20
-539.572140298792
 30
0
 11
-37.67765502285766
 21
-536.366098521051
 31
0
  0
LINE
  8
1
 62
2
 10
-43.2306822730797
 20
-537.366098521051
 30
0
 11
-43.2306822730797
 21
-539.572140298792
 31
0
  0
LINE
  8
1
 62
2
 10
-50.2306822730797
 20
-537.366098521051
 30
0
 11
-43.2306822730797
 21
-537.366098521051
 31
0
  0
LINE
  8
1
 62
2
 10
-50.2306822730797
 20
-535.366098521051
 30
0
 11
-50.2306822730797
 21
-537.366098521051
 31
0
  0
LINE
  8
1
 62
2
 10
-43.2306822730797
 20
-535.366098521051
 30
0
 11
-50.2306822730797
 21
-535.366098521051
 31
0
  0
LINE
  8
1
 62
2
 10
-43.2306822730797
 20
-533.160056743327
 30
0
 11
-43.2306822730797
 21
-535.366098521051
 31
0
  0
LINE
  8
1
 62
2
 10
-37.67765502285766
 20
-536.366098521051
 30
0
 11
-43.2306822730797
 21
-533.160056743327
 31
0
  0
ARC
  8
1
 62
3
 10
-78.1732111726848
 20
-439.3168664894613
 30
0
 40
4.800000000005626
 50
317.131072701845
 51
134.9999999997808
  0
ARC
  8
1
 62
3
 10
-129.1732111726848
 20
-482.4168664894842
 30
0
 40
64.20000000000731
 50
46.05064574210415
 51
46.38818177084018
  0
ARC
  8
1
 62
3
 10
-87.1731692181308
 20
-429.1168664894633
 30
0
 40
3.20000000000061
 50
321.7621275120587
 51
141.7621275120609
  0
ARC
  8
1
 62
3
 10
-87.1731692181308
 20
-429.1168664894633
 30
0
 40
4.199999999999585
 50
321.7621275120713
 51
141.7621275120413
  0
ARC
  8
1
 62
3
 10
-129.1732111711269
 20
-482.4168664867761
 30
0
 40
66.19999999689433
 50
59.58258689842175
 51
60.19085700346219
  0
ARC
  8
1
 62
3
 10
-129.1732111726848
 20
-482.4168664894842
 30
0
 40
66.200000000027
 50
60.1908570034574
 51
62.18600958712082
  0
ARC
  8
1
 62
3
 10
-129.1732111726848
 20
-482.4168664894842
 30
0
 40
66.20000000000719
 50
62.18600958712082
 51
67.81399041284992
  0
ARC
  8
1
 62
3
 10
-129.1732111726848
 20
-482.4168664894842
 30
0
 40
66.20000000002689
 50
67.81399041284992
 51
70.41741310154721
  0
ARC
  8
1
 62
3
 10
-129.0732111726649
 20
-490.4168664894842
 30
0
 40
72.20000000001082
 50
91.38990305589331
 51
182.9442752634569
  0
ARC
  8
1
 62
3
 10
-121.073211185645
 20
-490.2168664931803
 30
0
 40
82.19999998651737
 50
195.639360567101
 51
196.128544054584
  0
ARC
  8
1
 62
3
 10
-121.0732111726649
 20
-490.2168664894573
 30
0
 40
82.20000000001924
 50
196.1285440545635
 51
197.7340652946696
  0
ARC
  8
1
 62
3
 10
-183.6732111726857
 20
-544.8168664894611
 30
0
 40
4.799999999994604
 50
134.9999999997716
 51
312.8689272984059
  0
ARC
  8
1
 62
3
 10
-121.0732111726649
 20
-490.2168664894573
 30
0
 40
80.20000000002631
 50
225.7950135328782
 51
226.3416202554271
  0
ARC
  8
1
 62
3
 10
-174.1731692181317
 20
-555.016866489465
 30
0
 40
4.200000000001746
 50
140.6673078768155
 51
320.6673078768615
  0
ARC
  8
1
 62
3
 10
-174.1731692181317
 20
-555.016866489465
 30
0
 40
3.200000000000619
 50
140.6673078768251
 51
320.6673078768606
  0
ARC
  8
1
 62
3
 10
-121.0732111726649
 20
-490.2168664894573
 30
0
 40
80.20000000000265
 50
226.3416202554271
 51
234.9929954875485
  0
ARC
  8
1
 62
3
 10
-121.0732111726649
 20
-490.2168664894573
 30
0
 40
80.2000000000026
 50
234.9929954875485
 51
265.9527900173633
  0
ARC
  8
1
 62
3
 10
-129.1732111726848
 20
-482.4168664894842
 30
0
 40
64.20000000001593
 50
69.55633467989405
 51
70.81093130548071
  0
ARC
  8
1
 62
3
 10
-121.0732111726649
 20
-490.2168664894573
 30
0
 40
80.1999999999985
 50
195.3512282118661
 51
197.8562662192298
  0
ARC
  8
1
 62
3
 10
-121.0732111726649
 20
-490.2168664894573
 30
0
 40
81.49999999999191
 50
197.890476330741
 51
202.1095236692501
  0
ARC
  8
1
 62
3
 10
-121.0732111726649
 20
-490.2168664894573
 30
0
 40
80.20000000001942
 50
182.7908748384396
 51
195.3512282118661
  0
ARC
  8
1
 62
3
 10
-121.0732111726649
 20
-490.2168664894573
 30
0
 40
80.20000000003832
 50
202.1437337807713
 51
204.6487717881261
  0
ARC
  8
1
 62
3
 10
-121.0732111726649
 20
-490.2168664894573
 30
0
 40
80.20000000002052
 50
197.8562662192298
 51
202.1437337807754
  0
ARC
  8
1
 62
3
 10
-121.0732111726649
 20
-490.2168664894573
 30
0
 40
80.20000000002638
 50
204.6487717881261
 51
210.0517954812015
  0
ARC
  8
1
 62
3
 10
-129.1732111726848
 20
-482.4168664894842
 30
0
 40
64.20000000000458
 50
60.44366532010127
 51
69.55633467989405
  0
ARC
  8
1
 62
3
 10
-129.1732111726848
 20
-482.4168664894842
 30
0
 40
64.20000000004629
 50
59.18906869452492
 51
60.44366532010127
  0
ARC
  8
1
 62
3
 10
-129.1732111726848
 20
-482.4168664894842
 30
0
 40
65.50000000000175
 50
62.37484744567142
 51
67.62515255433155
  0
ARC
  8
1
 62
3
 10
-121.0732111726649
 20
-490.2168664894573
 30
0
 40
80.20000000002209
 50
210.0517954812015
 51
216.283629884492
  0
ARC
  8
1
 62
3
 10
-129.1732111726848
 20
-482.4168664894842
 30
0
 40
64.19999999999101
 50
349.4447735836875
 51
34.21799407841937
  0
ARC
  8
1
 62
3
 10
-78.1732111726848
 20
-439.3168664894613
 30
0
 40
4.800000000005626
 50
317.131072701845
 51
134.9999999997808
  0
ARC
  8
1
 62
3
 10
-129.1732111726848
 20
-482.4168664894842
 30
0
 40
64.20000000002226
 50
70.81093130548071
 51
91.47740701408802
  0
ARC
  8
1
 62
3
 10
-183.6732111726857
 20
-544.8168664894611
 30
0
 40
4.800000000025175
 50
312.8689272984059
 51
317.0362068061226
  0
ARC
  8
1
 62
3
 10
-129.1732111726848
 20
-482.4168664894842
 30
0
 40
66.20000000000719
 50
62.18600958712082
 51
67.81399041284992
  0
ARC
  8
1
 62
3
 10
-129.1732111726848
 20
-482.4168664894842
 30
0
 40
64.2000000000339
 50
62.09827244523986
 51
67.90172755480835
  0
ARC
  8
1
 62
3
 10
-129.1732111726848
 20
-482.4168664894842
 30
0
 40
66.200000000027
 50
60.1908570034574
 51
62.18600958712082
  0
ARC
  8
1
 62
3
 10
-129.1732111726848
 20
-482.4168664894842
 30
0
 40
64.20000000000731
 50
46.05064574210415
 51
62.09827244523986
  0
ARC
  8
1
 62
3
 10
-121.0732111726649
 20
-490.2168664894573
 30
0
 40
82.20000000002345
 50
197.7340652946696
 51
202.2659347053375
  0
ARC
  8
1
 62
3
 10
-129.1732111711269
 20
-482.4168664867761
 30
0
 40
66.19999999689433
 50
59.58258689842175
 51
60.19085700346219
  0
ARC
  8
1
 62
3
 10
-129.1732111777038
 20
-482.4168665034952
 30
0
 40
66.20000001489773
 50
69.80914299665925
 51
70.41741310151892
  0
ARC
  8
1
 62
3
 10
-121.0732111644427
 20
-490.2168664858612
 30
0
 40
82.20000000898941
 50
203.871455945393
 51
204.3606394327532
  0
ARC
  8
1
 62
3
 10
-121.0732111726649
 20
-490.2168664894573
 30
0
 40
82.2000000000058
 50
202.2659347053375
 51
203.8714559454202
  0
ARC
  8
1
 62
2
 10
-183.6732111726857
 20
-544.8168664894611
 30
0
 40
4.800000000025175
 50
312.8689272984059
 51
317.0362068061226
  0
ARC
  8
1
 62
3
 10
-149.9757906607666
 20
-524.1937416990529
 30
0
 40
0.2749999999634686
 50
327.1925093235287
 51
147.1925101227988
  0
ARC
  8
1
 62
3
 10
-146.9275472077099
 20
-526.022967891899
 30
0
 40
0.2749999999220305
 50
331.6925093244566
 51
151.6925101219961
  0
ARC
  8
1
 62
3
 10
-143.7451810389279
 20
-527.607392765975
 30
0
 40
0.2749999999198226
 50
336.192509321576
 51
156.1925101224479
  0
ARC
  8
1
 62
3
 10
-140.4483125001238
 20
-528.9372478150619
 30
0
 40
0.274999999928529
 50
340.6925093188829
 51
160.6925101254399
  0
ARC
  8
1
 62
3
 10
-137.0572678821427
 20
-530.004334040555
 30
0
 40
0.2749999999288773
 50
345.1925093134643
 51
165.1925101286529
  0
ARC
  8
1
 62
3
 10
-133.5929541027248
 20
-530.8020725010581
 30
0
 40
0.2749999999184417
 50
349.6925093178849
 51
169.6925101359649
  0
ARC
  8
1
 62
3
 10
-130.0767298082898
 20
-531.325544873675
 30
0
 40
0.2749999999365504
 50
354.19250932669
 51
174.1925101280771
  0
ARC
  8
1
 62
3
 10
-126.5302736908888
 20
-531.5715237771351
 30
0
 40
0.2749999999353351
 50
358.6925093199469
 51
178.6925101271474
  0
ARC
  8
1
 62
3
 10
-146.0417878123089
 20
-519.588898796398
 30
0
 40
0.274999999975436
 50
311.791728195947
 51
131.791730917475
  0
ARC
  8
1
 62
3
 10
-130.9805860619489
 20
-536.4388305994371
 30
0
 40
22.32499999848346
 50
131.7553974967245
 51
147.7728808420509
  0
ARC
  8
1
 62
3
 10
-130.980586060567
 20
-536.438830600237
 30
0
 40
22.87499999991725
 50
131.7917295572339
 51
147.7491453354677
  0
ARC
  8
1
 62
3
 10
-143.36696338723
 20
-521.1236618770781
 30
0
 40
0.2749999999457731
 50
316.291728199525
 51
136.2917309100077
  0
ARC
  8
1
 62
3
 10
-127.0301598831099
 20
-536.739962693799
 30
0
 40
22.32499999848223
 50
136.2553974966951
 51
152.2728808421306
  0
ARC
  8
1
 62
3
 10
-127.0301598816688
 20
-536.7399626944971
 30
0
 40
22.87499999993939
 50
136.2917295571914
 51
152.2491453354972
  0
ARC
  8
1
 62
3
 10
-140.5799684297048
 20
-522.4438294896991
 30
0
 40
0.2749999999710231
 50
320.7917281958057
 51
140.7917309178039
  0
ARC
  8
1
 62
3
 10
-123.0682849964468
 20
-536.7302196332739
 30
0
 40
22.87499999996685
 50
140.7917295572658
 51
156.7491453355299
  0
ARC
  8
1
 62
3
 10
-123.0682849979459
 20
-536.730219632721
 30
0
 40
22.32499999852447
 50
140.7553974967383
 51
156.7728808421252
  0
ARC
  8
1
 62
3
 10
-137.6979856904479
 20
-523.5412623620221
 30
0
 40
0.2749999999665977
 50
325.291728191591
 51
145.2917309137081
  0
ARC
  8
1
 62
3
 10
-119.1193876826248
 20
-536.409661485319
 30
0
 40
22.32499999849944
 50
145.255397496784
 51
161.2728808421102
  0
ARC
  8
1
 62
3
 10
-119.1193876811267
 20
-536.4096614857981
 30
0
 40
22.87499999996126
 50
145.2917295571498
 51
161.2491453353836
  0
ARC
  8
1
 62
3
 10
-134.7387835513468
 20
-524.4091944554391
 30
0
 40
0.2749999999327511
 50
329.7917281957494
 51
149.7917309134004
  0
ARC
  8
1
 62
3
 10
-115.2078142022469
 20
-535.7802645992351
 30
0
 40
22.324999998474
 50
149.7553974967404
 51
165.7728808421056
  0
ARC
  8
1
 62
3
 10
-115.2078142007048
 20
-535.780264599556
 30
0
 40
22.87499999991059
 50
149.7917295572624
 51
165.7491453355451
  0
ARC
  8
1
 62
3
 10
-131.7206064776659
 20
-525.0422746799129
 30
0
 40
0.2749999999250477
 50
334.2917281938687
 51
154.2917309175755
  0
ARC
  8
1
 62
3
 10
-111.3576807080068
 20
-534.845909415599
 30
0
 40
22.32499999849083
 50
154.2553974966918
 51
170.2728808420613
  0
ARC
  8
1
 62
3
 10
-111.3576807064039
 20
-534.8459094158011
 30
0
 40
22.87499999997477
 50
154.2917295572056
 51
170.2491453354606
  0
ARC
  8
1
 62
3
 10
-128.6620625347238
 20
-525.4365998854189
 30
0
 40
0.2749999999339927
 50
338.7917281992651
 51
158.7917309128906
  0
ARC
  8
1
 62
3
 10
-107.5927245532038
 20
-533.6123565447201
 30
0
 40
22.32499999848908
 50
158.7553974967297
 51
174.7728808421253
  0
ARC
  8
1
 62
3
 10
-107.5927245516029
 20
-533.612356544822
 30
0
 40
22.87499999997053
 50
158.7917295571668
 51
174.7491453354997
  0
ARC
  8
1
 62
3
 10
-125.5820086629648
 20
-525.5897389259189
 30
0
 40
0.2749999999470346
 50
343.291728196526
 51
163.2917309138436
  0
ARC
  8
1
 62
3
 10
-103.9361579445068
 20
-532.0872112503421
 30
0
 40
22.32499999847567
 50
163.2553974967511
 51
179.2728808421608
  0
ARC
  8
1
 62
3
 10
-103.9361579429059
 20
-532.0872112502991
 30
0
 40
22.87499999994619
 50
163.2917295572447
 51
179.2491453354437
  0
ARC
  8
1
 62
3
 10
-100.4105248310038
 20
-530.2798765603211
 30
0
 40
22.3249999984709
 50
167.7553974967939
 51
183.7728808421065
  0
ARC
  8
1
 62
3
 10
-97.0375619132648
 20
-528.2014952940231
 30
0
 40
22.32499999846147
 50
172.2553974966991
 51
188.272880842215
  0
ARC
  8
1
 62
3
 10
-93.8380646292018
 20
-525.864881363101
 30
0
 40
22.32499999848663
 50
176.7553974967918
 51
192.7728808420812
  0
ARC
  8
1
 62
3
 10
-90.83175894362981
 20
-523.2844407694211
 30
0
 40
22.32499999845388
 50
181.2553974968637
 51
197.272880842184
  0
ARC
  8
1
 62
3
 10
-88.03717973068291
 20
-520.4760827873399
 30
0
 40
22.32499999849209
 50
185.7553974968247
 51
201.7728808420994
  0
ARC
  8
1
 62
3
 10
-85.4715565006299
 20
-517.457121877699
 30
0
 40
22.32499999845346
 50
190.2553974968335
 51
206.2728808421606
  0
ARC
  8
1
 62
3
 10
-83.15070717372481
 20
-514.246170938421
 30
0
 40
22.32499999845659
 50
194.7553974967921
 51
210.7728808421346
  0
ARC
  8
1
 62
3
 10
-81.08894055788889
 20
-510.8630265497341
 30
0
 40
22.32499999845063
 50
199.255397496841
 51
215.2728808421923
  0
ARC
  8
1
 62
3
 10
-79.29896812988881
 20
-507.328546921883
 30
0
 40
22.32499999844266
 50
203.7553974968192
 51
219.7728808421996
  0
ARC
  8
1
 62
3
 10
-77.7918256649688
 20
-503.664523297076
 30
0
 40
22.32499999847132
 50
208.2553974968569
 51
224.2728808421385
  0
ARC
  8
1
 62
3
 10
-76.57680519764489
 20
-499.893545599335
 30
0
 40
22.32499999847133
 50
212.7553974968857
 51
228.7728808422453
  0
ARC
  8
1
 62
3
 10
-75.66139773306685
 20
-496.0388631601982
 30
0
 40
22.32499999847937
 50
217.2553974968643
 51
233.2728808422093
  0
ARC
  8
1
 62
3
 10
-75.05124706272585
 20
-492.1242413786963
 30
0
 40
22.32499999845974
 50
221.7553974968841
 51
237.7728808422442
  0
ARC
  8
1
 62
3
 10
-74.75011496834799
 20
-488.1738151998565
 30
0
 40
22.32499999849344
 50
226.2553974968228
 51
242.2728808421642
  0
ARC
  8
1
 62
3
 10
-74.75985802942495
 20
-484.2119403147383
 30
0
 40
22.32499999849564
 50
230.7553974967637
 51
246.7728808420753
  0
ARC
  8
1
 62
3
 10
-75.08041617682778
 20
-480.2630429994172
 30
0
 40
22.32499999848317
 50
235.2553974968393
 51
251.2728808422135
  0
ARC
  8
1
 62
3
 10
-75.70981306288394
 20
-476.3514695190384
 30
0
 40
22.32499999846666
 50
239.7553974967775
 51
255.7728808421432
  0
ARC
  8
1
 62
3
 10
-76.64416824656286
 20
-472.5013360247983
 30
0
 40
22.32499999846474
 50
244.2553974968304
 51
260.2728808422021
  0
ARC
  8
1
 62
3
 10
-77.87772111738391
 20
-468.7363798699975
 30
0
 40
22.32499999848044
 50
248.7553974967628
 51
264.7728808421303
  0
ARC
  8
1
 62
3
 10
-79.4028664117908
 20
-465.0798132612985
 30
0
 40
22.32499999846681
 50
253.2553974968249
 51
269.2728808422318
  0
ARC
  8
1
 62
3
 10
-81.21020110180891
 20
-461.5541801477963
 30
0
 40
22.32499999846936
 50
257.755397496786
 51
273.7728808421785
  0
ARC
  8
1
 62
3
 10
-83.2885823681099
 20
-458.1812172300422
 30
0
 40
22.3249999984695
 50
262.2553974968162
 51
278.2728808421693
  0
ARC
  8
1
 62
3
 10
-85.62519629900291
 20
-454.9817199459933
 30
0
 40
22.32499999847453
 50
266.7553974967925
 51
282.7728808420869
  0
ARC
  8
1
 62
3
 10
-88.2056368926819
 20
-451.9754142603764
 30
0
 40
22.32499999849912
 50
271.2553974967842
 51
287.2728808421862
  0
ARC
  8
1
 62
3
 10
-91.01399487474981
 20
-449.1808350474743
 30
0
 40
22.32499999844819
 50
275.7553974967971
 51
291.7728808421713
  0
ARC
  8
1
 62
3
 10
-94.0329557844058
 20
-446.6152118173783
 30
0
 40
22.32499999848434
 50
280.2553974968633
 51
296.2728808422296
  0
ARC
  8
1
 62
3
 10
-97.2439067236659
 20
-444.2943624905003
 30
0
 40
22.32499999842557
 50
284.7553974967627
 51
300.772880842098
  0
ARC
  8
1
 62
3
 10
-100.6270511123689
 20
-442.2325958746353
 30
0
 40
22.32499999845431
 50
289.2553974968377
 51
305.2728808422364
  0
ARC
  8
1
 62
3
 10
-104.1615307402067
 20
-440.4426234466373
 30
0
 40
22.3249999984811
 50
293.7553974968593
 51
309.7728808421533
  0
ARC
  8
1
 62
3
 10
-107.8255543650268
 20
-438.9354809817143
 30
0
 40
22.32499999848482
 50
298.2553974967478
 51
314.2728808421578
  0
ARC
  8
1
 62
3
 10
-111.5965320627249
 20
-437.7204605143763
 30
0
 40
22.32499999845982
 50
302.7553974967678
 51
318.7728808420837
  0
ARC
  8
1
 62
3
 10
-115.4512145018629
 20
-436.8050530498133
 30
0
 40
22.3249999984447
 50
307.2553974967943
 51
323.2728808421649
  0
ARC
  8
1
 62
3
 10
-119.3658362833628
 20
-436.1949023794595
 30
0
 40
22.32499999842985
 50
311.7553974967988
 51
327.7728808421487
  0
ARC
  8
1
 62
3
 10
-123.3162624622309
 20
-435.8937702850823
 30
0
 40
22.32499999848107
 50
316.2553974968021
 51
332.2728808421667
  0
ARC
  8
1
 62
3
 10
-127.278137347366
 20
-435.9035133462023
 30
0
 40
22.32499999844501
 50
320.7553974968099
 51
336.7728808421994
  0
ARC
  8
1
 62
3
 10
-131.227034662686
 20
-436.2240714935601
 30
0
 40
22.32499999848294
 50
325.2553974968411
 51
341.2728808421619
  0
ARC
  8
1
 62
3
 10
-135.1386081430648
 20
-436.8534683796163
 30
0
 40
22.32499999846776
 50
329.755397496773
 51
345.7728808421035
  0
ARC
  8
1
 62
3
 10
-138.988741637306
 20
-437.7878235632965
 30
0
 40
22.32499999848335
 50
334.2553974967316
 51
350.2728808420778
  0
ARC
  8
1
 62
3
 10
-142.7536977921229
 20
-439.0213764341163
 30
0
 40
22.32499999845724
 50
338.7553974967338
 51
354.7728808421281
  0
ARC
  8
1
 62
3
 10
-146.4102644008048
 20
-440.5465217284954
 30
0
 40
22.32499999846041
 50
343.2553974967477
 51
359.2728808421542
  0
ARC
  8
1
 62
3
 10
-149.9358975143229
 20
-442.3538564185153
 30
0
 40
22.32499999848554
 50
347.7553974968001
 51
3.772880842078252
  0
ARC
  8
1
 62
3
 10
-153.3088604320921
 20
-444.4322376848135
 30
0
 40
22.32499999848963
 50
352.2553974967466
 51
8.272880842100518
  0
ARC
  8
1
 62
3
 10
-156.5083577161251
 20
-446.7688516157645
 30
0
 40
22.32499999848856
 50
356.7553974967539
 51
12.7728808421461
  0
ARC
  8
1
 62
3
 10
-159.5146634017248
 20
-449.3492922094453
 30
0
 40
22.32499999848232
 50
1.255397496823438
 51
17.27288084218906
  0
ARC
  8
1
 62
3
 10
-162.3092426146438
 20
-452.1576501914973
 30
0
 40
22.32499999846343
 50
5.755397496831821
 51
21.77288084208586
  0
ARC
  8
1
 62
3
 10
-164.8748658447259
 20
-455.1766111011393
 30
0
 40
22.32499999844137
 50
10.25539749684666
 51
26.27288084217392
  0
ARC
  8
1
 62
3
 10
-167.1957151716458
 20
-458.3875620404155
 30
0
 40
22.32499999845674
 50
14.75539749678425
 51
30.77288084214161
  0
ARC
  8
1
 62
3
 10
-169.2574817875108
 20
-461.7707064291034
 30
0
 40
22.3249999984931
 50
19.25539749680833
 51
35.27288084214972
  0
ARC
  8
1
 62
3
 10
-171.04745421551
 20
-465.3051860569533
 30
0
 40
22.32499999846812
 50
23.75539749678728
 51
39.77288084215137
  0
ARC
  8
1
 62
3
 10
-172.5545966804318
 20
-468.9692096817753
 30
0
 40
22.32499999849004
 50
28.25539749686601
 51
44.27288084211453
  0
ARC
  8
1
 62
3
 10
-173.7696171477698
 20
-472.7401873795013
 30
0
 40
22.32499999847531
 50
32.75539749683061
 51
48.77288084215634
  0
ARC
  8
1
 62
3
 10
-174.6850246123037
 20
-476.5948698185973
 30
0
 40
22.32499999844492
 50
37.25539749674842
 51
53.27288084223454
  0
ARC
  8
1
 62
3
 10
-175.2951752827041
 20
-480.5094916000973
 30
0
 40
22.32499999844052
 50
41.75539749677093
 51
57.77288084211179
  0
ARC
  8
1
 62
3
 10
-175.5963073770651
 20
-484.4599177789792
 30
0
 40
22.32499999845102
 50
46.25539749677768
 51
62.27288084216412
  0
ARC
  8
1
 62
3
 10
-175.5865643159888
 20
-488.4217926641131
 30
0
 40
22.32499999847603
 50
50.7553974967725
 51
66.77288084209194
  0
ARC
  8
1
 62
3
 10
-175.2660061685858
 20
-492.3706899794363
 30
0
 40
22.32499999845167
 50
55.25539749683021
 51
71.27288084219356
  0
ARC
  8
1
 62
3
 10
-174.6366092825448
 20
-496.2822634598404
 30
0
 40
22.32499999847392
 50
59.75539749674033
 51
75.77288084210792
  0
ARC
  8
1
 62
3
 10
-173.7022540988657
 20
-500.132396954098
 30
0
 40
22.3249999984639
 50
64.25539749682754
 51
80.27288084220912
  0
ARC
  8
1
 62
3
 10
-172.4687012280448
 20
-503.8973531089
 30
0
 40
22.32499999848862
 50
68.75539749672934
 51
84.77288084213804
  0
ARC
  8
1
 62
3
 10
-170.9435559336227
 20
-507.5539197175971
 30
0
 40
22.32499999846344
 50
73.25539749686283
 51
89.27288084223318
  0
ARC
  8
1
 62
3
 10
-169.136221243603
 20
-511.079552831099
 30
0
 40
22.32499999847045
 50
77.75539749679444
 51
93.77288084218407
  0
ARC
  8
1
 62
3
 10
-167.0578399773468
 20
-514.452515748881
 30
0
 40
22.32499999848854
 50
82.25539749671459
 51
98.27288084210161
  0
ARC
  8
1
 62
3
 10
-164.7212260464259
 20
-517.652013032916
 30
0
 40
22.32499999845792
 50
86.75539749675333
 51
102.7728808420664
  0
ARC
  8
1
 62
3
 10
-162.1407854527457
 20
-520.6583187185161
 30
0
 40
22.32499999845176
 50
91.25539749675075
 51
107.2728808421871
  0
ARC
  8
1
 62
3
 10
-159.3324274706648
 20
-523.452897931435
 30
0
 40
22.32499999846237
 50
95.75539749682953
 51
111.772880842199
  0
ARC
  8
1
 62
3
 10
-156.3134665610239
 20
-526.0185211615169
 30
0
 40
22.32499999845559
 50
100.2553974968349
 51
116.2728808421422
  0
ARC
  8
1
 62
3
 10
-153.102515621704
 20
-528.339370488437
 30
0
 40
22.32499999846402
 50
104.7553974968555
 51
120.7728808422271
  0
ARC
  8
1
 62
3
 10
-149.7193712330447
 20
-530.4011371043021
 30
0
 40
22.32499999849243
 50
109.2553974968045
 51
125.2728808421447
  0
ARC
  8
1
 62
3
 10
-146.1848916052078
 20
-532.191109532303
 30
0
 40
22.32499999846498
 50
113.7553974967518
 51
129.7728808421483
  0
ARC
  8
1
 62
3
 10
-142.5208679803879
 20
-533.698251997223
 30
0
 40
22.32499999844403
 50
118.2553974968039
 51
134.2728808421614
  0
ARC
  8
1
 62
3
 10
-138.7498902826448
 20
-534.913272464561
 30
0
 40
22.32499999848439
 50
122.7553974968619
 51
138.7728808421834
  0
ARC
  8
1
 62
3
 10
-134.8952078435068
 20
-535.8286799290929
 30
0
 40
22.32499999848075
 50
127.2553974968697
 51
143.2728808422291
  0
ARC
  8
1
 62
3
 10
-100.410524829404
 20
-530.2798765601619
 30
0
 40
22.87499999996637
 50
167.7917295572026
 51
183.7491453354675
  0
ARC
  8
1
 62
3
 10
-97.03756191166391
 20
-528.201495293717
 30
0
 40
22.87499999997141
 50
172.2917295572303
 51
188.2491453354843
  0
ARC
  8
1
 62
3
 10
-93.83806462768891
 20
-525.8648813626789
 30
0
 40
22.87499999990878
 50
176.7917295571716
 51
192.7491453355921
  0
ARC
  8
1
 62
3
 10
-90.83175894210191
 20
-523.2844407688831
 30
0
 40
22.87499999996247
 50
181.2917295572506
 51
197.2491453355224
  0
ARC
  8
1
 62
3
 10
-88.03717972924281
 20
-520.4760827867001
 30
0
 40
22.87499999994183
 50
185.7917295572379
 51
201.7491453355368
  0
ARC
  8
1
 62
3
 10
-85.47155649920381
 20
-517.457121876942
 30
0
 40
22.87499999994234
 50
190.2917295572454
 51
206.2491453355601
  0
ARC
  8
1
 62
3
 10
-83.15070717238581
 20
-514.246170937534
 30
0
 40
22.87499999994052
 50
194.79172955727
 51
210.7491453355863
  0
ARC
  8
1
 62
3
 10
-81.088940556609
 20
-510.8630265488021
 30
0
 40
22.87499999994104
 50
199.2917295571868
 51
215.249145335424
  0
ARC
  8
1
 62
3
 10
-79.29896812866781
 20
-507.3285469208211
 30
0
 40
22.87499999996435
 50
203.7917295572806
 51
219.7491453355172
  0
ARC
  8
1
 62
3
 10
-77.791825663862
 20
-503.664523295941
 30
0
 40
22.8749999999359
 50
208.2917295572026
 51
224.2491453354555
  0
ARC
  8
1
 62
3
 10
-76.5768051966258
 20
-499.893545598099
 30
0
 40
22.87499999994671
 50
212.7917295572471
 51
228.7491453355412
  0
ARC
  8
1
 62
3
 10
-75.66139773216486
 20
-496.0388631589021
 30
0
 40
22.87499999993614
 50
217.2917295572113
 51
233.2491453355375
  0
ARC
  8
1
 62
3
 10
-75.05124706192481
 20
-492.1242413773163
 30
0
 40
22.87499999994518
 50
221.7917295573151
 51
237.7491453355947
  0
ARC
  8
1
 62
3
 10
-74.75011496766382
 20
-488.1738151984195
 30
0
 40
22.87499999995672
 50
226.2917295572852
 51
242.2491453355796
  0
ARC
  8
1
 62
3
 10
-74.75985802888698
 20
-484.2119403132803
 30
0
 40
22.87499999991496
 50
230.7917295572016
 51
246.7491453356036
  0
ARC
  8
1
 62
3
 10
-75.08041617636189
 20
-480.2630429978733
 30
0
 40
22.87499999993042
 50
235.2917295572675
 51
251.2491453355569
  0
ARC
  8
1
 62
3
 10
-75.7098130625638
 20
-476.3514695174813
 30
0
 40
22.87499999991634
 50
239.7917295573112
 51
255.7491453355863
  0
ARC
  8
1
 62
3
 10
-76.6441682463439
 20
-472.5013360231955
 30
0
 40
22.87499999996252
 50
244.2917295572687
 51
260.2491453355279
  0
ARC
  8
1
 62
3
 10
-77.8777211173248
 20
-468.7363798683954
 30
0
 40
22.87499999995202
 50
248.791729557272
 51
264.7491453355317
  0
ARC
  8
1
 62
3
 10
-79.40286641180489
 20
-465.0798132596983
 30
0
 40
22.87499999994385
 50
253.2917295572457
 51
269.2491453355519
  0
ARC
  8
1
 62
3
 10
-81.21020110196992
 20
-461.5541801462243
 30
0
 40
22.87499999993129
 50
257.7917295572553
 51
273.7491453355495
  0
ARC
  8
1
 62
3
 10
-83.2885823683859
 20
-458.1812172284564
 30
0
 40
22.87499999992218
 50
262.2917295573199
 51
278.2491453355912
  0
ARC
  8
1
 62
3
 10
-85.62519629942491
 20
-454.9817199444353
 30
0
 40
22.8749999999963
 50
266.7917295572941
 51
282.7491453354982
  0
ARC
  8
1
 62
3
 10
-88.2056368932069
 20
-451.9754142589233
 30
0
 40
22.87499999988724
 50
271.2917295572245
 51
287.249145335525
  0
ARC
  8
1
 62
3
 10
-91.013994875404
 20
-449.1808350460203
 30
0
 40
22.87499999991372
 50
275.7917295572406
 51
291.7491453355377
  0
ARC
  8
1
 62
3
 10
-94.03295578514681
 20
-446.6152118159813
 30
0
 40
22.87499999994218
 50
280.2917295572426
 51
296.2491453355583
  0
ARC
  8
1
 62
3
 10
-97.2439067245688
 20
-444.2943624891343
 30
0
 40
22.87499999994086
 50
284.7917295572743
 51
300.7491453355835
  0
ARC
  8
1
 62
3
 10
-100.62705111333
 20
-442.2325958733583
 30
0
 40
22.87499999994942
 50
289.2917295572545
 51
305.2491453355697
  0
ARC
  8
1
 62
3
 10
-104.1615307412819
 20
-440.4426234454433
 30
0
 40
22.87499999992804
 50
293.7917295572411
 51
309.7491453355535
  0
ARC
  8
1
 62
3
 10
-107.8255543661908
 20
-438.9354809806254
 30
0
 40
22.87499999993542
 50
298.2917295572798
 51
314.2491453355655
  0
ARC
  8
1
 62
3
 10
-111.5965320639609
 20
-437.7204605133733
 30
0
 40
22.8749999999469
 50
302.7917295572437
 51
318.7491453354862
  0
ARC
  8
1
 62
3
 10
-115.4512145032028
 20
-436.8050530489413
 30
0
 40
22.87499999994032
 50
307.2917295573453
 51
323.2491453355934
  0
ARC
  8
1
 62
3
 10
-119.3658362847888
 20
-436.1949023786583
 30
0
 40
22.87499999997798
 50
311.7917295572423
 51
327.7491453355367
  0
ARC
  8
1
 62
3
 10
-123.3162624636859
 20
-435.8937702843973
 30
0
 40
22.87499999995993
 50
316.2917295572928
 51
332.249145335488
  0
ARC
  8
1
 62
3
 10
-127.2781373488648
 20
-435.9035133456193
 30
0
 40
22.8749999999409
 50
320.7917295573451
 51
336.7491453356116
  0
ARC
  8
1
 62
3
 10
-131.2270346642289
 20
-436.2240714930953
 30
0
 40
22.87499999996594
 50
325.2917295571979
 51
341.2491453355175
  0
ARC
  8
1
 62
3
 10
-135.138608144651
 20
-436.8534683792963
 30
0
 40
22.87499999996294
 50
329.7917295572513
 51
345.7491453355472
  0
ARC
  8
1
 62
3
 10
-138.988741638906
 20
-437.7878235630773
 30
0
 40
22.87499999996141
 50
334.2917295572646
 51
350.2491453355311
  0
ARC
  8
1
 62
3
 10
-142.7536977937229
 20
-439.0213764340583
 30
0
 40
22.87499999992635
 50
338.7917295572449
 51
354.7491453355279
  0
ARC
  8
1
 62
3
 10
-146.4102644024069
 20
-440.5465217285793
 30
0
 40
22.87499999994057
 50
343.2917295573089
 51
359.2491453356508
  0
ARC
  8
1
 62
3
 10
-149.9358975159091
 20
-442.3538564187194
 30
0
 40
22.87499999995811
 50
347.7917295573157
 51
3.749145335552163
  0
ARC
  8
1
 62
3
 10
-153.3088604336628
 20
-444.4322376851203
 30
0
 40
22.8749999999426
 50
352.2917295572201
 51
8.249145335489299
  0
ARC
  8
1
 62
3
 10
-156.5083577176667
 20
-446.7688516161563
 30
0
 40
22.87499999995284
 50
356.7917295571726
 51
12.74914533549662
  0
ARC
  8
1
 62
3
 10
-159.5146634032241
 20
-449.3492922099533
 30
0
 40
22.87499999993435
 50
1.291729557214712
 51
17.24914533552682
  0
ARC
  8
1
 62
3
 10
-162.309242616084
 20
-452.1576501921383
 30
0
 40
22.87499999991289
 50
5.791729557242879
 51
21.74914533554096
  0
ARC
  8
1
 62
3
 10
-164.874865846166
 20
-455.1766111018955
 30
0
 40
22.87499999994174
 50
10.29172955724802
 51
26.24914533559559
  0
ARC
  8
1
 62
3
 10
-167.1957151729841
 20
-458.3875620412993
 30
0
 40
22.87499999995365
 50
14.79172955725602
 51
30.74914533555971
  0
ARC
  8
1
 62
3
 10
-169.2574817887477
 20
-461.7707064300323
 30
0
 40
22.87499999992678
 50
19.29172955719165
 51
35.24914533556532
  0
ARC
  8
1
 62
3
 10
-171.0474542167036
 20
-465.3051860580183
 30
0
 40
22.87499999995567
 50
23.79172955722181
 51
39.74914533551488
  0
ARC
  8
1
 62
3
 10
-172.5545966815227
 20
-468.9692096829392
 30
0
 40
22.87499999996896
 50
28.291729557283
 51
44.24914533555484
  0
ARC
  8
1
 62
3
 10
-173.7696171487879
 20
-472.7401873807403
 30
0
 40
22.87499999994535
 50
32.79172955724557
 51
48.74914533546557
  0
ARC
  8
1
 62
3
 10
-174.6850246132499
 20
-476.5948698199363
 30
0
 40
22.87499999994658
 50
37.29172955724528
 51
53.24914533553761
  0
ARC
  8
1
 62
3
 10
-175.2951752835048
 20
-480.5094916015243
 30
0
 40
22.87499999994977
 50
41.79172955726819
 51
57.749145335567
  0
ARC
  8
1
 62
3
 10
-175.5963073777639
 20
-484.4599177804203
 30
0
 40
22.87499999996971
 50
46.29172955726765
 51
62.24914533555395
  0
ARC
  8
1
 62
3
 10
-175.5865643165277
 20
-488.4217926656413
 30
0
 40
22.8749999999575
 50
50.79172955728628
 51
66.74914533565483
  0
ARC
  8
1
 62
3
 10
-175.2660061690659
 20
-492.3706899809763
 30
0
 40
22.87499999994785
 50
55.2917295572585
 51
71.24914533549547
  0
ARC
  8
1
 62
3
 10
-174.636609282865
 20
-496.2822634614435
 30
0
 40
22.87499999998608
 50
59.79172955737186
 51
75.74914533557953
  0
ARC
  8
1
 62
3
 10
-173.7022540990839
 20
-500.132396955656
 30
0
 40
22.87499999992475
 50
64.29172955722258
 51
80.24914533551097
  0
ARC
  8
1
 62
3
 10
-172.468701228103
 20
-503.897353110502
 30
0
 40
22.8749999999751
 50
68.79172955725372
 51
84.74914533550515
  0
ARC
  8
1
 62
3
 10
-170.9435559336089
 20
-507.553919719196
 30
0
 40
22.87499999994548
 50
73.29172955724741
 51
89.2491453355513
  0
ARC
  8
1
 62
3
 10
-169.136221243443
 20
-511.0795528326991
 30
0
 40
22.87499999995904
 50
77.79172955731113
 51
93.74914533555278
  0
ARC
  8
1
 62
3
 10
-167.0578399770281
 20
-514.452515750453
 30
0
 40
22.87499999994986
 50
82.29172955733102
 51
98.2491453355978
  0
ARC
  8
1
 62
3
 10
-164.7212260460039
 20
-517.652013034456
 30
0
 40
22.87499999994885
 50
86.79172955725203
 51
102.7491453354656
  0
ARC
  8
1
 62
3
 10
-162.1407854522078
 20
-520.6583187200149
 30
0
 40
22.87499999993408
 50
91.29172955721664
 51
107.2491453355136
  0
ARC
  8
1
 62
3
 10
-159.3324274700236
 20
-523.4528979329061
 30
0
 40
22.87499999994587
 50
95.7917295572375
 51
111.7491453355389
  0
ARC
  8
1
 62
3
 10
-156.3134665602667
 20
-526.018521162915
 30
0
 40
22.87499999994238
 50
100.2917295572454
 51
116.249145335591
  0
ARC
  8
1
 62
3
 10
-153.1025156208457
 20
-528.3393704898051
 30
0
 40
22.87499999998518
 50
104.7917295572826
 51
120.7491453355243
  0
ARC
  8
1
 62
3
 10
-149.7193712320847
 20
-530.4011371055831
 30
0
 40
22.87499999995695
 50
109.2917295572843
 51
125.2491453355667
  0
ARC
  8
1
 62
3
 10
-146.1848916041449
 20
-532.1911095334931
 30
0
 40
22.87499999994673
 50
113.7917295571874
 51
129.7491453354915
  0
ARC
  8
1
 62
3
 10
-142.520867979224
 20
-533.6982519983139
 30
0
 40
22.87499999993634
 50
118.2917295572784
 51
134.2491453355551
  0
ARC
  8
1
 62
3
 10
-138.7498902814229
 20
-534.9132724655801
 30
0
 40
22.87499999993865
 50
122.7917295572151
 51
138.7491453355095
  0
ARC
  8
1
 62
3
 10
-134.8952078421829
 20
-535.828679930042
 30
0
 40
22.87499999995453
 50
127.2917295572674
 51
143.2491453355751
  0
ARC
  8
1
 62
3
 10
-122.9754508317669
 20
-531.5384926697441
 30
0
 40
0.2749999999219667
 50
3.1925093251751
 51
183.1925101208567
  0
ARC
  8
1
 62
3
 10
-119.4341778959898
 20
-531.2266551991761
 30
0
 40
0.2749999999259556
 50
7.692509318850465
 51
187.6925101271349
  0
ARC
  8
1
 62
3
 10
-115.9282880087669
 20
-530.637933947263
 30
0
 40
0.2749999999234508
 50
12.1925093328787
 51
192.1925101232189
  0
ARC
  8
1
 62
3
 10
-112.4793961471259
 20
-529.7759585761801
 30
0
 40
0.2749999999503545
 50
16.69250932400017
 51
196.692510127095
  0
ARC
  8
1
 62
3
 10
-109.1087658762219
 20
-528.6460434507769
 30
0
 40
0.274999999950524
 50
21.19250932894508
 51
201.192510126347
  0
ARC
  8
1
 62
3
 10
-105.8371782525459
 20
-527.255154873521
 30
0
 40
0.2749999999280565
 50
25.69250932558524
 51
205.6925101202983
  0
ARC
  8
1
 62
3
 10
-102.6848037016859
 20
-525.6118681350181
 30
0
 40
0.2749999999370222
 50
30.19250933168295
 51
210.1925101232557
  0
ARC
  8
1
 62
3
 10
-99.67107766106679
 20
-523.7263146444609
 30
0
 40
0.2749999999292811
 50
34.6925093267101
 51
214.6925101211564
  0
ARC
  8
1
 62
3
 10
-96.81458075386391
 20
-521.6101194661151
 30
0
 40
0.2749999999258707
 50
39.19250932829267
 51
219.1925101214369
  0
ARC
  8
1
 62
3
 10
-94.1329242333849
 20
-519.276329646979
 30
0
 40
0.27499999991842
 50
43.6925093273336
 51
223.6925101227919
  0
ARC
  8
1
 62
3
 10
-91.6426414038248
 20
-516.73933377734
 30
0
 40
0.274999999940413
 50
48.19250932379095
 51
228.1925101266284
  0
ARC
  8
1
 62
3
 10
-89.35908568696681
 20
-514.014773280375
 30
0
 40
0.2749999999811227
 50
52.692509325576
 51
232.6925101252574
  0
ARC
  8
1
 62
3
 10
-87.29633596310691
 20
-511.119445977556
 30
0
 40
0.2749999999613546
 50
57.19250932351248
 51
237.1925101224809
  0
ARC
  8
1
 62
3
 10
-85.46710977026191
 20
-508.071202524501
 30
0
 40
0.2749999999399199
 50
61.69250932316846
 51
241.6925101233749
  0
ARC
  8
1
 62
3
 10
-83.88268489614299
 20
-504.8888363557351
 30
0
 40
0.2749999999301721
 50
66.19250933276661
 51
246.1925101241818
  0
ARC
  8
1
 62
3
 10
-82.552829847071
 20
-501.591967816944
 30
0
 40
0.2749999999532219
 50
70.69250932379114
 51
250.6925101293343
  0
ARC
  8
1
 62
3
 10
-81.48574362154992
 20
-498.200923198964
 30
0
 40
0.2749999999438691
 50
75.1925093260929
 51
255.1925101263733
  0
ARC
  8
1
 62
3
 10
-80.68800516104599
 20
-494.7366094195163
 30
0
 40
0.2749999999103659
 50
79.69250932687187
 51
259.6925101235769
  0
ARC
  8
1
 62
3
 10
-80.16453278842892
 20
-491.2203851250822
 30
0
 40
0.2749999999376331
 50
84.1925093267545
 51
264.1925101224661
  0
ARC
  8
1
 62
3
 10
-79.91855388496691
 20
-487.6739290076373
 30
0
 40
0.2749999998896278
 50
88.6925093259844
 51
268.6925101300503
  0
ARC
  8
1
 62
3
 10
-79.95158499238789
 20
-484.1191061485583
 30
0
 40
0.2749999999647871
 50
93.19250932483168
 51
273.1925101269001
  0
ARC
  8
1
 62
3
 10
-80.26342246291091
 20
-480.5778332127813
 30
0
 40
0.2749999999710299
 50
97.69250932117916
 51
277.692510124245
  0
ARC
  8
1
 62
3
 10
-80.8521437148699
 20
-477.0719433255583
 30
0
 40
0.2749999999519434
 50
102.1925093160384
 51
282.1925101325122
  0
ARC
  8
1
 62
3
 10
-81.7141190859069
 20
-473.6230514638742
 30
0
 40
0.2749999999143539
 50
106.6925093301689
 51
286.692510124824
  0
ARC
  8
1
 62
3
 10
-82.8440342113278
 20
-470.2524211929983
 30
0
 40
0.2749999999196631
 50
111.1925093209778
 51
291.1925101259437
  0
ARC
  8
1
 62
3
 10
-84.234922788582
 20
-466.9808335692953
 30
0
 40
0.2749999999237637
 50
115.6925093227496
 51
295.6925101257701
  0
ARC
  8
1
 62
3
 10
-85.87820952708279
 20
-463.8284590184783
 30
0
 40
0.2749999999552805
 50
120.192509319611
 51
300.1925101309365
  0
ARC
  8
1
 62
3
 10
-87.76376301764381
 20
-460.8147329778433
 30
0
 40
0.2749999999507787
 50
124.6925093229326
 51
304.69251012882
  0
ARC
  8
1
 62
3
 10
-89.87995819598581
 20
-457.9582360706403
 30
0
 40
0.2749999999620609
 50
129.1925093230157
 51
309.192510128075
  0
ARC
  8
1
 62
3
 10
-92.21374801512499
 20
-455.2765795501613
 30
0
 40
0.2749999999385765
 50
133.6925093229857
 51
313.6925101292874
  0
ARC
  8
1
 62
3
 10
-94.75074388476492
 20
-452.7862967206013
 30
0
 40
0.2749999999284523
 50
138.192509321594
 51
318.1925101272441
  0
ARC
  8
1
 62
3
 10
-97.47530438172879
 20
-450.5027410037153
 30
0
 40
0.2749999999160913
 50
142.6925093231133
 51
322.6925101275756
  0
ARC
  8
1
 62
3
 10
-100.3706316845439
 20
-448.4399912798533
 30
0
 40
0.2749999999553927
 50
147.1925093269531
 51
327.1925101241351
  0
ARC
  8
1
 62
3
 10
-103.4188751376309
 20
-446.6107650869983
 30
0
 40
0.2749999999362118
 50
151.6925093258328
 51
331.6925101277402
  0
ARC
  8
1
 62
3
 10
-106.6012413063829
 20
-445.0263402128771
 30
0
 40
0.2749999999034591
 50
156.1925093303887
 51
336.1925101242936
  0
ARC
  8
1
 62
3
 10
-109.8981098451879
 20
-443.6964851638035
 30
0
 40
0.2749999999323788
 50
160.6925093260407
 51
340.6925101285277
  0
ARC
  8
1
 62
3
 10
-113.2891544631238
 20
-442.6293989382982
 30
0
 40
0.274999999961845
 50
165.1925093243328
 51
345.1925101266043
  0
ARC
  8
1
 62
3
 10
-116.7534682425868
 20
-441.8316604777803
 30
0
 40
0.2749999999573834
 50
169.6925093221531
 51
349.6925101224412
  0
ARC
  8
1
 62
3
 10
-120.269692537051
 20
-441.3081881051775
 30
0
 40
0.2749999999083472
 50
174.1925093227233
 51
354.1925101310976
  0
ARC
  8
1
 62
3
 10
-123.816148654467
 20
-441.0622092017013
 30
0
 40
0.2749999999341067
 50
178.6925093201306
 51
358.6925101273221
  0
ARC
  8
1
 62
3
 10
-127.3709715135878
 20
-441.0952403091203
 30
0
 40
0.274999999923197
 50
183.1925093257302
 51
3.192510126152801
  0
ARC
  8
1
 62
3
 10
-130.9122444493659
 20
-441.4070777796453
 30
0
 40
0.2749999999320945
 50
187.6925093281427
 51
7.692510123231922
  0
ARC
  8
1
 62
3
 10
-134.4181343365448
 20
-441.9957990315763
 30
0
 40
0.2749999999660249
 50
192.1925093305138
 51
12.1925101247584
  0
ARC
  8
1
 62
3
 10
-137.8670261982299
 20
-442.8577744026565
 30
0
 40
0.2749999999080779
 50
196.6925093272721
 51
16.69251012110522
  0
ARC
  8
1
 62
3
 10
-141.2376564691048
 20
-443.9876895280753
 30
0
 40
0.2749999999714976
 50
201.1925093234909
 51
21.19251013195338
  0
ARC
  8
1
 62
3
 10
-144.509244092824
 20
-445.3785781053163
 30
0
 40
0.2749999999153905
 50
205.692509326868
 51
25.69251012034844
  0
ARC
  8
1
 62
3
 10
-147.661618643669
 20
-447.0218648438164
 30
0
 40
0.2749999999440445
 50
210.1925093276802
 51
30.19251012320749
  0
ARC
  8
1
 62
3
 10
-150.6753446843036
 20
-448.9074183343773
 30
0
 40
0.2749999999358165
 50
214.6925093288644
 51
34.69251012145231
  0
ARC
  8
1
 62
3
 10
-153.5318415915069
 20
-451.0236135127193
 30
0
 40
0.2749999999285648
 50
219.1925093289811
 51
39.19251012309
  0
ARC
  8
1
 62
3
 10
-156.2134981119858
 20
-453.3574033318591
 30
0
 40
0.2749999999587854
 50
223.6925093231153
 51
43.69251012923622
  0
ARC
  8
1
 62
3
 10
-158.7037809415457
 20
-455.8943992014963
 30
0
 40
0.2749999999392045
 50
228.1925093237882
 51
48.19251012081536
  0
ARC
  8
1
 62
3
 10
-160.9873366584481
 20
-458.6189596984763
 30
0
 40
0.2749999999301621
 50
232.6925093292706
 51
52.69251012663563
  0
ARC
  8
1
 62
3
 10
-163.0500863823078
 20
-461.5142870013233
 30
0
 40
0.2749999999262032
 50
237.192509318742
 51
57.19251012972006
  0
ARC
  8
1
 62
3
 10
-164.8793125751651
 20
-464.5625304543653
 30
0
 40
0.2749999999108762
 50
241.6925093229897
 51
61.69251012518073
  0
ARC
  8
1
 62
3
 10
-166.4637374492696
 20
-467.7448966231165
 30
0
 40
0.2749999999235478
 50
246.1925093284426
 51
66.19251012417446
  0
ARC
  8
1
 62
3
 10
-167.7935924983427
 20
-471.0417651619345
 30
0
 40
0.2749999999530289
 50
250.6925093237269
 51
70.69251013114509
  0
ARC
  8
1
 62
3
 10
-168.8606787238647
 20
-474.4328097799173
 30
0
 40
0.274999999946243
 50
255.1925093233878
 51
75.19251012696425
  0
ARC
  8
1
 62
3
 10
-169.6584171843816
 20
-477.8971235593333
 30
0
 40
0.2749999999592976
 50
259.69250932231
 51
79.69251012706764
  0
ARC
  8
1
 62
3
 10
-170.1818895569859
 20
-481.4133478537983
 30
0
 40
0.2749999999504799
 50
264.192509327241
 51
84.19251012174549
  0
ARC
  8
1
 62
3
 10
-170.4278684604471
 20
-484.9598039712153
 30
0
 40
0.2749999999616296
 50
268.6925093263268
 51
88.6925101297948
  0
ARC
  8
1
 62
3
 10
-170.3948373530258
 20
-488.5146268303663
 30
0
 40
0.2749999998920303
 50
273.1925093259026
 51
93.19251012653426
  0
ARC
  8
1
 62
3
 10
-170.0829998825031
 20
-492.0558997661142
 30
0
 40
0.2749999999679775
 50
277.6925093181519
 51
97.6925101239603
  0
ARC
  8
1
 62
3
 10
-169.494278630587
 20
-495.5617896533363
 30
0
 40
0.2749999999599741
 50
282.1925093249036
 51
102.1925101244524
  0
ARC
  8
1
 62
3
 10
-168.632303259507
 20
-499.010681515021
 30
0
 40
0.2749999999081159
 50
286.6925093273192
 51
106.692510126475
  0
ARC
  8
1
 62
3
 10
-167.502388134085
 20
-502.381311785923
 30
0
 40
0.2749999999509611
 50
291.1925093280333
 51
111.1925101303923
  0
ARC
  8
1
 62
3
 10
-166.111499556847
 20
-505.652899409601
 30
0
 40
0.274999999967563
 50
295.6925093219669
 51
115.6925101268752
  0
ARC
  8
1
 62
3
 10
-164.4682128183451
 20
-508.805273960459
 30
0
 40
0.274999999938197
 50
300.19250932508
 51
120.192510120761
  0
ARC
  8
1
 62
3
 10
-162.5826593277857
 20
-511.819000001095
 30
0
 40
0.2749999999374415
 50
304.6925093287813
 51
124.6925101261275
  0
ARC
  8
1
 62
3
 10
-160.4664641494288
 20
-514.675496908298
 30
0
 40
0.2749999999283214
 50
309.1925093289002
 51
129.192510128016
  0
ARC
  8
1
 62
3
 10
-158.132674330289
 20
-517.357153428777
 30
0
 40
0.2749999999511291
 50
313.6925093208884
 51
133.6925101292146
  0
ARC
  8
1
 62
3
 10
-155.5956784606498
 20
-519.847436258337
 30
0
 40
0.2749999999613822
 50
318.1925093279842
 51
138.1925101269607
  0
ARC
  8
1
 62
3
 10
-152.871117963685
 20
-522.1309919752371
 30
0
 40
0.2749999999427509
 50
322.6925093302642
 51
142.6925101251139
  0
ARC
  8
1
 62
3
 10
-122.499434418725
 20
-525.500747648257
 30
0
 40
0.2749999999652835
 50
347.7917281981711
 51
167.791730917133
  0
ARC
  8
1
 62
3
 10
-119.433344897287
 20
-525.1701747133191
 30
0
 40
0.2749999999552334
 50
352.291728195936
 51
172.2917309134543
  0
ARC
  8
1
 62
3
 10
-116.4026435601658
 20
-524.6000582131401
 30
0
 40
0.274999999946927
 50
356.7917281992663
 51
176.7917309102544
  0
ARC
  8
1
 62
3
 10
-113.4260156888448
 20
-523.7939131055191
 30
0
 40
0.2749999999117671
 50
1.291728201345664
 51
181.2917309175439
  0
ARC
  8
1
 62
3
 10
-110.5218131840629
 20
-522.7567095431591
 30
0
 40
0.2749999999390392
 50
5.791728197988428
 51
185.7917309131327
  0
ARC
  8
1
 62
3
 10
-107.7079414199658
 20
-521.4948422308371
 30
0
 40
0.2749999999522482
 50
10.29172819637323
 51
190.2917309210128
  0
ARC
  8
1
 62
3
 10
-105.0017488516418
 20
-520.01609100026
 30
0
 40
0.2749999999250353
 50
14.79172820058956
 51
194.791730916306
  0
ARC
  8
1
 62
3
 10
-102.4199200562688
 20
-518.329572844434
 30
0
 40
0.2749999999673934
 50
19.29172820172713
 51
199.2917309152552
  0
ARC
  8
1
 62
3
 10
-99.9783728668219
 20
-516.445685708618
 30
0
 40
0.2749999999556061
 50
23.79172820429706
 51
203.7917309179035
  0
ARC
  8
1
 62
3
 10
-97.69216023370581
 20
-514.376044383462
 30
0
 40
0.2749999999419127
 50
28.2917281964517
 51
208.2917309180039
  0
ARC
  8
1
 62
3
 10
-95.57537741798589
 20
-512.133408895984
 30
0
 40
0.2749999999977001
 50
32.79172819838364
 51
212.7917309109014
  0
ARC
  8
1
 62
3
 10
-93.64107508962789
 20
-509.7316058396821
 30
0
 40
0.2749999999479277
 50
37.29172819896973
 51
217.2917309092647
  0
ARC
  8
1
 62
3
 10
-91.9011788657478
 20
-507.1854431290831
 30
0
 40
0.2749999999740344
 50
41.79172819562024
 51
221.7917309181412
  0
ARC
  8
1
 62
3
 10
-90.3664157850819
 20
-504.51061870402
 30
0
 40
0.2749999999739266
 50
46.29172820537783
 51
226.2917309120211
  0
ARC
  8
1
 62
3
 10
-89.04624817244979
 20
-501.7236237464961
 30
0
 40
0.27499999997166
 50
50.79172819566177
 51
230.7917309160708
  0
ARC
  8
1
 62
3
 10
-87.94881530011091
 20
-498.841641007224
 30
0
 40
0.274999999976243
 50
55.29172820005658
 51
235.2917309153714
  0
ARC
  8
1
 62
3
 10
-87.08088320670871
 20
-495.8824388681392
 30
0
 40
0.2749999999719279
 50
59.79172820004258
 51
239.7917309208317
  0
ARC
  8
1
 62
3
 10
-86.44780298218799
 20
-492.8642617944563
 30
0
 40
0.2749999999310814
 50
64.2917281984107
 51
244.2917309146558
  0
ARC
  8
1
 62
3
 10
-86.05347777668379
 20
-489.8057178515162
 30
0
 40
0.27499999997547
 50
68.79172820292328
 51
248.7917309130884
  0
ARC
  8
1
 62
3
 10
-85.90033873618401
 20
-486.7256639797422
 30
0
 40
0.2749999999682792
 50
73.29172820417945
 51
253.2917309146157
  0
ARC
  8
1
 62
3
 10
-85.989330013846
 20
-483.6430897355172
 30
0
 40
0.2749999999656823
 50
77.79172819861313
 51
257.7917309168784
  0
ARC
  8
1
 62
3
 10
-86.31990294878389
 20
-480.5770002141225
 30
0
 40
0.2749999999996876
 50
82.29172819445881
 51
262.291730919713
  0
ARC
  8
1
 62
3
 10
-86.89001944896489
 20
-477.5462988769573
 30
0
 40
0.2749999999610646
 50
86.79172819962128
 51
266.7917309201508
  0
ARC
  8
1
 62
3
 10
-87.6961645565859
 20
-474.5696710056382
 30
0
 40
0.2749999999556805
 50
91.29172819193484
 51
271.2917309183744
  0
ARC
  8
1
 62
3
 10
-88.73336811894481
 20
-471.6654685008562
 30
0
 40
0.2749999999810848
 50
95.79172819351678
 51
275.7917309136486
  0
ARC
  8
1
 62
3
 10
-89.99523543122271
 20
-468.8515967367423
 30
0
 40
0.2749999999813126
 50
100.2917281948704
 51
280.2917309147924
  0
ARC
  8
1
 62
3
 10
-91.47398666182991
 20
-466.1454041684333
 30
0
 40
0.2749999999597748
 50
104.7917281920025
 51
284.7917309163543
  0
ARC
  8
1
 62
3
 10
-93.16050481766791
 20
-463.5635753730173
 30
0
 40
0.274999999954552
 50
109.2917281933845
 51
289.2917309148878
  0
ARC
  8
1
 62
3
 10
-95.04439195348499
 20
-461.1220281835983
 30
0
 40
0.2749999999375566
 50
113.7917281959435
 51
293.791730914704
  0
ARC
  8
1
 62
3
 10
-97.11403327862689
 20
-458.8358155504533
 30
0
 40
0.2749999999508171
 50
118.2917281994612
 51
298.2917309149889
  0
ARC
  8
1
 62
3
 10
-99.35666876610381
 20
-456.7190327347354
 30
0
 40
0.2750000000053542
 50
122.7917282013291
 51
302.7917309157225
  0
ARC
  8
1
 62
3
 10
-101.7584718224057
 20
-454.7847304063773
 30
0
 40
0.2749999999605249
 50
127.2917282017123
 51
307.2917309141657
  0
ARC
  8
1
 62
3
 10
-104.3046345330039
 20
-453.0448341824833
 30
0
 40
0.2749999999869254
 50
131.7917281976832
 51
311.7917309095608
  0
ARC
  8
1
 62
3
 10
-106.9794589581108
 20
-451.5100711018173
 30
0
 40
0.2749999999248237
 50
136.29172819532
 51
316.2917309165898
  0
ARC
  8
1
 62
3
 10
-109.7664539156069
 20
-450.1899034891543
 30
0
 40
0.2749999999430677
 50
140.7917282028842
 51
320.7917309179764
  0
ARC
  8
1
 62
3
 10
-112.6484366548649
 20
-449.0924706168573
 30
0
 40
0.2749999999580529
 50
145.2917281941612
 51
325.2917309102278
  0
ARC
  8
1
 62
3
 10
-115.6076387939649
 20
-448.2245385234553
 30
0
 40
0.2749999999407774
 50
149.7917281933244
 51
329.7917309154365
  0
ARC
  8
1
 62
3
 10
-118.6258158676467
 20
-447.5914582989373
 30
0
 40
0.2749999999630601
 50
154.291728198168
 51
334.2917309174323
  0
ARC
  8
1
 62
3
 10
-121.684359810602
 20
-447.1971330934163
 30
0
 40
0.2749999999612942
 50
158.7917282017772
 51
338.791730910637
  0
ARC
  8
1
 62
3
 10
-124.764413682391
 20
-447.0439940529183
 30
0
 40
0.2749999999469366
 50
163.2917281965322
 51
343.2917309135553
  0
ARC
  8
1
 62
3
 10
-127.8469879266299
 20
-447.1329853305803
 30
0
 40
0.2749999999240016
 50
167.7917281965646
 51
347.7917309194105
  0
ARC
  8
1
 62
3
 10
-130.9130774480249
 20
-447.4635582655184
 30
0
 40
0.2749999999720509
 50
172.2917281930281
 51
352.2917309122154
  0
ARC
  8
1
 62
3
 10
-133.9437787851457
 20
-448.0336747656993
 30
0
 40
0.2749999999622222
 50
176.791728199445
 51
356.7917309106788
  0
ARC
  8
1
 62
3
 10
-136.9204066564679
 20
-448.8398198733204
 30
0
 40
0.2749999999544707
 50
181.2917281975675
 51
1.291730915262369
  0
ARC
  8
1
 62
3
 10
-139.8246091612638
 20
-449.8770234357223
 30
0
 40
0.2749999999633082
 50
185.7917281852859
 51
5.791730922463549
  0
ARC
  8
1
 62
3
 10
-142.6384809254058
 20
-451.1388907479843
 30
0
 40
0.2749999999321015
 50
190.2917281909725
 51
10.291730917864
  0
ARC
  8
1
 62
3
 10
-145.3446734936849
 20
-452.6176419785613
 30
0
 40
0.2749999999605439
 50
194.7917281926094
 51
14.79173091502497
  0
ARC
  8
1
 62
3
 10
-147.926502289087
 20
-454.3041601344023
 30
0
 40
0.2749999999671547
 50
199.2917282017822
 51
19.29173091608594
  0
ARC
  8
1
 62
3
 10
-150.3680494785478
 20
-456.1880472702175
 30
0
 40
0.2749999999559149
 50
203.7917282045017
 51
23.79173091242716
  0
ARC
  8
1
 62
3
 10
-152.6542621116648
 20
-458.2576885953735
 30
0
 40
0.2749999999816831
 50
208.2917281928928
 51
28.29173091788804
  0
ARC
  8
1
 62
3
 10
-154.771044927427
 20
-460.5003240828803
 30
0
 40
0.274999999946791
 50
212.7917281985393
 51
32.79173091523582
  0
ARC
  8
1
 62
3
 10
-156.7053472557861
 20
-462.9021271391523
 30
0
 40
0.2749999999509584
 50
217.2917281997989
 51
37.29173091152724
  0
ARC
  8
1
 62
3
 10
-158.4452434796659
 20
-465.4482898497383
 30
0
 40
0.2749999999834722
 50
221.7917281975003
 51
41.79173091346129
  0
ARC
  8
1
 62
3
 10
-159.9800065603451
 20
-468.1231142748152
 30
0
 40
0.2749999999787067
 50
226.2917282058957
 51
46.29173091000144
  0
ARC
  8
1
 62
3
 10
-161.3001741729651
 20
-470.9101092323533
 30
0
 40
0.2749999999724847
 50
230.7917281960694
 51
50.79173091357771
  0
ARC
  8
1
 62
3
 10
-162.3976070453029
 20
-473.7920919716423
 30
0
 40
0.2749999999578969
 50
235.291728193865
 51
55.29173091900039
  0
ARC
  8
1
 62
3
 10
-163.2655391387058
 20
-476.7512941107423
 30
0
 40
0.2749999999538611
 50
239.7917281944798
 51
59.79173092392522
  0
ARC
  8
1
 62
3
 10
-163.898619363226
 20
-479.7694711843953
 30
0
 40
0.2749999999634016
 50
244.2917281983206
 51
64.29173091341465
  0
ARC
  8
1
 62
3
 10
-164.2929445687448
 20
-482.8280151273812
 30
0
 40
0.2749999999306557
 50
248.7917281994526
 51
68.79173091140829
  0
ARC
  8
1
 62
3
 10
-164.4460836092291
 20
-485.9080689991813
 30
0
 40
0.274999999926502
 50
253.2917282013751
 51
73.2917309166438
  0
ARC
  8
1
 62
3
 10
-164.3570923315671
 20
-488.9906432434214
 30
0
 40
0.2749999999280614
 50
257.7917281933972
 51
77.79173092215017
  0
ARC
  8
1
 62
3
 10
-164.026519396644
 20
-492.0567327648162
 30
0
 40
0.2749999999570759
 50
262.2917281960358
 51
82.29173091858709
  0
ARC
  8
1
 62
3
 10
-163.4564028964639
 20
-495.0874341019375
 30
0
 40
0.2749999999629253
 50
266.7917281994769
 51
86.79173091668936
  0
ARC
  8
1
 62
3
 10
-162.650257788842
 20
-498.0640619733031
 30
0
 40
0.2749999999109712
 50
271.291728194911
 51
91.2917309149544
  0
ARC
  8
1
 62
3
 10
-161.6130542264697
 20
-500.968264478085
 30
0
 40
0.2749999999375297
 50
275.7917281947706
 51
95.79173091579087
  0
ARC
  8
1
 62
3
 10
-160.3511869141918
 20
-503.7821362421951
 30
0
 40
0.2749999999383639
 50
280.2917281968985
 51
100.2917309132976
  0
ARC
  8
1
 62
3
 10
-158.8724356835848
 20
-506.488328810504
 30
0
 40
0.2749999999437806
 50
284.7917282023449
 51
104.7917309171116
  0
ARC
  8
1
 62
3
 10
-157.1859175277461
 20
-509.0701576059211
 30
0
 40
0.2749999999544125
 50
289.2917281934449
 51
109.2917309177042
  0
ARC
  8
1
 62
3
 10
-155.302030391944
 20
-511.511704795338
 30
0
 40
0.2749999999448236
 50
293.7917281987318
 51
113.7917309098293
  0
ARC
  8
1
 62
3
 10
-153.2323890667869
 20
-513.797917428485
 30
0
 40
0.2749999999627531
 50
298.2917281979343
 51
118.2917309151558
  0
ARC
  8
1
 62
3
 10
-150.9897535792667
 20
-515.914700244219
 30
0
 40
0.2749999999452483
 50
302.7917281984012
 51
122.7917309155524
  0
ARC
  8
1
 62
3
 10
-148.5879505229647
 20
-517.849002572564
 30
0
 40
0.2749999999439896
 50
307.2917281927318
 51
127.2917309155286
  0
CIRCLE
  8
1
 62
3
 10
-87.1731692181308
 20
-429.1168664894633
 30
0
 40
2.25
  0
CIRCLE
  8
1
 62
2
 10
-129.1753114358829
 20
-418.2168664894573
 30
0
 40
0.1000000000200885
  0
CIRCLE
  8
1
 62
2
 10
-129.1753114358829
 20
-418.2168664894573
 30
0
 40
0.1999999999969759
  0
CIRCLE
  8
1
 62
2
 10
-129.1753114358829
 20
-418.2168664894573
 30
0
 40
0.3000000000169791
  0
CIRCLE
  8
1
 62
2
 10
-129.1753114358829
 20
-418.2168664894573
 30
0
 40
0.399999999994094
  0
CIRCLE
  8
1
 62
2
 10
-129.1753114358829
 20
-418.2168664894573
 30
0
 40
0.5
  0
CIRCLE
  8
1
 62
2
 10
-201.275311435889
 20
-490.4168664894842
 30
0
 40
0.1000000000048829
  0
CIRCLE
  8
1
 62
2
 10
-201.275311435889
 20
-490.4168664894842
 30
0
 40
0.200000000025284
  0
CIRCLE
  8
1
 62
2
 10
-201.275311435889
 20
-490.4168664894842
 30
0
 40
0.300000000002882
  0
CIRCLE
  8
1
 62
2
 10
-201.275311435889
 20
-490.4168664894842
 30
0
 40
0.4000000000218904
  0
CIRCLE
  8
1
 62
2
 10
-201.275311435889
 20
-490.4168664894842
 30
0
 40
0.5
  0
CIRCLE
  8
1
 62
3
 10
-174.1731692181317
 20
-555.016866489465
 30
0
 40
2.25
  0
CIRCLE
  8
1
 62
3
 10
-125.1731692181308
 20
-486.3168664894613
 30
0
 40
6.810716407257985
  0
CIRCLE
  8
1
 62
3
 10
-125.1731692181308
 20
-486.3168664894613
 30
0
 40
4.5
  0
CIRCLE
  8
1
 62
3
 10
-125.1731692181308
 20
-486.3168664894613
 30
0
 40
2.5
  0
CIRCLE
  8
1
 62
3
 10
-78.1732111726848
 20
-439.3168664894613
 30
0
 40
2.25
  0
CIRCLE
  8
1
 62
2
 10
-201.275311435889
 20
-490.4168664894842
 30
0
 40
0.5
  0
CIRCLE
  8
1
 62
2
 10
-201.275311435889
 20
-490.4168664894842
 30
0
 40
0.4000000000218904
  0
CIRCLE
  8
1
 62
2
 10
-201.275311435889
 20
-490.4168664894842
 30
0
 40
0.300000000002882
  0
CIRCLE
  8
1
 62
2
 10
-201.275311435889
 20
-490.4168664894842
 30
0
 40
0.200000000025284
  0
CIRCLE
  8
1
 62
2
 10
-201.275311435889
 20
-490.4168664894842
 30
0
 40
0.1000000000048829
  0
CIRCLE
  8
1
 62
2
 10
-129.1753114358829
 20
-418.2168664894573
 30
0
 40
0.5
  0
CIRCLE
  8
1
 62
2
 10
-129.1753114358829
 20
-418.2168664894573
 30
0
 40
0.399999999994094
  0
CIRCLE
  8
1
 62
2
 10
-129.1753114358829
 20
-418.2168664894573
 30
0
 40
0.3000000000169791
  0
CIRCLE
  8
1
 62
2
 10
-129.1753114358829
 20
-418.2168664894573
 30
0
 40
0.1999999999969759
  0
CIRCLE
  8
1
 62
2
 10
-129.1753114358829
 20
-418.2168664894573
 30
0
 40
0.1000000000200885
  0
CIRCLE
  8
1
 62
3
 10
-183.6732111726857
 20
-544.8168664894611
 30
0
 40
2.25
  0
CIRCLE
  8
1
 62
3
 10
-125.1732111726848
 20
-486.3168664894613
 30
0
 40
45.5
  0
CIRCLE
  8
1
 62
2
  6
CENTER
 10
-125.1732111726848
 20
-486.3168664894613
 30
0
 40
39
  0
CIRCLE
  8
1
 62
2
  6
CENTER
 10
-125.1732111726848
 20
-486.3168664894613
 30
0
 40
45
  0
CIRCLE
  8
1
 62
3
 10
-125.1732111726848
 20
-486.3168664894613
 30
0
 40
2.5
  0
CIRCLE
  8
1
 62
3
 10
-125.1732111726848
 20
-486.3168664894613
 30
0
 40
4.5
  0
CIRCLE
  8
1
 62
3
 10
-125.1732111726848
 20
-486.3168664894613
 30
0
 40
6.810716407257985
  0
CIRCLE
  8
1
 62
3
 10
-125.1732111726848
 20
-486.3168664894613
 30
0
 40
2.5
  0
CIRCLE
  8
1
 62
3
 10
-125.1732111726848
 20
-486.3168664894613
 30
0
 40
2.5
  0
CIRCLE
  8
1
 62
3
 10
-125.1732111726848
 20
-486.3168664894613
 30
0
 40
2.5
  0
CIRCLE
  8
1
 62
3
 10
-125.1732111726848
 20
-486.3168664894613
 30
0
 40
23.98787329446378
  0
POLYLINE
  8
1
 62
2
 66
1
  0
VERTEX
  8
1
 10
-55.97132869358386
 20
-450.7373649738594
 30
0
 42
-0.04710685407109311
  0
VERTEX
  8
1
 10
-55.67199721741095
 20
-450.9161311107125
 30
0
 42
-0.0530873025082331
  0
VERTEX
  8
1
 10
-55.4469032374645
 20
-451.1246989980749
 30
0
 42
-0.05242312739356153
  0
VERTEX
  8
1
 10
-55.28470944706808
 20
-451.3590438932989
 30
0
 42
-0.0446933271085963
  0
VERTEX
  8
1
 10
-55.17407853954522
 20
-451.6151410537366
 30
0
 42
-0.03321799789458917
  0
VERTEX
  8
1
 10
-55.10367320821954
 20
-451.8889657367408
 30
0
 42
-0.0213580397322047
  0
VERTEX
  8
1
 10
-55.06215614641458
 20
-452.1764931996635
 30
0
 42
-0.01050498740230292
  0
VERTEX
  8
1
 10
-55.03819004745392
 20
-452.4736986998572
 30
0
 42
-0.0006257648374897896
  0
VERTEX
  8
1
 10
-55.02043760466113
 20
-452.7765574946741
 30
0
 42
0.01322991808523395
  0
VERTEX
  8
1
 10
-54.98793181483818
 20
-453.173650426114
 30
0
 42
0.03021318454837028
  0
VERTEX
  8
1
 10
-54.92257855488895
 20
-453.5584585088024
 30
0
  0
SEQEND
  8
1
  0
ARC
  8
1
 62
2
 10
-63.7001632827268
 20
-494.6168664894783
 30
0
 40
2.40000000001343
 50
169.4447735832057
 51
170.5028995816481
  0
ARC
  8
1
 62
3
 10
-74.43216585102681
 20
-445.1897532910213
 30
0
 40
1.999999999999793
 50
135.047432947251
 51
214.2179940793122
  0
ARC
  8
1
 62
3
 10
-83.2289382513078
 20
-434.7559413439603
 30
0
 40
2.000000000001856
 50
226.0506457420737
 51
314.9999999997
  0
ARC
  8
1
 62
3
 10
-93.25006449890779
 20
-426.8114033310983
 30
0
 40
2.000000000001129
 50
237.1360732532738
 51
321.7621275120653
  0
ARC
  8
1
 62
3
 10
-83.51050987156179
 20
-434.4861069514943
 30
0
 40
1.999999999999801
 50
141.7621275120456
 51
226.3881817708374
  0
ARC
  8
1
 62
3
 10
-178.3853111085888
 20
-549.141930774
 30
0
 40
1.999999999990843
 50
45.7950135324617
 51
134.9525670521659
  0
ARC
  8
1
 62
3
 10
-177.820561333908
 20
-549.686003440296
 30
0
 40
1.999999999999145
 50
320.6673078768549
 51
46.34162025542345
  0
ARC
  8
1
 62
3
 10
-168.2294256278348
 20
-557.5454001008329
 30
0
 40
1.999999999998074
 50
54.99299548753524
 51
140.66730787691
  0
ARC
  8
1
 62
3
 10
63.10574833281118
 20
-567.7168664894871
 30
0
 40
0.5
 50
270
 51
0
  0
ARC
  8
1
 62
3
 10
28.6057483328113
 20
-534.816866489464
 30
0
 40
1.00000000000091
 50
90
 51
180
  0
ARC
  8
1
 62
3
 10
64.60574833281117
 20
-569.2168664894871
 30
0
 40
1
 50
270
 51
0
  0
ARC
  8
1
 62
3
 10
64.60574833281117
 20
-419.2168664894873
 30
0
 40
1
 50
0
 51
90
  0
ARC
  8
1
 62
3
 10
26.6057483328113
 20
-569.2168664894871
 30
0
 40
1
 50
180
 51
270
  0
ARC
  8
1
 62
3
 10
28.1057483328113
 20
-567.7168664894871
 30
0
 40
0.5
 50
180
 51
270
  0
ARC
  8
1
 62
3
 10
26.6057483328113
 20
-419.2168680425973
 30
0
 40
1.000000000001206
 50
89.99991101163226
 51
180
  0
ARC
  8
1
 62
3
 10
-63.7001632827268
 20
-494.6168664894783
 30
0
 40
2.400000000009351
 50
170.5028995816481
 51
271.0902224244381
  0
ARC
  8
1
 62
2
 10
-63.7001632827268
 20
-494.6168664894783
 30
0
 40
2.40000000001343
 50
169.4447735832057
 51
170.5028995816481
  0
ARC
  8
1
 62
3
 10
-178.3853111085888
 20
-549.141930774
 30
0
 40
1.999999999990843
 50
45.7950135324617
 51
134.9525670521659
  0
ARC
  8
1
 62
3
 10
-187.3344170307061
 20
-538.8614201233579
 30
0
 40
1.999999999993163
 50
314.9999999994352
 51
36.28362988400747
  0
ARC
  8
1
 62
3
 10
-83.2289382513078
 20
-434.7559413439603
 30
0
 40
2.000000000001856
 50
226.0506457420737
 51
314.9999999997
  0
ARC
  8
1
 62
3
 10
-178.3853111085888
 20
-549.141930774
 30
0
 40
1.999999999990843
 50
45.7950135324617
 51
134.9525670521659
  0
ARC
  8
1
 62
3
 10
-187.3344170307061
 20
-538.8614201233579
 30
0
 40
1.999999999993163
 50
314.9999999994352
 51
36.28362988400747
  0
POLYLINE
  8
1
 62
2
 66
1
 70
1
  0
VERTEX
  8
1
 10
-206.676121243648
 20
-408.502209962635
 30
0
  0
VERTEX
  8
1
 10
-178.376121243648
 20
-408.502209962635
 30
0
  0
VERTEX
  8
1
 10
-178.376121243648
 20
-400.502209962635
 30
0
  0
VERTEX
  8
1
 10
-206.676121243648
 20
-400.502209962635
 30
0
  0
SEQEND
  8
1
  0
LINE
  8
1
 62
2
 10
-9.611862412076107
 20
-406.8501747731601
 30
0
 11
-46.11860955387198
 21
-406.8501747731601
 31
0
  0
LINE
  8
1
 62
2
 10
-46.11860955387198
 20
-406.8501747731601
 30
0
 11
-63.37617770906899
 21
-454.1903027772477
 31
0
  0
SOLID
  8
1
 62
2
 10
-62.67599785003822
 20
-451.0395517973309
 30
0
 11
-61.88438154020582
 21
-451.3281309160549
 31
0
 12
-63.37617770906899
 22
-454.1903027772477
 32
0
 13
-63.37617770906899
 23
-454.1903027772477
 33
0
  0
TEXT
  8
1
 62
2
 10
-204.676121243648
 20
-406.502209962635
 30
0
 40
4
  1
E1540H
 41
0.9
  0
TEXT
  8
1
 62
2
 10
-92.66404263669
 20
-563.5366374256539
 30
0
 40
3
  1
>ABS+PBT-GF30<
 41
0.72
  0
TEXT
  8
1
 62
2
 10
2.689621599727019
 20
-496.542236024589
 30
0
 40
4
  1
ïzì×î¹
 41
0.9
  0
TEXT
  8
1
 62
2
 10
-48.66208880708
 20
-545.611120764708
 30
0
 40
4
  1
ôfÅoî¹
 41
0.9
  0
TEXT
  8
1
 62
2
 10
-30.2431026460814
 20
-534.6172332421172
 30
0
 40
3
  1
(2.88)
 50
90
 41
0.9
  0
TEXT
  8
1
 62
2
 10
-0.7000108026228471
 20
-497.6613881793043
 30
0
 40
3
  1
(5.98)
 50
90
 41
0.9
  0
TEXT
  8
1
 62
2
 10
-14.85917213122623
 20
-477.6472267123085
 30
0
 40
3
  1
(1.850ü}0.012)
 50
90
 41
0.9
  0
TEXT
  8
1
 62
2
 10
-45.91942568455932
 20
-412.5578676758549
 30
0
 40
4
  1
üiéPéPüDéWü}éPüDéQüj
 41
0.9
  0
TEXT
  8
1
 62
2
 10
-44.6567256627572
 20
-404.8011033503939
 30
0
 40
4
  1
âèü[âhÉ³ÆÀé%%d300ü}30
 41
0.63
  0
TEXT
  8
1
 62
2
 10
-171.7951045595434
 20
-589.2939500170519
 30
0
 40
3
  1
(2.303ü}0.012)
 41
0.9
  0
TEXT
  8
1
 62
2
 10
-94.89329112326969
 20
-589.6017955168442
 30
0
 40
3
  1
(2.91)
 41
0.9
  0
TEXT
  8
1
 62
2
 10
40.05010358578551
 20
-589.3680647243624
 30
0
 40
3
  1
(1.58)
 41
0.9
  0
TEXT
  8
1
 62
2
 10
-209.9181463430753
 20
-528.9831958102631
 30
0
 40
3
  1
(2.303ü}0.012)
 50
90
 41
0.9
  0
TEXT
  8
1
 62
2
 10
-114.6183640855683
 20
-410.0661347177938
 30
0
 40
3
  1
(1.850ü}0.012)
 41
0.9
  0
TEXT
  8
1
 62
2
 10
-244.6930779656675
 20
-572.827475902227
 30
0
 40
3
  1
(2-0.18dia. HOLES)
 41
0.9
  0
TEXT
  8
1
 62
2
 10
-221.4794160779886
 20
-434.9408471571487
 30
0
 40
3
  1
(3.58dia. Intake)
 41
0.9
  0
TEXT
  8
1
 62
2
 10
-15.2431026460814
 20
-534.6172332421172
 30
0
 40
3
  1
(3.31)
 50
90
 41
0.9
  0
TEXT
  8
1
 62
2
 10
-129.5831627823223
 20
-605.5952754454773
 30
0
 40
3
  1
(5.91)
 41
0.9
  0
DIMENSION
  8
1
  6
CONTINUOUS
 62
2
  2
*D0
  3
DMST_1
 10
25.6057483328113
 20
-585
 30
0
 11
45
 21
-581.4
 31
0
 12
0
 22
0
 32
0
 70
1
 13
65.60574833281117
 23
-569.2168664894871
 33
0
 14
25.6057483328113
 24
-569.2168664894871
 34
0
 53
0
  0
DIMENSION
  8
1
  6
CONTINUOUS
 62
2
  2
*D1
  3
DMST_2
 10
-215
 20
-486.3168664894613
 30
0
 11
-218.6
 21
-515
 31
0
 12
0
 22
0
 32
0
 70
0
 13
-187.5454057871648
 23
-544.8168664894611
 33
0
 14
-208.9932045837046
 24
-486.3168664894613
 34
0
 50
90
 53
0
  0
DIMENSION
  8
1
  6
CONTINUOUS
 62
2
  2
*D2
  3
DMST_3
 10
-51.27321117269088
 20
-600
 30
0
 11
-125
 21
-596.4
 31
0
 12
0
 22
0
 32
0
 70
0
 13
-201.2732111726911
 23
-491.1341353799792
 33
0
 14
-51.27321117269087
 24
-570.2168664894571
 34
0
 53
0
  0
DIMENSION
  8
1
  6
CONTINUOUS
 62
2
  2
*D3
  3
DMST_3
 10
-125.1731692181308
 20
-585
 30
0
 11
-90
 21
-581.4
 31
0
 12
0
 22
0
 32
0
 70
0
 13
-51.27321117269087
 23
-570.2168664894571
 33
0
 14
-125.1731692181308
 24
-582.1295011657189
 34
0
 53
0
  0
DIMENSION
  8
1
  6
CONTINUOUS
 62
2
  2
*D4
  3
DMST_2
 10
-183.6732111726857
 20
-585
 30
0
 11
-155
 21
-581.4
 31
0
 12
0
 22
0
 32
0
 70
0
 13
-125.1731692181308
 23
-582.1295011657189
 33
0
 14
-183.6732111726857
 24
-548.926580375598
 34
0
 53
0
  0
DIMENSION
  8
1
  6
CONTINUOUS
 62
2
  2
*D5
  3
DMST_3
 10
-5.13872796475707
 20
-418.2168664894573
 30
0
 11
-8.73872796475707
 21
-492.2516051503
 31
0
 12
0
 22
0
 32
0
 70
0
 13
-51.27321117269087
 23
-570.2168664894571
 33
0
 14
-128.6753114358829
 24
-418.2168664894573
 34
0
 50
90
 53
0
  0
DIMENSION
  8
1
  6
CONTINUOUS
 62
2
  2
*D6
  3
DMST_3
 10
-20
 20
-570.2168664894571
 30
0
 11
-23.6
 21
-530
 31
0
 12
0
 22
0
 32
0
 70
0
 13
-52.615136147086
 23
-486.3168664894613
 33
0
 14
-51.27321117269087
 24
-570.2168664894571
 34
0
 50
90
 53
0
  0
DIMENSION
  8
1
  6
CONTINUOUS
 62
2
  2
*D7
  3
DMST_3
 10
-34.7185137125607
 20
-497.0168664894591
 30
0
 11
-38.3185137125607
 21
-528.215517318493
 31
0
 12
0
 22
0
 32
0
 70
0
 13
-51.27321117269087
 23
-570.2168664894571
 33
0
 14
-51.27321117269087
 24
-497.0168664894591
 34
0
 50
90
 53
0
  0
DIMENSION
  8
1
  6
CONTINUOUS
 62
2
  2
*D8
  3
DMST_2
 10
-20
 20
-486.3168664894613
 30
0
 11
-24.1040036339539
 21
-463.26940182811
 31
0
 12
0
 22
0
 32
0
 70
0
 13
-74.06349728656295
 23
-439.3168664894613
 33
0
 14
-52.615136147086
 24
-486.3168664894613
 34
0
 50
90
 53
0
  0
DIMENSION
  8
1
  6
CONTINUOUS
 62
2
  2
*D9
  3
DMST_2
 10
-78.1732111726848
 20
-405
 30
0
 11
-100
 21
-401.4
 31
0
 12
0
 22
0
 32
0
 70
0
 13
-125.1731692181308
 23
-410.932563400941
 33
0
 14
-78.1732111726848
 24
-435.4446718749823
 34
0
 53
0
  0
DIMENSION
  8
1
  6
CONTINUOUS
 62
2
  2
*D10
  3
DMST_4
 10
-182.2786761350871
 20
-543.0511450989495
 30
0
 11
-223.902275197153
 21
-565.629714354934
 31
0
 12
0
 22
0
 32
0
 70
3
  1
2-%%c<>
 15
-185.0677462102844
 25
-546.5825878799725
 35
0
 40
0
 53
0
  0
DIMENSION
  8
1
  6
CONTINUOUS
 62
2
  2
*D11
  3
DMST_5
 10
-92.96943553109101
 20
-518.4597791519113
 30
0
 11
-201.359651434168
 21
-426.946616081367
 31
0
 12
0
 22
0
 32
0
 70
3
 15
-157.3769868142787
 25
-454.1739538270113
 35
0
 40
0
 53
0
  0
ENDSEC
  0
EOF
