  0
SECTION
  2
HEADER
  9
$ACADVER
  1
AC1009
  9
$INSBASE
 10
0
 20
0
  9
$EXTMIN
 10
4029.238125596567
 20
1200.68637135815
  9
$EXTMAX
 10
4338.56675694883
 20
1402.6209302385
  9
$LIMMIN
 10
4029.238125596567
 20
1200.68637135815
  9
$LIMMAX
 10
4338.56675694883
 20
1402.6209302385
  9
$VIEWCTR
 10
10
 20
10
  9
$VIEWSIZE
 40
10
  9
$SNAPMODE
 70
0
  9
$SNAPUNIT
 10
1
 20
1
  9
$SNAPBASE
 10
0
 20
0
  9
$SNAPANG
 50
0
  9
$SNAPSTYLE
 70
0
  9
$SNAPISOPAIR
 70
0
  9
$GRIDMODE
 70
0
  9
$GRIDUNIT
 10
0
 20
0
  9
$ORTHOMODE
 70
0
  9
$REGENMODE
 70
1
  9
$FILLMODE
 70
1
  9
$QTEXTMODE
 70
0
  9
$DRAGMODE
 70
2
  9
$LTSCALE
 40
1
  9
$OSMODE
 70
0
  9
$ATTMODE
 70
1
  9
$TEXTSIZE
 40
3.5
  9
$TRACEWID
 40
0.5
  9
$TEXTSTYLE
  7
STANDARD
  9
$CLAYER
  8
0
  9
$CELTYPE
  6
BYLAYER
  9
$CECOLOR
 62
256
  9
$DIMSCALE
 40
1
  9
$DIMASZ
 40
0.18
  9
$DIMEXO
 40
0.0625
  9
$DIMDLI
 40
0.38
  9
$DIMRND
 40
0
  9
$DIMDLE
 40
0
  9
$DIMEXE
 40
0.18
  9
$DIMTP
 40
0
  9
$DIMTM
 40
0
  9
$DIMTXT
 40
0.18
  9
$DIMCEN
 40
0.09
  9
$DIMTSZ
 40
0
  9
$DIMTOL
 70
0
  9
$DIMLIM
 70
0
  9
$DIMTIH
 70
1
  9
$DIMTOH
 70
1
  9
$DIMSE1
 70
0
  9
$DIMSE2
 70
0
  9
$DIMTAD
 70
0
  9
$DIMZIN
 70
0
  9
$DIMBLK
  1

  9
$DIMASO
 70
1
  9
$DIMSHO
 70
1
  9
$DIMPOST
  1

  9
$DIMAPOST
  1

  9
$DIMALT
 70
0
  9
$DIMALTD
 70
2
  9
$DIMALTF
 40
25.4
  9
$DIMLFAC
 40
1
  9
$DIMTOFL
 70
0
  9
$DIMTVP
 40
0
  9
$DIMTIX
 70
0
  9
$DIMSOXD
 70
0
  9
$DIMSAH
 70
0
  9
$DIMBLK1
  1

  9
$DIMBLK2
  1

  9
$DIMSTYLE
  2
*UNNAMED
  9
$DIMCLRD
 70
0
  9
$DIMCLRE
 70
0
  9
$DIMCLRT
 70
0
  9
$DIMTFAC
 40
1
  9
$DIMGAP
 40
0.09
  9
$LUNITS
 70
2
  9
$LUPREC
 70
4
  9
$AXISMODE
 70
0
  9
$AXISUNIT
 10
0
 20
0
  9
$SKETCHINC
 40
0.1
  9
$FILLETRAD
 40
2
  9
$AUNITS
 70
0
  9
$AUPREC
 70
0
  9
$MENU
  1
ACAD
  9
$ELEVATION
 40
0
  9
$THICKNESS
 40
0
  9
$VIEWDIR
 10
0
 20
0
 30
1
  9
$LIMCHECK
 70
0
  9
$BLIPMODE
 70
1
  9
$CHAMFERA
 40
0
  9
$CHAMFERB
 40
0
  9
$FASTZOOM
 70
1
  9
$SKPOLY
 70
0
  9
$ANGBASE
 50
0
  9
$ANGDIR
 70
0
  9
$PDMODE
 70
0
  9
$PDSIZE
 40
0
  9
$PLINEWID
 40
0
  9
$COORDS
 70
2
  0
ENDSEC
  0
SECTION
  2
TABLES
  0
TABLE
  2
DIMSTYLE
 70
5
  0
DIMSTYLE
  2
DMST_1
 70
0
  3

  4

  5

  6

  7

 40
1
 41
3.2
 42
1
 43
7
 44
1.5
 45
0
 46
0
 47
0
 48
0
140
3.2
141
0
142
0
143
25.4
144
1
145
0
146
1
147
0.09
 71
0
 72
0
 73
0
 74
0
 75
0
 76
0
 77
1
 78
9
170
0
171
2
172
0
173
0
174
0
175
0
176
2
177
2
178
2
  0
DIMSTYLE
  2
DMST_2
 70
0
  3

  4

  5

  6

  7

 40
1
 41
4.800000000000001
 42
1
 43
7
 44
1.5
 45
0
 46
0
 47
0
 48
0
140
3.2
141
0
142
0
143
25.4
144
1
145
0
146
1
147
0.09
 71
0
 72
0
 73
0
 74
0
 75
0
 76
0
 77
1
 78
1
170
0
171
2
172
0
173
0
174
0
175
0
176
2
177
2
178
2
  0
DIMSTYLE
  2
DMST_3
 70
0
  3

  4

  5

  6

  7

 40
1
 41
4.800000000000001
 42
1
 43
7
 44
1.5
 45
0
 46
0
 47
0.3
 48
0.3
140
3.2
141
0
142
0
143
25.4
144
1
145
0
146
0.6
147
0.09
 71
1
 72
0
 73
0
 74
0
 75
0
 76
0
 77
1
 78
1
170
0
171
2
172
0
173
0
174
0
175
0
176
2
177
2
178
2
  0
DIMSTYLE
  2
DMST_4
 70
0
  3

  4

  5

  6

  7

 40
1
 41
3.2
 42
1
 43
7
 44
1.5
 45
0
 46
0
 47
0.3
 48
0.3
140
3.2
141
0
142
0
143
25.4
144
1
145
0
146
0.6
147
0.09
 71
1
 72
0
 73
0
 74
0
 75
0
 76
0
 77
1
 78
9
170
0
171
2
172
0
173
0
174
0
175
0
176
2
177
2
178
2
  0
DIMSTYLE
  2
DMST_5
 70
0
  3

  4

  5

  6

  7

 40
1
 41
4.800000000000001
 42
1
 43
7
 44
1.5
 45
0
 46
0
 47
0
 48
0
140
3.2
141
0
142
0
143
25.4
144
1
145
0
146
1
147
0.09
 71
0
 72
0
 73
0
 74
0
 75
0
 76
0
 77
1
 78
1
170
0
171
2
172
1
173
0
174
0
175
0
176
2
177
2
178
2
  0
ENDTAB
  0
TABLE
  2
LTYPE
 70
9
  0
LTYPE
  2
CONTINUOUS
 70
64
  3
Solid line
 72
65
 73
0
 40
0
  0
LTYPE
  2
BORDER
 70
64
  3
__ __ . __ __ .
 72
65
 73
6
 40
14.24539749648578
 49
4.070113570424508
 49
-2.035056785212254
 49
4.070113570424508
 49
-2.035056785212254
 49
0
 49
-2.035056785212254
  0
LTYPE
  2
CENTER
 70
64
  3
____ _ ____ _
 72
65
 73
4
 40
16.28045428169803
 49
10.17528392606127
 49
-2.035056785212254
 49
2.035056785212254
 49
-2.035056785212254
  0
LTYPE
  2
DASHDOT
 70
64
  3
__ . __ . __ .
 72
65
 73
4
 40
8.140227140849015
 49
4.070113570424508
 49
-2.035056785212254
 49
0
 49
-2.035056785212254
  0
LTYPE
  2
DASHED
 70
64
  3
__ __ __ __ __
 72
65
 73
2
 40
6.105170355636762
 49
4.070113570424508
 49
-2.035056785212254
  0
LTYPE
  2
DIVIDE
 70
64
  3
__ . . __ . . 
 72
65
 73
6
 40
10.17528392606127
 49
4.070113570424508
 49
-2.035056785212254
 49
0
 49
-2.035056785212254
 49
0
 49
-2.035056785212254
  0
LTYPE
  2
DOT
 70
64
  3
..............
 72
65
 73
4
 40
4.070113570424508
 49
0
 49
-2.035056785212254
 49
0
 49
-2.035056785212254
  0
LTYPE
  2
HIDDEN
 70
64
  3
_ _ _ _ _ _ _
 72
65
 73
2
 40
3.052585177818381
 49
2.035056785212254
 49
-1.017528392606127
  0
LTYPE
  2
PHANTOM
 70
64
  3
_____ _ _ _____ _ _ 
 72
65
 73
6
 40
20.35056785212254
 49
10.17528392606127
 49
-2.035056785212254
 49
2.035056785212254
 49
-2.035056785212254
 49
2.035056785212254
 49
-2.035056785212254
  0
ENDTAB
  0
TABLE
  2
LAYER
 70
3
  0
LAYER
  2
0
 70
0
 62
7
  6
CONTINUOUS
  0
LAYER
  2
1
 70
0
 62
7
  6
CONTINUOUS
  0
ENDTAB
  0
TABLE
  2
STYLE
 70
4
  0
STYLE
  2
STANDARD
 70
0
 40
0
 41
1
 50
0
 71
0
 42
3.5
  3
txt
  4

  0
STYLE
  2
SIMPLEX
 70
0
 40
0
 41
1
 50
0
 71
0
 42
3.5
  3
simplex
  4

  0
STYLE
  2
COMPLEX
 70
0
 40
0
 41
1
 50
0
 71
0
 42
3.5
  3
complex
  4

  0
STYLE
  2
ITALIC
 70
0
 40
0
 41
1
 50
0
 71
0
 42
3.5
  3
italic
  4

  0
ENDTAB
  0
TABLE
  2
VIEW
 70
0
  0
ENDTAB
  0
ENDSEC
  0
SECTION
  2
BLOCKS
  0
BLOCK
  8
1
  2
*X0
 70
1
 10
0
 20
0
 30
0
  0
LINE
  8
1
 62
2
 10
4081.580355950239
 20
1290.027367462512
 30
0
 11
4081.580355950238
 21
1290.775353825434
 31
0
  0
LINE
  8
1
 62
2
 10
4081.680355950239
 20
1290.027367462512
 30
0
 11
4081.680355950238
 21
1291.544584594665
 31
0
  0
LINE
  8
1
 62
2
 10
4081.780355950239
 20
1290.027367462512
 30
0
 11
4081.780355950238
 21
1292.313815363896
 31
0
  0
LINE
  8
1
 62
2
 10
4081.880355950239
 20
1290.027367462512
 30
0
 11
4081.880355950238
 21
1293.083046133127
 31
0
  0
LINE
  8
1
 62
2
 10
4081.980355950238
 20
1290.027367462512
 30
0
 11
4081.980355950238
 21
1293.852276902358
 31
0
  0
LINE
  8
1
 62
2
 10
4082.080355950238
 20
1290.027367462512
 30
0
 11
4082.080355950238
 21
1294.621507671589
 31
0
  0
LINE
  8
1
 62
2
 10
4082.180355950238
 20
1290.027367462512
 30
0
 11
4082.180355950238
 21
1294.263996484206
 31
0
  0
LINE
  8
1
 62
2
 10
4082.280355950238
 20
1290.027367462512
 30
0
 11
4082.280355950238
 21
1293.494765714975
 31
0
  0
LINE
  8
1
 62
2
 10
4082.380355950238
 20
1290.027367462512
 30
0
 11
4082.380355950238
 21
1292.725534945745
 31
0
  0
LINE
  8
1
 62
2
 10
4082.480355950238
 20
1290.027367462512
 30
0
 11
4082.480355950238
 21
1291.956304176514
 31
0
  0
LINE
  8
1
 62
2
 10
4082.580355950238
 20
1290.027367462512
 30
0
 11
4082.580355950238
 21
1291.187073407284
 31
0
  0
LINE
  8
1
 62
2
 10
4082.680355950238
 20
1290.027367462512
 30
0
 11
4082.680355950238
 21
1290.417842638053
 31
0
  0
ENDBLK
  8
0
  0
BLOCK
  8
1
  2
*X1
 70
1
 10
0
 20
0
 30
0
  0
LINE
  8
1
 62
2
 10
4081.580355950238
 20
1309.07938109959
 30
0
 11
4081.580355950239
 21
1309.827367462512
 31
0
  0
LINE
  8
1
 62
2
 10
4081.680355950238
 20
1308.310150330359
 30
0
 11
4081.680355950239
 21
1309.827367462512
 31
0
  0
LINE
  8
1
 62
2
 10
4081.780355950238
 20
1307.540919561128
 30
0
 11
4081.780355950239
 21
1309.827367462512
 31
0
  0
LINE
  8
1
 62
2
 10
4081.880355950238
 20
1306.771688791897
 30
0
 11
4081.880355950239
 21
1309.827367462512
 31
0
  0
LINE
  8
1
 62
2
 10
4081.980355950238
 20
1306.002458022666
 30
0
 11
4081.980355950238
 21
1309.827367462512
 31
0
  0
LINE
  8
1
 62
2
 10
4082.080355950238
 20
1305.233227253435
 30
0
 11
4082.080355950238
 21
1309.827367462512
 31
0
  0
LINE
  8
1
 62
2
 10
4082.180355950238
 20
1305.590738440819
 30
0
 11
4082.180355950238
 21
1309.827367462512
 31
0
  0
LINE
  8
1
 62
2
 10
4082.280355950238
 20
1306.359969210049
 30
0
 11
4082.280355950238
 21
1309.827367462512
 31
0
  0
LINE
  8
1
 62
2
 10
4082.380355950238
 20
1307.12919997928
 30
0
 11
4082.380355950238
 21
1309.827367462512
 31
0
  0
LINE
  8
1
 62
2
 10
4082.480355950238
 20
1307.89843074851
 30
0
 11
4082.480355950238
 21
1309.827367462512
 31
0
  0
LINE
  8
1
 62
2
 10
4082.580355950238
 20
1308.667661517741
 30
0
 11
4082.580355950238
 21
1309.827367462512
 31
0
  0
LINE
  8
1
 62
2
 10
4082.680355950238
 20
1309.436892286971
 30
0
 11
4082.680355950238
 21
1309.827367462512
 31
0
  0
ENDBLK
  8
0
  0
BLOCK
  8
1
  2
*X2
 70
1
 10
0
 20
0
 30
0
  0
LINE
  8
1
 62
2
 10
4265.288194869338
 20
1224.827367462512
 30
0
 11
4265.28819486934
 21
1225.011982847133
 31
0
  0
LINE
  8
1
 62
2
 10
4265.388194869338
 20
1224.827367462512
 30
0
 11
4265.388194869341
 21
1225.781213616363
 31
0
  0
LINE
  8
1
 62
2
 10
4265.488194869338
 20
1224.827367462512
 30
0
 11
4265.488194869341
 21
1226.550444385593
 31
0
  0
LINE
  8
1
 62
2
 10
4265.588194869339
 20
1224.827367462512
 30
0
 11
4265.588194869341
 21
1227.319675154823
 31
0
  0
LINE
  8
1
 62
2
 10
4265.688194869339
 20
1224.827367462512
 30
0
 11
4265.688194869342
 21
1228.088905924052
 31
0
  0
LINE
  8
1
 62
2
 10
4265.788194869339
 20
1224.827367462512
 30
0
 11
4265.788194869342
 21
1228.858136693282
 31
0
  0
LINE
  8
1
 62
2
 10
4265.88819486934
 20
1224.827367462512
 30
0
 11
4265.888194869342
 21
1229.627367462512
 31
0
  0
LINE
  8
1
 62
2
 10
4265.98819486934
 20
1224.827367462512
 30
0
 11
4265.98819486934
 21
1228.858136693285
 31
0
  0
LINE
  8
1
 62
2
 10
4266.08819486934
 20
1224.827367462512
 30
0
 11
4266.08819486934
 21
1228.088905924054
 31
0
  0
LINE
  8
1
 62
2
 10
4266.188194869341
 20
1224.827367462512
 30
0
 11
4266.188194869341
 21
1227.319675154823
 31
0
  0
LINE
  8
1
 62
2
 10
4266.288194869341
 20
1224.827367462512
 30
0
 11
4266.288194869341
 21
1226.550444385592
 31
0
  0
LINE
  8
1
 62
2
 10
4266.388194869342
 20
1224.827367462512
 30
0
 11
4266.388194869342
 21
1225.781213616361
 31
0
  0
LINE
  8
1
 62
2
 10
4266.488194869342
 20
1224.827367462512
 30
0
 11
4266.488194869342
 21
1225.01198284713
 31
0
  0
ENDBLK
  8
0
  0
BLOCK
  8
1
  2
*X3
 70
1
 10
0
 20
0
 30
0
  0
LINE
  8
1
 62
2
 10
4265.28819486934
 20
1241.442752077891
 30
0
 11
4265.288194869338
 21
1241.627367462512
 31
0
  0
LINE
  8
1
 62
2
 10
4265.388194869341
 20
1240.673521308661
 30
0
 11
4265.388194869338
 21
1241.627367462512
 31
0
  0
LINE
  8
1
 62
2
 10
4265.488194869341
 20
1239.904290539431
 30
0
 11
4265.488194869338
 21
1241.627367462512
 31
0
  0
LINE
  8
1
 62
2
 10
4265.588194869341
 20
1239.135059770202
 30
0
 11
4265.588194869339
 21
1241.627367462512
 31
0
  0
LINE
  8
1
 62
2
 10
4265.688194869342
 20
1238.365829000972
 30
0
 11
4265.688194869339
 21
1241.627367462512
 31
0
  0
LINE
  8
1
 62
2
 10
4265.788194869342
 20
1237.596598231742
 30
0
 11
4265.788194869339
 21
1241.627367462512
 31
0
  0
LINE
  8
1
 62
2
 10
4265.888194869342
 20
1236.827367462512
 30
0
 11
4265.88819486934
 21
1241.627367462512
 31
0
  0
LINE
  8
1
 62
2
 10
4265.98819486934
 20
1237.596598231739
 30
0
 11
4265.98819486934
 21
1241.627367462512
 31
0
  0
LINE
  8
1
 62
2
 10
4266.08819486934
 20
1238.36582900097
 30
0
 11
4266.08819486934
 21
1241.627367462512
 31
0
  0
LINE
  8
1
 62
2
 10
4266.188194869341
 20
1239.135059770201
 30
0
 11
4266.188194869341
 21
1241.627367462512
 31
0
  0
LINE
  8
1
 62
2
 10
4266.288194869341
 20
1239.904290539432
 30
0
 11
4266.288194869341
 21
1241.627367462512
 31
0
  0
LINE
  8
1
 62
2
 10
4266.388194869342
 20
1240.673521308663
 30
0
 11
4266.388194869342
 21
1241.627367462512
 31
0
  0
LINE
  8
1
 62
2
 10
4266.488194869342
 20
1241.442752077894
 30
0
 11
4266.488194869342
 21
1241.627367462512
 31
0
  0
ENDBLK
  8
0
  0
BLOCK
  8
1
  2
*X4
 70
1
 10
0
 20
0
 30
0
  0
LINE
  8
1
 62
2
 10
4265.288194869338
 20
1295.027367462512
 30
0
 11
4265.28819486934
 21
1295.211982847133
 31
0
  0
LINE
  8
1
 62
2
 10
4265.388194869338
 20
1295.027367462512
 30
0
 11
4265.388194869341
 21
1295.981213616363
 31
0
  0
LINE
  8
1
 62
2
 10
4265.488194869338
 20
1295.027367462512
 30
0
 11
4265.488194869341
 21
1296.750444385593
 31
0
  0
LINE
  8
1
 62
2
 10
4265.588194869339
 20
1295.027367462512
 30
0
 11
4265.588194869341
 21
1297.519675154823
 31
0
  0
LINE
  8
1
 62
2
 10
4265.688194869339
 20
1295.027367462512
 30
0
 11
4265.688194869342
 21
1298.288905924052
 31
0
  0
LINE
  8
1
 62
2
 10
4265.788194869339
 20
1295.027367462512
 30
0
 11
4265.788194869342
 21
1299.058136693282
 31
0
  0
LINE
  8
1
 62
2
 10
4265.88819486934
 20
1295.027367462512
 30
0
 11
4265.888194869342
 21
1299.827367462512
 31
0
  0
LINE
  8
1
 62
2
 10
4265.98819486934
 20
1295.027367462512
 30
0
 11
4265.98819486934
 21
1299.058136693285
 31
0
  0
LINE
  8
1
 62
2
 10
4266.08819486934
 20
1295.027367462512
 30
0
 11
4266.08819486934
 21
1298.288905924054
 31
0
  0
LINE
  8
1
 62
2
 10
4266.188194869341
 20
1295.027367462512
 30
0
 11
4266.188194869341
 21
1297.519675154823
 31
0
  0
LINE
  8
1
 62
2
 10
4266.288194869341
 20
1295.027367462512
 30
0
 11
4266.288194869341
 21
1296.750444385592
 31
0
  0
LINE
  8
1
 62
2
 10
4266.388194869342
 20
1295.027367462512
 30
0
 11
4266.388194869342
 21
1295.981213616361
 31
0
  0
LINE
  8
1
 62
2
 10
4266.488194869342
 20
1295.027367462512
 30
0
 11
4266.488194869342
 21
1295.21198284713
 31
0
  0
ENDBLK
  8
0
  0
BLOCK
  8
1
  2
*X5
 70
1
 10
0
 20
0
 30
0
  0
LINE
  8
1
 62
2
 10
4265.28819486934
 20
1241.442752077891
 30
0
 11
4265.288194869338
 21
1241.627367462512
 31
0
  0
LINE
  8
1
 62
2
 10
4265.388194869341
 20
1240.673521308661
 30
0
 11
4265.388194869338
 21
1241.627367462512
 31
0
  0
LINE
  8
1
 62
2
 10
4265.488194869341
 20
1239.904290539431
 30
0
 11
4265.488194869338
 21
1241.627367462512
 31
0
  0
LINE
  8
1
 62
2
 10
4265.588194869341
 20
1239.135059770202
 30
0
 11
4265.588194869339
 21
1241.627367462512
 31
0
  0
LINE
  8
1
 62
2
 10
4265.688194869342
 20
1238.365829000972
 30
0
 11
4265.688194869339
 21
1241.627367462512
 31
0
  0
LINE
  8
1
 62
2
 10
4265.788194869342
 20
1237.596598231742
 30
0
 11
4265.788194869339
 21
1241.627367462512
 31
0
  0
LINE
  8
1
 62
2
 10
4265.888194869342
 20
1236.827367462512
 30
0
 11
4265.88819486934
 21
1241.627367462512
 31
0
  0
LINE
  8
1
 62
2
 10
4265.98819486934
 20
1237.596598231739
 30
0
 11
4265.98819486934
 21
1241.627367462512
 31
0
  0
LINE
  8
1
 62
2
 10
4266.08819486934
 20
1238.36582900097
 30
0
 11
4266.08819486934
 21
1241.627367462512
 31
0
  0
LINE
  8
1
 62
2
 10
4266.188194869341
 20
1239.135059770201
 30
0
 11
4266.188194869341
 21
1241.627367462512
 31
0
  0
LINE
  8
1
 62
2
 10
4266.288194869341
 20
1239.904290539432
 30
0
 11
4266.288194869341
 21
1241.627367462512
 31
0
  0
LINE
  8
1
 62
2
 10
4266.388194869342
 20
1240.673521308663
 30
0
 11
4266.388194869342
 21
1241.627367462512
 31
0
  0
LINE
  8
1
 62
2
 10
4266.488194869342
 20
1241.442752077894
 30
0
 11
4266.488194869342
 21
1241.627367462512
 31
0
  0
ENDBLK
  8
0
  0
BLOCK
  8
1
  2
*X6
 70
1
 10
0
 20
0
 30
0
  0
LINE
  8
1
 62
2
 10
4285.28819486934
 20
1234.242752077891
 30
0
 11
4285.288194869338
 21
1234.427367462512
 31
0
  0
LINE
  8
1
 62
2
 10
4285.388194869341
 20
1233.473521308661
 30
0
 11
4285.388194869338
 21
1234.427367462512
 31
0
  0
LINE
  8
1
 62
2
 10
4285.488194869341
 20
1232.704290539431
 30
0
 11
4285.488194869338
 21
1234.427367462512
 31
0
  0
LINE
  8
1
 62
2
 10
4285.588194869341
 20
1231.935059770201
 30
0
 11
4285.588194869339
 21
1234.427367462512
 31
0
  0
LINE
  8
1
 62
2
 10
4285.688194869342
 20
1231.165829000972
 30
0
 11
4285.688194869339
 21
1234.427367462512
 31
0
  0
LINE
  8
1
 62
2
 10
4285.788194869342
 20
1230.396598231742
 30
0
 11
4285.788194869339
 21
1234.427367462512
 31
0
  0
LINE
  8
1
 62
2
 10
4285.888194869342
 20
1229.627367462512
 30
0
 11
4285.88819486934
 21
1234.427367462512
 31
0
  0
LINE
  8
1
 62
2
 10
4285.98819486934
 20
1230.396598231739
 30
0
 11
4285.98819486934
 21
1234.427367462512
 31
0
  0
LINE
  8
1
 62
2
 10
4286.08819486934
 20
1231.16582900097
 30
0
 11
4286.08819486934
 21
1234.427367462512
 31
0
  0
LINE
  8
1
 62
2
 10
4286.188194869341
 20
1231.935059770201
 30
0
 11
4286.188194869341
 21
1234.427367462512
 31
0
  0
LINE
  8
1
 62
2
 10
4286.288194869341
 20
1232.704290539432
 30
0
 11
4286.288194869341
 21
1234.427367462512
 31
0
  0
LINE
  8
1
 62
2
 10
4286.388194869342
 20
1233.473521308663
 30
0
 11
4286.388194869342
 21
1234.427367462512
 31
0
  0
LINE
  8
1
 62
2
 10
4286.488194869342
 20
1234.242752077894
 30
0
 11
4286.488194869342
 21
1234.427367462512
 31
0
  0
ENDBLK
  8
0
  0
BLOCK
  8
1
  2
*X7
 70
1
 10
0
 20
0
 30
0
  0
LINE
  8
1
 62
2
 10
4285.288194869338
 20
1352.127367462512
 30
0
 11
4285.28819486934
 21
1352.311982847133
 31
0
  0
LINE
  8
1
 62
2
 10
4285.388194869338
 20
1352.127367462512
 30
0
 11
4285.388194869341
 21
1353.081213616363
 31
0
  0
LINE
  8
1
 62
2
 10
4285.488194869338
 20
1352.127367462512
 30
0
 11
4285.488194869341
 21
1353.850444385593
 31
0
  0
LINE
  8
1
 62
2
 10
4285.588194869339
 20
1352.127367462512
 30
0
 11
4285.588194869341
 21
1354.619675154823
 31
0
  0
LINE
  8
1
 62
2
 10
4285.688194869339
 20
1352.127367462512
 30
0
 11
4285.688194869342
 21
1355.388905924052
 31
0
  0
LINE
  8
1
 62
2
 10
4285.788194869339
 20
1352.127367462512
 30
0
 11
4285.788194869342
 21
1356.158136693282
 31
0
  0
LINE
  8
1
 62
2
 10
4285.88819486934
 20
1352.127367462512
 30
0
 11
4285.888194869342
 21
1356.927367462512
 31
0
  0
LINE
  8
1
 62
2
 10
4285.98819486934
 20
1352.127367462512
 30
0
 11
4285.98819486934
 21
1356.158136693285
 31
0
  0
LINE
  8
1
 62
2
 10
4286.08819486934
 20
1352.127367462512
 30
0
 11
4286.08819486934
 21
1355.388905924054
 31
0
  0
LINE
  8
1
 62
2
 10
4286.188194869341
 20
1352.127367462512
 30
0
 11
4286.188194869341
 21
1354.619675154823
 31
0
  0
LINE
  8
1
 62
2
 10
4286.288194869341
 20
1352.127367462512
 30
0
 11
4286.288194869341
 21
1353.850444385592
 31
0
  0
LINE
  8
1
 62
2
 10
4286.388194869342
 20
1352.127367462512
 30
0
 11
4286.388194869342
 21
1353.081213616361
 31
0
  0
LINE
  8
1
 62
2
 10
4286.488194869342
 20
1352.127367462512
 30
0
 11
4286.488194869342
 21
1352.31198284713
 31
0
  0
ENDBLK
  8
0
  0
BLOCK
  8
1
  2
*X8
 70
1
 10
0
 20
0
 30
0
  0
LINE
  8
1
 62
2
 10
4239.128151576319
 20
1343.424901601012
 30
0
 11
4239.128151576322
 21
1343.459112918707
 31
0
  0
LINE
  8
1
 62
2
 10
4239.228151576319
 20
1343.550278345653
 30
0
 11
4239.228151576323
 21
1343.688268466451
 31
0
  0
LINE
  8
1
 62
2
 10
4239.328151576319
 20
1343.675655090294
 30
0
 11
4239.328151576323
 21
1343.917424014194
 31
0
  0
LINE
  8
1
 62
2
 10
4239.42815157632
 20
1343.801031834935
 30
0
 11
4239.428151576323
 21
1344.146579561937
 31
0
  0
LINE
  8
1
 62
2
 10
4239.52815157632
 20
1343.926408579577
 30
0
 11
4239.528151576324
 21
1344.37573510968
 31
0
  0
LINE
  8
1
 62
2
 10
4239.62815157632
 20
1344.051785324218
 30
0
 11
4239.628151576324
 21
1344.604890657423
 31
0
  0
LINE
  8
1
 62
2
 10
4239.728151576321
 20
1344.177162068859
 30
0
 11
4239.728151576324
 21
1344.834046205167
 31
0
  0
LINE
  8
1
 62
2
 10
4239.828151576321
 20
1344.3025388135
 30
0
 11
4239.828151576325
 21
1345.06320175291
 31
0
  0
LINE
  8
1
 62
2
 10
4239.928151576321
 20
1344.427915558142
 30
0
 11
4239.928151576325
 21
1345.292357300653
 31
0
  0
LINE
  8
1
 62
2
 10
4240.028151576322
 20
1344.553292302783
 30
0
 11
4240.028151576325
 21
1345.521512848396
 31
0
  0
LINE
  8
1
 62
2
 10
4240.128151576322
 20
1344.678669047424
 30
0
 11
4240.128151576326
 21
1345.750668396139
 31
0
  0
LINE
  8
1
 62
2
 10
4240.228151576323
 20
1344.804045792065
 30
0
 11
4240.228151576326
 21
1345.979823943882
 31
0
  0
LINE
  8
1
 62
2
 10
4240.328151576323
 20
1344.929422536707
 30
0
 11
4240.328151576327
 21
1346.208979491626
 31
0
  0
LINE
  8
1
 62
2
 10
4240.428151576323
 20
1345.054799281348
 30
0
 11
4240.428151576327
 21
1346.438135039369
 31
0
  0
LINE
  8
1
 62
2
 10
4240.528151576324
 20
1345.180176025989
 30
0
 11
4240.528151576327
 21
1346.667290587112
 31
0
  0
LINE
  8
1
 62
2
 10
4240.628151576324
 20
1345.30555277063
 30
0
 11
4240.628151576328
 21
1346.896446134855
 31
0
  0
LINE
  8
1
 62
2
 10
4240.728151576324
 20
1345.430929515272
 30
0
 11
4240.728151576324
 21
1346.836180048179
 31
0
  0
LINE
  8
1
 62
2
 10
4240.828151576325
 20
1345.556306259913
 30
0
 11
4240.828151576325
 21
1346.775913961502
 31
0
  0
LINE
  8
1
 62
2
 10
4240.928151576325
 20
1345.681683004554
 30
0
 11
4240.928151576325
 21
1346.715647874825
 31
0
  0
LINE
  8
1
 62
2
 10
4241.028151576325
 20
1345.807059749195
 30
0
 11
4241.028151576325
 21
1346.655381788149
 31
0
  0
LINE
  8
1
 62
2
 10
4241.128151576326
 20
1345.932436493837
 30
0
 11
4241.128151576326
 21
1346.595115701472
 31
0
  0
LINE
  8
1
 62
2
 10
4241.228151576326
 20
1346.057813238478
 30
0
 11
4241.228151576326
 21
1346.534849614796
 31
0
  0
LINE
  8
1
 62
2
 10
4241.328151576327
 20
1346.183189983119
 30
0
 11
4241.328151576327
 21
1346.474583528119
 31
0
  0
LINE
  8
1
 62
2
 10
4241.428151576327
 20
1346.30856672776
 30
0
 11
4241.428151576327
 21
1346.414317441442
 31
0
  0
ENDBLK
  8
0
  0
BLOCK
  8
1
  2
*D0
 70
1
 10
0
 20
0
 30
0
  0
LINE
  8
1
 62
2
 10
4093.90060161635
 20
1229.627367462512
 30
0
 11
4093.90060161635
 21
1305.027367462512
 31
0
  0
LINE
  8
1
 62
2
 10
4070.838125596567
 20
1305.027367462512
 30
0
 11
4095.40060161635
 21
1305.027367462512
 31
0
  0
LINE
  8
1
 62
2
 10
4070.838125596567
 20
1229.627367462512
 30
0
 11
4095.40060161635
 21
1229.627367462512
 31
0
  0
SOLID
  8
1
 62
2
 10
4093.90060161635
 20
1305.027367462512
 30
0
 11
4094.31660161635
 21
1301.827367462512
 31
0
 12
4093.48460161635
 22
1301.827367462512
 32
0
 13
4093.48460161635
 23
1301.827367462512
 33
0
  0
SOLID
  8
1
 62
2
 10
4093.90060161635
 20
1229.627367462512
 30
0
 11
4093.48460161635
 21
1232.827367462512
 31
0
 12
4094.31660161635
 22
1232.827367462512
 32
0
 13
4094.31660161635
 23
1232.827367462512
 33
0
  0
TEXT
  8
1
 62
2
 10
4091.90060161635
 20
1263.88244957252
 30
0
 40
3.2
  1
75.4
 50
90
 41
0.9
  0
ENDBLK
  8
0
  0
BLOCK
  8
1
  2
*D1
 70
1
 10
0
 20
0
 30
0
  0
LINE
  8
1
 62
2
 10
4038.838125596567
 20
1212.48866724535
 30
0
 11
4029.238125596567
 21
1212.48866724535
 31
0
  0
LINE
  8
1
 62
2
 10
4038.838125596567
 20
1212.48866724535
 30
0
 11
4041.838125596567
 21
1212.48866724535
 31
0
  0
LINE
  8
1
 62
2
 10
4051.438125596567
 20
1212.48866724535
 30
0
 11
4041.838125596567
 21
1212.48866724535
 31
0
  0
LINE
  8
1
 62
2
 10
4041.838125596567
 20
1234.227367462512
 30
0
 11
4041.838125596567
 21
1211.48866724535
 31
0
  0
LINE
  8
1
 62
2
 10
4038.838125596567
 20
1229.127367462512
 30
0
 11
4038.838125596567
 21
1211.48866724535
 31
0
  0
SOLID
  8
1
 62
2
 10
4038.838125596567
 20
1212.48866724535
 30
0
 11
4034.038125596567
 21
1211.86466724535
 31
0
 12
4034.038125596567
 22
1213.11266724535
 32
0
 13
4034.038125596567
 23
1213.11266724535
 33
0
  0
SOLID
  8
1
 62
2
 10
4041.838125596567
 20
1212.48866724535
 30
0
 11
4046.638125596568
 21
1213.11266724535
 31
0
 12
4046.638125596568
 22
1211.86466724535
 32
0
 13
4046.638125596568
 23
1211.86466724535
 33
0
  0
TEXT
  8
1
 62
2
 10
4029.73222000373
 20
1215.54598826707
 30
0
 40
3.2
  1
3
 41
0.8910000000000001
  0
ENDBLK
  8
0
  0
BLOCK
  8
1
  2
*D2
 70
1
 10
0
 20
0
 30
0
  0
LINE
  8
1
 62
2
 10
4132.888682754618
 20
1378.837367462512
 30
0
 11
4237.688682754617
 21
1378.837367462512
 31
0
  0
LINE
  8
1
 62
2
 10
4132.888682754618
 20
1312.327367462512
 30
0
 11
4132.888682754618
 21
1379.837367462512
 31
0
  0
LINE
  8
1
 62
2
 10
4237.688682754617
 20
1337.627367462512
 30
0
 11
4237.688682754617
 21
1379.837367462512
 31
0
  0
SOLID
  8
1
 62
2
 10
4237.688682754617
 20
1378.837367462512
 30
0
 11
4232.888682754617
 21
1378.213367462512
 31
0
 12
4232.888682754617
 22
1379.461367462512
 32
0
 13
4232.888682754617
 23
1379.461367462512
 33
0
  0
SOLID
  8
1
 62
2
 10
4132.888682754618
 20
1378.837367462512
 30
0
 11
4137.688682754618
 21
1379.461367462512
 31
0
 12
4137.688682754618
 22
1378.213367462512
 32
0
 13
4137.688682754618
 23
1378.213367462512
 33
0
  0
TEXT
  8
1
 62
2
 10
4177.82447120507
 20
1380.28353405958
 30
0
 40
3.2
  1
104.8
 41
0.8910000000000001
  0
TEXT
  8
1
 62
2
 10
4190.11647120507
 20
1380.92353405958
 30
0
 40
1.92
  1
%%p0.3
 41
0.9
  0
ENDBLK
  8
0
  0
BLOCK
  8
1
  2
*D3
 70
1
 10
0
 20
0
 30
0
  0
LINE
  8
1
 62
2
 10
4187.288682754618
 20
1366.927367462512
 30
0
 11
4237.688682754619
 21
1366.927367462512
 31
0
  0
LINE
  8
1
 62
2
 10
4187.288682754618
 20
1366.927367462512
 30
0
 11
4237.688682754619
 21
1366.927367462512
 31
0
  0
LINE
  8
1
 62
2
 10
4237.688682754619
 20
1337.627367462512
 30
0
 11
4237.688682754619
 21
1368.427367462512
 31
0
  0
LINE
  8
1
 62
2
 10
4187.288682754618
 20
1370.627367462512
 30
0
 11
4187.288682754618
 21
1365.427367462512
 31
0
  0
SOLID
  8
1
 62
2
 10
4237.688682754619
 20
1366.927367462512
 30
0
 11
4232.888682754619
 21
1366.303367462512
 31
0
 12
4232.888682754619
 22
1367.551367462512
 32
0
 13
4232.888682754619
 23
1367.551367462512
 33
0
  0
SOLID
  8
1
 62
2
 10
4187.288682754618
 20
1366.927367462512
 30
0
 11
4192.088682754618
 21
1367.551367462512
 31
0
 12
4192.088682754618
 22
1366.303367462512
 32
0
 13
4192.088682754618
 23
1366.303367462512
 33
0
  0
TEXT
  8
1
 62
2
 10
4205.657934119748
 20
1368.927367462512
 30
0
 40
3.2
  1
50.4
 41
0.8910000000000001
  0
ENDBLK
  8
0
  0
BLOCK
  8
1
  2
*D4
 70
1
 10
0
 20
0
 30
0
  0
LINE
  8
1
 62
2
 10
4069.838125596567
 20
1366.7618780836
 30
0
 11
4079.438125596567
 21
1366.7618780836
 31
0
  0
LINE
  8
1
 62
2
 10
4061.838125596567
 20
1366.7618780836
 30
0
 11
4052.238125596567
 21
1366.7618780836
 31
0
  0
LINE
  8
1
 62
2
 10
4061.838125596567
 20
1366.7618780836
 30
0
 11
4069.838125596567
 21
1366.7618780836
 31
0
  0
LINE
  8
1
 62
2
 10
4069.838125596567
 20
1311.827367462512
 30
0
 11
4069.838125596567
 21
1367.7618780836
 31
0
  0
LINE
  8
1
 62
2
 10
4061.838125596567
 20
1312.327367462512
 30
0
 11
4061.838125596567
 21
1367.7618780836
 31
0
  0
SOLID
  8
1
 62
2
 10
4069.838125596567
 20
1366.7618780836
 30
0
 11
4074.638125596568
 21
1367.3858780836
 31
0
 12
4074.638125596568
 22
1366.1378780836
 32
0
 13
4074.638125596568
 23
1366.1378780836
 33
0
  0
SOLID
  8
1
 62
2
 10
4061.838125596567
 20
1366.7618780836
 30
0
 11
4057.038125596567
 21
1366.1378780836
 31
0
 12
4057.038125596567
 22
1367.3858780836
 32
0
 13
4057.038125596567
 23
1367.3858780836
 33
0
  0
TEXT
  8
1
 62
2
 10
4064.95366690219
 20
1368.47329616807
 30
0
 40
3.2
  1
8
 41
0.8910000000000001
  0
ENDBLK
  8
0
  0
BLOCK
  8
1
  2
*D5
 70
1
 10
0
 20
0
 30
0
  0
LINE
  8
1
 62
2
 10
4081.3578384129
 20
1232.227367462512
 30
0
 11
4081.3578384129
 21
1243.59695286604
 31
0
  0
LINE
  8
1
 62
2
 10
4081.3578384129
 20
1229.627367462512
 30
0
 11
4081.3578384129
 21
1232.227367462512
 31
0
  0
LINE
  8
1
 62
2
 10
4081.3578384129
 20
1220.027367462512
 30
0
 11
4081.3578384129
 21
1229.627367462512
 31
0
  0
LINE
  8
1
 62
2
 10
4047.338125596567
 20
1232.227367462512
 30
0
 11
4082.3578384129
 21
1232.227367462512
 31
0
  0
LINE
  8
1
 62
2
 10
4070.838125596567
 20
1229.627367462512
 30
0
 11
4082.3578384129
 21
1229.627367462512
 31
0
  0
SOLID
  8
1
 62
2
 10
4081.3578384129
 20
1232.227367462512
 30
0
 11
4080.7338384129
 21
1237.027367462512
 31
0
 12
4081.9818384129
 22
1237.027367462512
 32
0
 13
4081.9818384129
 23
1237.027367462512
 33
0
  0
SOLID
  8
1
 62
2
 10
4081.3578384129
 20
1229.627367462512
 30
0
 11
4081.9818384129
 21
1224.827367462512
 31
0
 12
4080.7338384129
 22
1224.827367462512
 32
0
 13
4080.7338384129
 23
1224.827367462512
 33
0
  0
TEXT
  8
1
 62
2
 10
4078.943511194
 20
1237.65695286604
 30
0
 40
3.2
  1
2.6
 50
90
 41
0.8910000000000001
  0
ENDBLK
  8
0
  0
BLOCK
  8
1
  2
*D6
 70
1
 10
0
 20
0
 30
0
  0
LINE
  8
1
 62
2
 10
4038.838125596567
 20
1201.68637135815
 30
0
 11
4069.838125596567
 21
1201.68637135815
 31
0
  0
LINE
  8
1
 62
2
 10
4069.838125596567
 20
1229.927367462512
 30
0
 11
4069.838125596567
 21
1200.68637135815
 31
0
  0
LINE
  8
1
 62
2
 10
4038.838125596567
 20
1229.127367462512
 30
0
 11
4038.838125596567
 21
1200.68637135815
 31
0
  0
SOLID
  8
1
 62
2
 10
4069.838125596567
 20
1201.68637135815
 30
0
 11
4065.038125596567
 21
1201.06237135815
 31
0
 12
4065.038125596567
 22
1202.31037135815
 32
0
 13
4065.038125596567
 23
1202.31037135815
 33
0
  0
SOLID
  8
1
 62
2
 10
4038.838125596567
 20
1201.68637135815
 30
0
 11
4043.638125596568
 21
1202.31037135815
 31
0
 12
4043.638125596568
 22
1201.06237135815
 32
0
 13
4043.638125596568
 23
1201.06237135815
 33
0
  0
TEXT
  8
1
 62
2
 10
4051.96174659502
 20
1203.5044679599
 30
0
 40
3.2
  1
31
 41
0.8910000000000001
  0
ENDBLK
  8
0
  0
BLOCK
  8
1
  2
*D7
 70
1
 10
0
 20
0
 30
0
  0
LINE
  8
1
 62
2
 10
4069.838125596567
 20
1212.48866724535
 30
0
 11
4080.01247318632
 21
1212.48866724535
 31
0
  0
LINE
  8
1
 62
2
 10
4067.338125596567
 20
1212.48866724535
 30
0
 11
4069.838125596567
 21
1212.48866724535
 31
0
  0
LINE
  8
1
 62
2
 10
4057.738125596567
 20
1212.48866724535
 30
0
 11
4067.338125596567
 21
1212.48866724535
 31
0
  0
LINE
  8
1
 62
2
 10
4069.838125596567
 20
1229.927367462512
 30
0
 11
4069.838125596567
 21
1211.48866724535
 31
0
  0
LINE
  8
1
 62
2
 10
4067.338125596567
 20
1231.227367462512
 30
0
 11
4067.338125596567
 21
1211.48866724535
 31
0
  0
SOLID
  8
1
 62
2
 10
4067.338125596567
 20
1212.48866724535
 30
0
 11
4062.538125596567
 21
1211.86466724535
 31
0
 12
4062.538125596567
 22
1213.11266724535
 32
0
 13
4062.538125596567
 23
1213.11266724535
 33
0
  0
SOLID
  8
1
 62
2
 10
4069.838125596567
 20
1212.48866724535
 30
0
 11
4074.638125596568
 21
1213.11266724535
 31
0
 12
4074.638125596568
 22
1211.86466724535
 32
0
 13
4074.638125596568
 23
1211.86466724535
 33
0
  0
TEXT
  8
1
 62
2
 10
4074.07247318632
 20
1214.64287424403
 30
0
 40
3.2
  1
2.5
 41
0.8910000000000001
  0
ENDBLK
  8
0
  0
BLOCK
  8
1
  2
*D8
 70
1
 10
0
 20
0
 30
0
  0
LINE
  8
1
 62
2
 10
4125.288682754617
 20
1214.627367462512
 30
0
 11
4187.288682754617
 21
1214.627367462512
 31
0
  0
LINE
  8
1
 62
2
 10
4125.288682754617
 20
1214.627367462512
 30
0
 11
4187.288682754617
 21
1214.627367462512
 31
0
  0
LINE
  8
1
 62
2
 10
4187.288682754617
 20
1218.914461176239
 30
0
 11
4187.288682754617
 21
1213.127367462512
 31
0
  0
LINE
  8
1
 62
2
 10
4125.288682754617
 20
1228.627367462512
 30
0
 11
4125.288682754617
 21
1213.127367462512
 31
0
  0
SOLID
  8
1
 62
2
 10
4187.288682754617
 20
1214.627367462512
 30
0
 11
4182.488682754617
 21
1214.003367462512
 31
0
 12
4182.488682754617
 22
1215.251367462512
 32
0
 13
4182.488682754617
 23
1215.251367462512
 33
0
  0
SOLID
  8
1
 62
2
 10
4125.288682754617
 20
1214.627367462512
 30
0
 11
4130.088682754617
 21
1215.251367462512
 31
0
 12
4130.088682754617
 22
1214.003367462512
 32
0
 13
4130.088682754617
 23
1214.003367462512
 33
0
  0
TEXT
  8
1
 62
2
 10
4153.070788570806
 20
1216.627367462512
 30
0
 40
3.2
  1
62
 41
0.8910000000000001
  0
ENDBLK
  8
0
  0
BLOCK
  8
1
  2
*D9
 70
1
 10
0
 20
0
 30
0
  0
LINE
  8
1
 62
2
 10
4125.288682754617
 20
1203.40535343643
 30
0
 11
4250.888682754618
 21
1203.40535343643
 31
0
  0
LINE
  8
1
 62
2
 10
4250.888682754618
 20
1288.373528822728
 30
0
 11
4250.888682754618
 21
1202.40535343643
 31
0
  0
LINE
  8
1
 62
2
 10
4125.288682754617
 20
1228.627367462512
 30
0
 11
4125.288682754617
 21
1202.40535343643
 31
0
  0
SOLID
  8
1
 62
2
 10
4250.888682754618
 20
1203.40535343643
 30
0
 11
4246.088682754617
 21
1202.78135343643
 31
0
 12
4246.088682754617
 22
1204.02935343643
 32
0
 13
4246.088682754617
 23
1204.02935343643
 33
0
  0
SOLID
  8
1
 62
2
 10
4125.288682754617
 20
1203.40535343643
 30
0
 11
4130.088682754617
 21
1204.02935343643
 31
0
 12
4130.088682754617
 22
1202.78135343643
 32
0
 13
4130.088682754617
 23
1202.78135343643
 33
0
  0
TEXT
  8
1
 62
2
 10
4182.34842311637
 20
1205.64359387994
 30
0
 40
3.2
  1
126
 41
0.8910000000000001
  0
ENDBLK
  8
0
  0
BLOCK
  8
1
  2
*D10
 70
1
 10
0
 20
0
 30
0
  0
LINE
  8
1
 62
2
 10
4275.116348764461
 20
1236.827367462512
 30
0
 11
4275.116348764461
 21
1341.627367462512
 31
0
  0
LINE
  8
1
 62
2
 10
4241.613682754618
 20
1236.827367462512
 30
0
 11
4276.616348764461
 21
1236.827367462512
 31
0
  0
LINE
  8
1
 62
2
 10
4243.688682754618
 20
1341.627367462512
 30
0
 11
4276.616348764461
 21
1341.627367462512
 31
0
  0
SOLID
  8
1
 62
2
 10
4275.116348764461
 20
1236.827367462512
 30
0
 11
4274.700348764461
 21
1240.027367462512
 31
0
 12
4275.532348764461
 22
1240.027367462512
 32
0
 13
4275.532348764461
 23
1240.027367462512
 33
0
  0
SOLID
  8
1
 62
2
 10
4275.116348764461
 20
1341.627367462512
 30
0
 11
4275.532348764461
 21
1338.427367462512
 31
0
 12
4274.700348764461
 22
1338.427367462512
 32
0
 13
4274.700348764461
 23
1338.427367462512
 33
0
  0
TEXT
  8
1
 62
2
 10
4273.116348764461
 20
1281.85421134163
 30
0
 40
3.2
  1
104.8
 50
90
 41
0.9
  0
TEXT
  8
1
 62
2
 10
4272.476348764461
 20
1294.25421134163
 30
0
 40
1.92
  1
%%p0.3
 50
90
 41
0.9
  0
ENDBLK
  8
0
  0
BLOCK
  8
1
  2
*D11
 70
1
 10
0
 20
0
 30
0
  0
LINE
  8
1
 62
2
 10
4112.36443064536
 20
1236.827367462512
 30
0
 11
4112.36443064536
 21
1316.327367462512
 31
0
  0
LINE
  8
1
 62
2
 10
4233.763682754617
 20
1236.827367462512
 30
0
 11
4110.86443064536
 21
1236.827367462512
 31
0
  0
LINE
  8
1
 62
2
 10
4126.888682754618
 20
1316.327367462512
 30
0
 11
4110.86443064536
 21
1316.327367462512
 31
0
  0
SOLID
  8
1
 62
2
 10
4112.36443064536
 20
1316.327367462512
 30
0
 11
4112.78043064536
 21
1313.127367462512
 31
0
 12
4111.94843064536
 22
1313.127367462512
 32
0
 13
4111.94843064536
 23
1313.127367462512
 33
0
  0
SOLID
  8
1
 62
2
 10
4112.36443064536
 20
1236.827367462512
 30
0
 11
4111.94843064536
 21
1240.027367462512
 31
0
 12
4112.78043064536
 22
1240.027367462512
 32
0
 13
4112.78043064536
 23
1240.027367462512
 33
0
  0
TEXT
  8
1
 62
2
 10
4110.36443064536
 20
1268.61992186309
 30
0
 40
3.2
  1
79.5
 50
90
 41
0.9
  0
TEXT
  8
1
 62
2
 10
4109.72443064536
 20
1279.09992186309
 30
0
 40
1.92
  1
%%p0.3
 50
90
 41
0.9
  0
ENDBLK
  8
0
  0
BLOCK
  8
1
  2
*D12
 70
1
 10
0
 20
0
 30
0
  0
LINE
  8
1
 62
2
 10
4307.56675694883
 20
1367.37977000144
 30
0
 11
4315.56675694883
 21
1367.37977000144
 31
0
  0
LINE
  8
1
 62
2
 10
4307.56675694883
 20
1367.37977000144
 30
0
 11
4297.966756948829
 21
1367.37977000144
 31
0
  0
LINE
  8
1
 62
2
 10
4315.56675694883
 20
1367.37977000144
 30
0
 11
4325.16675694883
 21
1367.37977000144
 31
0
  0
LINE
  8
1
 62
2
 10
4307.56675694883
 20
1338.84630255934
 30
0
 11
4307.56675694883
 21
1368.37977000144
 31
0
  0
LINE
  8
1
 62
2
 10
4315.56675694883
 20
1338.84630255934
 30
0
 11
4315.56675694883
 21
1368.37977000144
 31
0
  0
SOLID
  8
1
 62
2
 10
4307.56675694883
 20
1367.37977000144
 30
0
 11
4302.766756948829
 21
1366.75577000144
 31
0
 12
4302.766756948829
 22
1368.00377000144
 32
0
 13
4302.766756948829
 23
1368.00377000144
 33
0
  0
SOLID
  8
1
 62
2
 10
4315.56675694883
 20
1367.37977000144
 30
0
 11
4320.36675694883
 21
1368.00377000144
 31
0
 12
4320.36675694883
 22
1366.75577000144
 32
0
 13
4320.36675694883
 23
1366.75577000144
 33
0
  0
TEXT
  8
1
 62
2
 10
4310.452267975534
 20
1368.903974125598
 30
0
 40
3.2
  1
8
 41
0.8910000000000001
  0
ENDBLK
  8
0
  0
BLOCK
  8
1
  2
*D13
 70
1
 10
0
 20
0
 30
0
  0
LINE
  8
1
 62
2
 10
4307.56675694883
 20
1215.378999159524
 30
0
 11
4316.56675694883
 21
1215.378999159524
 31
0
  0
LINE
  8
1
 62
2
 10
4307.56675694883
 20
1215.378999159524
 30
0
 11
4297.966756948829
 21
1215.378999159524
 31
0
  0
LINE
  8
1
 62
2
 10
4316.56675694883
 20
1215.378999159524
 30
0
 11
4326.16675694883
 21
1215.378999159524
 31
0
  0
LINE
  8
1
 62
2
 10
4307.56675694883
 20
1230.77977000144
 30
0
 11
4307.56675694883
 21
1214.378999159524
 31
0
  0
LINE
  8
1
 62
2
 10
4316.56675694883
 20
1230.77977000144
 30
0
 11
4316.56675694883
 21
1214.378999159524
 31
0
  0
SOLID
  8
1
 62
2
 10
4307.56675694883
 20
1215.378999159524
 30
0
 11
4302.766756948829
 21
1214.754999159524
 31
0
 12
4302.766756948829
 22
1216.002999159524
 32
0
 13
4302.766756948829
 23
1216.002999159524
 33
0
  0
SOLID
  8
1
 62
2
 10
4316.56675694883
 20
1215.378999159524
 30
0
 11
4321.36675694883
 21
1216.002999159524
 31
0
 12
4321.36675694883
 22
1214.754999159524
 32
0
 13
4321.36675694883
 23
1214.754999159524
 33
0
  0
TEXT
  8
1
 62
2
 10
4311.075029878914
 20
1216.679265305608
 30
0
 40
3.2
  1
9
 41
0.8910000000000001
  0
ENDBLK
  8
0
  0
BLOCK
  8
1
  2
*D14
 70
1
 10
0
 20
0
 30
0
  0
LINE
  8
1
 62
2
 10
4205.837833054919
 20
1320.183708566376
 30
0
 11
4145.580573311439
 21
1254.055755885843
 31
0
  0
SOLID
  8
1
 62
2
 10
4205.837833054919
 20
1320.183708566376
 30
0
 11
4203.066098683365
 21
1316.215476646044
 31
0
 12
4202.143632681272
 22
1317.05604816292
 32
0
 13
4202.143632681272
 23
1317.05604816292
 33
0
  0
SOLID
  8
1
 62
2
 10
4168.739532454318
 20
1279.471026358649
 30
0
 11
4171.511266825874
 21
1283.43925827898
 31
0
 12
4172.433732827965
 22
1282.598686762104
 32
0
 13
4172.433732827965
 23
1282.598686762104
 33
0
  0
TEXT
  8
1
 62
2
 10
4146.688636308731
 20
1258.241182553942
 30
0
 40
3.2
  1
55
 50
47.6595225144919
 41
0.8910000000000001
  0
TEXT
  8
1
 62
2
 10
4144.10226241065
 20
1255.402825624427
 30
0
 40
3.2
  1
%%c
 50
47.6595225144919
 41
0.8910000000000001
  0
ENDBLK
  8
0
  0
BLOCK
  8
1
  2
*D15
 70
1
 10
0
 20
0
 30
0
  0
LINE
  8
1
 62
2
 10
4139.714608359565
 20
1347.401441857567
 30
0
 11
4140.775268531345
 21
1346.340781685787
 31
0
  0
LINE
  8
1
 62
2
 10
4121.008364366687
 20
1366.107685850444
 30
0
 11
4139.714608359565
 21
1347.401441857567
 31
0
  0
ARC
  8
1
 62
2
 10
4187.288682754617
 20
1299.82736746252
 30
0
 40
67.27990122682513
 50
90
 51
135.000000000003
  0
SOLID
  8
1
 62
2
 10
4187.288682754617
 20
1367.107268689345
 30
0
 11
4184.099479654962
 21
1366.615293497744
 31
0
 12
4184.079695521766
 22
1367.44705824097
 32
0
 13
4184.079695521766
 23
1367.44705824097
 33
0
  0
SOLID
  8
1
 62
2
 10
4139.714608359565
 20
1347.401441857567
 30
0
 11
4141.743437496526
 21
1349.910805986788
 31
0
 12
4142.31759449207
 22
1349.308670001757
 32
0
 13
4142.31759449207
 23
1349.308670001757
 33
0
  0
TEXT
  8
1
 62
2
 10
4153.461955100538
 20
1360.39012507985
 30
0
 40
3.2
  1
45%%d
 50
26.27650396985986
 41
0.9
  0
ENDBLK
  8
0
  0
ENDSEC
  0
SECTION
  2
ENTITIES
  0
INSERT
  8
1
  2
*X0
 10
0
 20
0
 30
0
  0
INSERT
  8
1
  2
*X1
 10
0
 20
0
 30
0
  0
INSERT
  8
1
  2
*X2
 10
0
 20
0
 30
0
  0
INSERT
  8
1
  2
*X3
 10
0
 20
0
 30
0
  0
INSERT
  8
1
  2
*X4
 10
0
 20
0
 30
0
  0
INSERT
  8
1
  2
*X5
 10
0
 20
0
 30
0
  0
INSERT
  8
1
  2
*X6
 10
0
 20
0
 30
0
  0
INSERT
  8
1
  2
*X7
 10
0
 20
0
 30
0
  0
INSERT
  8
1
  2
*X8
 10
0
 20
0
 30
0
  0
POLYLINE
  8
1
 62
2
 66
1
  0
VERTEX
  8
1
 10
4120.900588084545
 20
1367.742812779948
 30
0
  0
VERTEX
  8
1
 10
4120.946981927607
 20
1367.608560359345
 30
0
 42
-0.07730897152650554
  0
VERTEX
  8
1
 10
4120.980789891702
 20
1367.384392669918
 30
0
 42
-0.1029182795063824
  0
VERTEX
  8
1
 10
4120.94638321446
 20
1367.211363158307
 30
0
 42
-0.09620370871473807
  0
VERTEX
  8
1
 10
4120.856271881525
 20
1367.079898195046
 30
0
 42
-0.06445484103245115
  0
VERTEX
  8
1
 10
4120.722965878542
 20
1366.980424150667
 30
0
 42
-0.03559489243108314
  0
VERTEX
  8
1
 10
4120.558975191154
 20
1366.903367395705
 30
0
 42
-0.01479725527299688
  0
VERTEX
  8
1
 10
4120.376809805006
 20
1366.839154300692
 30
0
 42
0.002057408278777553
  0
VERTEX
  8
1
 10
4120.188979705742
 20
1366.778211236161
 30
0
 42
0.01957634202782322
  0
VERTEX
  8
1
 10
4120.007994879005
 20
1366.710964572646
 30
0
 42
0.0420980010755402
  0
VERTEX
  8
1
 10
4119.846365310441
 20
1366.627840680681
 30
0
 42
0.07114680115716408
  0
VERTEX
  8
1
 10
4119.716600985693
 20
1366.519265930798
 30
0
 42
0.09369628824713251
  0
VERTEX
  8
1
 10
4119.631211890405
 20
1366.375666693531
 30
0
 42
0.08665087942108136
  0
VERTEX
  8
1
 10
4119.602708010223
 20
1366.187469339413
 30
0
 42
0.061281288167928
  0
VERTEX
  8
1
 10
4119.643599330788
 20
1365.945100238978
 30
0
  0
SEQEND
  8
1
  0
POLYLINE
  8
1
 62
2
 66
1
  0
VERTEX
  8
1
 10
4121.855296546199
 20
1366.788104318293
 30
0
  0
VERTEX
  8
1
 10
4121.901690389261
 20
1366.65385189769
 30
0
 42
-0.07730897152514052
  0
VERTEX
  8
1
 10
4121.935498353356
 20
1366.429684208264
 30
0
 42
-0.1029182795050625
  0
VERTEX
  8
1
 10
4121.901091676114
 20
1366.256654696653
 30
0
 42
-0.09620370871473807
  0
VERTEX
  8
1
 10
4121.810980343179
 20
1366.125189733392
 30
0
 42
-0.06445484103277736
  0
VERTEX
  8
1
 10
4121.677674340196
 20
1366.025715689013
 30
0
 42
-0.03559489243305094
  0
VERTEX
  8
1
 10
4121.513683652807
 20
1365.94865893405
 30
0
 42
-0.01479725527352413
  0
VERTEX
  8
1
 10
4121.33151826666
 20
1365.884445839037
 30
0
 42
0.002057408278861875
  0
VERTEX
  8
1
 10
4121.143688167395
 20
1365.823502774506
 30
0
 42
0.01957634202678521
  0
VERTEX
  8
1
 10
4120.96270334066
 20
1365.756256110992
 30
0
 42
0.04209800107575519
  0
VERTEX
  8
1
 10
4120.801073772095
 20
1365.673132219026
 30
0
 42
0.07114680115815518
  0
VERTEX
  8
1
 10
4120.671309447347
 20
1365.564557469143
 30
0
 42
0.09369628824344758
  0
VERTEX
  8
1
 10
4120.58592035206
 20
1365.420958231877
 30
0
 42
0.08665087942040352
  0
VERTEX
  8
1
 10
4120.557416471876
 20
1365.232760877759
 30
0
 42
0.06128128816688493
  0
VERTEX
  8
1
 10
4120.598307792442
 20
1364.990391777325
 30
0
  0
SEQEND
  8
1
  0
POLYLINE
  8
1
 62
2
 66
1
  0
VERTEX
  8
1
 10
4119.643599330788
 20
1365.945100238978
 30
0
  0
VERTEX
  8
1
 10
4119.67644772973
 20
1365.855080428363
 30
0
 42
-0.04294629851889761
  0
VERTEX
  8
1
 10
4119.715733133198
 20
1365.694907733344
 30
0
 42
-0.05610071395015252
  0
VERTEX
  8
1
 10
4119.722764459097
 20
1365.558958194121
 30
0
 42
-0.06669760688986579
  0
VERTEX
  8
1
 10
4119.70109504541
 20
1365.444512515708
 30
0
 42
-0.06785288843014553
  0
VERTEX
  8
1
 10
4119.654278230123
 20
1365.348851403119
 30
0
 42
-0.05822036858066075
  0
VERTEX
  8
1
 10
4119.585867351219
 20
1365.269255561369
 30
0
 42
-0.04390699091791388
  0
VERTEX
  8
1
 10
4119.499415746682
 20
1365.203005695473
 30
0
 42
-0.03044910061035154
  0
VERTEX
  8
1
 10
4119.398476754498
 20
1365.147382510444
 30
0
 42
-0.01952347511356525
  0
VERTEX
  8
1
 10
4119.28660371265
 20
1365.099666711298
 30
0
 42
-0.01075138741074632
  0
VERTEX
  8
1
 10
4119.167349959122
 20
1365.057139003048
 30
0
 42
-0.003252804959225317
  0
VERTEX
  8
1
 10
4119.044268831899
 20
1365.01708009071
 30
0
  0
SEQEND
  8
1
  0
POLYLINE
  8
1
 62
2
 66
1
  0
VERTEX
  8
1
 10
4120.598307792442
 20
1364.990391777325
 30
0
  0
VERTEX
  8
1
 10
4120.631156191388
 20
1364.900371966699
 30
0
 42
-0.04294629852258374
  0
VERTEX
  8
1
 10
4120.670441594856
 20
1364.740199271666
 30
0
 42
-0.05610071396367326
  0
VERTEX
  8
1
 10
4120.677472920749
 20
1364.604249732433
 30
0
 42
-0.0666976069028746
  0
VERTEX
  8
1
 10
4120.655803507051
 20
1364.489804054014
 30
0
 42
-0.06785288843801957
  0
VERTEX
  8
1
 10
4120.608986691748
 20
1364.394142941422
 30
0
 42
-0.05822036858045757
  0
VERTEX
  8
1
 10
4120.540575812826
 20
1364.314547099671
 30
0
 42
-0.04390699091311737
  0
VERTEX
  8
1
 10
4120.454124208271
 20
1364.248297233775
 30
0
 42
-0.03044910060350733
  0
VERTEX
  8
1
 10
4120.353185216065
 20
1364.192674048748
 30
0
 42
-0.0195234751066959
  0
VERTEX
  8
1
 10
4120.241312174196
 20
1364.144958249602
 30
0
 42
-0.01075138740330541
  0
VERTEX
  8
1
 10
4120.122058420649
 20
1364.102430541351
 30
0
 42
-0.003252804951212087
  0
VERTEX
  8
1
 10
4119.99897729341
 20
1364.06237162901
 30
0
  0
SEQEND
  8
1
  0
POLYLINE
  8
0
 62
3
 66
1
  0
VERTEX
  8
0
 10
4223.267383558017
 20
1242.047742983412
 30
0
  0
VERTEX
  8
0
 10
4223.504670706817
 20
1242.110777490512
 30
0
  0
VERTEX
  8
0
 10
4224.525876102117
 20
1242.213554608312
 30
0
  0
SEQEND
  8
0
  0
POLYLINE
  8
0
 62
3
 66
1
  0
VERTEX
  8
0
 10
4046.838125596567
 20
1286.540438999512
 30
0
  0
VERTEX
  8
0
 10
4051.044255310867
 20
1286.512898209512
 30
0
  0
VERTEX
  8
0
 10
4056.750384805067
 20
1286.475371139212
 30
0
  0
VERTEX
  8
0
 10
4062.838125596567
 20
1286.435046789112
 30
0
  0
SEQEND
  8
0
  0
POLYLINE
  8
0
 62
3
 66
1
  0
VERTEX
  8
0
 10
4062.838125596567
 20
1285.619528571412
 30
0
  0
VERTEX
  8
0
 10
4057.340869980467
 20
1285.499275320312
 30
0
  0
VERTEX
  8
0
 10
4051.843667878267
 20
1285.377871550212
 30
0
  0
VERTEX
  8
0
 10
4046.838125596567
 20
1285.266562822712
 30
0
  0
SEQEND
  8
0
  0
POLYLINE
  8
0
 62
3
 66
1
  0
VERTEX
  8
0
 10
4046.838125596567
 20
1283.356610374512
 30
0
  0
VERTEX
  8
0
 10
4051.044255310867
 20
1283.323735239512
 30
0
  0
VERTEX
  8
0
 10
4056.750384805067
 20
1283.278976358612
 30
0
  0
VERTEX
  8
0
 10
4062.838125596567
 20
1283.230945051212
 30
0
  0
SEQEND
  8
0
  0
POLYLINE
  8
0
 62
3
 66
1
  0
VERTEX
  8
0
 10
4062.838125596567
 20
1282.439961617812
 30
0
  0
VERTEX
  8
0
 10
4057.340869980467
 20
1282.331535942112
 30
0
  0
VERTEX
  8
0
 10
4051.843667878267
 20
1282.222047371212
 30
0
  0
VERTEX
  8
0
 10
4046.838125596567
 20
1282.121658327312
 30
0
  0
SEQEND
  8
0
  0
POLYLINE
  8
0
 62
3
 66
1
  0
VERTEX
  8
0
 10
4046.838125596567
 20
1280.276915178912
 30
0
  0
VERTEX
  8
0
 10
4051.044255310867
 20
1280.238913546212
 30
0
  0
VERTEX
  8
0
 10
4056.750384805067
 20
1280.187205834612
 30
0
  0
VERTEX
  8
0
 10
4062.838125596567
 20
1280.131771239412
 30
0
  0
SEQEND
  8
0
  0
POLYLINE
  8
0
 62
3
 66
1
  0
VERTEX
  8
0
 10
4062.838125596567
 20
1279.370323442112
 30
0
  0
VERTEX
  8
0
 10
4057.340869980467
 20
1279.274410843812
 30
0
  0
VERTEX
  8
0
 10
4051.843667878267
 20
1279.177529694211
 30
0
  0
VERTEX
  8
0
 10
4046.838125596567
 20
1279.088695025712
 30
0
  0
SEQEND
  8
0
  0
POLYLINE
  8
0
 62
3
 66
1
  0
VERTEX
  8
0
 10
4046.838125596567
 20
1277.320824237312
 30
0
  0
VERTEX
  8
0
 10
4051.044255310867
 20
1277.277936365512
 30
0
  0
VERTEX
  8
0
 10
4056.750384805067
 20
1277.219606736012
 30
0
  0
VERTEX
  8
0
 10
4062.838125596567
 20
1277.157119328312
 30
0
  0
SEQEND
  8
0
  0
POLYLINE
  8
0
 62
3
 66
1
  0
VERTEX
  8
0
 10
4062.838125596567
 20
1276.430021285312
 30
0
  0
VERTEX
  8
0
 10
4057.340869980467
 20
1276.347228154712
 30
0
  0
VERTEX
  8
0
 10
4051.843667878267
 20
1276.263566940212
 30
0
  0
VERTEX
  8
0
 10
4046.838125596567
 20
1276.186848288512
 30
0
  0
SEQEND
  8
0
  0
POLYLINE
  8
0
 62
3
 66
1
  0
VERTEX
  8
0
 10
4046.838125596567
 20
1274.507026908412
 30
0
  0
VERTEX
  8
0
 10
4051.044255310867
 20
1274.459523948412
 30
0
  0
VERTEX
  8
0
 10
4056.750384805067
 20
1274.394941179812
 30
0
  0
VERTEX
  8
0
 10
4062.838125596567
 20
1274.325796025012
 30
0
  0
SEQEND
  8
0
  0
POLYLINE
  8
0
 62
3
 66
1
  0
VERTEX
  8
0
 10
4062.838125596567
 20
1273.637644684312
 30
0
  0
VERTEX
  8
0
 10
4057.340869980467
 20
1273.568494466212
 30
0
  0
VERTEX
  8
0
 10
4051.843667878267
 20
1273.498582120012
 30
0
  0
VERTEX
  8
0
 10
4046.838125596567
 20
1273.434464525112
 30
0
  0
SEQEND
  8
0
  0
POLYLINE
  8
0
 62
3
 66
1
  0
VERTEX
  8
0
 10
4046.838125596567
 20
1271.853312924912
 30
0
  0
VERTEX
  8
0
 10
4051.044255310867
 20
1271.801495205611
 30
0
  0
VERTEX
  8
0
 10
4056.750384805067
 20
1271.731067611011
 30
0
  0
VERTEX
  8
0
 10
4062.838125596567
 20
1271.655701867112
 30
0
  0
SEQEND
  8
0
  0
POLYLINE
  8
0
 62
3
 66
1
  0
VERTEX
  8
0
 10
4062.838125596567
 20
1271.010847943012
 30
0
  0
VERTEX
  8
0
 10
4057.340869980467
 20
1270.955777827412
 30
0
  0
VERTEX
  8
0
 10
4051.843667878267
 20
1270.900056357712
 30
0
  0
VERTEX
  8
0
 10
4046.838125596567
 20
1270.848945191712
 30
0
  0
SEQEND
  8
0
  0
POLYLINE
  8
0
 62
3
 66
1
  0
VERTEX
  8
0
 10
4046.838125596567
 20
1269.376459921012
 30
0
  0
VERTEX
  8
0
 10
4051.044255310867
 20
1269.320655050812
 30
0
  0
VERTEX
  8
0
 10
4056.750384805067
 20
1269.244827896012
 30
0
  0
VERTEX
  8
0
 10
4062.838125596567
 20
1269.163718049612
 30
0
  0
SEQEND
  8
0
  0
POLYLINE
  8
0
 62
3
 66
1
  0
VERTEX
  8
0
 10
4062.838125596567
 20
1268.566238516212
 30
0
  0
VERTEX
  8
0
 10
4057.340869980467
 20
1268.525596674112
 30
0
  0
VERTEX
  8
0
 10
4051.843667878267
 20
1268.484418370112
 30
0
  0
VERTEX
  8
0
 10
4046.838125596567
 20
1268.446636774212
 30
0
  0
SEQEND
  8
0
  0
POLYLINE
  8
0
 62
3
 66
1
  0
VERTEX
  8
0
 10
4046.838125596567
 20
1267.092127358912
 30
0
  0
VERTEX
  8
0
 10
4051.044255310867
 20
1267.032688154212
 30
0
  0
VERTEX
  8
0
 10
4056.750384805067
 20
1266.951940842912
 30
0
  0
VERTEX
  8
0
 10
4062.838125596567
 20
1266.865599696512
 30
0
  0
SEQEND
  8
0
  0
POLYLINE
  8
0
 62
3
 66
1
  0
VERTEX
  8
0
 10
4062.838125596567
 20
1266.319272011712
 30
0
  0
VERTEX
  8
0
 10
4057.340869980467
 20
1266.293315394012
 30
0
  0
VERTEX
  8
0
 10
4051.843667878267
 20
1266.266940598112
 30
0
  0
VERTEX
  8
0
 10
4046.838125596567
 20
1266.242727439812
 30
0
  0
SEQEND
  8
0
  0
POLYLINE
  8
0
 62
3
 66
1
  0
VERTEX
  8
0
 10
4046.838125596567
 20
1265.014757524512
 30
0
  0
VERTEX
  8
0
 10
4051.044255310867
 20
1264.952059779012
 30
0
  0
VERTEX
  8
0
 10
4056.750384805067
 20
1264.866902821812
 30
0
  0
VERTEX
  8
0
 10
4062.838125596567
 20
1264.775876251912
 30
0
  0
SEQEND
  8
0
  0
POLYLINE
  8
0
 62
3
 66
1
  0
VERTEX
  8
0
 10
4062.838125596567
 20
1264.284154475312
 30
0
  0
VERTEX
  8
0
 10
4057.340869980467
 20
1264.273047188012
 30
0
  0
VERTEX
  8
0
 10
4051.843667878267
 20
1264.261642650212
 30
0
  0
VERTEX
  8
0
 10
4046.838125596567
 20
1264.251151012812
 30
0
  0
SEQEND
  8
0
  0
POLYLINE
  8
0
 62
3
 66
1
  0
VERTEX
  8
0
 10
4046.838125596567
 20
1263.157484218812
 30
0
  0
VERTEX
  8
0
 10
4051.044255310867
 20
1263.091924327912
 30
0
  0
VERTEX
  8
0
 10
4056.750384805067
 20
1263.002896114412
 30
0
  0
VERTEX
  8
0
 10
4062.838125596567
 20
1262.907759620312
 30
0
  0
SEQEND
  8
0
  0
POLYLINE
  8
0
 62
3
 66
1
  0
VERTEX
  8
0
 10
4062.838125596567
 20
1262.473752575312
 30
0
  0
VERTEX
  8
0
 10
4057.340869980467
 20
1262.477564842212
 30
0
  0
VERTEX
  8
0
 10
4051.843667878267
 20
1262.481202665712
 30
0
  0
VERTEX
  8
0
 10
4046.838125596567
 20
1262.484498880812
 30
0
  0
SEQEND
  8
0
  0
POLYLINE
  8
0
 62
3
 66
1
  0
VERTEX
  8
0
 10
4046.838125596567
 20
1261.532049721612
 30
0
  0
VERTEX
  8
0
 10
4051.044255310867
 20
1261.464042175912
 30
0
  0
VERTEX
  8
0
 10
4056.750384805067
 20
1261.371705571212
 30
0
  0
VERTEX
  8
0
 10
4062.838125596567
 20
1261.273060636412
 30
0
  0
SEQEND
  8
0
  0
POLYLINE
  8
0
 62
3
 66
1
  0
VERTEX
  8
0
 10
4062.838125596567
 20
1260.899512255412
 30
0
  0
VERTEX
  8
0
 10
4057.340869980467
 20
1260.918219974212
 30
0
  0
VERTEX
  8
0
 10
4051.843667878267
 20
1260.936877159412
 30
0
  0
VERTEX
  8
0
 10
4046.838125596567
 20
1260.953940387212
 30
0
  0
SEQEND
  8
0
  0
POLYLINE
  8
0
 62
3
 66
1
  0
VERTEX
  8
0
 10
4046.838125596567
 20
1260.148730553112
 30
0
  0
VERTEX
  8
0
 10
4051.044255310867
 20
1260.078705318312
 30
0
  0
VERTEX
  8
0
 10
4056.750384805067
 20
1259.983644104112
 30
0
  0
VERTEX
  8
0
 10
4062.838125596567
 20
1259.882114393712
 30
0
  0
SEQEND
  8
0
  0
POLYLINE
  8
0
 62
3
 66
1
  0
VERTEX
  8
0
 10
4062.838125596567
 20
1259.571386369712
 30
0
  0
VERTEX
  8
0
 10
4057.340869980467
 20
1259.604871264112
 30
0
  0
VERTEX
  8
0
 10
4051.843667878267
 20
1259.638429854412
 30
0
  0
VERTEX
  8
0
 10
4046.838125596567
 20
1259.669152215712
 30
0
  0
SEQEND
  8
0
  0
POLYLINE
  8
0
 62
3
 66
1
  0
VERTEX
  8
0
 10
4046.838125596567
 20
1259.016272502512
 30
0
  0
VERTEX
  8
0
 10
4051.044255310867
 20
1258.944672300712
 30
0
  0
VERTEX
  8
0
 10
4056.750384805067
 20
1258.847487484612
 30
0
  0
VERTEX
  8
0
 10
4062.838125596567
 20
1258.743714902112
 30
0
  0
SEQEND
  8
0
  0
POLYLINE
  8
0
 62
3
 66
1
  0
VERTEX
  8
0
 10
4062.838125596567
 20
1258.497771757712
 30
0
  0
VERTEX
  8
0
 10
4057.340869980467
 20
1258.545822125512
 30
0
  0
VERTEX
  8
0
 10
4051.843667878267
 20
1258.594069952612
 30
0
  0
VERTEX
  8
0
 10
4046.838125596567
 20
1258.638257210712
 30
0
  0
SEQEND
  8
0
  0
POLYLINE
  8
0
 62
3
 66
1
  0
VERTEX
  8
0
 10
4046.838125596567
 20
1258.141835334212
 30
0
  0
VERTEX
  8
0
 10
4051.044255310867
 20
1258.069112844912
 30
0
  0
VERTEX
  8
0
 10
4056.750384805067
 20
1257.970418860712
 30
0
  0
VERTEX
  8
0
 10
4062.838125596567
 20
1257.865059489712
 30
0
  0
SEQEND
  8
0
  0
POLYLINE
  8
0
 62
3
 66
1
  0
VERTEX
  8
0
 10
4062.838125596567
 20
1257.685456156712
 30
0
  0
VERTEX
  8
0
 10
4057.340869980467
 20
1257.747768208012
 30
0
  0
VERTEX
  8
0
 10
4051.843667878267
 20
1257.810400233612
 30
0
  0
VERTEX
  8
0
 10
4046.838125596567
 20
1257.867773022512
 30
0
  0
SEQEND
  8
0
  0
POLYLINE
  8
0
 62
3
 66
1
  0
VERTEX
  8
0
 10
4046.838125596567
 20
1257.530947521512
 30
0
  0
VERTEX
  8
0
 10
4051.044255310867
 20
1257.457562519712
 30
0
  0
VERTEX
  8
0
 10
4056.750384805067
 20
1257.357983342512
 30
0
  0
VERTEX
  8
0
 10
4062.838125596567
 20
1257.251703299012
 30
0
  0
SEQEND
  8
0
  0
POLYLINE
  8
0
 62
3
 66
1
  0
VERTEX
  8
0
 10
4062.838125596567
 20
1257.139575287412
 30
0
  0
VERTEX
  8
0
 10
4057.340869980467
 20
1257.215755065312
 30
0
  0
VERTEX
  8
0
 10
4051.843667878267
 20
1257.292375309612
 30
0
  0
VERTEX
  8
0
 10
4046.838125596567
 20
1257.362570900012
 30
0
  0
SEQEND
  8
0
  0
POLYLINE
  8
0
 62
3
 66
1
  0
VERTEX
  8
0
 10
4046.838125596567
 20
1257.187471293912
 30
0
  0
VERTEX
  8
0
 10
4051.044255310867
 20
1257.113887743312
 30
0
  0
VERTEX
  8
0
 10
4056.750384805067
 20
1257.014052944612
 30
0
  0
VERTEX
  8
0
 10
4062.838125596567
 20
1256.907524165212
 30
0
  0
SEQEND
  8
0
  0
POLYLINE
  8
0
 62
3
 66
1
  0
VERTEX
  8
0
 10
4062.838125596567
 20
1256.863580384512
 30
0
  0
VERTEX
  8
0
 10
4057.340869980467
 20
1256.953146255912
 30
0
  0
VERTEX
  8
0
 10
4051.843667878267
 20
1257.043270301012
 30
0
  0
VERTEX
  8
0
 10
4046.838125596567
 20
1257.125844893912
 30
0
  0
SEQEND
  8
0
  0
POLYLINE
  8
0
 62
3
 66
1
  0
VERTEX
  8
0
 10
4046.838125596567
 20
1257.113578218712
 30
0
  0
VERTEX
  8
0
 10
4051.044255310867
 20
1257.040261338012
 30
0
  0
VERTEX
  8
0
 10
4056.750384805067
 20
1256.940802105712
 30
0
  0
VERTEX
  8
0
 10
4062.838125596567
 20
1256.834698099612
 30
0
  0
SEQEND
  8
0
  0
POLYLINE
  8
0
 62
3
 66
1
  0
VERTEX
  8
0
 10
4061.838125596567
 20
1317.460791219512
 30
0
  0
VERTEX
  8
0
 10
4061.847732956367
 20
1317.482903220112
 30
0
  0
VERTEX
  8
0
 10
4061.876185830267
 20
1317.504165468912
 30
0
  0
VERTEX
  8
0
 10
4061.922390790367
 20
1317.523760869612
 30
0
  0
VERTEX
  8
0
 10
4061.984572205967
 20
1317.540936382012
 30
0
  0
VERTEX
  8
0
 10
4062.060340480067
 20
1317.555031960712
 30
0
  0
VERTEX
  8
0
 10
4062.146783880367
 20
1317.565505920612
 30
0
  0
VERTEX
  8
0
 10
4062.240580435567
 20
1317.571955753312
 30
0
  0
VERTEX
  8
0
 10
4062.338125596567
 20
1317.574133595212
 30
0
  0
SEQEND
  8
0
  0
POLYLINE
  8
0
 62
3
 66
1
  0
VERTEX
  8
0
 10
4316.56675694883
 20
1242.53121697734
 30
0
  0
VERTEX
  8
0
 10
4316.671551878929
 20
1242.65684299014
 30
0
  0
VERTEX
  8
0
 10
4317.080089598429
 20
1242.59550994284
 30
0
  0
VERTEX
  8
0
 10
4317.900776858528
 20
1242.08628937504
 30
0
  0
VERTEX
  8
0
 10
4318.060203838329
 20
1241.94794990654
 30
0
  0
VERTEX
  8
0
 10
4318.06675694883
 20
1241.94198883074
 30
0
  0
SEQEND
  8
0
  0
LINE
  8
1
 62
2
 10
4082.107117723058
 20
1305.027367462512
 30
0
 11
4082.107117723058
 21
1323.016898745817
 31
0
  0
LINE
  8
1
 62
2
 10
4082.107117723058
 20
1294.827367462512
 30
0
 11
4082.107117723058
 21
1305.027367462512
 31
0
  0
LINE
  8
1
 62
2
 10
4082.107117723058
 20
1285.227367462512
 30
0
 11
4082.107117723058
 21
1294.827367462512
 31
0
  0
LINE
  8
1
 62
2
 10
4070.838125596567
 20
1305.027367462512
 30
0
 11
4083.607117723058
 21
1305.027367462512
 31
0
  0
LINE
  8
1
 62
2
 10
4047.338125596567
 20
1294.827367462512
 30
0
 11
4083.607117723058
 21
1294.827367462512
 31
0
  0
LINE
  8
1
 62
2
 10
4265.888194869342
 20
1229.627367462512
 30
0
 11
4265.888194869342
 21
1219.75520599515
 31
0
  0
LINE
  8
1
 62
2
 10
4265.888194869342
 20
1229.627367462512
 30
0
 11
4265.888194869342
 21
1236.827367462512
 31
0
  0
LINE
  8
1
 62
2
 10
4265.888194869342
 20
1246.427367462512
 30
0
 11
4265.888194869342
 21
1236.827367462512
 31
0
  0
LINE
  8
1
 62
2
 10
4191.631706654817
 20
1229.627367462512
 30
0
 11
4267.388194869342
 21
1229.627367462512
 31
0
  0
LINE
  8
1
 62
2
 10
4265.888194869342
 20
1236.827367462512
 30
0
 11
4265.888194869342
 21
1299.827367462512
 31
0
  0
LINE
  8
1
 62
2
 10
4256.011050440351
 20
1299.827367462512
 30
0
 11
4267.388194869342
 21
1299.827367462512
 31
0
  0
LINE
  8
1
 62
2
 10
4285.888194869342
 20
1229.627367462512
 30
0
 11
4285.888194869342
 21
1356.927367462512
 31
0
  0
LINE
  8
1
 62
2
 10
4191.288682754617
 20
1356.927367462512
 30
0
 11
4287.388194869342
 21
1356.927367462512
 31
0
  0
LINE
  8
1
 62
2
 10
4191.631706654817
 20
1229.627367462512
 30
0
 11
4287.388194869342
 21
1229.627367462512
 31
0
  0
LINE
  8
1
 62
2
 10
4256.945134968311
 20
1373.00213364548
 30
0
 11
4239.095185964207
 21
1343.383570389685
 31
0
  0
LINE
  8
1
 62
3
 10
4044.838125596567
 20
1294.827367462512
 30
0
 11
4067.338125596567
 21
1294.827367462512
 31
0
  0
LINE
  8
1
 62
3
 10
4041.838125596567
 20
1235.227367462512
 30
0
 11
4041.838125596567
 21
1291.827367462512
 31
0
  0
LINE
  8
1
 62
3
 10
4046.338125596567
 20
1232.227367462512
 30
0
 11
4044.838125596567
 21
1232.227367462512
 31
0
  0
LINE
  8
1
 62
2
 10
4256.945134968311
 20
1373.00213364548
 30
0
 11
4281.62252584546
 21
1373.00213364548
 31
0
  0
LINE
  8
1
 62
1
 10
4187.288682754617
 20
1219.914461176239
 30
0
 11
4187.288682754617
 21
1371.627367462512
 31
0
  0
LINE
  8
1
 62
1
 10
4137.888682754618
 20
1316.327367462512
 30
0
 11
4127.888682754618
 21
1316.327367462512
 31
0
  0
LINE
  8
1
 62
1
  6
CENTER
 10
4132.888682754618
 20
1311.327367462512
 30
0
 11
4132.888682754618
 21
1321.327367462512
 31
0
  0
LINE
  8
1
 62
1
 10
4237.688682754617
 20
1336.627367462512
 30
0
 11
4237.688682754617
 21
1346.627367462512
 31
0
  0
LINE
  8
1
 62
1
 10
4242.688682754617
 20
1341.627367462512
 30
0
 11
4232.688682754617
 21
1341.627367462512
 31
0
  0
LINE
  8
1
 62
3
 10
4200.636956019473
 20
1285.47523867105
 30
0
 11
4199.285129990314
 21
1287.086282197861
 31
0
  0
LINE
  8
1
 62
3
 10
4199.104867133236
 20
1284.189663451677
 30
0
 11
4197.753041104077
 21
1285.800706978488
 31
0
  0
LINE
  8
1
 62
3
 10
4206.739423874171
 20
1297.413103620244
 30
0
 11
4204.668306238771
 21
1297.778297539586
 31
0
  0
LINE
  8
1
 62
3
 10
4206.392127518837
 20
1295.44348811422
 30
0
 11
4204.321009883437
 21
1295.808682033562
 31
0
  0
LINE
  8
1
 62
3
 10
4203.740673788121
 20
1310.48062945279
 30
0
 11
4201.919363505991
 21
1309.429095471124
 31
0
  0
LINE
  8
1
 62
3
 10
4204.740673788121
 20
1308.748578645221
 30
0
 11
4202.919363505991
 21
1307.697044663556
 31
0
  0
LINE
  8
1
 62
3
 10
4193.043854253982
 20
1318.563375602266
 30
0
 11
4192.324562647739
 21
1316.587138156111
 31
0
  0
LINE
  8
1
 62
3
 10
4194.923239495553
 20
1317.879335315614
 30
0
 11
4194.203947889311
 21
1315.903097869461
 31
0
  0
LINE
  8
1
 62
3
 10
4179.654126013682
 20
1317.879335315616
 30
0
 11
4180.373417619924
 21
1315.90309786946
 31
0
  0
LINE
  8
1
 62
3
 10
4181.533511255253
 20
1318.563375602266
 30
0
 11
4182.252802861496
 21
1316.587138156112
 31
0
  0
LINE
  8
1
 62
3
 10
4169.836691721113
 20
1308.748578645223
 30
0
 11
4171.658002003243
 21
1307.697044663556
 31
0
  0
LINE
  8
1
 62
3
 10
4170.836691721113
 20
1310.480629452791
 30
0
 11
4172.658002003243
 21
1309.429095471125
 31
0
  0
LINE
  8
1
 62
3
 10
4168.185237990395
 20
1295.443488114222
 30
0
 11
4170.256355625797
 21
1295.808682033562
 31
0
  0
LINE
  8
1
 62
3
 10
4167.837941635062
 20
1297.413103620245
 30
0
 11
4169.909059270463
 21
1297.778297539588
 31
0
  0
LINE
  8
1
 62
3
 10
4175.472498375996
 20
1284.189663451678
 30
0
 11
4176.824324405156
 21
1285.800706978489
 31
0
  0
LINE
  8
1
 62
3
 10
4173.940409489759
 20
1285.47523867105
 30
0
 11
4175.292235518919
 21
1287.086282197862
 31
0
  0
LINE
  8
1
 62
3
 10
4188.288682754616
 20
1280.252894289525
 30
0
 11
4188.288682754616
 21
1282.355962252856
 31
0
  0
LINE
  8
1
 62
3
 10
4186.288682754616
 20
1280.252894289525
 30
0
 11
4186.288682754616
 21
1282.355962252856
 31
0
  0
LINE
  8
0
 62
3
 10
4146.721723414045
 20
1332.032509791826
 30
0
 11
4145.664200208117
 21
1332.618704477012
 31
0
  0
LINE
  8
0
 62
3
 10
4164.774575058262
 20
1349.02294587964
 30
0
 11
4164.174547632118
 21
1350.062223867712
 31
0
  0
LINE
  8
0
 62
3
 10
4162.331760811292
 20
1347.554024268799
 30
0
 11
4161.881307432017
 21
1348.334232408112
 31
0
  0
LINE
  8
0
 62
3
 10
4243.910167386797
 20
1269.73501427955
 30
0
 11
4244.606657409317
 21
1269.332895577512
 31
0
  0
LINE
  8
0
 62
3
 10
4240.540164759497
 20
1263.193637246478
 30
0
 11
4241.579424408918
 21
1262.593620408112
 31
0
  0
LINE
  8
0
 62
3
 10
4222.381495618308
 20
1243.155102908047
 30
0
 11
4223.267383558017
 21
1242.047742983412
 31
0
  0
LINE
  8
0
 62
3
 10
4225.095207239418
 20
1285.249784475012
 30
0
 11
4220.918195221017
 21
1286.979959503212
 31
0
  0
LINE
  8
0
 62
3
 10
4164.687537121818
 20
1348.973700007812
 30
0
 11
4163.337498640517
 21
1351.312035249512
 31
0
  0
LINE
  8
0
 62
3
 10
4224.329840374718
 20
1316.252709515012
 30
0
 11
4220.152828356217
 21
1314.522534486812
 31
0
  0
LINE
  8
0
 62
3
 10
4240.590754197217
 20
1263.279899474812
 30
0
 11
4242.842459943917
 21
1261.979876555812
 31
0
  0
LINE
  8
0
 62
3
 10
4201.866265742117
 20
1337.633891947312
 30
0
 11
4200.136090713916
 21
1333.456879928912
 31
0
  0
LINE
  8
0
 62
3
 10
4241.813094344518
 20
1265.460932407712
 30
0
 11
4244.065842856217
 21
1264.160307448112
 31
0
  0
LINE
  8
0
 62
3
 10
4226.801720970418
 20
1242.832359660712
 30
0
 11
4228.242794462817
 21
1241.031017795312
 31
0
  0
LINE
  8
0
 62
3
 10
4235.661048152517
 20
1246.965620747012
 30
0
 11
4233.516447098417
 21
1249.646372064612
 31
0
  0
LINE
  8
0
 62
3
 10
4227.795956414816
 20
1300.827367462512
 30
0
 11
4223.274791185516
 21
1300.827367462512
 31
0
  0
LINE
  8
0
 62
3
 10
4223.274791185516
 20
1298.827367462512
 30
0
 11
4227.795956414816
 21
1298.827367462512
 31
0
  0
LINE
  8
0
 62
3
 10
4172.593515730317
 20
1266.963221860812
 30
0
 11
4170.863340702017
 21
1262.786209842412
 31
0
  0
LINE
  8
0
 62
3
 10
4159.352821643316
 20
1270.477292788812
 30
0
 11
4162.549768235817
 21
1273.674239381312
 31
0
  0
LINE
  8
0
 62
3
 10
4161.135554673418
 20
1275.088452943712
 30
0
 11
4157.938608080917
 21
1271.891506351212
 31
0
  0
LINE
  8
0
 62
3
 10
4150.247525134517
 20
1283.402025409912
 30
0
 11
4154.424537152917
 21
1285.132200438212
 31
0
  0
LINE
  8
0
 62
3
 10
4153.659170288217
 20
1286.979959503212
 30
0
 11
4149.482158269717
 21
1285.249784475012
 31
0
  0
LINE
  8
0
 62
3
 10
4146.781409094418
 20
1298.827367462512
 30
0
 11
4151.302574323717
 21
1298.827367462512
 31
0
  0
LINE
  8
0
 62
3
 10
4151.302574323717
 20
1300.827367462512
 30
0
 11
4146.781409094418
 21
1300.827367462512
 31
0
  0
LINE
  8
0
 62
3
 10
4149.482158269717
 20
1314.404950450012
 30
0
 11
4153.659170288217
 21
1312.674775421812
 31
0
  0
LINE
  8
0
 62
3
 10
4154.424537152917
 20
1314.522534486812
 30
0
 11
4150.247525134517
 21
1316.252709515012
 31
0
  0
LINE
  8
0
 62
3
 10
4157.938608080917
 20
1327.763228573812
 30
0
 11
4161.135554673418
 21
1324.566281981312
 31
0
  0
LINE
  8
0
 62
3
 10
4162.549768235817
 20
1325.980495543712
 30
0
 11
4159.352821643316
 21
1329.177442136212
 31
0
  0
LINE
  8
0
 62
3
 10
4170.863340702017
 20
1336.868525082612
 30
0
 11
4172.593515730317
 21
1332.691513064212
 31
0
  0
LINE
  8
0
 62
3
 10
4174.441274795317
 20
1333.456879928912
 30
0
 11
4172.711099767117
 21
1337.633891947312
 31
0
  0
LINE
  8
0
 62
3
 10
4186.288682754617
 20
1340.334641122712
 30
0
 11
4186.288682754617
 21
1335.813475893412
 31
0
  0
LINE
  8
0
 62
3
 10
4188.288682754617
 20
1335.813475893412
 30
0
 11
4188.288682754617
 21
1340.334641122712
 31
0
  0
LINE
  8
0
 62
3
 10
4201.983849778917
 20
1332.691513064212
 30
0
 11
4203.714024807117
 21
1336.868525082612
 31
0
  0
LINE
  8
0
 62
3
 10
4215.224543865917
 20
1329.177442136212
 30
0
 11
4212.027597273417
 21
1325.980495543712
 31
0
  0
LINE
  8
0
 62
3
 10
4213.441810835817
 20
1324.566281981312
 30
0
 11
4216.638757428317
 21
1327.763228573812
 31
0
  0
LINE
  8
0
 62
3
 10
4220.918195221017
 20
1312.674775421812
 30
0
 11
4225.095207239418
 21
1314.404950450012
 31
0
  0
LINE
  8
0
 62
3
 10
4220.152828356217
 20
1285.132200438212
 30
0
 11
4224.329840374718
 21
1283.402025409912
 31
0
  0
LINE
  8
0
 62
3
 10
4216.638757428317
 20
1271.891506351212
 30
0
 11
4213.441810835817
 21
1275.088452943712
 31
0
  0
LINE
  8
0
 62
3
 10
4212.027597273417
 20
1273.674239381312
 30
0
 11
4215.224543865917
 21
1270.477292788812
 31
0
  0
LINE
  8
0
 62
3
 10
4203.714024807117
 20
1262.786209842412
 30
0
 11
4201.983849778917
 21
1266.963221860812
 31
0
  0
LINE
  8
0
 62
3
 10
4172.711099767117
 20
1262.020842977612
 30
0
 11
4174.441274795317
 21
1266.197854996112
 31
0
  0
LINE
  8
0
 62
3
 10
4186.288682754617
 20
1263.841259031612
 30
0
 11
4186.288682754617
 21
1259.320093802312
 31
0
  0
LINE
  8
0
 62
3
 10
4188.288682754617
 20
1259.320093802312
 30
0
 11
4188.288682754617
 21
1263.841259031612
 31
0
  0
LINE
  8
0
 62
3
 10
4200.136090713917
 20
1266.197854996112
 30
0
 11
4201.866265742117
 21
1262.020842977612
 31
0
  0
LINE
  8
0
 62
3
 10
4130.621457185017
 20
1326.779442651712
 30
0
 11
4139.112534540617
 21
1322.072761616912
 31
0
  0
LINE
  8
0
 62
3
 10
4141.791809380017
 20
1329.505777051512
 30
0
 11
4134.402972222917
 21
1333.601476367412
 31
0
  0
LINE
  8
0
 62
3
 10
4155.101623844417
 20
1345.576988841112
 30
0
 11
4156.474118113118
 21
1343.199759034612
 31
0
  0
LINE
  8
0
 62
3
 10
4157.073241401618
 20
1347.162047058912
 30
0
 11
4158.435405197517
 21
1344.802710156212
 31
0
  0
LINE
  8
0
 62
3
 10
4162.542907998317
 20
1347.688306613112
 30
0
 11
4161.191858230917
 21
1350.028393453712
 31
0
  0
LINE
  8
0
 62
3
 10
4247.262527153017
 20
1270.974954946612
 30
0
 11
4244.987876394117
 21
1272.288225174612
 31
0
  0
LINE
  8
0
 62
3
 10
4246.276453901717
 20
1268.657513257712
 30
0
 11
4244.012304248117
 21
1269.964720669712
 31
0
  0
LINE
  8
0
 62
3
 10
4190.566044914017
 20
1230.827367462512
 30
0
 11
4125.288682754617
 21
1230.827367462512
 31
0
  0
LINE
  8
0
 62
3
 10
4146.199785314517
 20
1333.420933022012
 30
0
 11
4141.397452655518
 21
1338.223265681012
 31
0
  0
LINE
  8
0
 62
3
 10
4141.397452655518
 20
1339.637479243312
 30
0
 11
4142.910661167305
 21
1341.150687755099
 31
0
  0
LINE
  8
0
 62
3
 10
4148.680652501817
 20
1345.506465527212
 30
0
 11
4151.574765051517
 21
1342.612352977512
 31
0
  0
LINE
  8
0
 62
3
 10
4151.574765051517
 20
1341.339560771412
 30
0
 11
4151.504054373318
 21
1341.268850093212
 31
0
  0
LINE
  8
0
 62
3
 10
4150.796947592217
 20
1341.268850093212
 30
0
 11
4148.327099111217
 21
1343.738698574212
 31
0
  0
LINE
  8
0
 62
3
 10
4147.619992330017
 20
1343.738698574212
 30
0
 11
4146.262347310149
 21
1342.381053554344
 31
0
  0
LINE
  8
0
 62
3
 10
4143.377351642917
 20
1338.788951105912
 30
0
 11
4147.244874805117
 21
1334.921427943712
 31
0
  0
LINE
  8
0
 62
3
 10
4161.030491962517
 20
1349.807888029212
 30
0
 11
4161.881307432017
 21
1348.334232408112
 31
0
  0
LINE
  8
0
 62
3
 10
4158.181062677617
 20
1345.743244323212
 30
0
 11
4157.324050614318
 21
1347.227632759612
 31
0
  0
LINE
  8
0
 62
3
 10
4158.181062677617
 20
1345.743244323212
 30
0
 11
4158.634963331119
 21
1344.957065329849
 31
0
  0
LINE
  8
0
 62
3
 10
4130.378969259718
 20
1329.806963624212
 30
0
 11
4127.531857742517
 21
1317.574133595312
 31
0
  0
LINE
  8
0
 62
3
 10
4140.496327182017
 20
1331.481564034612
 30
0
 11
4137.672858281017
 21
1333.046638402912
 31
0
  0
LINE
  8
0
 62
3
 10
4227.535986814817
 20
1240.713941560712
 30
0
 11
4230.346242179817
 21
1237.201122354512
 31
0
  0
LINE
  8
0
 62
3
 10
4238.935799083717
 20
1244.072767877612
 30
0
 11
4235.287585210217
 21
1248.633035219412
 31
0
  0
LINE
  8
0
 62
3
 10
4244.606657409317
 20
1269.332895577512
 30
0
 11
4246.086413596617
 21
1268.478557944512
 31
0
  0
LINE
  8
0
 62
3
 10
4244.097210910717
 20
1264.430872228012
 30
0
 11
4242.624090372818
 21
1265.281378767112
 31
0
  0
LINE
  8
0
 62
3
 10
4125.288682754617
 20
1303.727367462512
 30
0
 11
4125.288682754617
 21
1229.627367462512
 31
0
  0
LINE
  8
0
 62
3
 10
4242.624090372818
 20
1265.281378767112
 30
0
 11
4241.930841619366
 21
1265.681626121495
 31
0
  0
LINE
  8
0
 62
3
 10
4155.786467183717
 20
1344.190805382312
 30
0
 11
4156.396975340216
 21
1343.133374236752
 31
0
  0
LINE
  8
0
 62
3
 10
4230.346242179817
 20
1237.201122354512
 30
0
 11
4233.393904302617
 21
1233.391544701012
 31
0
  0
LINE
  8
0
 62
3
 10
4241.983461206517
 20
1240.263190224112
 30
0
 11
4238.935799083717
 21
1244.072767877612
 31
0
  0
LINE
  8
0
 62
3
 10
4234.177592693517
 20
1345.860834904612
 30
0
 11
4232.358732590117
 21
1344.352335850612
 31
0
  0
LINE
  8
0
 62
3
 10
4240.438661480517
 20
1336.762660857612
 30
0
 11
4241.199772815617
 21
1337.393900020512
 31
0
  0
LINE
  8
0
 62
3
 10
4246.075450263017
 20
1271.775784162512
 30
0
 11
4245.025157859598
 21
1272.382170764344
 31
0
  0
LINE
  8
0
 62
3
 10
4190.631706654817
 20
1229.627367462512
 30
0
 11
4125.288682754617
 21
1229.627367462512
 31
0
  0
LINE
  8
0
 62
3
 10
4234.923326000617
 20
1253.090311879912
 30
0
 11
4234.115379041961
 21
1254.100245578232
 31
0
  0
LINE
  8
0
 62
3
 10
4135.966403715517
 20
1310.827367462512
 30
0
 11
4132.888682754618
 21
1310.827367462512
 31
0
  0
LINE
  8
0
 62
3
 10
4125.288682754617
 20
1305.027367462512
 30
0
 11
4135.709291039417
 21
1305.027367462512
 31
0
  0
LINE
  8
0
 62
3
 10
4125.288682754617
 20
1303.727367462512
 30
0
 11
4125.288682754617
 21
1305.027367462512
 31
0
  0
LINE
  8
0
 62
3
 10
4135.709291039417
 20
1303.727367462512
 30
0
 11
4125.288682754617
 21
1303.727367462512
 31
0
  0
LINE
  8
0
 62
3
 10
4134.986796699217
 20
1321.411452225312
 30
0
 11
4139.113806109517
 21
1319.708306743512
 31
0
  0
LINE
  8
1
 62
1
 10
4255.011050440351
 20
1299.827367462512
 30
0
 11
4121.948240072501
 21
1299.827367462512
 31
0
  0
LINE
  8
1
 62
3
 10
4136.288682754617
 20
1235.827367462513
 30
0
 11
4136.288682754617
 21
1241.827367462511
 31
0
  0
LINE
  8
1
 62
3
 10
4136.288682754617
 20
1241.827367462511
 30
0
 11
4166.288682754617
 21
1241.827367462511
 31
0
  0
LINE
  8
1
 62
3
 10
4166.288682754617
 20
1241.827367462511
 30
0
 11
4166.288682754617
 21
1235.827367462513
 31
0
  0
LINE
  8
1
 62
3
 10
4166.288682754617
 20
1235.827367462513
 30
0
 11
4136.288682754617
 21
1235.827367462513
 31
0
  0
LINE
  8
1
 62
3
 10
4131.288682754617
 20
1250.827367462513
 30
0
 11
4132.288682754617
 21
1250.827367462513
 31
0
  0
LINE
  8
1
 62
3
 10
4132.288682754617
 20
1250.827367462513
 30
0
 11
4132.288682754617
 21
1235.827367462513
 31
0
  0
LINE
  8
1
 62
3
 10
4132.288682754617
 20
1235.827367462513
 30
0
 11
4131.288682754617
 21
1235.827367462513
 31
0
  0
LINE
  8
1
 62
3
 10
4131.288682754617
 20
1235.827367462513
 30
0
 11
4131.288682754617
 21
1230.827367462513
 31
0
  0
LINE
  8
1
 62
3
 10
4131.288682754617
 20
1291.970534132042
 30
0
 11
4131.288682754617
 21
1250.827367462513
 31
0
  0
LINE
  8
1
 62
3
 10
4125.288682754617
 20
1296.035232584556
 30
0
 11
4131.288682754617
 21
1291.970534132042
 31
0
  0
LINE
  8
1
 62
3
 10
4067.338125596567
 20
1232.227367462512
 30
0
 11
4067.338125596567
 21
1294.827367462512
 31
0
  0
LINE
  8
0
 62
3
 10
4045.338125596567
 20
1257.153452874712
 30
0
 11
4045.338125596567
 21
1286.755794587212
 31
0
  0
LINE
  8
0
 62
3
 10
4045.338125596567
 20
1257.132831098712
 30
0
 11
4045.338125596567
 21
1257.153452874712
 31
0
  0
LINE
  8
0
 62
3
 10
4046.838125596567
 20
1286.540438999512
 30
0
 11
4046.838125596567
 21
1286.927367462512
 31
0
  0
LINE
  8
0
 62
3
 10
4046.838125596567
 20
1283.356610374512
 30
0
 11
4046.838125596567
 21
1285.266562822712
 31
0
  0
LINE
  8
0
 62
3
 10
4046.838125596567
 20
1280.276915178912
 30
0
 11
4046.838125596567
 21
1282.121658327312
 31
0
  0
LINE
  8
0
 62
3
 10
4046.838125596567
 20
1277.320824237312
 30
0
 11
4046.838125596567
 21
1279.088695025712
 31
0
  0
LINE
  8
0
 62
3
 10
4046.838125596567
 20
1274.507026908412
 30
0
 11
4046.838125596567
 21
1276.186848288512
 31
0
  0
LINE
  8
0
 62
3
 10
4046.838125596567
 20
1271.853312924912
 30
0
 11
4046.838125596567
 21
1273.434464525112
 31
0
  0
LINE
  8
0
 62
3
 10
4046.838125596567
 20
1269.376459921012
 30
0
 11
4046.838125596567
 21
1270.848945191712
 31
0
  0
LINE
  8
0
 62
3
 10
4046.838125596567
 20
1267.092127358912
 30
0
 11
4046.838125596567
 21
1268.446636774212
 31
0
  0
LINE
  8
0
 62
3
 10
4046.838125596567
 20
1265.014757524512
 30
0
 11
4046.838125596567
 21
1266.242727439812
 31
0
  0
LINE
  8
0
 62
3
 10
4046.838125596567
 20
1263.157484218812
 30
0
 11
4046.838125596567
 21
1264.251151012812
 31
0
  0
LINE
  8
0
 62
3
 10
4046.838125596567
 20
1261.532049721612
 30
0
 11
4046.838125596567
 21
1262.484498880812
 31
0
  0
LINE
  8
0
 62
3
 10
4046.838125596567
 20
1260.148730553112
 30
0
 11
4046.838125596567
 21
1260.953940387212
 31
0
  0
LINE
  8
0
 62
3
 10
4046.838125596567
 20
1259.016272502512
 30
0
 11
4046.838125596567
 21
1259.669152215712
 31
0
  0
LINE
  8
0
 62
3
 10
4046.838125596567
 20
1258.141835334212
 30
0
 11
4046.838125596567
 21
1258.638257210712
 31
0
  0
LINE
  8
0
 62
3
 10
4046.838125596567
 20
1257.530947521512
 30
0
 11
4046.838125596567
 21
1257.867773022512
 31
0
  0
LINE
  8
0
 62
3
 10
4046.838125596567
 20
1257.187471293912
 30
0
 11
4046.838125596567
 21
1257.362570900012
 31
0
  0
LINE
  8
0
 62
3
 10
4046.838125596567
 20
1257.106648501312
 30
0
 11
4046.838125596567
 21
1257.125844893912
 31
0
  0
LINE
  8
0
 62
3
 10
4065.338125596567
 20
1286.888607047212
 30
0
 11
4065.338125596567
 21
1255.327367462512
 31
0
  0
LINE
  8
0
 62
3
 10
4062.838125596567
 20
1286.914359438712
 30
0
 11
4062.838125596567
 21
1255.327367462512
 31
0
  0
LINE
  8
0
 62
3
 10
4061.538125596567
 20
1349.807888029112
 30
0
 11
4061.538125596567
 21
1347.227632759612
 31
0
  0
LINE
  8
0
 62
3
 10
4062.038125596567
 20
1349.807888029112
 30
0
 11
4061.538125596567
 21
1349.807888029112
 31
0
  0
LINE
  8
0
 62
3
 10
4062.038125596567
 20
1347.227632759612
 30
0
 11
4062.038125596567
 21
1349.807888029112
 31
0
  0
LINE
  8
0
 62
3
 10
4062.038125596567
 20
1349.807888029112
 30
0
 11
4063.038125596567
 21
1348.334232408112
 31
0
  0
LINE
  8
0
 62
3
 10
4063.038125596567
 20
1348.334232408112
 30
0
 11
4063.038125596567
 21
1347.074701925412
 31
0
  0
LINE
  8
0
 62
3
 10
4062.038125596567
 20
1347.227632759612
 30
0
 11
4061.538125596567
 21
1347.227632759612
 31
0
  0
LINE
  8
0
 62
3
 10
4062.141151752267
 20
1347.074701925412
 30
0
 11
4062.038125596567
 21
1347.227632759612
 31
0
  0
LINE
  8
0
 62
3
 10
4068.338125596567
 20
1347.074701925412
 30
0
 11
4068.338125596567
 21
1347.601633085612
 31
0
  0
LINE
  8
0
 62
3
 10
4059.838125596567
 20
1344.869697424712
 30
0
 11
4059.738125596567
 21
1344.869697424712
 31
0
  0
LINE
  8
0
 62
3
 10
4059.838125596567
 20
1348.936339281312
 30
0
 11
4059.738125596567
 21
1348.936339281312
 31
0
  0
LINE
  8
0
 62
3
 10
4038.838125596567
 20
1340.335614561412
 30
0
 11
4038.838125596567
 21
1334.921427943712
 31
0
  0
LINE
  8
0
 62
3
 10
4046.028724519767
 20
1345.506465527112
 30
0
 11
4046.028724519767
 21
1345.799358746012
 31
0
  0
LINE
  8
0
 62
3
 10
4041.028724519767
 20
1345.506465527112
 30
0
 11
4041.028724519767
 21
1345.799358746012
 31
0
  0
LINE
  8
0
 62
3
 10
4046.028724519767
 20
1339.637479243312
 30
0
 11
4046.028724519767
 21
1345.506465527112
 31
0
  0
LINE
  8
0
 62
3
 10
4041.028724519767
 20
1339.637479243312
 30
0
 11
4041.028724519767
 21
1345.506465527112
 31
0
  0
LINE
  8
0
 62
3
 10
4046.028724519767
 20
1333.420933021912
 30
0
 11
4046.028724519767
 21
1338.223265680912
 31
0
  0
LINE
  8
0
 62
3
 10
4041.028724519767
 20
1333.420933021912
 30
0
 11
4041.028724519767
 21
1338.223265680912
 31
0
  0
LINE
  8
0
 62
3
 10
4046.028724519767
 20
1338.223265680912
 30
0
 11
4046.028724519767
 21
1339.637479243312
 31
0
  0
LINE
  8
0
 62
3
 10
4041.028724519767
 20
1338.223265680912
 30
0
 11
4041.028724519767
 21
1339.637479243312
 31
0
  0
LINE
  8
0
 62
3
 10
4041.028724519767
 20
1339.637479243312
 30
0
 11
4046.028724519767
 21
1339.637479243312
 31
0
  0
LINE
  8
0
 62
3
 10
4041.028724519767
 20
1338.223265680912
 30
0
 11
4046.028724519767
 21
1338.223265680912
 31
0
  0
LINE
  8
0
 62
3
 10
4060.838125596567
 20
1330.480042863112
 30
0
 11
4060.838125596567
 21
1331.111619307512
 31
0
  0
LINE
  8
0
 62
3
 10
4069.838125596567
 20
1305.027367462512
 30
0
 11
4069.838125596567
 21
1309.176268561412
 31
0
  0
LINE
  8
0
 62
3
 10
4038.838125596567
 20
1340.335614561412
 30
0
 11
4038.838125596567
 21
1356.427367462512
 31
0
  0
LINE
  8
0
 62
3
 10
4038.838125596567
 20
1305.027367462512
 30
0
 11
4038.838125596567
 21
1334.921427943712
 31
0
  0
LINE
  8
0
 62
3
 10
4059.838125596567
 20
1346.005252442912
 30
0
 11
4059.738125596567
 21
1346.005252442912
 31
0
  0
LINE
  8
0
 62
3
 10
4059.738125596567
 20
1346.005252442912
 30
0
 11
4059.738125596567
 21
1344.190805382212
 31
0
  0
LINE
  8
0
 62
3
 10
4069.838125596567
 20
1344.190805382212
 30
0
 11
4059.738125596567
 21
1344.190805382212
 31
0
  0
LINE
  8
0
 62
3
 10
4069.838125596567
 20
1333.601476367412
 30
0
 11
4069.838125596567
 21
1344.190805382212
 31
0
  0
LINE
  8
0
 62
3
 10
4038.838125596567
 20
1334.921427943712
 30
0
 11
4041.028724519767
 21
1334.921427943712
 31
0
  0
LINE
  8
0
 62
3
 10
4046.028724519767
 20
1333.420933021912
 30
0
 11
4041.028724519767
 21
1333.420933021912
 31
0
  0
LINE
  8
0
 62
3
 10
4038.838125596567
 20
1340.335614561412
 30
0
 11
4041.028724519767
 21
1340.335614561412
 31
0
  0
LINE
  8
0
 62
3
 10
4069.838125596567
 20
1356.927367462512
 30
0
 11
4039.338125596567
 21
1356.927367462512
 31
0
  0
LINE
  8
0
 62
3
 10
4069.838125596567
 20
1351.225430358412
 30
0
 11
4069.838125596567
 21
1356.927367462512
 31
0
  0
LINE
  8
0
 62
3
 10
4059.738125596567
 20
1350.062223867612
 30
0
 11
4059.838125596567
 21
1350.062223867612
 31
0
  0
LINE
  8
0
 62
3
 10
4059.738125596567
 20
1350.062223867612
 30
0
 11
4059.738125596567
 21
1348.594295863612
 31
0
  0
LINE
  8
0
 62
3
 10
4059.838125596567
 20
1348.594295863612
 30
0
 11
4059.738125596567
 21
1348.594295863612
 31
0
  0
LINE
  8
0
 62
3
 10
4069.838125596567
 20
1310.827367462512
 30
0
 11
4069.838125596567
 21
1309.176268561412
 31
0
  0
LINE
  8
0
 62
3
 10
4069.838125596567
 20
1303.568576253712
 30
0
 11
4069.838125596567
 21
1305.027367462512
 31
0
  0
LINE
  8
0
 62
3
 10
4038.838125596567
 20
1303.568576253712
 30
0
 11
4038.838125596567
 21
1305.027367462512
 31
0
  0
LINE
  8
0
 62
3
 10
4069.838125596567
 20
1305.027367462512
 30
0
 11
4038.838125596567
 21
1305.027367462512
 31
0
  0
LINE
  8
0
 62
3
 10
4060.838125596567
 20
1324.173539867112
 30
0
 11
4060.838125596567
 21
1333.173539867112
 31
0
  0
LINE
  8
0
 62
3
 10
4066.838125596567
 20
1333.673539867112
 30
0
 11
4066.838125596567
 21
1329.806963624212
 31
0
  0
LINE
  8
0
 62
3
 10
4061.838125596567
 20
1323.673539867112
 30
0
 11
4061.338125596567
 21
1323.673539867112
 31
0
  0
LINE
  8
0
 62
3
 10
4061.838125596567
 20
1317.460791219512
 30
0
 11
4061.838125596567
 21
1327.570906804312
 31
0
  0
LINE
  8
0
 62
3
 10
4062.338125596567
 20
1329.806963624212
 30
0
 11
4062.338125596567
 21
1317.574133595212
 31
0
  0
LINE
  8
0
 62
3
 10
4066.838125596567
 20
1329.806963624212
 30
0
 11
4062.338125596567
 21
1329.806963624212
 31
0
  0
LINE
  8
0
 62
3
 10
4066.838125596567
 20
1329.806963624212
 30
0
 11
4066.838125596567
 21
1317.574133595212
 31
0
  0
LINE
  8
0
 62
3
 10
4061.838125596567
 20
1311.327367462512
 30
0
 11
4061.838125596567
 21
1317.460791219512
 31
0
  0
LINE
  8
0
 62
3
 10
4069.838125596567
 20
1310.827367462512
 30
0
 11
4069.838125596567
 21
1321.827367462512
 31
0
  0
LINE
  8
0
 62
3
 10
4069.838125596567
 20
1310.827367462512
 30
0
 11
4062.338125596567
 21
1310.827367462512
 31
0
  0
LINE
  8
0
 62
3
 10
4066.838125596567
 20
1317.574133595212
 30
0
 11
4062.338125596567
 21
1317.574133595212
 31
0
  0
LINE
  8
0
 62
3
 10
4069.838125596567
 20
1302.268576253712
 30
0
 11
4069.838125596567
 21
1303.568576253712
 31
0
  0
LINE
  8
0
 62
3
 10
4067.338125596567
 20
1232.227367462512
 30
0
 11
4067.338125596567
 21
1230.927367462512
 31
0
  0
LINE
  8
0
 62
3
 10
4069.838125596567
 20
1230.927367462512
 30
0
 11
4067.338125596567
 21
1230.927367462512
 31
0
  0
LINE
  8
0
 62
3
 10
4069.838125596567
 20
1229.627367462512
 30
0
 11
4069.838125596567
 21
1230.927367462512
 31
0
  0
LINE
  8
0
 62
3
 10
4069.838125596567
 20
1229.627367462512
 30
0
 11
4039.338125596567
 21
1229.627367462512
 31
0
  0
LINE
  8
0
 62
3
 10
4038.838125596567
 20
1230.127367462512
 30
0
 11
4038.838125596567
 21
1303.568576253712
 31
0
  0
LINE
  8
0
 62
3
 10
4069.838125596567
 20
1302.268576253712
 30
0
 11
4067.338125596567
 21
1302.268576253712
 31
0
  0
LINE
  8
0
 62
3
 10
4067.338125596567
 20
1302.268576253712
 30
0
 11
4067.338125596567
 21
1294.827367462512
 31
0
  0
LINE
  8
0
 62
3
 10
4067.338125596567
 20
1294.827367462512
 30
0
 11
4046.338125596567
 21
1294.827367462512
 31
0
  0
LINE
  8
0
 62
3
 10
4043.338125596567
 20
1235.227367462512
 30
0
 11
4043.338125596567
 21
1291.206955034312
 31
0
  0
LINE
  8
0
 62
3
 10
4067.338125596567
 20
1232.227367462512
 30
0
 11
4046.338125596567
 21
1232.227367462512
 31
0
  0
LINE
  8
0
 62
3
 10
4069.838125596567
 20
1347.601633085612
 30
0
 11
4069.838125596567
 21
1349.941726787012
 31
0
  0
LINE
  8
0
 62
3
 10
4068.338125596567
 20
1347.601633085612
 30
0
 11
4063.038125596567
 21
1347.601633085612
 31
0
  0
LINE
  8
0
 62
3
 10
4069.838125596567
 20
1347.074701925412
 30
0
 11
4069.838125596567
 21
1347.601633085612
 31
0
  0
LINE
  8
0
 62
3
 10
4068.338125596567
 20
1347.074701925412
 30
0
 11
4068.338125596567
 21
1347.601633085612
 31
0
  0
LINE
  8
0
 62
3
 10
4069.838125596567
 20
1347.601633085612
 30
0
 11
4068.338125596567
 21
1347.601633085612
 31
0
  0
LINE
  8
0
 62
3
 10
4069.838125596567
 20
1347.074701925412
 30
0
 11
4069.838125596567
 21
1345.489013809212
 31
0
  0
LINE
  8
0
 62
3
 10
4069.838125596567
 20
1351.225430358412
 30
0
 11
4069.838125596567
 21
1349.941726787012
 31
0
  0
LINE
  8
0
 62
3
 10
4069.838125596567
 20
1349.941726787012
 30
0
 11
4061.538125596567
 21
1349.941726787012
 31
0
  0
LINE
  8
0
 62
3
 10
4061.538125596567
 20
1349.941726787012
 30
0
 11
4061.538125596567
 21
1347.074701925412
 31
0
  0
LINE
  8
0
 62
3
 10
4069.838125596567
 20
1347.074701925412
 30
0
 11
4061.538125596567
 21
1347.074701925412
 31
0
  0
LINE
  8
0
 62
3
 10
4059.838125596567
 20
1345.489013809212
 30
0
 11
4059.838125596567
 21
1351.225430358412
 31
0
  0
LINE
  8
0
 62
3
 10
4069.838125596567
 20
1351.225430358412
 30
0
 11
4059.838125596567
 21
1351.225430358412
 31
0
  0
LINE
  8
0
 62
3
 10
4069.838125596567
 20
1345.489013809212
 30
0
 11
4069.838125596567
 21
1344.190805382212
 31
0
  0
LINE
  8
0
 62
3
 10
4059.838125596567
 20
1344.190805382212
 30
0
 11
4059.838125596567
 21
1345.489013809212
 31
0
  0
LINE
  8
0
 62
3
 10
4069.838125596567
 20
1345.489013809212
 30
0
 11
4059.838125596567
 21
1345.489013809212
 31
0
  0
LINE
  8
0
 62
3
 10
4069.838125596567
 20
1322.023107422112
 30
0
 11
4069.838125596567
 21
1321.827367462512
 31
0
  0
LINE
  8
0
 62
3
 10
4069.838125596567
 20
1326.779442651712
 30
0
 11
4069.838125596567
 21
1322.023107422112
 31
0
  0
LINE
  8
0
 62
3
 10
4069.838125596567
 20
1333.601476367412
 30
0
 11
4069.838125596567
 21
1326.779442651712
 31
0
  0
LINE
  8
0
 62
3
 10
4069.838125596567
 20
1326.779442651712
 30
0
 11
4066.838125596567
 21
1326.779442651712
 31
0
  0
LINE
  8
0
 62
3
 10
4066.838125596567
 20
1333.601476367412
 30
0
 11
4066.838125596567
 21
1329.806963624212
 31
0
  0
LINE
  8
0
 62
3
 10
4069.838125596567
 20
1333.601476367412
 30
0
 11
4066.838125596567
 21
1333.601476367412
 31
0
  0
LINE
  8
0
 62
3
 10
4069.838125596567
 20
1302.268576253712
 30
0
 11
4067.338125596567
 21
1302.268576253712
 31
0
  0
LINE
  8
0
 62
3
 10
4067.338125596567
 20
1302.268576253712
 30
0
 11
4067.338125596567
 21
1294.827367462512
 31
0
  0
LINE
  8
0
 62
3
 10
4069.838125596567
 20
1230.927367462512
 30
0
 11
4069.838125596567
 21
1302.268576253712
 31
0
  0
LINE
  8
0
 62
3
 10
4069.838125596567
 20
1230.927367462512
 30
0
 11
4067.338125596567
 21
1230.927367462512
 31
0
  0
LINE
  8
0
 62
3
 10
4067.338125596567
 20
1232.227367462512
 30
0
 11
4067.338125596567
 21
1230.927367462512
 31
0
  0
LINE
  8
0
 62
3
 10
4045.338125596567
 20
1257.132831098712
 30
0
 11
4046.838125596567
 21
1257.106648501312
 31
0
  0
LINE
  8
0
 62
3
 10
4062.838125596567
 20
1255.327367462512
 30
0
 11
4065.338125596567
 21
1255.327367462512
 31
0
  0
LINE
  8
0
 62
3
 10
4046.028724519767
 20
1345.799358746012
 30
0
 11
4041.028724519767
 21
1345.799358746012
 31
0
  0
LINE
  8
0
 62
3
 10
4046.338125596567
 20
1286.927367462512
 30
0
 11
4067.338125596567
 21
1286.927367462512
 31
0
  0
LINE
  8
0
 62
3
 10
4066.838125596567
 20
1333.673539867112
 30
0
 11
4061.338125596567
 21
1333.673539867112
 31
0
  0
LINE
  8
0
 62
3
 10
4069.838125596567
 20
1321.827367462512
 30
0
 11
4066.838125596567
 21
1321.827367462512
 31
0
  0
LINE
  8
1
 62
1
 10
4079.338125596567
 20
1299.827367462512
 30
0
 11
4032.338125596567
 21
1299.827367462512
 31
0
  0
LINE
  8
1
 62
2
 10
4100.093855925496
 20
1387.453070568781
 30
0
 11
4100.448943394832
 21
1387.808158038118
 31
0
  0
LINE
  8
1
 62
2
 10
4100.448943394832
 20
1387.808158038118
 30
0
 11
4107.520011206697
 21
1380.737090226253
 31
0
  0
LINE
  8
1
 62
2
 10
4107.164923737361
 20
1380.382002756916
 30
0
 11
4100.093855925496
 21
1387.453070568781
 31
0
  0
LINE
  8
1
 62
3
 10
4106.949485598787
 20
1380.166564618342
 30
0
 11
4107.713160922468
 21
1380.930239942024
 31
0
  0
LINE
  8
1
 62
3
 10
4119.643599330788
 20
1365.945100238978
 30
0
 11
4106.185810275106
 21
1379.402889294662
 31
0
  0
LINE
  8
1
 62
3
 10
4106.949485598787
 20
1380.166564618342
 30
0
 11
4120.3012575855
 21
1366.81479263163
 31
0
  0
LINE
  8
1
 62
3
 10
4148.686286655161
 20
1336.902412914605
 30
0
 11
4120.598307792442
 21
1364.990391777325
 31
0
  0
LINE
  8
1
 62
3
 10
4149.4047958513
 20
1337.711254365829
 30
0
 11
4121.255966047155
 21
1365.860084169975
 31
0
  0
LINE
  8
1
 62
3
 10
4150.139567793661
 20
1338.503833070831
 30
0
 11
4121.855296546199
 21
1366.788104318293
 31
0
  0
LINE
  8
1
 62
3
 10
4107.713160922468
 20
1380.930239942024
 30
0
 11
4120.900588084545
 21
1367.742812779948
 31
0
  0
LINE
  8
0
 62
3
 10
4145.201687138349
 20
1343.441713726144
 30
0
 11
4147.266438939417
 21
1345.506465527212
 31
0
  0
LINE
  8
1
 62
3
 10
4106.185810275106
 20
1379.402889294662
 30
0
 11
4105.422134951423
 21
1378.639213970979
 31
0
  0
LINE
  8
1
 62
3
 10
4105.422134951423
 20
1378.639213970979
 30
0
 11
4119.044268831744
 21
1365.01708009066
 31
0
  0
LINE
  8
1
 62
3
 10
4119.998977293398
 20
1364.062371629006
 30
0
 11
4148.052049052236
 21
1336.009299870167
 31
0
  0
LINE
  8
1
 62
2
 10
4105.995706736139
 20
1379.212785755695
 30
0
 11
4098.924638924274
 21
1386.283853567563
 31
0
  0
LINE
  8
1
 62
2
 10
4098.924638924274
 20
1386.283853567563
 30
0
 11
4098.569529898762
 21
1385.928744542051
 31
0
  0
LINE
  8
1
 62
2
 10
4098.569529898762
 20
1385.928744542051
 30
0
 11
4105.640597710628
 21
1378.857676730184
 31
0
  0
LINE
  8
0
 62
3
 10
4143.971321339105
 20
1340.090027583299
 30
0
 11
4143.377351642917
 21
1339.496057887112
 31
0
  0
LINE
  8
1
 62
3
 10
4143.674336490987
 20
1341.91436307878
 30
0
 11
4144.438011814669
 21
1342.678038402461
 31
0
  0
LINE
  8
1
 62
3
 10
4145.498671986468
 20
1341.617378230661
 30
0
 11
4144.734996662787
 21
1340.85370290698
 31
0
  0
LINE
  8
1
 62
2
 10
4250.888682754618
 20
1296.570537068684
 30
0
 11
4250.888682754618
 21
1289.373528822728
 31
0
  0
LINE
  8
1
 62
1
 10
4240.613682754617
 20
1236.827367462512
 30
0
 11
4234.763682754617
 21
1236.827367462512
 31
0
  0
LINE
  8
1
 62
1
 10
4237.688682754617
 20
1239.752367462512
 30
0
 11
4237.688682754617
 21
1233.902367462512
 31
0
  0
LINE
  8
0
 62
3
 10
4315.56675694883
 20
1344.71929848924
 30
0
 11
4317.06675694883
 21
1344.71929848924
 31
0
  0
LINE
  8
0
 62
3
 10
4316.56675694883
 20
1241.94198883074
 30
0
 11
4318.06675694883
 21
1241.94198883074
 31
0
  0
LINE
  8
0
 62
3
 10
4310.50712040863
 20
1250.55357272654
 30
0
 11
4310.50199010043
 21
1249.17118211214
 31
0
  0
LINE
  8
0
 62
3
 10
4316.56675694883
 20
1250.86220399894
 30
0
 11
4316.56675694883
 21
1249.08543775834
 31
0
  0
LINE
  8
0
 62
3
 10
4307.56675694883
 20
1253.54271441884
 30
0
 11
4307.56675694883
 21
1254.13704208554
 31
0
  0
LINE
  8
0
 62
3
 10
4310.56675694883
 20
1249.08543775834
 30
0
 11
4310.56675694883
 21
1250.55357272654
 31
0
  0
LINE
  8
0
 62
3
 10
4309.683536173629
 20
1253.54271441884
 30
0
 11
4307.56675694883
 21
1253.54271441884
 31
0
  0
LINE
  8
0
 62
3
 10
4310.50712040863
 20
1250.55357272654
 30
0
 11
4310.56675694883
 21
1250.55357272654
 31
0
  0
LINE
  8
0
 62
3
 10
4315.56675694883
 20
1344.17244151884
 30
0
 11
4315.56675694883
 21
1346.27977000144
 31
0
  0
LINE
  8
0
 62
3
 10
4307.56675694883
 20
1331.82308770654
 30
0
 11
4307.56675694883
 21
1337.21506339644
 31
0
  0
LINE
  8
0
 62
3
 10
4315.56675694883
 20
1337.21506339644
 30
0
 11
4315.56675694883
 21
1335.14379004954
 31
0
  0
LINE
  8
0
 62
3
 10
4307.56675694883
 20
1337.21506339644
 30
0
 11
4307.56675694883
 21
1337.84630255934
 31
0
  0
LINE
  8
0
 62
3
 10
4315.56675694883
 20
1337.84630255934
 30
0
 11
4315.56675694883
 21
1337.21506339644
 31
0
  0
LINE
  8
0
 62
3
 10
4307.56675694883
 20
1337.21506339644
 30
0
 11
4315.56675694883
 21
1337.21506339644
 31
0
  0
LINE
  8
0
 62
3
 10
4312.266756948829
 20
1263.69604121614
 30
0
 11
4312.366756948829
 21
1263.69604121614
 31
0
  0
LINE
  8
0
 62
3
 10
4307.56675694883
 20
1240.71559276294
 30
0
 11
4307.56675694883
 21
1244.52517041644
 31
0
  0
LINE
  8
0
 62
3
 10
4316.56675694883
 20
1249.08543775834
 30
0
 11
4316.56675694883
 21
1240.71559276294
 31
0
  0
LINE
  8
0
 62
3
 10
4307.56675694883
 20
1244.52517041644
 30
0
 11
4310.56675694883
 21
1244.52517041644
 31
0
  0
LINE
  8
0
 62
3
 10
4310.56675694883
 20
1244.52517041644
 30
0
 11
4310.56675694883
 21
1249.08543775834
 31
0
  0
LINE
  8
0
 62
3
 10
4310.56675694883
 20
1249.08543775834
 30
0
 11
4316.56675694883
 21
1249.08543775834
 31
0
  0
LINE
  8
0
 62
3
 10
4307.56675694883
 20
1231.77977000144
 30
0
 11
4307.56675694883
 21
1240.71559276294
 31
0
  0
LINE
  8
0
 62
3
 10
4307.56675694883
 20
1240.71559276294
 30
0
 11
4316.56675694883
 21
1240.71559276294
 31
0
  0
LINE
  8
0
 62
3
 10
4316.56675694883
 20
1240.71559276294
 30
0
 11
4316.56675694883
 21
1231.77977000144
 31
0
  0
LINE
  8
0
 62
3
 10
4307.56675694883
 20
1337.84630255934
 30
0
 11
4307.56675694883
 21
1347.57977000144
 31
0
  0
LINE
  8
0
 62
3
 10
4315.56675694883
 20
1347.57977000144
 30
0
 11
4315.56675694883
 21
1337.84630255934
 31
0
  0
LINE
  8
0
 62
3
 10
4307.56675694883
 20
1337.84630255934
 30
0
 11
4315.56675694883
 21
1337.84630255934
 31
0
  0
LINE
  8
0
 62
3
 10
4310.06675694883
 20
1264.88327476684
 30
0
 11
4310.56675694883
 21
1264.88327476684
 31
0
  0
LINE
  8
0
 62
3
 10
4310.56675694883
 20
1264.88327476684
 30
0
 11
4310.56675694883
 21
1268.93096048344
 31
0
  0
LINE
  8
0
 62
3
 10
4309.06675694883
 20
1265.73378130594
 30
0
 11
4309.06675694883
 21
1269.16018286464
 31
0
  0
LINE
  8
0
 62
3
 10
4310.06675694883
 20
1268.93096048344
 30
0
 11
4310.06675694883
 21
1264.88327476684
 31
0
  0
LINE
  8
0
 62
3
 10
4310.06675694883
 20
1264.88327476684
 30
0
 11
4309.06675694883
 21
1265.73378130594
 31
0
  0
LINE
  8
0
 62
3
 10
4310.06675694883
 20
1268.93096048344
 30
0
 11
4310.56675694883
 21
1268.93096048344
 31
0
  0
LINE
  8
0
 62
3
 10
4309.798452741729
 20
1269.16018286464
 30
0
 11
4310.06675694883
 21
1268.93096048344
 31
0
  0
LINE
  8
0
 62
3
 10
4312.266756948829
 20
1270.23768528024
 30
0
 11
4312.366756948829
 21
1270.23768528024
 31
0
  0
LINE
  8
0
 62
3
 10
4307.56675694883
 20
1331.82308770654
 30
0
 11
4317.06675694883
 21
1331.82308770654
 31
0
  0
LINE
  8
0
 62
3
 10
4317.06675694883
 20
1344.71929848924
 30
0
 11
4317.06675694883
 21
1331.82308770654
 31
0
  0
LINE
  8
0
 62
3
 10
4307.56675694883
 20
1357.37977000144
 30
0
 11
4307.56675694883
 21
1347.57977000144
 31
0
  0
LINE
  8
0
 62
3
 10
4307.56675694883
 20
1357.37977000144
 30
0
 11
4338.56675694883
 21
1357.37977000144
 31
0
  0
LINE
  8
0
 62
3
 10
4307.56675694883
 20
1331.82308770654
 30
0
 11
4307.56675694883
 21
1297.02293960754
 31
0
  0
LINE
  8
0
 62
3
 10
4312.266756948829
 20
1269.58425771774
 30
0
 11
4312.366756948829
 21
1269.58425771774
 31
0
  0
LINE
  8
0
 62
3
 10
4312.366756948829
 20
1269.58425771774
 30
0
 11
4312.366756948829
 21
1272.22818670134
 31
0
  0
LINE
  8
0
 62
3
 10
4307.56675694883
 20
1272.22818670134
 30
0
 11
4312.366756948829
 21
1272.22818670134
 31
0
  0
LINE
  8
0
 62
3
 10
4307.56675694883
 20
1297.02293960754
 30
0
 11
4307.56675694883
 21
1272.22818670134
 31
0
  0
LINE
  8
0
 62
3
 10
4307.56675694883
 20
1230.07977000144
 30
0
 11
4338.56675694883
 21
1230.07977000144
 31
0
  0
LINE
  8
0
 62
3
 10
4307.56675694883
 20
1231.77977000144
 30
0
 11
4307.56675694883
 21
1230.07977000144
 31
0
  0
LINE
  8
0
 62
3
 10
4318.06675694883
 20
1254.13704208554
 30
0
 11
4318.06675694883
 21
1241.94198883074
 31
0
  0
LINE
  8
0
 62
3
 10
4307.56675694883
 20
1254.13704208554
 30
0
 11
4318.06675694883
 21
1254.13704208554
 31
0
  0
LINE
  8
0
 62
3
 10
4307.56675694883
 20
1262.48227994434
 30
0
 11
4307.56675694883
 21
1254.13704208554
 31
0
  0
LINE
  8
0
 62
3
 10
4312.366756948829
 20
1263.04602294704
 30
0
 11
4312.266756948829
 21
1263.04602294704
 31
0
  0
LINE
  8
0
 62
3
 10
4312.366756948829
 20
1263.04602294704
 30
0
 11
4312.366756948829
 21
1265.53365982614
 31
0
  0
LINE
  8
0
 62
3
 10
4312.266756948829
 20
1265.53365982614
 30
0
 11
4312.366756948829
 21
1265.53365982614
 31
0
  0
LINE
  8
0
 62
3
 10
4307.56675694883
 20
1250.17821508084
 30
0
 11
4307.56675694883
 21
1253.54271441884
 31
0
  0
LINE
  8
0
 62
3
 10
4309.06675694883
 20
1253.54271441884
 30
0
 11
4309.06675694883
 21
1250.71509987564
 31
0
  0
LINE
  8
0
 62
3
 10
4309.06675694883
 20
1250.71509987564
 30
0
 11
4309.53707378653
 21
1250.17821508084
 31
0
  0
LINE
  8
0
 62
3
 10
4307.56675694883
 20
1247.41802328594
 30
0
 11
4307.56675694883
 21
1250.17821508084
 31
0
  0
LINE
  8
0
 62
3
 10
4309.53707378653
 20
1250.17821508084
 30
0
 11
4307.56675694883
 21
1250.17821508084
 31
0
  0
LINE
  8
0
 62
3
 10
4310.56675694883
 20
1249.10358832104
 30
0
 11
4309.53707378653
 21
1250.17821508084
 31
0
  0
LINE
  8
0
 62
3
 10
4307.56675694883
 20
1244.52517041644
 30
0
 11
4307.56675694883
 21
1247.41802328594
 31
0
  0
LINE
  8
0
 62
3
 10
4307.56675694883
 20
1247.41802328594
 30
0
 11
4310.56675694883
 21
1247.41802328594
 31
0
  0
LINE
  8
0
 62
3
 10
4307.56675694883
 20
1269.15847385104
 30
0
 11
4307.56675694883
 21
1265.96335996314
 31
0
  0
LINE
  8
0
 62
3
 10
4307.56675694883
 20
1265.96335996314
 30
0
 11
4307.56675694883
 21
1264.66273315114
 31
0
  0
LINE
  8
0
 62
3
 10
4307.56675694883
 20
1265.96335996314
 30
0
 11
4309.06675694883
 21
1265.96335996314
 31
0
  0
LINE
  8
0
 62
3
 10
4307.56675694883
 20
1262.48227994434
 30
0
 11
4307.56675694883
 21
1264.66273315114
 31
0
  0
LINE
  8
0
 62
3
 10
4307.56675694883
 20
1269.16018286464
 30
0
 11
4307.56675694883
 21
1271.47784908184
 31
0
  0
LINE
  8
0
 62
3
 10
4307.56675694883
 20
1264.66273315114
 30
0
 11
4310.56675694883
 21
1264.66273315114
 31
0
  0
LINE
  8
0
 62
3
 10
4310.56675694883
 20
1264.66273315114
 30
0
 11
4310.56675694883
 21
1269.16018286464
 31
0
  0
LINE
  8
0
 62
3
 10
4307.56675694883
 20
1269.16018286464
 30
0
 11
4310.56675694883
 21
1269.16018286464
 31
0
  0
LINE
  8
0
 62
3
 10
4312.266756948829
 20
1262.48227994434
 30
0
 11
4312.266756948829
 21
1271.47784908184
 31
0
  0
LINE
  8
0
 62
3
 10
4307.56675694883
 20
1262.48227994434
 30
0
 11
4312.266756948829
 21
1262.48227994434
 31
0
  0
LINE
  8
0
 62
3
 10
4307.56675694883
 20
1271.47784908184
 30
0
 11
4307.56675694883
 21
1272.22818670134
 31
0
  0
LINE
  8
0
 62
3
 10
4312.266756948829
 20
1271.47784908184
 30
0
 11
4312.266756948829
 21
1272.22818670134
 31
0
  0
LINE
  8
0
 62
3
 10
4307.56675694883
 20
1271.47784908184
 30
0
 11
4312.266756948829
 21
1271.47784908184
 31
0
  0
LINE
  8
0
 62
3
 10
4307.56675694883
 20
1231.77977000144
 30
0
 11
4316.56675694883
 21
1231.77977000144
 31
0
  0
LINE
  8
0
 62
3
 10
4315.56675694883
 20
1347.57977000144
 30
0
 11
4307.56675694883
 21
1347.57977000144
 31
0
  0
LINE
  8
0
 62
3
 10
4307.56675694883
 20
1238.74702867314
 30
0
 11
4307.54175694883
 21
1238.74702867314
 31
0
  0
LINE
  8
1
 62
1
  6
CENTER
 10
4321.56675694883
 20
1237.27977000144
 30
0
 11
4302.21316054595
 21
1237.27977000144
 31
0
  0
LINE
  8
1
 62
1
  6
CENTER
 10
4321.56675694883
 20
1342.07977000144
 30
0
 11
4302.21316054595
 21
1342.07977000144
 31
0
  0
LINE
  8
1
 62
3
 10
4338.56675694883
 20
1357.37977000144
 30
0
 11
4338.56675694883
 21
1230.07977000144
 31
0
  0
ARC
  8
1
 62
3
 10
4044.838125596567
 20
1235.227367462512
 30
0
 40
3
 50
180
 51
270
  0
ARC
  8
1
 62
3
 10
4044.838125596567
 20
1291.827367462512
 30
0
 40
3
 50
90
 51
180
  0
ARC
  8
1
 62
3
 10
4039.338125596567
 20
1356.427367462512
 30
0
 40
0.5
 50
90
 51
180
  0
ARC
  8
1
 62
3
 10
4039.338125596567
 20
1230.127367462512
 30
0
 40
0.5
 50
180
 51
270
  0
ARC
  8
0
 62
3
 10
4187.28868275462
 20
1299.827367462514
 30
0
 40
68.60000000000036
 50
302.8755583608973
 51
304.6072566498267
  0
ARC
  8
0
 62
3
 10
4135.709291039417
 20
1306.527367462512
 30
0
 40
2.800000000000182
 50
270
 51
340.1592213144847
  0
ARC
  8
0
 62
3
 10
4190.288682754621
 20
1303.827367462514
 30
0
 40
53.19999999999992
 50
122.2601897533042
 51
122.5296724705056
  0
ARC
  8
0
 62
3
 10
4190.288682754614
 20
1303.827367462509
 30
0
 40
53.09999999999981
 50
127.4098254987952
 51
127.6819363674429
  0
ARC
  8
0
 62
3
 10
4190.288682754681
 20
1303.827367462548
 30
0
 40
53.10000000000019
 50
119.4584078533781
 51
119.5663134336989
  0
ARC
  8
0
 62
3
 10
4183.288682754647
 20
1296.82736746258
 30
0
 40
67.5999999999999
 50
335.8142023297363
 51
336.02723151358
  0
ARC
  8
0
 62
3
 10
4183.288682754401
 20
1296.827367462143
 30
0
 40
67.60000000000012
 50
329.5745801931616
 51
329.6593391651818
  0
ARC
  8
0
 62
3
 10
4183.288682754661
 20
1296.827367462593
 30
0
 40
67.70000000000049
 50
331.7759255932218
 51
331.9876195654124
  0
ARC
  8
0
 62
3
 10
4187.288682754617
 20
1299.827367462512
 30
0
 40
51.99999999999992
 50
141.5921262387999
 51
145.3165643245934
  0
ARC
  8
0
 62
3
 10
4187.288682754617
 20
1299.827367462512
 30
0
 40
53.79999999999993
 50
144.4147294115002
 51
146.7933598935949
  0
ARC
  8
0
 62
3
 10
4190.288682754614
 20
1303.827367462509
 30
0
 40
54.60000000000051
 50
122.2022072381954
 51
127.4696729749948
  0
ARC
  8
0
 62
3
 10
4190.288682754645
 20
1303.827367462534
 30
0
 40
53.19999999999998
 50
127.3958193041546
 51
127.6674097354387
  0
ARC
  8
0
 62
3
 10
4183.288682754624
 20
1296.827367462526
 30
0
 40
68.99999999999963
 50
331.7424557073873
 51
335.9045005461869
  0
ARC
  8
0
 62
3
 10
4183.288682754615
 20
1296.827367462505
 30
0
 40
67.69999999999841
 50
335.8055846079878
 51
336.0182957485054
  0
ARC
  8
0
 62
3
 10
4187.288682754617
 20
1299.827367462511
 30
0
 40
36.8500000000001
 50
1.555028877301977
 51
20.94497112270257
  0
ARC
  8
0
 62
3
 10
4187.288682754617
 20
1299.827367462512
 30
0
 40
36.84999999999984
 50
91.5550288773002
 51
110.9449711227028
  0
ARC
  8
0
 62
3
 10
4187.288682754617
 20
1299.827367462512
 30
0
 40
36.84999999999984
 50
271.5550288773002
 51
290.9449711227023
  0
ARC
  8
0
 62
3
 10
4187.288682754617
 20
1299.827367462512
 30
0
 40
36.85000000000098
 50
181.5550288773005
 51
200.9449711227003
  0
ARC
  8
0
 62
3
 10
4187.288682754617
 20
1299.827367462512
 30
0
 40
36.85000000000044
 50
226.5550288773008
 51
245.9449711226996
  0
ARC
  8
0
 62
3
 10
4187.288682754617
 20
1299.827367462512
 30
0
 40
36.85000000000061
 50
136.555028877301
 51
155.9449711226994
  0
ARC
  8
0
 62
3
 10
4187.288682754617
 20
1299.827367462512
 30
0
 40
36.84999999999962
 50
46.55502887729958
 51
65.94497112270072
  0
ARC
  8
0
 62
3
 10
4187.288682754617
 20
1299.827367462512
 30
0
 40
36.84999999999928
 50
316.5550288772991
 51
335.9449711227007
  0
ARC
  8
0
 62
3
 10
4187.288682754615
 20
1299.827367462509
 30
0
 40
36.85000000000029
 50
159.0550288772948
 51
178.4449711226951
  0
ARC
  8
0
 62
3
 10
4187.288682754617
 20
1299.827367462512
 30
0
 40
36.85000000000078
 50
69.05502887729773
 51
88.4449711226998
  0
ARC
  8
0
 62
3
 10
4187.288682754617
 20
1299.827367462512
 30
0
 40
36.85000000000045
 50
249.0550288772991
 51
268.4449711226998
  0
ARC
  8
0
 62
3
 10
4187.288682754617
 20
1299.827367462512
 30
0
 40
36.84999999999931
 50
339.0550288772987
 51
358.4449711226994
  0
ARC
  8
0
 62
3
 10
4187.288682754617
 20
1299.827367462512
 30
0
 40
36.84999999999992
 50
294.0550288772992
 51
313.4449711227002
  0
ARC
  8
0
 62
3
 10
4187.288682754617
 20
1299.827367462512
 30
0
 40
36.85000000000008
 50
114.0550288773006
 51
133.4449711227004
  0
ARC
  8
0
 62
3
 10
4187.288682754617
 20
1299.827367462512
 30
0
 40
36.85000000000008
 50
204.0550288773006
 51
223.444971122699
  0
ARC
  8
0
 62
3
 10
4187.288682754617
 20
1299.827367462512
 30
0
 40
36.85000000000008
 50
24.05502887730057
 51
43.44497112270091
  0
ARC
  8
0
 62
3
 10
4187.288682754617
 20
1299.827367462512
 30
0
 40
40.00000000000027
 50
271.4325437375978
 51
291.0674562624006
  0
ARC
  8
0
 62
3
 10
4187.288682754637
 20
1299.827367462508
 30
0
 40
36.00000000000311
 50
249.0917541765676
 51
268.4082458233824
  0
ARC
  8
0
 62
3
 10
4187.288682754614
 20
1299.827367462514
 30
0
 40
36.00000000000099
 50
226.5917541766227
 51
245.9082458234067
  0
ARC
  8
0
 62
3
 10
4183.288682754617
 20
1296.827367462512
 30
0
 40
66.39999999999976
 50
276.2921902687003
 51
306.3868320836993
  0
ARC
  8
0
 62
3
 10
4187.288682754621
 20
1299.827367462505
 30
0
 40
36.00000000000009
 50
204.0917541765881
 51
223.4082458233723
  0
ARC
  8
0
 62
3
 10
4187.288682754613
 20
1299.827367462533
 30
0
 40
36.00000000000333
 50
181.5917541766191
 51
200.9082458234339
  0
ARC
  8
0
 62
3
 10
4187.288682754613
 20
1299.82736746249
 30
0
 40
36.00000000000341
 50
159.0917541765644
 51
178.4082458233791
  0
ARC
  8
0
 62
3
 10
4187.28868275462
 20
1299.827367462514
 30
0
 40
36.00000000000225
 50
136.5917541766212
 51
155.908245823405
  0
ARC
  8
0
 62
3
 10
4187.288682754612
 20
1299.827367462508
 30
0
 40
36.00000000000117
 50
114.0917541765901
 51
133.4082458233729
  0
ARC
  8
0
 62
3
 10
4187.288682754637
 20
1299.827367462516
 30
0
 40
36.00000000000353
 50
91.5917541766176
 51
110.9082458234322
  0
ARC
  8
0
 62
3
 10
4187.288682754597
 20
1299.827367462516
 30
0
 40
36.00000000000332
 50
69.0917541765678
 51
88.40824582338239
  0
ARC
  8
0
 62
3
 10
4190.288682754614
 20
1303.827367462509
 30
0
 40
51.9000000000004
 50
122.3168338679929
 51
127.8606632806954
  0
ARC
  8
0
 62
3
 10
4187.288682754623
 20
1299.827367462508
 30
0
 40
36.00000000000123
 50
46.59175417662708
 51
65.90824582340993
  0
ARC
  8
0
 62
3
 10
4183.28868275462
 20
1296.827367462517
 30
0
 40
66.4000000000005
 50
331.8107066893955
 51
336.1365720439949
  0
ARC
  8
0
 62
3
 10
4187.288682754614
 20
1299.827367462518
 30
0
 40
36.00000000000047
 50
24.09175417658939
 51
43.40824582337339
  0
ARC
  8
0
 62
3
 10
4187.288682754621
 20
1299.827367462494
 30
0
 40
36.00000000000234
 50
1.591754176614398
 51
20.90824582342903
  0
ARC
  8
0
 62
3
 10
4232.537572914717
 20
1244.466840556812
 30
0
 40
4.000000000000203
 50
309.2608239562873
 51
38.65980825408399
  0
ARC
  8
0
 62
3
 10
4187.288682754621
 20
1299.82736746253
 30
0
 40
36.0000000000028
 50
339.0917541765709
 51
358.4082458233856
  0
ARC
  8
0
 62
3
 10
4224.459114542117
 20
1240.958274518112
 30
0
 40
2.999999999999397
 50
38.65980825409348
 51
126.3868320836942
  0
ARC
  8
0
 62
3
 10
4235.859053526817
 20
1251.520457207312
 30
0
 40
2.999999999998935
 50
139.2441329221934
 51
218.6598082541179
  0
ARC
  8
0
 62
3
 10
4187.288682754615
 20
1299.827367462509
 30
0
 40
36.00000000000112
 50
316.591754176621
 51
335.9082458234054
  0
ARC
  8
0
 62
3
 10
4187.288682754622
 20
1299.827367462515
 30
0
 40
36.00000000000154
 50
294.0917541765914
 51
313.4082458233752
  0
ARC
  8
0
 62
3
 10
4187.288682754597
 20
1299.827367462508
 30
0
 40
36.0000000000033
 50
271.5917541766176
 51
290.9082458234323
  0
ARC
  8
0
 62
3
 10
4187.288682754617
 20
1299.827367462512
 30
0
 40
40.5196152423004
 50
271.4141693346026
 51
291.0858306653981
  0
ARC
  8
0
 62
3
 10
4185.844350810003
 20
1304.427367462513
 30
0
 40
47.47366413603086
 50
162.6362484261312
 51
178.0135285469306
  0
ARC
  8
0
 62
3
 10
4137.658105679917
 20
1319.448902495512
 30
0
 40
3.000000000000472
 50
343.4683312029948
 51
60.99999999999166
  0
ARC
  8
0
 62
3
 10
4135.248810179817
 20
1328.673539867112
 30
0
 40
4.999999999999996
 50
99.73942459789991
 51
202.2605754021001
  0
ARC
  8
0
 62
3
 10
4143.246238240718
 20
1332.129636173012
 30
0
 40
3.00000000000051
 50
240.9999999999765
 51
328.9675123385852
  0
ARC
  8
0
 62
3
 10
4190.288682754617
 20
1303.827367462512
 30
0
 40
51.90000000000003
 50
130.6572862895006
 51
148.9675123386007
  0
ARC
  8
0
 62
3
 10
4190.288682754619
 20
1303.827367462514
 30
0
 40
54.59999999999815
 50
127.4696729750026
 51
130.1245728932025
  0
ARC
  8
0
 62
3
 10
4190.288682754617
 20
1303.827367462512
 30
0
 40
54.59999999999997
 50
119.5782281179997
 51
122.2022072382003
  0
ARC
  8
0
 62
3
 10
4190.288682754617
 20
1303.827367462512
 30
0
 40
51.89999999999986
 50
90
 51
119.5562858004
  0
ARC
  8
0
 62
3
 10
4190.288682754617
 20
1296.327367462512
 30
0
 40
59.40000000000009
 50
0.2344301896998961
 51
90
  0
ARC
  8
0
 62
3
 10
4183.288682754617
 20
1296.827367462512
 30
0
 40
66.40000000000151
 50
338.3111833747005
 51
359.7782709021994
  0
ARC
  8
0
 62
3
 10
4183.288682754612
 20
1296.827367462503
 30
0
 40
69.00000000000169
 50
335.9045005462083
 51
337.9959182416083
  0
ARC
  8
0
 62
3
 10
4183.288682754612
 20
1296.827367462503
 30
0
 40
68.99999999999936
 50
329.6662512028086
 51
331.7424557074087
  0
ARC
  8
0
 62
3
 10
4183.288682754615
 20
1296.82736746251
 30
0
 40
66.40000000000104
 50
319.2441329222024
 51
329.6531825692015
  0
ARC
  8
0
 62
3
 10
4187.288682754615
 20
1299.827367462509
 30
0
 40
75.49999999999935
 50
308.0587925519023
 51
309.260823956302
  0
ARC
  8
0
 62
3
 10
4231.366269700617
 20
1243.529797985512
 30
0
 40
4.000000000000142
 50
218.6598082541104
 51
308.0587925518971
  0
ARC
  8
0
 62
3
 10
4187.288682754617
 20
1299.827367462512
 30
0
 40
40.51961524230027
 50
293.9141693345993
 51
313.5858306654002
  0
ARC
  8
0
 62
3
 10
4187.288682754617
 20
1299.827367462512
 30
0
 40
39.99999999999996
 50
293.9325437376002
 51
313.5674562623987
  0
ARC
  8
0
 62
3
 10
4187.288682754617
 20
1299.827367462512
 30
0
 40
40.51961524230006
 50
316.4141693345995
 51
336.0858306654003
  0
ARC
  8
0
 62
3
 10
4187.288682754617
 20
1299.827367462512
 30
0
 40
39.99999999999913
 50
316.4325437375986
 51
336.0674562624001
  0
ARC
  8
0
 62
3
 10
4187.288682754617
 20
1299.827367462512
 30
0
 40
40.51961524229885
 50
338.9141693345995
 51
358.585830665399
  0
ARC
  8
0
 62
3
 10
4187.288682754617
 20
1299.827367462512
 30
0
 40
40.00000000000031
 50
338.9325437375996
 51
358.5674562623989
  0
ARC
  8
0
 62
3
 10
4187.288682754617
 20
1299.827367462512
 30
0
 40
40.5196152422999
 50
1.414169334599422
 51
21.08583066539964
  0
ARC
  8
0
 62
3
 10
4187.288682754617
 20
1299.827367462512
 30
0
 40
39.99999999999893
 50
1.432543737599451
 51
21.06745626239934
  0
ARC
  8
0
 62
3
 10
4187.288682754617
 20
1299.827367462512
 30
0
 40
40.51961524230015
 50
23.9141693345997
 51
43.58583066540045
  0
ARC
  8
0
 62
3
 10
4187.288682754617
 20
1299.827367462512
 30
0
 40
39.99999999999915
 50
23.93254373759994
 51
43.56745626240053
  0
ARC
  8
0
 62
3
 10
4187.288682754617
 20
1299.827367462512
 30
0
 40
40.51961524230006
 50
46.41416933459956
 51
66.08583066540008
  0
ARC
  8
0
 62
3
 10
4187.288682754617
 20
1299.827367462512
 30
0
 40
39.99999999999902
 50
46.43254373760112
 51
66.06745626239921
  0
ARC
  8
0
 62
3
 10
4187.288682754617
 20
1299.827367462512
 30
0
 40
40.51961524229963
 50
68.91416933460192
 51
88.58583066539735
  0
ARC
  8
0
 62
3
 10
4187.288682754617
 20
1299.827367462512
 30
0
 40
39.99999999999989
 50
68.93254373759939
 51
88.5674562624022
  0
ARC
  8
0
 62
3
 10
4187.288682754617
 20
1299.827367462512
 30
0
 40
40.51961524229946
 50
91.41416933460008
 51
111.0858306654005
  0
ARC
  8
0
 62
3
 10
4187.288682754617
 20
1299.827367462512
 30
0
 40
40.00000000000006
 50
91.43254373759908
 51
111.0674562624006
  0
ARC
  8
0
 62
3
 10
4187.288682754617
 20
1299.827367462512
 30
0
 40
40.51961524229923
 50
113.9141693345999
 51
133.5858306654013
  0
ARC
  8
0
 62
3
 10
4187.288682754617
 20
1299.827367462512
 30
0
 40
39.99999999999939
 50
113.9325437375991
 51
133.5674562624017
  0
ARC
  8
0
 62
3
 10
4187.28868275462
 20
1299.827367462514
 30
0
 40
40.51961524230062
 50
136.4141693346043
 51
156.085830665404
  0
ARC
  8
0
 62
3
 10
4187.288682754617
 20
1299.827367462512
 30
0
 40
40.00000000000045
 50
136.4325437376004
 51
156.0674562624006
  0
ARC
  8
0
 62
3
 10
4187.288682754615
 20
1299.827367462509
 30
0
 40
40.51961524229905
 50
158.9141693345951
 51
178.5858306653964
  0
ARC
  8
0
 62
3
 10
4187.288682754617
 20
1299.827367462512
 30
0
 40
40.00000000000031
 50
158.9325437375996
 51
178.5674562624006
  0
ARC
  8
0
 62
3
 10
4187.288682754617
 20
1299.827367462512
 30
0
 40
40.51961524229992
 50
181.414169334601
 51
201.0858306654001
  0
ARC
  8
0
 62
3
 10
4187.288682754617
 20
1299.827367462512
 30
0
 40
40.00000000000078
 50
181.432543737601
 51
201.0674562624004
  0
ARC
  8
0
 62
3
 10
4187.288682754617
 20
1299.827367462512
 30
0
 40
40.51961524230015
 50
203.9141693345997
 51
223.5858306654004
  0
ARC
  8
0
 62
3
 10
4187.288682754617
 20
1299.827367462512
 30
0
 40
40.00000000000036
 50
203.9325437376006
 51
223.5674562623997
  0
ARC
  8
0
 62
3
 10
4187.288682754617
 20
1299.827367462512
 30
0
 40
40.51961524230023
 50
226.4141693345998
 51
246.0858306654008
  0
ARC
  8
0
 62
3
 10
4187.288682754617
 20
1299.827367462512
 30
0
 40
40.00000000000043
 50
226.4325437375995
 51
246.0674562624016
  0
ARC
  8
0
 62
3
 10
4187.288682754617
 20
1299.827367462512
 30
0
 40
39.99999999999989
 50
248.9325437375994
 51
268.5674562624009
  0
ARC
  8
0
 62
3
 10
4187.288682754617
 20
1299.827367462512
 30
0
 40
40.51961524230028
 50
248.9141693345996
 51
268.5858306654
  0
ARC
  8
0
 62
3
 10
4142.104559436717
 20
1338.930372462212
 30
0
 40
0.9999999999996866
 50
135.0000000000276
 51
225.0000000000184
  0
ARC
  8
0
 62
3
 10
4147.973545720617
 20
1344.799358746012
 30
0
 40
0.9999999999996866
 50
44.99999999997236
 51
135.0000000000276
  0
ARC
  8
0
 62
3
 10
4150.938368948417
 20
1341.975956874412
 30
0
 40
0.9000000000005057
 50
315.0000000000102
 51
44.99999999997953
  0
ARC
  8
0
 62
3
 10
4151.150500982811
 20
1341.622403483812
 30
0
 40
0.500000000004747
 50
225.0000000005343
 51
315.0000000005527
  0
ARC
  8
0
 62
3
 10
4147.973545720617
 20
1343.385145183612
 30
0
 40
0.5000000000094096
 50
45.00000000003685
 51
134.9999999999632
  0
ARC
  8
0
 62
3
 10
4143.730905033517
 20
1339.142504496512
 30
0
 40
0.5000000000094096
 50
134.9999999999632
 51
225.0000000000184
  0
ARC
  8
0
 62
3
 10
4190.288682754495
 20
1303.827367462407
 30
0
 40
53.10000000000038
 50
130.4137238229684
 51
130.5234519568268
  0
ARC
  8
0
 62
3
 10
4190.288682754612
 20
1303.827367462508
 30
0
 40
53.1000000000003
 50
122.2644484466333
 51
122.534439555393
  0
ARC
  8
0
 62
3
 10
4190.288682754617
 20
1303.827367462512
 30
0
 40
54.4999999999999
 50
122.4692938150995
 51
127.2184542381005
  0
ARC
  8
0
 62
3
 10
4190.288682754617
 20
1303.827367462512
 30
0
 40
52.79999999999993
 50
122.5488492600997
 51
127.4521651165004
  0
ARC
  8
0
 62
3
 10
4183.288682754502
 20
1296.827367462224
 30
0
 40
67.60000000000019
 50
338.1626319561406
 51
338.2482656958629
  0
ARC
  8
0
 62
3
 10
4183.288682754615
 20
1296.827367462508
 30
0
 40
67.59999999999948
 50
331.7785535456771
 51
331.9905610137033
  0
ARC
  8
0
 62
3
 10
4142.435565662917
 20
1334.980042863112
 30
0
 40
3.999999999999953
 50
241.0000000000154
 51
285.9656852790045
  0
ARC
  8
0
 62
3
 10
4135.248810179817
 20
1328.673539867212
 30
0
 40
5.000000000000167
 50
60.99999999999596
 51
166.8980325942065
  0
ARC
  8
0
 62
3
 10
4224.412511577117
 20
1238.215161370512
 30
0
 40
4.000000000000284
 50
38.65980825409213
 51
88.37595533218992
  0
ARC
  8
0
 62
3
 10
4238.411060448018
 20
1251.131815409612
 30
0
 40
4.000000000002154
 50
194.9313374181031
 51
218.659808254084
  0
ARC
  8
0
 62
3
 10
4183.28868275462
 20
1296.827367462517
 30
0
 40
68.90000000000022
 50
331.9529885662952
 51
335.7041329847954
  0
ARC
  8
0
 62
3
 10
4238.411060448018
 20
1251.131815409612
 30
0
 40
4.000000000000695
 50
150.6841210911071
 51
194.9313374181031
  0
ARC
  8
0
 62
3
 10
4187.28868275462
 20
1299.827367462514
 30
0
 40
68.59999999999972
 50
312.6302586263939
 51
313.5418257983965
  0
ARC
  8
0
 62
3
 10
4142.435565662917
 20
1334.980042863212
 30
0
 40
3.999999999999837
 50
285.9656852790045
 51
323.8192442185112
  0
ARC
  8
0
 62
3
 10
4187.288682754621
 20
1299.82736746252
 30
0
 40
53.79999999999966
 50
155.1570577837881
 51
157.5749062022087
  0
ARC
  8
0
 62
3
 10
4187.288682754615
 20
1299.827367462509
 30
0
 40
51.99999999999904
 50
155.5246399908335
 51
157.5786116486958
  0
ARC
  8
0
 62
3
 10
4183.288682754619
 20
1296.827367462515
 30
0
 40
67.19999999999985
 50
332.0024144032968
 51
335.8489310361971
  0
ARC
  8
0
 62
3
 10
4190.288682754617
 20
1303.827367462512
 30
0
 40
53.09999999999962
 50
130.5234519570004
 51
146.9356235564
  0
ARC
  8
0
 62
3
 10
4142.435565662921
 20
1334.980042863116
 30
0
 40
3.999999999999468
 50
323.8192442184254
 51
326.9356235563169
  0
ARC
  8
0
 62
3
 10
4187.288682754617
 20
1299.827367462512
 30
0
 40
76.00000000000057
 50
304.5097753506997
 51
312.8098411575001
  0
ARC
  8
0
 62
3
 10
4237.688682754617
 20
1236.827367462512
 30
0
 40
5.499999999999627
 50
218.659808254103
 51
38.65980825409712
  0
ARC
  8
0
 62
3
 10
4183.288682754617
 20
1296.827367462512
 30
0
 40
67.59999999999957
 50
338.2482656955999
 51
359.7823175588994
  0
ARC
  8
0
 62
3
 10
4242.992181524917
 20
1333.683775445212
 30
0
 40
3.999999999999552
 50
129.6711268035996
 51
215.3291358708976
  0
ARC
  8
0
 62
3
 10
4237.688682754617
 20
1341.627367462512
 30
0
 40
5.50000000000006
 50
309.671126803603
 51
129.6711268036015
  0
ARC
  8
0
 62
3
 10
4229.805212545717
 20
1347.431221263012
 30
0
 40
3.999999999999828
 50
232.2866784160039
 51
309.6711268036096
  0
ARC
  8
0
 62
3
 10
4190.288682754617
 20
1303.827367462512
 30
0
 40
53.09999999999991
 50
90
 51
119.4584078532992
  0
ARC
  8
0
 62
3
 10
4190.288682754617
 20
1296.327367462512
 30
0
 40
60.60000000000028
 50
52.28667841600006
 51
90
  0
ARC
  8
0
 62
3
 10
4190.288682754617
 20
1296.327367462512
 30
0
 40
60.60000000000092
 50
0.2299113783999385
 51
35.32913587090005
  0
ARC
  8
0
 62
3
 10
4183.288682754617
 20
1296.827367462512
 30
0
 40
67.60000000000046
 50
276.2360366621992
 51
305.0544855354007
  0
ARC
  8
0
 62
3
 10
4224.412511577117
 20
1238.215161370512
 30
0
 40
3.999999999999528
 50
106.6354954170005
 51
125.0544855353991
  0
ARC
  8
0
 62
3
 10
4183.288682754615
 20
1296.82736746251
 30
0
 40
67.60000000000068
 50
320.3418223045028
 51
329.5745801928013
  0
ARC
  8
0
 62
3
 10
4238.411060448018
 20
1251.131815409611
 30
0
 40
4.000000000001005
 50
140.3418223045037
 51
150.6841210910929
  0
ARC
  8
0
 62
3
 10
4132.888682754618
 20
1316.327367462512
 30
0
 40
5.499999999999819
 50
67.57490620221088
 51
270
  0
ARC
  8
0
 62
3
 10
4135.709291039417
 20
1306.527367462512
 30
0
 40
1.5
 50
270
 51
358.4257420549688
  0
ARC
  8
0
 62
3
 10
4173.953432141707
 20
1304.427367462507
 30
0
 40
36.80233869137486
 50
172.5859929936844
 51
176.7930934828832
  0
ARC
  8
0
 62
3
 10
4135.966403715517
 20
1309.327367462512
 30
0
 40
1.500000000000463
 50
354.2186415658733
 51
90
  0
ARC
  8
0
 62
3
 10
4138.350855584217
 20
1317.859548647912
 30
0
 40
2.00000000000033
 50
2.740546823006659
 51
67.57490620219761
  0
ARC
  8
1
 62
3
 10
4065.338125596567
 20
1256.827367462512
 30
0
 40
3.000000000000114
 50
48.18968510422335
 51
90
  0
ARC
  8
0
 62
3
 10
4061.338125596567
 20
1324.173539867112
 30
0
 40
0.5
 50
180
 51
270
  0
ARC
  8
0
 62
3
 10
4069.492265863767
 20
1327.033310857712
 30
0
 40
7.672996326900245
 50
158.8087396674039
 51
175.9823732667996
  0
ARC
  8
0
 62
3
 10
4062.338125596567
 20
1311.327367462512
 30
0
 40
0.5
 50
180
 51
270
  0
ARC
  8
0
 62
3
 10
4046.680407775767
 20
1291.490581985112
 30
0
 40
3.354294920299823
 50
95.85682532300024
 51
184.8505140186115
  0
ARC
  8
0
 62
3
 10
4046.338125596567
 20
1235.227367462512
 30
0
 40
3
 50
180
 51
270
  0
ARC
  8
0
 62
3
 10
4046.338125596567
 20
1283.927367462512
 30
0
 40
3
 50
90
 51
180
  0
ARC
  8
0
 62
3
 10
4061.338125596567
 20
1333.173539867112
 30
0
 40
0.5
 50
90
 51
180
  0
ARC
  8
0
 62
3
 10
4321.220712273628
 20
1255.11346860564
 30
0
 40
11.64361202879814
 50
187.7529909899019
 51
203.0554693690977
  0
ARC
  8
0
 62
3
 10
4322.472573355329
 20
1250.13806365974
 30
0
 40
5.950045937399485
 50
137.7712656136913
 51
173.0095838322987
  0
ARC
  8
0
 62
3
 10
4323.064558159828
 20
1336.53149942994
 30
0
 40
7.625140019898804
 50
190.4857707303981
 51
218.132727981201
  0
CIRCLE
  8
1
 62
3
 10
4187.288682754617
 20
1299.827367462512
 30
0
 40
19.60000000000036
  0
CIRCLE
  8
1
 62
3
 10
4187.288682754617
 20
1299.827367462512
 30
0
 40
18.20000000000073
  0
CIRCLE
  8
1
 62
3
 10
4187.288682754617
 20
1299.827367462512
 30
0
 40
17.5
  0
CIRCLE
  8
0
 62
3
 10
4187.288682754617
 20
1299.827367462512
 30
0
 40
27.53999999999996
  0
CIRCLE
  8
0
 62
3
 10
4237.688682754617
 20
1236.827367462512
 30
0
 40
2.25
  0
CIRCLE
  8
0
 62
3
 10
4237.688682754617
 20
1341.627367462512
 30
0
 40
2.25
  0
CIRCLE
  8
0
 62
3
 10
4132.888682754618
 20
1316.327367462512
 30
0
 40
2.25
  0
POLYLINE
  8
1
 62
2
 66
1
 70
1
  0
VERTEX
  8
1
 10
4039.06254457558
 20
1394.6209302385
 30
0
  0
VERTEX
  8
1
 10
4067.36254457558
 20
1394.6209302385
 30
0
  0
VERTEX
  8
1
 10
4067.36254457558
 20
1402.6209302385
 30
0
  0
VERTEX
  8
1
 10
4039.06254457558
 20
1402.6209302385
 30
0
  0
SEQEND
  8
1
  0
LINE
  8
1
 62
2
 10
4167.365764951882
 20
1387.40639682642
 30
0
 11
4130.859017810086
 21
1387.40639682642
 31
0
  0
LINE
  8
1
 62
2
 10
4130.859017810086
 20
1387.40639682642
 30
0
 11
4118.219448730653
 21
1371.164593312235
 31
0
  0
SOLID
  8
1
 62
2
 10
4119.852267528161
 20
1373.948724477778
 30
0
 11
4120.517216746522
 21
1373.431252906813
 31
0
 12
4118.219448730653
 22
1371.164593312235
 32
0
 13
4118.219448730653
 23
1371.164593312235
 33
0
  0
TEXT
  8
1
 62
2
 10
4131.727227827836
 20
1389.814293202282
 30
0
 40
4
  1
âèü[âhÉ³ÆÀé%%d300ü}30
 41
0.63
  0
TEXT
  8
1
 62
2
 10
4080.107117723058
 20
1315.096898745817
 30
0
 40
3.2
  1
10.2
 50
90
 41
0.8910000000000004
  0
TEXT
  8
1
 62
2
 10
4263.888194869342
 20
1219.75520599515
 30
0
 40
3.2
  1
7.2
 50
90
 41
0.8910000000000004
  0
TEXT
  8
1
 62
2
 10
4263.888194869342
 20
1264.43316809737
 30
0
 40
3.2
  1
63
 50
90
 41
0.8910000000000004
  0
TEXT
  8
1
 62
2
 10
4283.888194869342
 20
1286.013528822728
 30
0
 40
3.2
  1
127
 50
90
 41
0.8910000000000004
  0
TEXT
  8
1
 62
2
 10
4259.039866931822
 20
1375.651378702406
 30
0
 40
4
  1
3-âË4.5
 41
0.891
  0
TEXT
  8
1
 62
2
 10
4137.38516102003
 20
1237.40851264913
 30
0
 40
3
  1
>ABS+PBT-GF30<
 41
0.5346
  0
TEXT
  8
1
 62
2
 10
4148.714880162122
 20
1249.65585613236
 30
0
 40
3.499999999999999
  1
(ïzì×î¹)
 50
50.00000000000001
 41
0.891
  0
TEXT
  8
1
 62
2
 10
4041.06254457558
 20
1396.6209302385
 30
0
 40
4
  1
E1331K
 41
0.9
  0
DIMENSION
  8
1
  6
CONTINUOUS
 62
2
  2
*D0
  3
DMST_1
 10
4093.90060161635
 20
1305.027367462512
 30
0
 11
4090.30060161635
 21
1268.32244957252
 31
0
 12
0
 22
0
 32
0
 70
1
 13
4069.838125596567
 23
1229.627367462512
 33
0
 14
4069.838125596567
 24
1305.027367462512
 34
0
 53
0
  0
DIMENSION
  8
1
  6
CONTINUOUS
 62
2
  2
*D1
  3
DMST_2
 10
4038.838125596567
 20
1212.48866724535
 30
0
 11
4030.68262000373
 21
1217.14598826707
 31
0
 12
0
 22
0
 32
0
 70
0
 13
4041.838125596567
 23
1235.227367462512
 33
0
 14
4038.838125596567
 24
1230.127367462512
 34
0
 53
0
  0
DIMENSION
  8
1
  6
CONTINUOUS
 62
2
  2
*D2
  3
DMST_3
 10
4237.688682754617
 20
1378.837367462512
 30
0
 11
4186.44247120507
 21
1381.88353405958
 31
0
 12
0
 22
0
 32
0
 70
0
 13
4132.888682754618
 23
1311.327367462512
 33
0
 14
4237.688682754617
 24
1336.627367462512
 34
0
 53
0
  0
DIMENSION
  8
1
  6
CONTINUOUS
 62
2
  2
*D3
  3
DMST_2
 10
4187.288682754618
 20
1366.927367462512
 30
0
 11
4210.053534119747
 21
1370.527367462512
 31
0
 12
0
 22
0
 32
0
 70
0
 13
4237.688682754617
 23
1336.627367462512
 33
0
 14
4187.288682754617
 24
1371.627367462512
 34
0
 53
0
  0
DIMENSION
  8
1
  6
CONTINUOUS
 62
2
  2
*D4
  3
DMST_2
 10
4069.838125596567
 20
1366.7618780836
 30
0
 11
4065.90406690219
 21
1370.07329616807
 31
0
 12
0
 22
0
 32
0
 70
0
 13
4061.838125596567
 23
1311.327367462512
 33
0
 14
4069.838125596567
 24
1310.827367462512
 34
0
 53
0
  0
DIMENSION
  8
1
  6
CONTINUOUS
 62
2
  2
*D5
  3
DMST_2
 10
4081.3578384129
 20
1232.227367462512
 30
0
 11
4077.343511194
 21
1240.62695286604
 31
0
 12
0
 22
0
 32
0
 70
0
 13
4069.838125596567
 23
1229.627367462512
 33
0
 14
4046.338125596567
 24
1232.227367462512
 34
0
 50
90
 53
0
  0
DIMENSION
  8
1
  6
CONTINUOUS
 62
2
  2
*D6
  3
DMST_2
 10
4038.838125596567
 20
1201.68637135815
 30
0
 11
4053.86254659502
 21
1205.1044679599
 31
0
 12
0
 22
0
 32
0
 70
0
 13
4069.838125596567
 23
1230.927367462512
 33
0
 14
4038.838125596567
 24
1230.127367462512
 34
0
 53
0
  0
DIMENSION
  8
1
  6
CONTINUOUS
 62
2
  2
*D7
  3
DMST_2
 10
4069.838125596567
 20
1212.48866724535
 30
0
 11
4077.04247318632
 21
1216.24287424403
 31
0
 12
0
 22
0
 32
0
 70
0
 13
4067.338125596567
 23
1232.227367462512
 33
0
 14
4069.838125596567
 24
1230.927367462512
 34
0
 53
0
  0
DIMENSION
  8
1
  6
CONTINUOUS
 62
2
  2
*D8
  3
DMST_2
 10
4125.288682754617
 20
1214.627367462512
 30
0
 11
4155.446788570806
 21
1218.227367462512
 31
0
 12
0
 22
0
 32
0
 70
0
 13
4187.288682754617
 23
1219.914461176239
 33
0
 14
4125.288682754617
 24
1229.627367462512
 34
0
 53
0
  0
DIMENSION
  8
1
  6
CONTINUOUS
 62
2
  2
*D9
  3
DMST_2
 10
4125.288682754617
 20
1203.40535343643
 30
0
 11
4185.67482311637
 21
1207.24359387994
 31
0
 12
0
 22
0
 32
0
 70
0
  1
126
 13
4250.888682754618
 23
1289.373528822728
 33
0
 14
4125.288682754617
 24
1229.627367462512
 34
0
 53
0
  0
DIMENSION
  8
1
  6
CONTINUOUS
 62
2
  2
*D10
  3
DMST_4
 10
4275.116348764461
 20
1341.627367462512
 30
0
 11
4271.51634876446
 21
1290.52621134163
 31
0
 12
0
 22
0
 32
0
 70
0
 13
4240.613682754617
 23
1236.827367462512
 33
0
 14
4242.688682754617
 24
1341.627367462512
 34
0
 50
90
 53
0
  0
DIMENSION
  8
1
  6
CONTINUOUS
 62
2
  2
*D11
  3
DMST_4
 10
4112.36443064536
 20
1236.827367462512
 30
0
 11
4108.764430645359
 21
1276.33192186309
 31
0
 12
0
 22
0
 32
0
 70
0
 13
4127.888682754618
 23
1316.327367462512
 33
0
 14
4234.763682754617
 24
1236.827367462512
 34
0
 50
90
 53
0
  0
DIMENSION
  8
1
  6
CONTINUOUS
 62
2
  2
*D12
  3
DMST_2
 10
4307.56675694883
 20
1367.37977000144
 30
0
 11
4311.402667975533
 21
1370.503974125598
 31
0
 12
0
 22
0
 32
0
 70
0
 13
4315.56675694883
 23
1337.84630255934
 33
0
 14
4307.56675694883
 24
1337.84630255934
 34
0
 53
0
  0
DIMENSION
  8
1
  6
CONTINUOUS
 62
2
  2
*D13
  3
DMST_2
 10
4307.56675694883
 20
1215.378999159524
 30
0
 11
4312.025429878913
 21
1218.279265305608
 31
0
 12
0
 22
0
 32
0
 70
0
 13
4316.56675694883
 23
1231.77977000144
 33
0
 14
4307.56675694883
 24
1231.77977000144
 34
0
 53
0
  0
DIMENSION
  8
1
  6
CONTINUOUS
 62
2
  2
*D14
  3
DMST_5
 10
4205.837833054919
 20
1320.183708566375
 30
0
 11
4145.829284325359
 21
1259.673632960998
 31
0
 12
0
 22
0
 32
0
 70
3
  1
55
 15
4168.739532454317
 25
1279.471026358648
 35
0
 40
0
 53
0
  0
DIMENSION
  8
1
  6
CONTINUOUS
 62
2
  2
*D15
  3
DMST_1
 10
4187.288682754617
 20
1219.914461176239
 30
0
 11
4155.909901008607
 21
1363.38311035064
 31
0
 12
0
 22
0
 32
0
 70
2
 13
4106.949485598787
 23
1380.166564618342
 33
0
 14
4120.3012575855
 24
1366.81479263163
 34
0
 15
4187.288682754617
 25
1371.627367462512
 35
0
 16
4161.54177922395
 26
1361.985891155364
 36
0
 53
0
  0
ENDSEC
  0
EOF
