  0
SECTION
  2
HEADER
  9
$ACADVER
  1
AC1009
  9
$INSBASE
 10
0
 20
0
  9
$EXTMIN
 10
-653.3107149137741
 20
378.386963065265
  9
$EXTMAX
 10
-338.6153117600921
 20
574.258532719095
  9
$LIMMIN
 10
-653.3107149137741
 20
378.386963065265
  9
$LIMMAX
 10
-338.6153117600921
 20
574.258532719095
  9
$VIEWCTR
 10
10
 20
10
  9
$VIEWSIZE
 40
10
  9
$SNAPMODE
 70
0
  9
$SNAPUNIT
 10
1
 20
1
  9
$SNAPBASE
 10
0
 20
0
  9
$SNAPANG
 50
0
  9
$SNAPSTYLE
 70
0
  9
$SNAPISOPAIR
 70
0
  9
$GRIDMODE
 70
0
  9
$GRIDUNIT
 10
0
 20
0
  9
$ORTHOMODE
 70
0
  9
$REGENMODE
 70
1
  9
$FILLMODE
 70
1
  9
$QTEXTMODE
 70
0
  9
$DRAGMODE
 70
2
  9
$LTSCALE
 40
1
  9
$OSMODE
 70
0
  9
$ATTMODE
 70
1
  9
$TEXTSIZE
 40
3.5
  9
$TRACEWID
 40
0.5
  9
$TEXTSTYLE
  7
STANDARD
  9
$CLAYER
  8
0
  9
$CELTYPE
  6
BYLAYER
  9
$CECOLOR
 62
256
  9
$DIMSCALE
 40
1
  9
$DIMASZ
 40
0.18
  9
$DIMEXO
 40
0.0625
  9
$DIMDLI
 40
0.38
  9
$DIMRND
 40
0
  9
$DIMDLE
 40
0
  9
$DIMEXE
 40
0.18
  9
$DIMTP
 40
0
  9
$DIMTM
 40
0
  9
$DIMTXT
 40
0.18
  9
$DIMCEN
 40
0.09
  9
$DIMTSZ
 40
0
  9
$DIMTOL
 70
0
  9
$DIMLIM
 70
0
  9
$DIMTIH
 70
1
  9
$DIMTOH
 70
1
  9
$DIMSE1
 70
0
  9
$DIMSE2
 70
0
  9
$DIMTAD
 70
0
  9
$DIMZIN
 70
0
  9
$DIMBLK
  1

  9
$DIMASO
 70
1
  9
$DIMSHO
 70
1
  9
$DIMPOST
  1

  9
$DIMAPOST
  1

  9
$DIMALT
 70
0
  9
$DIMALTD
 70
2
  9
$DIMALTF
 40
25.4
  9
$DIMLFAC
 40
1
  9
$DIMTOFL
 70
0
  9
$DIMTVP
 40
0
  9
$DIMTIX
 70
0
  9
$DIMSOXD
 70
0
  9
$DIMSAH
 70
0
  9
$DIMBLK1
  1

  9
$DIMBLK2
  1

  9
$DIMSTYLE
  2
*UNNAMED
  9
$DIMCLRD
 70
0
  9
$DIMCLRE
 70
0
  9
$DIMCLRT
 70
0
  9
$DIMTFAC
 40
1
  9
$DIMGAP
 40
0.09
  9
$LUNITS
 70
2
  9
$LUPREC
 70
4
  9
$AXISMODE
 70
0
  9
$AXISUNIT
 10
0
 20
0
  9
$SKETCHINC
 40
0.1
  9
$FILLETRAD
 40
2
  9
$AUNITS
 70
0
  9
$AUPREC
 70
0
  9
$MENU
  1
ACAD
  9
$ELEVATION
 40
0
  9
$THICKNESS
 40
0
  9
$VIEWDIR
 10
0
 20
0
 30
1
  9
$LIMCHECK
 70
0
  9
$BLIPMODE
 70
1
  9
$CHAMFERA
 40
0
  9
$CHAMFERB
 40
0
  9
$FASTZOOM
 70
1
  9
$SKPOLY
 70
0
  9
$ANGBASE
 50
0
  9
$ANGDIR
 70
0
  9
$PDMODE
 70
0
  9
$PDSIZE
 40
0
  9
$PLINEWID
 40
0
  9
$COORDS
 70
2
  0
ENDSEC
  0
SECTION
  2
TABLES
  0
TABLE
  2
DIMSTYLE
 70
11
  0
DIMSTYLE
  2
DMST_1
 70
0
  3

  4

  5

  6

  7

 40
1
 41
4.199999999999999
 42
1
 43
7
 44
1.5
 45
0
 46
0
 47
0
 48
0
140
2.8
141
0
142
0
143
25.4
144
1
145
0
146
1
147
0.09
 71
0
 72
0
 73
0
 74
0
 75
0
 76
0
 77
1
 78
9
170
0
171
2
172
0
173
0
174
0
175
0
176
2
177
2
178
2
  0
DIMSTYLE
  2
DMST_2
 70
0
  3

  4

  5

  6

  7

 40
1
 41
3.75
 42
1
 43
7
 44
1.5
 45
0
 46
0
 47
0.3
 48
0.3
140
2.5
141
0
142
0
143
25.4
144
1
145
0
146
0.6
147
0.09
 71
1
 72
0
 73
0
 74
0
 75
0
 76
0
 77
1
 78
9
170
0
171
2
172
0
173
0
174
0
175
0
176
2
177
2
178
2
  0
DIMSTYLE
  2
DMST_3
 70
0
  3

  4

  5

  6

  7

 40
1
 41
4.5
 42
1
 43
7
 44
1.5
 45
0
 46
0
 47
0.3
 48
0.3
140
3
141
0
142
0
143
25.4
144
1
145
0
146
0.6
147
0.09
 71
1
 72
0
 73
0
 74
0
 75
0
 76
0
 77
1
 78
9
170
0
171
2
172
0
173
0
174
0
175
0
176
2
177
2
178
2
  0
DIMSTYLE
  2
DMST_4
 70
0
  3

  4

  5

  6

  7

 40
1
 41
4.800000000000001
 42
1
 43
7
 44
1.5
 45
0
 46
0
 47
0
 48
0
140
3.2
141
0
142
0
143
25.4
144
1
145
0
146
1
147
0.09
 71
0
 72
0
 73
0
 74
0
 75
0
 76
0
 77
1
 78
9
170
0
171
2
172
0
173
0
174
0
175
0
176
2
177
2
178
2
  0
DIMSTYLE
  2
DMST_5
 70
0
  3

  4

  5

  6

  7

 40
1
 41
4.050000000000001
 42
1
 43
7
 44
1.5
 45
0
 46
0
 47
0
 48
0
140
2.7
141
0
142
0
143
25.4
144
1
145
0
146
1
147
0.09
 71
0
 72
0
 73
0
 74
0
 75
0
 76
0
 77
1
 78
9
170
0
171
2
172
0
173
0
174
0
175
0
176
2
177
2
178
2
  0
DIMSTYLE
  2
DMST_6
 70
0
  3
)
  4

  5

  6

  7

 40
1
 41
4.050000000000001
 42
1
 43
7
 44
1.5
 45
0
 46
0
 47
0
 48
0
140
2.7
141
0
142
0
143
25.4
144
1
145
0
146
1
147
0.09
 71
0
 72
0
 73
0
 74
0
 75
0
 76
0
 77
1
 78
9
170
0
171
2
172
0
173
0
174
0
175
0
176
2
177
2
178
2
  0
DIMSTYLE
  2
DMST_7
 70
0
  3

  4

  5

  6

  7

 40
1
 41
4.5
 42
1
 43
7
 44
1.5
 45
0
 46
0
 47
1
 48
1
140
3
141
0
142
0
143
25.4
144
1
145
0
146
0.6
147
0.09
 71
1
 72
0
 73
0
 74
0
 75
0
 76
0
 77
1
 78
9
170
0
171
2
172
0
173
0
174
0
175
0
176
2
177
2
178
2
  0
DIMSTYLE
  2
DMST_8
 70
0
  3

  4

  5

  6

  7

 40
1
 41
4.050000000000001
 42
1
 43
7
 44
1.5
 45
0
 46
0
 47
1
 48
1
140
2.7
141
0
142
0
143
25.4
144
1
145
0
146
0.6
147
0.09
 71
1
 72
0
 73
0
 74
0
 75
0
 76
0
 77
1
 78
9
170
0
171
2
172
0
173
0
174
0
175
0
176
2
177
2
178
2
  0
DIMSTYLE
  2
DMST_9
 70
0
  3

  4

  5

  6

  7

 40
1
 41
4.050000000000001
 42
1
 43
7
 44
1.5
 45
0
 46
0
 47
0.3
 48
0.3
140
2.7
141
0
142
0
143
25.4
144
1
145
0
146
0.7
147
0.09
 71
1
 72
0
 73
0
 74
0
 75
0
 76
0
 77
1
 78
9
170
0
171
2
172
0
173
0
174
0
175
0
176
2
177
2
178
2
  0
DIMSTYLE
  2
DMST_10
 70
0
  3

  4

  5

  6

  7

 40
1
 41
4.050000000000001
 42
1
 43
7
 44
1.5
 45
0
 46
0
 47
0.3
 48
0.3
140
2.7
141
0
142
0
143
25.4
144
1
145
0
146
0.6
147
0.09
 71
1
 72
0
 73
0
 74
0
 75
0
 76
0
 77
1
 78
9
170
0
171
2
172
0
173
0
174
0
175
0
176
2
177
2
178
2
  0
DIMSTYLE
  2
DMST_11
 70
0
  3

  4

  5

  6

  7

 40
1
 41
4
 42
1
 43
7
 44
1.5
 45
0
 46
0
 47
0
 48
0
140
3.2
141
0
142
0
143
25.4
144
1
145
0
146
1
147
0.09
 71
0
 72
0
 73
0
 74
0
 75
0
 76
0
 77
1
 78
9
170
0
171
2
172
0
173
0
174
0
175
0
176
2
177
2
178
2
  0
ENDTAB
  0
TABLE
  2
LTYPE
 70
9
  0
LTYPE
  2
CONTINUOUS
 70
64
  3
Solid line
 72
65
 73
0
 40
0
  0
LTYPE
  2
BORDER
 70
64
  3
__ __ . __ __ .
 72
65
 73
6
 40
14.49255146102483
 49
4.140728988864237
 49
-2.070364494432119
 49
4.140728988864237
 49
-2.070364494432119
 49
0
 49
-2.070364494432119
  0
LTYPE
  2
CENTER
 70
64
  3
____ _ ____ _
 72
65
 73
4
 40
16.56291595545695
 49
10.35182247216059
 49
-2.070364494432119
 49
2.070364494432119
 49
-2.070364494432119
  0
LTYPE
  2
DASHDOT
 70
64
  3
__ . __ . __ .
 72
65
 73
4
 40
8.281457977728474
 49
4.140728988864237
 49
-2.070364494432119
 49
0
 49
-2.070364494432119
  0
LTYPE
  2
DASHED
 70
64
  3
__ __ __ __ __
 72
65
 73
2
 40
6.211093483296356
 49
4.140728988864237
 49
-2.070364494432119
  0
LTYPE
  2
DIVIDE
 70
64
  3
__ . . __ . . 
 72
65
 73
6
 40
10.35182247216059
 49
4.140728988864237
 49
-2.070364494432119
 49
0
 49
-2.070364494432119
 49
0
 49
-2.070364494432119
  0
LTYPE
  2
DOT
 70
64
  3
..............
 72
65
 73
4
 40
4.140728988864237
 49
0
 49
-2.070364494432119
 49
0
 49
-2.070364494432119
  0
LTYPE
  2
HIDDEN
 70
64
  3
_ _ _ _ _ _ _
 72
65
 73
2
 40
3.105546741648178
 49
2.070364494432119
 49
-1.035182247216059
  0
LTYPE
  2
PHANTOM
 70
64
  3
_____ _ _ _____ _ _ 
 72
65
 73
6
 40
20.70364494432118
 49
10.35182247216059
 49
-2.070364494432119
 49
2.070364494432119
 49
-2.070364494432119
 49
2.070364494432119
 49
-2.070364494432119
  0
ENDTAB
  0
TABLE
  2
LAYER
 70
4
  0
LAYER
  2
10
 70
0
 62
7
  6
CONTINUOUS
  0
LAYER
  2
1
 70
0
 62
7
  6
CONTINUOUS
  0
LAYER
  2
0
 70
0
 62
7
  6
CONTINUOUS
  0
ENDTAB
  0
TABLE
  2
STYLE
 70
4
  0
STYLE
  2
STANDARD
 70
0
 40
0
 41
1
 50
0
 71
0
 42
3.5
  3
txt
  4

  0
STYLE
  2
SIMPLEX
 70
0
 40
0
 41
1
 50
0
 71
0
 42
3.5
  3
simplex
  4

  0
STYLE
  2
COMPLEX
 70
0
 40
0
 41
1
 50
0
 71
0
 42
3.5
  3
complex
  4

  0
STYLE
  2
ITALIC
 70
0
 40
0
 41
1
 50
0
 71
0
 42
3.5
  3
italic
  4

  0
ENDTAB
  0
TABLE
  2
VIEW
 70
0
  0
ENDTAB
  0
ENDSEC
  0
SECTION
  2
BLOCKS
  0
BLOCK
  8
1
  2
*X0
 70
1
 10
0
 20
0
 30
0
  0
LINE
  8
1
 62
2
 10
-410.3053005352807
 20
468.9112711920723
 30
0
 11
-410.2273524352143
 21
468.9892192921379
 31
0
  0
LINE
  8
1
 62
2
 10
-410.3053005352807
 20
468.769849835835
 30
0
 11
-410.085931078977
 21
468.9892192921379
 31
0
  0
LINE
  8
1
 62
2
 10
-410.3053005352807
 20
468.6284284795977
 30
0
 11
-409.9445097227397
 21
468.9892192921379
 31
0
  0
LINE
  8
1
 62
2
 10
-410.3053005352807
 20
468.4870071233604
 30
0
 11
-409.8030883665024
 21
468.9892192921379
 31
0
  0
LINE
  8
1
 62
2
 10
-410.3053005352807
 20
468.3455857671231
 30
0
 11
-409.6616670102652
 21
468.9892192921379
 31
0
  0
LINE
  8
1
 62
2
 10
-410.3053005352807
 20
468.2041644108858
 30
0
 11
-409.5202456540279
 21
468.9892192921379
 31
0
  0
LINE
  8
1
 62
2
 10
-410.3053005352807
 20
468.0627430546485
 30
0
 11
-409.3788242977906
 21
468.9892192921379
 31
0
  0
LINE
  8
1
 62
2
 10
-410.3053005352807
 20
467.9213216984113
 30
0
 11
-409.2374029415533
 21
468.9892192921379
 31
0
  0
LINE
  8
1
 62
2
 10
-410.3053005352807
 20
467.779900342174
 30
0
 11
-409.095981585316
 21
468.9892192921379
 31
0
  0
LINE
  8
1
 62
2
 10
-410.3053005352807
 20
467.6384789859367
 30
0
 11
-408.9545602290787
 21
468.9892192921379
 31
0
  0
LINE
  8
1
 62
2
 10
-410.3053005352807
 20
467.4970576296994
 30
0
 11
-408.8131388728414
 21
468.9892192921379
 31
0
  0
LINE
  8
1
 62
2
 10
-410.3053005352807
 20
467.3556362734621
 30
0
 11
-408.6717175166041
 21
468.9892192921379
 31
0
  0
LINE
  8
1
 62
2
 10
-410.3053005352807
 20
467.2142149172248
 30
0
 11
-408.5302961603669
 21
468.9892192921379
 31
0
  0
LINE
  8
1
 62
2
 10
-410.3053005352807
 20
467.0727935609875
 30
0
 11
-408.3888748041296
 21
468.9892192921379
 31
0
  0
LINE
  8
1
 62
2
 10
-410.2474534478919
 20
466.9892192921379
 30
0
 11
-408.2474534478923
 21
468.9892192921379
 31
0
  0
LINE
  8
1
 62
2
 10
-410.1060320916546
 20
466.9892192921379
 30
0
 11
-408.106032091655
 21
468.9892192921379
 31
0
  0
LINE
  8
1
 62
2
 10
-409.9646107354174
 20
466.9892192921379
 30
0
 11
-407.9646107354177
 21
468.9892192921379
 31
0
  0
LINE
  8
1
 62
2
 10
-409.8231893791801
 20
466.9892192921379
 30
0
 11
-407.8231893791804
 21
468.9892192921379
 31
0
  0
LINE
  8
1
 62
2
 10
-409.6817680229428
 20
466.9892192921379
 30
0
 11
-407.6817680229431
 21
468.9892192921379
 31
0
  0
LINE
  8
1
 62
2
 10
-409.5403466667055
 20
466.9892192921379
 30
0
 11
-407.5403466667058
 21
468.9892192921379
 31
0
  0
LINE
  8
1
 62
2
 10
-409.3989253104682
 20
466.9892192921379
 30
0
 11
-407.3989253104685
 21
468.9892192921379
 31
0
  0
LINE
  8
1
 62
2
 10
-409.2575039542309
 20
466.9892192921379
 30
0
 11
-407.2575039542313
 21
468.9892192921379
 31
0
  0
LINE
  8
1
 62
2
 10
-409.1160825979936
 20
466.9892192921379
 30
0
 11
-407.116082597994
 21
468.9892192921379
 31
0
  0
LINE
  8
1
 62
2
 10
-408.9746612417563
 20
466.9892192921379
 30
0
 11
-406.9746612417567
 21
468.9892192921379
 31
0
  0
LINE
  8
1
 62
2
 10
-408.8332398855191
 20
466.9892192921379
 30
0
 11
-406.8332398855194
 21
468.9892192921379
 31
0
  0
LINE
  8
1
 62
2
 10
-408.6918185292818
 20
466.9892192921379
 30
0
 11
-406.6918185292821
 21
468.9892192921379
 31
0
  0
LINE
  8
1
 62
2
 10
-408.5503971730445
 20
466.9892192921379
 30
0
 11
-406.5503971730448
 21
468.9892192921379
 31
0
  0
LINE
  8
1
 62
2
 10
-408.4089758168072
 20
466.9892192921379
 30
0
 11
-406.4089758168075
 21
468.9892192921379
 31
0
  0
LINE
  8
1
 62
2
 10
-408.2675544605699
 20
466.9892192921379
 30
0
 11
-406.2675544605702
 21
468.9892192921379
 31
0
  0
LINE
  8
1
 62
2
 10
-408.1261331043326
 20
466.9892192921379
 30
0
 11
-406.126133104333
 21
468.9892192921379
 31
0
  0
LINE
  8
1
 62
2
 10
-407.9847117480953
 20
466.9892192921379
 30
0
 11
-405.9847117480957
 21
468.9892192921379
 31
0
  0
LINE
  8
1
 62
2
 10
-407.843290391858
 20
466.9892192921379
 30
0
 11
-405.8432903918584
 21
468.9892192921379
 31
0
  0
LINE
  8
1
 62
2
 10
-407.7018690356208
 20
466.9892192921379
 30
0
 11
-405.7018690356211
 21
468.9892192921379
 31
0
  0
LINE
  8
1
 62
2
 10
-407.5604476793835
 20
466.9892192921379
 30
0
 11
-405.5604476793838
 21
468.9892192921379
 31
0
  0
LINE
  8
1
 62
2
 10
-403.3053005352807
 20
471.1029450800037
 30
0
 11
-403.246774542877
 21
471.1614710724064
 31
0
  0
LINE
  8
1
 62
2
 10
-407.4190263231462
 20
466.9892192921379
 30
0
 11
-405.4190263231465
 21
468.9892192921379
 31
0
  0
LINE
  8
1
 62
2
 10
-403.3053005352807
 20
470.9615237237664
 30
0
 11
-403.1571169956602
 21
471.1097072633859
 31
0
  0
LINE
  8
1
 62
2
 10
-407.2776049669089
 20
466.9892192921379
 30
0
 11
-405.2776049669092
 21
468.9892192921379
 31
0
  0
LINE
  8
1
 62
2
 10
-403.3053005352807
 20
470.8201023675291
 30
0
 11
-403.0674594484435
 21
471.0579434543653
 31
0
  0
LINE
  8
1
 62
2
 10
-407.1361836106716
 20
466.9892192921379
 30
0
 11
-405.1361836106719
 21
468.9892192921379
 31
0
  0
LINE
  8
1
 62
2
 10
-403.3053005352807
 20
470.6786810112918
 30
0
 11
-402.9778019012267
 21
471.0061796453448
 31
0
  0
LINE
  8
1
 62
2
 10
-406.9947622544343
 20
466.9892192921379
 30
0
 11
-404.9947622544347
 21
468.9892192921379
 31
0
  0
LINE
  8
1
 62
2
 10
-403.3053005352807
 20
470.5372596550545
 30
0
 11
-402.88814435401
 21
470.9544158363242
 31
0
  0
LINE
  8
1
 62
2
 10
-406.853340898197
 20
466.9892192921379
 30
0
 11
-404.8533408981974
 21
468.9892192921379
 31
0
  0
LINE
  8
1
 62
2
 10
-403.3053005352807
 20
470.3958382988172
 30
0
 11
-402.7984868067932
 21
470.9026520273037
 31
0
  0
LINE
  8
1
 62
2
 10
-406.7119195419597
 20
466.9892192921379
 30
0
 11
-404.7119195419601
 21
468.9892192921379
 31
0
  0
LINE
  8
1
 62
2
 10
-403.3053005352807
 20
470.25441694258
 30
0
 11
-402.7088292595765
 21
470.8508882182832
 31
0
  0
LINE
  8
1
 62
2
 10
-406.5704981857224
 20
466.9892192921379
 30
0
 11
-404.5704981857228
 21
468.9892192921379
 31
0
  0
LINE
  8
1
 62
2
 10
-403.3053005352807
 20
470.1129955863427
 30
0
 11
-402.6191717123597
 21
470.7991244092626
 31
0
  0
LINE
  8
1
 62
2
 10
-406.4290768294852
 20
466.9892192921379
 30
0
 11
-404.4290768294855
 21
468.9892192921379
 31
0
  0
LINE
  8
1
 62
2
 10
-403.3053005352807
 20
469.9715742301054
 30
0
 11
-402.529514165143
 21
470.7473606002421
 31
0
  0
LINE
  8
1
 62
2
 10
-406.2876554732479
 20
466.9892192921379
 30
0
 11
-404.2876554732482
 21
468.9892192921379
 31
0
  0
LINE
  8
1
 62
2
 10
-403.3053005352807
 20
469.8301528738681
 30
0
 11
-402.4398566179262
 21
470.6955967912215
 31
0
  0
LINE
  8
1
 62
2
 10
-406.1462341170106
 20
466.9892192921379
 30
0
 11
-404.1462341170109
 21
468.9892192921379
 31
0
  0
LINE
  8
1
 62
2
 10
-403.3053005352807
 20
469.6887315176308
 30
0
 11
-402.3501990707095
 21
470.643832982201
 31
0
  0
LINE
  8
1
 62
2
 10
-406.0048127607733
 20
466.9892192921379
 30
0
 11
-404.0048127607736
 21
468.9892192921379
 31
0
  0
LINE
  8
1
 62
2
 10
-403.3053005352807
 20
469.5473101613935
 30
0
 11
-402.2605415234928
 21
470.5920691731805
 31
0
  0
LINE
  8
1
 62
2
 10
-405.863391404536
 20
466.9892192921379
 30
0
 11
-403.8633914045363
 21
468.9892192921379
 31
0
  0
LINE
  8
1
 62
2
 10
-403.3053005352807
 20
469.4058888051562
 30
0
 11
-402.170883976276
 21
470.5403053641599
 31
0
  0
LINE
  8
1
 62
2
 10
-405.7219700482987
 20
466.9892192921379
 30
0
 11
-403.7219700482991
 21
468.9892192921379
 31
0
  0
LINE
  8
1
 62
2
 10
-403.3053005352807
 20
469.2644674489189
 30
0
 11
-402.0812264290593
 21
470.4885415551394
 31
0
  0
LINE
  8
1
 62
2
 10
-405.5805486920614
 20
466.9892192921379
 30
0
 11
-403.5805486920618
 21
468.9892192921379
 31
0
  0
LINE
  8
1
 62
2
 10
-403.3053005352807
 20
469.1230460926817
 30
0
 11
-401.9915688818425
 21
470.4367777461188
 31
0
  0
LINE
  8
1
 62
2
 10
-405.4391273358241
 20
466.9892192921379
 30
0
 11
-403.4391273358245
 21
468.9892192921379
 31
0
  0
LINE
  8
1
 62
2
 10
-405.2977059795869
 20
466.9892192921379
 30
0
 11
-401.9019113346258
 21
470.3850139370983
 31
0
  0
LINE
  8
1
 62
2
 10
-405.1562846233496
 20
466.9892192921379
 30
0
 11
-401.812253787409
 21
470.3332501280777
 31
0
  0
LINE
  8
1
 62
2
 10
-405.0148632671123
 20
466.9892192921379
 30
0
 11
-401.7225962401923
 21
470.2814863190572
 31
0
  0
LINE
  8
1
 62
2
 10
-404.873441910875
 20
466.9892192921379
 30
0
 11
-401.6329386929755
 21
470.2297225100367
 31
0
  0
LINE
  8
1
 62
2
 10
-404.7320205546377
 20
466.9892192921379
 30
0
 11
-401.5432811457588
 21
470.1779587010161
 31
0
  0
LINE
  8
1
 62
2
 10
-404.5905991984004
 20
466.9892192921379
 30
0
 11
-401.453623598542
 21
470.1261948919956
 31
0
  0
LINE
  8
1
 62
2
 10
-404.4491778421631
 20
466.9892192921379
 30
0
 11
-401.3639660513253
 21
470.074431082975
 31
0
  0
LINE
  8
1
 62
2
 10
-404.3077564859258
 20
466.9892192921379
 30
0
 11
-401.2743085041086
 21
470.0226672739545
 31
0
  0
LINE
  8
1
 62
2
 10
-404.1663351296886
 20
466.9892192921379
 30
0
 11
-401.1846509568918
 21
469.9709034649339
 31
0
  0
LINE
  8
1
 62
2
 10
-404.0249137734513
 20
466.9892192921379
 30
0
 11
-401.0949934096751
 21
469.9191396559134
 31
0
  0
LINE
  8
1
 62
2
 10
-403.883492417214
 20
466.9892192921379
 30
0
 11
-401.0053358624583
 21
469.8673758468929
 31
0
  0
LINE
  8
1
 62
2
 10
-403.7420710609767
 20
466.9892192921379
 30
0
 11
-400.9156783152416
 21
469.8156120378723
 31
0
  0
LINE
  8
1
 62
2
 10
-403.6006497047394
 20
466.9892192921379
 30
0
 11
-400.8260207680248
 21
469.7638482288518
 31
0
  0
LINE
  8
1
 62
2
 10
-403.4592283485021
 20
466.9892192921379
 30
0
 11
-400.7363632208081
 21
469.7120844198312
 31
0
  0
LINE
  8
1
 62
2
 10
-403.3178069922648
 20
466.9892192921379
 30
0
 11
-400.6467056735913
 21
469.6603206108107
 31
0
  0
LINE
  8
1
 62
2
 10
-403.3053005352807
 20
466.8603043928845
 30
0
 11
-400.5570481263746
 21
469.6085568017901
 31
0
  0
LINE
  8
1
 62
2
 10
-403.3053005352807
 20
466.7188830366472
 30
0
 11
-400.4673905791578
 21
469.5567929927696
 31
0
  0
LINE
  8
1
 62
2
 10
-403.3053005352807
 20
466.5774616804099
 30
0
 11
-400.3777330319411
 21
469.5050291837491
 31
0
  0
LINE
  8
1
 62
2
 10
-403.3053005352807
 20
466.4360403241726
 30
0
 11
-400.2880754847244
 21
469.4532653747285
 31
0
  0
LINE
  8
1
 62
2
 10
-403.3053005352807
 20
466.2946189679353
 30
0
 11
-400.1984179375076
 21
469.401501565708
 31
0
  0
LINE
  8
1
 62
2
 10
-403.3053005352807
 20
466.153197611698
 30
0
 11
-400.1087603902909
 21
469.3497377566874
 31
0
  0
LINE
  8
1
 62
2
 10
-403.3053005352807
 20
466.0117762554608
 30
0
 11
-400.0191028430741
 21
469.2979739476669
 31
0
  0
LINE
  8
1
 62
2
 10
-403.3053005352807
 20
465.8703548992235
 30
0
 11
-399.9294452958574
 21
469.2462101386464
 31
0
  0
LINE
  8
1
 62
2
 10
-403.3053005352807
 20
465.7289335429862
 30
0
 11
-399.8397877486406
 21
469.1944463296258
 31
0
  0
LINE
  8
1
 62
2
 10
-403.3053005352807
 20
465.5875121867489
 30
0
 11
-399.7501302014239
 21
469.1426825206053
 31
0
  0
LINE
  8
1
 62
2
 10
-403.3053005352807
 20
465.4460908305116
 30
0
 11
-399.6604726542071
 21
469.0909187115847
 31
0
  0
LINE
  8
1
 62
2
 10
-403.3053005352807
 20
465.3046694742743
 30
0
 11
-399.5708151069904
 21
469.0391549025642
 31
0
  0
LINE
  8
1
 62
2
 10
-403.3053005352807
 20
465.163248118037
 30
0
 11
-399.4811575597736
 21
468.9873910935436
 31
0
  0
LINE
  8
1
 62
2
 10
-403.3053005352807
 20
465.0218267617997
 30
0
 11
-399.3915000125569
 21
468.9356272845231
 31
0
  0
LINE
  8
1
 62
2
 10
-403.3053005352807
 20
464.8804054055624
 30
0
 11
-399.3018424653401
 21
468.8838634755026
 31
0
  0
LINE
  8
1
 62
2
 10
-403.2007376742046
 20
464.8435469104016
 30
0
 11
-399.2121849181234
 21
468.832099666482
 31
0
  0
LINE
  8
1
 62
2
 10
-402.8661311527105
 20
465.0367320756585
 30
0
 11
-399.1225273709067
 21
468.7803358574615
 31
0
  0
LINE
  8
1
 62
2
 10
-402.5315246312163
 20
465.2299172409153
 30
0
 11
-399.0328698236899
 21
468.7285720484409
 31
0
  0
LINE
  8
1
 62
2
 10
-402.1969181097222
 20
465.4231024061721
 30
0
 11
-398.9432122764732
 21
468.6768082394204
 31
0
  0
LINE
  8
1
 62
2
 10
-401.862311588228
 20
465.6162875714289
 30
0
 11
-398.8535547292564
 21
468.6250444303998
 31
0
  0
LINE
  8
1
 62
2
 10
-401.5277050667339
 20
465.8094727366857
 30
0
 11
-398.7638971820397
 21
468.5732806213793
 31
0
  0
LINE
  8
1
 62
2
 10
-401.1930985452397
 20
466.0026579019425
 30
0
 11
-398.6742396348229
 21
468.5215168123588
 31
0
  0
LINE
  8
1
 62
2
 10
-400.8584920237456
 20
466.1958430671993
 30
0
 11
-398.5845820876062
 21
468.4697530033382
 31
0
  0
LINE
  8
1
 62
2
 10
-400.5238855022514
 20
466.3890282324561
 30
0
 11
-398.4949245403894
 21
468.4179891943177
 31
0
  0
LINE
  8
1
 62
2
 10
-400.1892789807573
 20
466.5822133977129
 30
0
 11
-398.4052669931727
 21
468.3662253852971
 31
0
  0
LINE
  8
1
 62
2
 10
-399.8546724592631
 20
466.7753985629697
 30
0
 11
-398.3156094459559
 21
468.3144615762766
 31
0
  0
LINE
  8
1
 62
2
 10
-399.520065937769
 20
466.9685837282265
 30
0
 11
-398.2259518987392
 21
468.262697767256
 31
0
  0
LINE
  8
1
 62
2
 10
-399.1854594162748
 20
467.1617688934833
 30
0
 11
-398.1362943515225
 21
468.2109339582355
 31
0
  0
LINE
  8
1
 62
2
 10
-398.8508528947806
 20
467.3549540587401
 30
0
 11
-398.0466368043057
 21
468.159170149215
 31
0
  0
LINE
  8
1
 62
2
 10
-398.5162463732865
 20
467.5481392239969
 30
0
 11
-397.956979257089
 21
468.1074063401944
 31
0
  0
LINE
  8
1
 62
2
 10
-398.1816398517923
 20
467.7413243892538
 30
0
 11
-397.8673217098722
 21
468.0556425311739
 31
0
  0
LINE
  8
1
 62
2
 10
-397.8470333302982
 20
467.9345095545106
 30
0
 11
-397.7776641626555
 21
468.0038787221533
 31
0
  0
ENDBLK
  8
0
  0
BLOCK
  8
1
  2
*X1
 70
1
 10
0
 20
0
 30
0
  0
LINE
  8
1
 62
2
 10
-427.8150628685917
 20
420.2888104865532
 30
0
 11
-427.7094863006501
 21
420.394387054494
 31
0
  0
LINE
  8
1
 62
2
 10
-427.8150628685917
 20
420.1473891303159
 30
0
 11
-427.5680649444128
 21
420.394387054494
 31
0
  0
LINE
  8
1
 62
2
 10
-427.8150628685917
 20
420.0059677740786
 30
0
 11
-427.4266435881755
 21
420.394387054494
 31
0
  0
LINE
  8
1
 62
2
 10
-427.8150628685917
 20
419.8645464178413
 30
0
 11
-427.2852222319382
 21
420.394387054494
 31
0
  0
LINE
  8
1
 62
2
 10
-427.8150628685917
 20
419.723125061604
 30
0
 11
-427.143800875701
 21
420.394387054494
 31
0
  0
LINE
  8
1
 62
2
 10
-427.8150628685917
 20
419.5817037053668
 30
0
 11
-427.0023795194637
 21
420.394387054494
 31
0
  0
LINE
  8
1
 62
2
 10
-427.8150628685917
 20
419.4402823491295
 30
0
 11
-426.8609581632264
 21
420.394387054494
 31
0
  0
LINE
  8
1
 62
2
 10
-427.8150628685917
 20
419.2988609928922
 30
0
 11
-426.7195368069891
 21
420.394387054494
 31
0
  0
LINE
  8
1
 62
2
 10
-427.8150628685917
 20
419.1574396366549
 30
0
 11
-426.5781154507518
 21
420.394387054494
 31
0
  0
LINE
  8
1
 62
2
 10
-427.8150628685917
 20
419.0160182804176
 30
0
 11
-426.4366940945145
 21
420.394387054494
 31
0
  0
LINE
  8
1
 62
2
 10
-427.8150628685917
 20
418.8745969241803
 30
0
 11
-426.2952727382772
 21
420.394387054494
 31
0
  0
LINE
  8
1
 62
2
 10
-427.8150628685917
 20
418.733175567943
 30
0
 11
-426.1538513820399
 21
420.394387054494
 31
0
  0
LINE
  8
1
 62
2
 10
-427.8150628685917
 20
418.5917542117057
 30
0
 11
-426.0124300258026
 21
420.394387054494
 31
0
  0
LINE
  8
1
 62
2
 10
-427.8150628685917
 20
418.4503328554685
 30
0
 11
-425.8710086695654
 21
420.394387054494
 31
0
  0
LINE
  8
1
 62
2
 10
-427.7295873133278
 20
418.394387054494
 30
0
 11
-425.7295873133281
 21
420.394387054494
 31
0
  0
LINE
  8
1
 62
2
 10
-427.5881659570906
 20
418.394387054494
 30
0
 11
-425.5881659570908
 21
420.394387054494
 31
0
  0
LINE
  8
1
 62
2
 10
-427.4467446008533
 20
418.394387054494
 30
0
 11
-425.4467446008535
 21
420.394387054494
 31
0
  0
LINE
  8
1
 62
2
 10
-427.305323244616
 20
418.394387054494
 30
0
 11
-425.3053232446162
 21
420.394387054494
 31
0
  0
LINE
  8
1
 62
2
 10
-427.1639018883787
 20
418.394387054494
 30
0
 11
-425.1639018883789
 21
420.394387054494
 31
0
  0
LINE
  8
1
 62
2
 10
-427.0224805321414
 20
418.394387054494
 30
0
 11
-425.0224805321416
 21
420.394387054494
 31
0
  0
LINE
  8
1
 62
2
 10
-426.8810591759041
 20
418.394387054494
 30
0
 11
-424.8810591759043
 21
420.394387054494
 31
0
  0
LINE
  8
1
 62
2
 10
-426.7396378196668
 20
418.394387054494
 30
0
 11
-424.7396378196671
 21
420.394387054494
 31
0
  0
LINE
  8
1
 62
2
 10
-426.5982164634295
 20
418.394387054494
 30
0
 11
-424.5982164634298
 21
420.394387054494
 31
0
  0
LINE
  8
1
 62
2
 10
-426.4567951071923
 20
418.394387054494
 30
0
 11
-424.4567951071925
 21
420.394387054494
 31
0
  0
LINE
  8
1
 62
2
 10
-426.315373750955
 20
418.394387054494
 30
0
 11
-424.3153737509552
 21
420.394387054494
 31
0
  0
LINE
  8
1
 62
2
 10
-426.1739523947177
 20
418.394387054494
 30
0
 11
-424.1739523947179
 21
420.394387054494
 31
0
  0
LINE
  8
1
 62
2
 10
-426.0325310384804
 20
418.394387054494
 30
0
 11
-424.0325310384806
 21
420.394387054494
 31
0
  0
LINE
  8
1
 62
2
 10
-425.8911096822431
 20
418.394387054494
 30
0
 11
-423.8911096822433
 21
420.394387054494
 31
0
  0
LINE
  8
1
 62
2
 10
-425.7496883260058
 20
418.394387054494
 30
0
 11
-423.749688326006
 21
420.394387054494
 31
0
  0
LINE
  8
1
 62
2
 10
-425.6082669697685
 20
418.394387054494
 30
0
 11
-423.6082669697688
 21
420.394387054494
 31
0
  0
LINE
  8
1
 62
2
 10
-425.4668456135312
 20
418.394387054494
 30
0
 11
-423.4668456135315
 21
420.394387054494
 31
0
  0
LINE
  8
1
 62
2
 10
-425.325424257294
 20
418.394387054494
 30
0
 11
-423.3254242572942
 21
420.394387054494
 31
0
  0
LINE
  8
1
 62
2
 10
-425.1840029010567
 20
418.394387054494
 30
0
 11
-423.1840029010569
 21
420.394387054494
 31
0
  0
LINE
  8
1
 62
2
 10
-425.0425815448194
 20
418.394387054494
 30
0
 11
-423.0425815448196
 21
420.394387054494
 31
0
  0
LINE
  8
1
 62
2
 10
-420.8150628685917
 20
422.4804843744846
 30
0
 11
-420.7390211294331
 21
422.5565261136457
 31
0
  0
LINE
  8
1
 62
2
 10
-424.9011601885821
 20
418.394387054494
 30
0
 11
-422.9011601885823
 21
420.394387054494
 31
0
  0
LINE
  8
1
 62
2
 10
-420.8150628685917
 20
422.3390630182473
 30
0
 11
-420.6493635822162
 21
422.5047623046252
 31
0
  0
LINE
  8
1
 62
2
 10
-424.7597388323448
 20
418.394387054494
 30
0
 11
-422.759738832345
 21
420.394387054494
 31
0
  0
LINE
  8
1
 62
2
 10
-420.8150628685917
 20
422.19764166201
 30
0
 11
-420.5597060349993
 21
422.4529984956048
 31
0
  0
LINE
  8
1
 62
2
 10
-424.6183174761075
 20
418.394387054494
 30
0
 11
-422.6183174761077
 21
420.394387054494
 31
0
  0
LINE
  8
1
 62
2
 10
-420.8150628685917
 20
422.0562203057727
 30
0
 11
-420.4700484877824
 21
422.4012346865844
 31
0
  0
LINE
  8
1
 62
2
 10
-424.4768961198702
 20
418.394387054494
 30
0
 11
-422.4768961198705
 21
420.394387054494
 31
0
  0
LINE
  8
1
 62
2
 10
-420.8150628685917
 20
421.9147989495355
 30
0
 11
-420.3803909405655
 21
422.3494708775639
 31
0
  0
LINE
  8
1
 62
2
 10
-424.3354747636329
 20
418.394387054494
 30
0
 11
-422.3354747636332
 21
420.394387054494
 31
0
  0
LINE
  8
1
 62
2
 10
-420.8150628685917
 20
421.7733775932982
 30
0
 11
-420.2907333933486
 21
422.2977070685435
 31
0
  0
LINE
  8
1
 62
2
 10
-424.1940534073956
 20
418.394387054494
 30
0
 11
-422.1940534073959
 21
420.394387054494
 31
0
  0
LINE
  8
1
 62
2
 10
-420.8150628685917
 20
421.6319562370609
 30
0
 11
-420.2010758461316
 21
422.2459432595231
 31
0
  0
LINE
  8
1
 62
2
 10
-424.0526320511584
 20
418.394387054494
 30
0
 11
-422.0526320511586
 21
420.394387054494
 31
0
  0
LINE
  8
1
 62
2
 10
-420.8150628685917
 20
421.4905348808236
 30
0
 11
-420.1114182989147
 21
422.1941794505027
 31
0
  0
LINE
  8
1
 62
2
 10
-423.9112106949211
 20
418.394387054494
 30
0
 11
-421.9112106949213
 21
420.394387054494
 31
0
  0
LINE
  8
1
 62
2
 10
-420.8150628685917
 20
421.3491135245863
 30
0
 11
-420.0217607516978
 21
422.1424156414822
 31
0
  0
LINE
  8
1
 62
2
 10
-423.7697893386838
 20
418.394387054494
 30
0
 11
-421.769789338684
 21
420.394387054494
 31
0
  0
LINE
  8
1
 62
2
 10
-420.8150628685917
 20
421.207692168349
 30
0
 11
-419.9321032044809
 21
422.0906518324618
 31
0
  0
LINE
  8
1
 62
2
 10
-423.6283679824465
 20
418.394387054494
 30
0
 11
-421.6283679824467
 21
420.394387054494
 31
0
  0
LINE
  8
1
 62
2
 10
-420.8150628685917
 20
421.0662708121117
 30
0
 11
-419.842445657264
 21
422.0388880234414
 31
0
  0
LINE
  8
1
 62
2
 10
-423.4869466262092
 20
418.394387054494
 30
0
 11
-421.4869466262094
 21
420.394387054494
 31
0
  0
LINE
  8
1
 62
2
 10
-420.8150628685917
 20
420.9248494558744
 30
0
 11
-419.7527881100471
 21
421.9871242144209
 31
0
  0
LINE
  8
1
 62
2
 10
-423.3455252699719
 20
418.394387054494
 30
0
 11
-421.3455252699721
 21
420.394387054494
 31
0
  0
LINE
  8
1
 62
2
 10
-420.8150628685917
 20
420.7834280996372
 30
0
 11
-419.6631305628301
 21
421.9353604054005
 31
0
  0
LINE
  8
1
 62
2
 10
-423.2041039137346
 20
418.394387054494
 30
0
 11
-421.2041039137349
 21
420.394387054494
 31
0
  0
LINE
  8
1
 62
2
 10
-420.8150628685917
 20
420.6420067433999
 30
0
 11
-419.5734730156132
 21
421.8835965963801
 31
0
  0
LINE
  8
1
 62
2
 10
-423.0626825574973
 20
418.394387054494
 30
0
 11
-421.0626825574976
 21
420.394387054494
 31
0
  0
LINE
  8
1
 62
2
 10
-420.8150628685917
 20
420.5005853871626
 30
0
 11
-419.4838154683963
 21
421.8318327873596
 31
0
  0
LINE
  8
1
 62
2
 10
-422.9212612012601
 20
418.394387054494
 30
0
 11
-420.9212612012603
 21
420.394387054494
 31
0
  0
LINE
  8
1
 62
2
 10
-422.7798398450228
 20
418.394387054494
 30
0
 11
-419.3941579211794
 21
421.7800689783392
 31
0
  0
LINE
  8
1
 62
2
 10
-422.6384184887855
 20
418.394387054494
 30
0
 11
-419.3045003739625
 21
421.7283051693188
 31
0
  0
LINE
  8
1
 62
2
 10
-422.4969971325482
 20
418.394387054494
 30
0
 11
-419.2148428267456
 21
421.6765413602984
 31
0
  0
LINE
  8
1
 62
2
 10
-422.3555757763109
 20
418.394387054494
 30
0
 11
-419.1251852795286
 21
421.6247775512779
 31
0
  0
LINE
  8
1
 62
2
 10
-422.2141544200736
 20
418.394387054494
 30
0
 11
-419.0355277323117
 21
421.5730137422575
 31
0
  0
LINE
  8
1
 62
2
 10
-422.0727330638363
 20
418.394387054494
 30
0
 11
-418.9458701850948
 21
421.5212499332371
 31
0
  0
LINE
  8
1
 62
2
 10
-421.931311707599
 20
418.394387054494
 30
0
 11
-418.8562126378779
 21
421.4694861242166
 31
0
  0
LINE
  8
1
 62
2
 10
-421.7898903513618
 20
418.394387054494
 30
0
 11
-418.766555090661
 21
421.4177223151962
 31
0
  0
LINE
  8
1
 62
2
 10
-421.6484689951245
 20
418.394387054494
 30
0
 11
-418.6768975434441
 21
421.3659585061758
 31
0
  0
LINE
  8
1
 62
2
 10
-421.5070476388872
 20
418.394387054494
 30
0
 11
-418.5872399962271
 21
421.3141946971554
 31
0
  0
LINE
  8
1
 62
2
 10
-421.3656262826499
 20
418.394387054494
 30
0
 11
-418.4975824490102
 21
421.2624308881349
 31
0
  0
LINE
  8
1
 62
2
 10
-421.2242049264126
 20
418.394387054494
 30
0
 11
-418.4079249017933
 21
421.2106670791145
 31
0
  0
LINE
  8
1
 62
2
 10
-421.0827835701753
 20
418.394387054494
 30
0
 11
-418.3182673545764
 21
421.1589032700941
 31
0
  0
LINE
  8
1
 62
2
 10
-420.941362213938
 20
418.394387054494
 30
0
 11
-418.2286098073595
 21
421.1071394610736
 31
0
  0
LINE
  8
1
 62
2
 10
-420.8150628685917
 20
418.3792650436027
 30
0
 11
-418.1389522601426
 21
421.0553756520532
 31
0
  0
LINE
  8
1
 62
2
 10
-420.8150628685917
 20
418.2378436873654
 30
0
 11
-418.0492947129256
 21
421.0036118430328
 31
0
  0
LINE
  8
1
 62
2
 10
-420.8150628685917
 20
418.0964223311281
 30
0
 11
-417.9596371657087
 21
420.9518480340124
 31
0
  0
LINE
  8
1
 62
2
 10
-420.8150628685917
 20
417.9550009748908
 30
0
 11
-417.8699796184918
 21
420.9000842249919
 31
0
  0
LINE
  8
1
 62
2
 10
-420.8150628685917
 20
417.8135796186535
 30
0
 11
-417.7803220712749
 21
420.8483204159715
 31
0
  0
LINE
  8
1
 62
2
 10
-420.8150628685917
 20
417.6721582624163
 30
0
 11
-417.690664524058
 21
420.7965566069511
 31
0
  0
LINE
  8
1
 62
2
 10
-420.8150628685917
 20
417.530736906179
 30
0
 11
-417.6010069768411
 21
420.7447927979306
 31
0
  0
LINE
  8
1
 62
2
 10
-420.8150628685917
 20
417.3893155499417
 30
0
 11
-417.5113494296242
 21
420.6930289889102
 31
0
  0
LINE
  8
1
 62
2
 10
-420.8150628685917
 20
417.2478941937044
 30
0
 11
-417.4216918824072
 21
420.6412651798898
 31
0
  0
LINE
  8
1
 62
2
 10
-420.8150628685917
 20
417.1064728374671
 30
0
 11
-417.3320343351903
 21
420.5895013708694
 31
0
  0
LINE
  8
1
 62
2
 10
-420.8150628685917
 20
416.9650514812298
 30
0
 11
-417.2423767879734
 21
420.5377375618489
 31
0
  0
LINE
  8
1
 62
2
 10
-420.8150628685917
 20
416.8236301249925
 30
0
 11
-417.1527192407565
 21
420.4859737528285
 31
0
  0
LINE
  8
1
 62
2
 10
-420.8150628685917
 20
416.6822087687552
 30
0
 11
-417.0630616935396
 21
420.4342099438081
 31
0
  0
LINE
  8
1
 62
2
 10
-420.8150628685917
 20
416.5407874125179
 30
0
 11
-416.9734041463227
 21
420.3824461347876
 31
0
  0
LINE
  8
1
 62
2
 10
-420.8150628685917
 20
416.3993660562807
 30
0
 11
-416.8837465991057
 21
420.3306823257672
 31
0
  0
LINE
  8
1
 62
2
 10
-420.8150628685917
 20
416.2579447000434
 30
0
 11
-416.7940890518888
 21
420.2789185167468
 31
0
  0
LINE
  8
1
 62
2
 10
-420.6451303506894
 20
416.2864558617079
 30
0
 11
-416.7044315046719
 21
420.2271547077264
 31
0
  0
LINE
  8
1
 62
2
 10
-420.3105238291932
 20
416.4796410269669
 30
0
 11
-416.614773957455
 21
420.1753908987059
 31
0
  0
LINE
  8
1
 62
2
 10
-419.9759173076969
 20
416.6728261922258
 30
0
 11
-416.5251164102381
 21
420.1236270896855
 31
0
  0
LINE
  8
1
 62
2
 10
-419.6413107862007
 20
416.8660113574848
 30
0
 11
-416.4354588630212
 21
420.0718632806651
 31
0
  0
LINE
  8
1
 62
2
 10
-419.3067042647044
 20
417.0591965227438
 30
0
 11
-416.3458013158042
 21
420.0200994716446
 31
0
  0
LINE
  8
1
 62
2
 10
-418.9720977432082
 20
417.2523816880027
 30
0
 11
-416.2561437685873
 21
419.9683356626242
 31
0
  0
LINE
  8
1
 62
2
 10
-418.6374912217119
 20
417.4455668532617
 30
0
 11
-416.1664862213704
 21
419.9165718536038
 31
0
  0
LINE
  8
1
 62
2
 10
-418.3028847002157
 20
417.6387520185207
 30
0
 11
-416.0768286741535
 21
419.8648080445834
 31
0
  0
LINE
  8
1
 62
2
 10
-417.9682781787194
 20
417.8319371837796
 30
0
 11
-415.9871711269366
 21
419.8130442355629
 31
0
  0
LINE
  8
1
 62
2
 10
-417.6336716572232
 20
418.0251223490386
 30
0
 11
-415.8975135797197
 21
419.7612804265425
 31
0
  0
LINE
  8
1
 62
2
 10
-417.2990651357269
 20
418.2183075142976
 30
0
 11
-415.8078560325027
 21
419.7095166175221
 31
0
  0
LINE
  8
1
 62
2
 10
-416.9644586142306
 20
418.4114926795566
 30
0
 11
-415.7181984852858
 21
419.6577528085016
 31
0
  0
LINE
  8
1
 62
2
 10
-416.6298520927344
 20
418.6046778448155
 30
0
 11
-415.6285409380689
 21
419.6059889994812
 31
0
  0
LINE
  8
1
 62
2
 10
-416.2952455712381
 20
418.7978630100745
 30
0
 11
-415.538883390852
 21
419.5542251904608
 31
0
  0
LINE
  8
1
 62
2
 10
-415.9606390497419
 20
418.9910481753335
 30
0
 11
-415.4492258436351
 21
419.5024613814404
 31
0
  0
LINE
  8
1
 62
2
 10
-415.6260325282456
 20
419.1842333405924
 30
0
 11
-415.3595682964182
 21
419.4506975724199
 31
0
  0
LINE
  8
1
 62
2
 10
-415.2914260067494
 20
419.3774185058514
 30
0
 11
-415.2699107492012
 21
419.3989337633995
 31
0
  0
ENDBLK
  8
0
  0
BLOCK
  8
10
  2
*D0
 70
1
 10
0
 20
0
 30
0
  0
LINE
  8
10
 62
2
 10
-349.560250019513
 20
409.1939789917778
 30
0
 11
-349.560250019513
 21
400.7939789917778
 31
0
  0
LINE
  8
10
 62
2
 10
-349.560250019513
 20
409.1939789917778
 30
0
 11
-349.560250019513
 21
411.6939789917778
 31
0
  0
LINE
  8
10
 62
2
 10
-349.560250019513
 20
420.0939789917778
 30
0
 11
-349.560250019513
 21
411.6939789917778
 31
0
  0
LINE
  8
10
 62
2
 10
-362.1664260094381
 20
411.6939789917778
 30
0
 11
-348.060250019513
 21
411.6939789917778
 31
0
  0
LINE
  8
10
 62
2
 10
-362.1664260094381
 20
409.1939789917778
 30
0
 11
-348.060250019513
 21
409.1939789917778
 31
0
  0
SOLID
  8
10
 62
2
 10
-349.560250019513
 20
411.6939789917778
 30
0
 11
-350.106250019513
 21
415.8939789917778
 31
0
 12
-349.014250019513
 22
415.8939789917778
 32
0
 13
-349.014250019513
 23
415.8939789917778
 33
0
  0
SOLID
  8
10
 62
2
 10
-349.560250019513
 20
409.1939789917778
 30
0
 11
-349.014250019513
 21
404.9939789917778
 31
0
 12
-350.106250019513
 22
404.9939789917778
 32
0
 13
-350.106250019513
 23
404.9939789917778
 33
0
  0
TEXT
  8
10
 62
2
 10
-351.560250019513
 20
401.064991646801
 30
0
 40
2.8
  1
2.5
 50
90
 41
0.9
  0
ENDBLK
  8
0
  0
BLOCK
  8
10
  2
*D1
 70
1
 10
0
 20
0
 30
0
  0
LINE
  8
10
 62
2
 10
-574.126759619488
 20
475.093978991787
 30
0
 11
-574.126759619488
 21
521.593978991782
 31
0
  0
LINE
  8
10
 62
2
 10
-553.6740699125858
 20
521.593978991782
 30
0
 11
-575.626759619488
 21
521.593978991782
 31
0
  0
LINE
  8
10
 62
2
 10
-564.3348354481241
 20
475.093978991787
 30
0
 11
-575.626759619488
 21
475.093978991787
 31
0
  0
SOLID
  8
10
 62
2
 10
-574.126759619488
 20
475.093978991787
 30
0
 11
-574.6142596194879
 21
478.843978991787
 31
0
 12
-573.639259619488
 22
478.843978991787
 32
0
 13
-573.639259619488
 23
478.843978991787
 33
0
  0
SOLID
  8
10
 62
2
 10
-574.126759619488
 20
521.593978991782
 30
0
 11
-573.639259619488
 21
517.843978991782
 31
0
 12
-574.6142596194879
 22
517.843978991782
 32
0
 13
-574.6142596194879
 23
517.843978991782
 33
0
  0
TEXT
  8
10
 62
2
 10
-576.126759619488
 20
488.688772076556
 30
0
 40
2.5
  1
46.5
 50
90
 41
0.9
  0
TEXT
  8
10
 62
2
 10
-576.626759619488
 20
496.876272076556
 30
0
 40
1.5
  1
%%p0.3
 50
90
 41
0.9
  0
ENDBLK
  8
0
  0
BLOCK
  8
10
  2
*D2
 70
1
 10
0
 20
0
 30
0
  0
LINE
  8
10
 62
2
 10
-583.868315774659
 20
416.7939789917818
 30
0
 11
-583.868315774659
 21
521.593978991782
 31
0
  0
LINE
  8
10
 62
2
 10
-553.6740699125858
 20
521.593978991782
 30
0
 11
-585.368315774659
 21
521.593978991782
 31
0
  0
LINE
  8
10
 62
2
 10
-553.6740699125867
 20
416.7939789917818
 30
0
 11
-585.368315774659
 21
416.7939789917818
 31
0
  0
SOLID
  8
10
 62
2
 10
-583.868315774659
 20
416.7939789917818
 30
0
 11
-584.453315774659
 21
421.2939789917818
 31
0
 12
-583.2833157746589
 22
421.2939789917818
 32
0
 13
-583.2833157746589
 23
421.2939789917818
 33
0
  0
SOLID
  8
10
 62
2
 10
-583.868315774659
 20
521.593978991782
 30
0
 11
-583.2833157746589
 21
517.093978991782
 31
0
 12
-584.453315774659
 22
517.093978991782
 32
0
 13
-584.453315774659
 23
517.093978991782
 33
0
  0
TEXT
  8
10
 62
2
 10
-585.868315774659
 20
460.856072487257
 30
0
 40
3
  1
104.8
 50
90
 41
0.9
  0
TEXT
  8
10
 62
2
 10
-586.468315774659
 20
472.481072487257
 30
0
 40
1.8
  1
%%p0.3
 50
90
 41
0.9
  0
ENDBLK
  8
0
  0
BLOCK
  8
10
  2
*D3
 70
1
 10
0
 20
0
 30
0
  0
LINE
  8
10
 62
2
 10
-549.8790699125857
 20
557.8489630824
 30
0
 11
-497.8790699125857
 21
557.8489630824
 31
0
  0
LINE
  8
10
 62
2
 10
-497.8790699125857
 20
538.7578955274771
 30
0
 11
-497.8790699125857
 21
559.3489630824
 31
0
  0
LINE
  8
10
 62
2
 10
-549.8790699125857
 20
525.3889789917821
 30
0
 11
-549.8790699125857
 21
559.3489630824
 31
0
  0
SOLID
  8
10
 62
2
 10
-549.8790699125857
 20
557.8489630824
 30
0
 11
-545.3790699125857
 21
558.4339630824001
 31
0
 12
-545.3790699125857
 22
557.2639630824
 32
0
 13
-545.3790699125857
 23
557.2639630824
 33
0
  0
SOLID
  8
10
 62
2
 10
-497.8790699125857
 20
557.8489630824
 30
0
 11
-502.3790699125857
 21
557.2639630824
 31
0
 12
-502.3790699125857
 22
558.4339630824001
 32
0
 13
-502.3790699125857
 23
558.4339630824001
 33
0
  0
TEXT
  8
10
 62
2
 10
-530.33281088024
 20
559.8489630824
 30
0
 40
3
  1
52
 41
0.9
  0
TEXT
  8
10
 62
2
 10
-524.33281088024
 20
560.4489630824
 30
0
 40
1.8
  1
%%p0.3
 41
0.9
  0
ENDBLK
  8
0
  0
BLOCK
  8
10
  2
*D4
 70
1
 10
0
 20
0
 30
0
  0
LINE
  8
10
 62
2
 10
-549.8790699125857
 20
569.258532719095
 30
0
 11
-445.079069912586
 21
569.258532719095
 31
0
  0
LINE
  8
10
 62
2
 10
-445.079069912586
 20
525.3889789917821
 30
0
 11
-445.079069912586
 21
570.758532719095
 31
0
  0
LINE
  8
10
 62
2
 10
-549.8790699125857
 20
525.3889789917821
 30
0
 11
-549.8790699125857
 21
570.758532719095
 31
0
  0
SOLID
  8
10
 62
2
 10
-445.079069912586
 20
569.258532719095
 30
0
 11
-449.579069912586
 21
568.673532719095
 31
0
 12
-449.579069912586
 22
569.843532719095
 32
0
 13
-449.579069912586
 23
569.843532719095
 33
0
  0
SOLID
  8
10
 62
2
 10
-549.8790699125857
 20
569.258532719095
 30
0
 11
-545.3790699125857
 21
569.843532719095
 31
0
 12
-545.3790699125857
 22
568.673532719095
 32
0
 13
-545.3790699125857
 23
568.673532719095
 33
0
  0
TEXT
  8
10
 62
2
 10
-507.938365265811
 20
571.258532719095
 30
0
 40
3
  1
104.8
 41
0.9
  0
TEXT
  8
10
 62
2
 10
-496.313365265811
 20
571.858532719095
 30
0
 40
1.8
  1
%%p0.3
 41
0.9
  0
ENDBLK
  8
0
  0
BLOCK
  8
1
  2
*D5
 70
1
 10
0
 20
0
 30
0
  0
LINE
  8
1
 62
2
 10
-638.710714913774
 20
534.226398084151
 30
0
 11
-629.110714913774
 21
534.226398084151
 31
0
  0
LINE
  8
1
 62
2
 10
-643.710714913774
 20
534.226398084151
 30
0
 11
-638.710714913774
 21
534.226398084151
 31
0
  0
LINE
  8
1
 62
2
 10
-653.3107149137741
 20
534.226398084151
 30
0
 11
-643.710714913774
 21
534.226398084151
 31
0
  0
LINE
  8
1
 62
2
 10
-638.710714913774
 20
527.1939789917778
 30
0
 11
-638.710714913774
 21
535.726398084151
 31
0
  0
LINE
  8
1
 62
2
 10
-643.710714913774
 20
526.1939789917778
 30
0
 11
-643.710714913774
 21
535.726398084151
 31
0
  0
SOLID
  8
1
 62
2
 10
-643.710714913774
 20
534.226398084151
 30
0
 11
-648.510714913774
 21
533.602398084151
 31
0
 12
-648.510714913774
 22
534.850398084151
 32
0
 13
-648.510714913774
 23
534.850398084151
 33
0
  0
SOLID
  8
1
 62
2
 10
-638.710714913774
 20
534.226398084151
 30
0
 11
-633.9107149137741
 21
534.850398084151
 31
0
 12
-633.9107149137741
 22
533.602398084151
 32
0
 13
-633.9107149137741
 23
533.602398084151
 33
0
  0
TEXT
  8
1
 62
2
 10
-631.0876846406491
 20
536.226398084151
 30
0
 40
3.2
  1
5
 41
0.9
  0
ENDBLK
  8
0
  0
BLOCK
  8
1
  2
*D6
 70
1
 10
0
 20
0
 30
0
  0
LINE
  8
1
 62
2
 10
-638.710714913774
 20
396.548860051366
 30
0
 11
-629.110714913774
 21
396.548860051366
 31
0
  0
LINE
  8
1
 62
2
 10
-643.710714913774
 20
396.548860051366
 30
0
 11
-638.710714913774
 21
396.548860051366
 31
0
  0
LINE
  8
1
 62
2
 10
-653.3107149137741
 20
396.548860051366
 30
0
 11
-643.710714913774
 21
396.548860051366
 31
0
  0
LINE
  8
1
 62
2
 10
-638.710714913774
 20
408.1939789917778
 30
0
 11
-638.710714913774
 21
395.048860051366
 31
0
  0
LINE
  8
1
 62
2
 10
-643.710714913774
 20
409.1939789917778
 30
0
 11
-643.710714913774
 21
395.048860051366
 31
0
  0
SOLID
  8
1
 62
2
 10
-643.710714913774
 20
396.548860051366
 30
0
 11
-648.510714913774
 21
395.924860051366
 31
0
 12
-648.510714913774
 22
397.172860051366
 32
0
 13
-648.510714913774
 23
397.172860051366
 33
0
  0
SOLID
  8
1
 62
2
 10
-638.710714913774
 20
396.548860051366
 30
0
 11
-633.9107149137741
 21
397.172860051366
 31
0
 12
-633.9107149137741
 22
395.924860051366
 32
0
 13
-633.9107149137741
 23
395.924860051366
 33
0
  0
TEXT
  8
1
 62
2
 10
-634.3426757598051
 20
398.548860051366
 30
0
 40
3.2
  1
5
 41
0.9
  0
ENDBLK
  8
0
  0
BLOCK
  8
1
  2
*D7
 70
1
 10
0
 20
0
 30
0
  0
LINE
  8
1
 62
2
 10
-361.166426009438
 20
534.541397475611
 30
0
 11
-351.566426009438
 21
534.541397475611
 31
0
  0
LINE
  8
1
 62
2
 10
-366.166426009438
 20
534.541397475611
 30
0
 11
-361.166426009438
 21
534.541397475611
 31
0
  0
LINE
  8
1
 62
2
 10
-375.766426009438
 20
534.541397475611
 30
0
 11
-366.166426009438
 21
534.541397475611
 31
0
  0
LINE
  8
1
 62
2
 10
-361.166426009438
 20
526.1939789917778
 30
0
 11
-361.166426009438
 21
536.041397475611
 31
0
  0
LINE
  8
1
 62
2
 10
-366.166426009438
 20
527.1939789917778
 30
0
 11
-366.166426009438
 21
536.041397475611
 31
0
  0
SOLID
  8
1
 62
2
 10
-361.166426009438
 20
534.541397475611
 30
0
 11
-356.366426009438
 21
535.165397475611
 31
0
 12
-356.366426009438
 22
533.917397475611
 32
0
 13
-356.366426009438
 23
533.917397475611
 33
0
  0
SOLID
  8
1
 62
2
 10
-366.166426009438
 20
534.541397475611
 30
0
 11
-370.966426009438
 21
533.917397475611
 31
0
 12
-370.966426009438
 22
535.165397475611
 32
0
 13
-370.966426009438
 23
535.165397475611
 33
0
  0
TEXT
  8
1
 62
2
 10
-353.511822471184
 20
536.541397475611
 30
0
 40
3.2
  1
5
 41
0.9
  0
ENDBLK
  8
0
  0
BLOCK
  8
1
  2
*D8
 70
1
 10
0
 20
0
 30
0
  0
LINE
  8
1
 62
2
 10
-340.1153117600921
 20
409.1939789917778
 30
0
 11
-340.1153117600921
 21
470.1939789917778
 31
0
  0
LINE
  8
1
 62
2
 10
-365.1664260094381
 20
470.1939789917778
 30
0
 11
-338.6153117600921
 21
470.1939789917778
 31
0
  0
LINE
  8
1
 62
2
 10
-362.1664260094381
 20
409.1939789917778
 30
0
 11
-338.6153117600921
 21
409.1939789917778
 31
0
  0
SOLID
  8
1
 62
2
 10
-340.1153117600921
 20
409.1939789917778
 30
0
 11
-340.6418117600921
 21
413.2439789917778
 31
0
 12
-339.5888117600921
 22
413.2439789917778
 32
0
 13
-339.5888117600921
 23
413.2439789917778
 33
0
  0
SOLID
  8
1
 62
2
 10
-340.1153117600921
 20
470.1939789917778
 30
0
 11
-339.5888117600921
 21
466.1439789917778
 31
0
 12
-340.6418117600921
 22
466.1439789917778
 32
0
 13
-340.6418117600921
 23
466.1439789917778
 33
0
  0
TEXT
  8
1
 62
2
 10
-342.1153117600921
 20
439.579889305645
 30
0
 40
2.7
  1
61
 50
90
 41
0.9
  0
ENDBLK
  8
0
  0
BLOCK
  8
1
  2
*D9
 70
1
 10
0
 20
0
 30
0
  0
LINE
  8
1
 62
2
 10
-349.560250019513
 20
470.1939789917778
 30
0
 11
-349.560250019513
 21
479.925510070286
 31
0
  0
LINE
  8
1
 62
2
 10
-349.560250019513
 20
465.0261521153601
 30
0
 11
-349.560250019513
 21
470.1939789917778
 31
0
  0
LINE
  8
1
 62
2
 10
-349.560250019513
 20
456.9261521153601
 30
0
 11
-349.560250019513
 21
465.0261521153601
 31
0
  0
LINE
  8
1
 62
2
 10
-365.166426009438
 20
470.1939789917778
 30
0
 11
-348.060250019513
 21
470.1939789917778
 31
0
  0
LINE
  8
1
 62
2
 10
-362.166426009438
 20
465.0261521153601
 30
0
 11
-348.060250019513
 21
465.0261521153601
 31
0
  0
SOLID
  8
1
 62
2
 10
-349.560250019513
 20
465.0261521153601
 30
0
 11
-349.033750019513
 21
460.9761521153601
 31
0
 12
-350.086750019513
 22
460.9761521153601
 32
0
 13
-350.086750019513
 23
460.9761521153601
 33
0
  0
SOLID
  8
1
 62
2
 10
-349.560250019513
 20
470.1939789917778
 30
0
 11
-350.086750019513
 21
474.2439789917778
 31
0
 12
-349.033750019513
 22
474.2439789917778
 32
0
 13
-349.033750019513
 23
474.2439789917778
 33
0
  0
TEXT
  8
1
 62
2
 10
-351.560250019513
 20
476.550510070286
 30
0
 40
2.7
  1
5
 50
90
 41
0.9
  0
TEXT
  8
1
 62
2
 10
-351.560250019513
 20
474.795510070286
 30
0
 40
2.7
  1
(
 50
90
 41
0.9
  0
TEXT
  8
1
 62
2
 10
-351.560250019513
 20
479.520510070286
 30
0
 40
2.7
  1
)
 50
90
 41
0.9
  0
ENDBLK
  8
0
  0
BLOCK
  8
1
  2
*D10
 70
1
 10
0
 20
0
 30
0
  0
LINE
  8
1
 62
2
 10
-349.560250019513
 20
411.6939789917778
 30
0
 11
-349.560250019513
 21
465.0261521153601
 31
0
  0
LINE
  8
1
 62
2
 10
-362.166426009438
 20
465.0261521153601
 30
0
 11
-348.060250019513
 21
465.0261521153601
 31
0
  0
LINE
  8
1
 62
2
 10
-362.166426009438
 20
411.6939789917778
 30
0
 11
-348.060250019513
 21
411.6939789917778
 31
0
  0
SOLID
  8
1
 62
2
 10
-349.560250019513
 20
411.6939789917778
 30
0
 11
-350.086750019513
 21
415.7439789917778
 31
0
 12
-349.033750019513
 22
415.7439789917778
 32
0
 13
-349.033750019513
 23
415.7439789917778
 33
0
  0
SOLID
  8
1
 62
2
 10
-349.560250019513
 20
465.0261521153601
 30
0
 11
-349.033750019513
 21
460.9761521153601
 31
0
 12
-350.086750019513
 22
460.9761521153601
 32
0
 13
-350.086750019513
 23
460.9761521153601
 33
0
  0
TEXT
  8
1
 62
2
 10
-351.560250019513
 20
435.968783926804
 30
0
 40
2.7
  1
(53.5)
 50
90
 41
0.9
  0
ENDBLK
  8
0
  0
BLOCK
  8
1
  2
*D11
 70
1
 10
0
 20
0
 30
0
  0
LINE
  8
1
 62
2
 10
-593.3600884386721
 20
409.1939789917819
 30
0
 11
-593.3600884386721
 21
526.1939789917819
 31
0
  0
LINE
  8
1
 62
2
 10
-553.4790699125861
 20
526.1939789917819
 30
0
 11
-594.8600884386721
 21
526.1939789917819
 31
0
  0
LINE
  8
1
 62
2
 10
-553.4790699125861
 20
409.1939789917819
 30
0
 11
-594.8600884386721
 21
409.1939789917819
 31
0
  0
SOLID
  8
1
 62
2
 10
-593.3600884386721
 20
409.1939789917819
 30
0
 11
-593.9450884386721
 21
413.6939789917819
 31
0
 12
-592.775088438672
 22
413.6939789917819
 32
0
 13
-592.775088438672
 23
413.6939789917819
 33
0
  0
SOLID
  8
1
 62
2
 10
-593.3600884386721
 20
526.1939789917819
 30
0
 11
-592.775088438672
 21
521.6939789917819
 31
0
 12
-593.9450884386721
 22
521.6939789917819
 32
0
 13
-593.9450884386721
 23
521.6939789917819
 33
0
  0
TEXT
  8
1
 62
2
 10
-595.3600884386721
 20
463.387155031465
 30
0
 40
3
  1
117
 50
90
 41
0.9
  0
TEXT
  8
1
 62
2
 10
-595.9600884386721
 20
470.287155031465
 30
0
 40
1.8
  1
%%p1
 50
90
 41
0.9
  0
ENDBLK
  8
0
  0
BLOCK
  8
1
  2
*D12
 70
1
 10
0
 20
0
 30
0
  0
LINE
  8
1
 62
2
 10
-556.4790699125861
 20
379.886963065265
 30
0
 11
-437.4790699125861
 21
379.886963065265
 31
0
  0
LINE
  8
1
 62
2
 10
-437.4790699125861
 20
408.1939789917819
 30
0
 11
-437.4790699125861
 21
378.386963065265
 31
0
  0
LINE
  8
1
 62
2
 10
-556.4790699125861
 20
412.1939789917819
 30
0
 11
-556.4790699125861
 21
378.386963065265
 31
0
  0
SOLID
  8
1
 62
2
 10
-437.4790699125861
 20
379.886963065265
 30
0
 11
-441.5290699125861
 21
379.360463065265
 31
0
 12
-441.5290699125861
 22
380.413463065265
 32
0
 13
-441.5290699125861
 23
380.413463065265
 33
0
  0
SOLID
  8
1
 62
2
 10
-556.4790699125861
 20
379.886963065265
 30
0
 11
-552.4290699125861
 21
380.413463065265
 31
0
 12
-552.4290699125861
 22
379.360463065265
 32
0
 13
-552.4290699125861
 23
379.360463065265
 33
0
  0
TEXT
  8
1
 62
2
 10
-501.117365181719
 20
381.886963065265
 30
0
 40
2.7
  1
119
 41
0.9
  0
TEXT
  8
1
 62
2
 10
-494.907365181719
 20
382.426963065265
 30
0
 40
1.62
  1
%%p1
 41
0.9
  0
ENDBLK
  8
0
  0
BLOCK
  8
1
  2
*D13
 70
1
 10
0
 20
0
 30
0
  0
LINE
  8
1
 62
2
 10
-549.8790699125857
 20
389.54154104048
 30
0
 11
-497.8790699125857
 21
389.54154104048
 31
0
  0
LINE
  8
1
 62
2
 10
-497.8790699125857
 20
399.143238947367
 30
0
 11
-497.8790699125857
 21
388.04154104048
 31
0
  0
LINE
  8
1
 62
2
 10
-549.8790699125857
 20
412.998978991783
 30
0
 11
-549.8790699125857
 21
388.04154104048
 31
0
  0
SOLID
  8
1
 62
2
 10
-497.8790699125857
 20
389.54154104048
 30
0
 11
-501.9290699125857
 21
389.01504104048
 31
0
 12
-501.9290699125857
 22
390.06804104048
 32
0
 13
-501.9290699125857
 23
390.06804104048
 33
0
  0
SOLID
  8
1
 62
2
 10
-549.8790699125857
 20
389.54154104048
 30
0
 11
-545.8290699125857
 21
390.06804104048
 31
0
 12
-545.8290699125857
 22
389.01504104048
 32
0
 13
-545.8290699125857
 23
389.01504104048
 33
0
  0
TEXT
  8
1
 62
2
 10
-527.907325089044
 20
391.54154104048
 30
0
 40
2.7
  1
52
 41
0.9
  0
TEXT
  8
1
 62
2
 10
-522.507325089044
 20
391.94654104048
 30
0
 40
1.89
  1
%%p0.3
 41
0.9
  0
ENDBLK
  8
0
  0
BLOCK
  8
1
  2
*D14
 70
1
 10
0
 20
0
 30
0
  0
LINE
  8
1
 62
2
 10
-425.107489941298
 20
475.093978991787
 30
0
 11
-425.107489941298
 21
512.1939789917819
 31
0
  0
LINE
  8
1
 62
2
 10
-450.6840699125859
 20
512.1939789917819
 30
0
 11
-423.607489941298
 21
512.1939789917819
 31
0
  0
LINE
  8
1
 62
2
 10
-430.7559094197727
 20
475.093978991787
 30
0
 11
-423.607489941298
 21
475.093978991787
 31
0
  0
SOLID
  8
1
 62
2
 10
-425.107489941298
 20
475.093978991787
 30
0
 11
-425.633989941298
 21
479.143978991787
 31
0
 12
-424.580989941298
 22
479.143978991787
 32
0
 13
-424.580989941298
 23
479.143978991787
 33
0
  0
SOLID
  8
1
 62
2
 10
-425.107489941298
 20
512.1939789917819
 30
0
 11
-424.580989941298
 21
508.1439789917819
 31
0
 12
-425.633989941298
 22
508.1439789917819
 32
0
 13
-425.633989941298
 23
508.1439789917819
 33
0
  0
TEXT
  8
1
 62
2
 10
-427.107489941298
 20
487.592853944068
 30
0
 40
2.7
  1
37.1
 50
90
 41
0.9
  0
TEXT
  8
1
 62
2
 10
-427.512489941298
 20
495.625353944068
 30
0
 40
1.89
  1
%%p0.3
 50
90
 41
0.9
  0
ENDBLK
  8
0
  0
BLOCK
  8
1
  2
*D15
 70
1
 10
0
 20
0
 30
0
  0
LINE
  8
1
 62
2
 10
-564.634986955474
 20
475.093978991787
 30
0
 11
-564.634986955474
 21
516.1939789917819
 31
0
  0
LINE
  8
1
 62
2
 10
-546.2740699125857
 20
516.1939789917819
 30
0
 11
-566.134986955474
 21
516.1939789917819
 31
0
  0
LINE
  8
1
 62
2
 10
-564.3348354481241
 20
475.093978991787
 30
0
 11
-566.134986955474
 21
475.093978991787
 31
0
  0
SOLID
  8
1
 62
2
 10
-564.634986955474
 20
475.093978991787
 30
0
 11
-565.1614869554741
 21
479.143978991787
 31
0
 12
-564.1084869554741
 22
479.143978991787
 32
0
 13
-564.1084869554741
 23
479.143978991787
 33
0
  0
SOLID
  8
1
 62
2
 10
-564.634986955474
 20
516.1939789917819
 30
0
 11
-564.108486955474
 21
512.143978991782
 31
0
 12
-565.1614869554741
 22
512.143978991782
 32
0
 13
-565.1614869554741
 23
512.143978991782
 33
0
  0
TEXT
  8
1
 62
2
 10
-566.634986955474
 20
488.017638111923
 30
0
 40
2.7
  1
41.1
 50
90
 41
0.9
  0
TEXT
  8
1
 62
2
 10
-567.1749869554741
 20
495.2401381119231
 30
0
 40
1.62
  1
%%p0.3
 50
90
 41
0.9
  0
ENDBLK
  8
0
  0
BLOCK
  8
1
  2
*D16
 70
1
 10
0
 20
0
 30
0
  0
LINE
  8
1
 62
2
 10
-574.126759619488
 20
416.7939789917818
 30
0
 11
-574.126759619488
 21
475.093978991787
 31
0
  0
LINE
  8
1
 62
2
 10
-564.3348354481241
 20
475.093978991787
 30
0
 11
-575.626759619488
 21
475.093978991787
 31
0
  0
LINE
  8
1
 62
2
 10
-553.6740699125867
 20
416.7939789917818
 30
0
 11
-575.626759619488
 21
416.7939789917818
 31
0
  0
SOLID
  8
1
 62
2
 10
-574.126759619488
 20
475.093978991787
 30
0
 11
-573.6002596194879
 21
471.043978991787
 31
0
 12
-574.653259619488
 22
471.043978991787
 32
0
 13
-574.653259619488
 23
471.043978991787
 33
0
  0
SOLID
  8
1
 62
2
 10
-574.126759619488
 20
416.7939789917818
 30
0
 11
-574.653259619488
 21
420.8439789917818
 31
0
 12
-573.600259619488
 22
420.8439789917818
 32
0
 13
-573.600259619488
 23
420.8439789917818
 33
0
  0
TEXT
  8
1
 62
2
 10
-576.126759619488
 20
448.038679053129
 30
0
 40
2.7
  1
(58.3)
 50
90
 41
0.9
  0
ENDBLK
  8
0
  0
BLOCK
  8
1
  2
*D17
 70
1
 10
0
 20
0
 30
0
  0
LINE
  8
1
 62
2
 10
-564.634986955474
 20
424.1939789917819
 30
0
 11
-564.634986955474
 21
475.093978991787
 31
0
  0
LINE
  8
1
 62
2
 10
-564.3348354481241
 20
475.093978991787
 30
0
 11
-566.134986955474
 21
475.093978991787
 31
0
  0
LINE
  8
1
 62
2
 10
-546.2740699125857
 20
424.1939789917819
 30
0
 11
-566.134986955474
 21
424.1939789917819
 31
0
  0
SOLID
  8
1
 62
2
 10
-564.634986955474
 20
475.093978991787
 30
0
 11
-564.108486955474
 21
471.043978991787
 31
0
 12
-565.1614869554741
 22
471.043978991787
 32
0
 13
-565.1614869554741
 23
471.043978991787
 33
0
  0
SOLID
  8
1
 62
2
 10
-564.634986955474
 20
424.1939789917819
 30
0
 11
-565.1614869554741
 21
428.2439789917819
 31
0
 12
-564.1084869554741
 22
428.2439789917819
 32
0
 13
-564.1084869554741
 23
428.2439789917819
 33
0
  0
TEXT
  8
1
 62
2
 10
-566.634986955474
 20
447.893788491237
 30
0
 40
2.7
  1
50.9
 50
90
 41
0.9
  0
TEXT
  8
1
 62
2
 10
-567.039986955474
 20
456.736288491237
 30
0
 40
1.89
  1
%%p0.3
 50
90
 41
0.9
  0
ENDBLK
  8
0
  0
BLOCK
  8
1
  2
*D18
 70
1
 10
0
 20
0
 30
0
  0
LINE
  8
1
 62
2
 10
-542.4790699125861
 20
548.1939789917831
 30
0
 11
-497.8790699125857
 21
548.1939789917831
 31
0
  0
LINE
  8
1
 62
2
 10
-542.4790699125861
 20
519.988978991782
 30
0
 11
-542.4790699125861
 21
549.6939789917831
 31
0
  0
LINE
  8
1
 62
2
 10
-497.8790699125857
 20
538.7578955274771
 30
0
 11
-497.8790699125857
 21
549.6939789917831
 31
0
  0
SOLID
  8
1
 62
2
 10
-497.8790699125857
 20
548.1939789917831
 30
0
 11
-501.9290699125857
 21
547.667478991783
 31
0
 12
-501.9290699125857
 22
548.7204789917831
 32
0
 13
-501.9290699125857
 23
548.7204789917831
 33
0
  0
SOLID
  8
1
 62
2
 10
-542.4790699125861
 20
548.1939789917831
 30
0
 11
-538.4290699125861
 21
548.7204789917831
 31
0
 12
-538.4290699125861
 22
547.667478991783
 32
0
 13
-538.4290699125861
 23
547.667478991783
 33
0
  0
TEXT
  8
1
 62
2
 10
-527.2251810753947
 20
550.1939789917831
 30
0
 40
2.7
  1
44.6
 41
0.9
  0
TEXT
  8
1
 62
2
 10
-518.3826810753947
 20
550.598978991783
 30
0
 40
1.89
  1
%%p0.3
 41
0.9
  0
ENDBLK
  8
0
  0
BLOCK
  8
1
  2
*D19
 70
1
 10
0
 20
0
 30
0
  0
LINE
  8
1
 62
2
 10
-497.8790699125857
 20
557.8489630824
 30
0
 11
-445.079069912586
 21
557.8489630824
 31
0
  0
LINE
  8
1
 62
2
 10
-445.079069912586
 20
525.3889789917821
 30
0
 11
-445.079069912586
 21
559.3489630824
 31
0
  0
LINE
  8
1
 62
2
 10
-497.8790699125857
 20
538.7578955274771
 30
0
 11
-497.8790699125857
 21
559.3489630824
 31
0
  0
SOLID
  8
1
 62
2
 10
-497.8790699125857
 20
557.8489630824
 30
0
 11
-493.8290699125857
 21
558.3754630824001
 31
0
 12
-493.8290699125857
 22
557.3224630824
 32
0
 13
-493.8290699125857
 23
557.3224630824
 33
0
  0
SOLID
  8
1
 62
2
 10
-445.079069912586
 20
557.8489630824
 30
0
 11
-449.129069912586
 21
557.3224630824
 31
0
 12
-449.129069912586
 22
558.3754630824001
 32
0
 13
-449.129069912586
 23
558.3754630824001
 33
0
  0
TEXT
  8
1
 62
2
 10
-477.771811228167
 20
559.8489630824
 30
0
 40
2.7
  1
(52.8)
 41
0.9
  0
ENDBLK
  8
0
  0
BLOCK
  8
1
  2
*D20
 70
1
 10
0
 20
0
 30
0
  0
LINE
  8
1
 62
2
 10
-497.8790699125857
 20
548.1939789917831
 30
0
 11
-454.4790699125861
 21
548.1939789917831
 31
0
  0
LINE
  8
1
 62
2
 10
-497.8790699125857
 20
538.7578955274771
 30
0
 11
-497.8790699125857
 21
549.6939789917831
 31
0
  0
LINE
  8
1
 62
2
 10
-454.4790699125861
 20
515.988978991782
 30
0
 11
-454.4790699125861
 21
549.6939789917831
 31
0
  0
SOLID
  8
1
 62
2
 10
-497.8790699125857
 20
548.1939789917831
 30
0
 11
-493.8290699125857
 21
548.7204789917831
 31
0
 12
-493.8290699125857
 22
547.667478991783
 32
0
 13
-493.8290699125857
 23
547.667478991783
 33
0
  0
SOLID
  8
1
 62
2
 10
-454.4790699125861
 20
548.1939789917831
 30
0
 11
-458.5290699125861
 21
547.667478991783
 31
0
 12
-458.5290699125861
 22
548.7204789917831
 32
0
 13
-458.5290699125861
 23
548.7204789917831
 33
0
  0
TEXT
  8
1
 62
2
 10
-480.2498426001458
 20
550.1939789917831
 30
0
 40
2.7
  1
43.4
 41
0.9
  0
TEXT
  8
1
 62
2
 10
-471.4073426001459
 20
550.598978991783
 30
0
 40
1.89
  1
%%p0.3
 41
0.9
  0
ENDBLK
  8
0
  0
BLOCK
  8
1
  2
*D21
 70
1
 10
0
 20
0
 30
0
  0
LINE
  8
1
 62
2
 10
-542.4790699125861
 20
397.702061894085
 30
0
 11
-497.8790699125857
 21
397.702061894085
 31
0
  0
LINE
  8
1
 62
2
 10
-497.8790699125857
 20
399.1432389473671
 30
0
 11
-497.8790699125857
 21
396.202061894085
 31
0
  0
LINE
  8
1
 62
2
 10
-542.4790699125861
 20
420.3989789917819
 30
0
 11
-542.4790699125861
 21
396.202061894085
 31
0
  0
SOLID
  8
1
 62
2
 10
-497.8790699125857
 20
397.702061894085
 30
0
 11
-501.9290699125857
 21
397.175561894085
 31
0
 12
-501.9290699125857
 22
398.228561894085
 32
0
 13
-501.9290699125857
 23
398.228561894085
 33
0
  0
SOLID
  8
1
 62
2
 10
-542.4790699125861
 20
397.702061894085
 30
0
 11
-538.4290699125861
 21
398.228561894085
 31
0
 12
-538.4290699125861
 22
397.175561894085
 32
0
 13
-538.4290699125861
 23
397.175561894085
 33
0
  0
TEXT
  8
1
 62
2
 10
-528.3372836481451
 20
399.702061894085
 30
0
 40
2.7
  1
44.6
 41
0.9
  0
TEXT
  8
1
 62
2
 10
-519.494783648145
 20
400.107061894085
 30
0
 40
1.89
  1
%%p0.3
 41
0.9
  0
ENDBLK
  8
0
  0
BLOCK
  8
1
  2
*D22
 70
1
 10
0
 20
0
 30
0
  0
LINE
  8
1
 62
2
 10
-497.8790699125857
 20
389.54154104048
 30
0
 11
-437.4790699125861
 21
389.54154104048
 31
0
  0
LINE
  8
1
 62
2
 10
-437.4790699125861
 20
408.1939789917818
 30
0
 11
-437.4790699125861
 21
388.04154104048
 31
0
  0
LINE
  8
1
 62
2
 10
-497.8790699125857
 20
399.143238947367
 30
0
 11
-497.8790699125857
 21
388.04154104048
 31
0
  0
SOLID
  8
1
 62
2
 10
-497.8790699125857
 20
389.54154104048
 30
0
 11
-493.8290699125857
 21
390.06804104048
 31
0
 12
-493.8290699125857
 22
389.01504104048
 32
0
 13
-493.8290699125857
 23
389.01504104048
 33
0
  0
SOLID
  8
1
 62
2
 10
-437.4790699125861
 20
389.54154104048
 30
0
 11
-441.5290699125861
 21
389.01504104048
 31
0
 12
-441.5290699125861
 22
390.06804104048
 32
0
 13
-441.5290699125861
 23
390.06804104048
 33
0
  0
TEXT
  8
1
 62
2
 10
-475.615125335816
 20
391.54154104048
 30
0
 40
2.7
  1
60.4
 41
0.9
  0
TEXT
  8
1
 62
2
 10
-466.772625335816
 20
391.94654104048
 30
0
 40
1.89
  1
%%p0.3
 41
0.9
  0
ENDBLK
  8
0
  0
BLOCK
  8
1
  2
*D23
 70
1
 10
0
 20
0
 30
0
  0
LINE
  8
1
 62
2
 10
-393.166426009438
 20
389.92736732593
 30
0
 11
-403.801615029953
 21
389.92736732593
 31
0
  0
LINE
  8
1
 62
2
 10
-393.166426009438
 20
389.92736732593
 30
0
 11
-391.166426009438
 21
389.92736732593
 31
0
  0
LINE
  8
1
 62
2
 10
-383.066426009438
 20
389.92736732593
 30
0
 11
-391.166426009438
 21
389.92736732593
 31
0
  0
LINE
  8
1
 62
2
 10
-391.166426009438
 20
410.6939789917778
 30
0
 11
-391.166426009438
 21
388.42736732593
 31
0
  0
LINE
  8
1
 62
2
 10
-393.166426009438
 20
410.1939789917778
 30
0
 11
-393.166426009438
 21
388.42736732593
 31
0
  0
SOLID
  8
1
 62
2
 10
-391.166426009438
 20
389.92736732593
 30
0
 11
-387.116426009438
 21
390.45386732593
 31
0
 12
-387.116426009438
 22
389.40086732593
 32
0
 13
-387.116426009438
 23
389.40086732593
 33
0
  0
SOLID
  8
1
 62
2
 10
-393.166426009438
 20
389.92736732593
 30
0
 11
-397.216426009438
 21
389.40086732593
 31
0
 12
-397.216426009438
 22
390.45386732593
 32
0
 13
-397.216426009438
 23
390.45386732593
 33
0
  0
TEXT
  8
1
 62
2
 10
-403.801615029953
 20
391.92736732593
 30
0
 40
2.7
  1
2
 41
0.9
  0
ENDBLK
  8
0
  0
BLOCK
  8
1
  2
*D24
 70
1
 10
0
 20
0
 30
0
  0
LINE
  8
1
 62
2
 10
-361.166426009438
 20
389.92736732593
 30
0
 11
-352.122502217485
 21
389.92736732593
 31
0
  0
LINE
  8
1
 62
2
 10
-363.166426009438
 20
389.92736732593
 30
0
 11
-361.166426009438
 21
389.92736732593
 31
0
  0
LINE
  8
1
 62
2
 10
-371.266426009438
 20
389.92736732593
 30
0
 11
-363.166426009438
 21
389.92736732593
 31
0
  0
LINE
  8
1
 62
2
 10
-361.166426009438
 20
410.1939789917778
 30
0
 11
-361.166426009438
 21
388.42736732593
 31
0
  0
LINE
  8
1
 62
2
 10
-363.166426009438
 20
410.6939789917778
 30
0
 11
-363.166426009438
 21
388.42736732593
 31
0
  0
SOLID
  8
1
 62
2
 10
-361.166426009438
 20
389.92736732593
 30
0
 11
-357.116426009438
 21
390.45386732593
 31
0
 12
-357.116426009438
 22
389.40086732593
 32
0
 13
-357.116426009438
 23
389.40086732593
 33
0
  0
SOLID
  8
1
 62
2
 10
-363.166426009438
 20
389.92736732593
 30
0
 11
-367.216426009438
 21
389.40086732593
 31
0
 12
-367.216426009438
 22
390.45386732593
 32
0
 13
-367.216426009438
 23
390.45386732593
 33
0
  0
TEXT
  8
1
 62
2
 10
-355.497502217485
 20
391.92736732593
 30
0
 40
2.7
  1
2
 41
0.9
  0
TEXT
  8
1
 62
2
 10
-357.252502217485
 20
391.92736732593
 30
0
 40
2.7
  1
(
 41
0.9
  0
TEXT
  8
1
 62
2
 10
-352.527502217485
 20
391.92736732593
 30
0
 40
2.7
  1
)
 41
0.9
  0
ENDBLK
  8
0
  0
BLOCK
  8
1
  2
*D25
 70
1
 10
0
 20
0
 30
0
  0
LINE
  8
1
 62
2
 10
-391.166426009438
 20
389.92736732593
 30
0
 11
-363.166426009438
 21
389.92736732593
 31
0
  0
LINE
  8
1
 62
2
 10
-363.166426009438
 20
410.6939789917778
 30
0
 11
-363.166426009438
 21
388.42736732593
 31
0
  0
LINE
  8
1
 62
2
 10
-391.166426009438
 20
410.6939789917778
 30
0
 11
-391.166426009438
 21
388.42736732593
 31
0
  0
SOLID
  8
1
 62
2
 10
-363.166426009438
 20
389.92736732593
 30
0
 11
-367.216426009438
 21
389.40086732593
 31
0
 12
-367.216426009438
 22
390.45386732593
 32
0
 13
-367.216426009438
 23
390.45386732593
 33
0
  0
SOLID
  8
1
 62
2
 10
-391.166426009438
 20
389.92736732593
 30
0
 11
-387.116426009438
 21
390.45386732593
 31
0
 12
-387.116426009438
 22
389.40086732593
 32
0
 13
-387.116426009438
 23
389.40086732593
 33
0
  0
TEXT
  8
1
 62
2
 10
-382.078907828501
 20
391.92736732593
 30
0
 40
2.7
  1
28
 41
0.9
  0
ENDBLK
  8
0
  0
BLOCK
  8
1
  2
*D26
 70
1
 10
0
 20
0
 30
0
  0
LINE
  8
1
 62
2
 10
-393.166426009438
 20
379.942718308827
 30
0
 11
-361.166426009438
 21
379.942718308827
 31
0
  0
LINE
  8
1
 62
2
 10
-361.166426009438
 20
410.1939789917777
 30
0
 11
-361.166426009438
 21
378.442718308827
 31
0
  0
LINE
  8
1
 62
2
 10
-393.166426009438
 20
410.1939789917777
 30
0
 11
-393.166426009438
 21
378.442718308827
 31
0
  0
SOLID
  8
1
 62
2
 10
-361.166426009438
 20
379.942718308827
 30
0
 11
-365.216426009438
 21
379.416218308827
 31
0
 12
-365.216426009438
 22
380.469218308827
 32
0
 13
-365.216426009438
 23
380.469218308827
 33
0
  0
SOLID
  8
1
 62
2
 10
-393.166426009438
 20
379.942718308827
 30
0
 11
-389.116426009438
 21
380.469218308827
 31
0
 12
-389.116426009438
 22
379.416218308827
 32
0
 13
-389.116426009438
 23
379.416218308827
 33
0
  0
TEXT
  8
1
 62
2
 10
-380.999486313139
 20
381.942718308827
 30
0
 40
2.7
  1
32
 41
0.9
  0
ENDBLK
  8
0
  0
BLOCK
  8
1
  2
*D27
 70
1
 10
0
 20
0
 30
0
  0
LINE
  8
1
 62
2
 10
-413.258385579479
 20
475.093978991787
 30
0
 11
-413.258385579479
 21
521.593978991782
 31
0
  0
LINE
  8
1
 62
2
 10
-441.2840699125859
 20
521.593978991782
 30
0
 11
-411.758385579479
 21
521.593978991782
 31
0
  0
LINE
  8
1
 62
2
 10
-430.7559094197727
 20
475.093978991787
 30
0
 11
-411.758385579479
 21
475.093978991787
 31
0
  0
SOLID
  8
1
 62
2
 10
-413.258385579479
 20
521.593978991782
 30
0
 11
-412.673385579479
 21
517.093978991782
 31
0
 12
-413.843385579479
 22
517.093978991782
 32
0
 13
-413.843385579479
 23
517.093978991782
 33
0
  0
SOLID
  8
1
 62
2
 10
-413.258385579479
 20
475.093978991787
 30
0
 11
-413.843385579479
 21
479.593978991787
 31
0
 12
-412.673385579479
 22
479.593978991787
 32
0
 13
-412.673385579479
 23
479.593978991787
 33
0
  0
TEXT
  8
1
 62
2
 10
-415.258385579479
 20
487.842835845096
 30
0
 40
3
  1
46.5
 50
90
 41
0.9
  0
TEXT
  8
1
 62
2
 10
-415.858385579479
 20
497.667835845096
 30
0
 40
1.8
  1
%%p0.3
 50
90
 41
0.9
  0
ENDBLK
  8
0
  0
BLOCK
  8
10
  2
*D28
 70
1
 10
0
 20
0
 30
0
  0
LINE
  8
10
 62
2
 10
-526.9755113190123
 20
430.0386366867171
 30
0
 11
-517.4091326208192
 21
444.8520106263927
 31
0
  0
SOLID
  8
10
 62
2
 10
-517.4091326208192
 20
444.8520106263927
 30
0
 11
-519.142311156454
 21
441.2096910133419
 31
0
 12
-520.0159680203431
 22
441.7738928249125
 32
0
 13
-520.0159680203431
 23
441.7738928249125
 33
0
  0
TEXT
  8
10
 62
2
 10
-526.5724139837689
 20
434.3494501294817
 30
0
 40
3.2
  1
72
 50
57.1458938079177
 41
0.9
  0
TEXT
  8
10
 62
2
 10
-528.6556206726451
 20
431.1236401705068
 30
0
 40
3.2
  1
%%c
 50
57.1458938079177
 41
0.9
  0
ENDBLK
  8
0
  0
ENDSEC
  0
SECTION
  2
ENTITIES
  0
INSERT
  8
1
  2
*X0
 10
0
 20
0
 30
0
  0
INSERT
  8
1
  2
*X1
 10
0
 20
0
 30
0
  0
LINE
  8
1
 62
2
 10
-478.3490072043899
 20
505.3359473571712
 30
0
 11
-517.4091326208192
 21
444.8520106263926
 31
0
  0
LINE
  8
1
 62
3
 10
-462.4081943944185
 20
536.5313375784893
 30
0
 11
-461.1437973048916
 21
535.8013375784917
 31
0
  0
LINE
  8
1
 62
3
 10
-461.1437973048916
 20
535.8013375784917
 30
0
 11
-463.2709917446128
 21
532.1169287312997
 31
0
  0
LINE
  8
1
 62
3
 10
-457.1224060111863
 20
545.026591616344
 30
0
 11
-456.4295856881579
 21
544.6265916163454
 31
0
  0
LINE
  8
1
 62
3
 10
-462.1224060111692
 20
536.3663375784898
 30
0
 11
-457.1224060111863
 21
545.026591616344
 31
0
  0
LINE
  8
1
 62
3
 10
-456.4295856881579
 20
544.6265916163454
 30
0
 11
-461.4295856881408
 21
535.9663375784911
 31
0
  0
LINE
  8
1
 62
3
 10
-457.6939827776848
 20
545.3565916163431
 30
0
 11
-462.6939827776678
 21
536.6963375784887
 31
0
  0
LINE
  8
1
 62
3
 10
-458.3868031007133
 20
545.7565916163417
 30
0
 11
-457.6939827776848
 21
545.3565916163431
 31
0
  0
LINE
  8
1
 62
3
 10
-463.3868031006962
 20
537.0963375784875
 30
0
 11
-458.3868031007133
 21
545.7565916163417
 31
0
  0
LINE
  8
1
 62
3
 10
-465.6212122107031
 20
533.8862274750452
 30
0
 11
-463.6725914839454
 21
537.261337578487
 31
0
  0
LINE
  8
1
 62
3
 10
-462.4081943944185
 20
536.5313375784893
 30
0
 11
-464.5353888341398
 21
532.8469287312973
 31
0
  0
LINE
  8
1
 62
3
 10
-463.6725914839454
 20
537.261337578487
 30
0
 11
-462.4081943944185
 21
536.5313375784893
 31
0
  0
LINE
  8
1
 62
3
 10
-471.2434670021559
 20
524.148196522988
 30
0
 11
-473.4431715277323
 21
525.4181965229666
 31
0
  0
LINE
  8
1
 62
3
 10
-469.4158518677155
 20
521.3609716255759
 30
0
 11
-468.13099370124
 21
520.6191584172916
 31
0
  0
LINE
  8
1
 62
3
 10
-463.8786195283733
 20
531.0504222079251
 30
0
 11
-471.4453395329078
 21
517.8096269764358
 31
0
  0
LINE
  8
1
 62
3
 10
-465.018584418953
 20
532.010009428404
 30
0
 11
-472.743597663754
 21
518.6298939992045
 31
0
  0
LINE
  8
1
 62
3
 10
-466.1044077955163
 20
533.0493081721519
 30
0
 11
-474.0003574404417
 21
519.3731222128905
 31
0
  0
LINE
  8
1
 62
3
 10
-466.2551606764253
 20
521.2681965229649
 30
0
 11
-468.671595309052
 21
522.6633257085935
 31
0
  0
LINE
  8
1
 62
3
 10
-366.786426009442
 20
450.6939789917821
 30
0
 11
-366.786426009442
 21
441.893978991779
 31
0
  0
LINE
  8
1
 62
3
 10
-390.166426009438
 20
450.6939789917821
 30
0
 11
-390.166426009438
 21
441.893978991779
 31
0
  0
LINE
  8
1
 62
3
 10
-366.786426009442
 20
441.893978991779
 30
0
 11
-387.786426009442
 21
441.893978991779
 31
0
  0
LINE
  8
1
 62
2
  6
DOT
 10
-452.1570013036628
 20
450.6939789917821
 30
0
 11
-452.9397517362704
 21
450.6939789917821
 31
0
  0
LINE
  8
1
 62
2
 10
-609.026196774754
 20
475.093978991787
 30
0
 11
-646.812333609358
 21
475.093978991787
 31
0
  0
LINE
  8
1
 62
3
 10
-474.8091969315167
 20
525.0521711191818
 30
0
 11
-476.1904983910771
 21
522.6596868106549
 31
0
  0
LINE
  8
1
 62
3
 10
-466.2551606763205
 20
521.2681965229649
 30
0
 11
-468.4076014943325
 21
522.510908808661
 31
0
  0
LINE
  8
1
 62
3
 10
-475.1414602854009
 20
521.4766741087624
 30
0
 11
-474.0101588258394
 21
523.4361457153982
 31
0
  0
LINE
  8
1
 62
3
 10
-473.3271461239471
 20
523.6191584172905
 30
0
 11
-472.0827780900652
 21
522.9007221979579
 31
0
  0
LINE
  8
1
 62
3
 10
-467.9479809993475
 20
519.9361457153993
 30
0
 11
-469.7292824589068
 21
516.850841083844
 31
0
  0
LINE
  8
1
 62
3
 10
-467.9227957699878
 20
516.3797678122492
 30
0
 11
-465.8891352725366
 21
519.9021711191808
 31
0
  0
LINE
  8
1
 62
3
 10
-469.7292824589068
 20
516.850841083844
 30
0
 11
-469.8163233919456
 21
516.700081765483
 31
0
  0
LINE
  8
1
 62
3
 10
-465.2412791196134
 20
513.0242908920411
 30
0
 11
-458.7924566884639
 21
524.1939789917819
 31
0
  0
LINE
  8
1
 62
3
 10
-466.1907449624197
 20
515.3797678122496
 30
0
 11
-459.9471572268434
 21
526.1939789917819
 31
0
  0
LINE
  8
1
 62
3
 10
-390.166426009438
 20
441.893978991779
 30
0
 11
-390.166426009438
 21
431.1939789917778
 31
0
  0
LINE
  8
1
 62
3
 10
-387.786426009442
 20
441.893978991779
 30
0
 11
-387.786426009442
 21
450.6939789917821
 31
0
  0
LINE
  8
1
 62
3
 10
-366.786426009442
 20
441.893978991779
 30
0
 11
-366.786426009442
 21
432.1079430437198
 31
0
  0
LINE
  8
1
 62
3
 10
-365.666426009438
 20
441.893978991779
 30
0
 11
-365.666426009438
 21
450.6939789917821
 31
0
  0
LINE
  8
1
 62
3
 10
-363.166426009438
 20
450.6939789917821
 30
0
 11
-391.166426009438
 21
450.6939789917821
 31
0
  0
LINE
  8
1
 62
3
 10
-486.062885533966
 20
490.7316830026211
 30
0
 11
-487.4147115631258
 21
489.1206394758101
 31
0
  0
LINE
  8
1
 62
3
 10
-484.530796647729
 20
489.4461077832489
 30
0
 11
-485.8826226768879
 21
487.8350642564369
 31
0
  0
LINE
  8
1
 62
3
 10
-478.7756251483647
 20
479.4778583400771
 30
0
 11
-480.8467427837668
 21
479.112664420737
 31
0
  0
LINE
  8
1
 62
3
 10
-478.4283287930321
 20
477.5082428340538
 30
0
 11
-480.4994464284328
 21
477.143048914711
 31
0
  0
LINE
  8
1
 62
3
 10
-480.4270788790827
 20
466.1727678090761
 30
0
 11
-482.2483891612128
 21
467.2243017907431
 31
0
  0
LINE
  8
1
 62
3
 10
-481.4270788790827
 20
464.4407170015079
 30
0
 11
-483.2483891612128
 21
465.492250983174
 31
0
  0
LINE
  8
1
 62
3
 10
-490.2445131716518
 20
457.0420111386829
 30
0
 11
-490.963804777894
 21
459.0182485848391
 31
0
  0
LINE
  8
1
 62
3
 10
-492.1238984132228
 20
456.3579708520329
 30
0
 11
-492.843190019466
 21
458.3342082981872
 31
0
  0
LINE
  8
1
 62
3
 10
-503.6342414119517
 20
456.3579708520329
 30
0
 11
-502.9149498057091
 21
458.3342082981881
 31
0
  0
LINE
  8
1
 62
3
 10
-505.5136266535228
 20
457.0420111386852
 30
0
 11
-504.794335047281
 21
459.0182485848382
 31
0
  0
LINE
  8
1
 62
3
 10
-514.3310609460909
 20
464.4407170015088
 30
0
 11
-512.5097506639609
 21
465.4922509831749
 31
0
  0
LINE
  8
1
 62
3
 10
-515.3310609460909
 20
466.1727678090779
 30
0
 11
-513.5097506639609
 21
467.2243017907431
 31
0
  0
LINE
  8
1
 62
3
 10
-517.3298110321407
 20
477.5082428340552
 30
0
 11
-515.2586933967409
 21
477.1430489147128
 31
0
  0
LINE
  8
1
 62
3
 10
-516.9825146768067
 20
479.4778583400789
 30
0
 11
-514.9113970414069
 21
479.112664420737
 31
0
  0
LINE
  8
1
 62
3
 10
-511.2273431774429
 20
489.4461077832489
 30
0
 11
-509.875517148284
 21
487.8350642564378
 31
0
  0
LINE
  8
1
 62
3
 10
-509.695254291205
 20
490.7316830026221
 30
0
 11
-508.3434282620469
 21
489.120639475811
 31
0
  0
LINE
  8
1
 62
3
 10
-498.8790699125857
 20
494.668452164774
 30
0
 11
-498.8790699125857
 21
492.5653842014431
 31
0
  0
LINE
  8
1
 62
3
 10
-496.8790699125857
 20
494.668452164774
 30
0
 11
-496.8790699125857
 21
492.5653842014431
 31
0
  0
LINE
  8
1
 62
3
 10
-628.710714913774
 20
492.1694172584171
 30
0
 11
-624.710714913774
 21
492.1694172584171
 31
0
  0
LINE
  8
1
 62
3
 10
-629.9107149137743
 20
485.8095001089109
 30
0
 11
-624.710714913774
 21
485.8095001089109
 31
0
  0
LINE
  8
1
 62
1
 10
-609.2527831885253
 20
424.1939789917819
 30
0
 11
-645.4650882765353
 21
424.1939789917819
 31
0
  0
LINE
  8
1
 62
1
 10
-609.2527831885253
 20
516.1939789917819
 30
0
 11
-645.4650882765353
 21
516.1939789917819
 31
0
  0
LINE
  8
1
 62
3
 10
-638.710714913774
 20
468.3317479726011
 30
0
 11
-638.710714913774
 21
409.1939789917778
 31
0
  0
LINE
  8
1
 62
3
 10
-638.710714913774
 20
431.346141513679
 30
0
 11
-611.710714913774
 21
431.346141513679
 31
0
  0
LINE
  8
1
 62
3
 10
-638.710714913774
 20
419.1944333008219
 30
0
 11
-611.710714913774
 21
419.1944333008219
 31
0
  0
LINE
  8
1
 62
2
  6
DOT
 10
-643.710714913774
 20
426.343978991782
 30
0
 11
-611.710714913774
 21
426.343978991782
 31
0
  0
LINE
  8
1
 62
2
  6
DOT
 10
-643.710714913774
 20
422.0439789917818
 30
0
 11
-611.710714913774
 21
422.0439789917818
 31
0
  0
LINE
  8
1
 62
1
 10
-645.8093877392392
 20
416.7939789917818
 30
0
 11
-636.897195729898
 21
416.7939789917818
 31
0
  0
LINE
  8
1
 62
2
  6
DOT
 10
-643.710714913774
 20
418.9439789917819
 30
0
 11
-638.710714913774
 21
418.9439789917819
 31
0
  0
LINE
  8
1
 62
2
  6
DOT
 10
-643.710714913774
 20
414.6439789917831
 30
0
 11
-638.710714913774
 21
414.6439789917831
 31
0
  0
LINE
  8
1
 62
3
 10
-628.710714913774
 20
492.6144086662598
 30
0
 11
-627.210714913774
 21
492.6144086662598
 31
0
  0
LINE
  8
1
 62
3
 10
-628.7107149137722
 20
488.3857918727231
 30
0
 11
-627.2107149137722
 21
488.3857918727231
 31
0
  0
LINE
  8
1
 62
3
 10
-627.2107149137722
 20
488.3857918727231
 30
0
 11
-627.210714913774
 21
492.1694172584171
 31
0
  0
LINE
  8
1
 62
3
 10
-629.9107149137743
 20
485.2943707932509
 30
0
 11
-628.710714913774
 21
485.2943707932509
 31
0
  0
LINE
  8
1
 62
3
 10
-628.710714913774
 20
485.2943707932509
 30
0
 11
-628.710714913774
 21
409.1939789917778
 31
0
  0
LINE
  8
1
 62
3
 10
-628.7107149137722
 20
488.3857918727231
 30
0
 11
-628.710714913774
 21
492.6144086662598
 31
0
  0
LINE
  8
1
 62
3
 10
-627.210714913774
 20
492.6144086662598
 30
0
 11
-624.710714913774
 21
492.6144086662598
 31
0
  0
LINE
  8
1
 62
3
 10
-624.710714913774
 20
485.2943707932509
 30
0
 11
-624.710714913774
 21
488.3857918727231
 31
0
  0
LINE
  8
1
 62
3
 10
-627.2107149137722
 20
488.3857918727231
 30
0
 11
-624.710714913774
 21
488.3857918727231
 31
0
  0
LINE
  8
1
 62
3
 10
-629.9107149137743
 20
495.2064263167699
 30
0
 11
-629.9107149137743
 21
485.2943707932509
 31
0
  0
LINE
  8
1
 62
3
 10
-628.710714913774
 20
485.2943707932509
 30
0
 11
-624.710714913774
 21
485.2943707932509
 31
0
  0
LINE
  8
1
 62
3
 10
-624.710714913774
 20
492.1694172584171
 30
0
 11
-624.710714913774
 21
495.2064263167731
 31
0
  0
LINE
  8
1
 62
3
 10
-624.710714913774
 20
495.2064263167731
 30
0
 11
-629.9107149137743
 21
495.2064263167699
 31
0
  0
LINE
  8
1
 62
3
 10
-642.710714913774
 20
526.1939789917778
 30
0
 11
-628.710714913774
 21
526.1939789917778
 31
0
  0
LINE
  8
1
 62
3
 10
-628.710714913774
 20
495.2064263167699
 30
0
 11
-628.710714913774
 21
526.1939789917778
 31
0
  0
LINE
  8
1
 62
3
 10
-638.710714913774
 20
526.1939789917778
 30
0
 11
-638.710714913774
 21
496.4954758212339
 31
0
  0
LINE
  8
1
 62
3
 10
-638.710714913774
 20
496.4954758212339
 30
0
 11
-643.710714913774
 21
496.4954758212339
 31
0
  0
LINE
  8
1
 62
3
 10
-638.710714913774
 20
498.725189260324
 30
0
 11
-643.710714913774
 21
498.725189260324
 31
0
  0
LINE
  8
1
 62
3
 10
-613.710714913774
 20
409.1939789917778
 30
0
 11
-642.710714913774
 21
409.1939789917778
 31
0
  0
LINE
  8
1
 62
3
 10
-611.710714913774
 20
524.1939789917778
 30
0
 11
-611.710714913774
 21
411.1939789917778
 31
0
  0
LINE
  8
1
 62
3
 10
-628.710714913774
 20
526.1939789917778
 30
0
 11
-613.710714913774
 21
526.1939789917778
 31
0
  0
LINE
  8
1
 62
3
 10
-643.710714913774
 20
410.1939789917778
 30
0
 11
-643.710714913774
 21
525.1939789917778
 31
0
  0
LINE
  8
1
 62
3
 10
-611.710714913774
 20
508.2034176037619
 30
0
 11
-638.710714913774
 21
508.2034176037619
 31
0
  0
LINE
  8
1
 62
3
 10
-611.710714913774
 20
521.193524682742
 30
0
 11
-638.710714913774
 21
521.193524682742
 31
0
  0
LINE
  8
1
 62
2
  6
DOT
 10
-611.710714913774
 20
514.0439789917818
 30
0
 11
-643.710714913774
 21
514.0439789917818
 31
0
  0
LINE
  8
1
 62
2
  6
DOT
 10
-611.710714913774
 20
518.343978991782
 30
0
 11
-643.710714913774
 21
518.343978991782
 31
0
  0
LINE
  8
1
 62
1
 10
-636.897195729898
 20
521.593978991782
 30
0
 11
-645.8093877392392
 21
521.593978991782
 31
0
  0
LINE
  8
1
 62
2
  6
DOT
 10
-638.710714913774
 20
519.4439789917819
 30
0
 11
-643.710714913774
 21
519.4439789917819
 31
0
  0
LINE
  8
1
 62
2
  6
DOT
 10
-638.710714913774
 20
523.743978991783
 30
0
 11
-643.710714913774
 21
523.743978991783
 31
0
  0
LINE
  8
1
 62
3
 10
-447.591871290992
 20
483.807266086118
 30
0
 11
-447.7905191275208
 21
483.7828751987349
 31
0
  0
LINE
  8
1
 62
3
 10
-447.0434597268541
 20
479.3408083446489
 30
0
 11
-447.2421070821979
 21
479.3164175163502
 31
0
  0
LINE
  8
1
 62
3
 10
-449.6121586737791
 20
486.329863689306
 30
0
 11
-448.116357484023
 21
486.513524981588
 31
0
  0
LINE
  8
1
 62
3
 10
-448.3934641345841
 20
476.404402308588
 30
0
 11
-446.8976640499709
 21
476.5880634651749
 31
0
  0
LINE
  8
1
 62
3
 10
-555.1039960244029
 20
488.381058899708
 30
0
 11
-555.116999760894
 21
488.3857918727231
 31
0
  0
LINE
  8
1
 62
3
 10
-555.1039960244029
 20
488.381058899708
 30
0
 11
-555.3051300088027
 21
488.4542656831281
 31
0
  0
LINE
  8
1
 62
3
 10
-553.5779091159279
 20
492.6144086662598
 30
0
 11
-553.7660381761498
 21
492.682882044382
 31
0
  0
LINE
  8
1
 62
3
 10
-551.2436998179228
 20
494.691297991315
 30
0
 11
-552.659003260233
 21
495.2064263167699
 31
0
  0
LINE
  8
1
 62
3
 10
-554.6638985306131
 20
485.2943707932509
 30
0
 11
-556.0792046934889
 21
485.8095001089109
 31
0
  0
LINE
  8
1
 62
3
 10
-461.4290699125859
 20
409.693978991786
 30
0
 11
-464.1791161917458
 21
409.693978991786
 31
0
  0
LINE
  8
1
 62
3
 10
-461.4290699125859
 20
411.1939789917819
 30
0
 11
-461.4290699125859
 21
409.693978991786
 31
0
  0
LINE
  8
1
 62
3
 10
-456.9290699125859
 20
409.693978991786
 30
0
 11
-461.4290699125859
 21
409.693978991786
 31
0
  0
LINE
  8
1
 62
3
 10
-456.9290699125859
 20
411.1939789917819
 30
0
 11
-456.9290699125859
 21
409.693978991786
 31
0
  0
LINE
  8
1
 62
3
 10
-454.1791161917458
 20
411.1939789917819
 30
0
 11
-454.1791161917458
 21
409.693978991786
 31
0
  0
LINE
  8
1
 62
3
 10
-464.1791161917458
 20
409.693978991786
 30
0
 11
-464.1791161917458
 21
411.1939789917819
 31
0
  0
LINE
  8
1
 62
3
 10
-454.1791161917458
 20
409.693978991786
 30
0
 11
-456.9290699125859
 21
409.693978991786
 31
0
  0
LINE
  8
1
 62
3
 10
-377.666426009438
 20
484.0777481736491
 30
0
 11
-376.166426009438
 21
484.0777481736491
 31
0
  0
LINE
  8
1
 62
3
 10
-377.666426009438
 20
479.0777481736491
 30
0
 11
-376.166426009438
 21
479.0777481736491
 31
0
  0
LINE
  8
1
 62
3
 10
-377.666426009438
 20
484.0777481736491
 30
0
 11
-377.666426009438
 21
479.0777481736491
 31
0
  0
LINE
  8
1
 62
3
 10
-376.166426009438
 20
476.5777481736491
 30
0
 11
-374.9664260094368
 21
476.5777481736491
 31
0
  0
LINE
  8
1
 62
3
 10
-376.166426009438
 20
470.1939789917778
 30
0
 11
-376.166426009438
 21
476.5777481736491
 31
0
  0
LINE
  8
1
 62
3
 10
-376.166426009438
 20
484.0777481736491
 30
0
 11
-376.166426009438
 21
479.0777481736491
 31
0
  0
LINE
  8
1
 62
3
 10
-380.166426009438
 20
484.0777481736491
 30
0
 11
-377.666426009438
 21
484.0777481736491
 31
0
  0
LINE
  8
1
 62
3
 10
-380.166426009438
 20
479.0777481736491
 30
0
 11
-380.166426009438
 21
476.5777481736491
 31
0
  0
LINE
  8
1
 62
3
 10
-380.166426009438
 20
479.0777481736491
 30
0
 11
-377.666426009438
 21
479.0777481736491
 31
0
  0
LINE
  8
1
 62
3
 10
-374.9664260094368
 20
476.5777481736491
 30
0
 11
-374.9664260094368
 21
486.5777481736491
 31
0
  0
LINE
  8
1
 62
3
 10
-380.166426009438
 20
476.5777481736491
 30
0
 11
-376.166426009438
 21
476.5777481736491
 31
0
  0
LINE
  8
1
 62
3
 10
-380.166426009438
 20
486.5777481736491
 30
0
 11
-380.166426009438
 21
484.0777481736491
 31
0
  0
LINE
  8
1
 62
3
 10
-374.9664260094368
 20
486.5777481736491
 30
0
 11
-380.166426009438
 21
486.5777481736491
 31
0
  0
LINE
  8
1
 62
3
 10
-376.166426009438
 20
526.1939789917778
 30
0
 11
-362.166426009438
 21
526.1939789917778
 31
0
  0
LINE
  8
1
 62
3
 10
-376.166426009438
 20
470.1939789917778
 30
0
 11
-391.166426009438
 21
470.1939789917778
 31
0
  0
LINE
  8
1
 62
3
 10
-376.166426009438
 20
526.1939789917778
 30
0
 11
-376.166426009438
 21
486.5777481736491
 31
0
  0
LINE
  8
1
 62
3
 10
-366.166426009438
 20
491.843472136346
 30
0
 11
-366.166426009438
 21
526.1939789917778
 31
0
  0
LINE
  8
1
 62
3
 10
-361.166426009438
 20
491.843472136346
 30
0
 11
-366.166426009438
 21
491.843472136346
 31
0
  0
LINE
  8
1
 62
3
 10
-361.166426009438
 20
493.6809211329969
 30
0
 11
-366.166426009438
 21
493.6809211329969
 31
0
  0
LINE
  8
1
 62
3
 10
-366.166426009438
 20
470.1939789917778
 30
0
 11
-363.166426009438
 21
470.1939789917778
 31
0
  0
LINE
  8
1
 62
3
 10
-390.166426009438
 20
431.1939789917778
 30
0
 11
-391.166426009438
 21
431.1939789917778
 31
0
  0
LINE
  8
1
 62
3
 10
-376.166426009438
 20
469.1939789917778
 30
0
 11
-376.166426009438
 21
470.1939789917778
 31
0
  0
LINE
  8
1
 62
3
 10
-377.666426009438
 20
469.1939789917778
 30
0
 11
-377.666426009438
 21
465.893978991779
 31
0
  0
LINE
  8
1
 62
3
 10
-376.166426009438
 20
469.1939789917778
 30
0
 11
-377.666426009438
 21
469.1939789917778
 31
0
  0
LINE
  8
1
 62
3
 10
-376.166426009438
 20
410.1939789917778
 30
0
 11
-377.666426009438
 21
410.1939789917778
 31
0
  0
LINE
  8
1
 62
3
 10
-376.166426009438
 20
409.1939789917778
 30
0
 11
-376.166426009438
 21
410.1939789917778
 31
0
  0
LINE
  8
1
 62
3
 10
-377.666426009438
 20
432.1079430437198
 30
0
 11
-377.666426009438
 21
410.1939789917778
 31
0
  0
LINE
  8
1
 62
2
 10
-403.3053005352807
 20
464.7831775144118
 30
0
 11
-397.7522732850588
 21
467.9892192921379
 31
0
  0
LINE
  8
1
 62
2
 10
-403.3053005352807
 20
466.9892192921379
 30
0
 11
-403.3053005352807
 21
464.7831775144118
 31
0
  0
LINE
  8
1
 62
2
 10
-410.3053005352807
 20
466.9892192921379
 30
0
 11
-403.3053005352807
 21
466.9892192921379
 31
0
  0
LINE
  8
1
 62
2
 10
-410.3053005352807
 20
468.9892192921379
 30
0
 11
-410.3053005352807
 21
466.9892192921379
 31
0
  0
LINE
  8
1
 62
2
 10
-403.3053005352807
 20
468.9892192921379
 30
0
 11
-410.3053005352807
 21
468.9892192921379
 31
0
  0
LINE
  8
1
 62
2
 10
-403.3053005352807
 20
471.1952610698772
 30
0
 11
-403.3053005352807
 21
468.9892192921379
 31
0
  0
LINE
  8
1
 62
2
 10
-397.7522732850588
 20
467.9892192921379
 30
0
 11
-403.3053005352807
 21
471.1952610698772
 31
0
  0
LINE
  8
1
 62
2
 10
-415.2620356183697
 20
419.394387054494
 30
0
 11
-420.8150628685917
 21
422.6004288322179
 31
0
  0
LINE
  8
1
 62
2
 10
-420.8150628685917
 20
422.6004288322179
 30
0
 11
-420.8150628685917
 21
420.394387054494
 31
0
  0
LINE
  8
1
 62
2
 10
-420.8150628685917
 20
420.394387054494
 30
0
 11
-427.8150628685917
 21
420.394387054494
 31
0
  0
LINE
  8
1
 62
2
 10
-427.8150628685917
 20
420.394387054494
 30
0
 11
-427.8150628685917
 21
418.394387054494
 31
0
  0
LINE
  8
1
 62
2
 10
-427.8150628685917
 20
418.394387054494
 30
0
 11
-420.8150628685917
 21
418.394387054494
 31
0
  0
LINE
  8
1
 62
2
 10
-420.8150628685917
 20
418.394387054494
 30
0
 11
-420.8150628685917
 21
416.1883452767529
 31
0
  0
LINE
  8
1
 62
2
 10
-420.8150628685917
 20
416.1883452767529
 30
0
 11
-415.2620356183697
 21
419.394387054494
 31
0
  0
LINE
  8
1
 62
3
 10
-514.170562892758
 20
411.1939789917819
 30
0
 11
-547.4790699125861
 21
411.1939789917819
 31
0
  0
LINE
  8
1
 62
3
 10
-556.4790699125861
 20
498.725189260324
 30
0
 11
-550.3529825868327
 21
496.4954758212339
 31
0
  0
LINE
  8
1
 62
3
 10
-554.4790699125861
 20
500.125604336743
 30
0
 11
-549.3920765244557
 21
498.2740901615562
 31
0
  0
LINE
  8
1
 62
3
 10
-552.3553052710281
 20
492.1694172584171
 30
0
 11
-553.5779091159279
 21
492.6144086662598
 31
0
  0
LINE
  8
1
 62
3
 10
-553.8943959159929
 20
487.9408004648799
 30
0
 11
-555.1039960244029
 21
488.381058899708
 31
0
  0
LINE
  8
1
 62
3
 10
-556.4790699125861
 20
498.725189260324
 30
0
 11
-556.4790699125861
 21
522.1939789917819
 31
0
  0
LINE
  8
1
 62
3
 10
-444.8665749165889
 20
409.1939789917819
 30
0
 11
-437.4790699125861
 21
409.1939789917819
 31
0
  0
LINE
  8
1
 62
3
 10
-447.7905191275208
 20
483.7828751987349
 30
0
 11
-449.0820601361461
 21
483.6242939031031
 31
0
  0
LINE
  8
1
 62
3
 10
-447.2421070821979
 20
479.3164175163502
 30
0
 11
-448.5336480908227
 21
479.1578362207169
 31
0
  0
LINE
  8
1
 62
3
 10
-461.4290699125859
 20
411.1939789917819
 30
0
 11
-453.425701922753
 21
411.1939789917819
 31
0
  0
LINE
  8
1
 62
3
 10
-547.9790699125861
 20
411.6939789917819
 30
0
 11
-547.9790699125861
 21
411.8452417791191
 31
0
  0
LINE
  8
1
 62
3
 10
-554.4790699125861
 20
517.9279184358179
 30
0
 11
-554.4790699125861
 21
500.125604336743
 31
0
  0
LINE
  8
1
 62
3
 10
-439.4790699125861
 20
495.4325524674141
 30
0
 11
-439.4790699125861
 21
519.4876294558439
 31
0
  0
LINE
  8
1
 62
3
 10
-552.4790699125861
 20
526.1939789917819
 30
0
 11
-501.579069912586
 21
526.1939789917819
 31
0
  0
LINE
  8
1
 62
3
 10
-437.4790699125861
 20
409.1939789917819
 30
0
 11
-437.4790699125861
 21
465.8939789917831
 31
0
  0
LINE
  8
1
 62
3
 10
-498.290479885809
 20
409.1939789917819
 30
0
 11
-552.4790699125861
 21
409.1939789917819
 31
0
  0
LINE
  8
1
 62
3
 10
-498.290479885809
 20
409.1939789917819
 30
0
 11
-480.248263492495
 21
409.1939789917819
 31
0
  0
LINE
  8
1
 62
3
 10
-556.4790699125861
 20
413.1939789917819
 30
0
 11
-556.4790699125861
 21
471.5488163096729
 31
0
  0
LINE
  8
1
 62
3
 10
-441.4790699125861
 20
526.1939789917819
 30
0
 11
-459.9471572268434
 21
526.1939789917819
 31
0
  0
LINE
  8
1
 62
3
 10
-437.4790699125861
 20
470.1939789917819
 30
0
 11
-447.5334420779559
 21
470.1939789917819
 31
0
  0
LINE
  8
1
 62
3
 10
-554.4790699125861
 20
420.4600395477469
 30
0
 11
-554.4790699125861
 21
451.7099542590358
 31
0
  0
LINE
  8
1
 62
3
 10
-519.5623955227161
 20
524.1939789917819
 30
0
 11
-544.79576390173
 21
524.1939789917819
 31
0
  0
LINE
  8
1
 62
3
 10
-450.1623759234408
 20
524.1939789917819
 30
0
 11
-458.7924566884639
 21
524.1939789917819
 31
0
  0
LINE
  8
1
 62
3
 10
-552.4790699125861
 20
526.1939789917819
 30
0
 11
-501.046973478482
 21
526.1939789917819
 31
0
  0
LINE
  8
1
 62
3
 10
-450.5573313360801
 20
491.855949214867
 30
0
 11
-437.4790699125861
 21
493.6939789917819
 31
0
  0
LINE
  8
1
 62
3
 10
-437.4790699125861
 20
493.6939789917819
 30
0
 11
-437.4790699125861
 21
522.1939789917819
 31
0
  0
LINE
  8
1
 62
3
 10
-465.079069912586
 20
411.1939789917819
 30
0
 11
-461.4290699125859
 21
411.1939789917819
 31
0
  0
LINE
  8
1
 62
3
 10
-444.8665749165889
 20
409.1939789917819
 30
0
 11
-437.4790699125861
 21
409.1939789917819
 31
0
  0
LINE
  8
1
 62
3
 10
-439.4790699125861
 20
495.4325524674141
 30
0
 11
-451.8595445827509
 21
493.6925902232561
 31
0
  0
LINE
  8
1
 62
3
 10
-542.7015675649759
 20
509.0133398934331
 30
0
 11
-546.1754158819731
 21
512.826928877128
 31
0
  0
LINE
  8
1
 62
3
 10
-535.3088756262009
 20
515.747440122741
 30
0
 11
-538.7827239431967
 21
519.5610291064359
 31
0
  0
LINE
  8
1
 62
3
 10
-456.3466895991219
 20
504.166737241907
 30
0
 11
-451.2951074673169
 21
508.3388028418349
 31
0
  0
LINE
  8
1
 62
3
 10
-462.7146144896601
 20
511.8770895418011
 30
0
 11
-457.6630323578547
 21
516.049155141729
 31
0
  0
LINE
  8
1
 62
3
 10
-450.1899168716677
 20
514.763641652833
 30
0
 11
-447.3272335644738
 21
517.1279113485061
 31
0
  0
LINE
  8
1
 62
3
 10
-451.1451056052497
 20
515.9201944978158
 30
0
 11
-448.5880274921069
 21
518.0320670466172
 31
0
  0
LINE
  8
1
 62
3
 10
-538.9850153631828
 20
420.6174467598839
 30
0
 11
-535.9289061379041
 21
423.6030796717919
 31
0
  0
LINE
  8
1
 62
3
 10
-545.973124461987
 20
427.7705112236799
 30
0
 11
-542.9170152367069
 21
430.7561441355879
 31
0
  0
LINE
  8
1
 62
3
 10
-545.8920478501909
 20
419.811205379372
 30
0
 11
-545.4910290644707
 21
420.2029763524229
 31
0
  0
LINE
  8
1
 62
3
 10
-546.9667668264301
 20
420.8582736088561
 30
0
 11
-546.5392454292919
 21
421.275936021992
 31
0
  0
LINE
  8
1
 62
3
 10
-437.4790699125861
 20
465.8939789917831
 30
0
 11
-437.4790699125861
 21
470.1939789917819
 31
0
  0
LINE
  8
1
 62
3
 10
-363.166426009438
 20
409.1939789917778
 30
0
 11
-391.166426009438
 21
409.1939789917778
 31
0
  0
LINE
  8
1
 62
3
 10
-393.166426009438
 20
411.1939789917778
 30
0
 11
-393.166426009438
 21
524.1939789917778
 31
0
  0
LINE
  8
1
 62
3
 10
-391.166426009438
 20
526.1939789917778
 30
0
 11
-376.166426009438
 21
526.1939789917778
 31
0
  0
LINE
  8
1
 62
3
 10
-361.166426009438
 20
525.1939789917778
 30
0
 11
-361.166426009438
 21
411.1939789917778
 31
0
  0
LINE
  8
1
 62
3
 10
-366.166426009438
 20
470.1939789917778
 30
0
 11
-376.166426009438
 21
470.1939789917778
 31
0
  0
LINE
  8
1
 62
3
 10
-363.166426009438
 20
465.0261521153601
 30
0
 11
-391.166426009438
 21
465.0261521153601
 31
0
  0
LINE
  8
1
 62
3
 10
-363.166426009438
 20
465.0261521153601
 30
0
 11
-363.166426009438
 21
411.6939789917778
 31
0
  0
LINE
  8
1
 62
3
 10
-363.166426009438
 20
411.6939789917778
 30
0
 11
-391.166426009438
 21
411.6939789917778
 31
0
  0
LINE
  8
1
 62
3
 10
-391.166426009438
 20
411.6939789917778
 30
0
 11
-391.166426009438
 21
465.0261521153601
 31
0
  0
LINE
  8
1
 62
3
 10
-366.166426009438
 20
502.9737519215641
 30
0
 11
-393.166426009438
 21
502.9737519215641
 31
0
  0
LINE
  8
1
 62
3
 10
-366.166426009438
 20
517.1935246827379
 30
0
 11
-393.166426009438
 21
517.1935246827379
 31
0
  0
LINE
  8
1
 62
2
  6
DOT
 10
-361.166426009438
 20
510.0439789917791
 30
0
 11
-393.166426009438
 21
510.0439789917791
 31
0
  0
LINE
  8
1
 62
2
  6
DOT
 10
-361.166426009438
 20
514.3439789917779
 30
0
 11
-393.166426009438
 21
514.3439789917779
 31
0
  0
LINE
  8
1
 62
1
 10
-358.7084942841879
 20
512.1939789917778
 30
0
 11
-394.9207993721979
 21
512.1939789917778
 31
0
  0
LINE
  8
1
 62
3
 10
-363.166426009438
 20
436.7638519728548
 30
0
 11
-365.666426009438
 21
441.0939789917779
 31
0
  0
LINE
  8
1
 62
3
 10
-365.666426009438
 20
441.0939789917779
 30
0
 11
-365.666426009438
 21
441.893978991779
 31
0
  0
LINE
  8
1
 62
3
 10
-386.9864260094409
 20
432.1079430437198
 30
0
 11
-387.786426009442
 21
432.0939789917779
 31
0
  0
LINE
  8
1
 62
3
 10
-387.786426009442
 20
432.0939789917779
 30
0
 11
-387.786426009442
 21
441.893978991779
 31
0
  0
LINE
  8
1
 62
3
 10
-366.786426009442
 20
432.1079430437198
 30
0
 11
-386.9864260094409
 21
432.1079430437198
 31
0
  0
LINE
  8
1
 62
3
 10
-366.786426009442
 20
434.5192224696411
 30
0
 11
-387.786426009442
 21
434.5192224696411
 31
0
  0
LINE
  8
1
 62
3
 10
-366.786426009442
 20
439.4167999736351
 30
0
 11
-387.786426009442
 21
439.4167999736351
 31
0
  0
LINE
  8
1
 62
3
 10
-366.786426009442
 20
444.758813330684
 30
0
 11
-387.786426009442
 21
444.758813330684
 31
0
  0
LINE
  8
1
 62
3
 10
-366.786426009442
 20
449.071040980351
 30
0
 11
-387.786426009442
 21
449.071040980351
 31
0
  0
LINE
  8
1
 62
1
 10
-431.7559094197727
 20
475.093978991787
 30
0
 11
-563.3348354481241
 21
475.093978991787
 31
0
  0
LINE
  8
1
 62
1
 10
-497.8790699125857
 20
400.1432389473671
 30
0
 11
-497.8790699125857
 21
537.7578955274771
 31
0
  0
LINE
  8
1
 62
1
 10
-356.1487387625629
 20
475.093978991787
 30
0
 11
-398.0408082440221
 21
475.093978991787
 31
0
  0
LINE
  8
1
 62
2
  6
CENTER
 10
-359.0677531839719
 20
521.593978991782
 30
0
 11
-367.9799451933131
 21
521.593978991782
 31
0
  0
LINE
  8
1
 62
2
  6
DOT
 10
-361.166426009438
 20
519.4439789917819
 30
0
 11
-366.166426009438
 21
519.4439789917819
 31
0
  0
LINE
  8
1
 62
2
  6
DOT
 10
-361.166426009438
 20
523.743978991783
 30
0
 11
-366.166426009438
 21
523.743978991783
 31
0
  0
LINE
  8
1
 62
2
 10
-451.1112620837279
 20
543.8227850830095
 30
0
 11
-451.1110413398108
 21
543.8244597598865
 31
0
  0
LINE
  8
1
 62
2
 10
-449.0895798692508
 20
541.7964651165536
 30
0
 11
-449.0905063817065
 21
541.7924253691715
 31
0
  0
LINE
  8
1
 62
2
 10
-449.9261714678655
 20
545.005163315614
 30
0
 11
-449.9259507239484
 21
545.006837992491
 31
0
  0
LINE
  8
1
 62
3
 10
-366.786426009442
 20
437.036731281652
 30
0
 11
-387.786426009442
 21
437.036731281652
 31
0
  0
LINE
  8
10
 62
1
 10
-547.0840699125861
 20
521.593978991782
 30
0
 11
-552.6740699125858
 21
521.593978991782
 31
0
  0
LINE
  8
10
 62
1
 10
-549.8790699125857
 20
524.3889789917821
 30
0
 11
-549.8790699125857
 21
518.798978991782
 31
0
  0
LINE
  8
1
 62
1
 10
-545.2740699125857
 20
516.1939789917819
 30
0
 11
-539.684069912586
 21
516.1939789917819
 31
0
  0
LINE
  8
1
 62
1
 10
-542.4790699125861
 20
513.3989789917819
 30
0
 11
-542.4790699125861
 21
518.988978991782
 31
0
  0
LINE
  8
1
 62
1
 10
-457.2740699125857
 20
512.1939789917819
 30
0
 11
-451.684069912586
 21
512.1939789917819
 31
0
  0
LINE
  8
1
 62
1
 10
-454.4790699125861
 20
509.3989789917819
 30
0
 11
-454.4790699125861
 21
514.988978991782
 31
0
  0
LINE
  8
1
 62
1
  6
CENTER
 10
-447.874069912586
 20
521.593978991782
 30
0
 11
-442.2840699125859
 21
521.593978991782
 31
0
  0
LINE
  8
1
 62
1
  6
CENTER
 10
-445.079069912586
 20
518.798978991782
 30
0
 11
-445.079069912586
 21
524.3889789917821
 31
0
  0
LINE
  8
1
 62
2
 10
-447.874069912586
 20
521.593978991782
 30
0
 11
-442.2840699125859
 21
521.593978991782
 31
0
  0
LINE
  8
1
 62
2
 10
-445.079069912586
 20
518.798978991782
 30
0
 11
-445.079069912586
 21
524.3889789917821
 31
0
  0
LINE
  8
1
 62
1
 10
-545.2740699125857
 20
424.1939789917819
 30
0
 11
-539.684069912586
 21
424.1939789917819
 31
0
  0
LINE
  8
1
 62
1
 10
-542.4790699125861
 20
421.3989789917819
 30
0
 11
-542.4790699125861
 21
426.988978991782
 31
0
  0
LINE
  8
1
 62
1
 10
-552.6740699125867
 20
416.7939789917818
 30
0
 11
-547.0840699125861
 21
416.7939789917818
 31
0
  0
LINE
  8
1
 62
1
 10
-549.8790699125857
 20
413.9989789917831
 30
0
 11
-549.8790699125857
 21
419.5889789917819
 31
0
  0
ARC
  8
1
 62
2
  6
DOT
 10
-495.1790699125863
 20
476.4939789917819
 30
0
 40
44.99999999999995
 50
331.6406499718431
 51
351.5191372057287
  0
ARC
  8
1
 62
2
  6
DOT
 10
-452.9397517362704
 20
453.6939789917821
 30
0
 40
3.000000000000446
 50
151.6406499718432
 51
270
  0
ARC
  8
1
 62
2
  6
DOT
 10
-455.6645473102333
 20
468.5908027757984
 30
0
 40
18.49999999999678
 50
289.5149009079556
 51
349.4197746528718
  0
ARC
  8
1
 62
2
  6
DOT
 10
-452.1570013036628
 20
458.6939789917821
 30
0
 40
8
 50
270
 51
289.5149009079561
  0
ARC
  8
1
 62
3
 10
-499.2790699125856
 20
475.1939789917869
 30
0
 40
50.90000000000109
 50
60.22238971932426
 51
62.51953489428079
  0
ARC
  8
1
 62
3
 10
-475.574472987294
 20
521.7266741087633
 30
0
 40
0.5000000000000815
 50
240.0000000004116
 51
329.9999999999581
  0
ARC
  8
1
 62
3
 10
-499.2790699125856
 20
475.1939789917869
 30
0
 40
50.90000000000034
 50
51.62150753368644
 51
60.22238971932426
  0
ARC
  8
1
 62
2
 10
-521.6908128633868
 20
463.538308785382
 30
0
 40
0.2501752269037293
 50
356.4443745639965
 51
85.19769640862067
  0
ARC
  8
1
 62
2
 10
-521.6906324875031
 20
463.538385960378
 30
0
 40
0.2500000000025657
 50
266.7238231393994
 51
356.4241576541594
  0
ARC
  8
1
 62
2
 10
-523.0564916572789
 20
439.677446567126
 30
0
 40
23.6499999999996
 50
86.7238231392368
 51
110.5168318047659
  0
ARC
  8
1
 62
3
 10
-499.2791161917471
 20
475.193978991786
 30
0
 40
52.40000000000079
 50
4.539017653530256
 51
9.460970001149068
  0
ARC
  8
1
 62
3
 10
-499.2791161917471
 20
475.193978991786
 30
0
 40
52.40000000000129
 50
1.524514929922382
 51
4.539017653530256
  0
ARC
  8
1
 62
3
 10
-501.5791161917441
 20
471.2939789917809
 30
0
 40
56.40000000000012
 50
157.7136412962347
 51
162.286326518546
  0
ARC
  8
1
 62
3
 10
-501.5791161917441
 20
471.2939789917809
 30
0
 40
56.39999999999962
 50
154.9139098741513
 51
157.7136412962347
  0
ARC
  8
1
 62
3
 10
-499.2791161917471
 20
475.193978991786
 30
0
 40
52.40000000000019
 50
9.460970001149068
 51
12.47548507007464
  0
ARC
  8
1
 62
3
 10
-501.5791161917441
 20
471.2939789917809
 30
0
 40
56.40000000000002
 50
162.286326518546
 51
165.0860901258477
  0
ARC
  8
1
 62
2
 10
-471.9761971592038
 20
440.204517576944
 30
0
 40
24.14999999999968
 50
158.7084322996527
 51
182.531522628057
  0
ARC
  8
1
 62
2
 10
-471.9761971592038
 20
440.204517576944
 30
0
 40
23.65000000000029
 50
158.7238231392331
 51
182.5168318047639
  0
ARC
  8
1
 62
2
 10
-494.2472077001257
 20
448.8767672189219
 30
0
 40
0.2501752269044705
 50
68.44437456355296
 51
157.1976964086734
  0
ARC
  8
1
 62
2
 10
-494.2472253586948
 20
448.8769626149669
 30
0
 40
0.2500000000007395
 50
338.7238231394999
 51
68.4241576537727
  0
ARC
  8
1
 62
2
 10
-469.3186514782169
 20
442.344386115702
 30
0
 40
24.15000000000004
 50
163.2084322996517
 51
187.0315226280557
  0
ARC
  8
1
 62
2
 10
-469.3186514782169
 20
442.344386115702
 30
0
 40
23.65000000000067
 50
163.2238231392358
 51
187.0168318047604
  0
ARC
  8
1
 62
2
 10
-492.2014247910497
 20
449.2425387582662
 30
0
 40
0.2501752269027015
 50
72.94437456383908
 51
161.6976964090121
  0
ARC
  8
1
 62
2
 10
-492.2014577257801
 20
449.2427321664941
 30
0
 40
0.2499999999992187
 50
343.2238231390215
 51
72.92415765416992
  0
ARC
  8
1
 62
2
 10
-466.8371902741778
 20
444.6861667848871
 30
0
 40
24.1500000000023
 50
167.7084322996564
 51
191.5315226280549
  0
ARC
  8
1
 62
2
 10
-466.8371902741778
 20
444.6861667848871
 30
0
 40
23.65000000000265
 50
167.7238231392363
 51
191.5168318047644
  0
ARC
  8
1
 62
2
 10
-490.190646452158
 20
449.7676930231251
 30
0
 40
0.2501752269031942
 50
77.44437456374531
 51
166.1976964090462
  0
ARC
  8
1
 62
2
 10
-490.1906944599959
 20
449.767883251111
 30
0
 40
0.2499999999997631
 50
347.7238231393137
 51
77.42415765414224
  0
ARC
  8
1
 62
2
 10
-464.5471125805871
 20
447.215421727949
 30
0
 40
24.14999999999993
 50
172.2084322996511
 51
196.0315226280552
  0
ARC
  8
1
 62
2
 10
-464.5471125805871
 20
447.215421727949
 30
0
 40
23.64999999999842
 50
172.2238231392349
 51
196.0168318047658
  0
ARC
  8
1
 62
2
 10
-488.22726980056
 20
450.4489922628241
 30
0
 40
0.2501752269039003
 50
81.94437456340282
 51
170.6976964086355
  0
ARC
  8
1
 62
2
 10
-488.2273325855199
 20
450.4491781377501
 30
0
 40
0.2500000000005002
 50
352.2238231390667
 51
81.92415765413837
  0
ARC
  8
1
 62
2
 10
-462.4625374879447
 20
449.9165572471061
 30
0
 40
24.15000000000028
 50
176.7084322996572
 51
200.5315226280573
  0
ARC
  8
1
 62
2
 10
-462.4625374879447
 20
449.9165572471061
 30
0
 40
23.65000000000091
 50
176.723823139237
 51
200.5168318047656
  0
ARC
  8
1
 62
2
 10
-486.3233997062007
 20
451.2822360409991
 30
0
 40
0.250175226903839
 50
86.4443745638024
 51
175.1976964091179
  0
ARC
  8
1
 62
2
 10
-486.3234768811949
 20
451.2824164168819
 30
0
 40
0.2499999999995012
 50
356.7238231393592
 51
86.4241576543813
  0
ARC
  8
1
 62
2
 10
-460.596317094894
 20
452.772919943659
 30
0
 40
24.15000000000029
 50
181.2084322996545
 51
205.0315226280548
  0
ARC
  8
1
 62
2
 10
-460.596317094894
 20
452.772919943659
 30
0
 40
23.6500000000007
 50
181.223823139238
 51
205.0168318047649
  0
ARC
  8
1
 62
2
 10
-484.4907741613147
 20
452.2622871326721
 30
0
 40
0.2501752269027646
 50
90.94437456382484
 51
179.6976964089553
  0
ARC
  8
1
 62
2
 10
-484.4908652505337
 20
452.2624608974361
 30
0
 40
0.2500000000004709
 50
1.223823139138891
 51
90.92415765419013
  0
ARC
  8
1
 62
2
 10
-458.959957270738
 20
455.76689939175
 30
0
 40
24.15000000000106
 50
185.7084322996534
 51
209.5315226280544
  0
ARC
  8
1
 62
2
 10
-458.959957270738
 20
455.76689939175
 30
0
 40
23.65000000000084
 50
185.7238231392365
 51
209.5168318047652
  0
ARC
  8
1
 62
2
 10
-482.7406919117957
 20
453.3831031969639
 30
0
 40
0.2501752269059441
 50
95.44437456351206
 51
184.1976964085765
  0
ARC
  8
1
 62
2
 10
-482.740796353643
 20
453.383269279293
 30
0
 40
0.2499999999998698
 50
5.723823139170566
 51
95.424157653983
  0
ARC
  8
1
 62
2
 10
-457.5635467179368
 20
458.8800367124809
 30
0
 40
24.14999999999913
 50
190.2084322996518
 51
214.0315226280569
  0
ARC
  8
1
 62
2
 10
-457.5635467179368
 20
458.8800367124809
 30
0
 40
23.65000000000059
 50
190.2238231392359
 51
214.0168318047606
  0
ARC
  8
1
 62
2
 10
-481.083942796673
 20
454.6377740301309
 30
0
 40
0.2501752269053033
 50
99.94437456364467
 51
188.6976964085544
  0
ARC
  8
1
 62
2
 10
-481.0840599472299
 20
454.63793140607
 30
0
 40
0.2500000000000666
 50
10.22382313928245
 51
99.92415765418382
  0
ARC
  8
1
 62
2
 10
-456.4156947719021
 20
462.093138379048
 30
0
 40
24.15000000000229
 50
194.7084322996563
 51
218.5315226280557
  0
ARC
  8
1
 62
2
 10
-456.4156947719021
 20
462.093138379048
 30
0
 40
23.65000000000143
 50
194.723823139239
 51
218.5168318047629
  0
ARC
  8
1
 62
2
 10
-479.5307412251668
 20
456.0185641692651
 30
0
 40
0.2501752269046304
 50
104.4443745636977
 51
193.197696408928
  0
ARC
  8
1
 62
2
 10
-479.5308703621608
 20
456.0187118685399
 30
0
 40
0.2499999999996919
 50
14.72382313910086
 51
104.4241576543976
  0
ARC
  8
1
 62
2
 10
-455.5234783215838
 20
465.386394551208
 30
0
 40
24.1499999999993
 50
199.2084322996555
 51
223.0315226280588
  0
ARC
  8
1
 62
2
 10
-455.5234783215838
 20
465.386394551208
 30
0
 40
23.64999999999917
 50
199.2238231392383
 51
223.016831804767
  0
ARC
  8
1
 62
2
 10
-478.0906632014567
 20
457.5169605839978
 30
0
 40
0.2501752269056377
 50
108.9443745635098
 51
197.6976964088812
  0
ARC
  8
1
 62
2
 10
-478.0908035287171
 20
457.517097695993
 30
0
 40
0.2500000000010624
 50
19.22382313909202
 51
108.9241576539433
  0
ARC
  8
1
 62
2
 10
-454.8923981780849
 20
468.7395012095471
 30
0
 40
24.15000000000056
 50
203.7084322996541
 51
227.5315226280592
  0
ARC
  8
1
 62
2
 10
-454.8923981780849
 20
468.7395012095471
 30
0
 40
23.65000000000144
 50
203.7238231392412
 51
227.5168318047701
  0
ARC
  8
1
 62
2
 10
-476.7725872854339
 20
459.1237251621669
 30
0
 40
0.250175226904111
 50
113.444374563606
 51
202.1976964083805
  0
ARC
  8
1
 62
2
 10
-476.7727379377948
 20
459.123850841544
 30
0
 40
0.2499999999989593
 50
23.72382313874845
 51
113.4241576543682
  0
ARC
  8
1
 62
2
 10
-454.5263451603501
 20
472.1317853364881
 30
0
 40
24.14999999999864
 50
208.2084322996512
 51
232.0315226280582
  0
ARC
  8
1
 62
2
 10
-454.5263451603501
 20
472.1317853364881
 30
0
 40
23.64999999999816
 50
208.2238231392347
 51
232.0168318047684
  0
ARC
  8
1
 62
2
 10
-475.584639853425
 20
460.8289516658451
 30
0
 40
0.2501752269032337
 50
117.9443745637853
 51
206.697696408578
  0
ARC
  8
1
 62
2
 10
-475.5847999020648
 20
460.8290651377452
 30
0
 40
0.2500000000000997
 50
28.22382313923042
 51
117.9241576544853
  0
ARC
  8
1
 62
2
 10
-454.4275761069539
 20
475.5423323723471
 30
0
 40
24.15000000000167
 50
212.7084322996547
 51
236.5315226280585
  0
ARC
  8
1
 62
2
 10
-454.4275761069539
 20
475.5423323723471
 30
0
 40
23.65000000000036
 50
212.723823139239
 51
236.5168318047668
  0
ARC
  8
1
 62
2
 10
-474.5341449963817
 20
462.6221268065901
 30
0
 40
0.2501752269042997
 50
122.4443745636432
 51
211.1976964088836
  0
ARC
  8
1
 62
2
 10
-474.5343134545469
 20
462.6222273714211
 30
0
 40
0.250000000000592
 50
32.72382313923308
 51
122.4241576542927
  0
ARC
  8
1
 62
2
 10
-454.5966999619609
 20
478.9501151605191
 30
0
 40
24.14999999999818
 50
217.2084322996547
 51
241.0315226280575
  0
ARC
  8
1
 62
2
 10
-454.5966999619609
 20
478.9501151605191
 30
0
 40
23.65000000000024
 50
217.2238231392379
 51
241.0168318047651
  0
ARC
  8
1
 62
2
 10
-473.6275793644218
 20
464.492195063367
 30
0
 40
0.2501752269036477
 50
126.9443745636805
 51
215.6976964087095
  0
ARC
  8
1
 62
2
 10
-473.6277551935141
 20
464.492282101116
 30
0
 40
0.2499999999996815
 50
37.22382313907033
 51
126.9241576541837
  0
ARC
  8
1
 62
2
 10
-455.0326740205601
 20
482.334123586917
 30
0
 40
24.1499999999989
 50
221.7084322996532
 51
245.5315226280557
  0
ARC
  8
1
 62
2
 10
-455.0326740205601
 20
482.334123586917
 30
0
 40
23.6499999999996
 50
221.7238231392396
 51
245.5168318047661
  0
ARC
  8
1
 62
2
 10
-472.8705322361307
 20
466.4276268435151
 30
0
 40
0.2501752269041895
 50
131.4443745634161
 51
220.1976964087184
  0
ARC
  8
1
 62
2
 10
-472.8707143521028
 20
466.4276998175651
 30
0
 40
0.2499999999993058
 50
41.72382313873012
 51
131.4241576541924
  0
ARC
  8
1
 62
2
 10
-455.732810357707
 20
485.673494114294
 30
0
 40
24.14999999999919
 50
226.2084322996563
 51
250.0315226280557
  0
ARC
  8
1
 62
2
 10
-455.732810357707
 20
485.673494114294
 30
0
 40
23.65000000000083
 50
226.2238231392371
 51
250.0168318047655
  0
ARC
  8
1
 62
2
 10
-472.267671058798
 20
468.4164895665122
 30
0
 40
0.2501752269032154
 50
135.9443745639531
 51
224.6976964090527
  0
ARC
  8
1
 62
2
 10
-472.2678583388461
 20
468.4165480269521
 30
0
 40
0.2499999999990759
 50
46.22382313895144
 51
135.9241576544426
  0
ARC
  8
1
 62
2
 10
-456.6927924000629
 20
488.9476384128939
 30
0
 40
24.14999999999967
 50
230.7084322996536
 51
254.5315226280579
  0
ARC
  8
1
 62
2
 10
-456.6927924000629
 20
488.9476384128939
 30
0
 40
23.6500000000001
 50
230.7238231392377
 51
254.5168318047651
  0
ARC
  8
1
 62
2
 10
-471.8227126720517
 20
470.4465212323048
 30
0
 40
0.2501752269054523
 50
140.4443745639518
 51
229.1976964085035
  0
ARC
  8
1
 62
2
 10
-471.8229039615317
 20
470.4465648187079
 30
0
 40
0.249999999999498
 50
50.72382313903381
 51
140.4241576544381
  0
ARC
  8
1
 62
2
 10
-457.9067015391097
 20
492.136370294354
 30
0
 40
24.15000000000018
 50
235.2084322996535
 51
259.0315226280548
  0
ARC
  8
1
 62
2
 10
-457.9067015391097
 20
492.136370294354
 30
0
 40
23.64999999999952
 50
235.2238231392344
 51
259.0168318047616
  0
ARC
  8
1
 62
2
 10
-471.5384003923127
 20
472.5052060206231
 30
0
 40
0.2501752269042202
 50
144.9443745640766
 51
233.6976964088062
  0
ARC
  8
1
 62
2
 10
-471.538594511861
 20
472.5052344642641
 30
0
 40
0.2500000000001595
 50
55.22382313904001
 51
144.9241576545249
  0
ARC
  8
1
 62
2
 10
-459.3670536213408
 20
495.2200301662629
 30
0
 40
24.14999999999966
 50
239.7084322996485
 51
263.5315226280551
  0
ARC
  8
1
 62
2
 10
-459.3670536213408
 20
495.2200301662629
 30
0
 40
23.65000000000073
 50
239.7238231392321
 51
263.5168318047593
  0
ARC
  8
1
 62
2
 10
-471.4164870993277
 20
474.579851455162
 30
0
 40
0.2501752269050276
 50
149.444374563843
 51
238.1976964084792
  0
ARC
  8
1
 62
2
 10
-471.4166828521329
 20
474.5798645806758
 30
0
 40
0.2499999999995679
 50
59.72382313909952
 51
149.4241576541102
  0
ARC
  8
1
 62
2
 10
-461.0648450905537
 20
498.1796062400908
 30
0
 40
24.14999999999959
 50
244.208432299649
 51
268.0315226280534
  0
ARC
  8
1
 62
2
 10
-461.0648450905537
 20
498.1796062400908
 30
0
 40
23.6499999999986
 50
244.2238231392347
 51
268.0168318047606
  0
ARC
  8
1
 62
2
 10
-471.4577244290899
 20
476.6576666569281
 30
0
 40
0.2501752269034898
 50
153.9443745635156
 51
242.6976964086022
  0
ARC
  8
1
 62
2
 10
-471.457920608269
 20
476.6576643833942
 30
0
 40
0.2500000000005704
 50
64.22382313889084
 51
153.9241576543411
  0
ARC
  8
1
 62
2
 10
-462.9896084977677
 20
500.996851745183
 30
0
 40
24.14999999999935
 50
248.7084322996547
 51
272.5315226280613
  0
ARC
  8
1
 62
2
 10
-462.9896084977677
 20
500.996851745183
 30
0
 40
23.65000000000046
 50
248.7238231392382
 51
272.5168318047684
  0
ARC
  8
1
 62
2
 10
-471.6618581397438
 20
478.7258412042611
 30
0
 40
0.2501752269049613
 50
158.4443745638353
 51
247.1976964084934
  0
ARC
  8
1
 62
2
 10
-471.6620535357897
 20
478.725823545693
 30
0
 40
0.2499999999993628
 50
68.72382313912529
 51
158.4241576541846
  0
ARC
  8
1
 62
2
 10
-465.1294770365257
 20
503.6543974261708
 30
0
 40
24.14999999999983
 50
253.2084322996539
 51
277.0315226280602
  0
ARC
  8
1
 62
2
 10
-465.1294770365257
 20
503.6543974261708
 30
0
 40
23.6499999999992
 50
253.2238231392357
 51
277.0168318047652
  0
ARC
  8
1
 62
2
 10
-472.0276296790867
 20
480.7716241133371
 30
0
 40
0.2501752269039848
 50
162.944374563902
 51
251.6976964084441
  0
ARC
  8
1
 62
2
 10
-472.0278230873159
 20
480.7715911786081
 30
0
 40
0.249999999999701
 50
73.22382313942225
 51
162.9241576544439
  0
ARC
  8
1
 62
2
 10
-467.4712577057098
 20
506.1358586302081
 30
0
 40
24.14999999999917
 50
257.7084322996544
 51
281.5315226280575
  0
ARC
  8
1
 62
2
 10
-467.4712577057098
 20
506.1358586302081
 30
0
 40
23.64999999999932
 50
257.7238231392364
 51
281.5168318047673
  0
ARC
  8
1
 62
2
 10
-472.5527839439469
 20
482.7824024522301
 30
0
 40
0.2501752269032187
 50
167.4443745638399
 51
256.1976964087627
  0
ARC
  8
1
 62
2
 10
-472.5529741719338
 20
482.7823544443932
 30
0
 40
0.2499999999999444
 50
77.72382313912273
 51
167.4241576544176
  0
ARC
  8
1
 62
2
 10
-470.0005126487718
 20
508.425936323802
 30
0
 40
24.15000000000131
 50
262.208432299652
 51
286.0315226280541
  0
ARC
  8
1
 62
2
 10
-470.0005126487718
 20
508.425936323802
 30
0
 40
23.65000000000084
 50
262.2238231392336
 51
286.0168318047641
  0
ARC
  8
1
 62
2
 10
-473.2340831836468
 20
484.7457791038291
 30
0
 40
0.2501752269045948
 50
171.9443745639513
 51
260.697696408701
  0
ARC
  8
1
 62
2
 10
-473.234269058572
 20
484.7457163188669
 30
0
 40
0.2500000000002054
 50
82.22382313946505
 51
171.9241576541969
  0
ARC
  8
1
 62
2
 10
-472.7016481679279
 20
510.510511416443
 30
0
 40
24.14999999999987
 50
266.708432299655
 51
290.5315226280582
  0
ARC
  8
1
 62
2
 10
-472.7016481679279
 20
510.510511416443
 30
0
 40
23.64999999999955
 50
266.7238231392365
 51
290.5168318047665
  0
ARC
  8
1
 62
2
 10
-474.0673269618219
 20
486.649649198187
 30
0
 40
0.2501752269037893
 50
176.4443745637756
 51
265.197696409121
  0
ARC
  8
1
 62
2
 10
-474.0675073377038
 20
486.6495720231928
 30
0
 40
0.2500000000009167
 50
86.72382313939082
 51
176.4241576543675
  0
ARC
  8
1
 62
2
 10
-475.5580108644817
 20
512.3767318094929
 30
0
 40
24.14999999999949
 50
271.2084322996532
 51
295.0315226280554
  0
ARC
  8
1
 62
2
 10
-475.5580108644817
 20
512.3767318094929
 30
0
 40
23.64999999999981
 50
271.2238231392342
 51
295.0168318047624
  0
ARC
  8
1
 62
2
 10
-475.047378053494
 20
488.4822747430731
 30
0
 40
0.2501752269049252
 50
180.9443745638297
 51
269.697696408656
  0
ARC
  8
1
 62
2
 10
-475.0475518182589
 20
488.482183653854
 30
0
 40
0.2500000000005013
 50
91.2238231394645
 51
180.9241576541855
  0
ARC
  8
1
 62
2
 10
-478.5519903125728
 20
514.0130916336489
 30
0
 40
24.14999999999795
 50
275.7084322996542
 51
299.5315226280572
  0
ARC
  8
1
 62
2
 10
-478.5519903125728
 20
514.0130916336489
 30
0
 40
23.64999999999984
 50
275.7238231392358
 51
299.5168318047661
  0
ARC
  8
1
 62
2
 10
-476.1681941177881
 20
490.232356992592
 30
0
 40
0.2501752269046104
 50
185.4443745637374
 51
274.1976964089532
  0
ARC
  8
1
 62
2
 10
-476.1683602001167
 20
490.2322525507461
 30
0
 40
0.2499999999985236
 50
95.72382313909674
 51
185.4241576545332
  0
ARC
  8
1
 62
2
 10
-481.665127633305
 20
515.40950218645
 30
0
 40
24.14999999999957
 50
280.2084322996569
 51
304.0315226280593
  0
ARC
  8
1
 62
2
 10
-481.665127633305
 20
515.40950218645
 30
0
 40
23.64999999999834
 50
280.2238231392367
 51
304.0168318047648
  0
ARC
  8
1
 62
2
 10
-477.4228649509551
 20
491.8891061077161
 30
0
 40
0.250175226904037
 50
189.9443745640259
 51
278.6976964089884
  0
ARC
  8
1
 62
2
 10
-477.4230223268928
 20
491.8889889571578
 30
0
 40
0.2500000000017072
 50
100.2238231395323
 51
189.9241576541905
  0
ARC
  8
1
 62
2
 10
-484.8782292998699
 20
516.5573541324861
 30
0
 40
24.15000000000083
 50
284.7084322996516
 51
308.531522628055
  0
ARC
  8
1
 62
2
 10
-484.8782292998699
 20
516.5573541324861
 30
0
 40
23.65000000000005
 50
284.7238231392344
 51
308.516831804762
  0
ARC
  8
1
 62
2
 10
-478.8036550900888
 20
493.4423076792218
 30
0
 40
0.2501752269032992
 50
194.4443745634536
 51
283.1976964088534
  0
ARC
  8
1
 62
2
 10
-478.803802789364
 20
493.4421785422269
 30
0
 40
0.2500000000010664
 50
104.7238231390181
 51
194.4241576539614
  0
ARC
  8
1
 62
2
 10
-488.1714854720308
 20
517.4495705828049
 30
0
 40
24.14999999999849
 50
289.2084322996528
 51
313.0315226280564
  0
ARC
  8
1
 62
2
 10
-488.1714854720308
 20
517.4495705828049
 30
0
 40
23.64999999999911
 50
289.2238231392408
 51
313.0168318047632
  0
ARC
  8
1
 62
2
 10
-480.3020515048211
 20
494.882385702932
 30
0
 40
0.2501752269053432
 50
198.9443745637945
 51
287.6976964087438
  0
ARC
  8
1
 62
2
 10
-480.3021886168158
 20
494.882245375672
 30
0
 40
0.2500000000006906
 50
109.2238231388872
 51
198.9241576542721
  0
ARC
  8
1
 62
2
 10
-491.5245921303699
 20
518.0806507263042
 30
0
 40
24.15000000000004
 50
293.708432299657
 51
317.5315226280579
  0
ARC
  8
1
 62
2
 10
-491.5245921303699
 20
518.0806507263042
 30
0
 40
23.65000000000082
 50
293.7238231392381
 51
317.5168318047641
  0
ARC
  8
1
 62
2
 10
-481.908816082992
 20
496.2004616189561
 30
0
 40
0.2501752269031465
 50
203.4443745639146
 51
292.1976964090555
  0
ARC
  8
1
 62
2
 10
-481.9089417623659
 20
496.2003109665939
 30
0
 40
0.2500000000002841
 50
113.7238231392127
 51
203.4241576541068
  0
ARC
  8
1
 62
2
 10
-494.9168762573117
 20
518.446703744039
 30
0
 40
24.14999999999904
 50
298.2084322996529
 51
322.031522628059
  0
ARC
  8
1
 62
2
 10
-494.9168762573117
 20
518.446703744039
 30
0
 40
23.64999999999856
 50
298.2238231392362
 51
322.0168318047641
  0
ARC
  8
1
 62
2
 10
-483.6140425866679
 20
497.3884090509641
 30
0
 40
0.2501752269044655
 50
207.9443745636503
 51
296.6976964085896
  0
ARC
  8
1
 62
2
 10
-483.6141560585679
 20
497.3882490023229
 30
0
 40
0.2500000000014056
 50
118.2238231390993
 51
207.924157654045
  0
ARC
  8
1
 62
2
 10
-498.3274232931699
 20
518.5454727974329
 30
0
 40
24.14999999999899
 50
302.7084322996588
 51
326.5315226280587
  0
ARC
  8
1
 62
2
 10
-498.3274232931699
 20
518.5454727974329
 30
0
 40
23.64999999999919
 50
302.7238231392407
 51
326.5168318047649
  0
ARC
  8
1
 62
2
 10
-485.4072177274129
 20
498.438903908007
 30
0
 40
0.2501752269039902
 50
212.4443745635803
 51
301.1976964090498
  0
ARC
  8
1
 62
2
 10
-485.4073182922448
 20
498.4387354498399
 30
0
 40
0.2500000000012788
 50
122.7238231388997
 51
212.4241576539716
  0
ARC
  8
1
 62
2
 10
-501.7352060813428
 20
518.3763489424291
 30
0
 40
24.1500000000013
 50
307.208432299652
 51
331.0315226280539
  0
ARC
  8
1
 62
2
 10
-501.7352060813428
 20
518.3763489424291
 30
0
 40
23.65000000000172
 50
307.2238231392353
 51
331.0168318047647
  0
ARC
  8
1
 62
2
 10
-487.2772859841907
 20
499.345469539966
 30
0
 40
0.2501752269040227
 50
216.9443745636648
 51
305.6976964087525
  0
ARC
  8
1
 62
2
 10
-487.2773730219387
 20
499.345293710875
 30
0
 40
0.2499999999995762
 50
127.2238231393832
 51
216.9241576542484
  0
ARC
  8
1
 62
2
 10
-505.1192145077398
 20
517.9403748838281
 30
0
 40
24.14999999999826
 50
311.7084322996547
 51
335.5315226280598
  0
ARC
  8
1
 62
2
 10
-505.1192145077398
 20
517.9403748838281
 30
0
 40
23.64999999999967
 50
311.7238231392352
 51
335.5168318047672
  0
ARC
  8
1
 62
2
 10
-489.2127177643388
 20
500.102516668258
 30
0
 40
0.2501752269041048
 50
221.4443745637285
 51
310.1976964089363
  0
ARC
  8
1
 62
2
 10
-489.212790738387
 20
500.1023345522849
 30
0
 40
0.2500000000001874
 50
131.7238231392307
 51
221.4241576540718
  0
ARC
  8
1
 62
2
 10
-508.4585850351159
 20
517.240238546683
 30
0
 40
24.14999999999917
 50
316.2084322996532
 51
340.0315226280557
  0
ARC
  8
1
 62
2
 10
-508.4585850351159
 20
517.240238546683
 30
0
 40
23.6500000000006
 50
316.2238231392333
 51
340.0168318047647
  0
ARC
  8
1
 62
2
 10
-491.2015804873349
 20
500.7053778455911
 30
0
 40
0.2501752269032733
 50
225.9443745636399
 51
314.6976964090434
  0
ARC
  8
1
 62
2
 10
-491.201638947774
 20
500.705190565543
 30
0
 40
0.2500000000000199
 50
136.2238231391588
 51
225.9241576539888
  0
ARC
  8
1
 62
2
 10
-511.7327293337157
 20
516.2802565043271
 30
0
 40
24.15000000000052
 50
320.708432299651
 51
344.5315226280534
  0
ARC
  8
1
 62
2
 10
-511.7327293337157
 20
516.2802565043271
 30
0
 40
23.64999999999993
 50
320.7238231392347
 51
344.5168318047636
  0
ARC
  8
1
 62
2
 10
-493.231612153128
 20
501.150336232336
 30
0
 40
0.250175226904067
 50
230.4443745638248
 51
319.1976964088653
  0
ARC
  8
1
 62
2
 10
-493.2316557395297
 20
501.150144942857
 30
0
 40
0.2500000000004539
 50
140.7238231390952
 51
230.4241576542177
  0
ARC
  8
1
 62
2
 10
-514.9214612151759
 20
515.066347365278
 30
0
 40
24.15000000000021
 50
325.2084322996539
 51
349.0315226280577
  0
ARC
  8
1
 62
2
 10
-514.9214612151759
 20
515.066347365278
 30
0
 40
23.6499999999996
 50
325.2238231392343
 51
349.016831804766
  0
ARC
  8
1
 62
2
 10
-495.2902969414449
 20
501.434648512075
 30
0
 40
0.2501752269042856
 50
234.9443745640552
 51
323.6976964088271
  0
ARC
  8
1
 62
2
 10
-495.2903253850859
 20
501.4344543925281
 30
0
 40
0.2499999999993956
 50
145.223823139315
 51
234.9241576546833
  0
ARC
  8
1
 62
2
 10
-518.0051210870838
 20
513.605995283046
 30
0
 40
24.1499999999976
 50
329.7084322996521
 51
353.5315226280571
  0
ARC
  8
1
 62
2
 10
-518.0051210870838
 20
513.605995283046
 30
0
 40
23.64999999999903
 50
329.7238231392386
 51
353.5168318047669
  0
ARC
  8
1
 62
2
 10
-497.364942375983
 20
501.55656180506
 30
0
 40
0.2501752269030696
 50
239.4443745635783
 51
328.197696408646
  0
ARC
  8
1
 62
2
 10
-497.3649555014977
 20
501.5563660522571
 30
0
 40
0.2499999999987825
 50
149.7238231389944
 51
239.4241576542897
  0
ARC
  8
1
 62
2
 10
-520.9646971609127
 20
511.908203813834
 30
0
 40
24.15000000000184
 50
334.2084322996553
 51
358.0315226280567
  0
ARC
  8
1
 62
2
 10
-520.9646971609127
 20
511.908203813834
 30
0
 40
23.64999999999954
 50
334.2238231392357
 51
358.0168318047629
  0
ARC
  8
1
 62
2
 10
-499.4427575777499
 20
501.5153244753001
 30
0
 40
0.2501752269055324
 50
243.9443745637443
 51
332.697696408751
  0
ARC
  8
1
 62
2
 10
-499.4427553042128
 20
501.515128296121
 30
0
 40
0.2500000000016044
 50
154.2238231395984
 51
243.9241576539148
  0
ARC
  8
1
 62
2
 10
-523.7819426660039
 20
509.983440406621
 30
0
 40
24.14999999999935
 50
338.7084322996547
 51
2.531522628056832
  0
ARC
  8
1
 62
2
 10
-523.7819426660039
 20
509.983440406621
 30
0
 40
23.65000000000076
 50
338.7238231392359
 51
2.51683180476401
  0
ARC
  8
1
 62
2
 10
-501.510932125082
 20
501.311190764643
 30
0
 40
0.2501752269040306
 50
248.4443745637371
 51
337.1976964088844
  0
ARC
  8
1
 62
2
 10
-501.5109144665139
 20
501.3109953685989
 30
0
 40
0.2499999999991387
 50
158.723823139329
 51
248.4241576542396
  0
ARC
  8
1
 62
2
 10
-526.4394883469909
 20
507.8435718678629
 30
0
 40
24.14999999999851
 50
343.2084322996562
 51
7.031522628058281
  0
ARC
  8
1
 62
2
 10
-526.4394883469909
 20
507.8435718678629
 30
0
 40
23.6499999999995
 50
343.223823139237
 51
7.016831804768716
  0
ARC
  8
1
 62
2
 10
-503.5567150341581
 20
500.9454192253011
 30
0
 40
0.2501752269049296
 50
252.9443745639956
 51
341.6976964089137
  0
ARC
  8
1
 62
2
 10
-503.5566820994277
 20
500.9452258170732
 30
0
 40
0.249999999999701
 50
163.2238231394222
 51
252.9241576543105
  0
ARC
  8
1
 62
2
 10
-528.920949551029
 20
505.5017911986788
 30
0
 40
24.15000000000048
 50
347.7084322996553
 51
11.53152262806037
  0
ARC
  8
1
 62
2
 10
-528.920949551029
 20
505.5017911986788
 30
0
 40
23.65000000000119
 50
347.7238231392409
 51
11.51683180476517
  0
ARC
  8
1
 62
2
 10
-505.5674933730497
 20
500.4202649604431
 30
0
 40
0.2501752269056112
 50
257.4443745636552
 51
346.1976964084719
  0
ARC
  8
1
 62
2
 10
-505.5674453652127
 20
500.4200747324571
 30
0
 40
0.249999999999029
 50
167.7238231392904
 51
257.4241576542529
  0
ARC
  8
1
 62
2
 10
-531.211027244623
 20
502.972536255616
 30
0
 40
24.15000000000011
 50
352.2084322996569
 51
16.03152262805974
  0
ARC
  8
1
 62
2
 10
-531.211027244623
 20
502.972536255616
 30
0
 40
23.65000000000054
 50
352.223823139241
 51
16.01683180476657
  0
ARC
  8
1
 62
2
 10
-507.5308700246487
 20
499.7389657207418
 30
0
 40
0.2501752269038132
 50
261.9443745636366
 51
350.6976964089251
  0
ARC
  8
1
 62
2
 10
-507.530807239687
 20
499.7387798458171
 30
0
 40
0.2500000000012324
 50
172.2238231390896
 51
261.9241576539999
  0
ARC
  8
1
 62
2
 10
-533.2956023372631
 20
500.2714007364621
 30
0
 40
24.1500000000004
 50
356.7084322996496
 51
20.53152262805259
  0
ARC
  8
1
 62
2
 10
-533.2956023372631
 20
500.2714007364621
 30
0
 40
23.65000000000103
 50
356.7238231392367
 51
20.51683180476015
  0
ARC
  8
1
 62
2
 10
-509.434740119008
 20
498.905721942569
 30
0
 40
0.2501752269037857
 50
266.4443745637886
 51
355.1976964084207
  0
ARC
  8
1
 62
2
 10
-509.4346629440129
 20
498.905541566684
 30
0
 40
0.2499999999994544
 50
176.7238231388627
 51
266.4241576541407
  0
ARC
  8
1
 62
2
 10
-535.1618227303129
 20
497.4150380399069
 30
0
 40
24.15000000000121
 50
1.208432299654321
 51
25.03152262806128
  0
ARC
  8
1
 62
2
 10
-535.1618227303129
 20
497.4150380399069
 30
0
 40
23.65000000000081
 50
1.223823139237576
 51
25.0168318047637
  0
ARC
  8
1
 62
2
 10
-511.2673656638917
 20
497.925670850896
 30
0
 40
0.2501752269049009
 50
270.9443745634913
 51
359.6976964084481
  0
ARC
  8
1
 62
2
 10
-511.267274574675
 20
497.9254970861311
 30
0
 40
0.249999999998569
 50
181.223823139474
 51
270.9241576543939
  0
ARC
  8
1
 62
2
 10
-536.7981825544689
 20
494.4210585918158
 30
0
 40
24.14999999999931
 50
5.708432299653909
 51
29.53152262805876
  0
ARC
  8
1
 62
2
 10
-536.7981825544689
 20
494.4210585918158
 30
0
 40
23.64999999999994
 50
5.72382313923704
 51
29.51683180476471
  0
ARC
  8
1
 62
2
 10
-513.0174479134107
 20
496.804854786601
 30
0
 40
0.250175226902619
 50
275.44437456348
 51
4.197696408822355
  0
ARC
  8
1
 62
2
 10
-513.0173434715648
 20
496.8046887042729
 30
0
 40
0.2499999999998755
 50
185.7238231391835
 51
275.4241576542527
  0
ARC
  8
1
 62
2
 10
-538.1945931072701
 20
491.307921271085
 30
0
 40
24.15000000000092
 50
10.20843229965633
 51
34.03152262805825
  0
ARC
  8
1
 62
2
 10
-538.1945931072701
 20
491.307921271085
 30
0
 40
23.64999999999963
 50
10.22382313923616
 51
34.01683180476636
  0
ARC
  8
1
 62
2
 10
-514.6741970285348
 20
495.550183953435
 30
0
 40
0.2501752269039134
 50
279.9443745637137
 51
8.697696408962692
  0
ARC
  8
1
 62
2
 10
-514.674079877977
 20
495.5500265774958
 30
0
 40
0.2500000000010175
 50
190.2238231392431
 51
279.924157654052
  0
ARC
  8
1
 62
2
 10
-539.3424450533039
 20
488.0948196045201
 30
0
 40
24.15000000000083
 50
14.70843229965162
 51
38.53152262805632
  0
ARC
  8
1
 62
2
 10
-539.3424450533039
 20
488.0948196045201
 30
0
 40
23.6500000000001
 50
14.72382313923436
 51
38.5168318047644
  0
ARC
  8
1
 62
2
 10
-516.22739860004
 20
494.1693938143021
 30
0
 40
0.2501752269032
 50
284.4443745633653
 51
13.19769640862681
  0
ARC
  8
1
 62
2
 10
-516.2272694630469
 20
494.169246115026
 30
0
 40
0.2499999999988123
 50
194.7238231391538
 51
284.4241576543287
  0
ARC
  8
1
 62
2
 10
-540.234661503624
 20
484.8015634323579
 30
0
 40
24.14999999999935
 50
19.20843229965541
 51
43.03152262805883
  0
ARC
  8
1
 62
2
 10
-540.234661503624
 20
484.8015634323579
 30
0
 40
23.64999999999979
 50
19.22382313923551
 51
43.01683180476553
  0
ARC
  8
1
 62
2
 10
-517.6674766237488
 20
492.670997399568
 30
0
 40
0.2501752269026599
 50
288.9443745632071
 51
17.69769640906039
  0
ARC
  8
1
 62
2
 10
-517.6673362964898
 20
492.6708602875719
 30
0
 40
0.2500000000009713
 50
199.2238231390717
 51
288.9241576540035
  0
ARC
  8
1
 62
2
 10
-540.8657416471219
 20
481.4484567740201
 30
0
 40
24.15000000000092
 50
23.70843229965636
 51
47.53152262805951
  0
ARC
  8
1
 62
2
 10
-540.8657416471219
 20
481.4484567740201
 30
0
 40
23.65000000000004
 50
23.7238231392389
 51
47.51683180476665
  0
ARC
  8
1
 62
2
 10
-518.9855525397729
 20
491.064232821398
 30
0
 40
0.2501752269032539
 50
293.4443745636768
 51
22.19769640908453
  0
ARC
  8
1
 62
2
 10
-518.9854018874121
 20
491.0641071420241
 30
0
 40
0.2500000000007004
 50
203.7238231391708
 51
293.4241576541559
  0
ARC
  8
1
 62
2
 10
-541.2317946648568
 20
478.0561726470778
 30
0
 40
24.14999999999971
 50
28.20843229965595
 51
52.03152262805972
  0
ARC
  8
1
 62
2
 10
-541.2317946648568
 20
478.0561726470778
 30
0
 40
23.64999999999965
 50
28.22382313923619
 51
52.01683180477033
  0
ARC
  8
1
 62
2
 10
-520.1734999717819
 20
489.359006317723
 30
0
 40
0.2501752269052424
 50
297.9443745635413
 51
26.6976964085896
  0
ARC
  8
1
 62
2
 10
-520.1733399231421
 20
489.3588928458221
 30
0
 40
0.249999999999302
 50
208.2238231393581
 51
297.9241576543213
  0
ARC
  8
1
 62
2
 10
-541.3305637182507
 20
474.645625611221
 30
0
 40
24.1499999999991
 50
32.70843229965496
 51
56.53152262806015
  0
ARC
  8
1
 62
2
 10
-541.3305637182507
 20
474.645625611221
 30
0
 40
23.6499999999992
 50
32.723823139241
 51
56.51683180476552
  0
ARC
  8
1
 62
2
 10
-521.2239948288261
 20
487.5658311769771
 30
0
 40
0.2501752269044731
 50
302.4443745641425
 51
31.19769640869539
  0
ARC
  8
1
 62
2
 10
-521.223826370659
 20
487.5657306121461
 30
0
 40
0.2500000000001174
 50
212.7238231390397
 51
302.4241576544225
  0
ARC
  8
1
 62
2
 10
-541.161439863246
 20
471.2378428230491
 30
0
 40
24.14999999999832
 50
37.20843229965157
 51
61.03152262805761
  0
ARC
  8
1
 62
2
 10
-541.161439863246
 20
471.2378428230491
 30
0
 40
23.64999999999972
 50
37.2238231392362
 51
61.01683180476051
  0
ARC
  8
1
 62
2
 10
-522.1305604607828
 20
485.6957629201988
 30
0
 40
0.2501752269029989
 50
306.9443745635479
 51
35.69769640915907
  0
ARC
  8
1
 62
2
 10
-522.1303846316928
 20
485.6956758824508
 30
0
 40
0.249999999999372
 50
217.223823138977
 51
306.9241576543084
  0
ARC
  8
1
 62
2
 10
-540.7254658046468
 20
467.8538343966511
 30
0
 40
24.1499999999989
 50
41.70843229965339
 51
65.53152262805405
  0
ARC
  8
1
 62
2
 10
-540.7254658046468
 20
467.8538343966511
 30
0
 40
23.64999999999971
 50
41.72382313923511
 51
65.51683180476435
  0
ARC
  8
1
 62
2
 10
-522.8876075890771
 20
483.760331140053
 30
0
 40
0.2501752269050449
 50
311.4443745636773
 51
40.19769640859386
  0
ARC
  8
1
 62
2
 10
-522.887425473104
 20
483.760258166003
 30
0
 40
0.2499999999992002
 50
221.7238231391532
 51
311.4241576542878
  0
ARC
  8
1
 62
2
 10
-540.0253294674999
 20
464.5144638692741
 30
0
 40
24.14999999999985
 50
46.20843229965776
 51
70.03152262805563
  0
ARC
  8
1
 62
2
 10
-540.0253294674999
 20
464.5144638692741
 30
0
 40
23.64999999999997
 50
46.2238231392349
 51
70.01683180476735
  0
ARC
  8
1
 62
2
 10
-523.4904687664089
 20
481.771468417056
 30
0
 40
0.2501752269032154
 50
315.9443745639531
 51
44.69769640919142
  0
ARC
  8
1
 62
2
 10
-523.4902814863617
 20
481.771409956616
 30
0
 40
0.2499999999993514
 50
226.2238231393186
 51
315.9241576546061
  0
ARC
  8
1
 62
2
 10
-539.0653474251431
 20
461.2403195706738
 30
0
 40
24.1500000000001
 50
50.70843229965707
 51
74.53152262806007
  0
ARC
  8
1
 62
2
 10
-539.0653474251431
 20
461.2403195706738
 30
0
 40
23.64999999999987
 50
50.72382313924012
 51
74.516831804768
  0
ARC
  8
1
 62
2
 10
-523.9354271531529
 20
479.7414367512629
 30
0
 40
0.2501752269028305
 50
320.4443745638611
 51
49.19769640908351
  0
ARC
  8
1
 62
2
 10
-523.9352358636738
 20
479.7413931648612
 30
0
 40
0.2500000000010296
 50
230.7238231389339
 51
320.4241576542372
  0
ARC
  8
1
 62
2
 10
-537.8514382860949
 20
458.0515876892141
 30
0
 40
24.15000000000042
 50
55.20843229965667
 51
79.03152262805793
  0
ARC
  8
1
 62
2
 10
-537.8514382860949
 20
458.0515876892141
 30
0
 40
23.64999999999975
 50
55.2238231392374
 51
79.01683180476545
  0
ARC
  8
1
 62
2
 10
-524.2197394328919
 20
477.682751962946
 30
0
 40
0.250175226902359
 50
324.9443745637775
 51
53.69769640897682
  0
ARC
  8
1
 62
2
 10
-524.219545313345
 20
477.682723519305
 30
0
 40
0.2499999999999934
 50
235.2238231391405
 51
324.9241576544052
  0
ARC
  8
1
 62
2
 10
-536.3910862038647
 20
454.9679278173048
 30
0
 40
24.15000000000048
 50
59.70843229965107
 51
83.53152262805905
  0
ARC
  8
1
 62
2
 10
-536.3910862038647
 20
454.9679278173048
 30
0
 40
23.65000000000198
 50
59.72382313923791
 51
83.51683180476302
  0
ARC
  8
1
 62
2
 10
-524.3416527258778
 20
475.608106528407
 30
0
 40
0.2501752269038528
 50
329.4443745636842
 51
58.19769640857879
  0
ARC
  8
1
 62
2
 10
-524.341456973074
 20
475.6080934028942
 30
0
 40
0.2499999999995965
 50
239.7238231390883
 51
329.4241576539083
  0
ARC
  8
1
 62
2
 10
-534.6932947346518
 20
452.0083517434791
 30
0
 40
24.14999999999816
 50
64.20843229965109
 51
88.03152262805675
  0
ARC
  8
1
 62
2
 10
-534.6932947346518
 20
452.0083517434791
 30
0
 40
23.64999999999806
 50
64.22382313923774
 51
88.01683180476054
  0
ARC
  8
1
 62
2
 10
-524.3004153961169
 20
473.530291326641
 30
0
 40
0.2501752269043068
 50
333.944374563607
 51
62.69769640860179
  0
ARC
  8
1
 62
2
 10
-524.3002192169388
 20
473.5302936001758
 30
0
 40
0.250000000000226
 50
244.2238231390842
 51
333.9241576543371
  0
ARC
  8
1
 62
2
 10
-532.7685313274387
 20
449.1911062383861
 30
0
 40
24.14999999999879
 50
68.7084322996577
 51
92.53152262805917
  0
ARC
  8
1
 62
2
 10
-532.7685313274387
 20
449.1911062383861
 30
0
 40
23.65000000000019
 50
68.72382313923907
 51
92.51683180476726
  0
ARC
  8
1
 62
2
 10
-524.0962816854617
 20
471.4621167793089
 30
0
 40
0.2501752269043967
 50
338.4443745635603
 51
67.1976964088927
  0
ARC
  8
1
 62
2
 10
-524.0960862894167
 20
471.4621344378761
 30
0
 40
0.2499999999996338
 50
248.7238231390377
 51
338.4241576541677
  0
ARC
  8
1
 62
2
 10
-530.6286627886821
 20
446.5335605574001
 30
0
 40
24.15000000000019
 50
73.20843229964957
 51
97.0315226280583
  0
ARC
  8
1
 62
2
 10
-530.6286627886821
 20
446.5335605574001
 30
0
 40
23.6499999999982
 50
73.22382313923511
 51
97.01683180476339
  0
ARC
  8
1
 62
2
 10
-523.7305101461197
 20
469.4163338702329
 30
0
 40
0.2501752269038711
 50
342.9443745636762
 51
71.69769640838597
  0
ARC
  8
1
 62
2
 10
-523.7303167378909
 20
469.4163668049619
 30
0
 40
0.2500000000001051
 50
253.2238231392053
 51
342.9241576542408
  0
ARC
  8
1
 62
2
 10
-528.2868821194988
 20
444.0520993533619
 30
0
 40
24.1499999999992
 50
77.70843229965463
 51
101.5315226280576
  0
ARC
  8
1
 62
2
 10
-528.2868821194988
 20
444.0520993533619
 30
0
 40
23.65000000000167
 50
77.72382313923551
 51
101.5168318047647
  0
ARC
  8
1
 62
2
 10
-523.20535588126
 20
467.4055555313398
 30
0
 40
0.2501752269022508
 50
347.4443745638172
 51
76.19769640918612
  0
ARC
  8
1
 62
2
 10
-523.2051656532749
 20
467.4056035391768
 30
0
 40
0.2499999999976404
 50
257.7238231392212
 51
347.4241576544601
  0
ARC
  8
1
 62
2
 10
-525.757627176436
 20
441.7620216597679
 30
0
 40
24.15000000000205
 50
82.20843229965409
 51
106.0315226280544
  0
ARC
  8
1
 62
2
 10
-525.757627176436
 20
441.7620216597679
 30
0
 40
23.65000000000078
 50
82.22382313923563
 51
106.0168318047632
  0
ARC
  8
1
 62
2
 10
-522.524056641561
 20
465.4421788797431
 30
0
 40
0.2501752269039407
 50
351.9443745634304
 51
80.69769640884104
  0
ARC
  8
1
 62
2
 10
-522.5238707666349
 20
465.442241664703
 30
0
 40
0.2500000000003875
 50
262.2238231390631
 51
351.9241576541642
  0
ARC
  8
1
 62
2
 10
-523.0564916572798
 20
439.6774465671278
 30
0
 40
24.15000000000143
 50
86.70843229965209
 51
110.5315226280551
  0
ARC
  8
1
 62
2
 10
-521.6908128633868
 20
463.538308785382
 30
0
 40
0.2501752269037293
 50
356.4443745639965
 51
85.19769640866537
  0
ARC
  8
1
 62
2
 10
-520.2001289607269
 20
437.8112261740771
 30
0
 40
24.15000000000029
 50
91.20843229965438
 51
115.0315226280555
  0
ARC
  8
1
 62
2
 10
-520.2001289607269
 20
437.8112261740771
 30
0
 40
23.65000000000081
 50
91.22382313923771
 51
115.0168318047647
  0
ARC
  8
1
 62
2
 10
-520.7107617717147
 20
461.7056832404978
 30
0
 40
0.2501752269058915
 50
0.9443745638260561
 51
89.69769640874692
  0
ARC
  8
1
 62
2
 10
-520.7105880069489
 20
461.705774329716
 30
0
 40
0.2499999999995434
 50
271.2238231389479
 51
0.9241576543937091
  0
ARC
  8
1
 62
2
 10
-517.206149512635
 20
436.1748663499211
 30
0
 40
24.15000000000115
 50
95.70843229965564
 51
119.5315226280565
  0
ARC
  8
1
 62
2
 10
-517.206149512635
 20
436.1748663499211
 30
0
 40
23.65000000000093
 50
95.72382313923887
 51
119.5168318047661
  0
ARC
  8
1
 62
2
 10
-519.5899457074211
 20
459.9556009909788
 30
0
 40
0.2501752269041684
 50
5.444374563773144
 51
94.19769640879723
  0
ARC
  8
1
 62
2
 10
-519.5897796250929
 20
459.955705432827
 30
0
 40
0.2500000000007748
 50
275.7238231391498
 51
5.424157654015675
  0
ARC
  8
1
 62
2
 10
-514.0930121919059
 20
434.7784557971199
 30
0
 40
24.15000000000168
 50
100.2084322996527
 51
124.0315226280545
  0
ARC
  8
1
 62
2
 10
-514.0930121919059
 20
434.7784557971199
 30
0
 40
23.65000000000148
 50
100.2238231392355
 51
124.0168318047646
  0
ARC
  8
1
 62
2
 10
-518.3352748742559
 20
458.2988518758571
 30
0
 40
0.2501752269068819
 50
9.944374563369818
 51
98.69769640869821
  0
ARC
  8
1
 62
2
 10
-518.335117498315
 20
458.298969026413
 30
0
 40
0.2499999999988386
 50
280.2238231388964
 51
9.92415765421398
  0
ARC
  8
1
 62
2
 10
-510.8799105253388
 20
433.630603851087
 30
0
 40
24.14999999999915
 50
104.7084322996582
 51
128.5315226280582
  0
ARC
  8
1
 62
2
 10
-510.8799105253388
 20
433.630603851087
 30
0
 40
23.64999999999955
 50
104.723823139238
 51
128.516831804767
  0
ARC
  8
1
 62
2
 10
-516.9544847351217
 20
456.7456503043491
 30
0
 40
0.2501752269039214
 50
14.44437456395465
 51
103.1976964089607
  0
ARC
  8
1
 62
2
 10
-516.954337035846
 20
456.745779441344
 30
0
 40
0.2499999999997064
 50
284.7238231391135
 51
14.42415765450139
  0
ARC
  8
1
 62
2
 10
-507.5866543531779
 20
432.738387400766
 30
0
 40
24.15000000000142
 50
109.208432299656
 51
133.0315226280604
  0
ARC
  8
1
 62
2
 10
-507.5866543531779
 20
432.738387400766
 30
0
 40
23.65000000000101
 50
109.2238231392369
 51
133.0168318047672
  0
ARC
  8
1
 62
2
 10
-515.456088320389
 20
455.3055722806389
 30
0
 40
0.2501752269049837
 50
18.94437456379519
 51
107.6976964087591
  0
ARC
  8
1
 62
2
 10
-515.4559512083929
 20
455.3057126078988
 30
0
 40
0.2499999999987358
 50
289.2238231392641
 51
18.92415765440311
  0
ARC
  8
1
 62
2
 10
-504.233547694841
 20
432.1073072572681
 30
0
 40
24.1500000000005
 50
113.7084322996544
 51
137.5315226280572
  0
ARC
  8
1
 62
2
 10
-504.233547694841
 20
432.1073072572681
 30
0
 40
23.65000000000211
 50
113.7238231392394
 51
137.5168318047667
  0
ARC
  8
1
 62
2
 10
-513.8493237422199
 20
453.9874963646171
 30
0
 40
0.2501752269032766
 50
23.44437456368882
 51
112.1976964086796
  0
ARC
  8
1
 62
2
 10
-513.8491980628437
 20
453.987647016977
 30
0
 40
0.2499999999972648
 50
293.7238231389333
 51
23.42415765457139
  0
ARC
  8
1
 62
2
 10
-500.8412635678997
 20
431.7412542395318
 30
0
 40
24.14999999999931
 50
118.2084322996539
 51
142.0315226280554
  0
ARC
  8
1
 62
2
 10
-500.8412635678997
 20
431.7412542395318
 30
0
 40
23.65000000000083
 50
118.2238231392345
 51
142.0168318047643
  0
ARC
  8
1
 62
2
 10
-512.144097238544
 20
452.7995489326081
 30
0
 40
0.2501752269052925
 50
27.94437456353515
 51
116.6976964087241
  0
ARC
  8
1
 62
2
 10
-512.1439837666439
 20
452.7997089812479
 30
0
 40
0.2499999999992519
 50
298.2238231393642
 51
27.92415765422906
  0
ARC
  8
1
 62
2
 10
-497.430716532042
 20
431.642485186137
 30
0
 40
24.150000000001
 50
122.7084322996518
 51
146.5315226280566
  0
ARC
  8
1
 62
2
 10
-497.430716532042
 20
431.642485186137
 30
0
 40
23.6500000000011
 50
122.7238231392377
 51
146.5168318047647
  0
ARC
  8
1
 62
2
 10
-510.350922097799
 20
451.7490540755639
 30
0
 40
0.2501752269048486
 50
32.444374563841
 51
121.197696408495
  0
ARC
  8
1
 62
2
 10
-510.3508215329671
 20
451.749222533731
 30
0
 40
0.2500000000001482
 50
302.7238231390506
 51
32.42415765423954
  0
ARC
  8
1
 62
2
 10
-494.02293374387
 20
431.811609041144
 30
0
 40
24.14999999999767
 50
127.2084322996531
 51
151.0315226280595
  0
ARC
  8
1
 62
2
 10
-494.02293374387
 20
431.811609041144
 30
0
 40
23.64999999999872
 50
127.223823139238
 51
151.0168318047644
  0
ARC
  8
1
 62
2
 10
-508.4808538410221
 20
450.842488443604
 30
0
 40
0.2501752269039999
 50
36.94437456363613
 51
125.6976964084293
  0
ARC
  8
1
 62
2
 10
-508.4807668032727
 20
450.8426642726959
 30
0
 40
0.2499999999999566
 50
307.2238231391533
 51
36.92415765425658
  0
ARC
  8
1
 62
2
 10
-490.6389253174707
 20
432.2475830997419
 30
0
 40
24.15000000000022
 50
131.7084322996522
 51
155.5315226280582
  0
ARC
  8
1
 62
2
 10
-490.6389253174707
 20
432.2475830997419
 30
0
 40
23.65000000000122
 50
131.7238231392394
 51
155.5168318047628
  0
ARC
  8
1
 62
2
 10
-506.545422060874
 20
450.0854413153129
 30
0
 40
0.2501752269048668
 50
41.44437456359173
 51
130.1976964084348
  0
ARC
  8
1
 62
2
 10
-506.5453490868249
 20
450.085623431286
 30
0
 40
0.2500000000002608
 50
311.7238231389364
 51
41.42415765405454
  0
ARC
  8
1
 62
2
 10
-487.299554790096
 20
432.9477194368901
 30
0
 40
24.14999999999982
 50
136.2084322996547
 51
160.0315226280578
  0
ARC
  8
1
 62
2
 10
-487.299554790096
 20
432.9477194368901
 30
0
 40
23.64999999999832
 50
136.2238231392389
 51
160.0168318047644
  0
ARC
  8
1
 62
2
 10
-504.5565593378788
 20
449.4825801379811
 30
0
 40
0.2501752269039678
 50
45.94437456379376
 51
134.6976964087396
  0
ARC
  8
1
 62
2
 10
-504.5565008774379
 20
449.4827674180269
 30
0
 40
0.2500000000000199
 50
316.2238231391588
 51
45.9241576548142
  0
ARC
  8
1
 62
2
 10
-484.025410491497
 20
433.907701479246
 30
0
 40
24.1499999999985
 50
140.7084322996536
 51
164.5315226280591
  0
ARC
  8
1
 62
2
 10
-484.025410491497
 20
433.907701479246
 30
0
 40
23.64999999999856
 50
140.7238231392388
 51
164.5168318047672
  0
ARC
  8
1
 62
2
 10
-502.5265276720847
 20
449.0376217512348
 30
0
 40
0.2501752269034249
 50
50.44437456373714
 51
139.1976964087082
  0
ARC
  8
1
 62
2
 10
-502.526484085683
 20
449.037813040713
 30
0
 40
0.2499999999998781
 50
320.7238231392565
 51
50.4241576542377
  0
ARC
  8
1
 62
2
 10
-480.836678610036
 20
435.1216106182919
 30
0
 40
24.15000000000015
 50
145.2084322996536
 51
169.0315226280578
  0
ARC
  8
1
 62
2
 10
-480.836678610036
 20
435.1216106182919
 30
0
 40
23.65000000000102
 50
145.2238231392369
 51
169.0168318047638
  0
ARC
  8
1
 62
2
 10
-500.4678428837688
 20
448.753309471495
 30
0
 40
0.2501752269055524
 50
54.94437456400438
 51
143.6976964085651
  0
ARC
  8
1
 62
2
 10
-500.4678144401278
 20
448.7535035910441
 30
0
 40
0.2500000000007391
 50
325.2238231388944
 51
54.92415765434797
  0
ARC
  8
1
 62
2
 10
-477.7530187381267
 20
436.581962700523
 30
0
 40
24.15000000000086
 50
149.7084322996541
 51
173.5315226280557
  0
ARC
  8
1
 62
2
 10
-477.7530187381267
 20
436.581962700523
 30
0
 40
23.65000000000192
 50
149.7238231392378
 51
173.5168318047599
  0
ARC
  8
1
 62
2
 10
-498.3931974492307
 20
448.6313961785099
 30
0
 40
0.2501752269059723
 50
59.44437456350209
 51
148.1976964086529
  0
ARC
  8
1
 62
2
 10
-498.3931843237151
 20
448.6315919313151
 30
0
 40
0.2499999999994989
 50
329.7238231387131
 51
59.42415765411687
  0
ARC
  8
1
 62
2
 10
-474.793442664301
 20
438.279754169736
 30
0
 40
24.14999999999973
 50
154.2084322996554
 51
178.0315226280592
  0
ARC
  8
1
 62
2
 10
-474.793442664301
 20
438.279754169736
 30
0
 40
23.64999999999857
 50
154.2238231392348
 51
178.0168318047652
  0
ARC
  8
1
 62
2
 10
-496.3153822474628
 20
448.6726335082722
 30
0
 40
0.2501752269033876
 50
63.94437456350415
 51
152.6976964093149
  0
ARC
  8
1
 62
2
 10
-496.3153845209977
 20
448.6728296874489
 30
0
 40
0.2499999999997105
 50
334.2238231393888
 51
63.92415765435952
  0
ARC
  8
1
 62
3
 10
-450.4877447855979
 20
491.3608151804961
 30
0
 40
0.5000000000004075
 50
98.00000000024417
 51
198.332435838005
  0
ARC
  8
1
 62
3
 10
-519.5623955227161
 20
523.6939789917819
 30
0
 40
0.4999999999993162
 50
288.9418738580701
 51
90
  0
ARC
  8
1
 62
3
 10
-514.170562892758
 20
411.6939789917819
 30
0
 40
0.5
 50
270
 51
71.83465134313714
  0
ARC
  8
1
 62
3
 10
-553.9790699125861
 20
451.7099542590358
 30
0
 40
0.4999999999992008
 50
17.86751952333236
 51
180
  0
ARC
  8
1
 62
3
 10
-501.5790699125828
 20
471.2939789917768
 30
0
 40
54.90000000000482
 50
152.3488455402451
 51
164.487071457563
  0
ARC
  8
1
 62
3
 10
-501.5790699125828
 20
471.2939789917768
 30
0
 40
54.90000000000594
 50
138.4924860770747
 51
152.3488455402451
  0
ARC
  8
1
 62
3
 10
-499.2790699125849
 20
475.1939789917819
 30
0
 40
50.90000000000062
 50
355.5797568910613
 51
4.466453343385775
  0
ARC
  8
1
 62
3
 10
-465.079069912586
 20
398.1939789917819
 30
0
 40
13
 50
90
 51
105.5086811912567
  0
ARC
  8
1
 62
3
 10
-501.5790699125828
 20
471.2939789917768
 30
0
 40
54.90000000000401
 50
162.3488455402453
 51
164.487071457563
  0
ARC
  8
1
 62
3
 10
-549.8790699125857
 20
521.593978991782
 30
0
 40
5.000000000000072
 50
221.8018441931378
 51
300.2400289336447
  0
ARC
  8
1
 62
3
 10
-445.079069912586
 20
521.593978991782
 30
0
 40
4.999999999998515
 50
243.2798772445754
 51
338.0135970027912
  0
ARC
  8
1
 62
3
 10
-549.8790699125857
 20
521.593978991782
 30
0
 40
4.99999999999948
 50
347.5212893673922
 51
22.44635058145199
  0
ARC
  8
1
 62
3
 10
-501.5790699125828
 20
471.2939789917768
 30
0
 40
54.90000000000538
 50
86.23718754726508
 51
125.9151221697447
  0
ARC
  8
1
 62
3
 10
-501.5790699125828
 20
471.2939789917768
 30
0
 40
54.90000000000538
 50
86.23718754726508
 51
125.9151221697447
  0
ARC
  8
1
 62
3
 10
-542.4790699125861
 20
516.1939789917819
 30
0
 40
5.000000000000565
 50
167.5212893673843
 51
225
  0
ARC
  8
1
 62
3
 10
-501.579069912586
 20
471.2939789917818
 30
0
 40
54.90000000000146
 50
86.13560660917483
 51
90
  0
ARC
  8
1
 62
3
 10
-499.2790699125849
 20
475.1939789917819
 30
0
 40
50.9000000000006
 50
62.51953489428141
 51
88.58008459201271
  0
ARC
  8
1
 62
3
 10
-499.2790699125849
 20
475.1939789917819
 30
0
 40
50.90000000000116
 50
46.19169061119914
 51
52.93275847127841
  0
ARC
  8
1
 62
3
 10
-499.2790699125849
 20
475.1939789917819
 30
0
 40
50.90000000000011
 50
64.21099369551605
 51
88.62707862423103
  0
ARC
  8
1
 62
3
 10
-501.5790699125828
 20
471.2939789917768
 30
0
 40
54.90000000000536
 50
164.487071457563
 51
171.3359899464102
  0
ARC
  8
1
 62
3
 10
-494.7790699125849
 20
470.7939789917818
 30
0
 40
61.70000000000048
 50
229.8229332179605
 51
266.7374759454987
  0
ARC
  8
1
 62
3
 10
-542.4790699125861
 20
424.1939789917819
 30
0
 40
4.999999999999177
 50
232.9586073743806
 51
314.3316808157071
  0
ARC
  8
1
 62
3
 10
-542.4790699125861
 20
516.1939789917819
 30
0
 40
5.000000000000565
 50
167.5212893673843
 51
222.3308007399387
  0
ARC
  8
1
 62
3
 10
-454.4790699125861
 20
512.1939789917819
 30
0
 40
5.000000000001971
 50
30.92613061312624
 51
129.5530571718015
  0
ARC
  8
1
 62
3
 10
-494.7790699125849
 20
470.7939789917818
 30
0
 40
61.70000000000271
 50
171.828216703657
 51
218.8404284134201
  0
ARC
  8
1
 62
3
 10
-501.5790699125828
 20
471.2939789917768
 30
0
 40
54.90000000000538
 50
86.23718754726508
 51
126.1691154027872
  0
ARC
  8
1
 62
3
 10
-499.2790699125849
 20
475.1939789917819
 30
0
 40
50.90000000000035
 50
21.29606643750348
 51
32.91442373240997
  0
ARC
  8
1
 62
3
 10
-549.8790699125857
 20
416.7939789917818
 30
0
 40
4.999999999998535
 50
295.8720959629511
 51
37.11704802731518
  0
ARC
  8
1
 62
3
 10
-549.8790699125857
 20
416.7939789917818
 30
0
 40
5.000000000001069
 50
54.37620389706466
 51
138.1981558068618
  0
ARC
  8
1
 62
3
 10
-542.4790699125861
 20
516.1939789917819
 30
0
 40
5.00000000000116
 50
42.33080073992112
 51
120.2400289336484
  0
ARC
  8
1
 62
3
 10
-549.879069912588
 20
521.5939789917838
 30
0
 40
5.000000000001696
 50
300.2400289336567
 51
347.5212893673775
  0
ARC
  8
1
 62
3
 10
-445.079069912586
 20
521.593978991782
 30
0
 40
4.999999999998877
 50
157.5536494185438
 51
225.4290851254245
  0
ARC
  8
1
 62
3
 10
-499.2790699125849
 20
475.1939789917819
 30
0
 40
50.8999999999996
 50
4.466453343385775
 51
21.29606643750348
  0
ARC
  8
1
 62
3
 10
-460.4790699125861
 20
361.6939789917819
 30
0
 40
50.00000000000039
 50
71.80512766123189
 51
81.8903855440056
  0
ARC
  8
1
 62
3
 10
-479.7852106935279
 20
451.1914263202261
 30
0
 40
42.00000000000096
 50
269.3682974146558
 51
285.508681191258
  0
ARC
  8
1
 62
3
 10
-439.9790699125861
 20
519.534852963583
 30
0
 40
0.5
 50
0
 51
158.0135970027829
  0
ARC
  8
1
 62
3
 10
-454.4790699125861
 20
512.1939789917819
 30
0
 40
5.000000000000543
 50
309.553057171807
 51
30.92613061312624
  0
ARC
  8
1
 62
3
 10
-542.4790699125861
 20
424.1939789917819
 30
0
 40
4.999999999999491
 50
134.3316808156884
 51
232.9586073743806
  0
ARC
  8
1
 62
2
  6
DOT
 10
-499.2790699125858
 20
475.1939789917789
 30
0
 40
48.89999999999968
 50
353.7347147443441
 51
358.5077933505165
  0
CIRCLE
  8
1
 62
3
 10
-497.8790699125857
 20
475.093978991787
 30
0
 40
18.19999999999982
  0
CIRCLE
  8
1
 62
3
 10
-497.8790699125871
 20
475.093978991787
 30
0
 40
19.60000000000042
  0
CIRCLE
  8
1
 62
3
 10
-497.8790699125871
 20
475.093978991787
 30
0
 40
17.5
  0
CIRCLE
  8
1
 62
2
  6
CENTER
 10
-497.8790699126048
 20
475.093978991782
 30
0
 40
26.25
  0
CIRCLE
  8
1
 62
3
 10
-497.8790699126048
 20
475.093978991782
 30
0
 40
36
  0
CIRCLE
  8
1
 62
3
 10
-549.8790699125857
 20
521.593978991782
 30
0
 40
2.149999999999182
  0
CIRCLE
  8
1
 62
3
 10
-549.8790699125857
 20
521.593978991782
 30
0
 40
2.149999999999182
  0
CIRCLE
  8
1
 62
3
 10
-542.4790699125861
 20
516.1939789917819
 30
0
 40
2.149999999999636
  0
CIRCLE
  8
1
 62
3
 10
-542.4790699125861
 20
516.1939789917819
 30
0
 40
2.149999999999636
  0
CIRCLE
  8
1
 62
3
 10
-542.4790699125861
 20
516.1939789917819
 30
0
 40
2.149999999999636
  0
CIRCLE
  8
1
 62
3
 10
-542.4790699125861
 20
516.1939789917819
 30
0
 40
2.149999999999636
  0
CIRCLE
  8
1
 62
3
 10
-549.8790699125857
 20
521.593978991782
 30
0
 40
2.149999999999182
  0
CIRCLE
  8
1
 62
3
 10
-454.4790699125861
 20
512.1939789917819
 30
0
 40
2.149999999999579
  0
CIRCLE
  8
1
 62
3
 10
-445.079069912586
 20
521.593978991782
 30
0
 40
2.150000000000091
  0
CIRCLE
  8
1
 62
3
 10
-454.4790699125861
 20
512.1939789917819
 30
0
 40
2.149999999999579
  0
CIRCLE
  8
1
 62
3
 10
-542.4790699125861
 20
516.1939789917819
 30
0
 40
2.149999999999636
  0
CIRCLE
  8
1
 62
3
 10
-542.4790699125861
 20
424.1939789917819
 30
0
 40
2.149999999999636
  0
CIRCLE
  8
1
 62
3
 10
-445.079069912586
 20
521.593978991782
 30
0
 40
2.150000000000091
  0
CIRCLE
  8
1
 62
3
 10
-549.8790699125857
 20
521.593978991782
 30
0
 40
2.149999999999182
  0
CIRCLE
  8
1
 62
3
 10
-549.8790699125857
 20
416.7939789917818
 30
0
 40
2.149999999999182
  0
POLYLINE
  8
1
 62
2
 66
1
  0
VERTEX
  8
1
 10
-465.6212122107031
 20
533.8862274750452
 30
0
 42
0.04531646768133984
  0
VERTEX
  8
1
 10
-465.6439089261276
 20
533.540477549914
 30
0
 42
0.06875053216262377
  0
VERTEX
  8
1
 10
-465.5978936985806
 20
533.2830467007425
 30
0
 42
0.09119141579151396
  0
VERTEX
  8
1
 10
-465.4933830445755
 20
533.1005587955244
 30
0
 42
0.08897020558269946
  0
VERTEX
  8
1
 10
-465.3405934806253
 20
532.9796377022525
 30
0
 42
0.06286358484391215
  0
VERTEX
  8
1
 10
-465.1497415232433
 20
532.9069072889205
 30
0
 42
0.03626866186739003
  0
VERTEX
  8
1
 10
-464.9310436889424
 20
532.8689914235216
 30
0
 42
0.01664488440985999
  0
VERTEX
  8
1
 10
-464.6947164942359
 20
532.8525139740491
 30
0
 42
0.001492795399144589
  0
VERTEX
  8
1
 10
-464.450976455637
 20
532.8440988084964
 30
0
 42
-0.01278207639380253
  0
VERTEX
  8
1
 10
-464.2100400896588
 20
532.8303697948568
 30
0
 42
-0.02957381337776998
  0
VERTEX
  8
1
 10
-463.9821239128144
 20
532.7979508011233
 30
0
 42
-0.05193334601610587
  0
VERTEX
  8
1
 10
-463.777444441617
 20
532.7334656952897
 30
0
 42
-0.07866906647200496
  0
VERTEX
  8
1
 10
-463.6062181925797
 20
532.6235383453491
 30
0
 42
-0.09453231223320181
  0
VERTEX
  8
1
 10
-463.4786616822157
 20
532.4547926192947
 30
0
 42
-0.08321384582579325
  0
VERTEX
  8
1
 10
-463.4049914270382
 20
532.2138523851202
 30
0
 42
-0.05892353645537805
  0
VERTEX
  8
1
 10
-463.3954239435601
 20
531.8873415108184
 30
0
  0
SEQEND
  8
1
  0
POLYLINE
  8
1
 62
2
 66
1
  0
VERTEX
  8
1
 10
-466.1044077955163
 20
533.0493081721519
 30
0
 42
0.04531646768133984
  0
VERTEX
  8
1
 10
-466.1271045109408
 20
532.7035582470207
 30
0
 42
0.06875053216301423
  0
VERTEX
  8
1
 10
-466.0810892833938
 20
532.4461273978493
 30
0
 42
0.09119141579098339
  0
VERTEX
  8
1
 10
-465.9765786293887
 20
532.263639492631
 30
0
 42
0.08897020558277048
  0
VERTEX
  8
1
 10
-465.8237890654385
 20
532.1427183993593
 30
0
 42
0.06286358484442048
  0
VERTEX
  8
1
 10
-465.6329371080565
 20
532.0699879860272
 30
0
 42
0.03626866186749759
  0
VERTEX
  8
1
 10
-465.4142392737556
 20
532.0320721206283
 30
0
 42
0.01664488441042217
  0
VERTEX
  8
1
 10
-465.1779120790491
 20
532.0155946711559
 30
0
 42
0.001492795399612568
  0
VERTEX
  8
1
 10
-464.9341720404502
 20
532.0071795056031
 30
0
 42
-0.01278207639380253
  0
VERTEX
  8
1
 10
-464.693235674472
 20
531.9934504919635
 30
0
 42
-0.02957381337771588
  0
VERTEX
  8
1
 10
-464.4653194976276
 20
531.96103149823
 30
0
 42
-0.05193334601536294
  0
VERTEX
  8
1
 10
-464.2606400264302
 20
531.8965463923964
 30
0
 42
-0.07866906647200496
  0
VERTEX
  8
1
 10
-464.0894137773929
 20
531.7866190424558
 30
0
 42
-0.0945323122335215
  0
VERTEX
  8
1
 10
-463.9618572670289
 20
531.6178733164013
 30
0
 42
-0.08321384582622668
  0
VERTEX
  8
1
 10
-463.8881870118514
 20
531.3769330822269
 30
0
 42
-0.05892353645520502
  0
VERTEX
  8
1
 10
-463.8786195283733
 20
531.0504222079251
 30
0
  0
SEQEND
  8
1
  0
ARC
  8
1
 62
3
 10
-475.3244729872927
 20
522.1596868106547
 30
0
 40
1.000000000000048
 50
149.9999999999866
 51
240.000000000119
  0
ARC
  8
1
 62
3
 10
-473.5771461239471
 20
523.1861457153982
 30
0
 40
0.5000000000000411
 50
60.00000000000272
 51
150.000000000006
  0
ARC
  8
1
 62
3
 10
-468.3809937012398
 20
520.1861457153991
 30
0
 40
0.4999999999999274
 50
330.0000000000253
 51
60.0000000000383
  0
ARC
  8
1
 62
3
 10
-473.9431715277321
 20
524.5521711191821
 30
0
 40
0.9999999999999684
 50
60.000000000014
 51
150.0000000000156
  0
ARC
  8
1
 62
3
 10
-466.7551606763211
 20
520.4021711191808
 30
0
 40
1.000000000000082
 50
330.0000000000027
 51
59.99999999995866
  0
ARC
  8
1
 62
3
 10
-467.0567703662033
 20
515.8797678122492
 30
0
 40
1.000000000000083
 50
231.6215075336883
 51
329.9999999999976
  0
ARC
  8
1
 62
3
 10
-467.0567703662033
 20
515.8797678122492
 30
0
 40
1.000000000000033
 50
150.0000000000011
 51
231.6215075336883
  0
ARC
  8
10
 62
3
 10
-613.710714913774
 20
411.1939789917778
 30
0
 40
2
 50
270
 51
0
  0
ARC
  8
10
 62
3
 10
-613.710714913774
 20
524.1939789917778
 30
0
 40
2
 50
0
 51
90
  0
ARC
  8
10
 62
3
 10
-642.710714913774
 20
410.1939789917778
 30
0
 40
1
 50
180
 51
270
  0
ARC
  8
10
 62
3
 10
-642.710714913774
 20
525.1939789917778
 30
0
 40
1
 50
90
 51
180
  0
ARC
  8
10
 62
3
 10
-391.166426009438
 20
524.1939789917778
 30
0
 40
2
 50
90
 51
180
  0
ARC
  8
10
 62
3
 10
-362.166426009438
 20
525.1939789917778
 30
0
 40
1
 50
0
 51
90
  0
ARC
  8
10
 62
3
 10
-391.166426009438
 20
411.1939789917778
 30
0
 40
2
 50
180
 51
270
  0
ARC
  8
10
 62
3
 10
-363.166426009438
 20
411.1939789917778
 30
0
 40
2
 50
270
 51
0
  0
ARC
  8
10
 62
3
 10
-363.166426009438
 20
468.1939789917778
 30
0
 40
2
 50
0
 51
90
  0
ARC
  8
10
 62
3
 10
-391.166426009438
 20
468.1939789917778
 30
0
 40
2
 50
90
 51
180
  0
ARC
  8
1
 62
3
 10
-553.9790699125861
 20
420.4600395477469
 30
0
 40
0.5
 50
180
 51
318.1981558068226
  0
ARC
  8
1
 62
3
 10
-547.4790699125861
 20
411.8452417791191
 30
0
 40
0.5000000000006385
 50
115.8720959628843
 51
180
  0
ARC
  8
1
 62
3
 10
-547.4790699125861
 20
411.6939789917819
 30
0
 40
0.5
 50
180
 51
270
  0
ARC
  8
1
 62
3
 10
-553.9790699125861
 20
517.9279184358179
 30
0
 40
0.4999999999998325
 50
41.80184419309971
 51
180
  0
ARC
  8
1
 62
3
 10
-544.79576390173
 20
523.6939789917819
 30
0
 40
0.5
 50
90
 51
202.4463505814108
  0
ARC
  8
1
 62
3
 10
-450.1623759234408
 20
523.6939789917819
 30
0
 40
0.5000000000003698
 50
337.5536494185892
 51
90
  0
ARC
  8
1
 62
3
 10
-441.4790699125861
 20
522.1939789917819
 30
0
 40
4
 50
0
 51
90
  0
ARC
  8
1
 62
3
 10
-552.4790699125861
 20
522.1939789917819
 30
0
 40
4
 50
90
 51
180
  0
ARC
  8
1
 62
3
 10
-447.5334420779559
 20
471.1939789917819
 30
0
 40
0.999999999998702
 50
175.5797568910666
 51
270
  0
ARC
  8
1
 62
3
 10
-441.4790699125861
 20
522.1939789917819
 30
0
 40
4
 50
0
 51
90
  0
ARC
  8
1
 62
3
 10
-552.4790699125861
 20
522.1939789917819
 30
0
 40
4
 50
90
 51
180
  0
ARC
  8
1
 62
3
 10
-552.4790699125861
 20
413.1939789917819
 30
0
 40
4
 50
180
 51
270
  0
ARC
  8
1
 62
3
 10
-535.2300952280248
 20
422.8877732254118
 30
0
 40
1.000000000000628
 50
49.82293321804152
 51
134.3316808156329
  0
ARC
  8
1
 62
3
 10
-543.615826146588
 20
431.4714505819679
 30
0
 40
1.000000000000819
 50
314.3316808157098
 51
38.84042841347124
  0
ARC
  8
1
 62
3
 10
-455.7098971100691
 20
503.3957020119169
 30
0
 40
0.9999999999999554
 50
129.553057171734
 51
212.9144237323932
  0
ARC
  8
1
 62
3
 10
-463.3514069787129
 20
512.6481247717911
 30
0
 40
0.9999999999998485
 50
226.1916906111543
 51
309.5530571717382
  0
ARC
  8
1
 62
3
 10
-534.5696064323247
 20
516.420850145671
 30
0
 40
0.9999999999985317
 50
222.3308007399535
 51
306.1691154028464
  0
ARC
  8
1
 62
3
 10
-543.4408367588549
 20
508.3399298705031
 30
0
 40
0.9999999999998529
 50
318.4924860770715
 51
42.33080073984579
  0
POLYLINE
  8
1
 62
2
 66
1
 70
1
  0
VERTEX
  8
1
 10
-638.227250171146
 20
560.863983759442
 30
0
  0
VERTEX
  8
1
 10
-610.127250171146
 20
560.863983759442
 30
0
  0
VERTEX
  8
1
 10
-610.127250171146
 20
568.863983759442
 30
0
  0
VERTEX
  8
1
 10
-638.227250171146
 20
568.863983759442
 30
0
  0
SEQEND
  8
1
  0
LINE
  8
1
 62
2
 10
-474.8035951142962
 20
510.8259573931238
 30
0
 11
-478.3490072043899
 21
505.3359473571712
 31
0
  0
SOLID
  8
1
 62
2
 10
-476.9669065785275
 20
508.2526717926347
 30
0
 11
-476.2590966821253
 21
507.7955728533325
 31
0
 12
-478.3490072043899
 22
505.3359473571712
 32
0
 13
-478.3490072043899
 23
505.3359473571712
 33
0
  0
LINE
  8
10
 62
2
 10
-599.9731673162959
 20
394.954443491344
 30
0
 11
-559.8029628304856
 21
394.954443491344
 31
0
  0
LINE
  8
10
 62
2
 10
-559.8029628304856
 20
394.954443491344
 30
0
 11
-550.732821496716
 21
414.6400206196408
 31
0
  0
SOLID
  8
10
 62
2
 10
-552.5262049532266
 20
408.8600775868532
 30
0
 11
-553.9610562302922
 21
409.5211861635084
 31
0
 12
-550.732821496716
 22
414.6400206196408
 32
0
 13
-550.732821496716
 23
414.6400206196408
 33
0
  0
TEXT
  8
1
 62
2
 10
-636.227250171146
 20
562.863983759442
 30
0
 40
4
  1
E1232L
 41
0.9
  0
TEXT
  8
10
 62
2
 10
-520.0753466003031
 20
416.0928906239237
 30
0
 40
3
  1
（吸込口）
 50
60.50602162015161
 41
0.8100000000000001
  0
TEXT
  8
1
 62
2
 10
-415.8829045300248
 20
455.7454354850438
 30
0
 40
3.5
  1
吸込口
 41
0.9
  0
TEXT
  8
1
 62
2
 10
-430.4996542208878
 20
425.16044493973
 30
0
 40
3.5
  1
吐出口
 41
0.9
  0
TEXT
  8
1
 62
2
 10
-599.3453303530858
 20
396.787634450774
 30
0
 40
2.7
  1
6-%%c4.3±0.2
 41
0.9
  0
DIMENSION
  8
10
  6
CONTINUOUS
 62
2
  2
*D0
  3
DMST_1
 10
-349.560250019513
 20
409.1939789917778
 30
0
 11
-352.960250019513
 21
403.689991646801
 31
0
 12
0
 22
0
 32
0
 70
0
 13
-363.166426009438
 23
411.6939789917778
 33
0
 14
-363.166426009438
 24
409.1939789917778
 34
0
 50
90
 53
0
  0
DIMENSION
  8
10
  6
CONTINUOUS
 62
2
  2
*D1
  3
DMST_2
 10
-574.126759619488
 20
475.093978991787
 30
0
 11
-577.376759619488
 21
494.713772076556
 31
0
 12
0
 22
0
 32
0
 70
0
 13
-552.6740699125858
 23
521.593978991782
 33
0
 14
-563.3348354481241
 24
475.093978991787
 34
0
 50
90
 53
0
  0
DIMENSION
  8
10
  6
CONTINUOUS
 62
2
  2
*D2
  3
DMST_3
 10
-583.868315774659
 20
416.7939789917818
 30
0
 11
-587.368315774659
 21
468.986072487257
 31
0
 12
0
 22
0
 32
0
 70
0
 13
-552.6740699125858
 23
521.593978991782
 33
0
 14
-552.6740699125867
 24
416.7939789917818
 34
0
 50
90
 53
0
  0
DIMENSION
  8
10
  6
CONTINUOUS
 62
2
  2
*D3
  3
DMST_3
 10
-549.8790699125857
 20
557.8489630824
 30
0
 11
-525.01531088024
 21
561.3489630824
 31
0
 12
0
 22
0
 32
0
 70
0
 13
-497.8790699125857
 23
537.7578955274771
 33
0
 14
-549.8790699125857
 24
524.3889789917821
 34
0
 53
0
  0
DIMENSION
  8
10
  6
CONTINUOUS
 62
2
  2
*D4
  3
DMST_3
 10
-549.8790699125857
 20
569.258532719095
 30
0
 11
-499.808365265811
 21
572.758532719095
 31
0
 12
0
 22
0
 32
0
 70
0
 13
-445.079069912586
 23
524.3889789917821
 33
0
 14
-549.8790699125857
 24
524.3889789917821
 34
0
 53
0
  0
DIMENSION
  8
1
  6
CONTINUOUS
 62
2
  2
*D5
  3
DMST_4
 10
-638.710714913774
 20
534.226398084151
 30
0
 11
-630.127684640649
 21
537.826398084151
 31
0
 12
0
 22
0
 32
0
 70
0
 13
-643.710714913774
 23
525.1939789917778
 33
0
 14
-638.710714913774
 24
526.1939789917778
 34
0
 53
0
  0
DIMENSION
  8
1
  6
CONTINUOUS
 62
2
  2
*D6
  3
DMST_4
 10
-638.710714913774
 20
396.548860051366
 30
0
 11
-633.382675759805
 21
400.148860051366
 31
0
 12
0
 22
0
 32
0
 70
0
 13
-643.710714913774
 23
410.1939789917778
 33
0
 14
-638.710714913774
 24
409.1939789917778
 34
0
 53
0
  0
DIMENSION
  8
1
  6
CONTINUOUS
 62
2
  2
*D7
  3
DMST_4
 10
-361.166426009438
 20
534.541397475611
 30
0
 11
-352.551822471184
 21
538.141397475611
 31
0
 12
0
 22
0
 32
0
 70
0
 13
-366.166426009438
 23
526.1939789917778
 33
0
 14
-361.166426009438
 24
525.1939789917778
 34
0
 53
0
  0
DIMENSION
  8
1
  6
CONTINUOUS
 62
2
  2
*D8
  3
DMST_5
 10
-340.1153117600921
 20
470.1939789917778
 30
0
 11
-343.4653117600921
 21
441.199889305645
 31
0
 12
0
 22
0
 32
0
 70
0
 13
-363.166426009438
 23
409.1939789917778
 33
0
 14
-366.166426009438
 24
470.1939789917778
 34
0
 50
90
 53
0
  0
DIMENSION
  8
1
  6
CONTINUOUS
 62
2
  2
*D9
  3
DMST_6
 10
-349.560250019513
 20
470.1939789917778
 30
0
 11
-352.910250019513
 21
477.360510070286
 31
0
 12
0
 22
0
 32
0
 70
0
  1
5
 13
-363.166426009438
 23
465.0261521153601
 33
0
 14
-366.166426009438
 24
470.1939789917778
 34
0
 50
90
 53
0
  0
DIMENSION
  8
1
  6
CONTINUOUS
 62
2
  2
*D10
  3
DMST_5
 10
-349.560250019513
 20
465.0261521153601
 30
0
 11
-352.910250019513
 21
440.930033926804
 31
0
 12
0
 22
0
 32
0
 70
0
  1
(53.5)
 13
-363.166426009438
 23
411.6939789917778
 33
0
 14
-363.166426009438
 24
465.0261521153601
 34
0
 50
90
 53
0
  0
DIMENSION
  8
1
  6
CONTINUOUS
 62
2
  2
*D11
  3
DMST_7
 10
-593.3600884386721
 20
526.1939789917819
 30
0
 11
-596.8600884386721
 21
467.737155031465
 31
0
 12
0
 22
0
 32
0
 70
0
 13
-552.4790699125861
 23
409.1939789917819
 33
0
 14
-552.4790699125861
 24
526.1939789917819
 34
0
 50
90
 53
0
  0
DIMENSION
  8
1
  6
CONTINUOUS
 62
2
  2
*D12
  3
DMST_8
 10
-556.4790699125861
 20
379.886963065265
 30
0
 11
-497.202365181719
 21
383.236963065265
 31
0
 12
0
 22
0
 32
0
 70
0
 13
-437.4790699125861
 23
409.1939789917819
 33
0
 14
-556.4790699125861
 24
413.1939789917819
 34
0
 53
0
  0
DIMENSION
  8
1
  6
CONTINUOUS
 62
2
  2
*D13
  3
DMST_9
 10
-497.8790699125857
 20
389.54154104048
 30
0
 11
-522.773950089044
 21
392.89154104048
 31
0
 12
0
 22
0
 32
0
 70
0
 13
-549.8790699125857
 23
413.9989789917831
 33
0
 14
-497.8790699125857
 24
400.1432389473671
 34
0
 53
0
  0
DIMENSION
  8
1
  6
CONTINUOUS
 62
2
  2
*D14
  3
DMST_9
 10
-425.107489941298
 20
512.1939789917819
 30
0
 11
-428.457489941298
 21
494.042478944068
 31
0
 12
0
 22
0
 32
0
 70
0
 13
-431.7559094197727
 23
475.093978991787
 33
0
 14
-451.684069912586
 24
512.1939789917819
 34
0
 50
90
 53
0
  0
DIMENSION
  8
1
  6
CONTINUOUS
 62
2
  2
*D15
  3
DMST_10
 10
-564.634986955474
 20
475.093978991787
 30
0
 11
-567.984986955474
 21
493.714638111923
 31
0
 12
0
 22
0
 32
0
 70
0
 13
-545.2740699125857
 23
516.1939789917819
 33
0
 14
-563.3348354481241
 24
475.093978991787
 34
0
 50
90
 53
0
  0
DIMENSION
  8
1
  6
CONTINUOUS
 62
2
  2
*D16
  3
DMST_5
 10
-574.126759619488
 20
475.093978991787
 30
0
 11
-577.476759619488
 21
452.999929053129
 31
0
 12
0
 22
0
 32
0
 70
0
  1
(58.3)
 13
-552.6740699125867
 23
416.7939789917818
 33
0
 14
-563.3348354481241
 24
475.093978991787
 34
0
 50
90
 53
0
  0
DIMENSION
  8
1
  6
CONTINUOUS
 62
2
  2
*D17
  3
DMST_9
 10
-564.634986955474
 20
475.093978991787
 30
0
 11
-567.984986955474
 21
454.748413491237
 31
0
 12
0
 22
0
 32
0
 70
0
 13
-545.2740699125857
 23
424.1939789917819
 33
0
 14
-563.3348354481241
 24
475.093978991787
 34
0
 50
90
 53
0
  0
DIMENSION
  8
1
  6
CONTINUOUS
 62
2
  2
*D18
  3
DMST_9
 10
-542.4790699125861
 20
548.1939789917831
 30
0
 11
-520.3705560753947
 21
551.5439789917831
 31
0
 12
0
 22
0
 32
0
 70
0
 13
-497.8790699125857
 23
537.7578955274771
 33
0
 14
-542.4790699125861
 24
518.988978991782
 34
0
 53
0
  0
DIMENSION
  8
1
  6
CONTINUOUS
 62
2
  2
*D19
  3
DMST_5
 10
-497.8790699125857
 20
557.8489630824
 30
0
 11
-472.810561228167
 21
561.1989630824
 31
0
 12
0
 22
0
 32
0
 70
0
  1
(52.8)
 13
-445.079069912586
 23
524.3889789917821
 33
0
 14
-497.8790699125857
 24
537.7578955274771
 34
0
 53
0
  0
DIMENSION
  8
1
  6
CONTINUOUS
 62
2
  2
*D20
  3
DMST_9
 10
-454.4790699125861
 20
548.1939789917831
 30
0
 11
-473.3952176001458
 21
551.5439789917831
 31
0
 12
0
 22
0
 32
0
 70
0
 13
-497.8790699125857
 23
537.7578955274771
 33
0
 14
-454.4790699125861
 24
514.988978991782
 34
0
 53
0
  0
DIMENSION
  8
1
  6
CONTINUOUS
 62
2
  2
*D21
  3
DMST_9
 10
-542.4790699125861
 20
397.702061894085
 30
0
 11
-521.4826586481451
 21
401.052061894085
 31
0
 12
0
 22
0
 32
0
 70
0
 13
-497.8790699125857
 23
400.1432389473671
 33
0
 14
-542.4790699125861
 24
421.3989789917819
 34
0
 53
0
  0
DIMENSION
  8
1
  6
CONTINUOUS
 62
2
  2
*D22
  3
DMST_9
 10
-497.8790699125857
 20
389.54154104048
 30
0
 11
-468.760500335816
 21
392.89154104048
 31
0
 12
0
 22
0
 32
0
 70
0
 13
-437.4790699125861
 23
409.1939789917819
 33
0
 14
-497.8790699125857
 24
400.1432389473671
 34
0
 53
0
  0
DIMENSION
  8
1
  6
CONTINUOUS
 62
2
  2
*D23
  3
DMST_5
 10
-393.166426009438
 20
389.92736732593
 30
0
 11
-402.991615029953
 21
393.27736732593
 31
0
 12
0
 22
0
 32
0
 70
0
 13
-391.166426009438
 23
411.6939789917778
 33
0
 14
-393.166426009438
 24
411.1939789917778
 34
0
 53
0
  0
DIMENSION
  8
1
  6
CONTINUOUS
 62
2
  2
*D24
  3
DMST_6
 10
-361.166426009438
 20
389.92736732593
 30
0
 11
-354.687502217485
 21
393.27736732593
 31
0
 12
0
 22
0
 32
0
 70
0
  1
(<>
 13
-363.166426009438
 23
411.6939789917778
 33
0
 14
-361.166426009438
 24
411.1939789917778
 34
0
 53
0
  0
DIMENSION
  8
1
  6
CONTINUOUS
 62
2
  2
*D25
  3
DMST_5
 10
-391.166426009438
 20
389.92736732593
 30
0
 11
-380.053907828501
 21
393.27736732593
 31
0
 12
0
 22
0
 32
0
 70
0
 13
-363.166426009438
 23
411.6939789917778
 33
0
 14
-391.166426009438
 24
411.6939789917778
 34
0
 53
0
  0
DIMENSION
  8
1
  6
CONTINUOUS
 62
2
  2
*D26
  3
DMST_5
 10
-393.166426009438
 20
379.942718308827
 30
0
 11
-378.974486313139
 21
383.292718308827
 31
0
 12
0
 22
0
 32
0
 70
0
 13
-361.166426009438
 23
411.1939789917778
 33
0
 14
-393.166426009438
 24
411.1939789917778
 34
0
 53
0
  0
DIMENSION
  8
1
  6
CONTINUOUS
 62
2
  2
*D27
  3
DMST_3
 10
-413.258385579479
 20
475.093978991787
 30
0
 11
-416.758385579479
 21
495.072835845096
 31
0
 12
0
 22
0
 32
0
 70
0
 13
-442.2840699125859
 23
521.593978991782
 33
0
 14
-431.7559094197727
 24
475.093978991787
 34
0
 50
90
 53
0
  0
DIMENSION
  8
10
  6
CONTINUOUS
 62
2
  2
*D28
  3
DMST_11
 10
-478.3490072043904
 20
505.3359473571715
 30
0
 11
-527.6561006305656
 21
435.6206791613853
 31
0
 12
0
 22
0
 32
0
 70
3
 15
-517.4091326208192
 25
444.8520106263926
 35
0
 40
0
 53
0
  0
ENDSEC
  0
EOF
