  0
SECTION
  2
HEADER
  9
$ACADVER
  1
AC1009
  9
$INSBASE
 10
0
 20
0
  9
$EXTMIN
 10
377.718796180876
 20
-1356.845873054942
  9
$EXTMAX
 10
683.1889427325584
 20
-1104.27277049067
  9
$LIMMIN
 10
377.718796180876
 20
-1356.845873054942
  9
$LIMMAX
 10
683.1889427325584
 20
-1104.27277049067
  9
$VIEWCTR
 10
10
 20
10
  9
$VIEWSIZE
 40
10
  9
$SNAPMODE
 70
0
  9
$SNAPUNIT
 10
1
 20
1
  9
$SNAPBASE
 10
0
 20
0
  9
$SNAPANG
 50
0
  9
$SNAPSTYLE
 70
0
  9
$SNAPISOPAIR
 70
0
  9
$GRIDMODE
 70
0
  9
$GRIDUNIT
 10
0
 20
0
  9
$ORTHOMODE
 70
0
  9
$REGENMODE
 70
1
  9
$FILLMODE
 70
1
  9
$QTEXTMODE
 70
0
  9
$DRAGMODE
 70
2
  9
$LTSCALE
 40
1
  9
$OSMODE
 70
0
  9
$ATTMODE
 70
1
  9
$TEXTSIZE
 40
3.5
  9
$TRACEWID
 40
0.5
  9
$TEXTSTYLE
  7
STANDARD
  9
$CLAYER
  8
0
  9
$CELTYPE
  6
BYLAYER
  9
$CECOLOR
 62
256
  9
$DIMSCALE
 40
1
  9
$DIMASZ
 40
0.18
  9
$DIMEXO
 40
0.0625
  9
$DIMDLI
 40
0.38
  9
$DIMRND
 40
0
  9
$DIMDLE
 40
0
  9
$DIMEXE
 40
0.18
  9
$DIMTP
 40
0
  9
$DIMTM
 40
0
  9
$DIMTXT
 40
0.18
  9
$DIMCEN
 40
0.09
  9
$DIMTSZ
 40
0
  9
$DIMTOL
 70
0
  9
$DIMLIM
 70
0
  9
$DIMTIH
 70
1
  9
$DIMTOH
 70
1
  9
$DIMSE1
 70
0
  9
$DIMSE2
 70
0
  9
$DIMTAD
 70
0
  9
$DIMZIN
 70
0
  9
$DIMBLK
  1

  9
$DIMASO
 70
1
  9
$DIMSHO
 70
1
  9
$DIMPOST
  1

  9
$DIMAPOST
  1

  9
$DIMALT
 70
0
  9
$DIMALTD
 70
2
  9
$DIMALTF
 40
25.4
  9
$DIMLFAC
 40
1
  9
$DIMTOFL
 70
0
  9
$DIMTVP
 40
0
  9
$DIMTIX
 70
0
  9
$DIMSOXD
 70
0
  9
$DIMSAH
 70
0
  9
$DIMBLK1
  1

  9
$DIMBLK2
  1

  9
$DIMSTYLE
  2
*UNNAMED
  9
$DIMCLRD
 70
0
  9
$DIMCLRE
 70
0
  9
$DIMCLRT
 70
0
  9
$DIMTFAC
 40
1
  9
$DIMGAP
 40
0.09
  9
$LUNITS
 70
2
  9
$LUPREC
 70
4
  9
$AXISMODE
 70
0
  9
$AXISUNIT
 10
0
 20
0
  9
$SKETCHINC
 40
0.1
  9
$FILLETRAD
 40
2
  9
$AUNITS
 70
0
  9
$AUPREC
 70
0
  9
$MENU
  1
ACAD
  9
$ELEVATION
 40
0
  9
$THICKNESS
 40
0
  9
$VIEWDIR
 10
0
 20
0
 30
1
  9
$LIMCHECK
 70
0
  9
$BLIPMODE
 70
1
  9
$CHAMFERA
 40
0
  9
$CHAMFERB
 40
0
  9
$FASTZOOM
 70
1
  9
$SKPOLY
 70
0
  9
$ANGBASE
 50
0
  9
$ANGDIR
 70
0
  9
$PDMODE
 70
0
  9
$PDSIZE
 40
0
  9
$PLINEWID
 40
0
  9
$COORDS
 70
2
  0
ENDSEC
  0
SECTION
  2
TABLES
  0
TABLE
  2
DIMSTYLE
 70
6
  0
DIMSTYLE
  2
DMST_1
 70
0
  3

  4

  5

  6

  7

 40
1
 41
4.800000000000001
 42
1
 43
7
 44
1.5
 45
0
 46
0
 47
0
 48
0
140
3.2
141
0
142
0
143
25.4
144
1
145
0
146
1
147
0.09
 71
0
 72
0
 73
0
 74
0
 75
0
 76
0
 77
1
 78
9
170
0
171
2
172
0
173
0
174
0
175
0
176
2
177
2
178
2
  0
DIMSTYLE
  2
DMST_2
 70
0
  3

  4

  5

  6

  7

 40
1
 41
3.2
 42
1
 43
7
 44
1.5
 45
0
 46
0
 47
0.3
 48
0.3
140
3.2
141
0
142
0
143
25.4
144
1
145
0
146
0.6
147
0.09
 71
1
 72
0
 73
0
 74
0
 75
0
 76
0
 77
1
 78
9
170
0
171
2
172
0
173
0
174
0
175
0
176
2
177
2
178
2
  0
DIMSTYLE
  2
DMST_3
 70
0
  3

  4

  5

  6

  7

 40
1
 41
3.2
 42
1
 43
7
 44
1.5
 45
0
 46
0
 47
0
 48
0
140
3.2
141
0
142
0
143
25.4
144
1
145
0
146
1
147
0.09
 71
0
 72
0
 73
0
 74
0
 75
0
 76
0
 77
1
 78
9
170
0
171
2
172
0
173
0
174
0
175
0
176
2
177
2
178
2
  0
DIMSTYLE
  2
DMST_4
 70
0
  3

  4

  5

  6

  7

 40
1
 41
6
 42
1
 43
7
 44
1.5
 45
0
 46
0
 47
10
 48
10
140
4
141
0
142
0
143
25.4
144
1
145
0
146
1
147
0.09
 71
1
 72
0
 73
0
 74
0
 75
0
 76
0
 77
1
 78
9
170
0
171
2
172
0
173
0
174
0
175
0
176
2
177
2
178
2
  0
DIMSTYLE
  2
DMST_5
 70
0
  3
üièÐÆ╩îèüj
  4

  5

  6

  7

 40
1
 41
4.800000000000001
 42
1
 43
7
 44
1.5
 45
0
 46
0
 47
0
 48
0
140
3.2
141
0
142
0
143
25.4
144
1
145
0
146
1
147
0.09
 71
0
 72
0
 73
1
 74
1
 75
0
 76
0
 77
1
 78
9
170
0
171
2
172
0
173
0
174
0
175
0
176
2
177
2
178
2
  0
DIMSTYLE
  2
DMST_6
 70
0
  3
(ïzì×ôÓîa)
  4

  5

  6

  7

 40
1
 41
4.800000000000001
 42
1
 43
7
 44
1.5
 45
0
 46
0
 47
0
 48
0
140
3.2
141
0
142
0
143
25.4
144
1
145
0
146
1
147
0.09
 71
0
 72
0
 73
0
 74
0
 75
0
 76
0
 77
1
 78
9
170
0
171
2
172
1
173
0
174
0
175
0
176
2
177
2
178
2
  0
ENDTAB
  0
TABLE
  2
LTYPE
 70
9
  0
LTYPE
  2
CONTINUOUS
 70
64
  3
Solid line
 72
65
 73
0
 40
0
  0
LTYPE
  2
BORDER
 70
64
  3
__ __ . __ __ .
 72
65
 73
6
 40
14.06770411751169
 49
4.019344033574769
 49
-2.009672016787385
 49
4.019344033574769
 49
-2.009672016787385
 49
0
 49
-2.009672016787385
  0
LTYPE
  2
CENTER
 70
64
  3
____ _ ____ _
 72
65
 73
4
 40
16.07737613429908
 49
10.04836008393692
 49
-2.009672016787385
 49
2.009672016787385
 49
-2.009672016787385
  0
LTYPE
  2
DASHDOT
 70
64
  3
__ . __ . __ .
 72
65
 73
4
 40
8.038688067149538
 49
4.019344033574769
 49
-2.009672016787385
 49
0
 49
-2.009672016787385
  0
LTYPE
  2
DASHED
 70
64
  3
__ __ __ __ __
 72
65
 73
2
 40
6.029016050362154
 49
4.019344033574769
 49
-2.009672016787385
  0
LTYPE
  2
DIVIDE
 70
64
  3
__ . . __ . . 
 72
65
 73
6
 40
10.04836008393692
 49
4.019344033574769
 49
-2.009672016787385
 49
0
 49
-2.009672016787385
 49
0
 49
-2.009672016787385
  0
LTYPE
  2
DOT
 70
64
  3
..............
 72
65
 73
4
 40
4.019344033574769
 49
0
 49
-2.009672016787385
 49
0
 49
-2.009672016787385
  0
LTYPE
  2
HIDDEN
 70
64
  3
_ _ _ _ _ _ _
 72
65
 73
2
 40
3.014508025181077
 49
2.009672016787385
 49
-1.004836008393692
  0
LTYPE
  2
PHANTOM
 70
64
  3
_____ _ _ _____ _ _ 
 72
65
 73
6
 40
20.09672016787384
 49
10.04836008393692
 49
-2.009672016787385
 49
2.009672016787385
 49
-2.009672016787385
 49
2.009672016787385
 49
-2.009672016787385
  0
ENDTAB
  0
TABLE
  2
LAYER
 70
7
  0
LAYER
  2
30
 70
0
 62
7
  6
CONTINUOUS
  0
LAYER
  2
31
 70
0
 62
7
  6
CONTINUOUS
  0
LAYER
  2
35
 70
0
 62
7
  6
CONTINUOUS
  0
LAYER
  2
10
 70
0
 62
7
  6
CONTINUOUS
  0
LAYER
  2
1
 70
0
 62
7
  6
CONTINUOUS
  0
LAYER
  2
0
 70
0
 62
7
  6
CONTINUOUS
  0
ENDTAB
  0
TABLE
  2
STYLE
 70
4
  0
STYLE
  2
STANDARD
 70
0
 40
0
 41
1
 50
0
 71
0
 42
3.5
  3
txt
  4

  0
STYLE
  2
SIMPLEX
 70
0
 40
0
 41
1
 50
0
 71
0
 42
3.5
  3
simplex
  4

  0
STYLE
  2
COMPLEX
 70
0
 40
0
 41
1
 50
0
 71
0
 42
3.5
  3
complex
  4

  0
STYLE
  2
ITALIC
 70
0
 40
0
 41
1
 50
0
 71
0
 42
3.5
  3
italic
  4

  0
ENDTAB
  0
TABLE
  2
VIEW
 70
0
  0
ENDTAB
  0
ENDSEC
  0
SECTION
  2
BLOCKS
  0
BLOCK
  8
1
  2
*X0
 70
1
 10
0
 20
0
 30
0
  0
LINE
  8
1
 62
2
 10
542.928360071272
 20
-1212.667604367003
 30
0
 11
542.9547454816948
 21
-1212.64121895658
 31
0
  0
LINE
  8
1
 62
2
 10
542.928360071272
 20
-1212.80902572324
 30
0
 11
543.0961668379321
 21
-1212.64121895658
 31
0
  0
LINE
  8
1
 62
2
 10
542.928360071272
 20
-1212.950447079477
 30
0
 11
543.2375881941694
 21
-1212.64121895658
 31
0
  0
LINE
  8
1
 62
2
 10
542.928360071272
 20
-1213.091868435714
 30
0
 11
543.3790095504066
 21
-1212.64121895658
 31
0
  0
LINE
  8
1
 62
2
 10
542.928360071272
 20
-1213.233289791952
 30
0
 11
543.5204309066439
 21
-1212.64121895658
 31
0
  0
LINE
  8
1
 62
2
 10
542.928360071272
 20
-1213.374711148189
 30
0
 11
543.6618522628812
 21
-1212.64121895658
 31
0
  0
LINE
  8
1
 62
2
 10
542.928360071272
 20
-1213.516132504426
 30
0
 11
543.8032736191185
 21
-1212.64121895658
 31
0
  0
LINE
  8
1
 62
2
 10
542.944694975356
 20
-1213.64121895658
 30
0
 11
543.9446949753558
 21
-1212.64121895658
 31
0
  0
LINE
  8
1
 62
2
 10
543.0861163315933
 20
-1213.64121895658
 30
0
 11
544.0861163315931
 21
-1212.64121895658
 31
0
  0
LINE
  8
1
 62
2
 10
543.2275376878306
 20
-1213.64121895658
 30
0
 11
544.2275376878304
 21
-1212.64121895658
 31
0
  0
LINE
  8
1
 62
2
 10
543.3689590440679
 20
-1213.64121895658
 30
0
 11
544.3689590440677
 21
-1212.64121895658
 31
0
  0
LINE
  8
1
 62
2
 10
543.5103804003052
 20
-1213.64121895658
 30
0
 11
544.5103804003049
 21
-1212.64121895658
 31
0
  0
LINE
  8
1
 62
2
 10
543.6518017565425
 20
-1213.64121895658
 30
0
 11
544.6518017565422
 21
-1212.64121895658
 31
0
  0
LINE
  8
1
 62
2
 10
543.7932231127797
 20
-1213.64121895658
 30
0
 11
544.7932231127795
 21
-1212.64121895658
 31
0
  0
LINE
  8
1
 62
2
 10
543.934644469017
 20
-1213.64121895658
 30
0
 11
544.9346444690168
 21
-1212.64121895658
 31
0
  0
LINE
  8
1
 62
2
 10
544.0760658252543
 20
-1213.64121895658
 30
0
 11
545.0760658252541
 21
-1212.64121895658
 31
0
  0
LINE
  8
1
 62
2
 10
544.2174871814916
 20
-1213.64121895658
 30
0
 11
545.2174871814914
 21
-1212.64121895658
 31
0
  0
LINE
  8
1
 62
2
 10
546.428360071272
 20
-1211.571767423037
 30
0
 11
546.449642189706
 21
-1211.550485304607
 31
0
  0
LINE
  8
1
 62
2
 10
544.3589085377289
 20
-1213.64121895658
 30
0
 11
545.3589085377287
 21
-1212.64121895658
 31
0
  0
LINE
  8
1
 62
2
 10
546.428360071272
 20
-1211.713188779274
 30
0
 11
546.5392997369245
 21
-1211.602249113626
 31
0
  0
LINE
  8
1
 62
2
 10
544.5003298939662
 20
-1213.64121895658
 30
0
 11
545.500329893966
 21
-1212.64121895658
 31
0
  0
LINE
  8
1
 62
2
 10
546.428360071272
 20
-1211.854610135511
 30
0
 11
546.628957284143
 21
-1211.654012922644
 31
0
  0
LINE
  8
1
 62
2
 10
544.6417512502035
 20
-1213.64121895658
 30
0
 11
545.6417512502032
 21
-1212.64121895658
 31
0
  0
LINE
  8
1
 62
2
 10
546.428360071272
 20
-1211.996031491749
 30
0
 11
546.7186148313615
 21
-1211.705776731663
 31
0
  0
LINE
  8
1
 62
2
 10
544.7831726064408
 20
-1213.64121895658
 30
0
 11
545.7831726064405
 21
-1212.64121895658
 31
0
  0
LINE
  8
1
 62
2
 10
546.428360071272
 20
-1212.137452847986
 30
0
 11
546.80827237858
 21
-1211.757540540682
 31
0
  0
LINE
  8
1
 62
2
 10
544.9245939626781
 20
-1213.64121895658
 30
0
 11
545.9245939626778
 21
-1212.64121895658
 31
0
  0
LINE
  8
1
 62
2
 10
546.428360071272
 20
-1212.278874204223
 30
0
 11
546.8979299257985
 21
-1211.8093043497
 31
0
  0
LINE
  8
1
 62
2
 10
545.0660153189153
 20
-1213.64121895658
 30
0
 11
546.0660153189151
 21
-1212.64121895658
 31
0
  0
LINE
  8
1
 62
2
 10
546.428360071272
 20
-1212.420295560461
 30
0
 11
546.987587473017
 21
-1211.861068158719
 31
0
  0
LINE
  8
1
 62
2
 10
545.2074366751526
 20
-1213.64121895658
 30
0
 11
546.2074366751524
 21
-1212.64121895658
 31
0
  0
LINE
  8
1
 62
2
 10
546.428360071272
 20
-1212.561716916698
 30
0
 11
547.0772450202355
 21
-1211.912831967738
 31
0
  0
LINE
  8
1
 62
2
 10
545.3488580313899
 20
-1213.64121895658
 30
0
 11
546.3488580313897
 21
-1212.64121895658
 31
0
  0
LINE
  8
1
 62
2
 10
545.4902793876272
 20
-1213.64121895658
 30
0
 11
547.166902567454
 21
-1211.964595776756
 31
0
  0
LINE
  8
1
 62
2
 10
545.6317007438645
 20
-1213.64121895658
 30
0
 11
547.2565601146725
 21
-1212.016359585775
 31
0
  0
LINE
  8
1
 62
2
 10
545.7731221001018
 20
-1213.64121895658
 30
0
 11
547.3462176618911
 21
-1212.068123394794
 31
0
  0
LINE
  8
1
 62
2
 10
545.9145434563391
 20
-1213.64121895658
 30
0
 11
547.4358752091096
 21
-1212.119887203812
 31
0
  0
LINE
  8
1
 62
2
 10
546.0559648125764
 20
-1213.64121895658
 30
0
 11
547.5255327563281
 21
-1212.171651012831
 31
0
  0
LINE
  8
1
 62
2
 10
546.1973861688136
 20
-1213.64121895658
 30
0
 11
547.6151903035466
 21
-1212.22341482185
 31
0
  0
LINE
  8
1
 62
2
 10
546.3388075250509
 20
-1213.64121895658
 30
0
 11
547.7048478507651
 21
-1212.275178630868
 31
0
  0
LINE
  8
1
 62
2
 10
546.428360071272
 20
-1213.693087766597
 30
0
 11
547.7945053979836
 21
-1212.326942439887
 31
0
  0
LINE
  8
1
 62
2
 10
546.428360071272
 20
-1213.834509122834
 30
0
 11
547.8841629452021
 21
-1212.378706248906
 31
0
  0
LINE
  8
1
 62
2
 10
546.428360071272
 20
-1213.975930479071
 30
0
 11
547.9738204924206
 21
-1212.430470057924
 31
0
  0
LINE
  8
1
 62
2
 10
546.428360071272
 20
-1214.117351835309
 30
0
 11
548.0634780396391
 21
-1212.482233866943
 31
0
  0
LINE
  8
1
 62
2
 10
546.428360071272
 20
-1214.258773191546
 30
0
 11
548.1531355868576
 21
-1212.533997675962
 31
0
  0
LINE
  8
1
 62
2
 10
546.428360071272
 20
-1214.400194547783
 30
0
 11
548.2427931340761
 21
-1212.58576148498
 31
0
  0
LINE
  8
1
 62
2
 10
546.428360071272
 20
-1214.54161590402
 30
0
 11
548.3324506812946
 21
-1212.637525293999
 31
0
  0
LINE
  8
1
 62
2
 10
546.428360071272
 20
-1214.683037260258
 30
0
 11
548.4221082285131
 21
-1212.689289103018
 31
0
  0
LINE
  8
1
 62
2
 10
546.618159721363
 20
-1214.634658966404
 30
0
 11
548.5117657757317
 21
-1212.741052912036
 31
0
  0
LINE
  8
1
 62
2
 10
546.9527662428671
 20
-1214.441473801137
 30
0
 11
548.6014233229502
 21
-1212.792816721055
 31
0
  0
LINE
  8
1
 62
2
 10
547.2873727643713
 20
-1214.24828863587
 30
0
 11
548.6910808701687
 21
-1212.844580530074
 31
0
  0
LINE
  8
1
 62
2
 10
547.6219792858755
 20
-1214.055103470603
 30
0
 11
548.7807384173872
 21
-1212.896344339092
 31
0
  0
LINE
  8
1
 62
2
 10
547.9565858073796
 20
-1213.861918305337
 30
0
 11
548.8703959646057
 21
-1212.948108148111
 31
0
  0
LINE
  8
1
 62
2
 10
548.2911923288838
 20
-1213.66873314007
 30
0
 11
548.9600535118242
 21
-1212.99987195713
 31
0
  0
LINE
  8
1
 62
2
 10
548.6257988503879
 20
-1213.475547974803
 30
0
 11
549.0497110590427
 21
-1213.051635766148
 31
0
  0
LINE
  8
1
 62
2
 10
548.9604053718921
 20
-1213.282362809536
 30
0
 11
549.1393686062612
 21
-1213.103399575167
 31
0
  0
ENDBLK
  8
0
  0
BLOCK
  8
1
  2
*X1
 70
1
 10
0
 20
0
 30
0
  0
LINE
  8
1
 62
2
 10
579.0370364068031
 20
-1185.892737543134
 30
0
 11
579.1364238598752
 21
-1185.793350090062
 31
0
  0
LINE
  8
1
 62
2
 10
579.0370364068031
 20
-1186.034158899371
 30
0
 11
579.2778452161125
 21
-1185.793350090062
 31
0
  0
LINE
  8
1
 62
2
 10
579.0370364068031
 20
-1186.175580255608
 30
0
 11
579.4192665723498
 21
-1185.793350090062
 31
0
  0
LINE
  8
1
 62
2
 10
579.0370364068031
 20
-1186.317001611845
 30
0
 11
579.5606879285871
 21
-1185.793350090062
 31
0
  0
LINE
  8
1
 62
2
 10
579.0370364068031
 20
-1186.458422968083
 30
0
 11
579.7021092848244
 21
-1185.793350090062
 31
0
  0
LINE
  8
1
 62
2
 10
579.0370364068031
 20
-1186.59984432432
 30
0
 11
579.8435306410617
 21
-1185.793350090062
 31
0
  0
LINE
  8
1
 62
2
 10
579.0370364068031
 20
-1186.741265680557
 30
0
 11
579.9849519972989
 21
-1185.793350090062
 31
0
  0
LINE
  8
1
 62
2
 10
579.1263733535365
 20
-1186.793350090062
 30
0
 11
580.1263733535362
 21
-1185.793350090062
 31
0
  0
LINE
  8
1
 62
2
 10
579.2677947097737
 20
-1186.793350090062
 30
0
 11
580.2677947097735
 21
-1185.793350090062
 31
0
  0
LINE
  8
1
 62
2
 10
579.409216066011
 20
-1186.793350090062
 30
0
 11
580.4092160660108
 21
-1185.793350090062
 31
0
  0
LINE
  8
1
 62
2
 10
579.5506374222483
 20
-1186.793350090062
 30
0
 11
580.5506374222481
 21
-1185.793350090062
 31
0
  0
LINE
  8
1
 62
2
 10
579.6920587784856
 20
-1186.793350090062
 30
0
 11
580.6920587784854
 21
-1185.793350090062
 31
0
  0
LINE
  8
1
 62
2
 10
579.8334801347229
 20
-1186.793350090062
 30
0
 11
580.8334801347227
 21
-1185.793350090062
 31
0
  0
LINE
  8
1
 62
2
 10
579.9749014909602
 20
-1186.793350090062
 30
0
 11
580.97490149096
 21
-1185.793350090062
 31
0
  0
LINE
  8
1
 62
2
 10
580.1163228471975
 20
-1186.793350090062
 30
0
 11
581.1163228471972
 21
-1185.793350090062
 31
0
  0
LINE
  8
1
 62
2
 10
580.2577442034348
 20
-1186.793350090062
 30
0
 11
581.2577442034345
 21
-1185.793350090062
 31
0
  0
LINE
  8
1
 62
2
 10
580.399165559672
 20
-1186.793350090062
 30
0
 11
581.3991655596718
 21
-1185.793350090062
 31
0
  0
LINE
  8
1
 62
2
 10
582.5370364068031
 20
-1184.796900599168
 30
0
 11
582.6045999658214
 21
-1184.72933704015
 31
0
  0
LINE
  8
1
 62
2
 10
580.5405869159093
 20
-1186.793350090062
 30
0
 11
581.5405869159091
 21
-1185.793350090062
 31
0
  0
LINE
  8
1
 62
2
 10
582.5370364068031
 20
-1184.938321955405
 30
0
 11
582.6942575130375
 21
-1184.781100849171
 31
0
  0
LINE
  8
1
 62
2
 10
580.6820082721466
 20
-1186.793350090062
 30
0
 11
581.6820082721464
 21
-1185.793350090062
 31
0
  0
LINE
  8
1
 62
2
 10
582.5370364068031
 20
-1185.079743311643
 30
0
 11
582.7839150602537
 21
-1184.832864658192
 31
0
  0
LINE
  8
1
 62
2
 10
580.8234296283839
 20
-1186.793350090062
 30
0
 11
581.8234296283837
 21
-1185.793350090062
 31
0
  0
LINE
  8
1
 62
2
 10
582.5370364068031
 20
-1185.22116466788
 30
0
 11
582.8735726074698
 21
-1184.884628467213
 31
0
  0
LINE
  8
1
 62
2
 10
580.9648509846212
 20
-1186.793350090062
 30
0
 11
581.964850984621
 21
-1185.793350090062
 31
0
  0
LINE
  8
1
 62
2
 10
582.5370364068031
 20
-1185.362586024117
 30
0
 11
582.9632301546859
 21
-1184.936392276235
 31
0
  0
LINE
  8
1
 62
2
 10
581.1062723408585
 20
-1186.793350090062
 30
0
 11
582.1062723408583
 21
-1185.793350090062
 31
0
  0
LINE
  8
1
 62
2
 10
582.5370364068031
 20
-1185.504007380354
 30
0
 11
583.052887701902
 21
-1184.988156085256
 31
0
  0
LINE
  8
1
 62
2
 10
581.2476936970958
 20
-1186.793350090062
 30
0
 11
582.2476936970955
 21
-1185.793350090062
 31
0
  0
LINE
  8
1
 62
2
 10
582.5370364068031
 20
-1185.645428736592
 30
0
 11
583.1425452491181
 21
-1185.039919894277
 31
0
  0
LINE
  8
1
 62
2
 10
581.3891150533331
 20
-1186.793350090062
 30
0
 11
582.3891150533328
 21
-1185.793350090062
 31
0
  0
LINE
  8
1
 62
2
 10
582.5370364068031
 20
-1185.786850092829
 30
0
 11
583.2322027963343
 21
-1185.091683703298
 31
0
  0
LINE
  8
1
 62
2
 10
581.5305364095704
 20
-1186.793350090062
 30
0
 11
582.5305364095701
 21
-1185.793350090062
 31
0
  0
LINE
  8
1
 62
2
 10
581.6719577658076
 20
-1186.793350090062
 30
0
 11
583.3218603435504
 21
-1185.143447512319
 31
0
  0
LINE
  8
1
 62
2
 10
581.8133791220449
 20
-1186.793350090062
 30
0
 11
583.4115178907665
 21
-1185.19521132134
 31
0
  0
LINE
  8
1
 62
2
 10
581.9548004782822
 20
-1186.793350090062
 30
0
 11
583.5011754379826
 21
-1185.246975130362
 31
0
  0
LINE
  8
1
 62
2
 10
582.0962218345195
 20
-1186.793350090062
 30
0
 11
583.5908329851987
 21
-1185.298738939383
 31
0
  0
LINE
  8
1
 62
2
 10
582.2376431907568
 20
-1186.793350090062
 30
0
 11
583.6804905324149
 21
-1185.350502748404
 31
0
  0
LINE
  8
1
 62
2
 10
582.3790645469941
 20
-1186.793350090062
 30
0
 11
583.770148079631
 21
-1185.402266557425
 31
0
  0
LINE
  8
1
 62
2
 10
582.5204859032314
 20
-1186.793350090062
 30
0
 11
583.8598056268471
 21
-1185.454030366446
 31
0
  0
LINE
  8
1
 62
2
 10
582.5370364068028
 20
-1186.918220942728
 30
0
 11
583.9494631740632
 21
-1185.505794175467
 31
0
  0
LINE
  8
1
 62
2
 10
582.5370364068028
 20
-1187.059642298965
 30
0
 11
584.0391207212794
 21
-1185.557557984489
 31
0
  0
LINE
  8
1
 62
2
 10
582.5370364068028
 20
-1187.201063655203
 30
0
 11
584.1287782684955
 21
-1185.60932179351
 31
0
  0
LINE
  8
1
 62
2
 10
582.5370364068028
 20
-1187.34248501144
 30
0
 11
584.2184358157116
 21
-1185.661085602531
 31
0
  0
LINE
  8
1
 62
2
 10
582.5370364068028
 20
-1187.483906367677
 30
0
 11
584.3080933629277
 21
-1185.712849411552
 31
0
  0
LINE
  8
1
 62
2
 10
582.5370364068028
 20
-1187.625327723914
 30
0
 11
584.3977509101438
 21
-1185.764613220573
 31
0
  0
LINE
  8
1
 62
2
 10
582.5370364068028
 20
-1187.766749080152
 30
0
 11
584.48740845736
 21
-1185.816377029594
 31
0
  0
LINE
  8
1
 62
2
 10
582.5649542228304
 20
-1187.880252620361
 30
0
 11
584.5770660045761
 21
-1185.868140838616
 31
0
  0
LINE
  8
1
 62
2
 10
582.8995607443345
 20
-1187.687067455094
 30
0
 11
584.6667235517922
 21
-1185.919904647637
 31
0
  0
LINE
  8
1
 62
2
 10
583.2341672658387
 20
-1187.493882289828
 30
0
 11
584.7563810990083
 21
-1185.971668456658
 31
0
  0
LINE
  8
1
 62
2
 10
583.5687737873428
 20
-1187.300697124561
 30
0
 11
584.8460386462244
 21
-1186.023432265679
 31
0
  0
LINE
  8
1
 62
2
 10
583.903380308847
 20
-1187.107511959294
 30
0
 11
584.9356961934406
 21
-1186.0751960747
 31
0
  0
LINE
  8
1
 62
2
 10
584.2379868303511
 20
-1186.914326794027
 30
0
 11
585.0253537406567
 21
-1186.126959883721
 31
0
  0
LINE
  8
1
 62
2
 10
584.5725933518553
 20
-1186.72114162876
 30
0
 11
585.1150112878728
 21
-1186.178723692743
 31
0
  0
LINE
  8
1
 62
2
 10
584.9071998733595
 20
-1186.527956463493
 30
0
 11
585.2046688350889
 21
-1186.230487501764
 31
0
  0
LINE
  8
1
 62
2
 10
585.2418063948636
 20
-1186.334771298226
 30
0
 11
585.294326382305
 21
-1186.282251310785
 31
0
  0
ENDBLK
  8
0
  0
BLOCK
  8
1
  2
*D0
 70
1
 10
0
 20
0
 30
0
  0
LINE
  8
1
 62
2
 10
630.5540794292941
 20
-1130
 30
0
 11
620.9540794292941
 21
-1130
 31
0
  0
LINE
  8
1
 62
2
 10
615.9540794292931
 20
-1130
 30
0
 11
620.9540794292941
 21
-1130
 31
0
  0
LINE
  8
1
 62
2
 10
615.9540794292931
 20
-1130
 30
0
 11
604.1563884362079
 21
-1130
 31
0
  0
LINE
  8
1
 62
2
 10
615.9540794292931
 20
-1139.84278788773
 30
0
 11
615.9540794292931
 21
-1128.5
 31
0
  0
LINE
  8
1
 62
2
 10
620.9540794292941
 20
-1140.34278788773
 30
0
 11
620.9540794292941
 21
-1128.5
 31
0
  0
SOLID
  8
1
 62
2
 10
615.9540794292931
 20
-1130
 30
0
 11
611.1540794292931
 21
-1130.624
 31
0
 12
611.1540794292931
 22
-1129.376
 32
0
 13
611.1540794292931
 23
-1129.376
 33
0
  0
SOLID
  8
1
 62
2
 10
620.9540794292941
 20
-1130
 30
0
 11
625.7540794292941
 21
-1129.376
 31
0
 12
625.7540794292941
 22
-1130.624
 32
0
 13
625.7540794292941
 23
-1130.624
 33
0
  0
TEXT
  8
1
 62
2
 10
604.1563884362079
 20
-1128
 30
0
 40
3.2
  1
5
 41
0.9
  0
ENDBLK
  8
0
  0
BLOCK
  8
1
  2
*D1
 70
1
 10
0
 20
0
 30
0
  0
LINE
  8
1
 62
2
 10
488.0461233689756
 20
-1130.04033289518
 30
0
 11
514.046123368975
 21
-1130.04033289518
 31
0
  0
LINE
  8
1
 62
2
 10
488.0461233689756
 20
-1131.570410272684
 30
0
 11
488.0461233689756
 21
-1128.54033289518
 31
0
  0
LINE
  8
1
 62
2
 10
514.046123368975
 20
-1140.917787887726
 30
0
 11
514.046123368975
 21
-1128.54033289518
 31
0
  0
SOLID
  8
1
 62
2
 10
488.0461233689756
 20
-1130.04033289518
 30
0
 11
491.2461233689756
 21
-1129.62433289518
 31
0
 12
491.2461233689756
 22
-1130.45633289518
 32
0
 13
491.2461233689756
 23
-1130.45633289518
 33
0
  0
SOLID
  8
1
 62
2
 10
514.046123368975
 20
-1130.04033289518
 30
0
 11
510.846123368975
 21
-1130.45633289518
 31
0
 12
510.846123368975
 22
-1129.62433289518
 32
0
 13
510.846123368975
 23
-1129.62433289518
 33
0
  0
TEXT
  8
1
 62
2
 10
495.659703117145
 20
-1128.04033289518
 30
0
 40
3.2
  1
26
 41
0.9
  0
TEXT
  8
1
 62
2
 10
502.059703117145
 20
-1127.40033289518
 30
0
 40
1.92
  1
%%p0.3
 41
0.9
  0
ENDBLK
  8
0
  0
BLOCK
  8
1
  2
*D2
 70
1
 10
0
 20
0
 30
0
  0
LINE
  8
1
 62
2
 10
545.493774344389
 20
-1183.842787887726
 30
0
 11
545.493774344389
 21
-1151.842787887728
 31
0
  0
LINE
  8
1
 62
2
 10
543.7348316132529
 20
-1183.842787887726
 30
0
 11
546.993774344389
 21
-1183.842787887726
 31
0
  0
LINE
  8
1
 62
2
 10
524.4852668916363
 20
-1151.842787887728
 30
0
 11
546.993774344389
 21
-1151.842787887728
 31
0
  0
SOLID
  8
1
 62
2
 10
545.493774344389
 20
-1183.842787887726
 30
0
 11
545.0777743443889
 21
-1180.642787887726
 31
0
 12
545.909774344389
 22
-1180.642787887726
 32
0
 13
545.909774344389
 23
-1180.642787887726
 33
0
  0
SOLID
  8
1
 62
2
 10
545.493774344389
 20
-1151.842787887728
 30
0
 11
545.909774344389
 21
-1155.042787887728
 31
0
 12
545.0777743443889
 22
-1155.042787887728
 32
0
 13
545.0777743443889
 23
-1155.042787887728
 33
0
  0
TEXT
  8
1
 62
2
 10
543.493774344389
 20
-1174.05505703409
 30
0
 40
3.2
  1
32
 50
90
 41
0.9
  0
TEXT
  8
1
 62
2
 10
542.853774344389
 20
-1167.65505703409
 30
0
 40
1.92
  1
%%p0.3
 50
90
 41
0.9
  0
ENDBLK
  8
0
  0
BLOCK
  8
1
  2
*D3
 70
1
 10
0
 20
0
 30
0
  0
LINE
  8
1
 62
2
 10
559.89135432926
 20
-1183.842787887726
 30
0
 11
559.89135432926
 21
-1144.842787887728
 31
0
  0
LINE
  8
1
 62
2
 10
543.7348316132529
 20
-1183.842787887726
 30
0
 11
561.39135432926
 21
-1183.842787887726
 31
0
  0
LINE
  8
1
 62
2
 10
517.971123368975
 20
-1144.842787887728
 30
0
 11
561.39135432926
 21
-1144.842787887728
 31
0
  0
SOLID
  8
1
 62
2
 10
559.89135432926
 20
-1183.842787887726
 30
0
 11
559.47535432926
 21
-1180.642787887726
 31
0
 12
560.3073543292601
 22
-1180.642787887726
 32
0
 13
560.3073543292601
 23
-1180.642787887726
 33
0
  0
SOLID
  8
1
 62
2
 10
559.89135432926
 20
-1144.842787887728
 30
0
 11
560.3073543292601
 21
-1148.042787887728
 31
0
 12
559.47535432926
 22
-1148.042787887728
 32
0
 13
559.47535432926
 23
-1148.042787887728
 33
0
  0
TEXT
  8
1
 62
2
 10
557.89135432926
 20
-1172.27558085618
 30
0
 40
3.2
  1
39
 50
90
 41
0.9
  0
TEXT
  8
1
 62
2
 10
557.25135432926
 20
-1165.87558085618
 30
0
 40
1.92
  1
%%p0.3
 50
90
 41
0.9
  0
ENDBLK
  8
0
  0
BLOCK
  8
1
  2
*D4
 70
1
 10
0
 20
0
 30
0
  0
LINE
  8
1
 62
2
 10
488.0461233689753
 20
-1260
 30
0
 11
538.046123368975
 21
-1260
 31
0
  0
LINE
  8
1
 62
2
 10
488.0461233689753
 20
-1246.194183296538
 30
0
 11
488.0461233689753
 21
-1261.5
 31
0
  0
LINE
  8
1
 62
2
 10
538.046123368975
 20
-1236.842787887726
 30
0
 11
538.046123368975
 21
-1261.5
 31
0
  0
SOLID
  8
1
 62
2
 10
488.0461233689753
 20
-1260
 30
0
 11
491.2461233689753
 21
-1259.584
 31
0
 12
491.2461233689753
 22
-1260.416
 32
0
 13
491.2461233689753
 23
-1260.416
 33
0
  0
SOLID
  8
1
 62
2
 10
538.046123368975
 20
-1260
 30
0
 11
534.846123368975
 21
-1260.416
 31
0
 12
534.846123368975
 22
-1259.584
 32
0
 13
534.846123368975
 23
-1259.584
 33
0
  0
TEXT
  8
1
 62
2
 10
507.7163884362079
 20
-1258
 30
0
 40
3.2
  1
50
 41
0.9
  0
ENDBLK
  8
0
  0
BLOCK
  8
1
  2
*D5
 70
1
 10
0
 20
0
 30
0
  0
LINE
  8
1
 62
2
 10
456.546123368975
 20
-1245
 30
0
 11
488.0461233689754
 21
-1245
 31
0
  0
LINE
  8
1
 62
2
 10
456.546123368975
 20
-1232.767787887726
 30
0
 11
456.546123368975
 21
-1246.5
 31
0
  0
LINE
  8
1
 62
2
 10
488.0461233689754
 20
-1244.194183296538
 30
0
 11
488.0461233689754
 21
-1243.5
 31
0
  0
SOLID
  8
1
 62
2
 10
488.0461233689754
 20
-1245
 30
0
 11
484.8461233689754
 21
-1245.416
 31
0
 12
484.8461233689754
 22
-1244.584
 32
0
 13
484.8461233689754
 23
-1244.584
 33
0
  0
SOLID
  8
1
 62
2
 10
456.546123368975
 20
-1245
 30
0
 11
459.746123368975
 21
-1244.584
 31
0
 12
459.746123368975
 22
-1245.416
 32
0
 13
459.746123368975
 23
-1245.416
 33
0
  0
TEXT
  8
1
 62
2
 10
465.000383481211
 20
-1242.9432384831
 30
0
 40
3.2
  1
31.5
 41
0.9
  0
TEXT
  8
1
 62
2
 10
474.520383481211
 20
-1242.3032384831
 30
0
 40
1.92
  1
%%p0.3
 41
0.9
  0
ENDBLK
  8
0
  0
BLOCK
  8
1
  2
*D6
 70
1
 10
0
 20
0
 30
0
  0
LINE
  8
1
 62
2
 10
449.0461233689756
 20
-1260
 30
0
 11
488.0461233689754
 21
-1260
 31
0
  0
LINE
  8
1
 62
2
 10
449.0461233689756
 20
-1226.777321794656
 30
0
 11
449.0461233689756
 21
-1261.5
 31
0
  0
LINE
  8
1
 62
2
 10
488.0461233689754
 20
-1246.194183296538
 30
0
 11
488.0461233689754
 21
-1261.5
 31
0
  0
SOLID
  8
1
 62
2
 10
488.0461233689754
 20
-1260
 30
0
 11
484.8461233689754
 21
-1260.416
 31
0
 12
484.8461233689754
 22
-1259.584
 32
0
 13
484.8461233689754
 23
-1259.584
 33
0
  0
SOLID
  8
1
 62
2
 10
449.0461233689756
 20
-1260
 30
0
 11
452.2461233689756
 21
-1259.584
 31
0
 12
452.2461233689756
 22
-1260.416
 32
0
 13
452.2461233689756
 23
-1260.416
 33
0
  0
TEXT
  8
1
 62
2
 10
459.444388436208
 20
-1258
 30
0
 40
3.2
  1
39
 41
0.9
  0
TEXT
  8
1
 62
2
 10
465.844388436208
 20
-1257.36
 30
0
 40
1.92
  1
%%p0.3
 41
0.9
  0
ENDBLK
  8
0
  0
BLOCK
  8
1
  2
*D7
 70
1
 10
0
 20
0
 30
0
  0
LINE
  8
1
 62
2
 10
440.9461233689752
 20
-1274.68554669949
 30
0
 11
538.0461233689753
 21
-1274.68554669949
 31
0
  0
LINE
  8
1
 62
2
 10
440.9461233689752
 20
-1185.742787887728
 30
0
 11
440.9461233689752
 21
-1276.18554669949
 31
0
  0
LINE
  8
1
 62
2
 10
538.0461233689753
 20
-1236.842787887726
 30
0
 11
538.0461233689753
 21
-1276.18554669949
 31
0
  0
SOLID
  8
1
 62
2
 10
538.0461233689753
 20
-1274.68554669949
 30
0
 11
534.8461233689752
 21
-1275.10154669949
 31
0
 12
534.8461233689752
 22
-1274.26954669949
 32
0
 13
534.8461233689752
 23
-1274.26954669949
 33
0
  0
SOLID
  8
1
 62
2
 10
440.9461233689752
 20
-1274.68554669949
 30
0
 11
444.1461233689752
 21
-1274.26954669949
 31
0
 12
444.1461233689752
 22
-1275.10154669949
 32
0
 13
444.1461233689752
 23
-1275.10154669949
 33
0
  0
TEXT
  8
1
 62
2
 10
484.546605348736
 20
-1272.68554669949
 30
0
 40
3.2
  1
97.1
 41
0.9
  0
ENDBLK
  8
0
  0
BLOCK
  8
1
  2
*D8
 70
1
 10
0
 20
0
 30
0
  0
LINE
  8
1
 62
2
 10
413.564898336958
 20
-1222.842787887726
 30
0
 11
413.564898336958
 21
-1183.842787887726
 31
0
  0
LINE
  8
1
 62
2
 10
433.3789068303034
 20
-1183.842787887726
 30
0
 11
412.064898336958
 21
-1183.842787887726
 31
0
  0
LINE
  8
1
 62
2
 10
445.0007801876824
 20
-1222.842787887726
 30
0
 11
412.064898336958
 21
-1222.842787887726
 31
0
  0
SOLID
  8
1
 62
2
 10
413.564898336958
 20
-1222.842787887726
 30
0
 11
413.148898336958
 21
-1219.642787887726
 31
0
 12
413.980898336958
 22
-1219.642787887726
 32
0
 13
413.980898336958
 23
-1219.642787887726
 33
0
  0
SOLID
  8
1
 62
2
 10
413.564898336958
 20
-1183.842787887726
 30
0
 11
413.980898336958
 21
-1187.042787887726
 31
0
 12
413.148898336958
 22
-1187.042787887726
 32
0
 13
413.148898336958
 23
-1187.042787887726
 33
0
  0
TEXT
  8
1
 62
2
 10
411.564898336958
 20
-1211.28453103586
 30
0
 40
3.2
  1
39
 50
90
 41
0.9
  0
TEXT
  8
1
 62
2
 10
410.924898336958
 20
-1204.88453103586
 30
0
 40
1.92
  1
%%p0.3
 50
90
 41
0.9
  0
ENDBLK
  8
0
  0
BLOCK
  8
1
  2
*D9
 70
1
 10
0
 20
0
 30
0
  0
LINE
  8
1
 62
2
 10
400.116388436208
 20
-1228.842787887724
 30
0
 11
400.116388436208
 21
-1183.842787887726
 31
0
  0
LINE
  8
1
 62
2
 10
452.6211233689748
 20
-1228.842787887724
 30
0
 11
398.616388436208
 21
-1228.842787887724
 31
0
  0
LINE
  8
1
 62
2
 10
433.3789068303034
 20
-1183.842787887726
 30
0
 11
398.616388436208
 21
-1183.842787887726
 31
0
  0
SOLID
  8
1
 62
2
 10
400.116388436208
 20
-1183.842787887726
 30
0
 11
400.532388436208
 21
-1187.042787887726
 31
0
 12
399.700388436208
 22
-1187.042787887726
 32
0
 13
399.700388436208
 23
-1187.042787887726
 33
0
  0
SOLID
  8
1
 62
2
 10
400.116388436208
 20
-1228.842787887724
 30
0
 11
399.700388436208
 21
-1225.642787887724
 31
0
 12
400.532388436208
 22
-1225.642787887724
 32
0
 13
400.532388436208
 23
-1225.642787887724
 33
0
  0
TEXT
  8
1
 62
2
 10
398.116388436208
 20
-1210.672
 30
0
 40
3.2
  1
45
 50
90
 41
0.9
  0
TEXT
  8
1
 62
2
 10
397.476388436208
 20
-1204.272
 30
0
 40
1.92
  1
%%p0.3
 50
90
 41
0.9
  0
ENDBLK
  8
0
  0
BLOCK
  8
1
  2
*D10
 70
1
 10
0
 20
0
 30
0
  0
LINE
  8
1
 62
2
 10
385.035550849002
 20
-1235.842787887726
 30
0
 11
385.035550849002
 21
-1140.843880985626
 31
0
  0
LINE
  8
1
 62
2
 10
486.9822649650646
 20
-1235.842787887726
 30
0
 11
383.535550849002
 21
-1235.842787887726
 31
0
  0
LINE
  8
1
 62
2
 10
484.1559181407541
 20
-1140.843880985626
 30
0
 11
383.535550849002
 21
-1140.843880985626
 31
0
  0
SOLID
  8
1
 62
2
 10
385.035550849002
 20
-1140.843880985626
 30
0
 11
385.451550849002
 21
-1144.043880985626
 31
0
 12
384.619550849002
 22
-1144.043880985626
 32
0
 13
384.619550849002
 23
-1144.043880985626
 33
0
  0
SOLID
  8
1
 62
2
 10
385.035550849002
 20
-1235.842787887726
 30
0
 11
384.619550849002
 21
-1232.642787887726
 31
0
 12
385.451550849002
 22
-1232.642787887726
 32
0
 13
385.451550849002
 23
-1232.642787887726
 33
0
  0
TEXT
  8
1
 62
2
 10
383.0355508490021
 20
-1189.43441634376
 30
0
 40
3.2
  1
95
 50
90
 41
0.9
  0
ENDBLK
  8
0
  0
BLOCK
  8
1
  2
*D11
 70
1
 10
0
 20
0
 30
0
  0
LINE
  8
1
 62
2
 10
560.116388436208
 20
-1235.842787887726
 30
0
 11
560.116388436208
 21
-1183.842787887726
 31
0
  0
LINE
  8
1
 62
2
 10
539.0461233689752
 20
-1235.842787887726
 30
0
 11
561.616388436208
 21
-1235.842787887726
 31
0
  0
LINE
  8
1
 62
2
 10
543.7348316132529
 20
-1183.842787887726
 30
0
 11
561.616388436208
 21
-1183.842787887726
 31
0
  0
SOLID
  8
1
 62
2
 10
560.116388436208
 20
-1183.842787887726
 30
0
 11
560.5323884362081
 21
-1187.042787887726
 31
0
 12
559.700388436208
 22
-1187.042787887726
 32
0
 13
559.700388436208
 23
-1187.042787887726
 33
0
  0
SOLID
  8
1
 62
2
 10
560.116388436208
 20
-1235.842787887726
 30
0
 11
559.700388436208
 21
-1232.642787887726
 31
0
 12
560.5323884362081
 22
-1232.642787887726
 32
0
 13
560.5323884362081
 23
-1232.642787887726
 33
0
  0
TEXT
  8
1
 62
2
 10
558.116388436208
 20
-1212.4
 30
0
 40
3.2
  1
52
 50
90
 41
0.9
  0
ENDBLK
  8
0
  0
BLOCK
  8
1
  2
*D12
 70
1
 10
0
 20
0
 30
0
  0
LINE
  8
1
 62
2
 10
587.9540794292919
 20
-1245.02664136465
 30
0
 11
620.9540794292919
 21
-1245.02664136465
 31
0
  0
LINE
  8
1
 62
2
 10
587.9540794292919
 20
-1235.342787887728
 30
0
 11
587.9540794292919
 21
-1246.52664136465
 31
0
  0
LINE
  8
1
 62
2
 10
620.9540794292919
 20
-1235.34278788773
 30
0
 11
620.9540794292919
 21
-1246.52664136465
 31
0
  0
SOLID
  8
1
 62
2
 10
620.9540794292919
 20
-1245.02664136465
 30
0
 11
617.7540794292919
 21
-1245.44264136465
 31
0
 12
617.7540794292919
 22
-1244.61064136465
 32
0
 13
617.7540794292919
 23
-1244.61064136465
 33
0
  0
SOLID
  8
1
 62
2
 10
587.9540794292919
 20
-1245.02664136465
 30
0
 11
591.154079429292
 21
-1244.61064136465
 31
0
 12
591.154079429292
 22
-1245.44264136465
 32
0
 13
591.154079429292
 23
-1245.44264136465
 33
0
  0
TEXT
  8
1
 62
2
 10
600.324891279622
 20
-1243.02664136465
 30
0
 40
3.2
  1
33
 41
0.9
  0
ENDBLK
  8
0
  0
BLOCK
  8
1
  2
*D13
 70
1
 10
0
 20
0
 30
0
  0
LINE
  8
1
 62
2
 10
574.9929380451389
 20
-1235.842787887728
 30
0
 11
574.9929380451389
 21
-1177.842787887728
 31
0
  0
LINE
  8
1
 62
2
 10
588.4540794292923
 20
-1235.842787887728
 30
0
 11
573.4929380451389
 21
-1235.842787887728
 31
0
  0
LINE
  8
1
 62
2
 10
588.4540794292923
 20
-1177.842787887728
 30
0
 11
573.4929380451389
 21
-1177.842787887728
 31
0
  0
SOLID
  8
1
 62
2
 10
574.9929380451389
 20
-1235.842787887728
 30
0
 11
574.5769380451388
 21
-1232.642787887728
 31
0
 12
575.4089380451389
 22
-1232.642787887728
 32
0
 13
575.4089380451389
 23
-1232.642787887728
 33
0
  0
SOLID
  8
1
 62
2
 10
574.9929380451389
 20
-1177.842787887728
 30
0
 11
575.4089380451389
 21
-1181.042787887728
 31
0
 12
574.5769380451388
 22
-1181.042787887728
 32
0
 13
574.5769380451388
 23
-1181.042787887728
 33
0
  0
TEXT
  8
1
 62
2
 10
572.9929380451389
 20
-1208.62946065798
 30
0
 40
3.2
  1
58
 50
90
 41
0.9
  0
ENDBLK
  8
0
  0
BLOCK
  8
1
  2
*D14
 70
1
 10
0
 20
0
 30
0
  0
LINE
  8
1
 62
2
 10
422.0061937259068
 20
-1314.59240709857
 30
0
 11
497.4628797967799
 21
-1314.59240709857
 31
0
  0
LINE
  8
1
 62
2
 10
422.0061937259068
 20
-1322.859529552883
 30
0
 11
422.0061937259068
 21
-1313.09240709857
 31
0
  0
LINE
  8
1
 62
2
 10
497.4628797967799
 20
-1325.859529552883
 30
0
 11
497.4628797967799
 21
-1313.09240709857
 31
0
  0
SOLID
  8
1
 62
2
 10
422.0061937259068
 20
-1314.59240709857
 30
0
 11
428.0061937259068
 21
-1313.81240709857
 31
0
 12
428.0061937259068
 22
-1315.37240709857
 32
0
 13
428.0061937259068
 23
-1315.37240709857
 33
0
  0
SOLID
  8
1
 62
2
 10
497.4628797967799
 20
-1314.59240709857
 30
0
 11
491.4628797967799
 21
-1315.37240709857
 31
0
 12
491.4628797967799
 22
-1313.81240709857
 32
0
 13
491.4628797967799
 23
-1313.81240709857
 33
0
  0
TEXT
  8
1
 62
2
 10
449.7719322955319
 20
-1312.59240709857
 30
0
 40
4
  1
320
 41
0.9
  0
TEXT
  8
1
 62
2
 10
461.3719322955319
 20
-1312.59240709857
 30
0
 40
4
  1
%%p10
 41
0.9
  0
ENDBLK
  8
0
  0
BLOCK
  8
1
  2
*D15
 70
1
 10
0
 20
0
 30
0
  0
LINE
  8
1
 62
2
 10
488.0461233689755
 20
-1115
 30
0
 11
520.0461233689755
 21
-1115
 31
0
  0
LINE
  8
1
 62
2
 10
488.0461233689755
 20
-1131.570410272684
 30
0
 11
488.0461233689755
 21
-1113.5
 31
0
  0
LINE
  8
1
 62
2
 10
520.0461233689755
 20
-1147.02562590039
 30
0
 11
520.0461233689755
 21
-1113.5
 31
0
  0
SOLID
  8
1
 62
2
 10
520.0461233689755
 20
-1115
 30
0
 11
516.8461233689754
 21
-1115.416
 31
0
 12
516.8461233689754
 22
-1114.584
 32
0
 13
516.8461233689754
 23
-1114.584
 33
0
  0
SOLID
  8
1
 62
2
 10
488.0461233689755
 20
-1115
 30
0
 11
491.2461233689755
 21
-1114.584
 31
0
 12
491.2461233689755
 22
-1115.416
 32
0
 13
491.2461233689755
 23
-1115.416
 33
0
  0
TEXT
  8
1
 62
2
 10
499.328
 20
-1113
 30
0
 40
3.2
  1
32
 41
0.9
  0
TEXT
  8
1
 62
2
 10
505.728
 20
-1112.36
 30
0
 40
1.92
  1
%%p0.3
 41
0.9
  0
ENDBLK
  8
0
  0
BLOCK
  8
1
  2
*D16
 70
1
 10
0
 20
0
 30
0
  0
LINE
  8
1
 62
2
 10
447.9871626397177
 20
-1224.828008826032
 30
0
 11
437.2269766715021
 21
-1245
 31
0
  0
LINE
  8
1
 62
2
 10
437.2269766715021
 20
-1245
 30
0
 11
398.2058002009139
 21
-1245
 31
0
  0
SOLID
  8
1
 62
2
 10
447.9871626397177
 20
-1224.828008826032
 30
0
 11
446.2786143575242
 21
-1229.356831936666
 31
0
 12
445.1774784770771
 22
-1228.769461718838
 32
0
 13
445.1774784770771
 23
-1228.769461718838
 33
0
  0
TEXT
  8
1
 62
2
 10
407.4858002009139
 20
-1243
 30
0
 40
3.2
  1
4.5
 41
0.9
  0
TEXT
  8
1
 62
2
 10
398.2058002009139
 20
-1243
 30
0
 40
3.2
  1
4-%%c
 41
0.9
  0
TEXT
  8
1
 62
2
 10
415.0858002009139
 20
-1243
 30
0
 40
3.2
  1
üièÐÆ╩îèüj
 41
0.9
  0
ENDBLK
  8
0
  0
BLOCK
  8
1
  2
*D17
 70
1
 10
0
 20
0
 30
0
  0
LINE
  8
1
 62
2
 10
512.707774805612
 20
-1192.077042463445
 30
0
 11
410.8077916219253
 21
-1158.053757163511
 31
0
  0
SOLID
  8
1
 62
2
 10
463.3844719323412
 20
-1175.608533312003
 30
0
 11
468.1350143073839
 21
-1176.536823753042
 31
0
 12
467.7397700877493
 22
-1177.720583022
 32
0
 13
467.7397700877493
 23
-1177.720583022
 33
0
  0
SOLID
  8
1
 62
2
 10
512.707774805612
 20
-1192.077042463445
 30
0
 11
507.9572324305693
 21
-1191.148752022406
 31
0
 12
508.3524766502039
 22
-1189.964992753448
 32
0
 13
508.3524766502039
 23
-1189.964992753448
 33
0
  0
TEXT
  8
1
 62
2
 10
415.0835320322381
 20
-1157.372843113415
 30
0
 40
3.2
  1
52
 50
341.5364014178676
 41
0.9
  0
TEXT
  8
1
 62
2
 10
411.4411958200578
 20
-1156.156707053
 30
0
 40
3.2
  1
%%c
 50
341.5364014178676
 41
0.9
  0
TEXT
  8
1
 62
2
 10
421.1540923858719
 20
-1159.399736547439
 30
0
 40
3.2
  1
(ïzì×ôÓîa)
 50
341.5364014178676
 41
0.9
  0
ENDBLK
  8
0
  0
ENDSEC
  0
SECTION
  2
ENTITIES
  0
INSERT
  8
1
  2
*X0
 10
0
 20
0
 30
0
  0
INSERT
  8
1
  2
*X1
 10
0
 20
0
 30
0
  0
LINE
  8
1
 62
1
 10
613.9860136131069
 20
-1144.842787887728
 30
0
 11
624.1522614561359
 21
-1144.842787887728
 31
0
  0
LINE
  8
30
 62
3
 10
604.1540794292919
 20
-1216.268060388748
 30
0
 11
604.1540794292928
 21
-1234.34278788773
 31
0
  0
LINE
  8
1
 62
3
 10
515.5461233689752
 20
-1235.842787887726
 30
0
 11
515.5461233689752
 21
-1237.342787887726
 31
0
  0
LINE
  8
1
 62
3
 10
520.5461233689752
 20
-1235.842787887726
 30
0
 11
520.5461233689752
 21
-1237.342787887726
 31
0
  0
LINE
  8
30
 62
3
 10
444.7401239933894
 20
-1204.723815983492
 30
0
 11
443.3790159780825
 21
-1205.358511074606
 31
0
  0
LINE
  8
30
 62
3
 10
446.8532153020927
 20
-1209.255354918674
 30
0
 11
445.492107286786
 21
-1209.89005000979
 31
0
  0
LINE
  8
30
 62
3
 10
460.0155022886082
 20
-1146.734890593042
 30
0
 11
460.7666810182136
 21
-1148.035970318282
 31
0
  0
LINE
  8
30
 62
3
 10
464.3456293075302
 20
-1144.234890593042
 30
0
 11
465.0968080371358
 21
-1145.535970318282
 31
0
  0
LINE
  8
30
 62
3
 10
513.0461233689752
 20
-1237.342787887726
 30
0
 11
513.0461233689752
 21
-1235.842787887726
 31
0
  0
LINE
  8
30
 62
3
 10
523.0461233689752
 20
-1237.342787887726
 30
0
 11
523.0461233689752
 21
-1235.842787887726
 31
0
  0
LINE
  8
30
 62
3
 10
513.0461233689752
 20
-1237.342787887726
 30
0
 11
523.0461233689752
 21
-1237.342787887726
 31
0
  0
LINE
  8
30
 62
3
 10
446.7138019724251
 20
-1212.078809219356
 30
0
 11
448.0798851234061
 21
-1211.441794184376
 31
0
  0
LINE
  8
30
 62
3
 10
442.4876193550182
 20
-1203.01573134899
 30
0
 11
443.8537025059994
 21
-1202.37871631401
 31
0
  0
LINE
  8
30
 62
3
 10
457.9540815376955
 20
-1148.164405116686
 30
0
 11
458.7088300967301
 21
-1149.471667967872
 31
0
  0
LINE
  8
30
 62
3
 10
466.6143355755398
 20
-1143.164405116686
 30
0
 11
467.3690841345743
 21
-1144.471667967872
 31
0
  0
LINE
  8
30
 62
3
 10
538.0461233689752
 20
-1178.692787887726
 30
0
 11
538.0461233689752
 21
-1235.842787887726
 31
0
  0
LINE
  8
30
 62
3
 10
538.0461233689752
 20
-1177.842787887726
 30
0
 11
538.0461233689752
 21
-1178.692787887726
 31
0
  0
LINE
  8
30
 62
3
 10
487.9822649650646
 20
-1235.842787887726
 30
0
 11
538.0461233689752
 21
-1235.842787887726
 31
0
  0
LINE
  8
30
 62
1
  6
CENTER
 10
443.5184039198797
 20
-1208.051958207298
 30
0
 11
447.9827377524327
 21
-1205.970205152618
 31
0
  0
LINE
  8
30
 62
1
  6
CENTER
 10
462.007632506322
 20
-1145.185361345416
 30
0
 11
463.9502045704986
 21
-1148.549994857932
 31
0
  0
LINE
  8
30
 62
1
 10
518.0461233689752
 20
-1233.597742373764
 30
0
 11
518.0461233689752
 21
-1238.285102321006
 31
0
  0
LINE
  8
30
 62
1
  6
CENTER
 10
449.0461233689755
 20
-1225.777321794656
 30
0
 11
449.0461233689755
 21
-1222.842787887726
 31
0
  0
LINE
  8
30
 62
1
  6
CENTER
 10
452.1051747774916
 20
-1222.842787887726
 30
0
 11
449.0461233689755
 21
-1222.842787887726
 31
0
  0
LINE
  8
30
 62
1
  6
CENTER
 10
449.0461233689755
 20
-1222.842787887726
 30
0
 11
446.0007801876824
 21
-1222.842787887726
 31
0
  0
LINE
  8
30
 62
1
  6
CENTER
 10
449.0461233689755
 20
-1222.842787887726
 30
0
 11
449.0461233689755
 21
-1219.978146934338
 31
0
  0
LINE
  8
30
 62
1
 10
520.0461233689755
 20
-1155.579561430168
 30
0
 11
520.0461233689755
 21
-1151.842787887728
 31
0
  0
LINE
  8
30
 62
1
 10
523.4852668916363
 20
-1151.842787887728
 30
0
 11
520.0461233689755
 21
-1151.842787887728
 31
0
  0
LINE
  8
30
 62
1
 10
520.0461233689755
 20
-1151.842787887728
 30
0
 11
516.7824790271844
 21
-1151.842787887728
 31
0
  0
LINE
  8
30
 62
1
 10
520.0461233689755
 20
-1151.842787887728
 30
0
 11
520.0461233689755
 21
-1148.02562590039
 31
0
  0
LINE
  8
30
 62
3
 10
528.7355167786318
 20
-1177.842787887728
 30
0
 11
538.0461233689752
 21
-1177.842787887726
 31
0
  0
LINE
  8
30
 62
3
 10
529.0646513045488
 20
-1175.38606409288
 30
0
 11
527.6031480731617
 21
-1175.772209903032
 31
0
  0
LINE
  8
30
 62
3
 10
526.510193725191
 20
-1165.717830206834
 30
0
 11
525.0486904938038
 21
-1166.103976016988
 31
0
  0
LINE
  8
30
 62
1
 10
530.6602869438906
 20
-1169.792903626326
 30
0
 11
522.770773099262
 21
-1171.877403099074
 31
0
  0
LINE
  8
30
 62
3
 10
528.6475994013724
 20
-1172.910466285972
 30
0
 11
527.1945717424096
 21
-1173.294372753296
 31
0
  0
LINE
  8
30
 62
3
 10
527.3703706116938
 20
-1168.076349342952
 30
0
 11
525.9173429527303
 21
-1168.460255810274
 31
0
  0
LINE
  8
30
 62
1
 10
542.7348316132529
 20
-1183.842787887726
 30
0
 11
434.3789068303033
 21
-1183.842787887726
 31
0
  0
LINE
  8
30
 62
1
 10
488.0461233689754
 20
-1245.194183296538
 30
0
 11
488.0461233689755
 21
-1132.570410272684
 31
0
  0
LINE
  8
35
 62
3
 10
591.9540794292916
 20
-1213.152188964488
 30
0
 11
591.9540794292915
 21
-1213.84278788773
 31
0
  0
LINE
  8
35
 62
3
 10
589.9540794292923
 20
-1215.84278788773
 30
0
 11
591.9540794292915
 21
-1213.84278788773
 31
0
  0
LINE
  8
35
 62
1
 10
622.962775960493
 20
-1151.84278788773
 30
0
 11
586.7025434101699
 21
-1151.84278788773
 31
0
  0
LINE
  8
35
 62
3
 10
615.9540794292931
 20
-1147.344800118212
 30
0
 11
587.9540794292923
 21
-1147.344800118212
 31
0
  0
LINE
  8
35
 62
3
 10
590.4540794292923
 20
-1194.18278788773
 30
0
 11
616.4540794292919
 21
-1194.18278788773
 31
0
  0
LINE
  8
35
 62
3
 10
605.3540794292917
 20
-1235.84278788773
 30
0
 11
605.3540794292917
 21
-1235.04278788773
 31
0
  0
LINE
  8
35
 62
3
 10
604.1540794292921
 20
-1235.04278788773
 30
0
 11
604.1540794292921
 21
-1233.84278788773
 31
0
  0
LINE
  8
35
 62
3
 10
605.3540794292917
 20
-1178.642787887728
 30
0
 11
605.3540794292917
 21
-1177.842787887728
 31
0
  0
LINE
  8
35
 62
3
 10
604.1540794292921
 20
-1194.18278788773
 30
0
 11
604.1540794292921
 21
-1178.642787887728
 31
0
  0
LINE
  8
35
 62
3
 10
590.4540794292923
 20
-1233.842787887728
 30
0
 11
618.4540794292931
 21
-1233.84278788773
 31
0
  0
LINE
  8
35
 62
3
 10
589.9540794292923
 20
-1182.842787887728
 30
0
 11
589.9540794292923
 21
-1233.342787887728
 31
0
  0
LINE
  8
35
 62
3
 10
604.1540794292921
 20
-1235.04278788773
 30
0
 11
605.3540794292917
 21
-1235.04278788773
 31
0
  0
LINE
  8
35
 62
3
 10
605.9540794292961
 20
-1178.642787887728
 30
0
 11
604.1540794292921
 21
-1178.642787887728
 31
0
  0
LINE
  8
35
 62
3
 10
587.9540794292919
 20
-1179.342787887728
 30
0
 11
587.9540794292919
 21
-1234.342787887728
 31
0
  0
LINE
  8
35
 62
3
 10
605.3540794292917
 20
-1177.842787887728
 30
0
 11
589.4540794292923
 21
-1177.842787887728
 31
0
  0
LINE
  8
35
 62
3
 10
589.4540794292923
 20
-1235.842787887728
 30
0
 11
605.3540794292917
 21
-1235.84278788773
 31
0
  0
LINE
  8
35
 62
3
 10
602.1540794292921
 20
-1235.842787887728
 30
0
 11
602.1540794292921
 21
-1237.342787887728
 31
0
  0
LINE
  8
35
 62
3
 10
602.1540794292921
 20
-1237.342787887728
 30
0
 11
607.3540794292917
 21
-1237.342787887728
 31
0
  0
LINE
  8
35
 62
3
 10
607.3540794292917
 20
-1237.342787887728
 30
0
 11
607.3540794292917
 21
-1235.84278788773
 31
0
  0
LINE
  8
35
 62
3
 10
587.9540794292923
 20
-1142.342787887734
 30
0
 11
587.9540794292919
 21
-1179.342787887728
 31
0
  0
LINE
  8
35
 62
1
 10
628.7319533906021
 20
-1183.84278788773
 30
0
 11
582.3757308451709
 21
-1183.84278788773
 31
0
  0
LINE
  8
35
 62
3
 10
605.3540794292917
 20
-1140.842787887734
 30
0
 11
589.4540794292918
 21
-1140.842787887734
 31
0
  0
LINE
  8
35
 62
3
 10
591.9540794292916
 20
-1213.152188964488
 30
0
 11
591.9540794292916
 21
-1194.18278788773
 31
0
  0
LINE
  8
30
 62
3
 10
620.9540794292866
 20
-1179.342787887728
 30
0
 11
620.9540794292891
 21
-1164.894712766272
 31
0
  0
LINE
  8
30
 62
3
 10
604.1540794292928
 20
-1234.34278788773
 30
0
 11
604.1540794292921
 21
-1235.04278788773
 31
0
  0
LINE
  8
30
 62
3
 10
605.9540794292961
 20
-1140.842787887732
 30
0
 11
620.4540794292941
 21
-1140.84278788773
 31
0
  0
LINE
  8
30
 62
3
 10
605.9540794292931
 20
-1235.04278788773
 30
0
 11
605.9540794292931
 21
-1235.84278788773
 31
0
  0
LINE
  8
30
 62
3
 10
604.1540794292921
 20
-1235.04278788773
 30
0
 11
605.9540794292931
 21
-1235.04278788773
 31
0
  0
LINE
  8
30
 62
3
 10
605.9540794292961
 20
-1141.642787887732
 30
0
 11
605.9540794292961
 21
-1140.842787887732
 31
0
  0
LINE
  8
30
 62
3
 10
605.3540794292917
 20
-1141.642787887732
 30
0
 11
605.9540794292961
 21
-1141.642787887732
 31
0
  0
LINE
  8
30
 62
3
 10
619.4540794292919
 20
-1235.84278788773
 30
0
 11
605.9540794292931
 21
-1235.84278788773
 31
0
  0
LINE
  8
30
 62
3
 10
620.9540794292919
 20
-1234.34278788773
 30
0
 11
620.9540794292919
 21
-1179.342787887728
 31
0
  0
LINE
  8
30
 62
3
 10
604.1540794292899
 20
-1187.192787887728
 30
0
 11
604.1540794292921
 21
-1194.18278788773
 31
0
  0
LINE
  8
35
 62
3
 10
619.4540794292919
 20
-1177.842787887728
 30
0
 11
605.9540794292961
 21
-1177.842787887728
 31
0
  0
LINE
  8
1
 62
3
 10
618.9540794292931
 20
-1233.34278788773
 30
0
 11
618.9540794292923
 21
-1188.842787887728
 31
0
  0
LINE
  8
1
 62
3
 10
605.9540794292961
 20
-1177.842787887728
 30
0
 11
605.9540794292961
 21
-1178.642787887728
 31
0
  0
LINE
  8
1
 62
3
 10
605.3540794292917
 20
-1140.842787887734
 30
0
 11
605.3540794292917
 21
-1165.717830206834
 31
0
  0
LINE
  8
1
 62
3
 10
605.9540794292961
 20
-1141.642787887732
 30
0
 11
605.9540794292961
 21
-1147.344800118212
 31
0
  0
LINE
  8
1
 62
3
 10
615.9540794292931
 20
-1151.84278788773
 30
0
 11
615.9540794292931
 21
-1140.84278788773
 31
0
  0
LINE
  8
1
 62
3
 10
605.9540794292961
 20
-1157.750794167036
 30
0
 11
605.9540794292961
 21
-1165.717830206834
 31
0
  0
LINE
  8
1
 62
3
 10
535.0461233689754
 20
-1222.842787887726
 30
0
 11
512.0461233689754
 21
-1222.842787887726
 31
0
  0
LINE
  8
1
 62
3
 10
512.0461233689754
 20
-1222.842787887726
 30
0
 11
512.0461233689754
 21
-1232.842787887726
 31
0
  0
LINE
  8
1
 62
3
 10
512.0461233689754
 20
-1232.842787887726
 30
0
 11
535.0461233689754
 21
-1232.842787887726
 31
0
  0
LINE
  8
1
 62
3
 10
535.0461233689754
 20
-1232.842787887726
 30
0
 11
535.0461233689754
 21
-1222.842787887726
 31
0
  0
LINE
  8
1
 62
3
 10
607.6540794292921
 20
-1165.717830206834
 30
0
 11
607.6540794292921
 21
-1175.38606409288
 31
0
  0
LINE
  8
1
 62
3
 10
607.6540794292921
 20
-1165.717830206834
 30
0
 11
602.1540794292921
 21
-1165.717830206834
 31
0
  0
LINE
  8
1
 62
3
 10
602.1540794292921
 20
-1165.717830206834
 30
0
 11
602.1540794292921
 21
-1168.076349342952
 31
0
  0
LINE
  8
1
 62
3
 10
607.6540794292921
 20
-1175.38606409288
 30
0
 11
602.1540794292921
 21
-1175.38606409288
 31
0
  0
LINE
  8
1
 62
3
 10
602.1540794292921
 20
-1175.38606409288
 30
0
 11
602.1540794292921
 21
-1172.910466285972
 31
0
  0
LINE
  8
1
 62
3
 10
602.1540794292921
 20
-1168.076349342952
 30
0
 11
606.1540794292921
 21
-1168.076349342952
 31
0
  0
LINE
  8
1
 62
3
 10
606.1540794292921
 20
-1168.076349342952
 30
0
 11
606.1540794292921
 21
-1172.910466285972
 31
0
  0
LINE
  8
1
 62
3
 10
606.1540794292921
 20
-1172.910466285972
 30
0
 11
602.1540794292921
 21
-1172.910466285972
 31
0
  0
LINE
  8
1
 62
3
 10
604.3540794292917
 20
-1168.365524962396
 30
0
 11
604.3540794292917
 21
-1172.716230211116
 31
0
  0
LINE
  8
1
 62
3
 10
604.3540794292917
 20
-1168.365524962396
 30
0
 11
606.1540794292921
 21
-1168.365524962396
 31
0
  0
LINE
  8
1
 62
3
 10
604.3540794292917
 20
-1172.716230211116
 30
0
 11
606.1540794292921
 21
-1172.716230211116
 31
0
  0
LINE
  8
1
 62
3
 10
605.3540794292917
 20
-1175.38606409288
 30
0
 11
605.3540794292917
 21
-1178.642787887728
 31
0
  0
LINE
  8
1
 62
3
 10
605.9540794292961
 20
-1175.38606409288
 30
0
 11
605.9540794292961
 21
-1177.842787887728
 31
0
  0
LINE
  8
1
 62
3
 10
605.6540794292921
 20
-1168.365524962396
 30
0
 11
605.6540794292921
 21
-1172.716230211116
 31
0
  0
LINE
  8
1
 62
1
 10
459.471123368975
 20
-1228.842787887724
 30
0
 11
453.6211233689747
 21
-1228.842787887724
 31
0
  0
LINE
  8
1
 62
1
 10
456.5461233689749
 20
-1225.917787887726
 30
0
 11
456.5461233689749
 21
-1231.767787887726
 31
0
  0
LINE
  8
1
 62
3
 10
513.5314174866194
 20
-1140.842787887726
 30
0
 11
514.3877977585001
 21
-1140.842787887728
 31
0
  0
LINE
  8
1
 62
1
 10
516.971123368975
 20
-1144.842787887728
 30
0
 11
511.1211233689752
 21
-1144.842787887728
 31
0
  0
LINE
  8
1
 62
1
 10
514.0461233689749
 20
-1141.917787887726
 30
0
 11
514.0461233689749
 21
-1147.767787887728
 31
0
  0
LINE
  8
30
 62
3
 10
618.9540794292925
 20
-1213.639301621668
 30
0
 11
614.4540794292923
 21
-1209.139301621668
 31
0
  0
LINE
  8
30
 62
3
 10
614.4540794292923
 20
-1194.18278788773
 30
0
 11
614.4540794292923
 21
-1209.139301621668
 31
0
  0
LINE
  8
1
 62
3
 10
616.4540794292919
 20
-1182.842787887728
 30
0
 11
616.4540794292919
 21
-1195.692787887726
 31
0
  0
LINE
  8
10
 62
3
 10
612.0240794292972
 20
-1216.12887967853
 30
0
 11
594.2740794292972
 21
-1216.442787887726
 31
0
  0
LINE
  8
10
 62
3
 10
612.0240794292972
 20
-1194.18278788773
 30
0
 11
612.0240794292972
 21
-1216.093686589162
 31
0
  0
LINE
  8
10
 62
3
 10
594.8240794292999
 20
-1194.18278788773
 30
0
 11
594.8240794292917
 21
-1216.442787887726
 31
0
  0
LINE
  8
10
 62
3
 10
594.0240794292919
 20
-1194.18278788773
 30
0
 11
594.0240794292919
 21
-1213.442787887726
 31
0
  0
LINE
  8
1
 62
3
 10
612.9540794292973
 20
-1199.942772377524
 30
0
 11
612.9540794292973
 21
-1194.18278788773
 31
0
  0
LINE
  8
1
 62
3
 10
612.9540794292973
 20
-1204.942787887726
 30
0
 11
612.9540794292973
 21
-1199.942787887726
 31
0
  0
LINE
  8
1
 62
3
 10
612.9540794292973
 20
-1204.942787887726
 30
0
 11
612.0240794292972
 21
-1204.942787887726
 31
0
  0
LINE
  8
10
 62
3
 10
594.8240794292917
 20
-1216.442787887726
 30
0
 11
594.0240794292919
 21
-1216.442787887726
 31
0
  0
LINE
  8
10
 62
3
 10
594.0240794292919
 20
-1213.442787887726
 30
0
 11
594.0240794292919
 21
-1216.442787887726
 31
0
  0
LINE
  8
1
 62
2
 10
594.8240794292989
 20
-1196.453766484156
 30
0
 11
612.0240794292972
 21
-1196.453766484156
 31
0
  0
LINE
  8
1
 62
2
 10
594.8240794292989
 20
-1197.158463038292
 30
0
 11
612.0240794292972
 21
-1197.158463038292
 31
0
  0
LINE
  8
1
 62
2
 10
594.8240794292989
 20
-1199.10043984812
 30
0
 11
612.0240794292972
 21
-1199.10043984812
 31
0
  0
LINE
  8
1
 62
2
 10
594.8240794292989
 20
-1199.773826508688
 30
0
 11
612.0240794292972
 21
-1199.773826508688
 31
0
  0
LINE
  8
1
 62
2
 10
594.8240794292989
 20
-1201.6203384225
 30
0
 11
612.0240794292972
 21
-1201.6203384225
 31
0
  0
LINE
  8
1
 62
2
 10
594.8240794292989
 20
-1202.214830552764
 30
0
 11
612.0240794292972
 21
-1202.214830552764
 31
0
  0
LINE
  8
1
 62
2
 10
594.8240794292989
 20
-1204.589953784378
 30
0
 11
612.0240794292972
 21
-1204.589953784378
 31
0
  0
LINE
  8
1
 62
2
 10
594.8240794292989
 20
-1206.204210192156
 30
0
 11
612.0240794292972
 21
-1206.204210192156
 31
0
  0
LINE
  8
1
 62
2
 10
594.8240794292989
 20
-1206.754063953044
 30
0
 11
612.0240794292972
 21
-1206.754063953044
 31
0
  0
LINE
  8
1
 62
2
 10
594.8240794292989
 20
-1208.233297355444
 30
0
 11
612.0240794292972
 21
-1208.233297355444
 31
0
  0
LINE
  8
1
 62
2
 10
594.8240794292989
 20
-1208.733150631302
 30
0
 11
612.0240794292972
 21
-1208.733150631302
 31
0
  0
LINE
  8
1
 62
2
 10
594.8240794292989
 20
-1210.066103168948
 30
0
 11
612.0240794292972
 21
-1210.066103168948
 31
0
  0
LINE
  8
1
 62
2
 10
594.8240794292989
 20
-1210.512151774528
 30
0
 11
612.0240794292972
 21
-1210.512151774528
 31
0
  0
LINE
  8
1
 62
2
 10
594.8240794292989
 20
-1211.68867887375
 30
0
 11
612.0240794292972
 21
-1211.68867887375
 31
0
  0
LINE
  8
1
 62
2
 10
594.8240794292989
 20
-1212.07752810983
 30
0
 11
612.0240794292972
 21
-1212.07752810983
 31
0
  0
LINE
  8
1
 62
2
 10
594.8240794292989
 20
-1213.417366178096
 30
0
 11
612.0240794292972
 21
-1213.417366178096
 31
0
  0
LINE
  8
1
 62
2
 10
594.8240794292989
 20
-1213.088675688994
 30
0
 11
612.0240794292972
 21
-1213.088675688994
 31
0
  0
LINE
  8
1
 62
2
 10
594.8240794292989
 20
-1214.52146900261
 30
0
 11
612.0240794292972
 21
-1214.52146900261
 31
0
  0
LINE
  8
1
 62
2
 10
594.8240794292989
 20
-1214.25543879358
 30
0
 11
612.0240794292972
 21
-1214.25543879358
 31
0
  0
LINE
  8
1
 62
2
 10
594.8240794292989
 20
-1215.180088415766
 30
0
 11
612.0240794292972
 21
-1215.180088415766
 31
0
  0
LINE
  8
1
 62
2
 10
594.8240794292989
 20
-1215.381433694204
 30
0
 11
612.0240794292972
 21
-1215.381433694204
 31
0
  0
LINE
  8
1
 62
2
 10
594.8240794292989
 20
-1215.990715402312
 30
0
 11
612.0240794292972
 21
-1215.990715402312
 31
0
  0
LINE
  8
1
 62
2
 10
594.8240794292989
 20
-1203.99428425759
 30
0
 11
612.0240794292972
 21
-1203.99428425759
 31
0
  0
LINE
  8
1
 62
2
 10
440.9461233689751
 20
-1184.742787887728
 30
0
 11
440.9461233689751
 21
-1181.339733351688
 31
0
  0
LINE
  8
1
 62
3
 10
589.9540794292923
 20
-1182.842787887728
 30
0
 11
616.4540794292919
 21
-1182.842787887728
 31
0
  0
LINE
  8
1
 62
3
 10
616.4540794292919
 20
-1182.842787887728
 30
0
 11
618.9540794292923
 21
-1188.842787887728
 31
0
  0
LINE
  8
31
 62
3
 10
506.7557567717486
 20
-1145.192743255492
 30
0
 11
509.7876926548512
 21
-1142.16080737239
 31
0
  0
LINE
  8
31
 62
3
 10
521.0515319681864
 20
-1157.201340319194
 30
0
 11
523.2281038843148
 21
-1155.024768403066
 31
0
  0
LINE
  8
31
 62
3
 10
517.8913495081923
 20
-1142.414226707178
 30
0
 11
523.4627780796189
 21
-1148.914226707174
 31
0
  0
LINE
  8
31
 62
3
 10
516.8641428536362
 20
-1148.660807372388
 30
0
 11
515.0393287458671
 21
-1150.485621480158
 31
0
  0
LINE
  8
31
 62
3
 10
521.8715710277245
 20
-1158.253420267398
 30
0
 11
525.1420097745594
 21
-1156.440586467806
 31
0
  0
LINE
  8
31
 62
3
 10
529.9901059770232
 20
-1165.1867835392
 30
0
 11
527.3283056405231
 21
-1166.662243558884
 31
0
  0
LINE
  8
31
 62
3
 10
528.3882718395141
 20
-1164.359663598738
 30
0
 11
526.1637813565833
 21
-1165.592718808296
 31
0
  0
LINE
  8
31
 62
3
 10
522.9674196353901
 20
-1159.70401878732
 30
0
 11
525.1400473838636
 21
-1158.499711560902
 31
0
  0
LINE
  8
31
 62
3
 10
446.2349956549809
 20
-1226.35669753022
 30
0
 11
453.7774679876389
 21
-1232.390675396346
 31
0
  0
LINE
  8
31
 62
3
 10
459.7705762169721
 20
-1232.05874626919
 30
0
 11
463.3590599442142
 21
-1228.47026254195
 31
0
  0
LINE
  8
31
 62
3
 10
445.8641428536358
 20
-1219.660807372388
 30
0
 11
449.8593519698784
 21
-1215.665598256146
 31
0
  0
LINE
  8
31
 62
3
 10
452.2281038843146
 20
-1226.024768403068
 30
0
 11
455.6697690402343
 21
-1222.583103247148
 31
0
  0
LINE
  8
31
 62
3
 10
529.4102968237096
 20
-1162.07811479805
 30
0
 11
530.3799160639156
 21
-1163.827354211812
 31
0
  0
LINE
  8
31
 62
3
 10
528.098367263001
 20
-1162.80532922842
 30
0
 11
528.583176882961
 21
-1163.679948935044
 31
0
  0
LINE
  8
31
 62
3
 10
526.5014391019454
 20
-1156.8303965547
 30
0
 11
527.4710583427295
 21
-1158.579635969502
 31
0
  0
LINE
  8
31
 62
3
 10
525.8197620475564
 20
-1158.694616604348
 30
0
 11
526.1591287820198
 21
-1159.306850399872
 31
0
  0
LINE
  8
35
 62
3
 10
611.4540794292891
 20
-1157.750794167036
 30
0
 11
587.9540794292919
 21
-1157.750794167036
 31
0
  0
LINE
  8
30
 62
3
 10
620.9540794292897
 20
-1160.997890699346
 30
0
 11
620.9540794292941
 21
-1141.34278788773
 31
0
  0
LINE
  8
1
 62
2
 10
582.5370364068029
 20
-1187.89637097896
 30
0
 11
585.3135500319139
 21
-1186.293350090062
 31
0
  0
LINE
  8
1
 62
2
 10
582.5370364068029
 20
-1186.793350090062
 30
0
 11
582.5370364068029
 21
-1187.89637097896
 31
0
  0
LINE
  8
1
 62
2
 10
579.0370364068029
 20
-1186.793350090062
 30
0
 11
582.5370364068029
 21
-1186.793350090062
 31
0
  0
LINE
  8
1
 62
2
 10
579.0370364068029
 20
-1185.793350090062
 30
0
 11
579.0370364068029
 21
-1186.793350090062
 31
0
  0
LINE
  8
1
 62
2
 10
582.5370364068029
 20
-1185.793350090062
 30
0
 11
579.0370364068029
 21
-1185.793350090062
 31
0
  0
LINE
  8
1
 62
2
 10
582.5370364068029
 20
-1184.690329201163
 30
0
 11
582.5370364068029
 21
-1185.793350090062
 31
0
  0
LINE
  8
1
 62
2
 10
585.3135500319139
 20
-1186.293350090062
 30
0
 11
582.5370364068029
 21
-1184.690329201163
 31
0
  0
LINE
  8
1
 62
2
 10
549.204873696383
 20
-1213.14121895658
 30
0
 11
546.428360071272
 21
-1211.538198067798
 31
0
  0
LINE
  8
1
 62
2
 10
546.428360071272
 20
-1211.538198067798
 30
0
 11
546.428360071272
 21
-1212.64121895658
 31
0
  0
LINE
  8
1
 62
2
 10
546.428360071272
 20
-1212.64121895658
 30
0
 11
542.928360071272
 21
-1212.64121895658
 31
0
  0
LINE
  8
1
 62
2
 10
542.928360071272
 20
-1212.64121895658
 30
0
 11
542.928360071272
 21
-1213.64121895658
 31
0
  0
LINE
  8
1
 62
2
 10
542.928360071272
 20
-1213.64121895658
 30
0
 11
546.428360071272
 21
-1213.64121895658
 31
0
  0
LINE
  8
1
 62
2
 10
546.428360071272
 20
-1213.64121895658
 30
0
 11
546.428360071272
 21
-1214.744239845478
 31
0
  0
LINE
  8
1
 62
2
 10
546.428360071272
 20
-1214.744239845478
 30
0
 11
549.204873696383
 21
-1213.14121895658
 31
0
  0
LINE
  8
1
 62
3
 10
526.1591287820198
 20
-1159.306850399872
 30
0
 11
528.098367263001
 21
-1162.80532922842
 31
0
  0
LINE
  8
1
 62
3
 10
527.4710583427295
 20
-1158.579635969502
 30
0
 11
529.4102968237096
 21
-1162.07811479805
 31
0
  0
LINE
  8
1
 62
3
 10
620.9540794292891
 20
-1164.894712766272
 30
0
 11
620.9540794292897
 21
-1160.997890699346
 31
0
  0
LINE
  8
1
 62
3
 10
611.4540794292891
 20
-1157.750794167036
 30
0
 11
620.95407942929
 21
-1157.750794167036
 31
0
  0
LINE
  8
1
 62
3
 10
527.4628797967799
 20
-1334.359529552883
 30
0
 11
507.4628797967799
 21
-1334.359529552883
 31
0
  0
LINE
  8
1
 62
3
 10
422.0061937259068
 20
-1331.359529552883
 30
0
 11
460.434547275197
 21
-1331.359529552883
 31
0
  0
LINE
  8
1
 62
3
 10
527.4628797967799
 20
-1329.859529552883
 30
0
 11
507.4628797967799
 21
-1329.859529552883
 31
0
  0
LINE
  8
1
 62
3
 10
422.0061937259068
 20
-1326.859529552883
 30
0
 11
460.434547275197
 21
-1326.859529552883
 31
0
  0
LINE
  8
1
 62
3
 10
497.4628797967799
 20
-1334.359529552883
 30
0
 11
497.4628797967799
 21
-1333.659529552883
 31
0
  0
LINE
  8
1
 62
3
 10
497.4628797967799
 20
-1333.659529552883
 30
0
 11
507.4628797967799
 21
-1333.659529552883
 31
0
  0
LINE
  8
1
 62
3
 10
497.4628797967799
 20
-1333.659529552883
 30
0
 11
497.4628797967799
 21
-1332.059529552884
 31
0
  0
LINE
  8
1
 62
3
 10
507.4628797967799
 20
-1332.059529552884
 30
0
 11
497.4628797967799
 21
-1332.059529552884
 31
0
  0
LINE
  8
1
 62
3
 10
497.4628797967799
 20
-1329.859529552883
 30
0
 11
497.4628797967799
 21
-1329.159529552883
 31
0
  0
LINE
  8
1
 62
3
 10
497.4628797967799
 20
-1329.159529552883
 30
0
 11
507.4628797967799
 21
-1329.159529552883
 31
0
  0
LINE
  8
1
 62
3
 10
497.4628797967799
 20
-1329.159529552883
 30
0
 11
497.4628797967799
 21
-1327.559529552884
 31
0
  0
LINE
  8
1
 62
3
 10
507.4628797967799
 20
-1327.559529552884
 30
0
 11
497.4628797967799
 21
-1327.559529552884
 31
0
  0
LINE
  8
1
 62
3
 10
497.4628797967799
 20
-1332.059529552884
 30
0
 11
497.4628797967799
 21
-1331.359529552883
 31
0
  0
LINE
  8
1
 62
3
 10
497.4628797967799
 20
-1327.559529552884
 30
0
 11
497.4628797967799
 21
-1326.859529552883
 31
0
  0
LINE
  8
1
 62
3
 10
415.0061937259068
 20
-1343.509529552884
 30
0
 11
411.8061937259067
 21
-1343.509529552884
 31
0
  0
LINE
  8
1
 62
3
 10
411.6061937259069
 20
-1340.209529552883
 30
0
 11
411.8061937259067
 21
-1340.209529552883
 31
0
  0
LINE
  8
1
 62
3
 10
411.8061937259067
 20
-1340.209529552883
 30
0
 11
411.8061937259067
 21
-1343.509529552884
 31
0
  0
LINE
  8
1
 62
3
 10
411.8061937259067
 20
-1343.509529552884
 30
0
 11
411.6061937259069
 21
-1343.509529552884
 31
0
  0
LINE
  8
1
 62
3
 10
409.2061937259068
 20
-1340.209529552883
 30
0
 11
411.6061937259069
 21
-1340.209529552883
 31
0
  0
LINE
  8
1
 62
3
 10
411.6061937259069
 20
-1343.509529552884
 30
0
 11
411.6061937259069
 21
-1340.209529552883
 31
0
  0
LINE
  8
1
 62
3
 10
415.0061937259068
 20
-1339.009529552884
 30
0
 11
411.8061937259067
 21
-1339.009529552884
 31
0
  0
LINE
  8
1
 62
3
 10
411.6061937259069
 20
-1335.709529552883
 30
0
 11
411.8061937259067
 21
-1335.709529552883
 31
0
  0
LINE
  8
1
 62
3
 10
411.8061937259067
 20
-1335.709529552883
 30
0
 11
411.8061937259067
 21
-1339.009529552884
 31
0
  0
LINE
  8
1
 62
3
 10
411.8061937259067
 20
-1339.009529552884
 30
0
 11
411.6061937259069
 21
-1339.009529552884
 31
0
  0
LINE
  8
1
 62
3
 10
409.2061937259068
 20
-1335.709529552883
 30
0
 11
411.6061937259069
 21
-1335.709529552883
 31
0
  0
LINE
  8
1
 62
3
 10
411.6061937259069
 20
-1339.009529552884
 30
0
 11
411.6061937259069
 21
-1335.709529552883
 31
0
  0
LINE
  8
1
 62
3
 10
409.2061937259068
 20
-1326.709529552883
 30
0
 11
411.6061937259069
 21
-1326.709529552883
 31
0
  0
LINE
  8
1
 62
3
 10
411.8061937259067
 20
-1334.509529552884
 30
0
 11
411.6061937259069
 21
-1334.509529552884
 31
0
  0
LINE
  8
1
 62
3
 10
411.6061937259069
 20
-1331.209529552883
 30
0
 11
411.6061937259069
 21
-1334.509529552884
 31
0
  0
LINE
  8
1
 62
3
 10
411.6061937259069
 20
-1326.709529552883
 30
0
 11
411.8061937259067
 21
-1326.709529552883
 31
0
  0
LINE
  8
1
 62
3
 10
415.0061937259068
 20
-1334.509529552884
 30
0
 11
411.8061937259067
 21
-1334.509529552884
 31
0
  0
LINE
  8
1
 62
3
 10
411.8061937259067
 20
-1330.009529552884
 30
0
 11
411.8061937259067
 21
-1326.709529552883
 31
0
  0
LINE
  8
1
 62
3
 10
409.2061937259068
 20
-1343.709529552883
 30
0
 11
415.453407321407
 21
-1343.709529552883
 31
0
  0
LINE
  8
1
 62
3
 10
411.6061937259069
 20
-1343.509529552884
 30
0
 11
409.2061937259068
 21
-1343.509529552884
 31
0
  0
LINE
  8
1
 62
3
 10
409.2061937259068
 20
-1343.709529552883
 30
0
 11
415.453407321407
 21
-1343.709529552883
 31
0
  0
LINE
  8
1
 62
3
 10
415.6061937259069
 20
-1344.109529552883
 30
0
 11
415.6061937259069
 21
-1344.359529552883
 31
0
  0
LINE
  8
1
 62
3
 10
409.2061937259068
 20
-1339.209529552883
 30
0
 11
415.453407321407
 21
-1339.209529552883
 31
0
  0
LINE
  8
1
 62
3
 10
409.2061937259068
 20
-1340.009529552884
 30
0
 11
409.2061937259068
 21
-1339.209529552883
 31
0
  0
LINE
  8
1
 62
3
 10
409.2061937259068
 20
-1340.009529552884
 30
0
 11
415.453407321407
 21
-1340.009529552884
 31
0
  0
LINE
  8
1
 62
3
 10
411.6061937259069
 20
-1339.009529552884
 30
0
 11
409.2061937259068
 21
-1339.009529552884
 31
0
  0
LINE
  8
1
 62
3
 10
411.8061937259067
 20
-1340.209529552883
 30
0
 11
415.0061937259068
 21
-1340.209529552883
 31
0
  0
LINE
  8
1
 62
3
 10
409.2061937259068
 20
-1327.659529552883
 30
0
 11
409.2061937259068
 21
-1326.509529552884
 31
0
  0
LINE
  8
1
 62
3
 10
415.453407321407
 20
-1326.509529552884
 30
0
 11
409.2061937259068
 21
-1326.509529552884
 31
0
  0
LINE
  8
1
 62
3
 10
409.2061937259068
 20
-1336.659529552883
 30
0
 11
409.2061937259068
 21
-1335.509529552884
 31
0
  0
LINE
  8
1
 62
3
 10
415.453407321407
 20
-1335.509529552884
 30
0
 11
409.2061937259068
 21
-1335.509529552884
 31
0
  0
LINE
  8
1
 62
3
 10
409.2061937259068
 20
-1335.509529552884
 30
0
 11
409.2061937259068
 21
-1334.709529552883
 31
0
  0
LINE
  8
1
 62
3
 10
415.453407321407
 20
-1334.709529552883
 30
0
 11
409.2061937259068
 21
-1334.709529552883
 31
0
  0
LINE
  8
1
 62
3
 10
420.0061937259068
 20
-1325.859529552883
 30
0
 11
415.6061937259069
 21
-1325.859529552883
 31
0
  0
LINE
  8
1
 62
3
 10
415.6061937259069
 20
-1325.859529552883
 30
0
 11
415.6061937259069
 21
-1326.109529552883
 31
0
  0
LINE
  8
1
 62
3
 10
411.8061937259067
 20
-1326.709529552883
 30
0
 11
415.0061937259068
 21
-1326.709529552883
 31
0
  0
LINE
  8
1
 62
3
 10
420.0061937259068
 20
-1344.359529552883
 30
0
 11
421.0061937259068
 21
-1346.359529552883
 31
0
  0
LINE
  8
1
 62
3
 10
421.0061937259068
 20
-1323.859529552883
 30
0
 11
420.0061937259068
 21
-1325.859529552883
 31
0
  0
LINE
  8
1
 62
3
 10
413.0061937259068
 20
-1344.359529552883
 30
0
 11
409.2061937259068
 21
-1344.359529552883
 31
0
  0
LINE
  8
1
 62
3
 10
413.0061937259068
 20
-1344.359529552883
 30
0
 11
413.4061937259066
 21
-1344.359529552883
 31
0
  0
LINE
  8
1
 62
3
 10
409.2061937259068
 20
-1344.359529552883
 30
0
 11
408.0061937259068
 21
-1344.359529552883
 31
0
  0
LINE
  8
1
 62
3
 10
407.6061937259069
 20
-1325.859529552883
 30
0
 11
408.0061937259068
 21
-1325.859529552883
 31
0
  0
LINE
  8
1
 62
3
 10
415.6061937259069
 20
-1325.859529552883
 30
0
 11
413.4061937259066
 21
-1325.859529552883
 31
0
  0
LINE
  8
1
 62
3
 10
411.8061937259067
 20
-1335.709529552883
 30
0
 11
415.0061937259068
 21
-1335.709529552883
 31
0
  0
LINE
  8
1
 62
3
 10
411.6061937259069
 20
-1334.509529552884
 30
0
 11
409.2061937259068
 21
-1334.509529552884
 31
0
  0
LINE
  8
1
 62
3
 10
408.4061937259066
 20
-1341.159529552883
 30
0
 11
409.0061937259068
 21
-1341.159529552883
 31
0
  0
LINE
  8
1
 62
3
 10
409.2061937259068
 20
-1342.559529552884
 30
0
 11
409.0061937259068
 21
-1342.559529552884
 31
0
  0
LINE
  8
1
 62
3
 10
409.0061937259068
 20
-1342.559529552884
 30
0
 11
409.0061937259068
 21
-1341.159529552883
 31
0
  0
LINE
  8
1
 62
3
 10
409.2061937259068
 20
-1338.059529552884
 30
0
 11
409.0061937259068
 21
-1338.059529552884
 31
0
  0
LINE
  8
1
 62
3
 10
408.4061937259066
 20
-1336.659529552883
 30
0
 11
409.0061937259068
 21
-1336.659529552883
 31
0
  0
LINE
  8
1
 62
3
 10
409.0061937259068
 20
-1338.059529552884
 30
0
 11
409.0061937259068
 21
-1336.659529552883
 31
0
  0
LINE
  8
1
 62
3
 10
409.2061937259068
 20
-1329.059529552884
 30
0
 11
409.0061937259068
 21
-1329.059529552884
 31
0
  0
LINE
  8
1
 62
3
 10
408.4061937259066
 20
-1327.659529552883
 30
0
 11
409.0061937259068
 21
-1327.659529552883
 31
0
  0
LINE
  8
1
 62
3
 10
409.0061937259068
 20
-1329.059529552884
 30
0
 11
409.0061937259068
 21
-1327.659529552883
 31
0
  0
LINE
  8
1
 62
3
 10
409.2061937259068
 20
-1341.159529552883
 30
0
 11
409.2061937259068
 21
-1338.059529552884
 31
0
  0
LINE
  8
1
 62
3
 10
409.0061937259068
 20
-1341.159529552883
 30
0
 11
409.2061937259068
 21
-1341.159529552883
 31
0
  0
LINE
  8
1
 62
3
 10
408.4061937259066
 20
-1342.559529552884
 30
0
 11
408.4061937259066
 21
-1341.159529552883
 31
0
  0
LINE
  8
1
 62
3
 10
409.0061937259068
 20
-1342.559529552884
 30
0
 11
408.4061937259066
 21
-1342.559529552884
 31
0
  0
LINE
  8
1
 62
3
 10
409.2061937259068
 20
-1344.359529552883
 30
0
 11
409.2061937259068
 21
-1342.559529552884
 31
0
  0
LINE
  8
1
 62
3
 10
409.0061937259068
 20
-1338.059529552884
 30
0
 11
408.4061937259066
 21
-1338.059529552884
 31
0
  0
LINE
  8
1
 62
3
 10
408.4061937259066
 20
-1338.059529552884
 30
0
 11
408.4061937259066
 21
-1336.659529552883
 31
0
  0
LINE
  8
1
 62
3
 10
409.0061937259068
 20
-1336.659529552883
 30
0
 11
409.2061937259068
 21
-1336.659529552883
 31
0
  0
LINE
  8
1
 62
3
 10
409.2061937259068
 20
-1332.159529552883
 30
0
 11
409.2061937259068
 21
-1329.059529552884
 31
0
  0
LINE
  8
1
 62
3
 10
409.0061937259068
 20
-1329.059529552884
 30
0
 11
408.4061937259066
 21
-1329.059529552884
 31
0
  0
LINE
  8
1
 62
3
 10
408.4061937259066
 20
-1329.059529552884
 30
0
 11
408.4061937259066
 21
-1327.659529552883
 31
0
  0
LINE
  8
1
 62
3
 10
409.0061937259068
 20
-1327.659529552883
 30
0
 11
409.2061937259068
 21
-1327.659529552883
 31
0
  0
LINE
  8
1
 62
3
 10
408.0061937259068
 20
-1325.859529552883
 30
0
 11
409.2061937259068
 21
-1325.859529552883
 31
0
  0
LINE
  8
1
 62
3
 10
409.2061937259068
 20
-1326.509529552884
 30
0
 11
409.2061937259068
 21
-1325.859529552883
 31
0
  0
LINE
  8
1
 62
3
 10
413.4061937259066
 20
-1346.359529552883
 30
0
 11
413.4061937259066
 21
-1344.359529552883
 31
0
  0
LINE
  8
1
 62
3
 10
413.4061937259066
 20
-1325.859529552883
 30
0
 11
413.4061937259066
 21
-1323.859529552883
 31
0
  0
LINE
  8
1
 62
3
 10
460.434547275197
 20
-1334.359529552883
 30
0
 11
422.0061937259068
 21
-1334.359529552883
 31
0
  0
LINE
  8
1
 62
3
 10
461.434547275197
 20
-1331.359529552883
 30
0
 11
497.4628797967799
 21
-1331.359529552883
 31
0
  0
LINE
  8
1
 62
3
 10
460.434547275197
 20
-1329.859529552883
 30
0
 11
422.0061937259068
 21
-1329.859529552883
 31
0
  0
LINE
  8
1
 62
3
 10
408.0061937259068
 20
-1344.359529552883
 30
0
 11
408.0061937259068
 21
-1337.359529552883
 31
0
  0
LINE
  8
1
 62
3
 10
407.6061937259069
 20
-1344.359529552883
 30
0
 11
407.6061937259069
 21
-1337.359529552883
 31
0
  0
LINE
  8
1
 62
3
 10
422.0061937259068
 20
-1344.859529552883
 30
0
 11
422.0061937259068
 21
-1346.359529552883
 31
0
  0
LINE
  8
1
 62
3
 10
422.6061937259069
 20
-1344.859529552883
 30
0
 11
422.0061937259068
 21
-1344.859529552883
 31
0
  0
LINE
  8
1
 62
3
 10
422.6061937259069
 20
-1346.359529552883
 30
0
 11
422.6061937259069
 21
-1344.859529552883
 31
0
  0
LINE
  8
1
 62
3
 10
422.0061937259068
 20
-1346.359529552883
 30
0
 11
422.6061937259069
 21
-1346.359529552883
 31
0
  0
LINE
  8
1
 62
3
 10
421.0061937259068
 20
-1341.159529552883
 30
0
 11
420.0061937259068
 21
-1341.159529552883
 31
0
  0
LINE
  8
1
 62
3
 10
421.0061937259068
 20
-1341.159529552883
 30
0
 11
421.0061937259068
 21
-1337.359529552883
 31
0
  0
LINE
  8
1
 62
3
 10
420.0061937259068
 20
-1341.359529552883
 30
0
 11
420.0061937259068
 21
-1337.359529552883
 31
0
  0
LINE
  8
1
 62
3
 10
422.0061937259068
 20
-1341.359529552883
 30
0
 11
422.0061937259068
 21
-1340.359529552883
 31
0
  0
LINE
  8
1
 62
3
 10
422.0061937259068
 20
-1341.159529552883
 30
0
 11
421.0061937259068
 21
-1341.159529552883
 31
0
  0
LINE
  8
1
 62
3
 10
421.0061937259068
 20
-1342.559529552884
 30
0
 11
420.0061937259068
 21
-1342.559529552884
 31
0
  0
LINE
  8
1
 62
3
 10
420.0061937259068
 20
-1342.359529552883
 30
0
 11
420.0061937259068
 21
-1341.359529552883
 31
0
  0
LINE
  8
1
 62
3
 10
422.0061937259068
 20
-1342.359529552883
 30
0
 11
422.0061937259068
 21
-1341.359529552883
 31
0
  0
LINE
  8
1
 62
3
 10
422.0061937259068
 20
-1342.559529552884
 30
0
 11
421.0061937259068
 21
-1342.559529552884
 31
0
  0
LINE
  8
1
 62
3
 10
421.0061937259068
 20
-1346.359529552883
 30
0
 11
421.0061937259068
 21
-1342.559529552884
 31
0
  0
LINE
  8
1
 62
3
 10
421.0061937259068
 20
-1346.359529552883
 30
0
 11
413.0061937259068
 21
-1346.359529552883
 31
0
  0
LINE
  8
1
 62
3
 10
422.0061937259068
 20
-1339.159529552883
 30
0
 11
422.0061937259068
 21
-1340.059529552884
 31
0
  0
LINE
  8
1
 62
3
 10
422.6061937259069
 20
-1339.159529552883
 30
0
 11
422.0061937259068
 21
-1339.159529552883
 31
0
  0
LINE
  8
1
 62
3
 10
422.6061937259069
 20
-1340.059529552884
 30
0
 11
422.6061937259069
 21
-1339.159529552883
 31
0
  0
LINE
  8
1
 62
3
 10
422.0061937259068
 20
-1340.059529552884
 30
0
 11
422.0061937259068
 21
-1340.359529552883
 31
0
  0
LINE
  8
1
 62
3
 10
422.0061937259068
 20
-1340.059529552884
 30
0
 11
422.6061937259069
 21
-1340.059529552884
 31
0
  0
LINE
  8
1
 62
3
 10
420.0061937259068
 20
-1344.359529552883
 30
0
 11
420.0061937259068
 21
-1342.359529552883
 31
0
  0
LINE
  8
1
 62
3
 10
413.4061937259066
 20
-1344.359529552883
 30
0
 11
420.0061937259068
 21
-1344.359529552883
 31
0
  0
LINE
  8
1
 62
3
 10
408.0061937259068
 20
-1344.359529552883
 30
0
 11
407.6061937259069
 21
-1344.359529552883
 31
0
  0
LINE
  8
1
 62
3
 10
413.0061937259068
 20
-1346.359529552883
 30
0
 11
413.0061937259068
 21
-1344.359529552883
 31
0
  0
LINE
  8
1
 62
3
 10
422.0061937259068
 20
-1346.359529552883
 30
0
 11
421.0061937259068
 21
-1346.359529552883
 31
0
  0
LINE
  8
1
 62
3
 10
422.0061937259068
 20
-1343.359529552883
 30
0
 11
422.0061937259068
 21
-1344.859529552883
 31
0
  0
LINE
  8
1
 62
3
 10
422.0061937259068
 20
-1338.859529552883
 30
0
 11
422.0061937259068
 21
-1339.159529552883
 31
0
  0
LINE
  8
1
 62
3
 10
422.0061937259068
 20
-1343.359529552883
 30
0
 11
422.0061937259068
 21
-1342.359529552883
 31
0
  0
LINE
  8
1
 62
3
 10
408.0061937259068
 20
-1337.359529552883
 30
0
 11
408.0061937259068
 21
-1325.859529552883
 31
0
  0
LINE
  8
1
 62
3
 10
407.6061937259069
 20
-1337.359529552883
 30
0
 11
407.6061937259069
 21
-1325.859529552883
 31
0
  0
LINE
  8
1
 62
3
 10
422.0061937259068
 20
-1323.859529552883
 30
0
 11
422.0061937259068
 21
-1325.359529552883
 31
0
  0
LINE
  8
1
 62
3
 10
422.0061937259068
 20
-1325.359529552883
 30
0
 11
422.6061937259069
 21
-1325.359529552883
 31
0
  0
LINE
  8
1
 62
3
 10
422.6061937259069
 20
-1325.359529552883
 30
0
 11
422.6061937259069
 21
-1323.859529552883
 31
0
  0
LINE
  8
1
 62
3
 10
422.6061937259069
 20
-1323.859529552883
 30
0
 11
422.0061937259068
 21
-1323.859529552883
 31
0
  0
LINE
  8
1
 62
3
 10
420.0061937259068
 20
-1329.059529552884
 30
0
 11
421.0061937259068
 21
-1329.059529552884
 31
0
  0
LINE
  8
1
 62
3
 10
421.0061937259068
 20
-1337.359529552883
 30
0
 11
421.0061937259068
 21
-1329.059529552884
 31
0
  0
LINE
  8
1
 62
3
 10
420.0061937259068
 20
-1337.359529552883
 30
0
 11
420.0061937259068
 21
-1328.859529552883
 31
0
  0
LINE
  8
1
 62
3
 10
422.0061937259068
 20
-1334.359529552883
 30
0
 11
422.0061937259068
 21
-1328.859529552883
 31
0
  0
LINE
  8
1
 62
3
 10
421.0061937259068
 20
-1329.059529552884
 30
0
 11
422.0061937259068
 21
-1329.059529552884
 31
0
  0
LINE
  8
1
 62
3
 10
420.0061937259068
 20
-1327.659529552883
 30
0
 11
421.0061937259068
 21
-1327.659529552883
 31
0
  0
LINE
  8
1
 62
3
 10
420.0061937259068
 20
-1328.859529552883
 30
0
 11
420.0061937259068
 21
-1327.859529552883
 31
0
  0
LINE
  8
1
 62
3
 10
422.0061937259068
 20
-1328.859529552883
 30
0
 11
422.0061937259068
 21
-1327.859529552883
 31
0
  0
LINE
  8
1
 62
3
 10
421.0061937259068
 20
-1327.659529552883
 30
0
 11
422.0061937259068
 21
-1327.659529552883
 31
0
  0
LINE
  8
1
 62
3
 10
421.0061937259068
 20
-1327.659529552883
 30
0
 11
421.0061937259068
 21
-1323.859529552883
 31
0
  0
LINE
  8
1
 62
3
 10
413.0061937259068
 20
-1323.859529552883
 30
0
 11
421.0061937259068
 21
-1323.859529552883
 31
0
  0
LINE
  8
1
 62
3
 10
422.0061937259068
 20
-1334.659529552883
 30
0
 11
422.0061937259068
 21
-1335.559529552884
 31
0
  0
LINE
  8
1
 62
3
 10
422.0061937259068
 20
-1335.559529552884
 30
0
 11
422.6061937259069
 21
-1335.559529552884
 31
0
  0
LINE
  8
1
 62
3
 10
422.6061937259069
 20
-1335.559529552884
 30
0
 11
422.6061937259069
 21
-1334.659529552883
 31
0
  0
LINE
  8
1
 62
3
 10
422.0061937259068
 20
-1334.359529552883
 30
0
 11
422.0061937259068
 21
-1334.659529552883
 31
0
  0
LINE
  8
1
 62
3
 10
422.6061937259069
 20
-1334.659529552883
 30
0
 11
422.0061937259068
 21
-1334.659529552883
 31
0
  0
LINE
  8
1
 62
3
 10
420.0061937259068
 20
-1327.859529552883
 30
0
 11
420.0061937259068
 21
-1325.859529552883
 31
0
  0
LINE
  8
1
 62
3
 10
413.4061937259066
 20
-1325.859529552883
 30
0
 11
413.0061937259068
 21
-1325.859529552883
 31
0
  0
LINE
  8
1
 62
3
 10
409.2061937259068
 20
-1325.859529552883
 30
0
 11
413.0061937259068
 21
-1325.859529552883
 31
0
  0
LINE
  8
1
 62
3
 10
413.0061937259068
 20
-1325.859529552883
 30
0
 11
413.0061937259068
 21
-1323.859529552883
 31
0
  0
LINE
  8
1
 62
3
 10
421.0061937259068
 20
-1323.859529552883
 30
0
 11
422.0061937259068
 21
-1323.859529552883
 31
0
  0
LINE
  8
1
 62
3
 10
422.0061937259068
 20
-1325.359529552883
 30
0
 11
422.0061937259068
 21
-1331.359529552883
 31
0
  0
LINE
  8
1
 62
3
 10
422.0061937259068
 20
-1335.559529552884
 30
0
 11
422.0061937259068
 21
-1335.859529552883
 31
0
  0
LINE
  8
1
 62
3
 10
422.0061937259068
 20
-1338.859529552883
 30
0
 11
422.0061937259068
 21
-1335.859529552883
 31
0
  0
LINE
  8
1
 62
3
 10
461.434547275197
 20
-1326.859529552883
 30
0
 11
497.4628797967799
 21
-1326.859529552883
 31
0
  0
LINE
  8
1
 62
3
 10
422.0061937259068
 20
-1327.859529552883
 30
0
 11
422.0061937259068
 21
-1331.359529552883
 31
0
  0
LINE
  8
1
 62
3
 10
411.6061937259069
 20
-1331.209529552883
 30
0
 11
411.8061937259067
 21
-1331.209529552883
 31
0
  0
LINE
  8
1
 62
3
 10
409.2061937259068
 20
-1331.209529552883
 30
0
 11
411.6061937259069
 21
-1331.209529552883
 31
0
  0
LINE
  8
1
 62
3
 10
411.8061937259067
 20
-1330.009529552884
 30
0
 11
411.6061937259069
 21
-1330.009529552883
 31
0
  0
LINE
  8
1
 62
3
 10
415.0061937259068
 20
-1330.009529552884
 30
0
 11
411.8061937259067
 21
-1330.009529552884
 31
0
  0
LINE
  8
1
 62
3
 10
415.453407321407
 20
-1331.009529552884
 30
0
 11
409.2061937259068
 21
-1331.009529552884
 31
0
  0
LINE
  8
1
 62
3
 10
409.2061937259068
 20
-1331.009529552884
 30
0
 11
409.2061937259068
 21
-1330.209529552883
 31
0
  0
LINE
  8
1
 62
3
 10
415.453407321407
 20
-1330.209529552883
 30
0
 11
409.2061937259068
 21
-1330.209529552883
 31
0
  0
LINE
  8
1
 62
3
 10
411.8061937259067
 20
-1331.209529552883
 30
0
 11
415.0061937259068
 21
-1331.209529552883
 31
0
  0
LINE
  8
1
 62
3
 10
411.6061937259069
 20
-1330.009529552883
 30
0
 11
409.2061937259068
 21
-1330.009529552883
 31
0
  0
LINE
  8
1
 62
3
 10
409.2061937259068
 20
-1333.559529552882
 30
0
 11
409.0061937259068
 21
-1333.559529552882
 31
0
  0
LINE
  8
1
 62
3
 10
408.4061937259066
 20
-1332.159529552883
 30
0
 11
409.0061937259068
 21
-1332.159529552883
 31
0
  0
LINE
  8
1
 62
3
 10
409.0061937259068
 20
-1333.559529552882
 30
0
 11
409.0061937259068
 21
-1332.159529552883
 31
0
  0
LINE
  8
1
 62
3
 10
409.0061937259068
 20
-1333.559529552882
 30
0
 11
408.4061937259066
 21
-1333.559529552882
 31
0
  0
LINE
  8
1
 62
3
 10
408.4061937259066
 20
-1333.559529552882
 30
0
 11
408.4061937259066
 21
-1332.159529552883
 31
0
  0
LINE
  8
1
 62
3
 10
409.0061937259068
 20
-1332.159529552883
 30
0
 11
409.2061937259068
 21
-1332.159529552883
 31
0
  0
LINE
  8
1
 62
3
 10
422.0061937259068
 20
-1330.159529552883
 30
0
 11
422.0061937259068
 21
-1331.059529552884
 31
0
  0
LINE
  8
1
 62
3
 10
422.0061937259068
 20
-1331.059529552884
 30
0
 11
422.6061937259069
 21
-1331.059529552882
 31
0
  0
LINE
  8
1
 62
3
 10
422.6061937259069
 20
-1331.059529552882
 30
0
 11
422.6061937259069
 21
-1330.159529552883
 31
0
  0
LINE
  8
1
 62
3
 10
422.0061937259068
 20
-1329.859529552883
 30
0
 11
422.0061937259068
 21
-1330.159529552883
 31
0
  0
LINE
  8
1
 62
3
 10
422.6061937259069
 20
-1330.159529552883
 30
0
 11
422.0061937259068
 21
-1330.159529552883
 31
0
  0
LINE
  8
1
 62
3
 10
422.0061937259068
 20
-1331.059529552884
 30
0
 11
422.0061937259068
 21
-1331.359529552883
 31
0
  0
LINE
  8
1
 62
3
 10
411.8061937259067
 20
-1334.509529552884
 30
0
 11
411.8061937259067
 21
-1331.209529552883
 31
0
  0
LINE
  8
1
 62
3
 10
411.6061937259069
 20
-1326.709529552883
 30
0
 11
411.6061937259069
 21
-1330.009529552883
 31
0
  0
LINE
  8
1
 62
3
 10
409.2061937259068
 20
-1334.709529552883
 30
0
 11
409.2061937259068
 21
-1333.559529552882
 31
0
  0
LINE
  8
1
 62
3
 10
527.4628797967799
 20
-1334.359529552883
 30
0
 11
527.4628797967799
 21
-1333.659529552883
 31
0
  0
LINE
  8
1
 62
3
 10
527.4628797967799
 20
-1333.659529552883
 30
0
 11
527.4628797967799
 21
-1332.059529552884
 31
0
  0
LINE
  8
1
 62
3
 10
527.4628797967799
 20
-1329.859529552883
 30
0
 11
527.4628797967799
 21
-1329.159529552883
 31
0
  0
LINE
  8
1
 62
3
 10
527.4628797967799
 20
-1329.159529552883
 30
0
 11
527.4628797967799
 21
-1327.559529552884
 31
0
  0
LINE
  8
1
 62
3
 10
527.4628797967799
 20
-1332.059529552884
 30
0
 11
527.4628797967799
 21
-1331.359529552883
 31
0
  0
LINE
  8
1
 62
3
 10
527.4628797967799
 20
-1327.559529552884
 30
0
 11
527.4628797967799
 21
-1326.859529552883
 31
0
  0
LINE
  8
1
 62
3
 10
507.4628797967799
 20
-1334.359529552883
 30
0
 11
507.4628797967799
 21
-1333.659529552883
 31
0
  0
LINE
  8
1
 62
3
 10
507.4628797967799
 20
-1333.659529552883
 30
0
 11
507.4628797967799
 21
-1332.059529552884
 31
0
  0
LINE
  8
1
 62
3
 10
507.4628797967799
 20
-1329.859529552883
 30
0
 11
507.4628797967799
 21
-1329.159529552883
 31
0
  0
LINE
  8
1
 62
3
 10
507.4628797967799
 20
-1329.159529552883
 30
0
 11
507.4628797967799
 21
-1327.559529552884
 31
0
  0
LINE
  8
1
 62
3
 10
507.4628797967799
 20
-1332.059529552884
 30
0
 11
507.4628797967799
 21
-1331.359529552883
 31
0
  0
LINE
  8
1
 62
3
 10
507.4628797967799
 20
-1327.559529552884
 30
0
 11
507.4628797967799
 21
-1326.859529552883
 31
0
  0
LINE
  8
1
 62
3
 10
497.4628797967799
 20
-1334.359529552883
 30
0
 11
461.434547275197
 21
-1334.359529552883
 31
0
  0
LINE
  8
1
 62
3
 10
507.4628797967799
 20
-1331.359529552883
 30
0
 11
527.4628797967799
 21
-1331.359529552883
 31
0
  0
LINE
  8
1
 62
3
 10
497.4628797967799
 20
-1329.859529552883
 30
0
 11
461.434547275197
 21
-1329.859529552883
 31
0
  0
LINE
  8
1
 62
3
 10
507.4628797967799
 20
-1326.859529552883
 30
0
 11
527.4628797967799
 21
-1326.859529552883
 31
0
  0
ARC
  8
30
 62
3
 10
491.1461233689741
 20
-1185.842787887728
 30
0
 40
51.59999999999864
 50
199.4393582143156
 51
210.5606417856858
  0
ARC
  8
30
 62
3
 10
484.8461233689736
 20
-1184.742787887724
 30
0
 40
45.39999999999719
 50
113.6770660137577
 51
126.3229339862466
  0
ARC
  8
30
 62
3
 10
491.1461233689741
 20
-1185.842787887728
 30
0
 40
50.09999999999879
 50
227.0627591180824
 51
266.3793125914418
  0
ARC
  8
30
 62
3
 10
491.1461233689741
 20
-1185.842787887728
 30
0
 40
50.09999999999855
 50
183.3658138934721
 51
214.6617357114894
  0
ARC
  8
30
 62
3
 10
488.3461233689752
 20
-1180.972787887726
 30
0
 40
41.0999999999998
 50
7.812401828537396
 51
21.78759817145911
  0
ARC
  8
30
 62
3
 10
488.3461233689752
 20
-1180.972787887726
 30
0
 40
39.60000000000008
 50
50.25821824375709
 51
59.51724256490607
  0
ARC
  8
30
 62
3
 10
485.4761233689753
 20
-1187.742787887728
 30
0
 40
46.90000000000021
 50
60.69129591365649
 51
90.39118444967218
  0
ARC
  8
30
 62
3
 10
484.8461233689737
 20
-1184.742787887728
 30
0
 40
43.90000000000047
 50
89.59567015347356
 51
185.2820953841074
  0
ARC
  8
30
 62
3
 10
488.3461233689752
 20
-1180.972787887726
 30
0
 40
39.60000000000007
 50
5.838462665344577
 51
34.67995066269086
  0
ARC
  8
31
 62
3
 10
506.0486499905621
 20
-1144.485636474306
 30
0
 40
0.9999999999956574
 50
244.5648601631003
 51
315.0000000000207
  0
ARC
  8
31
 62
3
 10
521.758638749373
 20
-1157.908447100382
 30
0
 40
1.000000000001053
 50
134.9999999999401
 51
214.616948618342
  0
ARC
  8
31
 62
3
 10
520.0461233689755
 20
-1151.842787887728
 30
0
 40
4.49999999999883
 50
315.0000000000122
 51
0
  0
ARC
  8
31
 62
3
 10
520.0461233689755
 20
-1151.842787887728
 30
0
 40
4.499999999999886
 50
0
 51
134.9999999999939
  0
ARC
  8
31
 62
3
 10
521.3867614074779
 20
-1157.37880056026
 30
0
 40
0.9999999999994054
 50
233.9532163383607
 51
299.00000000005
  0
ARC
  8
31
 62
3
 10
514.3322219646802
 20
-1149.778514698972
 30
0
 40
1.000000000004021
 50
230.2043260330289
 51
315.0000000000368
  0
ARC
  8
31
 62
3
 10
523.4522292556368
 20
-1160.57863849446
 30
0
 40
1.000000000000711
 50
118.9999999999989
 51
210.1535394941031
  0
ARC
  8
31
 62
3
 10
464.0661667254008
 20
-1229.177369323138
 30
0
 40
1.000000000000341
 50
57.99856910184289
 51
134.9999999999424
  0
ARC
  8
31
 62
3
 10
449.0461233689755
 20
-1222.842787887726
 30
0
 40
4.499999999999072
 50
135.0000000000154
 51
314.9999999999734
  0
ARC
  8
1
 62
3
 10
415.0061937259068
 20
-1344.109529552883
 30
0
 40
0.6000000000000796
 50
0
 51
41.81031489577227
  0
ARC
  8
1
 62
3
 10
415.0061937259068
 20
-1344.109529552883
 30
0
 40
0.6000000000002106
 50
41.81031489577227
 51
90
  0
ARC
  8
1
 62
3
 10
415.0061937259068
 20
-1344.109529552883
 30
0
 40
0.6000000000000796
 50
0
 51
41.81031489577227
  0
ARC
  8
1
 62
3
 10
415.0061937259068
 20
-1339.609529552883
 30
0
 40
0.6000000000008169
 50
318.189685104163
 51
41.81031489577227
  0
ARC
  8
1
 62
3
 10
415.0061937259068
 20
-1339.609529552883
 30
0
 40
0.5999999999999091
 50
270
 51
318.189685104163
  0
ARC
  8
1
 62
3
 10
415.0061937259068
 20
-1339.609529552883
 30
0
 40
0.6000000000002106
 50
41.81031489577227
 51
90
  0
ARC
  8
1
 62
3
 10
415.0061937259068
 20
-1326.109529552883
 30
0
 40
0.6000000000008169
 50
318.189685104163
 51
0
  0
ARC
  8
1
 62
3
 10
415.0061937259068
 20
-1335.109529552883
 30
0
 40
0.6000000000008169
 50
318.189685104163
 51
41.81031489577227
  0
ARC
  8
1
 62
3
 10
415.0061937259068
 20
-1335.109529552883
 30
0
 40
0.6000000000002106
 50
41.81031489577227
 51
90
  0
ARC
  8
1
 62
3
 10
415.0061937259068
 20
-1326.109529552883
 30
0
 40
0.5999999999999091
 50
270
 51
318.189685104163
  0
ARC
  8
1
 62
3
 10
415.0061937259068
 20
-1335.109529552883
 30
0
 40
0.5999999999999091
 50
270
 51
318.189685104163
  0
ARC
  8
1
 62
3
 10
415.0061937259068
 20
-1330.609529552883
 30
0
 40
0.6000000000008169
 50
318.189685104163
 51
41.81031489577227
  0
ARC
  8
1
 62
3
 10
415.0061937259068
 20
-1330.609529552883
 30
0
 40
0.6000000000002106
 50
41.81031489577227
 51
90
  0
ARC
  8
1
 62
3
 10
415.0061937259068
 20
-1330.609529552883
 30
0
 40
0.5999999999999091
 50
270
 51
318.189685104163
  0
CIRCLE
  8
30
 62
3
 10
488.0461233689766
 20
-1183.842787887724
 30
0
 40
25.99999999999795
  0
CIRCLE
  8
30
 62
3
 10
449.0461233689755
 20
-1222.842787887726
 30
0
 40
2.25
  0
CIRCLE
  8
30
 62
3
 10
520.0461233689755
 20
-1151.842787887728
 30
0
 40
2.25
  0
CIRCLE
  8
1
 62
3
 10
456.5461233689749
 20
-1228.842787887724
 30
0
 40
2.25
  0
CIRCLE
  8
1
 62
3
 10
514.0461233689749
 20
-1144.842787887728
 30
0
 40
2.250000000000455
  0
POLYLINE
  8
1
 62
2
 66
1
  0
VERTEX
  8
1
 10
460.434547275197
 20
-1331.359529552883
 30
0
 42
0.04975852253970134
  0
VERTEX
  8
1
 10
460.215797275197
 20
-1331.547029552883
 30
0
 42
0.06891145508642191
  0
VERTEX
  8
1
 10
460.0845472751969
 20
-1331.734529552883
 30
0
 42
0.08157234048601561
  0
VERTEX
  8
1
 10
460.0282972751969
 20
-1331.922029552883
 30
0
 42
0.07475382782118892
  0
VERTEX
  8
1
 10
460.0345472751967
 20
-1332.109529552883
 30
0
 42
0.0542564797781555
  0
VERTEX
  8
1
 10
460.0907972751967
 20
-1332.297029552883
 30
0
 42
0.03386589280779911
  0
VERTEX
  8
1
 10
460.1845472751969
 20
-1332.484529552883
 30
0
 42
0.01804202594764857
  0
VERTEX
  8
1
 10
460.3032972751968
 20
-1332.672029552883
 30
0
 42
0.005614675627267901
  0
VERTEX
  8
1
 10
460.4345472751968
 20
-1332.859529552883
 30
0
 42
-0.005570886558821488
  0
VERTEX
  8
1
 10
460.5657972751968
 20
-1333.047029552883
 30
0
 42
-0.01763902413658326
  0
VERTEX
  8
1
 10
460.6845472751969
 20
-1333.234529552883
 30
0
 42
-0.03275755487742797
  0
VERTEX
  8
1
 10
460.7782972751968
 20
-1333.422029552883
 30
0
 42
-0.05254984602239291
  0
VERTEX
  8
1
 10
460.8345472751967
 20
-1333.609529552883
 30
0
 42
-0.07438484497813858
  0
VERTEX
  8
1
 10
460.8407972751969
 20
-1333.797029552883
 30
0
 42
-0.08574445397653044
  0
VERTEX
  8
1
 10
460.7845472751968
 20
-1333.984529552883
 30
0
 42
-0.07623395608891609
  0
VERTEX
  8
1
 10
460.653297275197
 20
-1334.172029552883
 30
0
 42
-0.05627722972172686
  0
VERTEX
  8
1
 10
460.434547275197
 20
-1334.359529552883
 30
0
  0
SEQEND
  8
1
  0
POLYLINE
  8
1
 62
2
 66
1
  0
VERTEX
  8
1
 10
461.434547275197
 20
-1331.359529552883
 30
0
 42
0.04975852253970134
  0
VERTEX
  8
1
 10
461.215797275197
 20
-1331.547029552883
 30
0
 42
0.06891145508642191
  0
VERTEX
  8
1
 10
461.0845472751969
 20
-1331.734529552883
 30
0
 42
0.08157234048601561
  0
VERTEX
  8
1
 10
461.0282972751969
 20
-1331.922029552883
 30
0
 42
0.07475382782118892
  0
VERTEX
  8
1
 10
461.0345472751967
 20
-1332.109529552883
 30
0
 42
0.0542564797781555
  0
VERTEX
  8
1
 10
461.0907972751967
 20
-1332.297029552883
 30
0
 42
0.03386589280779911
  0
VERTEX
  8
1
 10
461.1845472751969
 20
-1332.484529552883
 30
0
 42
0.01804202594764857
  0
VERTEX
  8
1
 10
461.3032972751968
 20
-1332.672029552883
 30
0
 42
0.005614675627267901
  0
VERTEX
  8
1
 10
461.4345472751968
 20
-1332.859529552883
 30
0
 42
-0.005570886558821488
  0
VERTEX
  8
1
 10
461.5657972751968
 20
-1333.047029552883
 30
0
 42
-0.01763902413658326
  0
VERTEX
  8
1
 10
461.6845472751969
 20
-1333.234529552883
 30
0
 42
-0.03275755487742797
  0
VERTEX
  8
1
 10
461.7782972751968
 20
-1333.422029552883
 30
0
 42
-0.05254984602239291
  0
VERTEX
  8
1
 10
461.8345472751967
 20
-1333.609529552883
 30
0
 42
-0.07438484497813858
  0
VERTEX
  8
1
 10
461.8407972751969
 20
-1333.797029552883
 30
0
 42
-0.08574445397653044
  0
VERTEX
  8
1
 10
461.7845472751968
 20
-1333.984529552883
 30
0
 42
-0.07623395608891609
  0
VERTEX
  8
1
 10
461.653297275197
 20
-1334.172029552883
 30
0
 42
-0.05627722972172686
  0
VERTEX
  8
1
 10
461.434547275197
 20
-1334.359529552883
 30
0
  0
SEQEND
  8
1
  0
POLYLINE
  8
1
 62
2
 66
1
  0
VERTEX
  8
1
 10
461.434547275197
 20
-1326.859529552883
 30
0
 42
0.04975852253970134
  0
VERTEX
  8
1
 10
461.215797275197
 20
-1327.047029552883
 30
0
 42
0.06891145508642191
  0
VERTEX
  8
1
 10
461.0845472751969
 20
-1327.234529552883
 30
0
 42
0.08157234048601561
  0
VERTEX
  8
1
 10
461.0282972751969
 20
-1327.422029552883
 30
0
 42
0.07475382782118892
  0
VERTEX
  8
1
 10
461.0345472751967
 20
-1327.609529552883
 30
0
 42
0.0542564797781555
  0
VERTEX
  8
1
 10
461.0907972751967
 20
-1327.797029552883
 30
0
 42
0.03386589280779911
  0
VERTEX
  8
1
 10
461.1845472751969
 20
-1327.984529552883
 30
0
 42
0.01804202594764857
  0
VERTEX
  8
1
 10
461.3032972751968
 20
-1328.172029552883
 30
0
 42
0.005614675627267901
  0
VERTEX
  8
1
 10
461.4345472751968
 20
-1328.359529552883
 30
0
 42
-0.005570886558821488
  0
VERTEX
  8
1
 10
461.5657972751968
 20
-1328.547029552883
 30
0
 42
-0.01763902413658326
  0
VERTEX
  8
1
 10
461.6845472751969
 20
-1328.734529552883
 30
0
 42
-0.03275755487742797
  0
VERTEX
  8
1
 10
461.7782972751968
 20
-1328.922029552883
 30
0
 42
-0.05254984602239291
  0
VERTEX
  8
1
 10
461.8345472751967
 20
-1329.109529552883
 30
0
 42
-0.07438484497813858
  0
VERTEX
  8
1
 10
461.8407972751969
 20
-1329.297029552883
 30
0
 42
-0.08574445397653044
  0
VERTEX
  8
1
 10
461.7845472751968
 20
-1329.484529552883
 30
0
 42
-0.07623395608891609
  0
VERTEX
  8
1
 10
461.653297275197
 20
-1329.672029552883
 30
0
 42
-0.05627722972172686
  0
VERTEX
  8
1
 10
461.434547275197
 20
-1329.859529552883
 30
0
  0
SEQEND
  8
1
  0
POLYLINE
  8
1
 62
2
 66
1
  0
VERTEX
  8
1
 10
460.434547275197
 20
-1326.859529552883
 30
0
 42
0.04975852253970134
  0
VERTEX
  8
1
 10
460.215797275197
 20
-1327.047029552883
 30
0
 42
0.06891145508642191
  0
VERTEX
  8
1
 10
460.0845472751969
 20
-1327.234529552883
 30
0
 42
0.08157234048601561
  0
VERTEX
  8
1
 10
460.0282972751969
 20
-1327.422029552883
 30
0
 42
0.07475382782118892
  0
VERTEX
  8
1
 10
460.0345472751967
 20
-1327.609529552883
 30
0
 42
0.0542564797781555
  0
VERTEX
  8
1
 10
460.0907972751967
 20
-1327.797029552883
 30
0
 42
0.03386589280779911
  0
VERTEX
  8
1
 10
460.1845472751969
 20
-1327.984529552883
 30
0
 42
0.01804202594764857
  0
VERTEX
  8
1
 10
460.3032972751968
 20
-1328.172029552883
 30
0
 42
0.005614675627267901
  0
VERTEX
  8
1
 10
460.4345472751968
 20
-1328.359529552883
 30
0
 42
-0.005570886558821488
  0
VERTEX
  8
1
 10
460.5657972751968
 20
-1328.547029552883
 30
0
 42
-0.01763902413658326
  0
VERTEX
  8
1
 10
460.6845472751969
 20
-1328.734529552883
 30
0
 42
-0.03275755487742797
  0
VERTEX
  8
1
 10
460.7782972751968
 20
-1328.922029552883
 30
0
 42
-0.05254984602239291
  0
VERTEX
  8
1
 10
460.8345472751967
 20
-1329.109529552883
 30
0
 42
-0.07438484497813858
  0
VERTEX
  8
1
 10
460.8407972751969
 20
-1329.297029552883
 30
0
 42
-0.08574445397653044
  0
VERTEX
  8
1
 10
460.7845472751968
 20
-1329.484529552883
 30
0
 42
-0.07623395608891609
  0
VERTEX
  8
1
 10
460.653297275197
 20
-1329.672029552883
 30
0
 42
-0.05627722972172686
  0
VERTEX
  8
1
 10
460.434547275197
 20
-1329.859529552883
 30
0
  0
SEQEND
  8
1
  0
ARC
  8
30
 62
3
 10
528.7355167786318
 20
-1176.842787887728
 30
0
 40
0.9999999999998516
 50
185.8384626652859
 51
270
  0
ARC
  8
35
 62
3
 10
589.4540794292923
 20
-1234.342787887728
 30
0
 40
1.500000000000341
 50
180
 51
270
  0
ARC
  8
35
 62
3
 10
589.4540794292923
 20
-1179.342787887728
 30
0
 40
1.5
 50
90
 51
180
  0
ARC
  8
35
 62
3
 10
590.4540794292923
 20
-1233.342787887728
 30
0
 40
0.5
 50
180
 51
270
  0
ARC
  8
35
 62
3
 10
589.4540794292918
 20
-1142.342787887734
 30
0
 40
1.5
 50
90
 51
180
  0
ARC
  8
35
 62
3
 10
590.4540794292923
 20
-1194.68278788773
 30
0
 40
0.5
 50
90
 51
180
  0
ARC
  8
1
 62
3
 10
619.4540794292919
 20
-1179.342787887728
 30
0
 40
1.5
 50
0
 51
90
  0
ARC
  8
1
 62
3
 10
619.4540794292919
 20
-1234.34278788773
 30
0
 40
1.5
 50
270
 51
0
  0
ARC
  8
1
 62
3
 10
620.4540794292941
 20
-1141.34278788773
 30
0
 40
0.5
 50
0
 51
90
  0
ARC
  8
1
 62
3
 10
618.4540794292931
 20
-1233.34278788773
 30
0
 40
0.5
 50
270
 51
0
  0
ARC
  8
31
 62
3
 10
512.9696731701907
 20
-1145.34278788773
 30
0
 40
4.5
 50
90
 51
134.9999999999959
  0
ARC
  8
31
 62
3
 10
514.474694797549
 20
-1145.34278788773
 30
0
 40
4.499999999999817
 50
40.60129464501138
 51
90
  0
ARC
  8
31
 62
3
 10
528.1458670293912
 20
-1163.922353745168
 30
0
 40
0.5000000000001629
 50
298.999999999959
 51
29.00000000008559
  0
ARC
  8
31
 62
3
 10
525.6268193948058
 20
-1157.315206174944
 30
0
 40
0.999999999999046
 50
28.99999999988048
 51
119.0000000000443
  0
ARC
  8
31
 62
3
 10
529.5052963567767
 20
-1164.31216383206
 30
0
 40
1.000000000000601
 50
298.9999999999875
 51
29.00000000009313
  0
ARC
  8
31
 62
3
 10
525.382452193987
 20
-1158.937021414472
 30
0
 40
0.5000000000001066
 50
29.00000000008174
 51
119.0000000000046
  0
ARC
  8
31
 62
3
 10
526.8434960202766
 20
-1165.787623851744
 30
0
 40
1.000000000000027
 50
274.3615678940429
 51
298.9999999999932
  0
ARC
  8
31
 62
3
 10
526.4061861667068
 20
-1166.030028661866
 30
0
 40
0.5000000000004384
 50
119.000000000016
 51
161.3955926541564
  0
ARC
  8
31
 62
3
 10
456.5885957016334
 20
-1228.87676575385
 30
0
 40
4.500000000001722
 50
231.3401917459342
 51
314.9999999999882
  0
ARC
  8
31
 62
3
 10
456.376875821421
 20
-1223.290210028334
 30
0
 40
0.9999999999996143
 50
47.12385607136785
 51
135.0000000000276
  0
ARC
  8
31
 62
3
 10
449.1522451886917
 20
-1214.95849147496
 30
0
 40
0.9999999999996866
 50
315.0000000000276
 51
34.7348116700749
  0
POLYLINE
  8
1
 62
2
 66
1
 70
1
  0
VERTEX
  8
1
 10
405.8282689642749
 20
-1112.27277049067
 30
0
  0
VERTEX
  8
1
 10
471.1282689642749
 20
-1112.27277049067
 30
0
  0
VERTEX
  8
1
 10
471.1282689642749
 20
-1104.27277049067
 30
0
  0
VERTEX
  8
1
 10
405.8282689642749
 20
-1104.27277049067
 30
0
  0
SEQEND
  8
1
  0
LINE
  8
1
 62
2
 10
383.317882517135
 20
-1316.104991292294
 30
0
 11
412.011339887008
 21
-1316.104991292294
 31
0
  0
LINE
  8
1
 62
2
 10
412.011339887008
 20
-1316.104991292294
 30
0
 11
418.109106673332
 21
-1323.859529552883
 31
0
  0
SOLID
  8
1
 62
2
 10
415.7999275491604
 20
-1321.604496217225
 30
0
 11
416.4622564943764
 21
-1321.08367507894
 31
0
 12
418.109106673332
 22
-1323.859529552883
 32
0
 13
418.109106673332
 23
-1323.859529552883
 33
0
  0
TEXT
  8
1
 62
2
 10
407.8282689642749
 20
-1110.27277049067
 30
0
 40
4
  1
E1033HüáüáBüáAM-04
 41
0.9
  0
TEXT
  8
1
 62
2
 10
404.8999270623069
 20
-1217.68638708456
 30
0
 40
3
  1
(1.772ü}0.012)
 50
90
 41
0.9
  0
TEXT
  8
1
 62
2
 10
417.355922874435
 20
-1218.17011507727
 30
0
 40
3
  1
(1.535ü}0.012)
 50
90
 41
0.9
  0
TEXT
  8
1
 62
2
 10
461.622232541925
 20
-1281.60411177469
 30
0
 40
3
  1
(3.82)
 41
0.9
  0
TEXT
  8
1
 62
2
 10
503.7243930719919
 20
-1265.6849074181
 30
0
 40
3
  1
(1.97)
 41
0.9
  0
TEXT
  8
1
 62
2
 10
453.590810262427
 20
-1265.9908065424
 30
0
 40
3
  1
(1.535ü}0.012)
 41
0.9
  0
TEXT
  8
1
 62
2
 10
461.70230967442
 20
-1249.53840076494
 30
0
 40
3
  1
(1.240ü}0.012)
 41
0.72
  0
TEXT
  8
1
 62
2
 10
564.8457268255049
 20
-1216.67585610729
 30
0
 40
3
  1
(2.05)
 50
90
 41
0.9
  0
TEXT
  8
1
 62
2
 10
550.1759098860629
 20
-1177.16369837725
 30
0
 40
3
  1
(1.260ü}0.012)
 50
90
 41
0.72
  0
TEXT
  8
1
 62
2
 10
564.966019806217
 20
-1177.85034887223
 30
0
 40
3
  1
(1.535ü}0.012)
 50
90
 41
0.9
  0
TEXT
  8
1
 62
2
 10
489.6023837027859
 20
-1135.03085320009
 30
0
 40
3
  1
(1.024ü}0.012)
 41
0.72
  0
TEXT
  8
1
 62
2
 10
531.9606247468475
 20
-1231.350362239092
 30
0
 40
3.5
  1
<
 41
0.9
  0
TEXT
  8
1
 62
2
 10
512.3483399746576
 20
-1226.628752909062
 30
0
 40
3.5
  1
>
 41
0.9
  0
TEXT
  8
1
 62
2
 10
515.0899861486491
 20
-1227.013645948468
 30
0
 40
3
  1
ABS+PBT
 41
0.9
  0
TEXT
  8
1
 62
2
 10
515.0899861486491
 20
-1231.513645948468
 30
0
 40
3
  1
 -GF30
 41
0.9
  0
TEXT
  8
1
 62
2
 10
388.8797862333449
 20
-1193.65910581374
 30
0
 40
3
  1
(3.74)
 50
90
 41
0.9
  0
TEXT
  8
1
 62
2
 10
397.033864912599
 20
-1249.69335381435
 30
0
 40
3
  1
(4-0.18dia. HOLES)
 41
0.9
  0
TEXT
  8
1
 62
2
 10
579.7118718342529
 20
-1211.84157925209
 30
0
 40
3
  1
(2.28)
 50
90
 41
0.9
  0
TEXT
  8
1
 62
2
 10
597.270795322112
 20
-1249.683315237
 30
0
 40
3
  1
(1.30)
 41
0.9
  0
TEXT
  8
1
 62
2
 10
602.270795322112
 20
-1134.683315237
 30
0
 40
3
  1
(0.20)
 41
0.9
  0
TEXT
  8
1
 62
2
 10
410.1533732828639
 20
-1162.431529411969
 30
0
 40
2.999999999999999
  1
(2.05dia. Intake)
 50
342
 41
0.72
  0
TEXT
  8
1
 62
2
 10
576.2482344094304
 20
-1192.415241993549
 30
0
 40
3.5
  1
ïzì×î¹
 41
0.9
  0
TEXT
  8
1
 62
2
 10
540.4613799147049
 20
-1210.258190013983
 30
0
 40
3.5
  1
ôfÅoî¹
 41
0.9
  0
TEXT
  8
1
 62
2
 10
382.8893976935663
 20
-1314.130188390544
 30
0
 40
4
  1
âtâ@âôÉ┌æ▒æñâRâlâNâ^
 41
0.63
  0
TEXT
  8
1
 62
2
 10
377.718796180876
 20
-1290.658989992472
 30
0
 40
5
  1
üEòtæ«âRü[âh
 41
0.9
  0
TEXT
  8
1
 62
2
 10
377.718796180876
 20
-1299.408989992472
 30
0
 40
5
  1
ü@ü@òWÅÇÆ[Äqâ^âCâvüiü|éOéSüjé╔é═û{âRü[âhé¬ô»ì½ééÛé─é¿éÞé▄éÀüB
 41
0.9
  0
TEXT
  8
1
 62
2
 10
530.2192003982044
 20
-1335.360597183577
 30
0
 40
3.2
  1
ìòüiéfémécüj
 41
0.9
  0
TEXT
  8
1
 62
2
 10
530.2192003982044
 20
-1330.150340250766
 30
0
 40
3.2
  1
ÉÈüiü{éuüj
 41
0.9
  0
TEXT
  8
1
 62
2
 10
428.3534941036312
 20
-1345.24410722395
 30
0
 40
4
  1
âèü[âhÉ³Ädùlü@étékéRéQéUéUü@é`évéféQéS
 41
0.7200000000000001
  0
TEXT
  8
1
 62
2
 10
419.5030648630113
 20
-1343.104353627805
 30
0
 40
4
  1
éS éR éQ éP
 50
90
 41
0.5850000000000001
  0
TEXT
  8
1
 62
2
 10
380.6924038132919
 20
-1356.396702236469
 30
0
 40
4
  1
üªâèü[âhÉ³Æ[ûûé═ÉcÉ³ò█îýé╠êÎüAöÝòóé­Æàé»é¢Å%%cæÈé╔éÁé─éáéÞé▄éÀüBüiâÇâLæÒüFéPéOü}éTüj
 41
0.9
  0
TEXT
  8
1
 62
2
 10
559.8556093992251
 20
-1295.595873054942
 30
0
 40
5
  1
üEÆ[ÄqÅoù═
 41
0.9
  0
TEXT
  8
1
 62
2
 10
559.8556093992251
 20
-1304.345873054942
 30
0
 40
5
  1
ü@ü@éPüFüiü{üj
 41
0.9
  0
TEXT
  8
1
 62
2
 10
559.8556093992251
 20
-1313.095873054942
 30
0
 40
5
  1
ü@ü@éQüFüiü|üjéféméc
 41
0.9
  0
TEXT
  8
1
 62
2
 10
559.8556093992251
 20
-1321.845873054942
 30
0
 40
5
  1
ü@ü@éRüFérâZâôâTü[Åoù═üiìSæ®îƒÆmüj
 41
0.9
  0
TEXT
  8
1
 62
2
 10
559.8556093992251
 20
-1330.595873054942
 30
0
 40
5
  1
ü@ü@éSüFéoâZâôâTü[Åoù═üiâpâïâXÅoù═üj
 41
0.9
  0
TEXT
  8
1
 62
2
 10
559.8556093992251
 20
-1339.345873054942
 30
0
 40
5
  1
üªâIâvâVâçâôéãéÁé─üAérâZâôâTü[üAéoâZâôâTü[ùpâRü[âh
 41
0.9
  0
TEXT
  8
1
 62
2
 10
559.8556093992251
 20
-1348.095873054942
 30
0
 40
5
  1
ü@éÓé▓ùpêËéÁé─é¿éÞé▄éÀüB
 41
0.9
  0
TEXT
  8
1
 62
2
 10
559.8556093992251
 20
-1356.845873054942
 30
0
 40
5
  1
ü@Å┌ìÎé═éfü|éVéQé­ÄQÅãé¡é¥ééóüB
 41
0.9
  0
TEXT
  8
1
 62
2
 10
492.580863815047
 20
-1120.32534700365
 30
0
 40
3
  1
(1.260ü}0.012)
 41
0.72
  0
TEXT
  8
1
 62
2
 10
381.378776179994
 20
-1321.3889611737
 30
0
 40
3
  1
éyégéqü|éSüiô·û{ê%%dÆàÆ[Äqüj
 41
0.72
  0
DIMENSION
  8
1
  6
CONTINUOUS
 62
2
  2
*D0
  3
DMST_1
 10
615.9540794292931
 20
-1130
 30
0
 11
605.1163884362079
 21
-1126.4
 31
0
 12
0
 22
0
 32
0
 70
0
 13
620.9540794292941
 23
-1141.34278788773
 33
0
 14
615.9540794292931
 24
-1140.84278788773
 34
0
 53
0
  0
DIMENSION
  8
1
  6
CONTINUOUS
 62
2
  2
*D1
  3
DMST_2
 10
514.046123368975
 20
-1130.04033289518
 30
0
 11
501.331703117145
 21
-1126.44033289518
 31
0
 12
0
 22
0
 32
0
 70
0
 13
488.0461233689755
 23
-1132.570410272684
 33
0
 14
514.0461233689749
 24
-1141.917787887726
 34
0
 53
0
  0
DIMENSION
  8
1
  6
CONTINUOUS
 62
2
  2
*D2
  3
DMST_2
 10
545.493774344389
 20
-1183.842787887726
 30
0
 11
541.8937743443889
 21
-1168.38305703409
 31
0
 12
0
 22
0
 32
0
 70
0
 13
523.4852668916363
 23
-1151.842787887728
 33
0
 14
542.7348316132529
 24
-1183.842787887726
 34
0
 50
90
 53
0
  0
DIMENSION
  8
1
  6
CONTINUOUS
 62
2
  2
*D3
  3
DMST_2
 10
559.89135432926
 20
-1183.842787887726
 30
0
 11
556.29135432926
 21
-1166.60358085618
 31
0
 12
0
 22
0
 32
0
 70
0
 13
516.971123368975
 23
-1144.842787887728
 33
0
 14
542.7348316132529
 24
-1183.842787887726
 34
0
 50
90
 53
0
  0
DIMENSION
  8
1
  6
CONTINUOUS
 62
2
  2
*D4
  3
DMST_3
 10
488.0461233689753
 20
-1260
 30
0
 11
510.1163884362079
 21
-1256.4
 31
0
 12
0
 22
0
 32
0
 70
0
 13
538.0461233689752
 23
-1235.842787887726
 33
0
 14
488.0461233689754
 24
-1245.194183296538
 34
0
 53
0
  0
DIMENSION
  8
1
  6
CONTINUOUS
 62
2
  2
*D5
  3
DMST_2
 10
456.546123368975
 20
-1245
 30
0
 11
472.232383481211
 21
-1241.3432384831
 31
0
 12
0
 22
0
 32
0
 70
0
 13
488.0461233689754
 23
-1245.194183296538
 33
0
 14
456.5461233689749
 24
-1231.767787887726
 34
0
 53
0
  0
DIMENSION
  8
1
  6
CONTINUOUS
 62
2
  2
*D6
  3
DMST_2
 10
449.0461233689756
 20
-1260
 30
0
 11
465.116388436208
 21
-1256.4
 31
0
 12
0
 22
0
 32
0
 70
0
 13
488.0461233689754
 23
-1245.194183296538
 33
0
 14
449.0461233689755
 24
-1225.777321794656
 34
0
 53
0
  0
DIMENSION
  8
1
  6
CONTINUOUS
 62
2
  2
*D7
  3
DMST_3
 10
440.9461233689752
 20
-1274.68554669949
 30
0
 11
488.506605348736
 21
-1271.08554669949
 31
0
 12
0
 22
0
 32
0
 70
0
 13
538.0461233689752
 23
-1235.842787887726
 33
0
 14
440.9461233689751
 24
-1184.742787887728
 34
0
 53
0
  0
DIMENSION
  8
1
  6
CONTINUOUS
 62
2
  2
*D8
  3
DMST_2
 10
413.564898336958
 20
-1222.842787887726
 30
0
 11
409.964898336958
 21
-1205.61253103586
 31
0
 12
0
 22
0
 32
0
 70
0
 13
434.3789068303033
 23
-1183.842787887726
 33
0
 14
446.0007801876824
 24
-1222.842787887726
 34
0
 50
90
 53
0
  0
DIMENSION
  8
1
  6
CONTINUOUS
 62
2
  2
*D9
  3
DMST_2
 10
400.116388436208
 20
-1183.842787887726
 30
0
 11
396.516388436208
 21
-1205
 31
0
 12
0
 22
0
 32
0
 70
0
 13
453.6211233689747
 23
-1228.842787887724
 33
0
 14
434.3789068303033
 24
-1183.842787887726
 34
0
 50
90
 53
0
  0
DIMENSION
  8
1
  6
CONTINUOUS
 62
2
  2
*D10
  3
DMST_3
 10
385.035550849002
 20
-1140.843880985626
 30
0
 11
381.435550849002
 21
-1187.03441634376
 31
0
 12
0
 22
0
 32
0
 70
0
 13
487.9822649650646
 23
-1235.842787887726
 33
0
 14
485.155918140754
 24
-1140.843880985626
 34
0
 50
90
 53
0
  0
DIMENSION
  8
1
  6
CONTINUOUS
 62
2
  2
*D11
  3
DMST_3
 10
560.116388436208
 20
-1235.842787887726
 30
0
 11
556.516388436208
 21
-1210
 31
0
 12
0
 22
0
 32
0
 70
0
 13
542.7348316132529
 23
-1183.842787887726
 33
0
 14
538.0461233689752
 24
-1235.842787887726
 34
0
 50
90
 53
0
  0
DIMENSION
  8
1
  6
CONTINUOUS
 62
2
  2
*D12
  3
DMST_3
 10
587.9540794292919
 20
-1245.02664136465
 30
0
 11
602.7248912796219
 21
-1241.42664136465
 31
0
 12
0
 22
0
 32
0
 70
1
 13
620.9540794292919
 23
-1234.34278788773
 33
0
 14
587.9540794292919
 24
-1234.342787887728
 34
0
 53
0
  0
DIMENSION
  8
1
  6
CONTINUOUS
 62
2
  2
*D13
  3
DMST_3
 10
574.9929380451389
 20
-1177.842787887728
 30
0
 11
571.3929380451389
 21
-1206.22946065798
 31
0
 12
0
 22
0
 32
0
 70
1
 13
589.4540794292923
 23
-1235.842787887728
 33
0
 14
589.4540794292923
 24
-1177.842787887728
 34
0
 53
0
  0
DIMENSION
  8
1
  6
CONTINUOUS
 62
2
  2
*D14
  3
DMST_4
 10
422.0061937259068
 20
-1314.59240709857
 30
0
 11
459.3719322955319
 21
-1310.59240709857
 31
0
 12
0
 22
0
 32
0
 70
0
  1
320
 13
497.4628797967799
 23
-1326.859529552883
 33
0
 14
422.0061937259068
 24
-1323.859529552883
 34
0
 53
0
  0
DIMENSION
  8
1
  6
CONTINUOUS
 62
2
  2
*D15
  3
DMST_2
 10
520.0461233689755
 20
-1115
 30
0
 11
505
 21
-1111.4
 31
0
 12
0
 22
0
 32
0
 70
0
 13
488.0461233689755
 23
-1132.570410272684
 33
0
 14
520.0461233689755
 24
-1148.02562590039
 34
0
 53
0
  0
DIMENSION
  8
1
  6
CONTINUOUS
 62
2
  2
*D16
  3
DMST_5
 10
450.1050840982335
 20
-1220.85756694942
 30
0
 11
415.116388436208
 21
-1241.4
 31
0
 12
0
 22
0
 32
0
 70
3
  1
4-%%c<>
 15
447.9871626397176
 25
-1224.828008826032
 35
0
 40
0
 53
0
  0
DIMENSION
  8
1
  6
CONTINUOUS
 62
2
  2
*D17
  3
DMST_6
 10
512.7077748056122
 20
-1192.077042463445
 30
0
 11
424.8567872246733
 21
-1158.949196237531
 31
0
 12
0
 22
0
 32
0
 70
3
 15
463.3844719323411
 25
-1175.608533312003
 35
0
 40
0
 53
0
  0
ENDSEC
  0
EOF
