  0
SECTION
  2
HEADER
  9
$ACADVER
  1
AC1009
  9
$INSBASE
 10
0
 20
0
  9
$EXTMIN
 10
5154.799999999999
 20
241665.0409841872
  9
$EXTMAX
 10
5500.783035890577
 20
241860.2
  9
$LIMMIN
 10
5154.799999999999
 20
241665.0409841872
  9
$LIMMAX
 10
5500.783035890577
 20
241860.2
  9
$VIEWCTR
 10
10
 20
10
  9
$VIEWSIZE
 40
10
  9
$SNAPMODE
 70
0
  9
$SNAPUNIT
 10
1
 20
1
  9
$SNAPBASE
 10
0
 20
0
  9
$SNAPANG
 50
0
  9
$SNAPSTYLE
 70
0
  9
$SNAPISOPAIR
 70
0
  9
$GRIDMODE
 70
0
  9
$GRIDUNIT
 10
0
 20
0
  9
$ORTHOMODE
 70
0
  9
$REGENMODE
 70
1
  9
$FILLMODE
 70
1
  9
$QTEXTMODE
 70
0
  9
$DRAGMODE
 70
2
  9
$LTSCALE
 40
1
  9
$OSMODE
 70
0
  9
$ATTMODE
 70
1
  9
$TEXTSIZE
 40
3.5
  9
$TRACEWID
 40
0.5
  9
$TEXTSTYLE
  7
STANDARD
  9
$CLAYER
  8
0
  9
$CELTYPE
  6
BYLAYER
  9
$CECOLOR
 62
256
  9
$DIMSCALE
 40
1
  9
$DIMASZ
 40
0.18
  9
$DIMEXO
 40
0.0625
  9
$DIMDLI
 40
0.38
  9
$DIMRND
 40
0
  9
$DIMDLE
 40
0
  9
$DIMEXE
 40
0.18
  9
$DIMTP
 40
0
  9
$DIMTM
 40
0
  9
$DIMTXT
 40
0.18
  9
$DIMCEN
 40
0.09
  9
$DIMTSZ
 40
0
  9
$DIMTOL
 70
0
  9
$DIMLIM
 70
0
  9
$DIMTIH
 70
1
  9
$DIMTOH
 70
1
  9
$DIMSE1
 70
0
  9
$DIMSE2
 70
0
  9
$DIMTAD
 70
0
  9
$DIMZIN
 70
0
  9
$DIMBLK
  1

  9
$DIMASO
 70
1
  9
$DIMSHO
 70
1
  9
$DIMPOST
  1

  9
$DIMAPOST
  1

  9
$DIMALT
 70
0
  9
$DIMALTD
 70
2
  9
$DIMALTF
 40
25.4
  9
$DIMLFAC
 40
1
  9
$DIMTOFL
 70
0
  9
$DIMTVP
 40
0
  9
$DIMTIX
 70
0
  9
$DIMSOXD
 70
0
  9
$DIMSAH
 70
0
  9
$DIMBLK1
  1

  9
$DIMBLK2
  1

  9
$DIMSTYLE
  2
*UNNAMED
  9
$DIMCLRD
 70
0
  9
$DIMCLRE
 70
0
  9
$DIMCLRT
 70
0
  9
$DIMTFAC
 40
1
  9
$DIMGAP
 40
0.09
  9
$LUNITS
 70
2
  9
$LUPREC
 70
4
  9
$AXISMODE
 70
0
  9
$AXISUNIT
 10
0
 20
0
  9
$SKETCHINC
 40
0.1
  9
$FILLETRAD
 40
2
  9
$AUNITS
 70
0
  9
$AUPREC
 70
0
  9
$MENU
  1
ACAD
  9
$ELEVATION
 40
0
  9
$THICKNESS
 40
0
  9
$VIEWDIR
 10
0
 20
0
 30
1
  9
$LIMCHECK
 70
0
  9
$BLIPMODE
 70
1
  9
$CHAMFERA
 40
0
  9
$CHAMFERB
 40
0
  9
$FASTZOOM
 70
1
  9
$SKPOLY
 70
0
  9
$ANGBASE
 50
0
  9
$ANGDIR
 70
0
  9
$PDMODE
 70
0
  9
$PDSIZE
 40
0
  9
$PLINEWID
 40
0
  9
$COORDS
 70
2
  0
ENDSEC
  0
SECTION
  2
TABLES
  0
TABLE
  2
DIMSTYLE
 70
8
  0
DIMSTYLE
  2
DMST_1
 70
0
  3
±30
  4

  5

  6

  7

 40
1
 41
3.2
 42
1
 43
7
 44
1.5
 45
0
 46
0
 47
0
 48
0
140
3.2
141
0
142
0
143
25.4
144
1
145
0
146
1
147
0.09
 71
0
 72
0
 73
0
 74
0
 75
0
 76
0
 77
1
 78
9
170
0
171
2
172
0
173
0
174
0
175
0
176
2
177
2
178
2
  0
DIMSTYLE
  2
DMST_2
 70
0
  3

  4

  5

  6

  7

 40
1
 41
3.2
 42
1
 43
7
 44
1.5
 45
0
 46
0
 47
0
 48
0
140
3.2
141
0
142
0
143
25.4
144
1
145
0
146
1
147
0.09
 71
0
 72
0
 73
0
 74
0
 75
0
 76
0
 77
1
 78
9
170
0
171
2
172
0
173
0
174
0
175
0
176
2
177
2
178
2
  0
DIMSTYLE
  2
DMST_3
 70
0
  3
±0.3
  4

  5

  6

  7

 40
1
 41
3.2
 42
1
 43
7
 44
1.5
 45
0
 46
0
 47
0
 48
0
140
3.2
141
0
142
0
143
25.4
144
1
145
0
146
1
147
0.09
 71
0
 72
0
 73
0
 74
0
 75
0
 76
0
 77
1
 78
9
170
0
171
2
172
0
173
0
174
0
175
0
176
2
177
2
178
2
  0
DIMSTYLE
  2
DMST_4
 70
0
  3
±0.3
  4

  5

  6

  7

 40
1
 41
3.2
 42
1
 43
7
 44
1.5
 45
0
 46
0
 47
0
 48
0
140
3.2
141
0
142
0
143
25.4
144
1
145
0
146
1
147
0.09
 71
0
 72
0
 73
1
 74
1
 75
0
 76
0
 77
1
 78
9
170
0
171
2
172
0
173
0
174
0
175
0
176
2
177
2
178
2
  0
DIMSTYLE
  2
DMST_5
 70
0
  3

  4

  5

  6

  7

 40
1
 41
3.2
 42
1
 43
7
 44
1.5
 45
0
 46
0
 47
0
 48
0
140
3.2
141
0
142
0
143
25.4
144
1
145
0
146
1
147
0.09
 71
0
 72
0
 73
1
 74
1
 75
0
 76
0
 77
1
 78
9
170
0
171
2
172
0
173
0
174
0
175
0
176
2
177
2
178
2
  0
DIMSTYLE
  2
DMST_6
 70
0
  3

  4

  5

  6

  7

 40
1
 41
3.2
 42
1
 43
7
 44
1.5
 45
0
 46
0
 47
0
 48
0
140
3.2
141
0
142
0
143
25.4
144
1
145
0
146
1
147
0.09
 71
0
 72
0
 73
1
 74
1
 75
0
 76
0
 77
0
 78
9
170
0
171
2
172
0
173
0
174
0
175
0
176
2
177
2
178
2
  0
DIMSTYLE
  2
DMST_7
 70
0
  3
±0.3
  4

  5

  6

  7

 40
1
 41
3.2
 42
1
 43
7
 44
1.5
 45
0
 46
0
 47
0
 48
0
140
3.2
141
-1.5
142
0
143
25.4
144
1
145
0
146
1
147
0.09
 71
0
 72
0
 73
1
 74
1
 75
0
 76
0
 77
1
 78
9
170
0
171
2
172
0
173
0
174
0
175
0
176
2
177
2
178
2
  0
DIMSTYLE
  2
DMST_8
 70
0
  3

  4

  5

  6

  7

 40
1
 41
3.2
 42
1
 43
7
 44
1.5
 45
0
 46
0
 47
0
 48
0
140
3.2
141
-1.5
142
0
143
25.4
144
1
145
0
146
1
147
0.09
 71
0
 72
0
 73
1
 74
1
 75
0
 76
0
 77
1
 78
9
170
0
171
2
172
1
173
0
174
0
175
0
176
2
177
2
178
2
  0
ENDTAB
  0
TABLE
  2
LTYPE
 70
9
  0
LTYPE
  2
CONTINUOUS
 70
64
  3
Solid line
 72
65
 73
0
 40
0
  0
LTYPE
  2
BORDER
 70
64
  3
__ __ . __ __ .
 72
65
 73
6
 40
15.93342928443449
 49
4.552408366981282
 49
-2.276204183490641
 49
4.552408366981282
 49
-2.276204183490641
 49
0
 49
-2.276204183490641
  0
LTYPE
  2
CENTER
 70
64
  3
____ _ ____ _
 72
65
 73
4
 40
18.20963346792513
 49
11.3810209174532
 49
-2.276204183490641
 49
2.276204183490641
 49
-2.276204183490641
  0
LTYPE
  2
DASHDOT
 70
64
  3
__ . __ . __ .
 72
65
 73
4
 40
9.104816733962563
 49
4.552408366981282
 49
-2.276204183490641
 49
0
 49
-2.276204183490641
  0
LTYPE
  2
DASHED
 70
64
  3
__ __ __ __ __
 72
65
 73
2
 40
6.828612550471922
 49
4.552408366981282
 49
-2.276204183490641
  0
LTYPE
  2
DIVIDE
 70
64
  3
__ . . __ . . 
 72
65
 73
6
 40
11.3810209174532
 49
4.552408366981282
 49
-2.276204183490641
 49
0
 49
-2.276204183490641
 49
0
 49
-2.276204183490641
  0
LTYPE
  2
DOT
 70
64
  3
..............
 72
65
 73
4
 40
4.552408366981282
 49
0
 49
-2.276204183490641
 49
0
 49
-2.276204183490641
  0
LTYPE
  2
HIDDEN
 70
64
  3
_ _ _ _ _ _ _
 72
65
 73
2
 40
3.414306275235961
 49
2.276204183490641
 49
-1.13810209174532
  0
LTYPE
  2
PHANTOM
 70
64
  3
_____ _ _ _____ _ _ 
 72
65
 73
6
 40
22.76204183490641
 49
11.3810209174532
 49
-2.276204183490641
 49
2.276204183490641
 49
-2.276204183490641
 49
2.276204183490641
 49
-2.276204183490641
  0
ENDTAB
  0
TABLE
  2
LAYER
 70
5
  0
LAYER
  2
1
 70
0
 62
7
  6
CONTINUOUS
  0
LAYER
  2
2
 70
0
 62
7
  6
CONTINUOUS
  0
LAYER
  2
CONSTRUCTION
 70
0
 62
7
  6
CONTINUOUS
  0
LAYER
  2
0
 70
0
 62
7
  6
CONTINUOUS
  0
ENDTAB
  0
TABLE
  2
STYLE
 70
4
  0
STYLE
  2
STANDARD
 70
0
 40
0
 41
1
 50
0
 71
0
 42
3.5
  3
txt
  4

  0
STYLE
  2
SIMPLEX
 70
0
 40
0
 41
1
 50
0
 71
0
 42
3.5
  3
simplex
  4

  0
STYLE
  2
COMPLEX
 70
0
 40
0
 41
1
 50
0
 71
0
 42
3.5
  3
complex
  4

  0
STYLE
  2
ITALIC
 70
0
 40
0
 41
1
 50
0
 71
0
 42
3.5
  3
italic
  4

  0
ENDTAB
  0
TABLE
  2
VIEW
 70
0
  0
ENDTAB
  0
ENDSEC
  0
SECTION
  2
BLOCKS
  0
BLOCK
  8
1
  2
*X0
 70
1
 10
0
 20
0
 30
0
  0
LINE
  8
1
 62
2
 10
5414.138716842412
 20
241788.1976949375
 30
0
 11
5414.168801649897
 21
241788.227779745
 31
0
  0
LINE
  8
1
 62
2
 10
5414.053916842415
 20
241788.1128949376
 30
0
 11
5414.084001649753
 21
241788.1429797449
 31
0
  0
LINE
  8
1
 62
2
 10
5413.969116842447
 20
241788.0280949376
 30
0
 11
5413.999201649684
 21
241788.0581797448
 31
0
  0
LINE
  8
1
 62
2
 10
5414.308316842435
 20
241788.2824421238
 30
0
 11
5414.338454463564
 21
241788.312579745
 31
0
  0
LINE
  8
1
 62
2
 10
5413.969116842447
 20
241787.9432421238
 30
0
 11
5414.253654463639
 21
241788.227779745
 31
0
  0
LINE
  8
1
 62
2
 10
5413.884316842421
 20
241787.8584421238
 30
0
 11
5413.914454463491
 21
241787.8885797449
 31
0
  0
LINE
  8
1
 62
2
 10
5414.477916842428
 20
241788.3671893101
 30
0
 11
5414.508107277254
 21
241788.3973797449
 31
0
  0
LINE
  8
1
 62
2
 10
5413.884316842421
 20
241787.7735893101
 30
0
 11
5414.423307277306
 21
241788.312579745
 31
0
  0
LINE
  8
1
 62
2
 10
5413.799516842439
 20
241787.6887893101
 30
0
 11
5413.829707277444
 21
241787.7189797451
 31
0
  0
LINE
  8
1
 62
2
 10
5413.799516842439
 20
241787.6039364964
 30
0
 11
5414.592960090996
 21
241788.3973797449
 31
0
  0
LINE
  8
1
 62
2
 10
5413.799516842439
 20
241787.5190836826
 30
0
 11
5414.677812904738
 21
241788.3973797449
 31
0
  0
LINE
  8
1
 62
2
 10
5413.799516842439
 20
241787.4342308689
 30
0
 11
5414.76266571848
 21
241788.3973797449
 31
0
  0
LINE
  8
1
 62
2
 10
5413.799516842439
 20
241787.3493780551
 30
0
 11
5414.847518532222
 21
241788.3973797449
 31
0
  0
LINE
  8
1
 62
2
 10
5413.799516842439
 20
241787.2645252414
 30
0
 11
5414.932371345964
 21
241788.3973797449
 31
0
  0
LINE
  8
1
 62
2
 10
5413.799516842439
 20
241787.1796724277
 30
0
 11
5415.017224159707
 21
241788.3973797449
 31
0
  0
LINE
  8
1
 62
2
 10
5413.830076973391
 20
241787.1253797449
 30
0
 11
5415.102076973449
 21
241788.3973797449
 31
0
  0
LINE
  8
1
 62
2
 10
5413.884316842421
 20
241787.0947668002
 30
0
 11
5415.186929787191
 21
241788.3973797449
 31
0
  0
LINE
  8
1
 62
2
 10
5413.884316842421
 20
241787.0099139864
 30
0
 11
5415.271782600933
 21
241788.3973797449
 31
0
  0
LINE
  8
1
 62
2
 10
5413.915035414742
 20
241786.955779745
 30
0
 11
5415.356635414675
 21
241788.3973797449
 31
0
  0
LINE
  8
1
 62
2
 10
5414.763088228635
 20
241787.7189797451
 30
0
 11
5415.441488228417
 21
241788.3973797449
 31
0
  0
LINE
  8
1
 62
2
 10
5414.678288228315
 20
241787.6341797448
 30
0
 11
5414.732316842405
 21
241787.6882083589
 31
0
  0
LINE
  8
1
 62
2
 10
5414.593488228507
 20
241787.549379745
 30
0
 11
5414.647516842437
 21
241787.6034083589
 31
0
  0
LINE
  8
1
 62
2
 10
5413.969116842432
 20
241786.925008359
 30
0
 11
5414.562716842425
 21
241787.5186083589
 31
0
  0
LINE
  8
1
 62
2
 10
5414.847941042377
 20
241787.7189797451
 30
0
 11
5415.526341042159
 21
241788.3973797449
 31
0
  0
LINE
  8
1
 62
2
 10
5413.969116842432
 20
241786.8401555452
 30
0
 11
5414.562716842425
 21
241787.4337555452
 31
0
  0
LINE
  8
1
 62
2
 10
5414.932793856119
 20
241787.7189797451
 30
0
 11
5415.611193855902
 21
241788.3973797449
 31
0
  0
LINE
  8
1
 62
2
 10
5413.999993855789
 20
241786.7861797448
 30
0
 11
5414.562716842425
 21
241787.3489027314
 31
0
  0
LINE
  8
1
 62
2
 10
5415.017646669861
 20
241787.7189797451
 30
0
 11
5415.696046669644
 21
241788.3973797449
 31
0
  0
LINE
  8
1
 62
2
 10
5414.053916842429
 20
241786.7552499177
 30
0
 11
5414.593646669819
 21
241787.2949797451
 31
0
  0
LINE
  8
1
 62
2
 10
5415.102499483603
 20
241787.7189797451
 30
0
 11
5415.780899483386
 21
241788.3973797449
 31
0
  0
LINE
  8
1
 62
2
 10
5414.084899483467
 20
241786.701379745
 30
0
 11
5414.647516842422
 21
241787.263997104
 31
0
  0
LINE
  8
1
 62
2
 10
5415.187352297346
 20
241787.7189797451
 30
0
 11
5415.865752297128
 21
241788.3973797449
 31
0
  0
LINE
  8
1
 62
2
 10
5414.138716842412
 20
241786.6703442902
 30
0
 11
5414.678552297017
 21
241787.2101797448
 31
0
  0
LINE
  8
1
 62
2
 10
5415.272205111088
 20
241787.7189797451
 30
0
 11
5415.95060511087
 21
241788.3973797449
 31
0
  0
LINE
  8
1
 62
2
 10
5414.169805110855
 20
241786.6165797449
 30
0
 11
5414.732316842419
 21
241787.1790914765
 31
0
  0
LINE
  8
1
 62
2
 10
5415.35705792483
 20
241787.7189797451
 30
0
 11
5416.035457924612
 21
241788.3973797449
 31
0
  0
LINE
  8
1
 62
2
 10
5414.254657924597
 20
241786.6165797449
 30
0
 11
5414.763457924592
 21
241787.1253797449
 31
0
  0
LINE
  8
1
 62
2
 10
5415.441910738572
 20
241787.7189797451
 30
0
 11
5416.120310738354
 21
241788.3973797449
 31
0
  0
LINE
  8
1
 62
2
 10
5414.30831684242
 20
241786.585385849
 30
0
 11
5414.848310738335
 21
241787.1253797449
 31
0
  0
LINE
  8
1
 62
2
 10
5415.526763552314
 20
241787.7189797451
 30
0
 11
5416.205163552097
 21
241788.3973797449
 31
0
  0
LINE
  8
1
 62
2
 10
5414.339563552204
 20
241786.531779745
 30
0
 11
5414.933163552077
 21
241787.1253797449
 31
0
  0
LINE
  8
1
 62
2
 10
5415.611616366056
 20
241787.7189797451
 30
0
 11
5416.290016365839
 21
241788.3973797449
 31
0
  0
LINE
  8
1
 62
2
 10
5414.424416365946
 20
241786.531779745
 30
0
 11
5415.018016365819
 21
241787.1253797449
 31
0
  0
LINE
  8
1
 62
2
 10
5415.696469179798
 20
241787.7189797451
 30
0
 11
5416.374869179581
 21
241788.3973797449
 31
0
  0
LINE
  8
1
 62
2
 10
5414.477916842428
 20
241786.5004274078
 30
0
 11
5415.102869179561
 21
241787.1253797449
 31
0
  0
LINE
  8
1
 62
2
 10
5413.799516842395
 20
241785.8220274077
 30
0
 11
5413.830869179851
 21
241785.8533797452
 31
0
  0
LINE
  8
1
 62
2
 10
5415.781321993541
 20
241787.7189797451
 30
0
 11
5416.459721993323
 21
241788.3973797449
 31
0
  0
LINE
  8
1
 62
2
 10
5414.509321993507
 20
241786.4469797451
 30
0
 11
5415.187721993303
 21
241787.1253797449
 31
0
  0
LINE
  8
1
 62
2
 10
5413.799516842395
 20
241785.737174594
 30
0
 11
5413.915721993593
 21
241785.8533797452
 31
0
  0
LINE
  8
1
 62
2
 10
5415.866174807283
 20
241787.7189797451
 30
0
 11
5416.544574807065
 21
241788.3973797449
 31
0
  0
LINE
  8
1
 62
2
 10
5414.594174807249
 20
241786.4469797451
 30
0
 11
5415.272574807045
 21
241787.1253797449
 31
0
  0
LINE
  8
1
 62
2
 10
5413.799516842395
 20
241785.6523217803
 30
0
 11
5414.000574807335
 21
241785.8533797452
 31
0
  0
LINE
  8
1
 62
2
 10
5415.951027621025
 20
241787.7189797451
 30
0
 11
5416.629427620807
 21
241788.3973797449
 31
0
  0
LINE
  8
1
 62
2
 10
5414.679027620991
 20
241786.4469797451
 30
0
 11
5415.357427620787
 21
241787.1253797449
 31
0
  0
LINE
  8
1
 62
2
 10
5413.799516842395
 20
241785.5674689665
 30
0
 11
5414.085427621078
 21
241785.8533797452
 31
0
  0
LINE
  8
1
 62
2
 10
5416.035880434767
 20
241787.7189797451
 30
0
 11
5416.714280434549
 21
241788.3973797449
 31
0
  0
LINE
  8
1
 62
2
 10
5414.763880434733
 20
241786.4469797451
 30
0
 11
5415.44228043453
 21
241787.1253797449
 31
0
  0
LINE
  8
1
 62
2
 10
5413.799516842395
 20
241785.4826161528
 30
0
 11
5414.17028043482
 21
241785.8533797452
 31
0
  0
LINE
  8
1
 62
2
 10
5416.714333248383
 20
241788.312579745
 30
0
 11
5416.767516842447
 21
241788.365763339
 31
0
  0
LINE
  8
1
 62
2
 10
5416.120733248509
 20
241787.7189797451
 30
0
 11
5416.682716842406
 21
241788.280963339
 31
0
  0
LINE
  8
1
 62
2
 10
5414.848733248476
 20
241786.4469797451
 30
0
 11
5415.527133248272
 21
241787.1253797449
 31
0
  0
LINE
  8
1
 62
2
 10
5413.799516842395
 20
241785.397763339
 30
0
 11
5414.255133248562
 21
241785.8533797452
 31
0
  0
LINE
  8
1
 62
2
 10
5416.62958606203
 20
241788.1429797449
 30
0
 11
5416.682716842406
 21
241788.1961105253
 31
0
  0
LINE
  8
1
 62
2
 10
5416.205586062251
 20
241787.7189797451
 30
0
 11
5416.597916842438
 21
241788.1113105253
 31
0
  0
LINE
  8
1
 62
2
 10
5414.933586062218
 20
241786.4469797451
 30
0
 11
5415.611986062014
 21
241787.1253797449
 31
0
  0
LINE
  8
1
 62
2
 10
5413.799516842395
 20
241785.3129105253
 30
0
 11
5414.339986062304
 21
241785.8533797452
 31
0
  0
LINE
  8
1
 62
2
 10
5416.544838876056
 20
241787.9733797452
 30
0
 11
5416.597916842438
 21
241788.0264577116
 31
0
  0
LINE
  8
1
 62
2
 10
5416.290438875994
 20
241787.7189797451
 30
0
 11
5416.513116842412
 21
241787.9416577115
 31
0
  0
LINE
  8
1
 62
2
 10
5415.01843887596
 20
241786.4469797451
 30
0
 11
5415.696838875756
 21
241787.1253797449
 31
0
  0
LINE
  8
1
 62
2
 10
5413.799516842395
 20
241785.2280577115
 30
0
 11
5414.424838876046
 21
241785.8533797452
 31
0
  0
LINE
  8
1
 62
2
 10
5416.460091689602
 20
241787.803779745
 30
0
 11
5416.513116842412
 21
241787.8568048978
 31
0
  0
LINE
  8
1
 62
2
 10
5416.375291689736
 20
241787.7189797451
 30
0
 11
5416.428316842415
 21
241787.7720048978
 31
0
  0
LINE
  8
1
 62
2
 10
5415.103291689702
 20
241786.4469797451
 30
0
 11
5415.781691689498
 21
241787.1253797449
 31
0
  0
LINE
  8
1
 62
2
 10
5413.831291689619
 20
241785.174979745
 30
0
 11
5414.509691689788
 21
241785.8533797452
 31
0
  0
LINE
  8
1
 62
2
 10
5415.188144503444
 20
241786.4469797451
 30
0
 11
5415.86654450324
 21
241787.1253797449
 31
0
  0
LINE
  8
1
 62
2
 10
5413.916144503362
 20
241785.174979745
 30
0
 11
5414.59454450353
 21
241785.8533797452
 31
0
  0
LINE
  8
1
 62
2
 10
5415.272997317186
 20
241786.4469797451
 30
0
 11
5415.951397316982
 21
241787.1253797449
 31
0
  0
LINE
  8
1
 62
2
 10
5414.000997317104
 20
241785.174979745
 30
0
 11
5414.679397317273
 21
241785.8533797452
 31
0
  0
LINE
  8
1
 62
2
 10
5415.357850130929
 20
241786.4469797451
 30
0
 11
5416.036250130725
 21
241787.1253797449
 31
0
  0
LINE
  8
1
 62
2
 10
5414.085850130846
 20
241785.174979745
 30
0
 11
5414.764250131015
 21
241785.8533797452
 31
0
  0
LINE
  8
1
 62
2
 10
5415.442702944671
 20
241786.4469797451
 30
0
 11
5416.089116842413
 21
241787.0933936428
 31
0
  0
LINE
  8
1
 62
2
 10
5414.170702944588
 20
241785.174979745
 30
0
 11
5414.849102944757
 21
241785.8533797452
 31
0
  0
LINE
  8
1
 62
2
 10
5415.527555758413
 20
241786.4469797451
 30
0
 11
5416.121155758229
 21
241787.0405797449
 31
0
  0
LINE
  8
1
 62
2
 10
5414.25555575833
 20
241785.174979745
 30
0
 11
5414.933955758499
 21
241785.8533797452
 31
0
  0
LINE
  8
1
 62
2
 10
5415.612408572155
 20
241786.4469797451
 30
0
 11
5416.206008571971
 21
241787.0405797449
 31
0
  0
LINE
  8
1
 62
2
 10
5414.340408572072
 20
241785.174979745
 30
0
 11
5415.018808572241
 21
241785.8533797452
 31
0
  0
LINE
  8
1
 62
2
 10
5415.697261385897
 20
241786.4469797451
 30
0
 11
5416.258716842422
 21
241787.0084352016
 31
0
  0
LINE
  8
1
 62
2
 10
5414.425261385814
 20
241785.174979745
 30
0
 11
5415.103661385983
 21
241785.8533797452
 31
0
  0
LINE
  8
1
 62
2
 10
5415.782114199639
 20
241786.4469797451
 30
0
 11
5416.290914199563
 21
241786.955779745
 31
0
  0
LINE
  8
1
 62
2
 10
5414.510114199557
 20
241785.174979745
 30
0
 11
5415.188514199725
 21
241785.8533797452
 31
0
  0
LINE
  8
1
 62
2
 10
5415.834716842423
 20
241786.4147295741
 30
0
 11
5416.375767013305
 21
241786.955779745
 31
0
  0
LINE
  8
1
 62
2
 10
5414.594967013299
 20
241785.174979745
 30
0
 11
5415.273367013468
 21
241785.8533797452
 31
0
  0
LINE
  8
1
 62
2
 10
5415.867019827143
 20
241786.3621797451
 30
0
 11
5416.42831684243
 21
241786.9234767604
 31
0
  0
LINE
  8
1
 62
2
 10
5414.679819827041
 20
241785.174979745
 30
0
 11
5415.35821982721
 21
241785.8533797452
 31
0
  0
LINE
  8
1
 62
2
 10
5415.919516842419
 20
241786.3298239466
 30
0
 11
5416.460672640867
 21
241786.8709797451
 31
0
  0
LINE
  8
1
 62
2
 10
5414.764672640783
 20
241785.174979745
 30
0
 11
5415.443072640952
 21
241785.8533797452
 31
0
  0
LINE
  8
1
 62
2
 10
5415.951925454327
 20
241786.2773797448
 30
0
 11
5416.513116842412
 21
241786.8385711329
 31
0
  0
LINE
  8
1
 62
2
 10
5414.849525454525
 20
241785.174979745
 30
0
 11
5415.527925454694
 21
241785.8533797452
 31
0
  0
LINE
  8
1
 62
2
 10
5416.004316842431
 20
241786.2449183192
 30
0
 11
5416.54557826808
 21
241786.7861797448
 31
0
  0
LINE
  8
1
 62
2
 10
5414.934378268267
 20
241785.174979745
 30
0
 11
5415.612778268436
 21
241785.8533797452
 31
0
  0
LINE
  8
1
 62
2
 10
5416.004316842431
 20
241786.1600655054
 30
0
 11
5416.597916842438
 21
241786.7536655054
 31
0
  0
LINE
  8
1
 62
2
 10
5415.019231082009
 20
241785.174979745
 30
0
 11
5415.697631082178
 21
241785.8533797452
 31
0
  0
LINE
  8
1
 62
2
 10
5416.004316842431
 20
241786.0752126917
 30
0
 11
5416.597916842438
 21
241786.6688126917
 31
0
  0
LINE
  8
1
 62
2
 10
5415.919516842434
 20
241785.9904126917
 30
0
 11
5415.952083895638
 21
241786.0229797449
 31
0
  0
LINE
  8
1
 62
2
 10
5415.834716842423
 20
241785.9056126917
 30
0
 11
5415.867283895525
 21
241785.9381797448
 31
0
  0
LINE
  8
1
 62
2
 10
5415.104083895752
 20
241785.174979745
 30
0
 11
5415.78248389592
 21
241785.8533797452
 31
0
  0
LINE
  8
1
 62
2
 10
5415.188936709494
 20
241785.174979745
 30
0
 11
5416.630536709374
 21
241786.6165797449
 31
0
  0
LINE
  8
1
 62
2
 10
5415.273789523236
 20
241785.174979745
 30
0
 11
5416.682716842435
 21
241786.5839070642
 31
0
  0
LINE
  8
1
 62
2
 10
5415.358642336978
 20
241785.174979745
 30
0
 11
5416.682716842435
 21
241786.4990542505
 31
0
  0
LINE
  8
1
 62
2
 10
5415.44349515072
 20
241785.174979745
 30
0
 11
5416.715495150798
 21
241786.4469797451
 31
0
  0
LINE
  8
1
 62
2
 10
5415.528347964462
 20
241785.174979745
 30
0
 11
5416.767516842447
 21
241786.414148623
 31
0
  0
LINE
  8
1
 62
2
 10
5415.613200778204
 20
241785.174979745
 30
0
 11
5416.767516842447
 21
241786.3292958093
 31
0
  0
LINE
  8
1
 62
2
 10
5415.698053591947
 20
241785.174979745
 30
0
 11
5416.767516842447
 21
241786.2444429955
 31
0
  0
LINE
  8
1
 62
2
 10
5415.782906405689
 20
241785.174979745
 30
0
 11
5416.767516842447
 21
241786.1595901818
 31
0
  0
LINE
  8
1
 62
2
 10
5415.867759219431
 20
241785.174979745
 30
0
 11
5416.767516842447
 21
241786.074737368
 31
0
  0
LINE
  8
1
 62
2
 10
5415.952612033173
 20
241785.174979745
 30
0
 11
5416.767516842447
 21
241785.9898845543
 31
0
  0
LINE
  8
1
 62
2
 10
5416.715864847123
 20
241785.8533797452
 30
0
 11
5416.767516842447
 21
241785.9050317406
 31
0
  0
LINE
  8
1
 62
2
 10
5416.122264846506
 20
241785.2597797446
 30
0
 11
5416.682716842435
 21
241785.8202317405
 31
0
  0
LINE
  8
1
 62
2
 10
5416.037464846915
 20
241785.174979745
 30
0
 11
5416.089116842399
 21
241785.2266317405
 31
0
  0
LINE
  8
1
 62
2
 10
5416.631117660654
 20
241785.683779745
 30
0
 11
5416.682716842435
 21
241785.7353789268
 31
0
  0
LINE
  8
1
 62
2
 10
5416.29191766058
 20
241785.3445797449
 30
0
 11
5416.597916842424
 21
241785.6505789268
 31
0
  0
LINE
  8
1
 62
2
 10
5416.207117660248
 20
241785.2597797446
 30
0
 11
5416.258716842407
 21
241785.3113789268
 31
0
  0
LINE
  8
1
 62
2
 10
5416.546370474491
 20
241785.5141797451
 30
0
 11
5416.597916842424
 21
241785.565726113
 31
0
  0
LINE
  8
1
 62
2
 10
5416.461570474392
 20
241785.429379745
 30
0
 11
5416.513116842427
 21
241785.480926113
 31
0
  0
LINE
  8
1
 62
2
 10
5416.376770474322
 20
241785.3445797449
 30
0
 11
5416.42831684243
 21
241785.3961261131
 31
0
  0
ENDBLK
  8
0
  0
BLOCK
  8
1
  2
*X1
 70
1
 10
0
 20
0
 30
0
  0
LINE
  8
1
 62
2
 10
5416.937116842411
 20
241788.3656577116
 30
0
 11
5416.968838875775
 21
241788.3973797449
 31
0
  0
LINE
  8
1
 62
2
 10
5416.937116842411
 20
241788.2808048978
 30
0
 11
5417.053691689517
 21
241788.3973797449
 31
0
  0
LINE
  8
1
 62
2
 10
5416.937116842411
 20
241788.1959520841
 30
0
 11
5417.138544503259
 21
241788.3973797449
 31
0
  0
LINE
  8
1
 62
2
 10
5416.937116842411
 20
241788.1110992704
 30
0
 11
5417.223397317001
 21
241788.3973797449
 31
0
  0
LINE
  8
1
 62
2
 10
5416.937116842411
 20
241788.0262464566
 30
0
 11
5417.308250130744
 21
241788.3973797449
 31
0
  0
LINE
  8
1
 62
2
 10
5416.937116842411
 20
241787.9413936429
 30
0
 11
5417.393102944486
 21
241788.3973797449
 31
0
  0
LINE
  8
1
 62
2
 10
5416.937116842411
 20
241787.8565408291
 30
0
 11
5417.477955758228
 21
241788.3973797449
 31
0
  0
LINE
  8
1
 62
2
 10
5416.937116842411
 20
241787.7716880154
 30
0
 11
5417.56280857197
 21
241788.3973797449
 31
0
  0
LINE
  8
1
 62
2
 10
5416.937116842411
 20
241787.6868352016
 30
0
 11
5417.647661385712
 21
241788.3973797449
 31
0
  0
LINE
  8
1
 62
2
 10
5416.937116842411
 20
241787.6019823879
 30
0
 11
5417.732514199454
 21
241788.3973797449
 31
0
  0
LINE
  8
1
 62
2
 10
5416.937116842411
 20
241787.5171295742
 30
0
 11
5417.817367013196
 21
241788.3973797449
 31
0
  0
LINE
  8
1
 62
2
 10
5416.937116842411
 20
241787.4322767604
 30
0
 11
5417.902219826939
 21
241788.3973797449
 31
0
  0
LINE
  8
1
 62
2
 10
5416.937116842411
 20
241787.3474239467
 30
0
 11
5417.987072640681
 21
241788.3973797449
 31
0
  0
LINE
  8
1
 62
2
 10
5416.937116842411
 20
241787.2625711329
 30
0
 11
5418.071925454423
 21
241788.3973797449
 31
0
  0
LINE
  8
1
 62
2
 10
5416.937116842411
 20
241787.1777183192
 30
0
 11
5418.156778268165
 21
241788.3973797449
 31
0
  0
LINE
  8
1
 62
2
 10
5416.937116842411
 20
241787.0928655054
 30
0
 11
5418.241631081907
 21
241788.3973797449
 31
0
  0
LINE
  8
1
 62
2
 10
5416.937116842411
 20
241787.0080126917
 30
0
 11
5418.326483895649
 21
241788.3973797449
 31
0
  0
LINE
  8
1
 62
2
 10
5417.73293670958
 20
241787.7189797451
 30
0
 11
5418.411336709391
 21
241788.3973797449
 31
0
  0
LINE
  8
1
 62
2
 10
5416.937116842411
 20
241786.9231598779
 30
0
 11
5417.700316842427
 21
241787.686359878
 31
0
  0
LINE
  8
1
 62
2
 10
5417.817789523322
 20
241787.7189797451
 30
0
 11
5418.496189523134
 21
241788.3973797449
 31
0
  0
LINE
  8
1
 62
2
 10
5416.937116842411
 20
241786.8383070642
 30
0
 11
5417.700316842427
 21
241787.6015070642
 31
0
  0
LINE
  8
1
 62
2
 10
5417.902642337064
 20
241787.7189797451
 30
0
 11
5418.581042336876
 21
241788.3973797449
 31
0
  0
LINE
  8
1
 62
2
 10
5416.937116842411
 20
241786.7534542505
 30
0
 11
5417.700316842427
 21
241787.5166542505
 31
0
  0
LINE
  8
1
 62
2
 10
5417.987495150806
 20
241787.7189797451
 30
0
 11
5418.665895150618
 21
241788.3973797449
 31
0
  0
LINE
  8
1
 62
2
 10
5416.937116842411
 20
241786.6686014367
 30
0
 11
5417.700316842427
 21
241787.4318014367
 31
0
  0
LINE
  8
1
 62
2
 10
5418.072347964549
 20
241787.7189797451
 30
0
 11
5418.75074796436
 21
241788.3973797449
 31
0
  0
LINE
  8
1
 62
2
 10
5416.937116842411
 20
241786.583748623
 30
0
 11
5417.700316842427
 21
241787.346948623
 31
0
  0
LINE
  8
1
 62
2
 10
5418.157200778291
 20
241787.7189797451
 30
0
 11
5418.835600778102
 21
241788.3973797449
 31
0
  0
LINE
  8
1
 62
2
 10
5416.937116842411
 20
241786.4988958092
 30
0
 11
5417.700316842427
 21
241787.2620958092
 31
0
  0
LINE
  8
1
 62
2
 10
5418.242053592033
 20
241787.7189797451
 30
0
 11
5418.920453591844
 21
241788.3973797449
 31
0
  0
LINE
  8
1
 62
2
 10
5416.937116842411
 20
241786.4140429955
 30
0
 11
5417.700316842427
 21
241787.1772429955
 31
0
  0
LINE
  8
1
 62
2
 10
5418.326906405775
 20
241787.7189797451
 30
0
 11
5419.005306405587
 21
241788.3973797449
 31
0
  0
LINE
  8
1
 62
2
 10
5416.937116842411
 20
241786.3291901817
 30
0
 11
5417.733306405573
 21
241787.1253797449
 31
0
  0
LINE
  8
1
 62
2
 10
5418.411759219517
 20
241787.7189797451
 30
0
 11
5419.090159219329
 21
241788.3973797449
 31
0
  0
LINE
  8
1
 62
2
 10
5416.937116842411
 20
241786.244337368
 30
0
 11
5417.818159219315
 21
241787.1253797449
 31
0
  0
LINE
  8
1
 62
2
 10
5418.496612033259
 20
241787.7189797451
 30
0
 11
5419.175012033071
 21
241788.3973797449
 31
0
  0
LINE
  8
1
 62
2
 10
5416.937116842411
 20
241786.1594845543
 30
0
 11
5417.903012033057
 21
241787.1253797449
 31
0
  0
LINE
  8
1
 62
2
 10
5418.581464847001
 20
241787.7189797451
 30
0
 11
5419.259864846813
 21
241788.3973797449
 31
0
  0
LINE
  8
1
 62
2
 10
5416.937116842411
 20
241786.0746317405
 30
0
 11
5417.987864846799
 21
241787.1253797449
 31
0
  0
LINE
  8
1
 62
2
 10
5418.666317660744
 20
241787.7189797451
 30
0
 11
5419.344717660555
 21
241788.3973797449
 31
0
  0
LINE
  8
1
 62
2
 10
5416.937116842411
 20
241785.9897789268
 30
0
 11
5418.072717660542
 21
241787.1253797449
 31
0
  0
LINE
  8
1
 62
2
 10
5419.344770474374
 20
241788.312579745
 30
0
 11
5419.396316842438
 21
241788.3641261131
 31
0
  0
LINE
  8
1
 62
2
 10
5418.751170474486
 20
241787.7189797451
 30
0
 11
5419.311516842412
 21
241788.279326113
 31
0
  0
LINE
  8
1
 62
2
 10
5416.937116842411
 20
241785.904926113
 30
0
 11
5418.157570474284
 21
241787.1253797449
 31
0
  0
LINE
  8
1
 62
2
 10
5419.260023288036
 20
241788.1429797449
 30
0
 11
5419.311516842412
 21
241788.1944732993
 31
0
  0
LINE
  8
1
 62
2
 10
5418.836023288228
 20
241787.7189797451
 30
0
 11
5419.226716842415
 21
241788.1096732993
 31
0
  0
LINE
  8
1
 62
2
 10
5416.937116842411
 20
241785.8200732993
 30
0
 11
5418.242423288026
 21
241787.1253797449
 31
0
  0
LINE
  8
1
 62
2
 10
5419.175276102076
 20
241787.9733797452
 30
0
 11
5419.226716842415
 21
241788.0248204856
 31
0
  0
LINE
  8
1
 62
2
 10
5418.92087610197
 20
241787.7189797451
 30
0
 11
5419.141916842418
 21
241787.9400204856
 31
0
  0
LINE
  8
1
 62
2
 10
5416.937116842411
 20
241785.7352204855
 30
0
 11
5418.327276101768
 21
241787.1253797449
 31
0
  0
LINE
  8
1
 62
2
 10
5419.090528915622
 20
241787.803779745
 30
0
 11
5419.141916842418
 21
241787.8551676718
 31
0
  0
LINE
  8
1
 62
2
 10
5419.005728915712
 20
241787.7189797451
 30
0
 11
5419.057116842407
 21
241787.7703676718
 31
0
  0
LINE
  8
1
 62
2
 10
5417.733728915688
 20
241786.4469797451
 30
0
 11
5418.41212891551
 21
241787.1253797449
 31
0
  0
LINE
  8
1
 62
2
 10
5416.937116842411
 20
241785.6503676718
 30
0
 11
5417.700316842427
 21
241786.4135676718
 31
0
  0
LINE
  8
1
 62
2
 10
5417.81858172943
 20
241786.4469797451
 30
0
 11
5418.496981729252
 21
241787.1253797449
 31
0
  0
LINE
  8
1
 62
2
 10
5416.937116842411
 20
241785.5655148581
 30
0
 11
5417.700316842427
 21
241786.328714858
 31
0
  0
LINE
  8
1
 62
2
 10
5417.903434543172
 20
241786.4469797451
 30
0
 11
5418.581834542994
 21
241787.1253797449
 31
0
  0
LINE
  8
1
 62
2
 10
5416.937116842411
 20
241785.4806620443
 30
0
 11
5417.700316842427
 21
241786.2438620443
 31
0
  0
LINE
  8
1
 62
2
 10
5417.988287356914
 20
241786.4469797451
 30
0
 11
5418.666687356737
 21
241787.1253797449
 31
0
  0
LINE
  8
1
 62
2
 10
5416.937116842411
 20
241785.3958092306
 30
0
 11
5417.700316842427
 21
241786.1590092306
 31
0
  0
LINE
  8
1
 62
2
 10
5418.073140170656
 20
241786.4469797451
 30
0
 11
5418.751540170479
 21
241787.1253797449
 31
0
  0
LINE
  8
1
 62
2
 10
5416.937116842411
 20
241785.3109564168
 30
0
 11
5417.700316842427
 21
241786.0741564168
 31
0
  0
LINE
  8
1
 62
2
 10
5418.157992984398
 20
241786.4469797451
 30
0
 11
5418.836392984221
 21
241787.1253797449
 31
0
  0
LINE
  8
1
 62
2
 10
5416.937116842411
 20
241785.2261036031
 30
0
 11
5417.700316842427
 21
241785.9893036031
 31
0
  0
LINE
  8
1
 62
2
 10
5418.242845798141
 20
241786.4469797451
 30
0
 11
5418.921245797963
 21
241787.1253797449
 31
0
  0
LINE
  8
1
 62
2
 10
5416.970845798099
 20
241785.174979745
 30
0
 11
5417.700316842427
 21
241785.9044507893
 31
0
  0
LINE
  8
1
 62
2
 10
5418.327698611883
 20
241786.4469797451
 30
0
 11
5419.006098611705
 21
241787.1253797449
 31
0
  0
LINE
  8
1
 62
2
 10
5417.055698611841
 20
241785.174979745
 30
0
 11
5417.734098612013
 21
241785.8533797452
 31
0
  0
LINE
  8
1
 62
2
 10
5418.412551425625
 20
241786.4469797451
 30
0
 11
5419.090951425447
 21
241787.1253797449
 31
0
  0
LINE
  8
1
 62
2
 10
5417.140551425583
 20
241785.174979745
 30
0
 11
5417.818951425755
 21
241785.8533797452
 31
0
  0
LINE
  8
1
 62
2
 10
5418.497404239367
 20
241786.4469797451
 30
0
 11
5419.175804239189
 21
241787.1253797449
 31
0
  0
LINE
  8
1
 62
2
 10
5417.225404239325
 20
241785.174979745
 30
0
 11
5417.903804239497
 21
241785.8533797452
 31
0
  0
LINE
  8
1
 62
2
 10
5418.582257053109
 20
241786.4469797451
 30
0
 11
5419.260657052932
 21
241787.1253797449
 31
0
  0
LINE
  8
1
 62
2
 10
5417.310257053067
 20
241785.174979745
 30
0
 11
5417.988657053239
 21
241785.8533797452
 31
0
  0
LINE
  8
1
 62
2
 10
5418.667109866851
 20
241786.4469797451
 30
0
 11
5419.311516842412
 21
241787.0913867207
 31
0
  0
LINE
  8
1
 62
2
 10
5417.395109866809
 20
241785.174979745
 30
0
 11
5418.073509866981
 21
241785.8533797452
 31
0
  0
LINE
  8
1
 62
2
 10
5418.751962680593
 20
241786.4469797451
 30
0
 11
5419.311516842412
 21
241787.0065339069
 31
0
  0
LINE
  8
1
 62
2
 10
5417.479962680552
 20
241785.174979745
 30
0
 11
5418.158362680723
 21
241785.8533797452
 31
0
  0
LINE
  8
1
 62
2
 10
5418.836815494336
 20
241786.4469797451
 30
0
 11
5419.311516842412
 21
241786.9216810932
 31
0
  0
LINE
  8
1
 62
2
 10
5417.564815494294
 20
241785.174979745
 30
0
 11
5418.243215494465
 21
241785.8533797452
 31
0
  0
LINE
  8
1
 62
2
 10
5418.921668308078
 20
241786.4469797451
 30
0
 11
5419.311516842412
 21
241786.8368282794
 31
0
  0
LINE
  8
1
 62
2
 10
5417.649668308036
 20
241785.174979745
 30
0
 11
5418.328068308208
 21
241785.8533797452
 31
0
  0
LINE
  8
1
 62
2
 10
5419.00652112182
 20
241786.4469797451
 30
0
 11
5419.311516842412
 21
241786.7519754657
 31
0
  0
LINE
  8
1
 62
2
 10
5417.734521121778
 20
241785.174979745
 30
0
 11
5418.41292112195
 21
241785.8533797452
 31
0
  0
LINE
  8
1
 62
2
 10
5419.091373935562
 20
241786.4469797451
 30
0
 11
5419.311516842412
 21
241786.6671226519
 31
0
  0
LINE
  8
1
 62
2
 10
5417.81937393552
 20
241785.174979745
 30
0
 11
5418.497773935692
 21
241785.8533797452
 31
0
  0
LINE
  8
1
 62
2
 10
5419.176226749304
 20
241786.4469797451
 30
0
 11
5419.311516842412
 21
241786.5822698382
 31
0
  0
LINE
  8
1
 62
2
 10
5417.904226749262
 20
241785.174979745
 30
0
 11
5418.582626749434
 21
241785.8533797452
 31
0
  0
LINE
  8
1
 62
2
 10
5419.261079563046
 20
241786.4469797451
 30
0
 11
5419.311516842412
 21
241786.4974170245
 31
0
  0
LINE
  8
1
 62
2
 10
5417.989079563005
 20
241785.174979745
 30
0
 11
5418.667479563176
 21
241785.8533797452
 31
0
  0
LINE
  8
1
 62
2
 10
5418.073932376747
 20
241785.174979745
 30
0
 11
5418.752332376918
 21
241785.8533797452
 31
0
  0
LINE
  8
1
 62
2
 10
5418.158785190489
 20
241785.174979745
 30
0
 11
5418.83718519066
 21
241785.8533797452
 31
0
  0
LINE
  8
1
 62
2
 10
5418.243638004231
 20
241785.174979745
 30
0
 11
5418.922038004403
 21
241785.8533797452
 31
0
  0
LINE
  8
1
 62
2
 10
5418.328490817973
 20
241785.174979745
 30
0
 11
5419.006890818145
 21
241785.8533797452
 31
0
  0
LINE
  8
1
 62
2
 10
5418.413343631715
 20
241785.174979745
 30
0
 11
5419.091743631887
 21
241785.8533797452
 31
0
  0
LINE
  8
1
 62
2
 10
5418.498196445457
 20
241785.174979745
 30
0
 11
5419.176596445629
 21
241785.8533797452
 31
0
  0
LINE
  8
1
 62
2
 10
5418.5830492592
 20
241785.174979745
 30
0
 11
5419.261449259371
 21
241785.8533797452
 31
0
  0
LINE
  8
1
 62
2
 10
5418.667902072942
 20
241785.174979745
 30
0
 11
5419.311516842427
 21
241785.8185945145
 31
0
  0
LINE
  8
1
 62
2
 10
5418.752754886684
 20
241785.174979745
 30
0
 11
5419.311516842427
 21
241785.7337417008
 31
0
  0
LINE
  8
1
 62
2
 10
5418.837607700426
 20
241785.174979745
 30
0
 11
5419.311516842427
 21
241785.648888887
 31
0
  0
LINE
  8
1
 62
2
 10
5418.922460514168
 20
241785.174979745
 30
0
 11
5419.311516842427
 21
241785.5640360733
 31
0
  0
LINE
  8
1
 62
2
 10
5419.00731332791
 20
241785.174979745
 30
0
 11
5419.311516842427
 21
241785.4791832595
 31
0
  0
LINE
  8
1
 62
2
 10
5419.092166141652
 20
241785.174979745
 30
0
 11
5419.311516842427
 21
241785.3943304458
 31
0
  0
LINE
  8
1
 62
2
 10
5419.177018955395
 20
241785.174979745
 30
0
 11
5419.311516842427
 21
241785.3094776321
 31
0
  0
LINE
  8
1
 62
2
 10
5419.261871769137
 20
241785.174979745
 30
0
 11
5419.311516842427
 21
241785.2246248183
 31
0
  0
ENDBLK
  8
0
  0
BLOCK
  8
1
  2
*X2
 70
1
 10
0
 20
0
 30
0
  0
LINE
  8
1
 62
2
 10
5419.565916842417
 20
241788.3640204856
 30
0
 11
5419.599276101792
 21
241788.3973797449
 31
0
  0
LINE
  8
1
 62
2
 10
5419.565916842417
 20
241788.2791676718
 30
0
 11
5419.684128915535
 21
241788.3973797449
 31
0
  0
LINE
  8
1
 62
2
 10
5419.565916842417
 20
241788.1943148581
 30
0
 11
5419.768981729277
 21
241788.3973797449
 31
0
  0
LINE
  8
1
 62
2
 10
5419.565916842417
 20
241788.1094620443
 30
0
 11
5419.853834543019
 21
241788.3973797449
 31
0
  0
LINE
  8
1
 62
2
 10
5419.565916842417
 20
241788.0246092306
 30
0
 11
5419.938687356761
 21
241788.3973797449
 31
0
  0
LINE
  8
1
 62
2
 10
5419.565916842417
 20
241787.9397564168
 30
0
 11
5420.023540170503
 21
241788.3973797449
 31
0
  0
LINE
  8
1
 62
2
 10
5419.565916842417
 20
241787.8549036031
 30
0
 11
5420.108392984245
 21
241788.3973797449
 31
0
  0
LINE
  8
1
 62
2
 10
5419.565916842417
 20
241787.7700507894
 30
0
 11
5420.193245797987
 21
241788.3973797449
 31
0
  0
LINE
  8
1
 62
2
 10
5419.565916842417
 20
241787.6851979756
 30
0
 11
5420.27809861173
 21
241788.3973797449
 31
0
  0
LINE
  8
1
 62
2
 10
5419.565916842417
 20
241787.6003451619
 30
0
 11
5420.362951425472
 21
241788.3973797449
 31
0
  0
LINE
  8
1
 62
2
 10
5419.565916842417
 20
241787.5154923481
 30
0
 11
5420.447804239214
 21
241788.3973797449
 31
0
  0
LINE
  8
1
 62
2
 10
5419.565916842417
 20
241787.4306395344
 30
0
 11
5420.532657052956
 21
241788.3973797449
 31
0
  0
LINE
  8
1
 62
2
 10
5419.565916842417
 20
241787.3457867206
 30
0
 11
5420.617509866698
 21
241788.3973797449
 31
0
  0
LINE
  8
1
 62
2
 10
5419.565916842417
 20
241787.2609339069
 30
0
 11
5420.70236268044
 21
241788.3973797449
 31
0
  0
LINE
  8
1
 62
2
 10
5419.565916842417
 20
241787.1760810931
 30
0
 11
5420.787215494182
 21
241788.3973797449
 31
0
  0
LINE
  8
1
 62
2
 10
5419.565916842417
 20
241787.0912282794
 30
0
 11
5420.872068307925
 21
241788.3973797449
 31
0
  0
LINE
  8
1
 62
2
 10
5419.565916842417
 20
241787.0063754657
 30
0
 11
5420.956921121667
 21
241788.3973797449
 31
0
  0
LINE
  8
1
 62
2
 10
5420.363373935627
 20
241787.7189797451
 30
0
 11
5421.041773935409
 21
241788.3973797449
 31
0
  0
LINE
  8
1
 62
2
 10
5419.565916842417
 20
241786.9215226519
 30
0
 11
5420.329116842418
 21
241787.6847226519
 31
0
  0
LINE
  8
1
 62
2
 10
5420.44822674937
 20
241787.7189797451
 30
0
 11
5421.126626749151
 21
241788.3973797449
 31
0
  0
LINE
  8
1
 62
2
 10
5419.565916842417
 20
241786.8366698382
 30
0
 11
5420.329116842418
 21
241787.5998698382
 31
0
  0
LINE
  8
1
 62
2
 10
5420.533079563112
 20
241787.7189797451
 30
0
 11
5421.211479562893
 21
241788.3973797449
 31
0
  0
LINE
  8
1
 62
2
 10
5419.565916842417
 20
241786.7518170244
 30
0
 11
5420.329116842418
 21
241787.5150170244
 31
0
  0
LINE
  8
1
 62
2
 10
5420.617932376854
 20
241787.7189797451
 30
0
 11
5421.296332376635
 21
241788.3973797449
 31
0
  0
LINE
  8
1
 62
2
 10
5419.565916842417
 20
241786.6669642107
 30
0
 11
5420.329116842418
 21
241787.4301642107
 31
0
  0
LINE
  8
1
 62
2
 10
5420.702785190596
 20
241787.7189797451
 30
0
 11
5421.381185190377
 21
241788.3973797449
 31
0
  0
LINE
  8
1
 62
2
 10
5419.565916842417
 20
241786.5821113969
 30
0
 11
5420.329116842418
 21
241787.3453113969
 31
0
  0
LINE
  8
1
 62
2
 10
5420.787638004338
 20
241787.7189797451
 30
0
 11
5421.46603800412
 21
241788.3973797449
 31
0
  0
LINE
  8
1
 62
2
 10
5419.565916842417
 20
241786.4972585832
 30
0
 11
5420.329116842418
 21
241787.2604585832
 31
0
  0
LINE
  8
1
 62
2
 10
5420.87249081808
 20
241787.7189797451
 30
0
 11
5421.550890817862
 21
241788.3973797449
 31
0
  0
LINE
  8
1
 62
2
 10
5419.565916842417
 20
241786.4124057695
 30
0
 11
5420.329116842418
 21
241787.1756057694
 31
0
  0
LINE
  8
1
 62
2
 10
5420.957343631822
 20
241787.7189797451
 30
0
 11
5421.635743631604
 21
241788.3973797449
 31
0
  0
LINE
  8
1
 62
2
 10
5419.565916842417
 20
241786.3275529557
 30
0
 11
5420.329116842418
 21
241787.0907529557
 31
0
  0
LINE
  8
1
 62
2
 10
5421.042196445565
 20
241787.7189797451
 30
0
 11
5421.720596445346
 21
241788.3973797449
 31
0
  0
LINE
  8
1
 62
2
 10
5419.565916842417
 20
241786.242700142
 30
0
 11
5420.329116842418
 21
241787.005900142
 31
0
  0
LINE
  8
1
 62
2
 10
5421.127049259307
 20
241787.7189797451
 30
0
 11
5421.770716842424
 21
241788.3626473282
 31
0
  0
LINE
  8
1
 62
2
 10
5419.565916842417
 20
241786.1578473282
 30
0
 11
5420.363849259197
 21
241786.955779745
 31
0
  0
LINE
  8
1
 62
2
 10
5421.211902073049
 20
241787.7189797451
 30
0
 11
5421.805502072894
 21
241788.312579745
 31
0
  0
LINE
  8
1
 62
2
 10
5419.565916842417
 20
241786.0729945145
 30
0
 11
5420.448702072939
 21
241786.955779745
 31
0
  0
LINE
  8
1
 62
2
 10
5421.296754886791
 20
241787.7189797451
 30
0
 11
5421.890354886637
 21
241788.312579745
 31
0
  0
LINE
  8
1
 62
2
 10
5420.363954886489
 20
241786.7861797448
 30
0
 11
5420.533554886682
 21
241786.955779745
 31
0
  0
LINE
  8
1
 62
2
 10
5419.565916842417
 20
241785.9881417007
 30
0
 11
5420.329116842433
 21
241786.7513417008
 31
0
  0
LINE
  8
1
 62
2
 10
5421.381607700533
 20
241787.7189797451
 30
0
 11
5421.940316842447
 21
241788.277688887
 31
0
  0
LINE
  8
1
 62
2
 10
5420.41391684243
 20
241786.751288887
 30
0
 11
5420.618407700424
 21
241786.955779745
 31
0
  0
LINE
  8
1
 62
2
 10
5419.565916842417
 20
241785.903288887
 30
0
 11
5420.329116842433
 21
241786.666488887
 31
0
  0
LINE
  8
1
 62
2
 10
5421.466460514275
 20
241787.7189797451
 30
0
 11
5421.97526051417
 21
241788.227779745
 31
0
  0
LINE
  8
1
 62
2
 10
5420.448860514138
 20
241786.701379745
 30
0
 11
5420.703260514166
 21
241786.955779745
 31
0
  0
LINE
  8
1
 62
2
 10
5419.565916842417
 20
241785.8184360733
 30
0
 11
5420.329116842433
 21
241786.5816360733
 31
0
  0
LINE
  8
1
 62
2
 10
5421.516316842419
 20
241787.6839832595
 30
0
 11
5422.060113327912
 21
241788.227779745
 31
0
  0
LINE
  8
1
 62
2
 10
5420.498716842412
 20
241786.6663832595
 30
0
 11
5420.788113327908
 21
241786.955779745
 31
0
  0
LINE
  8
1
 62
2
 10
5419.565916842417
 20
241785.7335832595
 30
0
 11
5420.329116842433
 21
241786.4967832596
 31
0
  0
LINE
  8
1
 62
2
 10
5421.551366141459
 20
241787.6341797448
 30
0
 11
5422.109916842412
 21
241788.1927304458
 31
0
  0
LINE
  8
1
 62
2
 10
5420.498716842412
 20
241786.5815304458
 30
0
 11
5420.87296614165
 21
241786.955779745
 31
0
  0
LINE
  8
1
 62
2
 10
5419.565916842417
 20
241785.6487304458
 30
0
 11
5420.329116842433
 21
241786.4119304458
 31
0
  0
LINE
  8
1
 62
2
 10
5421.601116842416
 20
241787.599077632
 30
0
 11
5422.145018955271
 21
241788.1429797449
 31
0
  0
LINE
  8
1
 62
2
 10
5420.533818955373
 20
241786.531779745
 30
0
 11
5420.957818955392
 21
241786.955779745
 31
0
  0
LINE
  8
1
 62
2
 10
5419.565916842417
 20
241785.563877632
 30
0
 11
5420.329116842433
 21
241786.3270776321
 31
0
  0
LINE
  8
1
 62
2
 10
5421.601116842416
 20
241787.5142248183
 30
0
 11
5422.194716842423
 21
241788.1078248183
 31
0
  0
LINE
  8
1
 62
2
 10
5420.583516842453
 20
241786.4966248183
 30
0
 11
5421.042671769134
 21
241786.955779745
 31
0
  0
LINE
  8
1
 62
2
 10
5419.565916842417
 20
241785.4790248183
 30
0
 11
5420.329116842433
 21
241786.2422248183
 31
0
  0
LINE
  8
1
 62
2
 10
5421.636324582752
 20
241787.4645797449
 30
0
 11
5422.229924582687
 21
241788.0581797448
 31
0
  0
LINE
  8
1
 62
2
 10
5420.61872458295
 20
241786.4469797451
 30
0
 11
5421.127524582877
 21
241786.955779745
 31
0
  0
LINE
  8
1
 62
2
 10
5419.565916842417
 20
241785.3941720045
 30
0
 11
5420.329116842433
 21
241786.1573720046
 31
0
  0
LINE
  8
1
 62
2
 10
5421.685916842427
 20
241787.4293191908
 30
0
 11
5422.279516842435
 21
241788.0229191908
 31
0
  0
LINE
  8
1
 62
2
 10
5420.668316842421
 20
241786.4117191908
 30
0
 11
5421.212377396619
 21
241786.955779745
 31
0
  0
LINE
  8
1
 62
2
 10
5419.565916842417
 20
241785.3093191908
 30
0
 11
5420.329116842433
 21
241786.0725191908
 31
0
  0
LINE
  8
1
 62
2
 10
5421.685916842427
 20
241787.3444663771
 30
0
 11
5422.279516842435
 21
241787.9380663771
 31
0
  0
LINE
  8
1
 62
2
 10
5420.668316842421
 20
241786.3268663771
 30
0
 11
5421.297230210361
 21
241786.955779745
 31
0
  0
LINE
  8
1
 62
2
 10
5419.565916842417
 20
241785.2244663771
 30
0
 11
5420.329116842433
 21
241785.9876663771
 31
0
  0
LINE
  8
1
 62
2
 10
5421.685916842427
 20
241787.2596135633
 30
0
 11
5422.31488302401
 21
241787.8885797449
 31
0
  0
LINE
  8
1
 62
2
 10
5421.60111684243
 20
241787.1748135634
 30
0
 11
5421.636483023904
 21
241787.2101797448
 31
0
  0
LINE
  8
1
 62
2
 10
5420.703683023909
 20
241786.2773797448
 30
0
 11
5421.382083024103
 21
241786.955779745
 31
0
  0
LINE
  8
1
 62
2
 10
5419.601283024102
 20
241785.174979745
 30
0
 11
5420.329116842433
 21
241785.9028135634
 31
0
  0
LINE
  8
1
 62
2
 10
5421.60111684243
 20
241787.0899607496
 30
0
 11
5422.364316842431
 21
241787.8531607496
 31
0
  0
LINE
  8
1
 62
2
 10
5421.516316842419
 20
241787.0051607496
 30
0
 11
5421.55173583774
 21
241787.0405797449
 31
0
  0
LINE
  8
1
 62
2
 10
5420.753116842418
 20
241786.2419607496
 30
0
 11
5421.466935837845
 21
241786.955779745
 31
0
  0
LINE
  8
1
 62
2
 10
5419.686135837844
 20
241785.174979745
 30
0
 11
5420.329116842433
 21
241785.8179607496
 31
0
  0
LINE
  8
1
 62
2
 10
5420.7885886515
 20
241786.1925797449
 30
0
 11
5422.364316842431
 21
241787.7683079359
 31
0
  0
LINE
  8
1
 62
2
 10
5419.770988651586
 20
241785.174979745
 30
0
 11
5420.329116842433
 21
241785.7331079359
 31
0
  0
LINE
  8
1
 62
2
 10
5420.8379168424
 20
241786.1570551221
 30
0
 11
5422.364316842431
 21
241787.6834551221
 31
0
  0
LINE
  8
1
 62
2
 10
5419.855841465328
 20
241785.174979745
 30
0
 11
5420.329116842433
 21
241785.6482551221
 31
0
  0
LINE
  8
1
 62
2
 10
5420.8379168424
 20
241786.0722023083
 30
0
 11
5422.399894278875
 21
241787.6341797448
 31
0
  0
LINE
  8
1
 62
2
 10
5419.94069427907
 20
241785.174979745
 30
0
 11
5420.329116842433
 21
241785.5634023084
 31
0
  0
LINE
  8
1
 62
2
 10
5420.873547092706
 20
241786.0229797449
 30
0
 11
5422.449116842414
 21
241787.5985494946
 31
0
  0
LINE
  8
1
 62
2
 10
5420.025547092812
 20
241785.174979745
 30
0
 11
5420.329116842433
 21
241785.4785494946
 31
0
  0
LINE
  8
1
 62
2
 10
5420.922716842426
 20
241785.9872966809
 30
0
 11
5422.449116842414
 21
241787.5136966809
 31
0
  0
LINE
  8
1
 62
2
 10
5420.110399906554
 20
241785.174979745
 30
0
 11
5420.329116842433
 21
241785.3936966809
 31
0
  0
LINE
  8
1
 62
2
 10
5420.958452720079
 20
241785.9381797448
 30
0
 11
5422.449116842414
 21
241787.4288438671
 31
0
  0
LINE
  8
1
 62
2
 10
5420.195252720297
 20
241785.174979745
 30
0
 11
5420.329116842433
 21
241785.3088438672
 31
0
  0
LINE
  8
1
 62
2
 10
5421.007516842423
 20
241785.9023910534
 30
0
 11
5422.449116842414
 21
241787.3439910534
 31
0
  0
LINE
  8
1
 62
2
 10
5420.280105534039
 20
241785.174979745
 30
0
 11
5420.329116842433
 21
241785.2239910534
 31
0
  0
LINE
  8
1
 62
2
 10
5421.636958347884
 20
241786.4469797451
 30
0
 11
5422.449116842414
 21
241787.2591382396
 31
0
  0
LINE
  8
1
 62
2
 10
5421.007516842423
 20
241785.8175382396
 30
0
 11
5421.601116842445
 21
241786.4111382397
 31
0
  0
LINE
  8
1
 62
2
 10
5421.721811161626
 20
241786.4469797451
 30
0
 11
5422.449116842414
 21
241787.1742854259
 31
0
  0
LINE
  8
1
 62
2
 10
5421.043411161416
 20
241785.7685797449
 30
0
 11
5421.601116842445
 21
241786.3262854259
 31
0
  0
LINE
  8
1
 62
2
 10
5422.400263975171
 20
241787.0405797449
 30
0
 11
5422.449116842414
 21
241787.0894326122
 31
0
  0
LINE
  8
1
 62
2
 10
5421.806663975368
 20
241786.4469797451
 30
0
 11
5422.364316842446
 21
241787.0046326122
 31
0
  0
LINE
  8
1
 62
2
 10
5421.09231684242
 20
241785.7326326121
 30
0
 11
5421.637063975068
 21
241786.2773797448
 31
0
  0
LINE
  8
1
 62
2
 10
5422.315516789095
 20
241786.8709797451
 30
0
 11
5422.364316842446
 21
241786.9197797984
 31
0
  0
LINE
  8
1
 62
2
 10
5421.976316789006
 20
241786.531779745
 30
0
 11
5422.27951684242
 21
241786.8349797984
 31
0
  0
LINE
  8
1
 62
2
 10
5421.89151678911
 20
241786.4469797451
 30
0
 11
5421.940316842447
 21
241786.4957797984
 31
0
  0
LINE
  8
1
 62
2
 10
5421.128316789007
 20
241785.683779745
 30
0
 11
5421.685916842427
 21
241786.2413797984
 31
0
  0
LINE
  8
1
 62
2
 10
5422.230769602727
 20
241786.701379745
 30
0
 11
5422.27951684242
 21
241786.7501269847
 31
0
  0
LINE
  8
1
 62
2
 10
5422.145969602629
 20
241786.6165797449
 30
0
 11
5422.194716842423
 21
241786.6653269847
 31
0
  0
LINE
  8
1
 62
2
 10
5422.061169602748
 20
241786.531779745
 30
0
 11
5422.109916842412
 21
241786.5805269847
 31
0
  0
LINE
  8
1
 62
2
 10
5421.177116842446
 20
241785.6477269847
 30
0
 11
5421.72196960263
 21
241786.1925797449
 31
0
  0
LINE
  8
1
 62
2
 10
5421.177116842446
 20
241785.562874171
 30
0
 11
5421.770716842424
 21
241786.156474171
 31
0
  0
LINE
  8
1
 62
2
 10
5421.213275230315
 20
241785.5141797451
 30
0
 11
5421.770716842424
 21
241786.0716213572
 31
0
  0
LINE
  8
1
 62
2
 10
5421.261916842414
 20
241785.4779685435
 30
0
 11
5421.806928043865
 21
241786.0229797449
 31
0
  0
LINE
  8
1
 62
2
 10
5421.298180857702
 20
241785.429379745
 30
0
 11
5421.855516842421
 21
241785.9867157297
 31
0
  0
LINE
  8
1
 62
2
 10
5421.34671684241
 20
241785.393062916
 30
0
 11
5421.891833671209
 21
241785.9381797448
 31
0
  0
LINE
  8
1
 62
2
 10
5421.34671684241
 20
241785.3082101022
 30
0
 11
5421.940316842447
 21
241785.9018101023
 31
0
  0
LINE
  8
1
 62
2
 10
5421.38313929853
 20
241785.2597797446
 30
0
 11
5421.940316842447
 21
241785.8169572885
 31
0
  0
LINE
  8
1
 62
2
 10
5421.431516842436
 20
241785.2233044748
 30
0
 11
5421.976792112575
 21
241785.7685797449
 31
0
  0
LINE
  8
1
 62
2
 10
5421.468044926422
 20
241785.174979745
 30
0
 11
5422.025116842415
 21
241785.732051661
 31
0
  0
LINE
  8
1
 62
2
 10
5421.552897740164
 20
241785.174979745
 30
0
 11
5422.061697740166
 21
241785.683779745
 31
0
  0
LINE
  8
1
 62
2
 10
5421.637750553906
 20
241785.174979745
 30
0
 11
5422.109916842412
 21
241785.6471460335
 31
0
  0
LINE
  8
1
 62
2
 10
5421.722603367648
 20
241785.174979745
 30
0
 11
5422.109916842412
 21
241785.5622932198
 31
0
  0
LINE
  8
1
 62
2
 10
5421.80745618139
 20
241785.174979745
 30
0
 11
5422.146656181489
 21
241785.5141797451
 31
0
  0
LINE
  8
1
 62
2
 10
5421.892308995132
 20
241785.174979745
 30
0
 11
5422.194716842438
 21
241785.4773875923
 31
0
  0
LINE
  8
1
 62
2
 10
5421.977161808874
 20
241785.174979745
 30
0
 11
5422.231561808876
 21
241785.429379745
 31
0
  0
LINE
  8
1
 62
2
 10
5422.062014622617
 20
241785.174979745
 30
0
 11
5422.279516842435
 21
241785.3924819648
 31
0
  0
LINE
  8
1
 62
2
 10
5422.146867436359
 20
241785.174979745
 30
0
 11
5422.279516842435
 21
241785.3076291511
 31
0
  0
LINE
  8
1
 62
2
 10
5422.231720250101
 20
241785.174979745
 30
0
 11
5422.316520249704
 21
241785.2597797446
 31
0
  0
LINE
  8
1
 62
2
 10
5422.316573063843
 20
241785.174979745
 30
0
 11
5422.364316842431
 21
241785.2227235236
 31
0
  0
ENDBLK
  8
0
  0
BLOCK
  8
1
  2
*X3
 70
1
 10
0
 20
0
 30
0
  0
LINE
  8
1
 62
2
 10
5422.27951684242
 20
241788.3623304458
 30
0
 11
5422.314566141527
 21
241788.3973797449
 31
0
  0
LINE
  8
1
 62
2
 10
5422.314618955366
 20
241788.312579745
 30
0
 11
5422.39941895527
 21
241788.3973797449
 31
0
  0
LINE
  8
1
 62
2
 10
5422.364316842431
 20
241788.2774248183
 30
0
 11
5422.484271769012
 21
241788.3973797449
 31
0
  0
LINE
  8
1
 62
2
 10
5422.364316842431
 20
241788.1925720046
 30
0
 11
5422.569124582754
 21
241788.3973797449
 31
0
  0
LINE
  8
1
 62
2
 10
5422.399577396514
 20
241788.1429797449
 30
0
 11
5422.653977396496
 21
241788.3973797449
 31
0
  0
LINE
  8
1
 62
2
 10
5422.449116842414
 20
241788.1076663771
 30
0
 11
5422.738830210238
 21
241788.3973797449
 31
0
  0
LINE
  8
1
 62
2
 10
5422.449116842414
 20
241788.0228135633
 30
0
 11
5422.82368302398
 21
241788.3973797449
 31
0
  0
LINE
  8
1
 62
2
 10
5422.484535838041
 20
241787.9733797452
 30
0
 11
5422.908535837722
 21
241788.3973797449
 31
0
  0
LINE
  8
1
 62
2
 10
5422.533916842425
 20
241787.9379079359
 30
0
 11
5422.993388651465
 21
241788.3973797449
 31
0
  0
LINE
  8
1
 62
2
 10
5422.533916842425
 20
241787.8530551221
 30
0
 11
5423.078241465207
 21
241788.3973797449
 31
0
  0
LINE
  8
1
 62
2
 10
5422.569494279043
 20
241787.803779745
 30
0
 11
5423.163094278949
 21
241788.3973797449
 31
0
  0
LINE
  8
1
 62
2
 10
5422.618716842437
 20
241787.7681494947
 30
0
 11
5423.212316842401
 21
241788.3617494946
 31
0
  0
LINE
  8
1
 62
2
 10
5422.618716842437
 20
241787.6832966809
 30
0
 11
5423.247999906525
 21
241788.312579745
 31
0
  0
LINE
  8
1
 62
2
 10
5422.654452720075
 20
241787.6341797448
 30
0
 11
5423.297116842427
 21
241788.2768438672
 31
0
  0
LINE
  8
1
 62
2
 10
5422.703516842434
 20
241787.5983910534
 30
0
 11
5423.297116842427
 21
241788.1919910534
 31
0
  0
LINE
  8
1
 62
2
 10
5422.703516842434
 20
241787.5135382397
 30
0
 11
5423.332958347659
 21
241788.1429797449
 31
0
  0
LINE
  8
1
 62
2
 10
5422.739411161398
 20
241787.4645797449
 30
0
 11
5423.381916842423
 21
241788.1070854259
 31
0
  0
LINE
  8
1
 62
2
 10
5422.788316842431
 20
241787.4286326122
 30
0
 11
5423.381916842423
 21
241788.0222326122
 31
0
  0
LINE
  8
1
 62
2
 10
5422.788316842431
 20
241787.3437797985
 30
0
 11
5423.417916789185
 21
241787.9733797452
 31
0
  0
LINE
  8
1
 62
2
 10
5422.824369602808
 20
241787.2949797451
 30
0
 11
5423.46671684242
 21
241787.9373269847
 31
0
  0
LINE
  8
1
 62
2
 10
5422.873116842413
 20
241787.258874171
 30
0
 11
5423.46671684242
 21
241787.852474171
 31
0
  0
LINE
  8
1
 62
2
 10
5422.873116842413
 20
241787.1740213572
 30
0
 11
5423.502875230217
 21
241787.803779745
 31
0
  0
LINE
  8
1
 62
2
 10
5422.909328043839
 20
241787.1253797449
 30
0
 11
5423.551516842417
 21
241787.7675685435
 31
0
  0
LINE
  8
1
 62
2
 10
5422.95791684241
 20
241787.0891157297
 30
0
 11
5423.551516842417
 21
241787.6827157297
 31
0
  0
LINE
  8
1
 62
2
 10
5422.95791684241
 20
241787.004262916
 30
0
 11
5423.587833671249
 21
241787.6341797448
 31
0
  0
LINE
  8
1
 62
2
 10
5422.994286485191
 20
241786.955779745
 30
0
 11
5423.636316842414
 21
241787.5978101022
 31
0
  0
LINE
  8
1
 62
2
 10
5423.042716842436
 20
241786.9193572885
 30
0
 11
5423.636316842414
 21
241787.5129572885
 31
0
  0
LINE
  8
1
 62
2
 10
5423.042716842436
 20
241786.8345044748
 30
0
 11
5423.672792112571
 21
241787.4645797449
 31
0
  0
LINE
  8
1
 62
2
 10
5423.079244926223
 20
241786.7861797448
 30
0
 11
5423.721116842411
 21
241787.428051661
 31
0
  0
LINE
  8
1
 62
2
 10
5423.127516842447
 20
241786.7495988473
 30
0
 11
5423.721116842411
 21
241787.3431988473
 31
0
  0
LINE
  8
1
 62
2
 10
5423.127516842447
 20
241786.6647460336
 30
0
 11
5423.757750553996
 21
241787.2949797451
 31
0
  0
LINE
  8
1
 62
2
 10
5423.164203367545
 20
241786.6165797449
 30
0
 11
5423.805916842408
 21
241787.2582932198
 31
0
  0
LINE
  8
1
 62
2
 10
5423.21231684243
 20
241786.579840406
 30
0
 11
5423.805916842408
 21
241787.173440406
 31
0
  0
LINE
  8
1
 62
2
 10
5423.21231684243
 20
241786.4949875923
 30
0
 11
5423.842708995013
 21
241787.1253797449
 31
0
  0
LINE
  8
1
 62
2
 10
5423.249161808955
 20
241786.4469797451
 30
0
 11
5423.890716842405
 21
241787.0885347785
 31
0
  0
LINE
  8
1
 62
2
 10
5423.297116842412
 20
241786.4100819648
 30
0
 11
5423.890716842405
 21
241787.0036819648
 31
0
  0
LINE
  8
1
 62
2
 10
5423.297116842412
 20
241786.3252291511
 30
0
 11
5423.927667436365
 21
241786.955779745
 31
0
  0
LINE
  8
1
 62
2
 10
5423.3341202499
 20
241786.2773797448
 30
0
 11
5423.975516842431
 21
241786.9187763374
 31
0
  0
LINE
  8
1
 62
2
 10
5423.381916842423
 20
241786.2403235236
 30
0
 11
5423.975516842431
 21
241786.8339235236
 31
0
  0
LINE
  8
1
 62
2
 10
5423.381916842423
 20
241786.1554707098
 30
0
 11
5424.012625877396
 21
241786.7861797448
 31
0
  0
LINE
  8
1
 62
2
 10
5423.419078690931
 20
241786.1077797446
 30
0
 11
5424.060316842428
 21
241786.7490178961
 31
0
  0
LINE
  8
1
 62
2
 10
5423.46671684242
 20
241786.0705650824
 30
0
 11
5424.060316842428
 21
241786.6641650824
 31
0
  0
LINE
  8
1
 62
2
 10
5423.46671684242
 20
241785.9857122686
 30
0
 11
5424.097584318719
 21
241786.6165797449
 31
0
  0
LINE
  8
1
 62
2
 10
5423.504037132341
 20
241785.9381797448
 30
0
 11
5424.14511684241
 21
241786.5792594549
 31
0
  0
LINE
  8
1
 62
2
 10
5423.551516842446
 20
241785.9008066412
 30
0
 11
5424.14511684241
 21
241786.4944066411
 31
0
  0
LINE
  8
1
 62
2
 10
5423.551516842446
 20
241785.8159538274
 30
0
 11
5424.182542760129
 21
241786.4469797451
 31
0
  0
LINE
  8
1
 62
2
 10
5423.588995573693
 20
241785.7685797449
 30
0
 11
5424.229916842422
 21
241786.4095010136
 31
0
  0
LINE
  8
1
 62
2
 10
5423.636316842414
 20
241785.7310481999
 30
0
 11
5424.229916842422
 21
241786.3246481999
 31
0
  0
LINE
  8
1
 62
2
 10
5423.636316842414
 20
241785.6461953861
 30
0
 11
5424.267501201073
 21
241786.2773797448
 31
0
  0
LINE
  8
1
 62
2
 10
5423.673954015103
 20
241785.5989797451
 30
0
 11
5424.314716842448
 21
241786.2397425724
 31
0
  0
LINE
  8
1
 62
2
 10
5423.721116842411
 20
241785.5612897587
 30
0
 11
5424.314716842448
 21
241786.1548897587
 31
0
  0
LINE
  8
1
 62
2
 10
5423.721116842411
 20
241785.4764369449
 30
0
 11
5424.352459642134
 21
241786.1077797446
 31
0
  0
LINE
  8
1
 62
2
 10
5423.758912456222
 20
241785.429379745
 30
0
 11
5424.39951684243
 21
241786.0699841312
 31
0
  0
LINE
  8
1
 62
2
 10
5423.805916842422
 20
241785.3915313175
 30
0
 11
5424.39951684243
 21
241785.9851313175
 31
0
  0
LINE
  8
1
 62
2
 10
5423.805916842422
 20
241785.3066785037
 30
0
 11
5424.437418083471
 21
241785.9381797448
 31
0
  0
LINE
  8
1
 62
2
 10
5423.84387089705
 20
241785.2597797446
 30
0
 11
5424.484316842412
 21
241785.90022569
 31
0
  0
LINE
  8
1
 62
2
 10
5423.890716842419
 20
241785.2217728762
 30
0
 11
5424.484316842412
 21
241785.8153728762
 31
0
  0
LINE
  8
1
 62
2
 10
5423.890716842419
 20
241785.1369200625
 30
0
 11
5424.522376524838
 21
241785.7685797449
 31
0
  0
LINE
  8
1
 62
2
 10
5423.92882933846
 20
241785.0901797448
 30
0
 11
5424.569116842424
 21
241785.7304672488
 31
0
  0
LINE
  8
1
 62
2
 10
5423.975516842445
 20
241785.052014435
 30
0
 11
5424.569116842424
 21
241785.645614435
 31
0
  0
LINE
  8
1
 62
2
 10
5423.975516842445
 20
241784.9671616213
 30
0
 11
5424.607334966262
 21
241785.5989797451
 31
0
  0
LINE
  8
1
 62
2
 10
5424.013787779812
 20
241784.9205797449
 30
0
 11
5424.653916842421
 21
241785.5607088075
 31
0
  0
LINE
  8
1
 62
2
 10
5424.607440593652
 20
241785.429379745
 30
0
 11
5424.653916842421
 21
241785.4758559938
 31
0
  0
LINE
  8
1
 62
2
 10
5424.060316842413
 20
241784.8822559938
 30
0
 11
5424.569116842438
 21
241785.3910559938
 31
0
  0
LINE
  8
1
 62
2
 10
5424.52269340698
 20
241785.2597797446
 30
0
 11
5424.569116842438
 21
241785.3062031801
 31
0
  0
LINE
  8
1
 62
2
 10
5424.060316842413
 20
241784.79740318
 30
0
 11
5424.484316842398
 21
241785.22140318
 31
0
  0
LINE
  8
1
 62
2
 10
5424.437946220918
 20
241785.0901797448
 30
0
 11
5424.484316842398
 21
241785.1365503663
 31
0
  0
LINE
  8
1
 62
2
 10
5424.098746221149
 20
241784.750979745
 30
0
 11
5424.39951684243
 21
241785.0517503663
 31
0
  0
LINE
  8
1
 62
2
 10
5424.353199034784
 20
241784.9205797449
 30
0
 11
5424.39951684243
 21
241784.9668975525
 31
0
  0
LINE
  8
1
 62
2
 10
5424.14511684241
 20
241784.7124975525
 30
0
 11
5424.314716842448
 21
241784.8820975526
 31
0
  0
LINE
  8
1
 62
2
 10
5424.26845184862
 20
241784.750979745
 30
0
 11
5424.314716842448
 21
241784.7972447388
 31
0
  0
LINE
  8
1
 62
2
 10
5424.14511684241
 20
241784.6276447388
 30
0
 11
5424.229916842436
 21
241784.7124447388
 31
0
  0
LINE
  8
1
 62
2
 10
5424.18370466237
 20
241784.581379745
 30
0
 11
5424.229916842436
 21
241784.6275919251
 31
0
  0
ENDBLK
  8
0
  0
BLOCK
  8
1
  2
*X4
 70
1
 10
0
 20
0
 30
0
  0
LINE
  8
1
 62
2
 10
5423.636316842414
 20
241788.3614854259
 30
0
 11
5423.67221116144
 21
241788.3973797449
 31
0
  0
LINE
  8
1
 62
2
 10
5423.636316842414
 20
241788.2766326122
 30
0
 11
5423.757063975182
 21
241788.3973797449
 31
0
  0
LINE
  8
1
 62
2
 10
5423.636316842414
 20
241788.1917797984
 30
0
 11
5423.841916788924
 21
241788.3973797449
 31
0
  0
LINE
  8
1
 62
2
 10
5423.672369602617
 20
241788.1429797449
 30
0
 11
5423.926769602666
 21
241788.3973797449
 31
0
  0
LINE
  8
1
 62
2
 10
5423.72111684244
 20
241788.106874171
 30
0
 11
5424.011622416409
 21
241788.3973797449
 31
0
  0
LINE
  8
1
 62
2
 10
5423.72111684244
 20
241788.0220213572
 30
0
 11
5424.060316842413
 21
241788.3612213572
 31
0
  0
LINE
  8
1
 62
2
 10
5423.757328044172
 20
241787.9733797452
 30
0
 11
5424.096528043927
 21
241788.312579745
 31
0
  0
LINE
  8
1
 62
2
 10
5423.805916842437
 20
241787.9371157297
 30
0
 11
5424.14511684241
 21
241788.2763157297
 31
0
  0
LINE
  8
1
 62
2
 10
5423.805916842437
 20
241787.852262916
 30
0
 11
5424.14511684241
 21
241788.191462916
 31
0
  0
LINE
  8
1
 62
2
 10
5423.842286485175
 20
241787.803779745
 30
0
 11
5424.181486485089
 21
241788.1429797449
 31
0
  0
LINE
  8
1
 62
2
 10
5423.890716842419
 20
241787.7673572885
 30
0
 11
5424.229916842422
 21
241788.1065572885
 31
0
  0
LINE
  8
1
 62
2
 10
5423.890716842419
 20
241787.6825044747
 30
0
 11
5424.229916842422
 21
241788.0217044748
 31
0
  0
LINE
  8
1
 62
2
 10
5423.927244926235
 20
241787.6341797448
 30
0
 11
5424.266444926616
 21
241787.9733797452
 31
0
  0
LINE
  8
1
 62
2
 10
5423.975516842431
 20
241787.5975988473
 30
0
 11
5424.314716842448
 21
241787.9367988473
 31
0
  0
LINE
  8
1
 62
2
 10
5423.975516842431
 20
241787.5127460336
 30
0
 11
5424.314716842448
 21
241787.8519460335
 31
0
  0
LINE
  8
1
 62
2
 10
5424.012203367558
 20
241787.4645797449
 30
0
 11
5424.351403367647
 21
241787.803779745
 31
0
  0
LINE
  8
1
 62
2
 10
5424.060316842413
 20
241787.427840406
 30
0
 11
5424.39951684243
 21
241787.767040406
 31
0
  0
LINE
  8
1
 62
2
 10
5424.060316842413
 20
241787.3429875923
 30
0
 11
5424.39951684243
 21
241787.6821875923
 31
0
  0
LINE
  8
1
 62
2
 10
5424.097161808939
 20
241787.2949797451
 30
0
 11
5424.436361808679
 21
241787.6341797448
 31
0
  0
LINE
  8
1
 62
2
 10
5424.14511684241
 20
241787.2580819648
 30
0
 11
5424.484316842427
 21
241787.5972819648
 31
0
  0
LINE
  8
1
 62
2
 10
5424.14511684241
 20
241787.1732291511
 30
0
 11
5424.484316842427
 21
241787.512429151
 31
0
  0
LINE
  8
1
 62
2
 10
5424.182120249971
 20
241787.1253797449
 30
0
 11
5424.521320250002
 21
241787.4645797449
 31
0
  0
LINE
  8
1
 62
2
 10
5424.229916842436
 20
241787.0883235236
 30
0
 11
5424.569116842424
 21
241787.4275235236
 31
0
  0
LINE
  8
1
 62
2
 10
5424.229916842436
 20
241787.0034707098
 30
0
 11
5424.569116842424
 21
241787.3426707098
 31
0
  0
LINE
  8
1
 62
2
 10
5424.267078691337
 20
241786.955779745
 30
0
 11
5424.606278691426
 21
241787.2949797451
 31
0
  0
LINE
  8
1
 62
2
 10
5424.314716842433
 20
241786.9185650824
 30
0
 11
5424.653916842421
 21
241787.2577650824
 31
0
  0
LINE
  8
1
 62
2
 10
5424.314716842433
 20
241786.8337122687
 30
0
 11
5424.653916842421
 21
241787.1729122686
 31
0
  0
LINE
  8
1
 62
2
 10
5424.352037132354
 20
241786.7861797448
 30
0
 11
5424.691237132429
 21
241787.1253797449
 31
0
  0
LINE
  8
1
 62
2
 10
5424.39951684243
 20
241786.7488066412
 30
0
 11
5424.738716842418
 21
241787.0880066411
 31
0
  0
LINE
  8
1
 62
2
 10
5424.39951684243
 20
241786.6639538274
 30
0
 11
5424.738716842418
 21
241787.0031538274
 31
0
  0
LINE
  8
1
 62
2
 10
5424.436995573677
 20
241786.6165797449
 30
0
 11
5424.776195573766
 21
241786.955779745
 31
0
  0
LINE
  8
1
 62
2
 10
5424.484316842427
 20
241786.5790481999
 30
0
 11
5424.823516842429
 21
241786.9182481999
 31
0
  0
LINE
  8
1
 62
2
 10
5424.484316842427
 20
241786.4941953862
 30
0
 11
5424.823516842429
 21
241786.8333953862
 31
0
  0
LINE
  8
1
 62
2
 10
5424.521954015072
 20
241786.4469797451
 30
0
 11
5424.861154014798
 21
241786.7861797448
 31
0
  0
LINE
  8
1
 62
2
 10
5424.569116842424
 20
241786.4092897587
 30
0
 11
5424.908316842426
 21
241786.7484897587
 31
0
  0
LINE
  8
1
 62
2
 10
5424.569116842424
 20
241786.324436945
 30
0
 11
5424.908316842426
 21
241786.663636945
 31
0
  0
LINE
  8
1
 62
2
 10
5424.606912456002
 20
241786.2773797448
 30
0
 11
5424.946112456135
 21
241786.6165797449
 31
0
  0
LINE
  8
1
 62
2
 10
5424.653916842435
 20
241786.2395313175
 30
0
 11
5424.993116842423
 21
241786.5787313175
 31
0
  0
LINE
  8
1
 62
2
 10
5424.653916842435
 20
241786.1546785037
 30
0
 11
5424.993116842423
 21
241786.4938785037
 31
0
  0
LINE
  8
1
 62
2
 10
5424.691870897063
 20
241786.1077797446
 30
0
 11
5425.031070897516
 21
241786.4469797451
 31
0
  0
LINE
  8
1
 62
2
 10
5424.738716842447
 20
241786.0697728763
 30
0
 11
5425.077916842434
 21
241786.4089728763
 31
0
  0
LINE
  8
1
 62
2
 10
5425.031176524732
 20
241786.2773797448
 30
0
 11
5425.077916842434
 21
241786.3241200625
 31
0
  0
LINE
  8
1
 62
2
 10
5424.738716842447
 20
241785.9849200625
 30
0
 11
5424.993116842423
 21
241786.2393200625
 31
0
  0
LINE
  8
1
 62
2
 10
5424.946429338277
 20
241786.1077797446
 30
0
 11
5424.993116842423
 21
241786.1544672488
 31
0
  0
LINE
  8
1
 62
2
 10
5424.776829338473
 20
241785.9381797448
 30
0
 11
5424.908316842411
 21
241786.0696672488
 31
0
  0
LINE
  8
1
 62
2
 10
5424.861682152216
 20
241785.9381797448
 30
0
 11
5424.908316842411
 21
241785.984814435
 31
0
  0
ENDBLK
  8
0
  0
BLOCK
  8
1
  2
*X5
 70
1
 10
0
 20
0
 30
0
  0
LINE
  8
1
 62
2
 10
5424.229916842436
 20
241788.3611157297
 30
0
 11
5424.26618085764
 21
241788.3973797449
 31
0
  0
LINE
  8
1
 62
2
 10
5424.266233671428
 20
241788.312579745
 30
0
 11
5424.351033671383
 21
241788.3973797449
 31
0
  0
LINE
  8
1
 62
2
 10
5424.314716842433
 20
241788.2762101023
 30
0
 11
5424.435886485125
 21
241788.3973797449
 31
0
  0
LINE
  8
1
 62
2
 10
5424.314716842433
 20
241788.1913572885
 30
0
 11
5424.520739298867
 21
241788.3973797449
 31
0
  0
LINE
  8
1
 62
2
 10
5424.35119211259
 20
241788.1429797449
 30
0
 11
5424.569116842438
 21
241788.3609044747
 31
0
  0
LINE
  8
1
 62
2
 10
5424.399516842444
 20
241788.106451661
 30
0
 11
5424.605644926429
 21
241788.312579745
 31
0
  0
LINE
  8
1
 62
2
 10
5424.399516842444
 20
241788.0215988473
 30
0
 11
5424.653916842435
 21
241788.2759988473
 31
0
  0
LINE
  8
1
 62
2
 10
5424.436150554117
 20
241787.9733797452
 30
0
 11
5424.653916842435
 21
241788.1911460335
 31
0
  0
LINE
  8
1
 62
2
 10
5424.484316842412
 20
241787.9366932198
 30
0
 11
5424.690603367577
 21
241788.1429797449
 31
0
  0
LINE
  8
1
 62
2
 10
5424.484316842412
 20
241787.851840406
 30
0
 11
5424.738716842447
 21
241788.1062404061
 31
0
  0
LINE
  8
1
 62
2
 10
5424.521108995148
 20
241787.803779745
 30
0
 11
5424.738716842447
 21
241788.0213875923
 31
0
  0
LINE
  8
1
 62
2
 10
5424.569116842424
 20
241787.7669347785
 30
0
 11
5424.775561809103
 21
241787.9733797452
 31
0
  0
LINE
  8
1
 62
2
 10
5424.569116842424
 20
241787.6820819648
 30
0
 11
5424.823516842414
 21
241787.9364819648
 31
0
  0
LINE
  8
1
 62
2
 10
5424.606067436136
 20
241787.6341797448
 30
0
 11
5424.823516842414
 21
241787.8516291511
 31
0
  0
LINE
  8
1
 62
2
 10
5424.653916842435
 20
241787.5971763373
 30
0
 11
5424.860520250091
 21
241787.803779745
 31
0
  0
LINE
  8
1
 62
2
 10
5424.653916842435
 20
241787.5123235236
 30
0
 11
5424.908316842426
 21
241787.7667235236
 31
0
  0
LINE
  8
1
 62
2
 10
5424.691025877488
 20
241787.4645797449
 30
0
 11
5424.908316842426
 21
241787.6818707099
 31
0
  0
LINE
  8
1
 62
2
 10
5424.738716842447
 20
241787.4274178961
 30
0
 11
5424.945478691123
 21
241787.6341797448
 31
0
  0
LINE
  8
1
 62
2
 10
5424.738716842447
 20
241787.3425650824
 30
0
 11
5424.993116842437
 21
241787.5969650824
 31
0
  0
LINE
  8
1
 62
2
 10
5424.775984318883
 20
241787.2949797451
 30
0
 11
5424.993116842437
 21
241787.5121122686
 31
0
  0
LINE
  8
1
 62
2
 10
5424.823516842429
 20
241787.2576594549
 30
0
 11
5425.030437132446
 21
241787.4645797449
 31
0
  0
LINE
  8
1
 62
2
 10
5424.823516842429
 20
241787.1728066412
 30
0
 11
5425.077916842434
 21
241787.4272066411
 31
0
  0
LINE
  8
1
 62
2
 10
5424.860942759915
 20
241787.1253797449
 30
0
 11
5425.077916842434
 21
241787.3423538274
 31
0
  0
LINE
  8
1
 62
2
 10
5424.908316842411
 20
241787.0879010136
 30
0
 11
5425.115395573856
 21
241787.2949797451
 31
0
  0
LINE
  8
1
 62
2
 10
5424.908316842411
 20
241787.0030481999
 30
0
 11
5425.162716842446
 21
241787.2574481999
 31
0
  0
LINE
  8
1
 62
2
 10
5424.945901201267
 20
241786.955779745
 30
0
 11
5425.162716842446
 21
241787.1725953862
 31
0
  0
LINE
  8
1
 62
2
 10
5424.993116842423
 20
241786.9181425724
 30
0
 11
5425.200354014887
 21
241787.1253797449
 31
0
  0
LINE
  8
1
 62
2
 10
5424.993116842423
 20
241786.8332897587
 30
0
 11
5425.247516842428
 21
241787.0876897587
 31
0
  0
LINE
  8
1
 62
2
 10
5425.030859642298
 20
241786.7861797448
 30
0
 11
5425.247516842428
 21
241787.0028369449
 31
0
  0
LINE
  8
1
 62
2
 10
5425.07791684242
 20
241786.7483841312
 30
0
 11
5425.285312456239
 21
241786.955779745
 31
0
  0
LINE
  8
1
 62
2
 10
5425.07791684242
 20
241786.6635313174
 30
0
 11
5425.332316842396
 21
241786.9179313174
 31
0
  0
LINE
  8
1
 62
2
 10
5425.285418083513
 20
241786.7861797448
 30
0
 11
5425.332316842396
 21
241786.8330785037
 31
0
  0
LINE
  8
1
 62
2
 10
5425.115818083636
 20
241786.6165797449
 30
0
 11
5425.247516842414
 21
241786.7482785037
 31
0
  0
LINE
  8
1
 62
2
 10
5425.200670897379
 20
241786.6165797449
 30
0
 11
5425.247516842414
 21
241786.66342569
 31
0
  0
ENDBLK
  8
0
  0
BLOCK
  8
1
  2
*X6
 70
1
 10
0
 20
0
 30
0
  0
LINE
  8
1
 62
2
 10
5424.738716842447
 20
241788.3607988473
 30
0
 11
5424.775297740084
 21
241788.3973797449
 31
0
  0
LINE
  8
1
 62
2
 10
5424.7753505539
 20
241788.312579745
 30
0
 11
5424.860150553826
 21
241788.3973797449
 31
0
  0
LINE
  8
1
 62
2
 10
5424.823516842414
 20
241788.2758932198
 30
0
 11
5424.945003367569
 21
241788.3973797449
 31
0
  0
LINE
  8
1
 62
2
 10
5424.823516842414
 20
241788.191040406
 30
0
 11
5425.029856181311
 21
241788.3973797449
 31
0
  0
LINE
  8
1
 62
2
 10
5424.860308995019
 20
241788.1429797449
 30
0
 11
5425.07791684242
 21
241788.3605875923
 31
0
  0
LINE
  8
1
 62
2
 10
5424.908316842426
 20
241788.1061347786
 30
0
 11
5425.114761808844
 21
241788.312579745
 31
0
  0
LINE
  8
1
 62
2
 10
5424.908316842426
 20
241788.0212819648
 30
0
 11
5425.162716842417
 21
241788.2756819648
 31
0
  0
LINE
  8
1
 62
2
 10
5424.945267436546
 20
241787.9733797452
 30
0
 11
5425.162716842417
 21
241788.1908291511
 31
0
  0
LINE
  8
1
 62
2
 10
5424.993116842437
 20
241787.9363763374
 30
0
 11
5425.199720250006
 21
241788.1429797449
 31
0
  0
LINE
  8
1
 62
2
 10
5424.993116842437
 20
241787.8515235236
 30
0
 11
5425.247516842428
 21
241788.1059235236
 31
0
  0
LINE
  8
1
 62
2
 10
5425.030225877577
 20
241787.803779745
 30
0
 11
5425.247516842428
 21
241788.0210707099
 31
0
  0
LINE
  8
1
 62
2
 10
5425.07791684242
 20
241787.7666178961
 30
0
 11
5425.284678691533
 21
241787.9733797452
 31
0
  0
LINE
  8
1
 62
2
 10
5425.07791684242
 20
241787.6817650824
 30
0
 11
5425.332316842396
 21
241787.9361650823
 31
0
  0
LINE
  8
1
 62
2
 10
5425.115184318609
 20
241787.6341797448
 30
0
 11
5425.332316842396
 21
241787.8513122686
 31
0
  0
LINE
  8
1
 62
2
 10
5425.162716842417
 20
241787.5968594549
 30
0
 11
5425.369637132564
 21
241787.803779745
 31
0
  0
LINE
  8
1
 62
2
 10
5425.162716842417
 20
241787.5120066411
 30
0
 11
5425.417116842436
 21
241787.7664066412
 31
0
  0
LINE
  8
1
 62
2
 10
5425.200142759932
 20
241787.4645797449
 30
0
 11
5425.417116842436
 21
241787.6815538274
 31
0
  0
LINE
  8
1
 62
2
 10
5425.247516842414
 20
241787.4271010137
 30
0
 11
5425.454595573567
 21
241787.6341797448
 31
0
  0
LINE
  8
1
 62
2
 10
5425.247516842414
 20
241787.3422481999
 30
0
 11
5425.501916842433
 21
241787.5966481999
 31
0
  0
LINE
  8
1
 62
2
 10
5425.285101201356
 20
241787.2949797451
 30
0
 11
5425.501916842433
 21
241787.5117953862
 31
0
  0
LINE
  8
1
 62
2
 10
5425.33231684241
 20
241787.2573425724
 30
0
 11
5425.539554014918
 21
241787.4645797449
 31
0
  0
LINE
  8
1
 62
2
 10
5425.33231684241
 20
241787.1724897587
 30
0
 11
5425.58671684243
 21
241787.4268897587
 31
0
  0
LINE
  8
1
 62
2
 10
5425.539659642556
 20
241787.2949797451
 30
0
 11
5425.58671684243
 21
241787.3420369449
 31
0
  0
LINE
  8
1
 62
2
 10
5425.37005964236
 20
241787.1253797449
 30
0
 11
5425.501916842404
 21
241787.2572369449
 31
0
  0
LINE
  8
1
 62
2
 10
5425.454912456102
 20
241787.1253797449
 30
0
 11
5425.501916842404
 21
241787.1723841312
 31
0
  0
ENDBLK
  8
0
  0
BLOCK
  8
1
  2
*X7
 70
1
 10
0
 20
0
 30
0
  0
LINE
  8
1
 62
2
 10
5425.247516842414
 20
241788.3604819648
 30
0
 11
5425.284414622504
 21
241788.3973797449
 31
0
  0
LINE
  8
1
 62
2
 10
5425.28446743633
 20
241788.312579745
 30
0
 11
5425.369267436246
 21
241788.3973797449
 31
0
  0
LINE
  8
1
 62
2
 10
5425.33231684241
 20
241788.2755763373
 30
0
 11
5425.454120249989
 21
241788.3973797449
 31
0
  0
LINE
  8
1
 62
2
 10
5425.33231684241
 20
241788.1907235236
 30
0
 11
5425.538973063731
 21
241788.3973797449
 31
0
  0
LINE
  8
1
 62
2
 10
5425.369425877478
 20
241788.1429797449
 30
0
 11
5425.623825877473
 21
241788.3973797449
 31
0
  0
LINE
  8
1
 62
2
 10
5425.417116842436
 20
241788.1058178961
 30
0
 11
5425.708678691215
 21
241788.3973797449
 31
0
  0
LINE
  8
1
 62
2
 10
5425.417116842436
 20
241788.0209650824
 30
0
 11
5425.793531504957
 21
241788.3973797449
 31
0
  0
LINE
  8
1
 62
2
 10
5425.454384319019
 20
241787.9733797452
 30
0
 11
5425.878384318699
 21
241788.3973797449
 31
0
  0
LINE
  8
1
 62
2
 10
5425.501916842433
 20
241787.9360594549
 30
0
 11
5425.963237132442
 21
241788.3973797449
 31
0
  0
LINE
  8
1
 62
2
 10
5425.501916842433
 20
241787.8512066411
 30
0
 11
5426.048089946184
 21
241788.3973797449
 31
0
  0
LINE
  8
1
 62
2
 10
5426.048142760017
 20
241788.312579745
 30
0
 11
5426.095516842426
 21
241788.3599538274
 31
0
  0
LINE
  8
1
 62
2
 10
5425.53934276005
 20
241787.803779745
 30
0
 11
5426.010716842415
 21
241788.2751538274
 31
0
  0
LINE
  8
1
 62
2
 10
5425.963395573694
 20
241788.1429797449
 30
0
 11
5426.010716842415
 21
241788.1903010136
 31
0
  0
LINE
  8
1
 62
2
 10
5425.58671684243
 20
241787.7663010137
 30
0
 11
5425.925916842418
 21
241788.1055010136
 31
0
  0
LINE
  8
1
 62
2
 10
5425.878648387734
 20
241787.9733797452
 30
0
 11
5425.925916842418
 21
241788.0206481999
 31
0
  0
LINE
  8
1
 62
2
 10
5425.58671684243
 20
241787.6814481999
 30
0
 11
5425.841116842421
 21
241787.9358481999
 31
0
  0
LINE
  8
1
 62
2
 10
5425.793901201265
 20
241787.803779745
 30
0
 11
5425.841116842421
 21
241787.8509953862
 31
0
  0
LINE
  8
1
 62
2
 10
5425.624301201068
 20
241787.6341797448
 30
0
 11
5425.756316842424
 21
241787.7661953862
 31
0
  0
LINE
  8
1
 62
2
 10
5425.70915401481
 20
241787.6341797448
 30
0
 11
5425.756316842424
 21
241787.6813425724
 31
0
  0
ENDBLK
  8
0
  0
BLOCK
  8
1
  2
*X8
 70
1
 10
0
 20
0
 30
0
  0
LINE
  8
1
 62
2
 10
5426.265116842435
 20
241788.1052897587
 30
0
 11
5426.302806828638
 21
241788.1429797449
 31
0
  0
LINE
  8
1
 62
2
 10
5426.180316842423
 20
241788.0204897587
 30
0
 11
5426.218006828567
 21
241788.0581797448
 31
0
  0
LINE
  8
1
 62
2
 10
5426.095516842412
 20
241787.9356897587
 30
0
 11
5426.133206828963
 21
241787.9733797452
 31
0
  0
LINE
  8
1
 62
2
 10
5426.010716842415
 20
241787.8508897587
 30
0
 11
5426.048406828661
 21
241787.8885797449
 31
0
  0
LINE
  8
1
 62
2
 10
5425.925916842418
 20
241787.7660897587
 30
0
 11
5425.963606828766
 21
241787.803779745
 31
0
  0
LINE
  8
1
 62
2
 10
5426.434716842414
 20
241788.1900369449
 30
0
 11
5426.472459642479
 21
241788.227779745
 31
0
  0
LINE
  8
1
 62
2
 10
5425.925916842418
 20
241787.6812369449
 30
0
 11
5426.38765964238
 21
241788.1429797449
 31
0
  0
LINE
  8
1
 62
2
 10
5425.841116842421
 20
241787.596436945
 30
0
 11
5425.878859642282
 21
241787.6341797448
 31
0
  0
LINE
  8
1
 62
2
 10
5426.604316842437
 20
241788.2747841312
 30
0
 11
5426.642112456206
 21
241788.312579745
 31
0
  0
LINE
  8
1
 62
2
 10
5425.841116842421
 20
241787.5115841312
 30
0
 11
5426.557312456222
 21
241788.227779745
 31
0
  0
LINE
  8
1
 62
2
 10
5425.756316842409
 20
241787.4267841312
 30
0
 11
5425.794112456119
 21
241787.4645797449
 31
0
  0
LINE
  8
1
 62
2
 10
5425.756316842409
 20
241787.3419313175
 30
0
 11
5426.726965269948
 21
241788.312579745
 31
0
  0
LINE
  8
1
 62
2
 10
5426.858716842442
 20
241788.3594785037
 30
0
 11
5426.896618083637
 21
241788.3973797449
 31
0
  0
LINE
  8
1
 62
2
 10
5425.756316842409
 20
241787.2570785037
 30
0
 11
5426.81181808369
 21
241788.312579745
 31
0
  0
LINE
  8
1
 62
2
 10
5425.671516842413
 20
241787.1722785037
 30
0
 11
5425.709418083512
 21
241787.2101797448
 31
0
  0
LINE
  8
1
 62
2
 10
5425.671516842413
 20
241787.08742569
 30
0
 11
5426.981470897379
 21
241788.3973797449
 31
0
  0
LINE
  8
1
 62
2
 10
5425.671516842413
 20
241787.0025728762
 30
0
 11
5427.066323711121
 21
241788.3973797449
 31
0
  0
LINE
  8
1
 62
2
 10
5425.671516842413
 20
241786.9177200625
 30
0
 11
5427.151176524863
 21
241788.3973797449
 31
0
  0
LINE
  8
1
 62
2
 10
5425.671516842413
 20
241786.8328672487
 30
0
 11
5427.236029338606
 21
241788.3973797449
 31
0
  0
LINE
  8
1
 62
2
 10
5425.671516842413
 20
241786.748014435
 30
0
 11
5427.320882152348
 21
241788.3973797449
 31
0
  0
LINE
  8
1
 62
2
 10
5425.671516842413
 20
241786.6631616213
 30
0
 11
5427.40573496609
 21
241788.3973797449
 31
0
  0
LINE
  8
1
 62
2
 10
5425.671516842413
 20
241786.5783088075
 30
0
 11
5427.490587779832
 21
241788.3973797449
 31
0
  0
LINE
  8
1
 62
2
 10
5425.671516842413
 20
241786.4934559938
 30
0
 11
5427.575440593574
 21
241788.3973797449
 31
0
  0
LINE
  8
1
 62
2
 10
5426.727493407293
 20
241787.4645797449
 30
0
 11
5427.660293407316
 21
241788.3973797449
 31
0
  0
LINE
  8
1
 62
2
 10
5426.642693407412
 20
241787.379779745
 30
0
 11
5426.689116842405
 21
241787.42620318
 31
0
  0
LINE
  8
1
 62
2
 10
5425.671516842413
 20
241786.40860318
 30
0
 11
5426.604316842437
 21
241787.34140318
 31
0
  0
LINE
  8
1
 62
2
 10
5426.897146221135
 20
241787.549379745
 30
0
 11
5427.706716842426
 21
241788.3589503663
 31
0
  0
LINE
  8
1
 62
2
 10
5426.812346221035
 20
241787.4645797449
 30
0
 11
5426.858716842413
 21
241787.5109503663
 31
0
  0
LINE
  8
1
 62
2
 10
5426.557946220943
 20
241787.2101797448
 30
0
 11
5426.604316842437
 21
241787.2565503663
 31
0
  0
LINE
  8
1
 62
2
 10
5425.709946221235
 20
241786.3621797451
 30
0
 11
5426.519516842411
 21
241787.1717503663
 31
0
  0
LINE
  8
1
 62
2
 10
5427.066799034675
 20
241787.6341797448
 30
0
 11
5427.745199034865
 21
241788.312579745
 31
0
  0
LINE
  8
1
 62
2
 10
5426.981999034877
 20
241787.549379745
 30
0
 11
5427.028316842421
 21
241787.5956975526
 31
0
  0
LINE
  8
1
 62
2
 10
5426.473199034779
 20
241787.0405797449
 30
0
 11
5426.519516842411
 21
241787.0868975525
 31
0
  0
LINE
  8
1
 62
2
 10
5425.756316842424
 20
241786.3236975526
 30
0
 11
5426.434716842428
 21
241787.0020975525
 31
0
  0
LINE
  8
1
 62
2
 10
5427.151651848417
 20
241787.6341797448
 30
0
 11
5427.830051848608
 21
241788.312579745
 31
0
  0
LINE
  8
1
 62
2
 10
5425.756316842424
 20
241786.2388447388
 30
0
 11
5426.434716842428
 21
241786.9172447388
 31
0
  0
LINE
  8
1
 62
2
 10
5427.236504662159
 20
241787.6341797448
 30
0
 11
5427.91490466235
 21
241788.312579745
 31
0
  0
LINE
  8
1
 62
2
 10
5425.756316842424
 20
241786.1539919251
 30
0
 11
5426.434716842428
 21
241786.832391925
 31
0
  0
LINE
  8
1
 62
2
 10
5427.321357475901
 20
241787.6341797448
 30
0
 11
5427.961116842431
 21
241788.2739391113
 31
0
  0
LINE
  8
1
 62
2
 10
5425.794957475708
 20
241786.1077797446
 30
0
 11
5426.434716842428
 21
241786.7475391113
 31
0
  0
LINE
  8
1
 62
2
 10
5427.406210289643
 20
241787.6341797448
 30
0
 11
5427.999810289854
 21
241788.227779745
 31
0
  0
LINE
  8
1
 62
2
 10
5425.841116842421
 20
241786.0690862976
 30
0
 11
5426.434716842428
 21
241786.6626862976
 31
0
  0
LINE
  8
1
 62
2
 10
5427.491063103385
 20
241787.6341797448
 30
0
 11
5428.084663103597
 21
241788.227779745
 31
0
  0
LINE
  8
1
 62
2
 10
5425.841116842421
 20
241785.9842334838
 30
0
 11
5426.434716842428
 21
241786.5778334838
 31
0
  0
LINE
  8
1
 62
2
 10
5427.537116842432
 20
241787.5953806701
 30
0
 11
5428.130716842425
 21
241788.1889806701
 31
0
  0
LINE
  8
1
 62
2
 10
5425.879915917118
 20
241785.9381797448
 30
0
 11
5426.473515917343
 21
241786.531779745
 31
0
  0
LINE
  8
1
 62
2
 10
5427.575968731079
 20
241787.549379745
 30
0
 11
5428.169568730985
 21
241788.1429797449
 31
0
  0
LINE
  8
1
 62
2
 10
5425.925916842418
 20
241785.8993278563
 30
0
 11
5426.519516842425
 21
241786.4929278563
 31
0
  0
LINE
  8
1
 62
2
 10
5427.660821544821
 20
241787.549379745
 30
0
 11
5428.254421544727
 21
241788.1429797449
 31
0
  0
LINE
  8
1
 62
2
 10
5425.925916842418
 20
241785.8144750426
 30
0
 11
5426.519516842425
 21
241786.4080750426
 31
0
  0
LINE
  8
1
 62
2
 10
5427.706716842426
 20
241787.5104222288
 30
0
 11
5428.300316842433
 21
241788.1040222289
 31
0
  0
LINE
  8
1
 62
2
 10
5425.964874358469
 20
241785.7685797449
 30
0
 11
5426.558474358666
 21
241786.3621797451
 31
0
  0
LINE
  8
1
 62
2
 10
5427.745727172224
 20
241787.4645797449
 30
0
 11
5428.339327172114
 21
241788.0581797448
 31
0
  0
LINE
  8
1
 62
2
 10
5426.010716842415
 20
241785.7295694151
 30
0
 11
5426.604316842422
 21
241786.3231694151
 31
0
  0
LINE
  8
1
 62
2
 10
5427.830579985966
 20
241787.4645797449
 30
0
 11
5428.38511684243
 21
241788.0191166014
 31
0
  0
LINE
  8
1
 62
2
 10
5426.049779986075
 20
241785.683779745
 30
0
 11
5426.604316842422
 21
241786.2383166014
 31
0
  0
LINE
  8
1
 62
2
 10
5427.876316842419
 20
241787.4254637876
 30
0
 11
5428.424232799996
 21
241787.9733797452
 31
0
  0
LINE
  8
1
 62
2
 10
5426.095516842412
 20
241785.6446637876
 30
0
 11
5426.643432799698
 21
241786.1925797449
 31
0
  0
LINE
  8
1
 62
2
 10
5427.915485613557
 20
241787.379779745
 30
0
 11
5428.469916842427
 21
241787.9342109739
 31
0
  0
LINE
  8
1
 62
2
 10
5426.134685613622
 20
241785.5989797451
 30
0
 11
5426.689116842419
 21
241786.1534109739
 31
0
  0
LINE
  8
1
 62
2
 10
5427.961116842431
 20
241787.3405581602
 30
0
 11
5428.509138427195
 21
241787.8885797449
 31
0
  0
LINE
  8
1
 62
2
 10
5426.180316842423
 20
241785.5597581602
 30
0
 11
5426.728338426897
 21
241786.1077797446
 31
0
  0
LINE
  8
1
 62
2
 10
5427.961116842431
 20
241787.2557053464
 30
0
 11
5428.554716842424
 21
241787.8493053464
 31
0
  0
LINE
  8
1
 62
2
 10
5426.219591241126
 20
241785.5141797451
 30
0
 11
5426.813191240639
 21
241786.1077797446
 31
0
  0
LINE
  8
1
 62
2
 10
5428.000444054575
 20
241787.2101797448
 30
0
 11
5428.594044054771
 21
241787.803779745
 31
0
  0
LINE
  8
1
 62
2
 10
5426.265116842435
 20
241785.4748525327
 30
0
 11
5426.858716842413
 21
241786.0684525326
 31
0
  0
LINE
  8
1
 62
2
 10
5428.045916842428
 20
241787.1707997189
 30
0
 11
5428.639516842421
 21
241787.7643997189
 31
0
  0
LINE
  8
1
 62
2
 10
5426.304496868514
 20
241785.429379745
 30
0
 11
5426.898096868405
 21
241786.0229797449
 31
0
  0
LINE
  8
1
 62
2
 10
5428.045916842428
 20
241787.0859469052
 30
0
 11
5428.639516842421
 21
241787.6795469052
 31
0
  0
LINE
  8
1
 62
2
 10
5426.389349682257
 20
241785.429379745
 30
0
 11
5426.982949682148
 21
241786.0229797449
 31
0
  0
LINE
  8
1
 62
2
 10
5428.085402495897
 20
241787.0405797449
 30
0
 11
5428.679002495803
 21
241787.6341797448
 31
0
  0
LINE
  8
1
 62
2
 10
5426.434716842414
 20
241785.3898940914
 30
0
 11
5427.028316842421
 21
241785.9834940914
 31
0
  0
LINE
  8
1
 62
2
 10
5428.130716842439
 20
241787.0010412777
 30
0
 11
5428.724316842432
 21
241787.5946412777
 31
0
  0
LINE
  8
1
 62
2
 10
5426.474255309645
 20
241785.3445797449
 30
0
 11
5427.067855309525
 21
241785.9381797448
 31
0
  0
LINE
  8
1
 62
2
 10
5428.130716842439
 20
241786.916188464
 30
0
 11
5428.724316842432
 21
241787.5097884639
 31
0
  0
LINE
  8
1
 62
2
 10
5426.559108123387
 20
241785.3445797449
 30
0
 11
5427.152708123267
 21
241785.9381797448
 31
0
  0
LINE
  8
1
 62
2
 10
5428.130716842439
 20
241786.8313356502
 30
0
 11
5428.76396093714
 21
241787.4645797449
 31
0
  0
LINE
  8
1
 62
2
 10
5426.604316842422
 20
241785.3049356502
 30
0
 11
5427.237560937009
 21
241785.9381797448
 31
0
  0
LINE
  8
1
 62
2
 10
5428.130716842439
 20
241786.7464828365
 30
0
 11
5428.809116842414
 21
241787.4248828365
 31
0
  0
LINE
  8
1
 62
2
 10
5426.644013750587
 20
241785.2597797446
 30
0
 11
5427.322413750751
 21
241785.9381797448
 31
0
  0
LINE
  8
1
 62
2
 10
5428.130716842439
 20
241786.6616300227
 30
0
 11
5428.809116842414
 21
241787.3400300227
 31
0
  0
LINE
  8
1
 62
2
 10
5426.728866564329
 20
241785.2597797446
 30
0
 11
5427.407266564494
 21
241785.9381797448
 31
0
  0
LINE
  8
1
 62
2
 10
5428.130716842439
 20
241786.576777209
 30
0
 11
5428.809116842414
 21
241787.255177209
 31
0
  0
LINE
  8
1
 62
2
 10
5428.045916842399
 20
241786.4919772089
 30
0
 11
5428.085719378476
 21
241786.531779745
 31
0
  0
LINE
  8
1
 62
2
 10
5427.537116842432
 20
241785.983177209
 30
0
 11
5427.576919378364
 21
241786.0229797449
 31
0
  0
LINE
  8
1
 62
2
 10
5426.813719378071
 20
241785.2597797446
 30
0
 11
5427.492119378236
 21
241785.9381797448
 31
0
  0
LINE
  8
1
 62
2
 10
5428.045916842399
 20
241786.4071243952
 30
0
 11
5428.848972192005
 21
241787.2101797448
 31
0
  0
LINE
  8
1
 62
2
 10
5427.961116842431
 20
241786.3223243952
 30
0
 11
5428.000972192283
 21
241786.3621797451
 31
0
  0
LINE
  8
1
 62
2
 10
5427.706716842411
 20
241786.0679243952
 30
0
 11
5427.746572191813
 21
241786.1077797446
 31
0
  0
LINE
  8
1
 62
2
 10
5426.858716842413
 20
241785.2199243952
 30
0
 11
5427.661772192107
 21
241786.0229797449
 31
0
  0
LINE
  8
1
 62
2
 10
5427.961116842431
 20
241786.2374715815
 30
0
 11
5428.893916842411
 21
241787.1702715815
 31
0
  0
LINE
  8
1
 62
2
 10
5427.876316842405
 20
241786.1526715815
 30
0
 11
5427.916225005843
 21
241786.1925797449
 31
0
  0
LINE
  8
1
 62
2
 10
5426.898625005932
 20
241785.174979745
 30
0
 11
5427.831425005556
 21
241786.1077797446
 31
0
  0
LINE
  8
1
 62
2
 10
5426.983477819675
 20
241785.174979745
 30
0
 11
5428.893916842411
 21
241787.0854187678
 31
0
  0
LINE
  8
1
 62
2
 10
5427.068330633417
 20
241785.174979745
 30
0
 11
5428.893916842411
 21
241787.000565954
 31
0
  0
LINE
  8
1
 62
2
 10
5427.153183447159
 20
241785.174979745
 30
0
 11
5428.893916842411
 21
241786.9157131403
 31
0
  0
LINE
  8
1
 62
2
 10
5427.238036260901
 20
241785.174979745
 30
0
 11
5428.893916842411
 21
241786.8308603265
 31
0
  0
LINE
  8
1
 62
2
 10
5427.322889074643
 20
241785.174979745
 30
0
 11
5428.893916842411
 21
241786.7460075128
 31
0
  0
LINE
  8
1
 62
2
 10
5427.407741888385
 20
241785.174979745
 30
0
 11
5428.893916842411
 21
241786.6611546991
 31
0
  0
LINE
  8
1
 62
2
 10
5427.492594702128
 20
241785.174979745
 30
0
 11
5428.893916842411
 21
241786.5763018853
 31
0
  0
LINE
  8
1
 62
2
 10
5427.57744751587
 20
241785.174979745
 30
0
 11
5428.893916842411
 21
241786.4914490716
 31
0
  0
LINE
  8
1
 62
2
 10
5428.849500329699
 20
241786.3621797451
 30
0
 11
5428.893916842411
 21
241786.4065962578
 31
0
  0
LINE
  8
1
 62
2
 10
5427.747100329203
 20
241785.2597797446
 30
0
 11
5428.809116842414
 21
241786.3217962578
 31
0
  0
LINE
  8
1
 62
2
 10
5427.662300329612
 20
241785.174979745
 30
0
 11
5427.706716842426
 21
241785.2193962578
 31
0
  0
LINE
  8
1
 62
2
 10
5427.831953142945
 20
241785.2597797446
 30
0
 11
5428.809116842414
 21
241786.2369434441
 31
0
  0
LINE
  8
1
 62
2
 10
5428.7648059567
 20
241786.1077797446
 30
0
 11
5428.809116842414
 21
241786.1520906303
 31
0
  0
LINE
  8
1
 62
2
 10
5428.001605956991
 20
241785.3445797449
 30
0
 11
5428.724316842432
 21
241786.0672906304
 31
0
  0
LINE
  8
1
 62
2
 10
5427.916805956687
 20
241785.2597797446
 30
0
 11
5427.961116842416
 21
241785.3040906303
 31
0
  0
LINE
  8
1
 62
2
 10
5428.680058770609
 20
241785.9381797448
 30
0
 11
5428.724316842432
 21
241785.9824378166
 31
0
  0
LINE
  8
1
 62
2
 10
5428.171258770847
 20
241785.429379745
 30
0
 11
5428.639516842421
 21
241785.8976378166
 31
0
  0
LINE
  8
1
 62
2
 10
5428.086458770733
 20
241785.3445797449
 30
0
 11
5428.130716842425
 21
241785.3888378166
 31
0
  0
LINE
  8
1
 62
2
 10
5428.595311584475
 20
241785.7685797449
 30
0
 11
5428.639516842421
 21
241785.8127850029
 31
0
  0
LINE
  8
1
 62
2
 10
5428.51051158458
 20
241785.683779745
 30
0
 11
5428.554716842438
 21
241785.7279850029
 31
0
  0
LINE
  8
1
 62
2
 10
5428.425711584641
 20
241785.5989797451
 30
0
 11
5428.469916842427
 21
241785.6431850029
 31
0
  0
LINE
  8
1
 62
2
 10
5428.340911584688
 20
241785.5141797451
 30
0
 11
5428.38511684243
 21
241785.5583850029
 31
0
  0
LINE
  8
1
 62
2
 10
5428.256111584589
 20
241785.429379745
 30
0
 11
5428.300316842433
 21
241785.4735850029
 31
0
  0
ENDBLK
  8
0
  0
BLOCK
  8
1
  2
*D0
 70
1
 10
0
 20
0
 30
0
  0
LINE
  8
1
 62
2
 10
5368.413355138267
 20
241791.2340161046
 30
0
 11
5393.127626657648
 21
241776.9652247897
 31
0
  0
LINE
  8
1
 62
2
 10
5399.945114674312
 20
241788.7734604143
 30
0
 11
5392.377626657633
 21
241775.666186684
 31
0
  0
LINE
  8
1
 62
2
 10
5375.230843154932
 20
241803.0422517292
 30
0
 11
5367.663355138253
 21
241789.934977999
 31
0
  0
SOLID
  8
1
 62
2
 10
5368.413355138267
 20
241791.2340161046
 30
0
 11
5371.392636430363
 21
241789.9942826726
 31
0
 12
5370.976636430355
 22
241789.2737495366
 32
0
 13
5370.976636430355
 23
241789.2737495366
 33
0
  0
SOLID
  8
1
 62
2
 10
5393.127626657648
 20
241776.9652247897
 30
0
 11
5390.148345365552
 21
241778.2049582218
 31
0
 12
5390.56434536556
 22
241778.9254913577
 32
0
 13
5390.56434536556
 23
241778.9254913577
 33
0
  0
TEXT
  8
1
 62
2
 10
5374.319246734862
 20
241790.1336490782
 30
0
 40
3.2
  1
300
 50
329.9999999993511
 41
0.9
  0
TEXT
  8
1
 62
2
 10
5382.355962481928
 20
241785.4936490781
 30
0
 40
3.2
  1
±30
 50
329.9999999993511
 41
0.9
  0
ENDBLK
  8
0
  0
BLOCK
  8
1
  2
*D1
 70
1
 10
0
 20
0
 30
0
  0
LINE
  8
1
 62
2
 10
5331.071796327457
 20
241835
 30
0
 11
5351.071796327457
 21
241835
 31
0
  0
LINE
  8
1
 62
2
 10
5351.071796327457
 20
241812.3332622912
 30
0
 11
5351.071796327457
 21
241836.5
 31
0
  0
LINE
  8
1
 62
2
 10
5331.071796327457
 20
241812.3332622912
 30
0
 11
5331.071796327457
 21
241836.5
 31
0
  0
SOLID
  8
1
 62
2
 10
5331.071796327457
 20
241835
 30
0
 11
5334.271796327457
 21
241835.416
 31
0
 12
5334.271796327457
 22
241834.584
 32
0
 13
5334.271796327457
 23
241834.584
 33
0
  0
SOLID
  8
1
 62
2
 10
5351.071796327457
 20
241835
 30
0
 11
5347.871796327458
 21
241834.584
 31
0
 12
5347.871796327458
 22
241835.416
 32
0
 13
5347.871796327458
 23
241835.416
 33
0
  0
TEXT
  8
1
 62
2
 10
5337.6
 20
241837
 30
0
 40
3.2
  1
20
 41
0.9
  0
ENDBLK
  8
0
  0
BLOCK
  8
1
  2
*D2
 70
1
 10
0
 20
0
 30
0
  0
LINE
  8
1
 62
2
 10
5160
 20
241736.3332622912
 30
0
 11
5160
 21
241812.8332622912
 31
0
  0
LINE
  8
1
 62
2
 10
5241.767814560567
 20
241812.8332622912
 30
0
 11
5158.5
 21
241812.8332622912
 31
0
  0
LINE
  8
1
 62
2
 10
5245.467814560568
 20
241736.3332622912
 30
0
 11
5158.5
 21
241736.3332622912
 31
0
  0
SOLID
  8
1
 62
2
 10
5160
 20
241736.3332622912
 30
0
 11
5159.584
 21
241739.5332622912
 31
0
 12
5160.416
 22
241739.5332622912
 32
0
 13
5160.416
 23
241739.5332622912
 33
0
  0
SOLID
  8
1
 62
2
 10
5160
 20
241812.8332622912
 30
0
 11
5160.416
 21
241809.6332622912
 31
0
 12
5159.584
 22
241809.6332622912
 32
0
 13
5159.584
 23
241809.6332622912
 33
0
  0
TEXT
  8
1
 62
2
 10
5158
 20
241765.56
 30
0
 40
3.2
  1
76.5
 50
90
 41
0.9
  0
ENDBLK
  8
0
  0
BLOCK
  8
1
  2
*D3
 70
1
 10
0
 20
0
 30
0
  0
LINE
  8
1
 62
2
 10
5179.69052037299
 20
241771.5332622911
 30
0
 11
5179.69052037299
 21
241781.5332622911
 31
0
  0
LINE
  8
1
 62
2
 10
5204.270120450338
 20
241781.5332622911
 30
0
 11
5178.19052037299
 21
241781.5332622911
 31
0
  0
LINE
  8
1
 62
2
 10
5204.975346125636
 20
241771.5332622911
 30
0
 11
5178.19052037299
 21
241771.5332622911
 31
0
  0
SOLID
  8
1
 62
2
 10
5179.69052037299
 20
241771.5332622911
 30
0
 11
5179.27452037299
 21
241774.7332622912
 31
0
 12
5180.10652037299
 22
241774.7332622912
 32
0
 13
5180.10652037299
 23
241774.7332622912
 33
0
  0
SOLID
  8
1
 62
2
 10
5179.69052037299
 20
241781.5332622911
 30
0
 11
5180.10652037299
 21
241778.3332622911
 31
0
 12
5179.27452037299
 22
241778.3332622911
 32
0
 13
5179.27452037299
 23
241778.3332622911
 33
0
  0
TEXT
  8
1
 62
2
 10
5177.69052037299
 20
241774.388337026
 30
0
 40
3.2
  1
10
 50
90
 41
0.9
  0
ENDBLK
  8
0
  0
BLOCK
  8
1
  2
*D4
 70
1
 10
0
 20
0
 30
0
  0
LINE
  8
1
 62
2
 10
5170
 20
241747.5332622911
 30
0
 11
5170
 21
241778.5332622911
 31
0
  0
LINE
  8
1
 62
2
 10
5203.943395503847
 20
241778.5332622911
 30
0
 11
5168.5
 21
241778.5332622911
 31
0
  0
LINE
  8
1
 62
2
 10
5209.978800026997
 20
241747.5332622911
 30
0
 11
5168.5
 21
241747.5332622911
 31
0
  0
SOLID
  8
1
 62
2
 10
5170
 20
241778.5332622911
 30
0
 11
5170.416
 21
241775.3332622911
 31
0
 12
5169.584
 22
241775.3332622911
 32
0
 13
5169.584
 23
241775.3332622911
 33
0
  0
SOLID
  8
1
 62
2
 10
5170
 20
241747.5332622911
 30
0
 11
5169.584
 21
241750.7332622912
 31
0
 12
5170.416
 22
241750.7332622912
 32
0
 13
5170.416
 23
241750.7332622912
 33
0
  0
TEXT
  8
1
 62
2
 10
5168
 20
241752.3976470588
 30
0
 40
3.2
  1
31
 50
90
 41
0.9
  0
TEXT
  8
1
 62
2
 10
5168
 20
241757.8376470588
 30
0
 40
3.2
  1
±0.3
 50
90
 41
0.9
  0
ENDBLK
  8
0
  0
BLOCK
  8
1
  2
*D5
 70
1
 10
0
 20
0
 30
0
  0
LINE
  8
1
 62
2
 10
5189.95172587879
 20
241778.5332622911
 30
0
 11
5189.95172587879
 21
241787.399653855
 31
0
  0
LINE
  8
1
 62
2
 10
5189.95172587879
 20
241776.5332622911
 30
0
 11
5189.95172587879
 21
241778.5332622911
 31
0
  0
LINE
  8
1
 62
2
 10
5189.95172587879
 20
241770.1332622911
 30
0
 11
5189.95172587879
 21
241776.5332622911
 31
0
  0
LINE
  8
1
 62
2
 10
5203.943395503847
 20
241778.5332622911
 30
0
 11
5188.45172587879
 21
241778.5332622911
 31
0
  0
LINE
  8
1
 62
2
 10
5203.168529122896
 20
241776.5332622911
 30
0
 11
5188.45172587879
 21
241776.5332622911
 31
0
  0
SOLID
  8
1
 62
2
 10
5189.95172587879
 20
241776.5332622911
 30
0
 11
5190.36772587879
 21
241773.3332622911
 31
0
 12
5189.53572587879
 22
241773.3332622911
 32
0
 13
5189.53572587879
 23
241773.3332622911
 33
0
  0
SOLID
  8
1
 62
2
 10
5189.95172587879
 20
241778.5332622911
 30
0
 11
5189.53572587879
 21
241781.7332622912
 31
0
 12
5190.36772587879
 22
241781.7332622912
 32
0
 13
5190.36772587879
 23
241781.7332622912
 33
0
  0
TEXT
  8
1
 62
2
 10
5187.95172587879
 20
241785.479653855
 30
0
 40
3.2
  1
2
 50
90
 41
0.9
  0
ENDBLK
  8
0
  0
BLOCK
  8
1
  2
*D6
 70
1
 10
0
 20
0
 30
0
  0
LINE
  8
1
 62
2
 10
5305
 20
241778.5332622911
 30
0
 11
5305
 21
241804.5332622915
 31
0
  0
LINE
  8
1
 62
2
 10
5273.861082103637
 20
241804.5332622915
 30
0
 11
5306.5
 21
241804.5332622915
 31
0
  0
LINE
  8
1
 62
2
 10
5278.630860613356
 20
241778.5332622911
 30
0
 11
5306.5
 21
241778.5332622911
 31
0
  0
SOLID
  8
1
 62
2
 10
5305
 20
241778.5332622911
 30
0
 11
5304.584
 21
241781.7332622912
 31
0
 12
5305.416
 22
241781.7332622912
 32
0
 13
5305.416
 23
241781.7332622912
 33
0
  0
SOLID
  8
1
 62
2
 10
5305
 20
241804.5332622915
 30
0
 11
5305.416
 21
241801.3332622915
 31
0
 12
5304.584
 22
241801.3332622915
 32
0
 13
5304.584
 23
241801.3332622915
 33
0
  0
TEXT
  8
1
 62
2
 10
5303
 20
241781.9176470588
 30
0
 40
3.2
  1
26
 50
90
 41
0.9
  0
TEXT
  8
1
 62
2
 10
5303
 20
241788.3176470588
 30
0
 40
3.2
  1
±0.3
 50
90
 41
0.9
  0
ENDBLK
  8
0
  0
BLOCK
  8
1
  2
*D7
 70
1
 10
0
 20
0
 30
0
  0
LINE
  8
1
 62
2
 10
5305
 20
241736.3332622912
 30
0
 11
5305
 21
241778.5332622911
 31
0
  0
LINE
  8
1
 62
2
 10
5278.630860613356
 20
241778.5332622911
 30
0
 11
5306.5
 21
241778.5332622911
 31
0
  0
LINE
  8
1
 62
2
 10
5277.467814560568
 20
241736.3332622912
 30
0
 11
5306.5
 21
241736.3332622912
 31
0
  0
SOLID
  8
1
 62
2
 10
5305
 20
241736.3332622912
 30
0
 11
5304.584
 21
241739.5332622912
 31
0
 12
5305.416
 22
241739.5332622912
 32
0
 13
5305.416
 23
241739.5332622912
 33
0
  0
SOLID
  8
1
 62
2
 10
5305
 20
241778.5332622911
 30
0
 11
5305.416
 21
241775.3332622911
 31
0
 12
5304.584
 22
241775.3332622911
 32
0
 13
5304.584
 23
241775.3332622911
 33
0
  0
TEXT
  8
1
 62
2
 10
5303
 20
241750.56
 30
0
 40
3.2
  1
42.2
 50
90
 41
0.9
  0
ENDBLK
  8
0
  0
BLOCK
  8
1
  2
*D8
 70
1
 10
0
 20
0
 30
0
  0
LINE
  8
1
 62
2
 10
5295
 20
241736.3332622912
 30
0
 11
5295
 21
241761.2332622911
 31
0
  0
LINE
  8
1
 62
2
 10
5277.467814560568
 20
241761.2332622911
 30
0
 11
5296.5
 21
241761.2332622911
 31
0
  0
LINE
  8
1
 62
2
 10
5277.467814560568
 20
241736.3332622912
 30
0
 11
5296.5
 21
241736.3332622912
 31
0
  0
SOLID
  8
1
 62
2
 10
5295
 20
241736.3332622912
 30
0
 11
5294.584
 21
241739.5332622912
 31
0
 12
5295.416
 22
241739.5332622912
 32
0
 13
5295.416
 23
241739.5332622912
 33
0
  0
SOLID
  8
1
 62
2
 10
5295
 20
241761.2332622911
 30
0
 11
5295.416
 21
241758.0332622911
 31
0
 12
5294.584
 22
241758.0332622911
 32
0
 13
5294.584
 23
241758.0332622911
 33
0
  0
TEXT
  8
1
 62
2
 10
5293
 20
241745.56
 30
0
 40
3.2
  1
24.9
 50
90
 41
0.9
  0
ENDBLK
  8
0
  0
BLOCK
  8
1
  2
*D9
 70
1
 10
0
 20
0
 30
0
  0
LINE
  8
1
 62
2
 10
5213.367814560565
 20
241699.981331912
 30
0
 11
5244.367814560565
 21
241699.981331912
 31
0
  0
LINE
  8
1
 62
2
 10
5244.367814560565
 20
241732.5563770504
 30
0
 11
5244.367814560565
 21
241698.481331912
 31
0
  0
LINE
  8
1
 62
2
 10
5213.367814560565
 20
241744.0730333804
 30
0
 11
5213.367814560565
 21
241698.481331912
 31
0
  0
SOLID
  8
1
 62
2
 10
5244.367814560565
 20
241699.981331912
 30
0
 11
5241.167814560566
 21
241699.565331912
 31
0
 12
5241.167814560566
 22
241700.397331912
 32
0
 13
5241.167814560566
 23
241700.397331912
 33
0
  0
SOLID
  8
1
 62
2
 10
5213.367814560565
 20
241699.981331912
 30
0
 11
5216.567814560565
 21
241700.397331912
 31
0
 12
5216.567814560565
 22
241699.565331912
 32
0
 13
5216.567814560565
 23
241699.565331912
 33
0
  0
TEXT
  8
1
 62
2
 10
5220.452375863823
 20
241701.981331912
 30
0
 40
3.2
  1
31
 41
0.9
  0
TEXT
  8
1
 62
2
 10
5225.892375863824
 20
241701.981331912
 30
0
 40
3.2
  1
±0.3
 41
0.9
  0
ENDBLK
  8
0
  0
BLOCK
  8
1
  2
*D10
 70
1
 10
0
 20
0
 30
0
  0
LINE
  8
1
 62
2
 10
5259.467814560568
 20
241721.098687075
 30
0
 11
5276.467814560568
 21
241721.098687075
 31
0
  0
LINE
  8
1
 62
2
 10
5276.467814560568
 20
241735.3332622912
 30
0
 11
5276.467814560568
 21
241719.598687075
 31
0
  0
LINE
  8
1
 62
2
 10
5259.467814560568
 20
241733.3106400037
 30
0
 11
5259.467814560568
 21
241719.598687075
 31
0
  0
SOLID
  8
1
 62
2
 10
5259.467814560568
 20
241721.098687075
 30
0
 11
5262.667814560567
 21
241721.514687075
 31
0
 12
5262.667814560567
 22
241720.682687075
 32
0
 13
5262.667814560567
 23
241720.682687075
 33
0
  0
SOLID
  8
1
 62
2
 10
5276.467814560568
 20
241721.098687075
 30
0
 11
5273.267814560568
 21
241720.682687075
 31
0
 12
5273.267814560568
 22
241721.514687075
 32
0
 13
5273.267814560568
 23
241721.514687075
 33
0
  0
TEXT
  8
1
 62
2
 10
5266.70564751183
 20
241723.098687075
 30
0
 40
3.2
  1
17
 41
0.9
  0
ENDBLK
  8
0
  0
BLOCK
  8
1
  2
*D11
 70
1
 10
0
 20
0
 30
0
  0
LINE
  8
1
 62
2
 10
5254.467814560568
 20
241710
 30
0
 11
5264.467814560568
 21
241710
 31
0
  0
LINE
  8
1
 62
2
 10
5264.467814560568
 20
241734.0332622911
 30
0
 11
5264.467814560568
 21
241708.5
 31
0
  0
LINE
  8
1
 62
2
 10
5254.467814560568
 20
241734.0332622911
 30
0
 11
5254.467814560568
 21
241708.5
 31
0
  0
SOLID
  8
1
 62
2
 10
5254.467814560568
 20
241710
 30
0
 11
5257.667814560567
 21
241710.416
 31
0
 12
5257.667814560567
 22
241709.584
 32
0
 13
5257.667814560567
 23
241709.584
 33
0
  0
SOLID
  8
1
 62
2
 10
5264.467814560568
 20
241710
 30
0
 11
5261.267814560568
 21
241709.584
 31
0
 12
5261.267814560568
 22
241710.416
 32
0
 13
5261.267814560568
 23
241710.416
 33
0
  0
TEXT
  8
1
 62
2
 10
5258.08
 20
241712
 30
0
 40
3.2
  1
10
 41
0.9
  0
ENDBLK
  8
0
  0
BLOCK
  8
1
  2
*D12
 70
1
 10
0
 20
0
 30
0
  0
LINE
  8
1
 62
2
 10
5244.367814560565
 20
241700
 30
0
 11
5276.467814560568
 21
241700
 31
0
  0
LINE
  8
1
 62
2
 10
5276.467814560568
 20
241735.3332622912
 30
0
 11
5276.467814560568
 21
241698.5
 31
0
  0
LINE
  8
1
 62
2
 10
5244.367814560565
 20
241732.5563770504
 30
0
 11
5244.367814560565
 21
241698.5
 31
0
  0
SOLID
  8
1
 62
2
 10
5244.367814560565
 20
241700
 30
0
 11
5247.567814560565
 21
241700.416
 31
0
 12
5247.567814560565
 22
241699.584
 32
0
 13
5247.567814560565
 23
241699.584
 33
0
  0
SOLID
  8
1
 62
2
 10
5276.467814560568
 20
241700
 30
0
 11
5273.267814560568
 21
241699.584
 31
0
 12
5273.267814560568
 22
241700.416
 32
0
 13
5273.267814560568
 23
241700.416
 33
0
  0
TEXT
  8
1
 62
2
 10
5256.04
 20
241702
 30
0
 40
3.2
  1
32.1
 41
0.9
  0
ENDBLK
  8
0
  0
BLOCK
  8
1
  2
*D13
 70
1
 10
0
 20
0
 30
0
  0
LINE
  8
1
 62
2
 10
5242.767814560567
 20
241825
 30
0
 11
5227.48
 21
241825
 31
0
  0
LINE
  8
1
 62
2
 10
5242.767814560567
 20
241825
 30
0
 11
5244.367814560565
 21
241825
 31
0
  0
LINE
  8
1
 62
2
 10
5250.767814560565
 20
241825
 30
0
 11
5244.367814560565
 21
241825
 31
0
  0
LINE
  8
1
 62
2
 10
5244.367814560565
 20
241815.3014820988
 30
0
 11
5244.367814560565
 21
241826.5
 31
0
  0
LINE
  8
1
 62
2
 10
5242.767814560567
 20
241815.853233792
 30
0
 11
5242.767814560567
 21
241826.5
 31
0
  0
SOLID
  8
1
 62
2
 10
5242.767814560567
 20
241825
 30
0
 11
5239.567814560567
 21
241824.584
 31
0
 12
5239.567814560567
 22
241825.416
 32
0
 13
5239.567814560567
 23
241825.416
 33
0
  0
SOLID
  8
1
 62
2
 10
5244.367814560565
 20
241825
 30
0
 11
5247.567814560565
 21
241825.416
 31
0
 12
5247.567814560565
 22
241824.584
 32
0
 13
5247.567814560565
 23
241824.584
 33
0
  0
TEXT
  8
1
 62
2
 10
5227.48
 20
241827
 30
0
 40
3.2
  1
1.6
 41
0.9
  0
ENDBLK
  8
0
  0
BLOCK
  8
1
  2
*D14
 70
1
 10
0
 20
0
 30
0
  0
LINE
  8
1
 62
2
 10
5237.767814560567
 20
241835.031135871
 30
0
 11
5231.13762775954
 21
241835.031135871
 31
0
  0
LINE
  8
1
 62
2
 10
5237.767814560567
 20
241835.031135871
 30
0
 11
5247.767814560567
 21
241835.031135871
 31
0
  0
LINE
  8
1
 62
2
 10
5247.767814560567
 20
241814.7668739467
 30
0
 11
5247.767814560567
 21
241836.531135871
 31
0
  0
LINE
  8
1
 62
2
 10
5237.767814560567
 20
241814.803439865
 30
0
 11
5237.767814560567
 21
241836.531135871
 31
0
  0
SOLID
  8
1
 62
2
 10
5237.767814560567
 20
241835.031135871
 30
0
 11
5240.967814560567
 21
241835.447135871
 31
0
 12
5240.967814560567
 22
241834.615135871
 32
0
 13
5240.967814560567
 23
241834.615135871
 33
0
  0
SOLID
  8
1
 62
2
 10
5247.767814560567
 20
241835.031135871
 30
0
 11
5244.567814560567
 21
241834.615135871
 31
0
 12
5244.567814560567
 22
241835.447135871
 32
0
 13
5244.567814560567
 23
241835.447135871
 33
0
  0
TEXT
  8
1
 62
2
 10
5231.13762775954
 20
241837.031135871
 30
0
 40
3.2
  1
10
 41
0.9
  0
ENDBLK
  8
0
  0
BLOCK
  8
1
  2
*D15
 70
1
 10
0
 20
0
 30
0
  0
LINE
  8
1
 62
2
 10
5244.367814560565
 20
241845.055412867
 30
0
 11
5270.367814560576
 21
241845.055412867
 31
0
  0
LINE
  8
1
 62
2
 10
5270.367814560576
 20
241807.9815960651
 30
0
 11
5270.367814560576
 21
241846.555412867
 31
0
  0
LINE
  8
1
 62
2
 10
5244.367814560565
 20
241815.3014820988
 30
0
 11
5244.367814560565
 21
241846.555412867
 31
0
  0
SOLID
  8
1
 62
2
 10
5270.367814560576
 20
241845.055412867
 30
0
 11
5267.167814560577
 21
241844.639412867
 31
0
 12
5267.167814560577
 22
241845.471412867
 32
0
 13
5267.167814560577
 23
241845.471412867
 33
0
  0
SOLID
  8
1
 62
2
 10
5244.367814560565
 20
241845.055412867
 30
0
 11
5247.567814560565
 21
241845.471412867
 31
0
 12
5247.567814560565
 22
241844.639412867
 32
0
 13
5247.567814560565
 23
241844.639412867
 33
0
  0
TEXT
  8
1
 62
2
 10
5250.821001047314
 20
241847.055412867
 30
0
 40
3.2
  1
26
 41
0.9
  0
TEXT
  8
1
 62
2
 10
5257.221001047314
 20
241847.055412867
 30
0
 40
3.2
  1
±0.3
 41
0.9
  0
ENDBLK
  8
0
  0
BLOCK
  8
1
  2
*D16
 70
1
 10
0
 20
0
 30
0
  0
LINE
  8
1
 62
2
 10
5206.267814560607
 20
241855
 30
0
 11
5276.467814560568
 21
241855
 31
0
  0
LINE
  8
1
 62
2
 10
5276.467814560568
 20
241762.2332622911
 30
0
 11
5276.467814560568
 21
241856.5
 31
0
  0
LINE
  8
1
 62
2
 10
5206.267814560607
 20
241780.3440118847
 30
0
 11
5206.267814560607
 21
241856.5
 31
0
  0
SOLID
  8
1
 62
2
 10
5276.467814560568
 20
241855
 30
0
 11
5273.267814560568
 21
241854.584
 31
0
 12
5273.267814560568
 22
241855.416
 32
0
 13
5273.267814560568
 23
241855.416
 33
0
  0
SOLID
  8
1
 62
2
 10
5206.267814560607
 20
241855
 30
0
 11
5209.467814560607
 21
241855.416
 31
0
 12
5209.467814560607
 22
241854.584
 32
0
 13
5209.467814560607
 23
241854.584
 33
0
  0
TEXT
  8
1
 62
2
 10
5235.56
 20
241857
 30
0
 40
3.2
  1
70.2
 41
0.9
  0
ENDBLK
  8
0
  0
BLOCK
  8
1
  2
*D17
 70
1
 10
0
 20
0
 30
0
  0
LINE
  8
1
 62
2
 10
5272.861082103637
 20
241804.5332622915
 30
0
 11
5267.916913338416
 21
241804.5332622915
 31
0
  0
LINE
  8
1
 62
2
 10
5270.367814560576
 20
241806.9815960651
 30
0
 11
5270.367814560576
 21
241802.0178075825
 31
0
  0
LINE
  8
1
 62
2
 10
5279.572468577264
 20
241822.360296486
 30
0
 11
5311.417174459616
 21
241822.360296486
 31
0
  0
LINE
  8
1
 62
2
 10
5271.400080281615
 20
241806.5324940142
 30
0
 11
5279.572468577264
 21
241822.360296486
 31
0
  0
SOLID
  8
1
 62
2
 10
5271.400080281615
 20
241806.5324940142
 30
0
 11
5272.498555797469
 21
241809.5667002599
 31
0
 12
5273.237827261162
 22
241809.1849913355
 32
0
 13
5273.237827261162
 23
241809.1849913355
 33
0
  0
TEXT
  8
1
 62
2
 10
5294.052468577263
 20
241824.360296486
 30
0
 40
3.2
  1
4.5
 41
0.9
  0
TEXT
  8
1
 62
2
 10
5284.772468577264
 20
241824.360296486
 30
0
 40
3.2
  1
2-%%c
 41
0.9
  0
TEXT
  8
1
 62
2
 10
5301.652468577264
 20
241824.360296486
 30
0
 40
3.2
  1
±0.3
 41
0.9
  0
ENDBLK
  8
0
  0
BLOCK
  8
1
  2
*D18
 70
1
 10
0
 20
0
 30
0
  0
LINE
  8
1
 62
2
 10
5277.630860613356
 20
241778.5332622911
 30
0
 11
5204.943395503847
 21
241778.5332622911
 31
0
  0
LINE
  8
1
 62
2
 10
5244.367814560565
 20
241733.5563770504
 30
0
 11
5244.367814560565
 21
241814.3014820988
 31
0
  0
LINE
  8
1
 62
2
 10
5189.52
 20
241830
 30
0
 11
5175.68
 21
241830
 31
0
  0
LINE
  8
1
 62
2
 10
5260.410784844995
 20
241763.4792560319
 30
0
 11
5189.52
 21
241830
 31
0
  0
SOLID
  8
1
 62
2
 10
5228.324844276136
 20
241793.5872685504
 30
0
 11
5230.943024799501
 21
241791.7009528962
 31
0
 12
5230.373709653698
 22
241791.0942369291
 32
0
 13
5230.373709653698
 23
241791.0942369291
 33
0
  0
SOLID
  8
1
 62
2
 10
5260.410784844995
 20
241763.4792560319
 30
0
 11
5257.79260432163
 21
241765.3655716861
 31
0
 12
5258.361919467433
 22
241765.9722876532
 32
0
 13
5258.361919467433
 23
241765.9722876532
 33
0
  0
TEXT
  8
1
 62
2
 10
5179.52
 20
241832
 30
0
 40
3.2
  1
44
 41
0.9
  0
TEXT
  8
1
 62
2
 10
5175.68
 20
241832
 30
0
 40
3.2
  1
%%c
 41
0.9
  0
ENDBLK
  8
0
  0
ENDSEC
  0
SECTION
  2
ENTITIES
  0
INSERT
  8
1
  2
*X0
 10
0
 20
0
 30
0
  0
INSERT
  8
1
  2
*X1
 10
0
 20
0
 30
0
  0
INSERT
  8
1
  2
*X2
 10
0
 20
0
 30
0
  0
INSERT
  8
1
  2
*X3
 10
0
 20
0
 30
0
  0
INSERT
  8
1
  2
*X4
 10
0
 20
0
 30
0
  0
INSERT
  8
1
  2
*X5
 10
0
 20
0
 30
0
  0
INSERT
  8
1
  2
*X6
 10
0
 20
0
 30
0
  0
INSERT
  8
1
  2
*X7
 10
0
 20
0
 30
0
  0
INSERT
  8
1
  2
*X8
 10
0
 20
0
 30
0
  0
LINE
  8
CONSTRUCTION
 62
1
  6
DOT
 10
5154.799999999999
 20
241771.5332622911
 30
0
 11
5500.783035890577
 21
241771.5332622911
 31
0
  0
LINE
  8
1
 62
2
  6
CENTER
 10
5259.467814560568
 20
241734.3106400037
 30
0
 11
5259.467814560568
 21
241736.9655746463
 31
0
  0
LINE
  8
1
 62
2
  6
CENTER
 10
5204.168529122896
 20
241776.5332622911
 30
0
 11
5206.989242108087
 21
241776.5332622911
 31
0
  0
LINE
  8
1
 62
2
  6
CENTER
 10
5242.767814560567
 20
241814.853233792
 30
0
 11
5242.767814560567
 21
241812.1366676845
 31
0
  0
LINE
  8
1
 62
2
  6
CENTER
 10
5462.018002843516
 20
241744.6082622911
 30
0
 11
5462.018002843516
 21
241750.4582622912
 31
0
  0
LINE
  8
1
 62
2
  6
CENTER
 10
5464.943002843515
 20
241747.5332622911
 30
0
 11
5459.093002843517
 21
241747.5332622911
 31
0
  0
LINE
  8
1
 62
2
  6
CENTER
 10
5405.018002843516
 20
241801.6082622911
 30
0
 11
5405.018002843516
 21
241807.4582622912
 31
0
  0
LINE
  8
1
 62
2
  6
CENTER
 10
5407.943002843526
 20
241804.5332622915
 30
0
 11
5402.093002843517
 21
241804.5332622915
 31
0
  0
LINE
  8
1
 62
2
  6
CENTER
 10
5213.367814560565
 20
241749.9614931158
 30
0
 11
5213.367814560565
 21
241745.0730333804
 31
0
  0
LINE
  8
1
 62
2
  6
CENTER
 10
5215.799731066286
 20
241747.5332622911
 30
0
 11
5210.978800026997
 21
241747.5332622911
 31
0
  0
LINE
  8
1
 62
3
 10
5400.475682094318
 20
241794.4348285899
 30
0
 11
5412.127922909748
 21
241787.7074042182
 31
0
  0
LINE
  8
1
 62
3
 10
5378.214929340141
 20
241808.2108406162
 30
0
 11
5377.914929340138
 21
241807.6912253737
 31
0
  0
LINE
  8
1
 62
3
 10
5382.245056358998
 20
241805.1912253737
 30
0
 11
5377.914929340138
 21
241807.6912253737
 31
0
  0
LINE
  8
1
 62
3
 10
5378.214929340141
 20
241808.2108406162
 30
0
 11
5382.545056358998
 21
241805.7108406162
 31
0
  0
LINE
  8
1
 62
3
 10
5382.145056359105
 20
241805.0180202932
 30
0
 11
5393.951812832495
 21
241798.2013862647
 31
0
  0
LINE
  8
1
 62
3
 10
5399.427420023289
 20
241795.040042979
 30
0
 11
5394.918986709682
 21
241797.6429881663
 31
0
  0
LINE
  8
1
 62
2
 10
5400.445114674322
 20
241789.6394858181
 30
0
 11
5402.279200859491
 21
241792.8162162762
 31
0
  0
LINE
  8
1
 62
2
 10
5375.730843154942
 20
241803.908277133
 30
0
 11
5377.914929340131
 21
241807.6912253737
 31
0
  0
LINE
  8
1
 62
2
 10
5419.119779141211
 20
241846.1665956244
 30
0
 11
5500.783035890577
 21
241846.1665956244
 31
0
  0
LINE
  8
1
 62
3
 10
5383.645056358978
 20
241807.6160965042
 30
0
 11
5395.451812832477
 21
241800.799462476
 31
0
  0
LINE
  8
1
 62
3
 10
5383.145056358927
 20
241806.7500711005
 30
0
 11
5394.951812832477
 21
241799.9334370724
 31
0
  0
LINE
  8
1
 62
3
 10
5394.451812832477
 20
241799.0674116683
 30
0
 11
5382.645056359014
 21
241805.8840456969
 31
0
  0
LINE
  8
1
 62
3
 10
5395.418986709686
 20
241798.5090135702
 30
0
 11
5400.360432725224
 21
241795.6560683829
 31
0
  0
LINE
  8
1
 62
3
 10
5413.081469364183
 20
241789.4662749933
 30
0
 11
5395.918986709686
 21
241799.3750389738
 31
0
  0
LINE
  8
1
 62
3
 10
5396.418986709686
 20
241800.2410643777
 30
0
 11
5400.883918845236
 21
241797.6632346074
 31
0
  0
LINE
  8
1
 62
3
 10
5400.984529152959
 20
241795.2957461423
 30
0
 11
5412.675002283696
 21
241788.5462483334
 31
0
  0
LINE
  8
1
 62
3
 10
5401.92322287644
 20
241797.0631921452
 30
0
 11
5413.602100719071
 21
241790.3203888788
 31
0
  0
LINE
  8
1
 62
3
 10
5382.74505635894
 20
241806.0572507774
 30
0
 11
5378.414929340025
 21
241808.5572507774
 31
0
  0
LINE
  8
1
 62
3
 10
5378.414929340025
 20
241808.5572507774
 30
0
 11
5378.714929340028
 21
241809.0768660198
 31
0
  0
LINE
  8
1
 62
3
 10
5378.714929340028
 20
241809.0768660198
 30
0
 11
5383.045056358968
 21
241806.5768660198
 31
0
  0
LINE
  8
1
 62
3
 10
5383.245056358984
 20
241806.9232761814
 30
0
 11
5378.914929340025
 21
241809.4232761814
 31
0
  0
LINE
  8
1
 62
3
 10
5378.914929340025
 20
241809.4232761814
 30
0
 11
5379.214929340028
 21
241809.9428914237
 31
0
  0
LINE
  8
1
 62
3
 10
5379.214929340028
 20
241809.9428914237
 30
0
 11
5383.545056359008
 21
241807.4428914237
 31
0
  0
LINE
  8
1
 62
2
 10
5447.637051215715
 20
241839.3088450948
 30
0
 11
5476.559850911431
 21
241839.3088450948
 31
0
  0
LINE
  8
1
 62
2
 10
5447.637051215715
 20
241832.6421784282
 30
0
 11
5476.559850911431
 21
241832.6421784282
 31
0
  0
LINE
  8
1
 62
2
 10
5447.637051215715
 20
241825.9755117616
 30
0
 11
5476.559850911431
 21
241825.9755117616
 31
0
  0
LINE
  8
1
 62
3
 10
5383.645056358971
 20
241807.6160965042
 30
0
 11
5382.145056359113
 21
241805.0180202932
 31
0
  0
LINE
  8
1
 62
3
 10
5278.966830694258
 20
241800.2410643779
 30
0
 11
5274.501898558908
 21
241797.6632346069
 31
0
  0
LINE
  8
1
 62
3
 10
5273.462562381846
 20
241797.0631735855
 30
0
 11
5271.557189910297
 21
241795.9631062761
 31
0
  0
LINE
  8
1
 62
2
 10
5206.267814560607
 20
241776.5332622911
 30
0
 11
5206.267814560607
 21
241779.3440118847
 31
0
  0
LINE
  8
1
 62
2
  6
CENTER
 10
5431.018002843516
 20
241817.9870036877
 30
0
 11
5431.018002843516
 21
241732.5206170332
 31
0
  0
LINE
  8
1
 62
2
  6
CENTER
 10
5395.114908999675
 20
241778.5332622911
 30
0
 11
5474.139105705325
 21
241778.5332622911
 31
0
  0
LINE
  8
1
 62
3
 10
5434.618002843518
 20
241813.9794599433
 30
0
 11
5434.618002843518
 21
241812.7785766283
 31
0
  0
LINE
  8
1
 62
3
 10
5430.618002843518
 20
241813.9736856637
 30
0
 11
5430.618002843518
 21
241812.7726004752
 31
0
  0
LINE
  8
1
 62
3
 10
5470.268953752667
 20
241774.5332622915
 30
0
 11
5469.068220775675
 21
241774.5332622915
 31
0
  0
LINE
  8
1
 62
3
 10
5470.268953752667
 20
241778.5332622911
 30
0
 11
5469.068220775675
 21
241778.5332622911
 31
0
  0
LINE
  8
1
 62
3
 10
5415.918002843518
 20
241735.1332622909
 30
0
 11
5418.018002843516
 21
241735.1332622909
 31
0
  0
LINE
  8
1
 62
3
 10
5413.818002843526
 20
241735.1332622909
 30
0
 11
5415.918002843518
 21
241735.1332622909
 31
0
  0
LINE
  8
1
 62
3
 10
5418.018002843516
 20
241735.1332622909
 30
0
 11
5418.018002843516
 21
241736.3332622912
 31
0
  0
LINE
  8
1
 62
3
 10
5413.818002843526
 20
241735.1332622909
 30
0
 11
5413.818002843526
 21
241736.3332622912
 31
0
  0
LINE
  8
1
 62
3
 10
5416.918002843518
 20
241739.3332622912
 30
0
 11
5400.918002843518
 21
241739.3332622912
 31
0
  0
LINE
  8
1
 62
3
 10
5416.918002843518
 20
241745.8332622912
 30
0
 11
5416.918002843518
 21
241739.3332622912
 31
0
  0
LINE
  8
1
 62
3
 10
5400.918002843518
 20
241745.8332622912
 30
0
 11
5416.918002843518
 21
241745.8332622912
 31
0
  0
LINE
  8
1
 62
3
 10
5400.918002843518
 20
241739.3332622912
 30
0
 11
5400.918002843518
 21
241745.8332622912
 31
0
  0
LINE
  8
1
 62
3
 10
5419.950915596418
 20
241758.1645048875
 30
0
 11
5426.557035289147
 21
241756.8080320109
 31
0
  0
LINE
  8
1
 62
3
 10
5418.855735925786
 20
241756.2675980543
 30
0
 11
5426.139060078406
 21
241754.7720940727
 31
0
  0
LINE
  8
1
 62
3
 10
5404.679912426588
 20
241761.3001885503
 30
0
 11
5418.712133419546
 21
241758.4188712178
 31
0
  0
LINE
  8
1
 62
3
 10
5400.516397734998
 20
241760.0332622911
 30
0
 11
5417.616951710867
 21
241756.5219608547
 31
0
  0
LINE
  8
1
 62
3
 10
5442.523859481275
 20
241759.80453401
 30
0
 11
5443.662357233606
 21
241757.8325980587
 31
0
  0
LINE
  8
1
 62
3
 10
5442.623126749058
 20
241757.2325980587
 30
0
 11
5441.484628996738
 21
241759.2045340099
 31
0
  0
LINE
  8
1
 62
3
 10
5431.618002843518
 20
241756.5607795004
 30
0
 11
5431.618002843518
 21
241754.2837839956
 31
0
  0
LINE
  8
1
 62
3
 10
5430.418002843518
 20
241754.2837839956
 30
0
 11
5430.418002843518
 21
241755.3715566275
 31
0
  0
LINE
  8
1
 62
3
 10
5459.366352414068
 20
241744.8816118618
 30
0
 11
5457.419739752378
 21
241746.8282245235
 31
0
  0
LINE
  8
1
 62
3
 10
5462.245958403676
 20
241752.6086075899
 30
0
 11
5464.669653272968
 21
241750.1849127208
 31
0
  0
LINE
  8
1
 62
3
 10
5404.960549432867
 20
241799.2874148428
 30
0
 11
5402.366352414068
 21
241801.8816118618
 31
0
  0
LINE
  8
1
 62
3
 10
5407.669653272968
 20
241807.1849127208
 30
0
 11
5409.853914270999
 21
241805.0006517227
 31
0
  0
LINE
  8
1
 62
3
 10
5404.076320184758
 20
241796.3974511036
 30
0
 11
5413.479192202059
 21
241790.9687004132
 31
0
  0
LINE
  8
1
 62
3
 10
5398.918002843518
 20
241736.3332622912
 30
0
 11
5428.918002843518
 21
241736.3332622912
 31
0
  0
LINE
  8
1
 62
3
 10
5398.918002843518
 20
241761.2332622911
 30
0
 11
5402.129770094768
 21
241761.2332622911
 31
0
  0
LINE
  8
1
 62
3
 10
5399.427420023206
 20
241795.040042979
 30
0
 11
5399.677420023206
 21
241795.4730556808
 31
0
  0
LINE
  8
1
 62
3
 10
5400.480934359445
 20
241794.4437127505
 30
0
 11
5400.993468475356
 21
241795.290585022
 31
0
  0
LINE
  8
1
 62
3
 10
5404.858781863567
 20
241797.67774745
 30
0
 11
5403.616095081327
 21
241798.3952129982
 31
0
  0
LINE
  8
1
 62
3
 10
5404.076320184758
 20
241796.3974511036
 30
0
 11
5402.606267724065
 21
241797.2461862873
 31
0
  0
LINE
  8
1
 62
3
 10
5401.446011326406
 20
241796.1840098233
 30
0
 11
5400.825114887898
 21
241796.5424845491
 31
0
  0
LINE
  8
1
 62
3
 10
5402.279200859487
 20
241792.8162162763
 30
0
 11
5400.658694796187
 21
241793.7518158878
 31
0
  0
LINE
  8
1
 62
3
 10
5400.993468475356
 20
241795.290585022
 30
0
 11
5400.360432725097
 21
241795.6560683826
 31
0
  0
LINE
  8
1
 62
3
 10
5400.159470830778
 20
241792.3079921712
 30
0
 11
5401.715190056169
 21
241791.4097972577
 31
0
  0
LINE
  8
1
 62
3
 10
5450.346731124729
 20
241768.066636138
 30
0
 11
5450.951251274298
 21
241767.717616267
 31
0
  0
LINE
  8
1
 62
3
 10
5451.718667076048
 20
241765.8889079012
 30
0
 11
5450.351251274296
 21
241766.6783857824
 31
0
  0
LINE
  8
1
 62
3
 10
5452.990485634497
 20
241779.1332622909
 30
0
 11
5453.688525376666
 21
241779.1332622909
 31
0
  0
LINE
  8
1
 62
3
 10
5455.267481139147
 20
241777.9332622913
 30
0
 11
5453.688525376666
 21
241777.9332622913
 31
0
  0
LINE
  8
1
 62
3
 10
5449.746731124727
 20
241790.039118929
 30
0
 11
5450.351251274296
 21
241790.3881388001
 31
0
  0
LINE
  8
1
 62
3
 10
5452.318667076058
 20
241790.1383861968
 30
0
 11
5450.951251274298
 21
241789.3489083157
 31
0
  0
LINE
  8
1
 62
3
 10
5441.484628996727
 20
241797.8619905725
 30
0
 11
5441.833648867817
 21
241798.466510722
 31
0
  0
LINE
  8
1
 62
3
 10
5443.662357233606
 20
241799.2339265239
 30
0
 11
5442.872879352369
 21
241797.8665107222
 31
0
  0
LINE
  8
1
 62
3
 10
5430.418002843518
 20
241800.5057450821
 30
0
 11
5430.418002843518
 21
241801.2037848244
 31
0
  0
LINE
  8
1
 62
3
 10
5431.618002843518
 20
241802.7827405866
 30
0
 11
5431.618002843518
 21
241801.2037848244
 31
0
  0
LINE
  8
1
 62
3
 10
5419.512146205746
 20
241797.2619905726
 30
0
 11
5419.163126334667
 21
241797.8665107222
 31
0
  0
LINE
  8
1
 62
3
 10
5419.412878937978
 20
241799.8339265235
 30
0
 11
5420.202356819215
 21
241798.466510722
 31
0
  0
LINE
  8
1
 62
3
 10
5450.951251274298
 20
241767.717616267
 30
0
 11
5452.318667076058
 21
241766.9281383858
 31
0
  0
LINE
  8
1
 62
3
 10
5450.351251274296
 20
241766.6783857824
 30
0
 11
5449.746731124727
 21
241767.0274056532
 31
0
  0
LINE
  8
1
 62
3
 10
5453.688525376666
 20
241779.1332622909
 30
0
 11
5455.267481139147
 21
241779.1332622909
 31
0
  0
LINE
  8
1
 62
3
 10
5453.688525376666
 20
241777.9332622913
 30
0
 11
5452.990485634497
 21
241777.9332622913
 31
0
  0
LINE
  8
1
 62
3
 10
5450.351251274296
 20
241790.3881388001
 30
0
 11
5451.718667076056
 21
241791.1776166814
 31
0
  0
LINE
  8
1
 62
3
 10
5450.951251274298
 20
241789.3489083157
 30
0
 11
5450.346731124729
 21
241788.9998884446
 31
0
  0
LINE
  8
1
 62
3
 10
5441.833648867817
 20
241798.466510722
 30
0
 11
5442.623126749058
 21
241799.8339265239
 31
0
  0
LINE
  8
1
 62
3
 10
5442.872879352369
 20
241797.8665107222
 30
0
 11
5442.523859481275
 21
241797.2619905726
 31
0
  0
LINE
  8
1
 62
3
 10
5431.618002843518
 20
241801.2037848244
 30
0
 11
5431.618002843518
 21
241800.5057450821
 31
0
  0
LINE
  8
1
 62
3
 10
5430.418002843518
 20
241801.2037848244
 30
0
 11
5430.418002843518
 21
241802.7827405866
 31
0
  0
LINE
  8
1
 62
3
 10
5419.163126334667
 20
241797.8665107222
 30
0
 11
5418.373648453427
 21
241799.2339265239
 31
0
  0
LINE
  8
1
 62
3
 10
5420.202356819215
 20
241798.466510722
 30
0
 11
5420.551376690298
 21
241797.8619905725
 31
0
  0
LINE
  8
1
 62
3
 10
5413.836828758808
 20
241792.1478594967
 30
0
 11
5413.174380651536
 21
241792.53032409
 31
0
  0
LINE
  8
1
 62
3
 10
5413.174380651536
 20
241792.53032409
 30
0
 11
5411.794508943417
 21
241793.3269933919
 31
0
  0
LINE
  8
1
 62
3
 10
5413.479192202059
 20
241790.9687004132
 30
0
 11
5413.740147389445
 21
241790.8180378655
 31
0
  0
LINE
  8
1
 62
3
 10
5402.279200859487
 20
241792.8162162763
 30
0
 11
5411.914135853286
 21
241787.253483964
 31
0
  0
LINE
  8
1
 62
3
 10
5403.389940502056
 20
241790.7892897984
 30
0
 11
5410.636828758808
 21
241786.6052969127
 31
0
  0
LINE
  8
1
 62
3
 10
5409.045520052538
 20
241779.1332622909
 30
0
 11
5401.318641827677
 21
241779.1332622909
 31
0
  0
LINE
  8
1
 62
3
 10
5401.396863898269
 20
241777.9332622913
 30
0
 11
5408.347480310366
 21
241777.9332622913
 31
0
  0
LINE
  8
1
 62
3
 10
5408.347480310366
 20
241777.9332622913
 30
0
 11
5409.045520052538
 21
241777.9332622913
 31
0
  0
LINE
  8
1
 62
3
 10
5411.689274562307
 20
241768.066636138
 30
0
 11
5405.633173621935
 21
241764.5701446298
 31
0
  0
LINE
  8
1
 62
3
 10
5405.540878289007
 20
241763.1312172485
 30
0
 11
5412.289274562306
 21
241767.0274056532
 31
0
  0
LINE
  8
1
 62
3
 10
5418.855735925786
 20
241756.2675980543
 30
0
 11
5420.551376690298
 21
241759.2045340099
 31
0
  0
LINE
  8
1
 62
3
 10
5419.512146205757
 20
241759.80453401
 30
0
 11
5417.616951710867
 21
241756.5219608547
 31
0
  0
LINE
  8
1
 62
3
 10
5430.418002843518
 20
241755.3715566275
 30
0
 11
5430.418002843518
 21
241756.5607795004
 31
0
  0
LINE
  8
1
 62
3
 10
5398.918002843518
 20
241736.3332622912
 30
0
 11
5398.918002843518
 21
241761.2332622911
 31
0
  0
LINE
  8
1
 62
3
 10
5400.118002843518
 20
241760.0332622911
 30
0
 11
5402.129770094768
 21
241760.0332622911
 31
0
  0
LINE
  8
1
 62
3
 10
5334.971796327477
 20
241758.6485363643
 30
0
 11
5334.971796327477
 21
241759.6486886923
 31
0
  0
LINE
  8
1
 62
3
 10
5334.971796327477
 20
241757.0482926396
 30
0
 11
5334.971796327477
 21
241758.0484449673
 31
0
  0
LINE
  8
1
 62
3
 10
5334.971796327477
 20
241755.4480489146
 30
0
 11
5334.971796327477
 21
241756.4482012427
 31
0
  0
LINE
  8
1
 62
3
 10
5334.971796327477
 20
241753.8478051896
 30
0
 11
5334.971796327477
 21
241754.847957518
 31
0
  0
LINE
  8
1
 62
3
 10
5334.971796327477
 20
241752.2475614646
 30
0
 11
5334.971796327477
 21
241753.247713793
 31
0
  0
LINE
  8
1
 62
3
 10
5334.971796327477
 20
241750.64731774
 30
0
 11
5334.971796327477
 21
241751.647470068
 31
0
  0
LINE
  8
1
 62
3
 10
5347.371796327457
 20
241759.8651314972
 30
0
 11
5347.371796327457
 21
241758.8649791695
 31
0
  0
LINE
  8
1
 62
3
 10
5347.371796327457
 20
241759.8651314972
 30
0
 11
5334.971796327477
 21
241759.6486886923
 31
0
  0
LINE
  8
1
 62
3
 10
5347.371796327457
 20
241758.8649791695
 30
0
 11
5347.371796327457
 21
241758.2648877726
 31
0
  0
LINE
  8
1
 62
3
 10
5334.971796327477
 20
241758.6485363643
 30
0
 11
5347.371796327457
 21
241758.8649791695
 31
0
  0
LINE
  8
1
 62
3
 10
5347.371796327457
 20
241758.2648877726
 30
0
 11
5347.371796327457
 21
241757.2647354445
 31
0
  0
LINE
  8
1
 62
3
 10
5347.371796327457
 20
241758.2648877726
 30
0
 11
5334.971796327477
 21
241758.0484449673
 31
0
  0
LINE
  8
1
 62
3
 10
5347.371796327457
 20
241757.2647354445
 30
0
 11
5347.371796327457
 21
241756.6646440479
 31
0
  0
LINE
  8
1
 62
3
 10
5347.371796327457
 20
241757.2647354445
 30
0
 11
5334.971796327477
 21
241757.0482926396
 31
0
  0
LINE
  8
1
 62
3
 10
5347.371796327457
 20
241756.6646440479
 30
0
 11
5347.371796327457
 21
241755.6644917195
 31
0
  0
LINE
  8
1
 62
3
 10
5334.971796327477
 20
241756.4482012427
 30
0
 11
5347.371796327457
 21
241756.6646440479
 31
0
  0
LINE
  8
1
 62
3
 10
5347.371796327457
 20
241755.6644917195
 30
0
 11
5347.371796327457
 21
241755.0644003229
 31
0
  0
LINE
  8
1
 62
3
 10
5347.371796327457
 20
241755.6644917195
 30
0
 11
5334.971796327477
 21
241755.4480489146
 31
0
  0
LINE
  8
1
 62
3
 10
5347.371796327457
 20
241755.0644003229
 30
0
 11
5347.371796327457
 21
241754.0642479949
 31
0
  0
LINE
  8
1
 62
3
 10
5334.971796327477
 20
241754.847957518
 30
0
 11
5347.371796327457
 21
241755.0644003229
 31
0
  0
LINE
  8
1
 62
3
 10
5347.371796327457
 20
241761.2332622911
 30
0
 11
5347.371796327457
 21
241759.8651314972
 31
0
  0
LINE
  8
1
 62
3
 10
5347.371796327457
 20
241754.0642479949
 30
0
 11
5347.371796327457
 21
241753.4641565979
 31
0
  0
LINE
  8
1
 62
3
 10
5334.971796327477
 20
241753.8478051896
 30
0
 11
5347.371796327457
 21
241754.0642479949
 31
0
  0
LINE
  8
1
 62
3
 10
5347.371796327457
 20
241753.4641565979
 30
0
 11
5347.371796327457
 21
241752.46400427
 31
0
  0
LINE
  8
1
 62
3
 10
5347.371796327457
 20
241753.4641565979
 30
0
 11
5334.971796327477
 21
241753.247713793
 31
0
  0
LINE
  8
1
 62
3
 10
5347.371796327457
 20
241752.46400427
 30
0
 11
5347.371796327457
 21
241751.8639128733
 31
0
  0
LINE
  8
1
 62
3
 10
5334.971796327477
 20
241752.2475614646
 30
0
 11
5347.371796327457
 21
241752.46400427
 31
0
  0
LINE
  8
1
 62
3
 10
5347.371796327457
 20
241751.8639128733
 30
0
 11
5347.371796327457
 21
241750.8637605452
 31
0
  0
LINE
  8
1
 62
3
 10
5347.371796327457
 20
241751.8639128733
 30
0
 11
5334.971796327477
 21
241751.647470068
 31
0
  0
LINE
  8
1
 62
3
 10
5334.971796327477
 20
241750.64731774
 30
0
 11
5347.371796327457
 21
241750.8637605452
 31
0
  0
LINE
  8
1
 62
3
 10
5347.371796327457
 20
241750.8637605452
 30
0
 11
5347.371796327457
 21
241750.2636691482
 31
0
  0
LINE
  8
1
 62
3
 10
5340.471796327455
 20
241760.0332622911
 30
0
 11
5349.871796327457
 21
241760.0332622911
 31
0
  0
LINE
  8
1
 62
3
 10
5340.471796327455
 20
241760.6332622909
 30
0
 11
5340.471796327455
 21
241760.0332622911
 31
0
  0
LINE
  8
1
 62
3
 10
5332.271796327465
 20
241760.0332622911
 30
0
 11
5340.471796327455
 21
241760.0332622911
 31
0
  0
LINE
  8
1
 62
3
 10
5334.171796327489
 20
241756.5332622911
 30
0
 11
5334.171796327489
 21
241760.0332622911
 31
0
  0
LINE
  8
1
 62
3
 10
5334.171796327489
 20
241750.3385445093
 30
0
 11
5334.171796327489
 21
241756.5332622911
 31
0
  0
LINE
  8
1
 62
3
 10
5347.371796327457
 20
241750.2636691482
 30
0
 11
5334.477032049416
 21
241750.0385902004
 31
0
  0
LINE
  8
1
 62
2
  6
CENTER
 10
5328.626091448859
 20
241778.5332622911
 30
0
 11
5353.758461446206
 21
241778.5332622911
 31
0
  0
LINE
  8
1
 62
2
  6
CENTER
 10
5329.743563699048
 20
241804.5332622915
 30
0
 11
5352.46484299934
 21
241804.5332622915
 31
0
  0
LINE
  8
1
 62
3
 10
5332.271796327465
 20
241738.279672453
 30
0
 11
5332.271796327465
 21
241737.5332622911
 31
0
  0
LINE
  8
1
 62
3
 10
5349.871796327457
 20
241740.9500243329
 30
0
 11
5349.871796327457
 21
241737.5332622911
 31
0
  0
LINE
  8
1
 62
3
 10
5342.071796327457
 20
241760.6332622909
 30
0
 11
5340.471796327455
 21
241760.6332622909
 31
0
  0
LINE
  8
1
 62
3
 10
5342.071796327457
 20
241761.2332622911
 30
0
 11
5342.071796327457
 21
241760.6332622909
 31
0
  0
LINE
  8
1
 62
3
 10
5342.071796327457
 20
241812.2332622911
 30
0
 11
5342.071796327457
 21
241761.2332622911
 31
0
  0
LINE
  8
1
 62
3
 10
5348.671796327456
 20
241760.0332622911
 30
0
 11
5348.671796327456
 21
241756.0332622911
 31
0
  0
LINE
  8
1
 62
3
 10
5349.871796327457
 20
241760.0332622911
 30
0
 11
5349.871796327457
 21
241753.9548013223
 31
0
  0
LINE
  8
1
 62
3
 10
5332.271796327465
 20
241754.2938977137
 30
0
 11
5332.271796327465
 21
241760.0332622911
 31
0
  0
LINE
  8
1
 62
3
 10
5331.071796327457
 20
241761.2332622911
 30
0
 11
5351.071796327457
 21
241761.2332622911
 31
0
  0
LINE
  8
1
 62
3
 10
5351.071796327457
 20
241740.8206555437
 30
0
 11
5351.071796327457
 21
241737.8332622912
 31
0
  0
LINE
  8
1
 62
3
 10
5349.871796327457
 20
241740.9500243329
 30
0
 11
5349.871796327457
 21
241753.9548013223
 31
0
  0
LINE
  8
1
 62
3
 10
5340.771796327458
 20
241736.9332622913
 30
0
 11
5340.771796327458
 21
241750.1484657197
 31
0
  0
LINE
  8
1
 62
3
 10
5351.071796327457
 20
241799.7332622911
 30
0
 11
5351.071796327457
 21
241811.3332622912
 31
0
  0
LINE
  8
1
 62
3
 10
5347.871796327457
 20
241812.8332622912
 30
0
 11
5349.571911082639
 21
241812.8332622912
 31
0
  0
LINE
  8
1
 62
3
 10
5351.071796327457
 20
241757.3332622912
 30
0
 11
5351.071796327457
 21
241799.7332622911
 31
0
  0
LINE
  8
1
 62
3
 10
5351.071796327457
 20
241754.276340353
 30
0
 11
5351.071796327457
 21
241740.8206555437
 31
0
  0
LINE
  8
1
 62
3
 10
5349.871796327457
 20
241737.5332622911
 30
0
 11
5340.771796327458
 21
241737.5332622911
 31
0
  0
LINE
  8
1
 62
3
 10
5349.571796327457
 20
241736.3332622912
 30
0
 11
5342.071796327457
 21
241736.3332622912
 31
0
  0
LINE
  8
1
 62
3
 10
5342.071796327457
 20
241736.9332622913
 30
0
 11
5342.071796327457
 21
241736.3332622912
 31
0
  0
LINE
  8
1
 62
3
 10
5340.771796327458
 20
241737.5332622911
 30
0
 11
5340.771796327458
 21
241736.9332622913
 31
0
  0
LINE
  8
1
 62
3
 10
5340.771796327458
 20
241736.9332622913
 30
0
 11
5342.071796327457
 21
241736.9332622913
 31
0
  0
LINE
  8
1
 62
3
 10
5342.071796327457
 20
241812.8332622912
 30
0
 11
5342.071796327457
 21
241812.2332622911
 31
0
  0
LINE
  8
1
 62
3
 10
5344.871796327457
 20
241812.8332622912
 30
0
 11
5347.871796327457
 21
241812.8332622912
 31
0
  0
LINE
  8
1
 62
3
 10
5351.071796327457
 20
241757.0332622915
 30
0
 11
5351.071796327457
 21
241757.3332622912
 31
0
  0
LINE
  8
1
 62
3
 10
5348.671796327456
 20
241756.0332622911
 30
0
 11
5349.871796327457
 21
241753.9548013223
 31
0
  0
LINE
  8
1
 62
3
 10
5351.071796327457
 20
241754.276340353
 30
0
 11
5351.071796327457
 21
241757.0332622915
 31
0
  0
LINE
  8
1
 62
3
 10
5342.071796327457
 20
241812.8332622912
 30
0
 11
5344.871796327457
 21
241812.8332622912
 31
0
  0
LINE
  8
1
 62
3
 10
5343.471796327455
 20
241814.1332622909
 30
0
 11
5343.471796327455
 21
241812.8332622912
 31
0
  0
LINE
  8
1
 62
3
 10
5342.071796327457
 20
241736.9332622913
 30
0
 11
5343.471796327455
 21
241736.9332622913
 31
0
  0
LINE
  8
1
 62
3
 10
5340.471796327455
 20
241736.9332622913
 30
0
 11
5342.071796327457
 21
241736.9332622913
 31
0
  0
LINE
  8
1
 62
3
 10
5342.071796327457
 20
241736.9332622913
 30
0
 11
5342.071796327457
 21
241736.3332622912
 31
0
  0
LINE
  8
1
 62
3
 10
5340.471796327455
 20
241737.5332622911
 30
0
 11
5332.271796327465
 21
241737.5332622911
 31
0
  0
LINE
  8
1
 62
3
 10
5340.471796327455
 20
241737.5332622911
 30
0
 11
5340.471796327455
 21
241736.9332622913
 31
0
  0
LINE
  8
1
 62
3
 10
5331.071796327457
 20
241811.3332622912
 30
0
 11
5331.071796327457
 21
241802.0332622915
 31
0
  0
LINE
  8
1
 62
3
 10
5331.071796327457
 20
241802.0332622915
 30
0
 11
5331.071796327457
 21
241755.0332622911
 31
0
  0
LINE
  8
1
 62
3
 10
5340.471796327455
 20
241737.5332622911
 30
0
 11
5340.471796327455
 21
241750.1432292002
 31
0
  0
LINE
  8
1
 62
3
 10
5339.971796327455
 20
241735.0332622911
 30
0
 11
5339.971796327455
 21
241736.3332622912
 31
0
  0
LINE
  8
1
 62
3
 10
5343.471796327455
 20
241735.0332622911
 30
0
 11
5339.971796327455
 21
241735.0332622911
 31
0
  0
LINE
  8
1
 62
3
 10
5343.471796327455
 20
241736.9332622913
 30
0
 11
5343.471796327455
 21
241735.0332622911
 31
0
  0
LINE
  8
1
 62
3
 10
5342.071796327457
 20
241814.1332622909
 30
0
 11
5343.471796327455
 21
241814.1332622909
 31
0
  0
LINE
  8
1
 62
3
 10
5339.971796327455
 20
241814.1332622909
 30
0
 11
5342.071796327457
 21
241814.1332622909
 31
0
  0
LINE
  8
1
 62
3
 10
5339.971796327455
 20
241812.8332622912
 30
0
 11
5339.971796327455
 21
241814.1332622909
 31
0
  0
LINE
  8
1
 62
3
 10
5342.071796327457
 20
241812.8332622912
 30
0
 11
5332.571796327457
 21
241812.8332622912
 31
0
  0
LINE
  8
1
 62
3
 10
5342.071796327457
 20
241812.2332622911
 30
0
 11
5342.071796327457
 21
241812.8332622912
 31
0
  0
LINE
  8
1
 62
3
 10
5331.071796327457
 20
241755.0332622911
 30
0
 11
5331.071796327457
 21
241737.8332622912
 31
0
  0
LINE
  8
1
 62
3
 10
5342.071796327457
 20
241736.3332622912
 30
0
 11
5332.571796327457
 21
241736.3332622912
 31
0
  0
LINE
  8
1
 62
3
 10
5332.271796327465
 20
241738.279672453
 30
0
 11
5332.271796327465
 21
241755.0332622911
 31
0
  0
LINE
  8
1
 62
3
 10
5258.467814560568
 20
241745.8332622912
 30
0
 11
5274.467814560568
 21
241745.8332622912
 31
0
  0
LINE
  8
1
 62
3
 10
5274.467814560568
 20
241745.8332622912
 30
0
 11
5274.467814560568
 21
241739.3332622912
 31
0
  0
LINE
  8
1
 62
3
 10
5274.467814560568
 20
241739.3332622912
 30
0
 11
5258.467814560568
 21
241739.3332622912
 31
0
  0
LINE
  8
1
 62
3
 10
5258.467814560568
 20
241739.3332622912
 30
0
 11
5258.467814560568
 21
241745.8332622912
 31
0
  0
LINE
  8
1
 62
3
 10
5216.019464990018
 20
241744.8816118618
 30
0
 11
5217.966077651708
 21
241746.8282245235
 31
0
  0
LINE
  8
1
 62
3
 10
5210.716164131117
 20
241750.1849127208
 30
0
 11
5213.139859000406
 21
241752.6086075899
 31
0
  0
LINE
  8
1
 62
3
 10
5273.256047309317
 20
241761.2332622911
 30
0
 11
5276.467814560568
 21
241761.2332622911
 31
0
  0
LINE
  8
1
 62
3
 10
5246.467814560568
 20
241736.3332622912
 30
0
 11
5276.467814560568
 21
241736.3332622912
 31
0
  0
LINE
  8
1
 62
3
 10
5265.531903133097
 20
241805.0006517227
 30
0
 11
5267.716164131117
 21
241807.1849127208
 31
0
  0
LINE
  8
1
 62
3
 10
5273.019464990018
 20
241801.8816118618
 30
0
 11
5270.425267971218
 21
241799.2874148428
 31
0
  0
LINE
  8
1
 62
3
 10
5276.467814560568
 20
241761.2332622911
 30
0
 11
5276.467814560568
 21
241736.3332622912
 31
0
  0
LINE
  8
1
 62
3
 10
5205.773834661816
 20
241781.5332622911
 30
0
 11
5206.579971801147
 21
241781.5332622911
 31
0
  0
LINE
  8
1
 62
3
 10
5259.467814560568
 20
241735.0332622911
 30
0
 11
5254.467814560568
 21
241735.0332622911
 31
0
  0
LINE
  8
1
 62
3
 10
5259.467814560568
 20
241735.0332622911
 30
0
 11
5254.467814560568
 21
241735.0332622911
 31
0
  0
LINE
  8
1
 62
3
 10
5259.467814560568
 20
241735.0332622911
 30
0
 11
5264.467814560568
 21
241735.0332622911
 31
0
  0
LINE
  8
1
 62
3
 10
5264.467814560568
 20
241735.0332622911
 30
0
 11
5264.467814560568
 21
241736.3332622912
 31
0
  0
LINE
  8
1
 62
3
 10
5254.467814560568
 20
241735.0332622911
 30
0
 11
5254.467814560568
 21
241736.3332622912
 31
0
  0
LINE
  8
1
 62
3
 10
5256.967814560568
 20
241735.0332622911
 30
0
 11
5256.967814560568
 21
241736.3332622912
 31
0
  0
LINE
  8
1
 62
3
 10
5261.967814560568
 20
241735.0332622911
 30
0
 11
5261.967814560568
 21
241736.3332622912
 31
0
  0
LINE
  8
1
 62
3
 10
5205.042382973948
 20
241779.0332622911
 30
0
 11
5206.345626185556
 21
241779.0332622911
 31
0
  0
LINE
  8
1
 62
3
 10
5205.046323189256
 20
241774.0332622911
 30
0
 11
5206.345626185556
 21
241774.0332622911
 31
0
  0
LINE
  8
1
 62
3
 10
5205.271181329138
 20
241771.589078093
 30
0
 11
5205.975346125636
 21
241771.5332622911
 31
0
  0
LINE
  8
1
 62
3
 10
5205.270120450338
 20
241781.5332622911
 30
0
 11
5206.579971801147
 21
241781.5332622911
 31
0
  0
LINE
  8
1
 62
3
 10
5247.767814560567
 20
241812.4522751519
 30
0
 11
5247.767814560567
 21
241813.7668739467
 31
0
  0
LINE
  8
1
 62
3
 10
5237.767814560567
 20
241812.490123711
 30
0
 11
5237.767814560567
 21
241813.803439865
 31
0
  0
LINE
  8
1
 62
3
 10
5240.267814560567
 20
241814.0553055044
 30
0
 11
5240.267814560567
 21
241812.747779952
 31
0
  0
LINE
  8
1
 62
3
 10
5245.267814560567
 20
241814.046159663
 30
0
 11
5245.267814560567
 21
241812.7384290588
 31
0
  0
LINE
  8
1
 62
3
 10
5413.740147389445
 20
241790.8180378655
 30
0
 11
5413.914135853286
 21
241790.7175855789
 31
0
  0
LINE
  8
1
 62
3
 10
5273.019464990018
 20
241801.8816118618
 30
0
 11
5270.425267971218
 21
241799.2874148428
 31
0
  0
LINE
  8
1
 62
3
 10
5275.708397380887
 20
241795.4730556808
 30
0
 11
5275.958397380887
 21
241795.040042979
 31
0
  0
LINE
  8
1
 62
3
 10
5274.392348928736
 20
241795.290585022
 30
0
 11
5274.904883044636
 21
241794.4437127505
 31
0
  0
LINE
  8
1
 62
3
 10
5271.769722322758
 20
241798.3952129982
 30
0
 11
5270.527035540526
 21
241797.67774745
 31
0
  0
LINE
  8
1
 62
3
 10
5272.779549680027
 20
241797.2461862873
 30
0
 11
5271.309497219328
 21
241796.3974511036
 31
0
  0
LINE
  8
1
 62
3
 10
5274.560702516187
 20
241796.5424845491
 30
0
 11
5273.939806077676
 21
241796.1840098233
 31
0
  0
LINE
  8
1
 62
3
 10
5274.727122607906
 20
241793.7518158878
 30
0
 11
5273.106616544587
 21
241792.8162162763
 31
0
  0
LINE
  8
1
 62
3
 10
5275.025384678996
 20
241795.6560683826
 30
0
 11
5274.392348928736
 21
241795.290585022
 31
0
  0
LINE
  8
1
 62
3
 10
5273.670627347917
 20
241791.4097972577
 30
0
 11
5275.226346573319
 21
241792.3079921712
 31
0
  0
LINE
  8
1
 62
3
 10
5274.560702516238
 20
241796.5424845491
 30
0
 11
5279.466830694549
 21
241799.3750389738
 31
0
  0
LINE
  8
1
 62
3
 10
5279.966830694516
 20
241798.5090135695
 30
0
 11
5272.482248587067
 21
241794.1877880754
 31
0
  0
LINE
  8
1
 62
3
 10
5275.958397380927
 20
241795.0400429787
 30
0
 11
5280.466830694549
 21
241797.642988166
 31
0
  0
LINE
  8
1
 62
3
 10
5272.032880731876
 20
241795.0830459615
 30
0
 11
5273.954279027078
 21
241796.1923657846
 31
0
  0
LINE
  8
1
 62
3
 10
5272.905152809736
 20
241793.2772514036
 30
0
 11
5274.910227573836
 21
241794.4348818584
 31
0
  0
LINE
  8
1
 62
4
 10
5414.477916842417
 20
241788.3973797449
 30
0
 11
5414.477916842417
 21
241788.312579745
 31
0
  0
LINE
  8
1
 62
4
 10
5414.477916842417
 20
241788.312579745
 30
0
 11
5414.308316842426
 21
241788.312579745
 31
0
  0
LINE
  8
1
 62
4
 10
5414.308316842426
 20
241788.312579745
 30
0
 11
5414.308316842426
 21
241788.227779745
 31
0
  0
LINE
  8
1
 62
4
 10
5414.308316842426
 20
241788.227779745
 30
0
 11
5414.138716842418
 21
241788.227779745
 31
0
  0
LINE
  8
1
 62
4
 10
5414.138716842418
 20
241788.227779745
 30
0
 11
5414.138716842418
 21
241788.1429797449
 31
0
  0
LINE
  8
1
 62
4
 10
5414.138716842418
 20
241788.1429797449
 30
0
 11
5414.053916842418
 21
241788.1429797449
 31
0
  0
LINE
  8
1
 62
4
 10
5414.053916842418
 20
241788.1429797449
 30
0
 11
5414.053916842418
 21
241788.0581797448
 31
0
  0
LINE
  8
1
 62
4
 10
5414.053916842418
 20
241788.0581797448
 30
0
 11
5413.969116842428
 21
241788.0581797448
 31
0
  0
LINE
  8
1
 62
4
 10
5413.969116842428
 20
241788.0581797448
 30
0
 11
5413.969116842428
 21
241787.8885797449
 31
0
  0
LINE
  8
1
 62
4
 10
5413.969116842428
 20
241787.8885797449
 30
0
 11
5413.884316842416
 21
241787.8885797449
 31
0
  0
LINE
  8
1
 62
4
 10
5413.884316842416
 20
241787.8885797449
 30
0
 11
5413.884316842416
 21
241787.7189797451
 31
0
  0
LINE
  8
1
 62
4
 10
5413.884316842416
 20
241787.7189797451
 30
0
 11
5413.799516842416
 21
241787.7189797451
 31
0
  0
LINE
  8
1
 62
4
 10
5413.799516842416
 20
241787.7189797451
 30
0
 11
5413.799516842416
 21
241787.1253797449
 31
0
  0
LINE
  8
1
 62
4
 10
5413.799516842416
 20
241787.1253797449
 30
0
 11
5413.884316842416
 21
241787.1253797449
 31
0
  0
LINE
  8
1
 62
4
 10
5413.884316842416
 20
241787.1253797449
 30
0
 11
5413.884316842416
 21
241786.955779745
 31
0
  0
LINE
  8
1
 62
4
 10
5413.884316842416
 20
241786.955779745
 30
0
 11
5413.969116842428
 21
241786.955779745
 31
0
  0
LINE
  8
1
 62
4
 10
5413.969116842428
 20
241786.955779745
 30
0
 11
5413.969116842428
 21
241786.7861797448
 31
0
  0
LINE
  8
1
 62
4
 10
5413.969116842428
 20
241786.7861797448
 30
0
 11
5414.053916842418
 21
241786.7861797448
 31
0
  0
LINE
  8
1
 62
4
 10
5414.053916842418
 20
241786.7861797448
 30
0
 11
5414.053916842418
 21
241786.701379745
 31
0
  0
LINE
  8
1
 62
4
 10
5414.053916842418
 20
241786.701379745
 30
0
 11
5414.138716842418
 21
241786.701379745
 31
0
  0
LINE
  8
1
 62
4
 10
5414.138716842418
 20
241786.701379745
 30
0
 11
5414.138716842418
 21
241786.6165797449
 31
0
  0
LINE
  8
1
 62
4
 10
5414.138716842418
 20
241786.6165797449
 30
0
 11
5414.308316842426
 21
241786.6165797449
 31
0
  0
LINE
  8
1
 62
4
 10
5414.308316842426
 20
241786.6165797449
 30
0
 11
5414.308316842426
 21
241786.531779745
 31
0
  0
LINE
  8
1
 62
4
 10
5414.308316842426
 20
241786.531779745
 30
0
 11
5414.477916842417
 21
241786.531779745
 31
0
  0
LINE
  8
1
 62
4
 10
5414.477916842417
 20
241786.531779745
 30
0
 11
5414.477916842417
 21
241786.4469797451
 31
0
  0
LINE
  8
1
 62
4
 10
5414.477916842417
 20
241786.4469797451
 30
0
 11
5415.834716842425
 21
241786.4469797451
 31
0
  0
LINE
  8
1
 62
4
 10
5415.834716842425
 20
241786.4469797451
 30
0
 11
5415.834716842425
 21
241786.3621797451
 31
0
  0
LINE
  8
1
 62
4
 10
5415.834716842425
 20
241786.3621797451
 30
0
 11
5415.919516842419
 21
241786.3621797451
 31
0
  0
LINE
  8
1
 62
4
 10
5415.919516842419
 20
241786.3621797451
 30
0
 11
5415.919516842419
 21
241786.2773797448
 31
0
  0
LINE
  8
1
 62
4
 10
5415.919516842419
 20
241786.2773797448
 30
0
 11
5416.004316842426
 21
241786.2773797448
 31
0
  0
LINE
  8
1
 62
4
 10
5416.004316842426
 20
241786.2773797448
 30
0
 11
5416.004316842426
 21
241786.0229797449
 31
0
  0
LINE
  8
1
 62
4
 10
5416.004316842426
 20
241786.0229797449
 30
0
 11
5415.919516842419
 21
241786.0229797449
 31
0
  0
LINE
  8
1
 62
4
 10
5415.919516842419
 20
241786.0229797449
 30
0
 11
5415.919516842419
 21
241785.9381797448
 31
0
  0
LINE
  8
1
 62
4
 10
5415.919516842419
 20
241785.9381797448
 30
0
 11
5415.834716842425
 21
241785.9381797448
 31
0
  0
LINE
  8
1
 62
4
 10
5415.834716842425
 20
241785.9381797448
 30
0
 11
5415.834716842425
 21
241785.8533797452
 31
0
  0
LINE
  8
1
 62
4
 10
5415.834716842425
 20
241785.8533797452
 30
0
 11
5413.799516842416
 21
241785.8533797452
 31
0
  0
LINE
  8
1
 62
4
 10
5413.799516842416
 20
241785.8533797452
 30
0
 11
5413.799516842416
 21
241785.174979745
 31
0
  0
LINE
  8
1
 62
4
 10
5413.799516842416
 20
241785.174979745
 30
0
 11
5416.089116842416
 21
241785.174979745
 31
0
  0
LINE
  8
1
 62
4
 10
5416.089116842416
 20
241785.174979745
 30
0
 11
5416.089116842416
 21
241785.2597797446
 31
0
  0
LINE
  8
1
 62
4
 10
5416.089116842416
 20
241785.2597797446
 30
0
 11
5416.258716842417
 21
241785.2597797446
 31
0
  0
LINE
  8
1
 62
4
 10
5416.258716842417
 20
241785.2597797446
 30
0
 11
5416.258716842417
 21
241785.3445797449
 31
0
  0
LINE
  8
1
 62
4
 10
5416.258716842417
 20
241785.3445797449
 30
0
 11
5416.428316842425
 21
241785.3445797449
 31
0
  0
LINE
  8
1
 62
4
 10
5416.428316842425
 20
241785.3445797449
 30
0
 11
5416.428316842425
 21
241785.429379745
 31
0
  0
LINE
  8
1
 62
4
 10
5416.428316842425
 20
241785.429379745
 30
0
 11
5416.513116842419
 21
241785.429379745
 31
0
  0
LINE
  8
1
 62
4
 10
5416.513116842419
 20
241785.429379745
 30
0
 11
5416.513116842419
 21
241785.5141797451
 31
0
  0
LINE
  8
1
 62
4
 10
5416.513116842419
 20
241785.5141797451
 30
0
 11
5416.597916842427
 21
241785.5141797451
 31
0
  0
LINE
  8
1
 62
4
 10
5416.597916842427
 20
241785.5141797451
 30
0
 11
5416.597916842427
 21
241785.683779745
 31
0
  0
LINE
  8
1
 62
4
 10
5416.597916842427
 20
241785.683779745
 30
0
 11
5416.682716842416
 21
241785.683779745
 31
0
  0
LINE
  8
1
 62
4
 10
5416.682716842416
 20
241785.683779745
 30
0
 11
5416.682716842416
 21
241785.8533797452
 31
0
  0
LINE
  8
1
 62
4
 10
5416.682716842416
 20
241785.8533797452
 30
0
 11
5416.767516842428
 21
241785.8533797452
 31
0
  0
LINE
  8
1
 62
4
 10
5416.767516842428
 20
241785.8533797452
 30
0
 11
5416.767516842428
 21
241786.4469797451
 31
0
  0
LINE
  8
1
 62
4
 10
5416.767516842428
 20
241786.4469797451
 30
0
 11
5416.682716842416
 21
241786.4469797451
 31
0
  0
LINE
  8
1
 62
4
 10
5416.682716842416
 20
241786.4469797451
 30
0
 11
5416.682716842416
 21
241786.6165797449
 31
0
  0
LINE
  8
1
 62
4
 10
5416.682716842416
 20
241786.6165797449
 30
0
 11
5416.597916842427
 21
241786.6165797449
 31
0
  0
LINE
  8
1
 62
4
 10
5416.597916842427
 20
241786.6165797449
 30
0
 11
5416.597916842427
 21
241786.7861797448
 31
0
  0
LINE
  8
1
 62
4
 10
5416.597916842427
 20
241786.7861797448
 30
0
 11
5416.513116842419
 21
241786.7861797448
 31
0
  0
LINE
  8
1
 62
4
 10
5416.513116842419
 20
241786.7861797448
 30
0
 11
5416.513116842419
 21
241786.8709797451
 31
0
  0
LINE
  8
1
 62
4
 10
5416.513116842419
 20
241786.8709797451
 30
0
 11
5416.428316842425
 21
241786.8709797451
 31
0
  0
LINE
  8
1
 62
4
 10
5416.428316842425
 20
241786.8709797451
 30
0
 11
5416.428316842425
 21
241786.955779745
 31
0
  0
LINE
  8
1
 62
4
 10
5416.428316842425
 20
241786.955779745
 30
0
 11
5416.258716842417
 21
241786.955779745
 31
0
  0
LINE
  8
1
 62
4
 10
5416.258716842417
 20
241786.955779745
 30
0
 11
5416.258716842417
 21
241787.0405797449
 31
0
  0
LINE
  8
1
 62
4
 10
5416.258716842417
 20
241787.0405797449
 30
0
 11
5416.089116842416
 21
241787.0405797449
 31
0
  0
LINE
  8
1
 62
4
 10
5416.089116842416
 20
241787.0405797449
 30
0
 11
5416.089116842416
 21
241787.1253797449
 31
0
  0
LINE
  8
1
 62
4
 10
5416.089116842416
 20
241787.1253797449
 30
0
 11
5414.732316842418
 21
241787.1253797449
 31
0
  0
LINE
  8
1
 62
4
 10
5414.732316842418
 20
241787.1253797449
 30
0
 11
5414.732316842418
 21
241787.2101797448
 31
0
  0
LINE
  8
1
 62
4
 10
5414.732316842418
 20
241787.2101797448
 30
0
 11
5414.647516842418
 21
241787.2101797448
 31
0
  0
LINE
  8
1
 62
4
 10
5414.647516842418
 20
241787.2101797448
 30
0
 11
5414.647516842418
 21
241787.2949797451
 31
0
  0
LINE
  8
1
 62
4
 10
5414.647516842418
 20
241787.2949797451
 30
0
 11
5414.562716842417
 21
241787.2949797451
 31
0
  0
LINE
  8
1
 62
4
 10
5414.562716842417
 20
241787.2949797451
 30
0
 11
5414.562716842417
 21
241787.549379745
 31
0
  0
LINE
  8
1
 62
4
 10
5414.562716842417
 20
241787.549379745
 30
0
 11
5414.647516842418
 21
241787.549379745
 31
0
  0
LINE
  8
1
 62
4
 10
5414.647516842418
 20
241787.549379745
 30
0
 11
5414.647516842418
 21
241787.6341797448
 31
0
  0
LINE
  8
1
 62
4
 10
5414.647516842418
 20
241787.6341797448
 30
0
 11
5414.732316842418
 21
241787.6341797448
 31
0
  0
LINE
  8
1
 62
4
 10
5414.732316842418
 20
241787.6341797448
 30
0
 11
5414.732316842418
 21
241787.7189797451
 31
0
  0
LINE
  8
1
 62
4
 10
5414.732316842418
 20
241787.7189797451
 30
0
 11
5416.428316842425
 21
241787.7189797451
 31
0
  0
LINE
  8
1
 62
4
 10
5416.428316842425
 20
241787.7189797451
 30
0
 11
5416.428316842425
 21
241787.803779745
 31
0
  0
LINE
  8
1
 62
4
 10
5416.428316842425
 20
241787.803779745
 30
0
 11
5416.513116842419
 21
241787.803779745
 31
0
  0
LINE
  8
1
 62
4
 10
5416.513116842419
 20
241787.803779745
 30
0
 11
5416.513116842419
 21
241787.9733797452
 31
0
  0
LINE
  8
1
 62
4
 10
5416.513116842419
 20
241787.9733797452
 30
0
 11
5416.597916842427
 21
241787.9733797452
 31
0
  0
LINE
  8
1
 62
4
 10
5416.597916842427
 20
241787.9733797452
 30
0
 11
5416.597916842427
 21
241788.1429797449
 31
0
  0
LINE
  8
1
 62
4
 10
5416.597916842427
 20
241788.1429797449
 30
0
 11
5416.682716842416
 21
241788.1429797449
 31
0
  0
LINE
  8
1
 62
4
 10
5416.682716842416
 20
241788.1429797449
 30
0
 11
5416.682716842416
 21
241788.312579745
 31
0
  0
LINE
  8
1
 62
4
 10
5416.682716842416
 20
241788.312579745
 30
0
 11
5416.767516842428
 21
241788.312579745
 31
0
  0
LINE
  8
1
 62
4
 10
5416.767516842428
 20
241788.312579745
 30
0
 11
5416.767516842428
 21
241788.3973797449
 31
0
  0
LINE
  8
1
 62
4
 10
5416.767516842428
 20
241788.3973797449
 30
0
 11
5414.477916842417
 21
241788.3973797449
 31
0
  0
LINE
  8
1
 62
4
 10
5416.937116842418
 20
241788.3973797449
 30
0
 11
5416.937116842418
 21
241785.174979745
 31
0
  0
LINE
  8
1
 62
4
 10
5416.937116842418
 20
241785.174979745
 30
0
 11
5419.311516842418
 21
241785.174979745
 31
0
  0
LINE
  8
1
 62
4
 10
5419.311516842418
 20
241785.174979745
 30
0
 11
5419.311516842418
 21
241785.8533797452
 31
0
  0
LINE
  8
1
 62
4
 10
5419.311516842418
 20
241785.8533797452
 30
0
 11
5417.700316842415
 21
241785.8533797452
 31
0
  0
LINE
  8
1
 62
4
 10
5417.700316842415
 20
241785.8533797452
 30
0
 11
5417.700316842415
 21
241786.4469797451
 31
0
  0
LINE
  8
1
 62
4
 10
5417.700316842415
 20
241786.4469797451
 30
0
 11
5419.311516842418
 21
241786.4469797451
 31
0
  0
LINE
  8
1
 62
4
 10
5419.311516842418
 20
241786.4469797451
 30
0
 11
5419.311516842418
 21
241787.1253797449
 31
0
  0
LINE
  8
1
 62
4
 10
5419.311516842418
 20
241787.1253797449
 30
0
 11
5417.700316842415
 21
241787.1253797449
 31
0
  0
LINE
  8
1
 62
4
 10
5417.700316842415
 20
241787.1253797449
 30
0
 11
5417.700316842415
 21
241787.7189797451
 31
0
  0
LINE
  8
1
 62
4
 10
5417.700316842415
 20
241787.7189797451
 30
0
 11
5419.057116842417
 21
241787.7189797451
 31
0
  0
LINE
  8
1
 62
4
 10
5419.057116842417
 20
241787.7189797451
 30
0
 11
5419.057116842417
 21
241787.803779745
 31
0
  0
LINE
  8
1
 62
4
 10
5419.057116842417
 20
241787.803779745
 30
0
 11
5419.141916842428
 21
241787.803779745
 31
0
  0
LINE
  8
1
 62
4
 10
5419.141916842428
 20
241787.803779745
 30
0
 11
5419.141916842428
 21
241787.9733797452
 31
0
  0
LINE
  8
1
 62
4
 10
5419.141916842428
 20
241787.9733797452
 30
0
 11
5419.226716842418
 21
241787.9733797452
 31
0
  0
LINE
  8
1
 62
4
 10
5419.226716842418
 20
241787.9733797452
 30
0
 11
5419.226716842418
 21
241788.1429797449
 31
0
  0
LINE
  8
1
 62
4
 10
5419.226716842418
 20
241788.1429797449
 30
0
 11
5419.311516842418
 21
241788.1429797449
 31
0
  0
LINE
  8
1
 62
4
 10
5419.311516842418
 20
241788.1429797449
 30
0
 11
5419.311516842418
 21
241788.312579745
 31
0
  0
LINE
  8
1
 62
4
 10
5419.311516842418
 20
241788.312579745
 30
0
 11
5419.396316842426
 21
241788.312579745
 31
0
  0
LINE
  8
1
 62
4
 10
5419.396316842426
 20
241788.312579745
 30
0
 11
5419.396316842426
 21
241788.3973797449
 31
0
  0
LINE
  8
1
 62
4
 10
5419.396316842426
 20
241788.3973797449
 30
0
 11
5416.937116842418
 21
241788.3973797449
 31
0
  0
LINE
  8
1
 62
4
 10
5419.565916842427
 20
241788.3973797449
 30
0
 11
5419.565916842427
 21
241785.174979745
 31
0
  0
LINE
  8
1
 62
4
 10
5419.565916842427
 20
241785.174979745
 30
0
 11
5420.329116842418
 21
241785.174979745
 31
0
  0
LINE
  8
1
 62
4
 10
5420.329116842418
 20
241785.174979745
 30
0
 11
5420.329116842418
 21
241786.7861797448
 31
0
  0
LINE
  8
1
 62
4
 10
5420.329116842418
 20
241786.7861797448
 30
0
 11
5420.413916842425
 21
241786.7861797448
 31
0
  0
LINE
  8
1
 62
4
 10
5420.413916842425
 20
241786.7861797448
 30
0
 11
5420.413916842425
 21
241786.701379745
 31
0
  0
LINE
  8
1
 62
4
 10
5420.413916842425
 20
241786.701379745
 30
0
 11
5420.498716842419
 21
241786.701379745
 31
0
  0
LINE
  8
1
 62
4
 10
5420.498716842419
 20
241786.701379745
 30
0
 11
5420.498716842419
 21
241786.531779745
 31
0
  0
LINE
  8
1
 62
4
 10
5420.498716842419
 20
241786.531779745
 30
0
 11
5420.583516842426
 21
241786.531779745
 31
0
  0
LINE
  8
1
 62
4
 10
5420.583516842426
 20
241786.531779745
 30
0
 11
5420.583516842426
 21
241786.4469797451
 31
0
  0
LINE
  8
1
 62
4
 10
5420.583516842426
 20
241786.4469797451
 30
0
 11
5420.668316842416
 21
241786.4469797451
 31
0
  0
LINE
  8
1
 62
4
 10
5420.668316842416
 20
241786.4469797451
 30
0
 11
5420.668316842416
 21
241786.2773797448
 31
0
  0
LINE
  8
1
 62
4
 10
5420.668316842416
 20
241786.2773797448
 30
0
 11
5420.753116842417
 21
241786.2773797448
 31
0
  0
LINE
  8
1
 62
4
 10
5420.753116842417
 20
241786.2773797448
 30
0
 11
5420.753116842417
 21
241786.1925797449
 31
0
  0
LINE
  8
1
 62
4
 10
5420.753116842417
 20
241786.1925797449
 30
0
 11
5420.837916842417
 21
241786.1925797449
 31
0
  0
LINE
  8
1
 62
4
 10
5420.837916842417
 20
241786.1925797449
 30
0
 11
5420.837916842417
 21
241786.0229797449
 31
0
  0
LINE
  8
1
 62
4
 10
5420.837916842417
 20
241786.0229797449
 30
0
 11
5420.922716842418
 21
241786.0229797449
 31
0
  0
LINE
  8
1
 62
4
 10
5420.922716842418
 20
241786.0229797449
 30
0
 11
5420.922716842418
 21
241785.9381797448
 31
0
  0
LINE
  8
1
 62
4
 10
5420.922716842418
 20
241785.9381797448
 30
0
 11
5421.007516842426
 21
241785.9381797448
 31
0
  0
LINE
  8
1
 62
4
 10
5421.007516842426
 20
241785.9381797448
 30
0
 11
5421.007516842426
 21
241785.7685797449
 31
0
  0
LINE
  8
1
 62
4
 10
5421.007516842426
 20
241785.7685797449
 30
0
 11
5421.092316842415
 21
241785.7685797449
 31
0
  0
LINE
  8
1
 62
4
 10
5421.092316842415
 20
241785.7685797449
 30
0
 11
5421.092316842415
 21
241785.683779745
 31
0
  0
LINE
  8
1
 62
4
 10
5421.092316842415
 20
241785.683779745
 30
0
 11
5421.177116842427
 21
241785.683779745
 31
0
  0
LINE
  8
1
 62
4
 10
5421.177116842427
 20
241785.683779745
 30
0
 11
5421.177116842427
 21
241785.5141797451
 31
0
  0
LINE
  8
1
 62
4
 10
5421.177116842427
 20
241785.5141797451
 30
0
 11
5421.261916842416
 21
241785.5141797451
 31
0
  0
LINE
  8
1
 62
4
 10
5421.261916842416
 20
241785.5141797451
 30
0
 11
5421.261916842416
 21
241785.429379745
 31
0
  0
LINE
  8
1
 62
4
 10
5421.261916842416
 20
241785.429379745
 30
0
 11
5421.346716842417
 21
241785.429379745
 31
0
  0
LINE
  8
1
 62
4
 10
5421.346716842417
 20
241785.429379745
 30
0
 11
5421.346716842417
 21
241785.2597797446
 31
0
  0
LINE
  8
1
 62
4
 10
5421.346716842417
 20
241785.2597797446
 30
0
 11
5421.431516842417
 21
241785.2597797446
 31
0
  0
LINE
  8
1
 62
4
 10
5421.431516842417
 20
241785.2597797446
 30
0
 11
5421.431516842417
 21
241785.174979745
 31
0
  0
LINE
  8
1
 62
4
 10
5421.431516842417
 20
241785.174979745
 30
0
 11
5422.364316842427
 21
241785.174979745
 31
0
  0
LINE
  8
1
 62
4
 10
5422.364316842427
 20
241785.174979745
 30
0
 11
5422.364316842427
 21
241785.2597797446
 31
0
  0
LINE
  8
1
 62
4
 10
5422.364316842427
 20
241785.2597797446
 30
0
 11
5422.279516842415
 21
241785.2597797446
 31
0
  0
LINE
  8
1
 62
4
 10
5422.279516842415
 20
241785.2597797446
 30
0
 11
5422.279516842415
 21
241785.429379745
 31
0
  0
LINE
  8
1
 62
4
 10
5422.279516842415
 20
241785.429379745
 30
0
 11
5422.194716842426
 21
241785.429379745
 31
0
  0
LINE
  8
1
 62
4
 10
5422.194716842426
 20
241785.429379745
 30
0
 11
5422.194716842426
 21
241785.5141797451
 31
0
  0
LINE
  8
1
 62
4
 10
5422.194716842426
 20
241785.5141797451
 30
0
 11
5422.109916842418
 21
241785.5141797451
 31
0
  0
LINE
  8
1
 62
4
 10
5422.109916842418
 20
241785.5141797451
 30
0
 11
5422.109916842418
 21
241785.683779745
 31
0
  0
LINE
  8
1
 62
4
 10
5422.109916842418
 20
241785.683779745
 30
0
 11
5422.025116842417
 21
241785.683779745
 31
0
  0
LINE
  8
1
 62
4
 10
5422.025116842417
 20
241785.683779745
 30
0
 11
5422.025116842417
 21
241785.7685797449
 31
0
  0
LINE
  8
1
 62
4
 10
5422.025116842417
 20
241785.7685797449
 30
0
 11
5421.940316842428
 21
241785.7685797449
 31
0
  0
LINE
  8
1
 62
4
 10
5421.940316842428
 20
241785.7685797449
 30
0
 11
5421.940316842428
 21
241785.9381797448
 31
0
  0
LINE
  8
1
 62
4
 10
5421.940316842428
 20
241785.9381797448
 30
0
 11
5421.855516842427
 21
241785.9381797448
 31
0
  0
LINE
  8
1
 62
4
 10
5421.855516842427
 20
241785.9381797448
 30
0
 11
5421.855516842427
 21
241786.0229797449
 31
0
  0
LINE
  8
1
 62
4
 10
5421.855516842427
 20
241786.0229797449
 30
0
 11
5421.770716842427
 21
241786.0229797449
 31
0
  0
LINE
  8
1
 62
4
 10
5421.770716842427
 20
241786.0229797449
 30
0
 11
5421.770716842427
 21
241786.1925797449
 31
0
  0
LINE
  8
1
 62
4
 10
5421.770716842427
 20
241786.1925797449
 30
0
 11
5421.685916842415
 21
241786.1925797449
 31
0
  0
LINE
  8
1
 62
4
 10
5421.685916842415
 20
241786.1925797449
 30
0
 11
5421.685916842415
 21
241786.2773797448
 31
0
  0
LINE
  8
1
 62
4
 10
5421.685916842415
 20
241786.2773797448
 30
0
 11
5421.601116842426
 21
241786.2773797448
 31
0
  0
LINE
  8
1
 62
4
 10
5421.601116842426
 20
241786.2773797448
 30
0
 11
5421.601116842426
 21
241786.4469797451
 31
0
  0
LINE
  8
1
 62
4
 10
5421.601116842426
 20
241786.4469797451
 30
0
 11
5421.940316842428
 21
241786.4469797451
 31
0
  0
LINE
  8
1
 62
4
 10
5421.940316842428
 20
241786.4469797451
 30
0
 11
5421.940316842428
 21
241786.531779745
 31
0
  0
LINE
  8
1
 62
4
 10
5421.940316842428
 20
241786.531779745
 30
0
 11
5422.109916842418
 21
241786.531779745
 31
0
  0
LINE
  8
1
 62
4
 10
5422.109916842418
 20
241786.531779745
 30
0
 11
5422.109916842418
 21
241786.6165797449
 31
0
  0
LINE
  8
1
 62
4
 10
5422.109916842418
 20
241786.6165797449
 30
0
 11
5422.194716842426
 21
241786.6165797449
 31
0
  0
LINE
  8
1
 62
4
 10
5422.194716842426
 20
241786.6165797449
 30
0
 11
5422.194716842426
 21
241786.701379745
 31
0
  0
LINE
  8
1
 62
4
 10
5422.194716842426
 20
241786.701379745
 30
0
 11
5422.279516842415
 21
241786.701379745
 31
0
  0
LINE
  8
1
 62
4
 10
5422.279516842415
 20
241786.701379745
 30
0
 11
5422.279516842415
 21
241786.8709797451
 31
0
  0
LINE
  8
1
 62
4
 10
5422.279516842415
 20
241786.8709797451
 30
0
 11
5422.364316842427
 21
241786.8709797451
 31
0
  0
LINE
  8
1
 62
4
 10
5422.364316842427
 20
241786.8709797451
 30
0
 11
5422.364316842427
 21
241787.0405797449
 31
0
  0
LINE
  8
1
 62
4
 10
5422.364316842427
 20
241787.0405797449
 30
0
 11
5422.449116842417
 21
241787.0405797449
 31
0
  0
LINE
  8
1
 62
4
 10
5422.449116842417
 20
241787.0405797449
 30
0
 11
5422.449116842417
 21
241787.6341797448
 31
0
  0
LINE
  8
1
 62
4
 10
5422.449116842417
 20
241787.6341797448
 30
0
 11
5422.364316842427
 21
241787.6341797448
 31
0
  0
LINE
  8
1
 62
4
 10
5422.364316842427
 20
241787.6341797448
 30
0
 11
5422.364316842427
 21
241787.8885797449
 31
0
  0
LINE
  8
1
 62
4
 10
5422.364316842427
 20
241787.8885797449
 30
0
 11
5422.279516842415
 21
241787.8885797449
 31
0
  0
LINE
  8
1
 62
4
 10
5422.279516842415
 20
241787.8885797449
 30
0
 11
5422.279516842415
 21
241788.0581797448
 31
0
  0
LINE
  8
1
 62
4
 10
5422.279516842415
 20
241788.0581797448
 30
0
 11
5422.194716842426
 21
241788.0581797448
 31
0
  0
LINE
  8
1
 62
4
 10
5422.194716842426
 20
241788.0581797448
 30
0
 11
5422.194716842426
 21
241788.1429797449
 31
0
  0
LINE
  8
1
 62
4
 10
5422.194716842426
 20
241788.1429797449
 30
0
 11
5422.109916842418
 21
241788.1429797449
 31
0
  0
LINE
  8
1
 62
4
 10
5422.109916842418
 20
241788.1429797449
 30
0
 11
5422.109916842418
 21
241788.227779745
 31
0
  0
LINE
  8
1
 62
4
 10
5422.109916842418
 20
241788.227779745
 30
0
 11
5421.940316842428
 21
241788.227779745
 31
0
  0
LINE
  8
1
 62
4
 10
5421.940316842428
 20
241788.227779745
 30
0
 11
5421.940316842428
 21
241788.312579745
 31
0
  0
LINE
  8
1
 62
4
 10
5421.940316842428
 20
241788.312579745
 30
0
 11
5421.770716842427
 21
241788.312579745
 31
0
  0
LINE
  8
1
 62
4
 10
5421.770716842427
 20
241788.312579745
 30
0
 11
5421.770716842427
 21
241788.3973797449
 31
0
  0
LINE
  8
1
 62
4
 10
5421.770716842427
 20
241788.3973797449
 30
0
 11
5419.565916842427
 21
241788.3973797449
 31
0
  0
LINE
  8
1
 62
4
 10
5420.329116842418
 20
241786.955779745
 30
0
 11
5420.329116842418
 21
241787.7189797451
 31
0
  0
LINE
  8
1
 62
4
 10
5420.329116842418
 20
241787.7189797451
 30
0
 11
5421.516316842418
 21
241787.7189797451
 31
0
  0
LINE
  8
1
 62
4
 10
5421.516316842418
 20
241787.7189797451
 30
0
 11
5421.516316842418
 21
241787.6341797448
 31
0
  0
LINE
  8
1
 62
4
 10
5421.516316842418
 20
241787.6341797448
 30
0
 11
5421.601116842426
 21
241787.6341797448
 31
0
  0
LINE
  8
1
 62
4
 10
5421.601116842426
 20
241787.6341797448
 30
0
 11
5421.601116842426
 21
241787.4645797449
 31
0
  0
LINE
  8
1
 62
4
 10
5421.601116842426
 20
241787.4645797449
 30
0
 11
5421.685916842415
 21
241787.4645797449
 31
0
  0
LINE
  8
1
 62
4
 10
5421.685916842415
 20
241787.4645797449
 30
0
 11
5421.685916842415
 21
241787.2101797448
 31
0
  0
LINE
  8
1
 62
4
 10
5421.685916842415
 20
241787.2101797448
 30
0
 11
5421.601116842426
 21
241787.2101797448
 31
0
  0
LINE
  8
1
 62
4
 10
5421.601116842426
 20
241787.2101797448
 30
0
 11
5421.601116842426
 21
241787.0405797449
 31
0
  0
LINE
  8
1
 62
4
 10
5421.601116842426
 20
241787.0405797449
 30
0
 11
5421.516316842418
 21
241787.0405797449
 31
0
  0
LINE
  8
1
 62
4
 10
5421.516316842418
 20
241787.0405797449
 30
0
 11
5421.516316842418
 21
241786.955779745
 31
0
  0
LINE
  8
1
 62
4
 10
5421.516316842418
 20
241786.955779745
 30
0
 11
5420.329116842418
 21
241786.955779745
 31
0
  0
LINE
  8
1
 62
4
 10
5422.279516842415
 20
241788.3973797449
 30
0
 11
5422.279516842415
 21
241788.312579745
 31
0
  0
LINE
  8
1
 62
4
 10
5422.279516842415
 20
241788.312579745
 30
0
 11
5422.364316842427
 21
241788.312579745
 31
0
  0
LINE
  8
1
 62
4
 10
5422.364316842427
 20
241788.312579745
 30
0
 11
5422.364316842427
 21
241788.1429797449
 31
0
  0
LINE
  8
1
 62
4
 10
5422.364316842427
 20
241788.1429797449
 30
0
 11
5422.449116842417
 21
241788.1429797449
 31
0
  0
LINE
  8
1
 62
4
 10
5422.449116842417
 20
241788.1429797449
 30
0
 11
5422.449116842417
 21
241787.9733797452
 31
0
  0
LINE
  8
1
 62
4
 10
5422.449116842417
 20
241787.9733797452
 30
0
 11
5422.533916842428
 21
241787.9733797452
 31
0
  0
LINE
  8
1
 62
4
 10
5422.533916842428
 20
241787.9733797452
 30
0
 11
5422.533916842428
 21
241787.803779745
 31
0
  0
LINE
  8
1
 62
4
 10
5422.533916842428
 20
241787.803779745
 30
0
 11
5422.618716842418
 21
241787.803779745
 31
0
  0
LINE
  8
1
 62
4
 10
5422.618716842418
 20
241787.803779745
 30
0
 11
5422.618716842418
 21
241787.6341797448
 31
0
  0
LINE
  8
1
 62
4
 10
5422.618716842418
 20
241787.6341797448
 30
0
 11
5422.703516842425
 21
241787.6341797448
 31
0
  0
LINE
  8
1
 62
4
 10
5422.703516842425
 20
241787.6341797448
 30
0
 11
5422.703516842425
 21
241787.4645797449
 31
0
  0
LINE
  8
1
 62
4
 10
5422.703516842425
 20
241787.4645797449
 30
0
 11
5422.788316842426
 21
241787.4645797449
 31
0
  0
LINE
  8
1
 62
4
 10
5422.788316842426
 20
241787.4645797449
 30
0
 11
5422.788316842426
 21
241787.2949797451
 31
0
  0
LINE
  8
1
 62
4
 10
5422.788316842426
 20
241787.2949797451
 30
0
 11
5422.873116842416
 21
241787.2949797451
 31
0
  0
LINE
  8
1
 62
4
 10
5422.873116842416
 20
241787.2949797451
 30
0
 11
5422.873116842416
 21
241787.1253797449
 31
0
  0
LINE
  8
1
 62
4
 10
5422.873116842416
 20
241787.1253797449
 30
0
 11
5422.957916842427
 21
241787.1253797449
 31
0
  0
LINE
  8
1
 62
4
 10
5422.957916842427
 20
241787.1253797449
 30
0
 11
5422.957916842427
 21
241786.955779745
 31
0
  0
LINE
  8
1
 62
4
 10
5422.957916842427
 20
241786.955779745
 30
0
 11
5423.042716842417
 21
241786.955779745
 31
0
  0
LINE
  8
1
 62
4
 10
5423.042716842417
 20
241786.955779745
 30
0
 11
5423.042716842417
 21
241786.7861797448
 31
0
  0
LINE
  8
1
 62
4
 10
5423.042716842417
 20
241786.7861797448
 30
0
 11
5423.127516842428
 21
241786.7861797448
 31
0
  0
LINE
  8
1
 62
4
 10
5423.127516842428
 20
241786.7861797448
 30
0
 11
5423.127516842428
 21
241786.6165797449
 31
0
  0
LINE
  8
1
 62
4
 10
5423.127516842428
 20
241786.6165797449
 30
0
 11
5423.212316842418
 21
241786.6165797449
 31
0
  0
LINE
  8
1
 62
4
 10
5423.212316842418
 20
241786.6165797449
 30
0
 11
5423.212316842418
 21
241786.4469797451
 31
0
  0
LINE
  8
1
 62
4
 10
5423.212316842418
 20
241786.4469797451
 30
0
 11
5423.297116842418
 21
241786.4469797451
 31
0
  0
LINE
  8
1
 62
4
 10
5423.297116842418
 20
241786.4469797451
 30
0
 11
5423.297116842418
 21
241786.2773797448
 31
0
  0
LINE
  8
1
 62
4
 10
5423.297116842418
 20
241786.2773797448
 30
0
 11
5423.381916842426
 21
241786.2773797448
 31
0
  0
LINE
  8
1
 62
4
 10
5423.381916842426
 20
241786.2773797448
 30
0
 11
5423.381916842426
 21
241786.1077797446
 31
0
  0
LINE
  8
1
 62
4
 10
5423.381916842426
 20
241786.1077797446
 30
0
 11
5423.466716842416
 21
241786.1077797446
 31
0
  0
LINE
  8
1
 62
4
 10
5423.466716842416
 20
241786.1077797446
 30
0
 11
5423.466716842416
 21
241785.9381797448
 31
0
  0
LINE
  8
1
 62
4
 10
5423.466716842416
 20
241785.9381797448
 30
0
 11
5423.551516842427
 21
241785.9381797448
 31
0
  0
LINE
  8
1
 62
4
 10
5423.551516842427
 20
241785.9381797448
 30
0
 11
5423.551516842427
 21
241785.7685797449
 31
0
  0
LINE
  8
1
 62
4
 10
5423.551516842427
 20
241785.7685797449
 30
0
 11
5423.636316842417
 21
241785.7685797449
 31
0
  0
LINE
  8
1
 62
4
 10
5423.636316842417
 20
241785.7685797449
 30
0
 11
5423.636316842417
 21
241785.5989797451
 31
0
  0
LINE
  8
1
 62
4
 10
5423.636316842417
 20
241785.5989797451
 30
0
 11
5423.721116842428
 21
241785.5989797451
 31
0
  0
LINE
  8
1
 62
4
 10
5423.721116842428
 20
241785.5989797451
 30
0
 11
5423.721116842428
 21
241785.429379745
 31
0
  0
LINE
  8
1
 62
4
 10
5423.721116842428
 20
241785.429379745
 30
0
 11
5423.805916842425
 21
241785.429379745
 31
0
  0
LINE
  8
1
 62
4
 10
5423.805916842425
 20
241785.429379745
 30
0
 11
5423.805916842425
 21
241785.2597797446
 31
0
  0
LINE
  8
1
 62
4
 10
5423.805916842425
 20
241785.2597797446
 30
0
 11
5423.890716842418
 21
241785.2597797446
 31
0
  0
LINE
  8
1
 62
4
 10
5423.890716842418
 20
241785.2597797446
 30
0
 11
5423.890716842418
 21
241785.0901797448
 31
0
  0
LINE
  8
1
 62
4
 10
5423.890716842418
 20
241785.0901797448
 30
0
 11
5423.975516842426
 21
241785.0901797448
 31
0
  0
LINE
  8
1
 62
4
 10
5423.975516842426
 20
241785.0901797448
 30
0
 11
5423.975516842426
 21
241784.9205797449
 31
0
  0
LINE
  8
1
 62
4
 10
5423.975516842426
 20
241784.9205797449
 30
0
 11
5424.060316842416
 21
241784.9205797449
 31
0
  0
LINE
  8
1
 62
4
 10
5424.060316842416
 20
241784.9205797449
 30
0
 11
5424.060316842416
 21
241784.750979745
 31
0
  0
LINE
  8
1
 62
4
 10
5424.060316842416
 20
241784.750979745
 30
0
 11
5424.145116842416
 21
241784.750979745
 31
0
  0
LINE
  8
1
 62
4
 10
5424.145116842416
 20
241784.750979745
 30
0
 11
5424.145116842416
 21
241784.581379745
 31
0
  0
LINE
  8
1
 62
4
 10
5424.145116842416
 20
241784.581379745
 30
0
 11
5424.229916842417
 21
241784.581379745
 31
0
  0
LINE
  8
1
 62
4
 10
5424.229916842417
 20
241784.581379745
 30
0
 11
5424.229916842417
 21
241784.750979745
 31
0
  0
LINE
  8
1
 62
4
 10
5424.229916842417
 20
241784.750979745
 30
0
 11
5424.314716842428
 21
241784.750979745
 31
0
  0
LINE
  8
1
 62
4
 10
5424.314716842428
 20
241784.750979745
 30
0
 11
5424.314716842428
 21
241784.9205797449
 31
0
  0
LINE
  8
1
 62
4
 10
5424.314716842428
 20
241784.9205797449
 30
0
 11
5424.399516842425
 21
241784.9205797449
 31
0
  0
LINE
  8
1
 62
4
 10
5424.399516842425
 20
241784.9205797449
 30
0
 11
5424.399516842425
 21
241785.0901797448
 31
0
  0
LINE
  8
1
 62
4
 10
5424.399516842425
 20
241785.0901797448
 30
0
 11
5424.484316842419
 21
241785.0901797448
 31
0
  0
LINE
  8
1
 62
4
 10
5424.484316842419
 20
241785.0901797448
 30
0
 11
5424.484316842419
 21
241785.2597797446
 31
0
  0
LINE
  8
1
 62
4
 10
5424.484316842419
 20
241785.2597797446
 30
0
 11
5424.569116842426
 21
241785.2597797446
 31
0
  0
LINE
  8
1
 62
4
 10
5424.569116842426
 20
241785.2597797446
 30
0
 11
5424.569116842426
 21
241785.429379745
 31
0
  0
LINE
  8
1
 62
4
 10
5424.569116842426
 20
241785.429379745
 30
0
 11
5424.653916842416
 21
241785.429379745
 31
0
  0
LINE
  8
1
 62
4
 10
5424.653916842416
 20
241785.429379745
 30
0
 11
5424.653916842416
 21
241785.5989797451
 31
0
  0
LINE
  8
1
 62
4
 10
5424.653916842416
 20
241785.5989797451
 30
0
 11
5424.569116842426
 21
241785.5989797451
 31
0
  0
LINE
  8
1
 62
4
 10
5424.569116842426
 20
241785.5989797451
 30
0
 11
5424.569116842426
 21
241785.7685797449
 31
0
  0
LINE
  8
1
 62
4
 10
5424.569116842426
 20
241785.7685797449
 30
0
 11
5424.484316842419
 21
241785.7685797449
 31
0
  0
LINE
  8
1
 62
4
 10
5424.484316842419
 20
241785.7685797449
 30
0
 11
5424.484316842419
 21
241785.9381797448
 31
0
  0
LINE
  8
1
 62
4
 10
5424.484316842419
 20
241785.9381797448
 30
0
 11
5424.399516842425
 21
241785.9381797448
 31
0
  0
LINE
  8
1
 62
4
 10
5424.399516842425
 20
241785.9381797448
 30
0
 11
5424.399516842425
 21
241786.1077797446
 31
0
  0
LINE
  8
1
 62
4
 10
5424.399516842425
 20
241786.1077797446
 30
0
 11
5424.314716842428
 21
241786.1077797446
 31
0
  0
LINE
  8
1
 62
4
 10
5424.314716842428
 20
241786.1077797446
 30
0
 11
5424.314716842428
 21
241786.2773797448
 31
0
  0
LINE
  8
1
 62
4
 10
5424.314716842428
 20
241786.2773797448
 30
0
 11
5424.229916842417
 21
241786.2773797448
 31
0
  0
LINE
  8
1
 62
4
 10
5424.229916842417
 20
241786.2773797448
 30
0
 11
5424.229916842417
 21
241786.4469797451
 31
0
  0
LINE
  8
1
 62
4
 10
5424.229916842417
 20
241786.4469797451
 30
0
 11
5424.145116842416
 21
241786.4469797451
 31
0
  0
LINE
  8
1
 62
4
 10
5424.145116842416
 20
241786.4469797451
 30
0
 11
5424.145116842416
 21
241786.6165797449
 31
0
  0
LINE
  8
1
 62
4
 10
5424.145116842416
 20
241786.6165797449
 30
0
 11
5424.060316842416
 21
241786.6165797449
 31
0
  0
LINE
  8
1
 62
4
 10
5424.060316842416
 20
241786.6165797449
 30
0
 11
5424.060316842416
 21
241786.7861797448
 31
0
  0
LINE
  8
1
 62
4
 10
5424.060316842416
 20
241786.7861797448
 30
0
 11
5423.975516842426
 21
241786.7861797448
 31
0
  0
LINE
  8
1
 62
4
 10
5423.975516842426
 20
241786.7861797448
 30
0
 11
5423.975516842426
 21
241786.955779745
 31
0
  0
LINE
  8
1
 62
4
 10
5423.975516842426
 20
241786.955779745
 30
0
 11
5423.890716842418
 21
241786.955779745
 31
0
  0
LINE
  8
1
 62
4
 10
5423.890716842418
 20
241786.955779745
 30
0
 11
5423.890716842418
 21
241787.1253797449
 31
0
  0
LINE
  8
1
 62
4
 10
5423.890716842418
 20
241787.1253797449
 30
0
 11
5423.805916842425
 21
241787.1253797449
 31
0
  0
LINE
  8
1
 62
4
 10
5423.805916842425
 20
241787.1253797449
 30
0
 11
5423.805916842425
 21
241787.2949797451
 31
0
  0
LINE
  8
1
 62
4
 10
5423.805916842425
 20
241787.2949797451
 30
0
 11
5423.721116842428
 21
241787.2949797451
 31
0
  0
LINE
  8
1
 62
4
 10
5423.721116842428
 20
241787.2949797451
 30
0
 11
5423.721116842428
 21
241787.4645797449
 31
0
  0
LINE
  8
1
 62
4
 10
5423.721116842428
 20
241787.4645797449
 30
0
 11
5423.636316842417
 21
241787.4645797449
 31
0
  0
LINE
  8
1
 62
4
 10
5423.636316842417
 20
241787.4645797449
 30
0
 11
5423.636316842417
 21
241787.6341797448
 31
0
  0
LINE
  8
1
 62
4
 10
5423.636316842417
 20
241787.6341797448
 30
0
 11
5423.551516842427
 21
241787.6341797448
 31
0
  0
LINE
  8
1
 62
4
 10
5423.551516842427
 20
241787.6341797448
 30
0
 11
5423.551516842427
 21
241787.803779745
 31
0
  0
LINE
  8
1
 62
4
 10
5423.551516842427
 20
241787.803779745
 30
0
 11
5423.466716842416
 21
241787.803779745
 31
0
  0
LINE
  8
1
 62
4
 10
5423.466716842416
 20
241787.803779745
 30
0
 11
5423.466716842416
 21
241787.9733797452
 31
0
  0
LINE
  8
1
 62
4
 10
5423.466716842416
 20
241787.9733797452
 30
0
 11
5423.381916842426
 21
241787.9733797452
 31
0
  0
LINE
  8
1
 62
4
 10
5423.381916842426
 20
241787.9733797452
 30
0
 11
5423.381916842426
 21
241788.1429797449
 31
0
  0
LINE
  8
1
 62
4
 10
5423.381916842426
 20
241788.1429797449
 30
0
 11
5423.297116842418
 21
241788.1429797449
 31
0
  0
LINE
  8
1
 62
4
 10
5423.297116842418
 20
241788.1429797449
 30
0
 11
5423.297116842418
 21
241788.312579745
 31
0
  0
LINE
  8
1
 62
4
 10
5423.297116842418
 20
241788.312579745
 30
0
 11
5423.212316842418
 21
241788.312579745
 31
0
  0
LINE
  8
1
 62
4
 10
5423.212316842418
 20
241788.312579745
 30
0
 11
5423.212316842418
 21
241788.3973797449
 31
0
  0
LINE
  8
1
 62
4
 10
5423.212316842418
 20
241788.3973797449
 30
0
 11
5422.279516842415
 21
241788.3973797449
 31
0
  0
LINE
  8
1
 62
4
 10
5423.636316842417
 20
241788.3973797449
 30
0
 11
5423.636316842417
 21
241788.1429797449
 31
0
  0
LINE
  8
1
 62
4
 10
5423.636316842417
 20
241788.1429797449
 30
0
 11
5423.721116842428
 21
241788.1429797449
 31
0
  0
LINE
  8
1
 62
4
 10
5423.721116842428
 20
241788.1429797449
 30
0
 11
5423.721116842428
 21
241787.9733797452
 31
0
  0
LINE
  8
1
 62
4
 10
5423.721116842428
 20
241787.9733797452
 30
0
 11
5423.805916842425
 21
241787.9733797452
 31
0
  0
LINE
  8
1
 62
4
 10
5423.805916842425
 20
241787.9733797452
 30
0
 11
5423.805916842425
 21
241787.803779745
 31
0
  0
LINE
  8
1
 62
4
 10
5423.805916842425
 20
241787.803779745
 30
0
 11
5423.890716842418
 21
241787.803779745
 31
0
  0
LINE
  8
1
 62
4
 10
5423.890716842418
 20
241787.803779745
 30
0
 11
5423.890716842418
 21
241787.6341797448
 31
0
  0
LINE
  8
1
 62
4
 10
5423.890716842418
 20
241787.6341797448
 30
0
 11
5423.975516842426
 21
241787.6341797448
 31
0
  0
LINE
  8
1
 62
4
 10
5423.975516842426
 20
241787.6341797448
 30
0
 11
5423.975516842426
 21
241787.4645797449
 31
0
  0
LINE
  8
1
 62
4
 10
5423.975516842426
 20
241787.4645797449
 30
0
 11
5424.060316842416
 21
241787.4645797449
 31
0
  0
LINE
  8
1
 62
4
 10
5424.060316842416
 20
241787.4645797449
 30
0
 11
5424.060316842416
 21
241787.2949797451
 31
0
  0
LINE
  8
1
 62
4
 10
5424.060316842416
 20
241787.2949797451
 30
0
 11
5424.145116842416
 21
241787.2949797451
 31
0
  0
LINE
  8
1
 62
4
 10
5424.145116842416
 20
241787.2949797451
 30
0
 11
5424.145116842416
 21
241787.1253797449
 31
0
  0
LINE
  8
1
 62
4
 10
5424.145116842416
 20
241787.1253797449
 30
0
 11
5424.229916842417
 21
241787.1253797449
 31
0
  0
LINE
  8
1
 62
4
 10
5424.229916842417
 20
241787.1253797449
 30
0
 11
5424.229916842417
 21
241786.955779745
 31
0
  0
LINE
  8
1
 62
4
 10
5424.229916842417
 20
241786.955779745
 30
0
 11
5424.314716842428
 21
241786.955779745
 31
0
  0
LINE
  8
1
 62
4
 10
5424.314716842428
 20
241786.955779745
 30
0
 11
5424.314716842428
 21
241786.7861797448
 31
0
  0
LINE
  8
1
 62
4
 10
5424.314716842428
 20
241786.7861797448
 30
0
 11
5424.399516842425
 21
241786.7861797448
 31
0
  0
LINE
  8
1
 62
4
 10
5424.399516842425
 20
241786.7861797448
 30
0
 11
5424.399516842425
 21
241786.6165797449
 31
0
  0
LINE
  8
1
 62
4
 10
5424.399516842425
 20
241786.6165797449
 30
0
 11
5424.484316842419
 21
241786.6165797449
 31
0
  0
LINE
  8
1
 62
4
 10
5424.484316842419
 20
241786.6165797449
 30
0
 11
5424.484316842419
 21
241786.4469797451
 31
0
  0
LINE
  8
1
 62
4
 10
5424.484316842419
 20
241786.4469797451
 30
0
 11
5424.569116842426
 21
241786.4469797451
 31
0
  0
LINE
  8
1
 62
4
 10
5424.569116842426
 20
241786.4469797451
 30
0
 11
5424.569116842426
 21
241786.2773797448
 31
0
  0
LINE
  8
1
 62
4
 10
5424.569116842426
 20
241786.2773797448
 30
0
 11
5424.653916842416
 21
241786.2773797448
 31
0
  0
LINE
  8
1
 62
4
 10
5424.653916842416
 20
241786.2773797448
 30
0
 11
5424.653916842416
 21
241786.1077797446
 31
0
  0
LINE
  8
1
 62
4
 10
5424.653916842416
 20
241786.1077797446
 30
0
 11
5424.738716842428
 21
241786.1077797446
 31
0
  0
LINE
  8
1
 62
4
 10
5424.738716842428
 20
241786.1077797446
 30
0
 11
5424.738716842428
 21
241785.9381797448
 31
0
  0
LINE
  8
1
 62
4
 10
5424.738716842428
 20
241785.9381797448
 30
0
 11
5424.908316842418
 21
241785.9381797448
 31
0
  0
LINE
  8
1
 62
4
 10
5424.908316842418
 20
241785.9381797448
 30
0
 11
5424.908316842418
 21
241786.1077797446
 31
0
  0
LINE
  8
1
 62
4
 10
5424.908316842418
 20
241786.1077797446
 30
0
 11
5424.993116842426
 21
241786.1077797446
 31
0
  0
LINE
  8
1
 62
4
 10
5424.993116842426
 20
241786.1077797446
 30
0
 11
5424.993116842426
 21
241786.2773797448
 31
0
  0
LINE
  8
1
 62
4
 10
5424.993116842426
 20
241786.2773797448
 30
0
 11
5425.077916842419
 21
241786.2773797448
 31
0
  0
LINE
  8
1
 62
4
 10
5425.077916842419
 20
241786.2773797448
 30
0
 11
5425.077916842419
 21
241786.4469797451
 31
0
  0
LINE
  8
1
 62
4
 10
5425.077916842419
 20
241786.4469797451
 30
0
 11
5424.993116842426
 21
241786.4469797451
 31
0
  0
LINE
  8
1
 62
4
 10
5424.993116842426
 20
241786.4469797451
 30
0
 11
5424.993116842426
 21
241786.6165797449
 31
0
  0
LINE
  8
1
 62
4
 10
5424.993116842426
 20
241786.6165797449
 30
0
 11
5424.908316842418
 21
241786.6165797449
 31
0
  0
LINE
  8
1
 62
4
 10
5424.908316842418
 20
241786.6165797449
 30
0
 11
5424.908316842418
 21
241786.7861797448
 31
0
  0
LINE
  8
1
 62
4
 10
5424.908316842418
 20
241786.7861797448
 30
0
 11
5424.823516842417
 21
241786.7861797448
 31
0
  0
LINE
  8
1
 62
4
 10
5424.823516842417
 20
241786.7861797448
 30
0
 11
5424.823516842417
 21
241786.955779745
 31
0
  0
LINE
  8
1
 62
4
 10
5424.823516842417
 20
241786.955779745
 30
0
 11
5424.738716842428
 21
241786.955779745
 31
0
  0
LINE
  8
1
 62
4
 10
5424.738716842428
 20
241786.955779745
 30
0
 11
5424.738716842428
 21
241787.1253797449
 31
0
  0
LINE
  8
1
 62
4
 10
5424.738716842428
 20
241787.1253797449
 30
0
 11
5424.653916842416
 21
241787.1253797449
 31
0
  0
LINE
  8
1
 62
4
 10
5424.653916842416
 20
241787.1253797449
 30
0
 11
5424.653916842416
 21
241787.2949797451
 31
0
  0
LINE
  8
1
 62
4
 10
5424.653916842416
 20
241787.2949797451
 30
0
 11
5424.569116842426
 21
241787.2949797451
 31
0
  0
LINE
  8
1
 62
4
 10
5424.569116842426
 20
241787.2949797451
 30
0
 11
5424.569116842426
 21
241787.4645797449
 31
0
  0
LINE
  8
1
 62
4
 10
5424.569116842426
 20
241787.4645797449
 30
0
 11
5424.484316842419
 21
241787.4645797449
 31
0
  0
LINE
  8
1
 62
4
 10
5424.484316842419
 20
241787.4645797449
 30
0
 11
5424.484316842419
 21
241787.6341797448
 31
0
  0
LINE
  8
1
 62
4
 10
5424.484316842419
 20
241787.6341797448
 30
0
 11
5424.399516842425
 21
241787.6341797448
 31
0
  0
LINE
  8
1
 62
4
 10
5424.399516842425
 20
241787.6341797448
 30
0
 11
5424.399516842425
 21
241787.803779745
 31
0
  0
LINE
  8
1
 62
4
 10
5424.399516842425
 20
241787.803779745
 30
0
 11
5424.314716842428
 21
241787.803779745
 31
0
  0
LINE
  8
1
 62
4
 10
5424.314716842428
 20
241787.803779745
 30
0
 11
5424.314716842428
 21
241787.9733797452
 31
0
  0
LINE
  8
1
 62
4
 10
5424.314716842428
 20
241787.9733797452
 30
0
 11
5424.229916842417
 21
241787.9733797452
 31
0
  0
LINE
  8
1
 62
4
 10
5424.229916842417
 20
241787.9733797452
 30
0
 11
5424.229916842417
 21
241788.1429797449
 31
0
  0
LINE
  8
1
 62
4
 10
5424.229916842417
 20
241788.1429797449
 30
0
 11
5424.145116842416
 21
241788.1429797449
 31
0
  0
LINE
  8
1
 62
4
 10
5424.145116842416
 20
241788.1429797449
 30
0
 11
5424.145116842416
 21
241788.312579745
 31
0
  0
LINE
  8
1
 62
4
 10
5424.145116842416
 20
241788.312579745
 30
0
 11
5424.060316842416
 21
241788.312579745
 31
0
  0
LINE
  8
1
 62
4
 10
5424.060316842416
 20
241788.312579745
 30
0
 11
5424.060316842416
 21
241788.3973797449
 31
0
  0
LINE
  8
1
 62
4
 10
5424.060316842416
 20
241788.3973797449
 30
0
 11
5423.636316842417
 21
241788.3973797449
 31
0
  0
LINE
  8
1
 62
4
 10
5424.229916842417
 20
241788.3973797449
 30
0
 11
5424.229916842417
 21
241788.312579745
 31
0
  0
LINE
  8
1
 62
4
 10
5424.229916842417
 20
241788.312579745
 30
0
 11
5424.314716842428
 21
241788.312579745
 31
0
  0
LINE
  8
1
 62
4
 10
5424.314716842428
 20
241788.312579745
 30
0
 11
5424.314716842428
 21
241788.1429797449
 31
0
  0
LINE
  8
1
 62
4
 10
5424.314716842428
 20
241788.1429797449
 30
0
 11
5424.399516842425
 21
241788.1429797449
 31
0
  0
LINE
  8
1
 62
4
 10
5424.399516842425
 20
241788.1429797449
 30
0
 11
5424.399516842425
 21
241787.9733797452
 31
0
  0
LINE
  8
1
 62
4
 10
5424.399516842425
 20
241787.9733797452
 30
0
 11
5424.484316842419
 21
241787.9733797452
 31
0
  0
LINE
  8
1
 62
4
 10
5424.484316842419
 20
241787.9733797452
 30
0
 11
5424.484316842419
 21
241787.803779745
 31
0
  0
LINE
  8
1
 62
4
 10
5424.484316842419
 20
241787.803779745
 30
0
 11
5424.569116842426
 21
241787.803779745
 31
0
  0
LINE
  8
1
 62
4
 10
5424.569116842426
 20
241787.803779745
 30
0
 11
5424.569116842426
 21
241787.6341797448
 31
0
  0
LINE
  8
1
 62
4
 10
5424.569116842426
 20
241787.6341797448
 30
0
 11
5424.653916842416
 21
241787.6341797448
 31
0
  0
LINE
  8
1
 62
4
 10
5424.653916842416
 20
241787.6341797448
 30
0
 11
5424.653916842416
 21
241787.4645797449
 31
0
  0
LINE
  8
1
 62
4
 10
5424.653916842416
 20
241787.4645797449
 30
0
 11
5424.738716842428
 21
241787.4645797449
 31
0
  0
LINE
  8
1
 62
4
 10
5424.738716842428
 20
241787.4645797449
 30
0
 11
5424.738716842428
 21
241787.2949797451
 31
0
  0
LINE
  8
1
 62
4
 10
5424.738716842428
 20
241787.2949797451
 30
0
 11
5424.823516842417
 21
241787.2949797451
 31
0
  0
LINE
  8
1
 62
4
 10
5424.823516842417
 20
241787.2949797451
 30
0
 11
5424.823516842417
 21
241787.1253797449
 31
0
  0
LINE
  8
1
 62
4
 10
5424.823516842417
 20
241787.1253797449
 30
0
 11
5424.908316842418
 21
241787.1253797449
 31
0
  0
LINE
  8
1
 62
4
 10
5424.908316842418
 20
241787.1253797449
 30
0
 11
5424.908316842418
 21
241786.955779745
 31
0
  0
LINE
  8
1
 62
4
 10
5424.908316842418
 20
241786.955779745
 30
0
 11
5424.993116842426
 21
241786.955779745
 31
0
  0
LINE
  8
1
 62
4
 10
5424.993116842426
 20
241786.955779745
 30
0
 11
5424.993116842426
 21
241786.7861797448
 31
0
  0
LINE
  8
1
 62
4
 10
5424.993116842426
 20
241786.7861797448
 30
0
 11
5425.077916842419
 21
241786.7861797448
 31
0
  0
LINE
  8
1
 62
4
 10
5425.077916842419
 20
241786.7861797448
 30
0
 11
5425.077916842419
 21
241786.6165797449
 31
0
  0
LINE
  8
1
 62
4
 10
5425.077916842419
 20
241786.6165797449
 30
0
 11
5425.247516842416
 21
241786.6165797449
 31
0
  0
LINE
  8
1
 62
4
 10
5425.247516842416
 20
241786.6165797449
 30
0
 11
5425.247516842416
 21
241786.7861797448
 31
0
  0
LINE
  8
1
 62
4
 10
5425.247516842416
 20
241786.7861797448
 30
0
 11
5425.332316842417
 21
241786.7861797448
 31
0
  0
LINE
  8
1
 62
4
 10
5425.332316842417
 20
241786.7861797448
 30
0
 11
5425.332316842417
 21
241786.955779745
 31
0
  0
LINE
  8
1
 62
4
 10
5425.332316842417
 20
241786.955779745
 30
0
 11
5425.247516842416
 21
241786.955779745
 31
0
  0
LINE
  8
1
 62
4
 10
5425.247516842416
 20
241786.955779745
 30
0
 11
5425.247516842416
 21
241787.1253797449
 31
0
  0
LINE
  8
1
 62
4
 10
5425.247516842416
 20
241787.1253797449
 30
0
 11
5425.162716842427
 21
241787.1253797449
 31
0
  0
LINE
  8
1
 62
4
 10
5425.162716842427
 20
241787.1253797449
 30
0
 11
5425.162716842427
 21
241787.2949797451
 31
0
  0
LINE
  8
1
 62
4
 10
5425.162716842427
 20
241787.2949797451
 30
0
 11
5425.077916842419
 21
241787.2949797451
 31
0
  0
LINE
  8
1
 62
4
 10
5425.077916842419
 20
241787.2949797451
 30
0
 11
5425.077916842419
 21
241787.4645797449
 31
0
  0
LINE
  8
1
 62
4
 10
5425.077916842419
 20
241787.4645797449
 30
0
 11
5424.993116842426
 21
241787.4645797449
 31
0
  0
LINE
  8
1
 62
4
 10
5424.993116842426
 20
241787.4645797449
 30
0
 11
5424.993116842426
 21
241787.6341797448
 31
0
  0
LINE
  8
1
 62
4
 10
5424.993116842426
 20
241787.6341797448
 30
0
 11
5424.908316842418
 21
241787.6341797448
 31
0
  0
LINE
  8
1
 62
4
 10
5424.908316842418
 20
241787.6341797448
 30
0
 11
5424.908316842418
 21
241787.803779745
 31
0
  0
LINE
  8
1
 62
4
 10
5424.908316842418
 20
241787.803779745
 30
0
 11
5424.823516842417
 21
241787.803779745
 31
0
  0
LINE
  8
1
 62
4
 10
5424.823516842417
 20
241787.803779745
 30
0
 11
5424.823516842417
 21
241787.9733797452
 31
0
  0
LINE
  8
1
 62
4
 10
5424.823516842417
 20
241787.9733797452
 30
0
 11
5424.738716842428
 21
241787.9733797452
 31
0
  0
LINE
  8
1
 62
4
 10
5424.738716842428
 20
241787.9733797452
 30
0
 11
5424.738716842428
 21
241788.1429797449
 31
0
  0
LINE
  8
1
 62
4
 10
5424.738716842428
 20
241788.1429797449
 30
0
 11
5424.653916842416
 21
241788.1429797449
 31
0
  0
LINE
  8
1
 62
4
 10
5424.653916842416
 20
241788.1429797449
 30
0
 11
5424.653916842416
 21
241788.312579745
 31
0
  0
LINE
  8
1
 62
4
 10
5424.653916842416
 20
241788.312579745
 30
0
 11
5424.569116842426
 21
241788.312579745
 31
0
  0
LINE
  8
1
 62
4
 10
5424.569116842426
 20
241788.312579745
 30
0
 11
5424.569116842426
 21
241788.3973797449
 31
0
  0
LINE
  8
1
 62
4
 10
5424.569116842426
 20
241788.3973797449
 30
0
 11
5424.229916842417
 21
241788.3973797449
 31
0
  0
LINE
  8
1
 62
4
 10
5424.738716842428
 20
241788.3973797449
 30
0
 11
5424.738716842428
 21
241788.312579745
 31
0
  0
LINE
  8
1
 62
4
 10
5424.738716842428
 20
241788.312579745
 30
0
 11
5424.823516842417
 21
241788.312579745
 31
0
  0
LINE
  8
1
 62
4
 10
5424.823516842417
 20
241788.312579745
 30
0
 11
5424.823516842417
 21
241788.1429797449
 31
0
  0
LINE
  8
1
 62
4
 10
5424.823516842417
 20
241788.1429797449
 30
0
 11
5424.908316842418
 21
241788.1429797449
 31
0
  0
LINE
  8
1
 62
4
 10
5424.908316842418
 20
241788.1429797449
 30
0
 11
5424.908316842418
 21
241787.9733797452
 31
0
  0
LINE
  8
1
 62
4
 10
5424.908316842418
 20
241787.9733797452
 30
0
 11
5424.993116842426
 21
241787.9733797452
 31
0
  0
LINE
  8
1
 62
4
 10
5424.993116842426
 20
241787.9733797452
 30
0
 11
5424.993116842426
 21
241787.803779745
 31
0
  0
LINE
  8
1
 62
4
 10
5424.993116842426
 20
241787.803779745
 30
0
 11
5425.077916842419
 21
241787.803779745
 31
0
  0
LINE
  8
1
 62
4
 10
5425.077916842419
 20
241787.803779745
 30
0
 11
5425.077916842419
 21
241787.6341797448
 31
0
  0
LINE
  8
1
 62
4
 10
5425.077916842419
 20
241787.6341797448
 30
0
 11
5425.162716842427
 21
241787.6341797448
 31
0
  0
LINE
  8
1
 62
4
 10
5425.162716842427
 20
241787.6341797448
 30
0
 11
5425.162716842427
 21
241787.4645797449
 31
0
  0
LINE
  8
1
 62
4
 10
5425.162716842427
 20
241787.4645797449
 30
0
 11
5425.247516842416
 21
241787.4645797449
 31
0
  0
LINE
  8
1
 62
4
 10
5425.247516842416
 20
241787.4645797449
 30
0
 11
5425.247516842416
 21
241787.2949797451
 31
0
  0
LINE
  8
1
 62
4
 10
5425.247516842416
 20
241787.2949797451
 30
0
 11
5425.332316842417
 21
241787.2949797451
 31
0
  0
LINE
  8
1
 62
4
 10
5425.332316842417
 20
241787.2949797451
 30
0
 11
5425.332316842417
 21
241787.1253797449
 31
0
  0
LINE
  8
1
 62
4
 10
5425.332316842417
 20
241787.1253797449
 30
0
 11
5425.501916842418
 21
241787.1253797449
 31
0
  0
LINE
  8
1
 62
4
 10
5425.501916842418
 20
241787.1253797449
 30
0
 11
5425.501916842418
 21
241787.2949797451
 31
0
  0
LINE
  8
1
 62
4
 10
5425.501916842418
 20
241787.2949797451
 30
0
 11
5425.586716842426
 21
241787.2949797451
 31
0
  0
LINE
  8
1
 62
4
 10
5425.586716842426
 20
241787.2949797451
 30
0
 11
5425.586716842426
 21
241787.4645797449
 31
0
  0
LINE
  8
1
 62
4
 10
5425.586716842426
 20
241787.4645797449
 30
0
 11
5425.501916842418
 21
241787.4645797449
 31
0
  0
LINE
  8
1
 62
4
 10
5425.501916842418
 20
241787.4645797449
 30
0
 11
5425.501916842418
 21
241787.6341797448
 31
0
  0
LINE
  8
1
 62
4
 10
5425.501916842418
 20
241787.6341797448
 30
0
 11
5425.417116842417
 21
241787.6341797448
 31
0
  0
LINE
  8
1
 62
4
 10
5425.417116842417
 20
241787.6341797448
 30
0
 11
5425.417116842417
 21
241787.803779745
 31
0
  0
LINE
  8
1
 62
4
 10
5425.417116842417
 20
241787.803779745
 30
0
 11
5425.332316842417
 21
241787.803779745
 31
0
  0
LINE
  8
1
 62
4
 10
5425.332316842417
 20
241787.803779745
 30
0
 11
5425.332316842417
 21
241787.9733797452
 31
0
  0
LINE
  8
1
 62
4
 10
5425.332316842417
 20
241787.9733797452
 30
0
 11
5425.247516842416
 21
241787.9733797452
 31
0
  0
LINE
  8
1
 62
4
 10
5425.247516842416
 20
241787.9733797452
 30
0
 11
5425.247516842416
 21
241788.1429797449
 31
0
  0
LINE
  8
1
 62
4
 10
5425.247516842416
 20
241788.1429797449
 30
0
 11
5425.162716842427
 21
241788.1429797449
 31
0
  0
LINE
  8
1
 62
4
 10
5425.162716842427
 20
241788.1429797449
 30
0
 11
5425.162716842427
 21
241788.312579745
 31
0
  0
LINE
  8
1
 62
4
 10
5425.162716842427
 20
241788.312579745
 30
0
 11
5425.077916842419
 21
241788.312579745
 31
0
  0
LINE
  8
1
 62
4
 10
5425.077916842419
 20
241788.312579745
 30
0
 11
5425.077916842419
 21
241788.3973797449
 31
0
  0
LINE
  8
1
 62
4
 10
5425.077916842419
 20
241788.3973797449
 30
0
 11
5424.738716842428
 21
241788.3973797449
 31
0
  0
LINE
  8
1
 62
4
 10
5425.247516842416
 20
241788.3973797449
 30
0
 11
5425.247516842416
 21
241788.312579745
 31
0
  0
LINE
  8
1
 62
4
 10
5425.247516842416
 20
241788.312579745
 30
0
 11
5425.332316842417
 21
241788.312579745
 31
0
  0
LINE
  8
1
 62
4
 10
5425.332316842417
 20
241788.312579745
 30
0
 11
5425.332316842417
 21
241788.1429797449
 31
0
  0
LINE
  8
1
 62
4
 10
5425.332316842417
 20
241788.1429797449
 30
0
 11
5425.417116842417
 21
241788.1429797449
 31
0
  0
LINE
  8
1
 62
4
 10
5425.417116842417
 20
241788.1429797449
 30
0
 11
5425.417116842417
 21
241787.9733797452
 31
0
  0
LINE
  8
1
 62
4
 10
5425.417116842417
 20
241787.9733797452
 30
0
 11
5425.501916842418
 21
241787.9733797452
 31
0
  0
LINE
  8
1
 62
4
 10
5425.501916842418
 20
241787.9733797452
 30
0
 11
5425.501916842418
 21
241787.803779745
 31
0
  0
LINE
  8
1
 62
4
 10
5425.501916842418
 20
241787.803779745
 30
0
 11
5425.586716842426
 21
241787.803779745
 31
0
  0
LINE
  8
1
 62
4
 10
5425.586716842426
 20
241787.803779745
 30
0
 11
5425.586716842426
 21
241787.6341797448
 31
0
  0
LINE
  8
1
 62
4
 10
5425.586716842426
 20
241787.6341797448
 30
0
 11
5425.756316842416
 21
241787.6341797448
 31
0
  0
LINE
  8
1
 62
4
 10
5425.756316842416
 20
241787.6341797448
 30
0
 11
5425.756316842416
 21
241787.803779745
 31
0
  0
LINE
  8
1
 62
4
 10
5425.756316842416
 20
241787.803779745
 30
0
 11
5425.841116842427
 21
241787.803779745
 31
0
  0
LINE
  8
1
 62
4
 10
5425.841116842427
 20
241787.803779745
 30
0
 11
5425.841116842427
 21
241787.9733797452
 31
0
  0
LINE
  8
1
 62
4
 10
5425.841116842427
 20
241787.9733797452
 30
0
 11
5425.925916842417
 21
241787.9733797452
 31
0
  0
LINE
  8
1
 62
4
 10
5425.925916842417
 20
241787.9733797452
 30
0
 11
5425.925916842417
 21
241788.1429797449
 31
0
  0
LINE
  8
1
 62
4
 10
5425.925916842417
 20
241788.1429797449
 30
0
 11
5426.010716842417
 21
241788.1429797449
 31
0
  0
LINE
  8
1
 62
4
 10
5426.010716842417
 20
241788.1429797449
 30
0
 11
5426.010716842417
 21
241788.312579745
 31
0
  0
LINE
  8
1
 62
4
 10
5426.010716842417
 20
241788.312579745
 30
0
 11
5426.095516842418
 21
241788.312579745
 31
0
  0
LINE
  8
1
 62
4
 10
5426.095516842418
 20
241788.312579745
 30
0
 11
5426.095516842418
 21
241788.3973797449
 31
0
  0
LINE
  8
1
 62
4
 10
5426.095516842418
 20
241788.3973797449
 30
0
 11
5425.247516842416
 21
241788.3973797449
 31
0
  0
LINE
  8
1
 62
4
 10
5426.858716842416
 20
241788.3973797449
 30
0
 11
5426.858716842416
 21
241788.312579745
 31
0
  0
LINE
  8
1
 62
4
 10
5426.858716842416
 20
241788.312579745
 30
0
 11
5426.604316842418
 21
241788.312579745
 31
0
  0
LINE
  8
1
 62
4
 10
5426.604316842418
 20
241788.312579745
 30
0
 11
5426.604316842418
 21
241788.227779745
 31
0
  0
LINE
  8
1
 62
4
 10
5426.604316842418
 20
241788.227779745
 30
0
 11
5426.434716842417
 21
241788.227779745
 31
0
  0
LINE
  8
1
 62
4
 10
5426.434716842417
 20
241788.227779745
 30
0
 11
5426.434716842417
 21
241788.1429797449
 31
0
  0
LINE
  8
1
 62
4
 10
5426.434716842417
 20
241788.1429797449
 30
0
 11
5426.265116842415
 21
241788.1429797449
 31
0
  0
LINE
  8
1
 62
4
 10
5426.265116842415
 20
241788.1429797449
 30
0
 11
5426.265116842415
 21
241788.0581797448
 31
0
  0
LINE
  8
1
 62
4
 10
5426.265116842415
 20
241788.0581797448
 30
0
 11
5426.180316842426
 21
241788.0581797448
 31
0
  0
LINE
  8
1
 62
4
 10
5426.180316842426
 20
241788.0581797448
 30
0
 11
5426.180316842426
 21
241787.9733797452
 31
0
  0
LINE
  8
1
 62
4
 10
5426.180316842426
 20
241787.9733797452
 30
0
 11
5426.095516842418
 21
241787.9733797452
 31
0
  0
LINE
  8
1
 62
4
 10
5426.095516842418
 20
241787.9733797452
 30
0
 11
5426.095516842418
 21
241787.8885797449
 31
0
  0
LINE
  8
1
 62
4
 10
5426.095516842418
 20
241787.8885797449
 30
0
 11
5426.010716842417
 21
241787.8885797449
 31
0
  0
LINE
  8
1
 62
4
 10
5426.010716842417
 20
241787.8885797449
 30
0
 11
5426.010716842417
 21
241787.803779745
 31
0
  0
LINE
  8
1
 62
4
 10
5426.010716842417
 20
241787.803779745
 30
0
 11
5425.925916842417
 21
241787.803779745
 31
0
  0
LINE
  8
1
 62
4
 10
5425.925916842417
 20
241787.803779745
 30
0
 11
5425.925916842417
 21
241787.6341797448
 31
0
  0
LINE
  8
1
 62
4
 10
5425.925916842417
 20
241787.6341797448
 30
0
 11
5425.841116842427
 21
241787.6341797448
 31
0
  0
LINE
  8
1
 62
4
 10
5425.841116842427
 20
241787.6341797448
 30
0
 11
5425.841116842427
 21
241787.4645797449
 31
0
  0
LINE
  8
1
 62
4
 10
5425.841116842427
 20
241787.4645797449
 30
0
 11
5425.756316842416
 21
241787.4645797449
 31
0
  0
LINE
  8
1
 62
4
 10
5425.756316842416
 20
241787.4645797449
 30
0
 11
5425.756316842416
 21
241787.2101797448
 31
0
  0
LINE
  8
1
 62
4
 10
5425.756316842416
 20
241787.2101797448
 30
0
 11
5425.671516842415
 21
241787.2101797448
 31
0
  0
LINE
  8
1
 62
4
 10
5425.671516842415
 20
241787.2101797448
 30
0
 11
5425.671516842415
 21
241786.3621797451
 31
0
  0
LINE
  8
1
 62
4
 10
5425.756316842416
 20
241786.3621797451
 30
0
 11
5425.756316842416
 21
241786.1077797446
 31
0
  0
LINE
  8
1
 62
4
 10
5425.671516842415
 20
241786.3621797451
 30
0
 11
5425.756316842416
 21
241786.3621797451
 31
0
  0
LINE
  8
1
 62
4
 10
5425.841116842427
 20
241786.1077797446
 30
0
 11
5425.841116842427
 21
241785.9381797448
 31
0
  0
LINE
  8
1
 62
4
 10
5425.756316842416
 20
241786.1077797446
 30
0
 11
5425.841116842427
 21
241786.1077797446
 31
0
  0
LINE
  8
1
 62
4
 10
5425.925916842417
 20
241785.9381797448
 30
0
 11
5425.925916842417
 21
241785.7685797449
 31
0
  0
LINE
  8
1
 62
4
 10
5425.841116842427
 20
241785.9381797448
 30
0
 11
5425.925916842417
 21
241785.9381797448
 31
0
  0
LINE
  8
1
 62
4
 10
5426.010716842417
 20
241785.7685797449
 30
0
 11
5426.010716842417
 21
241785.683779745
 31
0
  0
LINE
  8
1
 62
4
 10
5425.925916842417
 20
241785.7685797449
 30
0
 11
5426.010716842417
 21
241785.7685797449
 31
0
  0
LINE
  8
1
 62
4
 10
5426.858716842416
 20
241785.2597797446
 30
0
 11
5426.858716842416
 21
241785.174979745
 31
0
  0
LINE
  8
1
 62
4
 10
5426.604316842418
 20
241785.2597797446
 30
0
 11
5426.858716842416
 21
241785.2597797446
 31
0
  0
LINE
  8
1
 62
4
 10
5426.604316842418
 20
241785.3445797449
 30
0
 11
5426.604316842418
 21
241785.2597797446
 31
0
  0
LINE
  8
1
 62
4
 10
5426.434716842417
 20
241785.3445797449
 30
0
 11
5426.604316842418
 21
241785.3445797449
 31
0
  0
LINE
  8
1
 62
4
 10
5426.434716842417
 20
241785.3445797449
 30
0
 11
5426.434716842417
 21
241785.429379745
 31
0
  0
LINE
  8
1
 62
4
 10
5426.434716842417
 20
241785.429379745
 30
0
 11
5426.265116842415
 21
241785.429379745
 31
0
  0
LINE
  8
1
 62
4
 10
5426.265116842415
 20
241785.429379745
 30
0
 11
5426.265116842415
 21
241785.5141797451
 31
0
  0
LINE
  8
1
 62
4
 10
5426.265116842415
 20
241785.5141797451
 30
0
 11
5426.180316842426
 21
241785.5141797451
 31
0
  0
LINE
  8
1
 62
4
 10
5426.180316842426
 20
241785.5141797451
 30
0
 11
5426.180316842426
 21
241785.5989797451
 31
0
  0
LINE
  8
1
 62
4
 10
5426.180316842426
 20
241785.5989797451
 30
0
 11
5426.095516842418
 21
241785.5989797451
 31
0
  0
LINE
  8
1
 62
4
 10
5426.095516842418
 20
241785.5989797451
 30
0
 11
5426.095516842418
 21
241785.683779745
 31
0
  0
LINE
  8
1
 62
4
 10
5426.095516842418
 20
241785.683779745
 30
0
 11
5426.010716842417
 21
241785.683779745
 31
0
  0
LINE
  8
1
 62
4
 10
5426.858716842416
 20
241785.174979745
 30
0
 11
5427.706716842428
 21
241785.174979745
 31
0
  0
LINE
  8
1
 62
4
 10
5427.706716842428
 20
241785.174979745
 30
0
 11
5427.706716842428
 21
241785.2597797446
 31
0
  0
LINE
  8
1
 62
4
 10
5427.706716842428
 20
241785.2597797446
 30
0
 11
5427.961116842426
 21
241785.2597797446
 31
0
  0
LINE
  8
1
 62
4
 10
5427.961116842426
 20
241785.2597797446
 30
0
 11
5427.961116842426
 21
241785.3445797449
 31
0
  0
LINE
  8
1
 62
4
 10
5427.961116842426
 20
241785.3445797449
 30
0
 11
5428.130716842427
 21
241785.3445797449
 31
0
  0
LINE
  8
1
 62
4
 10
5428.130716842427
 20
241785.3445797449
 30
0
 11
5428.130716842427
 21
241785.429379745
 31
0
  0
LINE
  8
1
 62
4
 10
5428.130716842427
 20
241785.429379745
 30
0
 11
5428.300316842428
 21
241785.429379745
 31
0
  0
LINE
  8
1
 62
4
 10
5428.300316842428
 20
241785.429379745
 30
0
 11
5428.300316842428
 21
241785.5141797451
 31
0
  0
LINE
  8
1
 62
4
 10
5428.300316842428
 20
241785.5141797451
 30
0
 11
5428.385116842425
 21
241785.5141797451
 31
0
  0
LINE
  8
1
 62
4
 10
5428.385116842425
 20
241785.5141797451
 30
0
 11
5428.385116842425
 21
241785.5989797451
 31
0
  0
LINE
  8
1
 62
4
 10
5428.385116842425
 20
241785.5989797451
 30
0
 11
5428.469916842419
 21
241785.5989797451
 31
0
  0
LINE
  8
1
 62
4
 10
5428.469916842419
 20
241785.5989797451
 30
0
 11
5428.469916842419
 21
241785.683779745
 31
0
  0
LINE
  8
1
 62
4
 10
5428.469916842419
 20
241785.683779745
 30
0
 11
5428.554716842426
 21
241785.683779745
 31
0
  0
LINE
  8
1
 62
4
 10
5428.554716842426
 20
241785.683779745
 30
0
 11
5428.554716842426
 21
241785.7685797449
 31
0
  0
LINE
  8
1
 62
4
 10
5428.554716842426
 20
241785.7685797449
 30
0
 11
5428.639516842427
 21
241785.7685797449
 31
0
  0
LINE
  8
1
 62
4
 10
5428.639516842427
 20
241785.7685797449
 30
0
 11
5428.639516842427
 21
241785.9381797448
 31
0
  0
LINE
  8
1
 62
4
 10
5428.639516842427
 20
241785.9381797448
 30
0
 11
5428.724316842428
 21
241785.9381797448
 31
0
  0
LINE
  8
1
 62
4
 10
5428.724316842428
 20
241785.9381797448
 30
0
 11
5428.724316842428
 21
241786.1077797446
 31
0
  0
LINE
  8
1
 62
4
 10
5428.724316842428
 20
241786.1077797446
 30
0
 11
5428.809116842417
 21
241786.1077797446
 31
0
  0
LINE
  8
1
 62
4
 10
5428.809116842417
 20
241786.1077797446
 30
0
 11
5428.809116842417
 21
241786.3621797451
 31
0
  0
LINE
  8
1
 62
4
 10
5428.809116842417
 20
241786.3621797451
 30
0
 11
5428.893916842418
 21
241786.3621797451
 31
0
  0
LINE
  8
1
 62
4
 10
5428.893916842418
 20
241786.3621797451
 30
0
 11
5428.893916842418
 21
241787.2101797448
 31
0
  0
LINE
  8
1
 62
4
 10
5426.858716842416
 20
241788.3973797449
 30
0
 11
5427.706716842428
 21
241788.3973797449
 31
0
  0
LINE
  8
1
 62
4
 10
5427.706716842428
 20
241788.3973797449
 30
0
 11
5427.706716842428
 21
241788.312579745
 31
0
  0
LINE
  8
1
 62
4
 10
5427.706716842428
 20
241788.312579745
 30
0
 11
5427.961116842426
 21
241788.312579745
 31
0
  0
LINE
  8
1
 62
4
 10
5427.961116842426
 20
241788.312579745
 30
0
 11
5427.961116842426
 21
241788.227779745
 31
0
  0
LINE
  8
1
 62
4
 10
5427.961116842426
 20
241788.227779745
 30
0
 11
5428.130716842427
 21
241788.227779745
 31
0
  0
LINE
  8
1
 62
4
 10
5428.130716842427
 20
241788.227779745
 30
0
 11
5428.130716842427
 21
241788.1429797449
 31
0
  0
LINE
  8
1
 62
4
 10
5428.130716842427
 20
241788.1429797449
 30
0
 11
5428.300316842428
 21
241788.1429797449
 31
0
  0
LINE
  8
1
 62
4
 10
5428.300316842428
 20
241788.1429797449
 30
0
 11
5428.300316842428
 21
241788.0581797448
 31
0
  0
LINE
  8
1
 62
4
 10
5428.300316842428
 20
241788.0581797448
 30
0
 11
5428.385116842425
 21
241788.0581797448
 31
0
  0
LINE
  8
1
 62
4
 10
5428.385116842425
 20
241788.0581797448
 30
0
 11
5428.385116842425
 21
241787.9733797452
 31
0
  0
LINE
  8
1
 62
4
 10
5428.385116842425
 20
241787.9733797452
 30
0
 11
5428.469916842419
 21
241787.9733797452
 31
0
  0
LINE
  8
1
 62
4
 10
5428.469916842419
 20
241787.9733797452
 30
0
 11
5428.469916842419
 21
241787.8885797449
 31
0
  0
LINE
  8
1
 62
4
 10
5428.469916842419
 20
241787.8885797449
 30
0
 11
5428.554716842426
 21
241787.8885797449
 31
0
  0
LINE
  8
1
 62
4
 10
5428.554716842426
 20
241787.8885797449
 30
0
 11
5428.554716842426
 21
241787.803779745
 31
0
  0
LINE
  8
1
 62
4
 10
5428.554716842426
 20
241787.803779745
 30
0
 11
5428.639516842427
 21
241787.803779745
 31
0
  0
LINE
  8
1
 62
4
 10
5428.639516842427
 20
241787.803779745
 30
0
 11
5428.639516842427
 21
241787.6341797448
 31
0
  0
LINE
  8
1
 62
4
 10
5428.639516842427
 20
241787.6341797448
 30
0
 11
5428.724316842428
 21
241787.6341797448
 31
0
  0
LINE
  8
1
 62
4
 10
5428.724316842428
 20
241787.6341797448
 30
0
 11
5428.724316842428
 21
241787.4645797449
 31
0
  0
LINE
  8
1
 62
4
 10
5428.724316842428
 20
241787.4645797449
 30
0
 11
5428.809116842417
 21
241787.4645797449
 31
0
  0
LINE
  8
1
 62
4
 10
5428.809116842417
 20
241787.4645797449
 30
0
 11
5428.809116842417
 21
241787.2101797448
 31
0
  0
LINE
  8
1
 62
4
 10
5428.809116842417
 20
241787.2101797448
 30
0
 11
5428.893916842418
 21
241787.2101797448
 31
0
  0
LINE
  8
1
 62
4
 10
5427.537116842427
 20
241787.6341797448
 30
0
 11
5427.028316842417
 21
241787.6341797448
 31
0
  0
LINE
  8
1
 62
4
 10
5427.028316842417
 20
241787.6341797448
 30
0
 11
5427.028316842417
 21
241787.549379745
 31
0
  0
LINE
  8
1
 62
4
 10
5427.028316842417
 20
241787.549379745
 30
0
 11
5426.858716842416
 21
241787.549379745
 31
0
  0
LINE
  8
1
 62
4
 10
5426.858716842416
 20
241787.549379745
 30
0
 11
5426.858716842416
 21
241787.4645797449
 31
0
  0
LINE
  8
1
 62
4
 10
5426.858716842416
 20
241787.4645797449
 30
0
 11
5426.689116842418
 21
241787.4645797449
 31
0
  0
LINE
  8
1
 62
4
 10
5426.689116842418
 20
241787.4645797449
 30
0
 11
5426.689116842418
 21
241787.379779745
 31
0
  0
LINE
  8
1
 62
4
 10
5426.689116842418
 20
241787.379779745
 30
0
 11
5426.604316842418
 21
241787.379779745
 31
0
  0
LINE
  8
1
 62
4
 10
5426.604316842418
 20
241787.379779745
 30
0
 11
5426.604316842418
 21
241787.2101797448
 31
0
  0
LINE
  8
1
 62
4
 10
5426.604316842418
 20
241787.2101797448
 30
0
 11
5426.519516842417
 21
241787.2101797448
 31
0
  0
LINE
  8
1
 62
4
 10
5426.519516842417
 20
241787.2101797448
 30
0
 11
5426.519516842417
 21
241787.0405797449
 31
0
  0
LINE
  8
1
 62
4
 10
5426.519516842417
 20
241787.0405797449
 30
0
 11
5426.434716842417
 21
241787.0405797449
 31
0
  0
LINE
  8
1
 62
4
 10
5426.434716842417
 20
241787.0405797449
 30
0
 11
5426.434716842417
 21
241786.531779745
 31
0
  0
LINE
  8
1
 62
4
 10
5426.434716842417
 20
241786.531779745
 30
0
 11
5426.519516842417
 21
241786.531779745
 31
0
  0
LINE
  8
1
 62
4
 10
5426.519516842417
 20
241786.531779745
 30
0
 11
5426.519516842417
 21
241786.3621797451
 31
0
  0
LINE
  8
1
 62
4
 10
5426.519516842417
 20
241786.3621797451
 30
0
 11
5426.604316842418
 21
241786.3621797451
 31
0
  0
LINE
  8
1
 62
4
 10
5426.604316842418
 20
241786.3621797451
 30
0
 11
5426.604316842418
 21
241786.1925797449
 31
0
  0
LINE
  8
1
 62
4
 10
5426.604316842418
 20
241786.1925797449
 30
0
 11
5426.689116842418
 21
241786.1925797449
 31
0
  0
LINE
  8
1
 62
4
 10
5426.689116842418
 20
241786.1925797449
 30
0
 11
5426.689116842418
 21
241786.1077797446
 31
0
  0
LINE
  8
1
 62
4
 10
5426.689116842418
 20
241786.1077797446
 30
0
 11
5426.858716842416
 21
241786.1077797446
 31
0
  0
LINE
  8
1
 62
4
 10
5426.858716842416
 20
241786.1077797446
 30
0
 11
5426.858716842416
 21
241786.0229797449
 31
0
  0
LINE
  8
1
 62
4
 10
5426.858716842416
 20
241786.0229797449
 30
0
 11
5427.028316842417
 21
241786.0229797449
 31
0
  0
LINE
  8
1
 62
4
 10
5427.028316842417
 20
241786.0229797449
 30
0
 11
5427.028316842417
 21
241785.9381797448
 31
0
  0
LINE
  8
1
 62
4
 10
5427.028316842417
 20
241785.9381797448
 30
0
 11
5427.537116842427
 21
241785.9381797448
 31
0
  0
LINE
  8
1
 62
4
 10
5427.537116842427
 20
241785.9381797448
 30
0
 11
5427.537116842427
 21
241786.0229797449
 31
0
  0
LINE
  8
1
 62
4
 10
5427.537116842427
 20
241786.0229797449
 30
0
 11
5427.706716842428
 21
241786.0229797449
 31
0
  0
LINE
  8
1
 62
4
 10
5427.706716842428
 20
241786.0229797449
 30
0
 11
5427.706716842428
 21
241786.1077797446
 31
0
  0
LINE
  8
1
 62
4
 10
5427.706716842428
 20
241786.1077797446
 30
0
 11
5427.876316842426
 21
241786.1077797446
 31
0
  0
LINE
  8
1
 62
4
 10
5427.876316842426
 20
241786.1077797446
 30
0
 11
5427.876316842426
 21
241786.1925797449
 31
0
  0
LINE
  8
1
 62
4
 10
5427.876316842426
 20
241786.1925797449
 30
0
 11
5427.961116842426
 21
241786.1925797449
 31
0
  0
LINE
  8
1
 62
4
 10
5427.961116842426
 20
241786.1925797449
 30
0
 11
5427.961116842426
 21
241786.3621797451
 31
0
  0
LINE
  8
1
 62
4
 10
5427.961116842426
 20
241786.3621797451
 30
0
 11
5428.045916842416
 21
241786.3621797451
 31
0
  0
LINE
  8
1
 62
4
 10
5428.045916842416
 20
241786.3621797451
 30
0
 11
5428.045916842416
 21
241786.531779745
 31
0
  0
LINE
  8
1
 62
4
 10
5428.045916842416
 20
241786.531779745
 30
0
 11
5428.130716842427
 21
241786.531779745
 31
0
  0
LINE
  8
1
 62
4
 10
5428.130716842427
 20
241786.531779745
 30
0
 11
5428.130716842427
 21
241787.0405797449
 31
0
  0
LINE
  8
1
 62
4
 10
5428.130716842427
 20
241787.0405797449
 30
0
 11
5428.045916842416
 21
241787.0405797449
 31
0
  0
LINE
  8
1
 62
4
 10
5428.045916842416
 20
241787.0405797449
 30
0
 11
5428.045916842416
 21
241787.2101797448
 31
0
  0
LINE
  8
1
 62
4
 10
5428.045916842416
 20
241787.2101797448
 30
0
 11
5427.961116842426
 21
241787.2101797448
 31
0
  0
LINE
  8
1
 62
4
 10
5427.961116842426
 20
241787.2101797448
 30
0
 11
5427.961116842426
 21
241787.379779745
 31
0
  0
LINE
  8
1
 62
4
 10
5427.961116842426
 20
241787.379779745
 30
0
 11
5427.876316842426
 21
241787.379779745
 31
0
  0
LINE
  8
1
 62
4
 10
5427.876316842426
 20
241787.379779745
 30
0
 11
5427.876316842426
 21
241787.4645797449
 31
0
  0
LINE
  8
1
 62
4
 10
5427.876316842426
 20
241787.4645797449
 30
0
 11
5427.706716842428
 21
241787.4645797449
 31
0
  0
LINE
  8
1
 62
4
 10
5427.706716842428
 20
241787.4645797449
 30
0
 11
5427.706716842428
 21
241787.549379745
 31
0
  0
LINE
  8
1
 62
4
 10
5427.706716842428
 20
241787.549379745
 30
0
 11
5427.537116842427
 21
241787.549379745
 31
0
  0
LINE
  8
1
 62
4
 10
5427.537116842427
 20
241787.549379745
 30
0
 11
5427.537116842427
 21
241787.6341797448
 31
0
  0
LINE
  8
1
 62
2
 10
5421.653938052727
 20
241765.6252622911
 30
0
 11
5421.653938052727
 21
241764.1332622909
 31
0
  0
LINE
  8
1
 62
2
 10
5440.246477180007
 20
241765.6252622911
 30
0
 11
5421.653938052727
 21
241765.6252622911
 31
0
  0
LINE
  8
1
 62
2
 10
5440.246477180007
 20
241764.1332622909
 30
0
 11
5440.246477180007
 21
241765.6252622911
 31
0
  0
LINE
  8
1
 62
2
 10
5421.653938052727
 20
241764.1252622911
 30
0
 11
5440.246477180007
 21
241764.1327376255
 31
0
  0
LINE
  8
1
 62
2
 10
5435.282025746385
 20
241763.8332622912
 30
0
 11
5426.294393631516
 21
241763.8332622912
 31
0
  0
LINE
  8
1
 62
2
 10
5435.282025746385
 20
241761.3332622912
 30
0
 11
5435.282025746385
 21
241763.8332622912
 31
0
  0
LINE
  8
1
 62
2
 10
5426.294393631516
 20
241761.3332622912
 30
0
 11
5435.282025746385
 21
241761.3332622912
 31
0
  0
LINE
  8
1
 62
2
 10
5426.294393631516
 20
241763.8332622912
 30
0
 11
5426.294393631516
 21
241761.3332622912
 31
0
  0
LINE
  8
1
 62
3
 10
5410.573932798648
 20
241783.3332622912
 30
0
 11
5451.462072888407
 21
241783.3332622912
 31
0
  0
LINE
  8
1
 62
3
 10
5410.402474715435
 20
241774.5332622911
 30
0
 11
5451.633530971619
 21
241774.5332622911
 31
0
  0
LINE
  8
1
 62
3
 10
5205.975346125636
 20
241771.5332622911
 30
0
 11
5206.586069803397
 21
241771.4848531236
 31
0
  0
ARC
  8
1
 62
3
 10
5432.618002843515
 20
241779.8332622912
 30
0
 40
33.00000000001704
 50
155.9587897544103
 51
156.8323526240093
  0
ARC
  8
1
 62
3
 10
5432.618002843518
 20
241776.8332622912
 30
0
 40
37.20000000011435
 50
86.91809581763373
 51
90
  0
ARC
  8
1
 62
3
 10
5432.618002843518
 20
241780.4332622913
 30
0
 40
33.60000000000582
 50
90
 51
93.41248021015478
  0
ARC
  8
1
 62
3
 10
5429.518002843516
 20
241776.5332622911
 30
0
 40
40.79999999998144
 50
357.19025732528
 51
2.809742675250709
  0
ARC
  8
1
 62
3
 10
5431.018002843516
 20
241778.5332622911
 30
0
 40
21.2000000001023
 50
155.4133122733512
 51
144.5866877255552
  0
ARC
  8
1
 62
3
 10
5431.018002843516
 20
241778.5332622911
 30
0
 40
24.25690000022059
 50
61.41736884008591
 51
88.58263116018478
  0
ARC
  8
1
 62
3
 10
5431.018002843516
 20
241778.5332622911
 30
0
 40
22.17850000024095
 50
61.55022487741152
 51
88.43581960424235
  0
ARC
  8
1
 62
3
 10
5431.018002843516
 20
241778.5332622911
 30
0
 40
24.25690000012072
 50
31.41736884023024
 51
58.58263116052208
  0
ARC
  8
1
 62
3
 10
5431.018002843516
 20
241778.5332622911
 30
0
 40
22.17850000004962
 50
31.55022487723592
 51
58.44977512325249
  0
ARC
  8
1
 62
3
 10
5431.018002843516
 20
241778.5332622911
 30
0
 40
24.25690000000084
 50
1.417368839335318
 51
28.58263116050802
  0
ARC
  8
1
 62
3
 10
5431.018002843516
 20
241778.5332622911
 30
0
 40
22.17849999999765
 50
1.550224876573355
 51
28.44977512339838
  0
ARC
  8
1
 62
3
 10
5431.018002843516
 20
241778.5332622911
 30
0
 40
24.25689999990315
 50
331.4173688402768
 51
358.5826311606647
  0
ARC
  8
1
 62
3
 10
5431.018002843516
 20
241778.5332622911
 30
0
 40
22.1784999999124
 50
331.5502248775181
 51
358.4358196043897
  0
ARC
  8
1
 62
3
 10
5431.018002843516
 20
241778.5332622911
 30
0
 40
24.25689999988965
 50
301.4173688399796
 51
328.5826311605235
  0
ARC
  8
1
 62
3
 10
5431.018002843516
 20
241778.5332622911
 30
0
 40
22.17849999998055
 50
301.550224877125
 51
328.4497751236611
  0
ARC
  8
1
 62
3
 10
5431.018002843516
 20
241778.5332622911
 30
0
 40
22.17849999988669
 50
271.5502248770982
 51
298.4497751230541
  0
ARC
  8
1
 62
3
 10
5431.018002843516
 20
241778.5332622911
 30
0
 40
24.25689999987849
 50
271.4173688398153
 51
298.5826311603416
  0
ARC
  8
1
 62
3
 10
5431.018002843516
 20
241778.5332622911
 30
0
 40
22.17849999999622
 50
258.3964109843064
 51
268.4497751229112
  0
ARC
  8
1
 62
3
 10
5431.018002843516
 20
241778.5332622911
 30
0
 40
24.25689999998647
 50
258.3965862195439
 51
268.5826311601934
  0
ARC
  8
1
 62
3
 10
5431.018002843516
 20
241778.5332622911
 30
0
 40
22.17849999988659
 50
91.55022487708881
 51
118.4497751225885
  0
ARC
  8
1
 62
3
 10
5431.018002843516
 20
241778.5332622911
 30
0
 40
24.25689999987841
 50
91.41736883980664
 51
118.5826311603322
  0
ARC
  8
1
 62
3
 10
5431.018002843516
 20
241778.5332622911
 30
0
 40
24.25690000023689
 50
121.4173688394761
 51
142.4193732170094
  0
ARC
  8
1
 62
3
 10
5431.018002843516
 20
241778.5332622911
 30
0
 40
22.17850000023238
 50
121.5502248767475
 51
141.7041876120665
  0
ARC
  8
1
 62
3
 10
5431.018002843516
 20
241778.5332622911
 30
0
 40
21.49999999972157
 50
272.865983982638
 51
297.1340160175465
  0
ARC
  8
1
 62
3
 10
5431.018002843516
 20
241778.5332622911
 30
0
 40
21.49999999989922
 50
242.8659839824643
 51
267.1340160173621
  0
ARC
  8
1
 62
3
 10
5462.018002843516
 20
241747.5332622911
 30
0
 40
3.749999999890018
 50
224.9999999983591
 51
45.00000000271198
  0
ARC
  8
1
 62
3
 10
5432.618002843518
 20
241779.8332622912
 30
0
 40
33.00000000001372
 50
155.9587897544077
 51
156.8323526238749
  0
ARC
  8
1
 62
3
 10
5432.618002843518
 20
241779.8332622912
 30
0
 40
33.00000000003485
 50
146.538007610115
 51
149.871228538253
  0
ARC
  8
1
 62
3
 10
5432.618002843518
 20
241779.8332622912
 30
0
 40
33.00000000000716
 50
120.0618805756082
 51
127.0244070665352
  0
ARC
  8
1
 62
3
 10
5405.018002843516
 20
241804.5332622915
 30
0
 40
3.749999999913813
 50
44.99999999862435
 51
225.0000000024467
  0
ARC
  8
1
 62
3
 10
5428.918002843518
 20
241776.5332622911
 30
0
 40
40.19999999989523
 50
270
 51
312.4251870276161
  0
ARC
  8
1
 62
3
 10
5432.618002843518
 20
241779.8332622912
 30
0
 40
33
 50
90
 51
120.0618805756082
  0
ARC
  8
1
 62
3
 10
5432.618002843518
 20
241779.8332622912
 30
0
 40
33.00000000002115
 50
127.0244070665352
 51
130.446275880771
  0
ARC
  8
1
 62
3
 10
5432.618002843518
 20
241779.8332622912
 30
0
 40
33.00000000007374
 50
156.8323526238749
 51
180.2672946856267
  0
ARC
  8
1
 62
3
 10
5428.918002843518
 20
241776.5332622911
 30
0
 40
40.19999999985166
 50
325.6995375558129
 51
8.823247257580238
  0
ARC
  8
1
 62
3
 10
5429.318002843515
 20
241779.5332622915
 30
0
 40
29.69999999999714
 50
179.7182466352139
 51
210.943701820547
  0
ARC
  8
1
 62
3
 10
5432.618002843518
 20
241776.2332622911
 30
0
 40
36.60000000002788
 50
10.17589924508782
 51
90
  0
ARC
  8
1
 62
3
 10
5432.618002843518
 20
241779.8332622912
 30
0
 40
36.40000000007287
 50
150.7092749495116
 51
151.4777773444692
  0
ARC
  8
1
 62
3
 10
5432.618002843518
 20
241779.8332622912
 30
0
 40
35.20000000006308
 50
150.7031425802205
 51
152.3214935109586
  0
ARC
  8
1
 62
3
 10
5432.618002843518
 20
241779.8332622912
 30
0
 40
33.00000000003485
 50
146.538007610115
 51
147.2658374398378
  0
ARC
  8
1
 62
3
 10
5431.018002843516
 20
241778.5332622911
 30
0
 40
21.49999999999655
 50
302.8659839826237
 51
327.1340160178888
  0
ARC
  8
1
 62
3
 10
5431.018002843516
 20
241778.5332622911
 30
0
 40
21.49999999992233
 50
332.8659839830296
 51
357.1340160176807
  0
ARC
  8
1
 62
3
 10
5431.018002843516
 20
241778.5332622911
 30
0
 40
21.50000000014844
 50
32.86598398322784
 51
57.13401601740075
  0
ARC
  8
1
 62
3
 10
5431.018002843516
 20
241778.5332622911
 30
0
 40
21.50000000000407
 50
2.865983982551726
 51
27.1340160178677
  0
ARC
  8
1
 62
3
 10
5431.018002843516
 20
241778.5332622911
 30
0
 40
21.50000000026391
 50
62.86598398294868
 51
87.13401601741248
  0
ARC
  8
1
 62
3
 10
5431.018002843516
 20
241778.5332622911
 30
0
 40
21.50000000009981
 50
92.86598398260689
 51
117.1340160170643
  0
ARC
  8
1
 62
3
 10
5431.018002843516
 20
241778.5332622911
 30
0
 40
21.49999999999408
 50
122.8659839826135
 51
140.3178770797326
  0
ARC
  8
1
 62
3
 10
5429.318002843515
 20
241779.5332622915
 30
0
 40
28.50000000001878
 50
184.3012223052191
 51
211.2606608484715
  0
ARC
  8
1
 62
3
 10
5432.618002843518
 20
241779.8332622912
 30
0
 40
31.80000000001335
 50
160.35456199367
 51
180.3661097089289
  0
ARC
  8
1
 62
3
 10
5431.018002843516
 20
241778.5332622911
 30
0
 40
21.50000000008336
 50
159.6821229196078
 51
177.1340160174468
  0
ARC
  8
1
 62
3
 10
5431.018002843516
 20
241778.5332622911
 30
0
 40
21.4999999999888
 50
182.8659839823208
 51
207.1340160169715
  0
ARC
  8
1
 62
3
 10
5431.018002843516
 20
241778.5332622911
 30
0
 40
21.49999999988453
 50
212.8659839821125
 51
237.1340160173865
  0
ARC
  8
1
 62
3
 10
5402.129770094768
 20
241763.2332622911
 30
0
 40
3.199999999982538
 50
270
 51
351.6852925380428
  0
ARC
  8
1
 62
3
 10
5213.367814560565
 20
241747.5332622911
 30
0
 40
3.750000000178775
 50
134.9999999972487
 51
315.0000000016901
  0
ARC
  8
1
 62
3
 10
5242.767814560567
 20
241779.8332622912
 30
0
 40
33.00000000000332
 50
359.7327053143733
 51
33.46199238988504
  0
ARC
  8
1
 62
3
 10
5242.767814560567
 20
241779.8332622912
 30
0
 40
32.99999999990392
 50
49.55372411924346
 51
90
  0
ARC
  8
1
 62
3
 10
5242.767814560567
 20
241776.2332622911
 30
0
 40
36.60000000012224
 50
90
 51
169.8241007549149
  0
ARC
  8
1
 62
3
 10
5246.067814560566
 20
241779.5332622915
 30
0
 40
29.70000000014224
 50
329.0562981794575
 51
0.281753364786029
  0
ARC
  8
1
 62
3
 10
5246.467814560568
 20
241776.5332622911
 30
0
 40
40.19999999987914
 50
227.5748129723724
 51
270
  0
ARC
  8
1
 62
3
 10
5270.367814560576
 20
241804.5332622915
 30
0
 40
3.75000000015305
 50
314.9999999974846
 51
135.0000000014543
  0
ARC
  8
1
 62
3
 10
5246.467814560568
 20
241776.5332622911
 30
0
 40
40.20000000003204
 50
171.1767527424219
 51
214.3004624441841
  0
ARC
  8
1
 62
3
 10
5242.767814560567
 20
241780.3387420817
 30
0
 40
33.79999999977793
 50
81.49307224408199
 51
90.00269799928699
  0
ARC
  8
1
 62
3
 10
5242.764631344856
 20
241776.7387420815
 30
0
 40
37.39999999654961
 50
89.99756169920613
 51
97.67794574414359
  0
ARC
  8
1
 62
3
 10
5245.968049836406
 20
241776.5655119265
 30
0
 40
40.99999999997903
 50
173.0406778066244
 51
186.9715472036065
  0
ARC
  8
1
 62
3
 10
5255.644126009988
 20
241755.6375040112
 30
0
 40
11.7499999999863
 50
149.0311718555577
 51
169.6666231913111
  0
ARC
  8
1
 62
3
 10
5255.644126009937
 20
241755.6375040112
 30
0
 40
12.24999999995974
 50
149.031171855326
 51
169.6666231908397
  0
ARC
  8
1
 62
3
 10
5243.838757461027
 20
241757.7900080002
 30
0
 40
0.2499999999805644
 50
349.6666231965609
 51
169.6666231650598
  0
ARC
  8
1
 62
3
 10
5245.354757437107
 20
241761.8123638777
 30
0
 40
0.2499999999932707
 50
329.0311718546722
 51
149.0311718510981
  0
ARC
  8
1
 62
3
 10
5255.644126009806
 20
241755.6375040112
 30
0
 40
11.74999999981758
 50
169.666623191152
 51
172.609100726252
  0
ARC
  8
1
 62
3
 10
5255.644126010869
 20
241755.637504011
 30
0
 40
12.25000000091251
 50
169.6666231908176
 51
172.8429079032963
  0
ARC
  8
1
 62
3
 10
5244.367814560565
 20
241778.5332622911
 30
0
 40
21.38756733205984
 50
268.9924967203472
 51
273.6465954382324
  0
ARC
  8
1
 62
3
 10
5255.644126009508
 20
241755.6375040112
 30
0
 40
11.74999999951854
 50
172.6091007260649
 51
173.1604644592894
  0
ARC
  8
1
 62
3
 10
5244.367814560565
 20
241778.5332622911
 30
0
 40
21.49999999996935
 50
268.9604363017078
 51
273.6228047994047
  0
ARC
  8
1
 62
3
 10
5257.975611624376
 20
241756.9416248777
 30
0
 40
11.75000000007164
 50
155.031171854653
 51
175.6666231906332
  0
ARC
  8
1
 62
3
 10
5257.975611624325
 20
241756.9416248777
 30
0
 40
12.25000000001159
 50
155.0311718548159
 51
175.6666231917474
  0
ARC
  8
1
 62
3
 10
5247.097160676399
 20
241762.0071263308
 30
0
 40
0.2499999998799385
 50
335.0311719078977
 51
155.031171814318
  0
ARC
  8
1
 62
3
 10
5257.975611624198
 20
241756.9416248777
 30
0
 40
11.74999999982381
 50
175.6666231905675
 51
178.6091007275223
  0
ARC
  8
1
 62
3
 10
5246.009916185397
 20
241757.8483401918
 30
0
 40
0.2499999999648982
 50
355.6666232546382
 51
175.6666231821067
  0
ARC
  8
1
 62
3
 10
5257.975611625257
 20
241756.9416248777
 30
0
 40
12.2500000008706
 50
175.6666231920769
 51
178.8429079028473
  0
ARC
  8
1
 62
3
 10
5244.367814560565
 20
241778.5332622911
 30
0
 40
21.38756733239411
 50
274.9924967203261
 51
279.6465954382119
  0
ARC
  8
1
 62
3
 10
5257.975611623896
 20
241756.9416248779
 30
0
 40
11.7499999995035
 50
178.6091007283379
 51
179.1604644587044
  0
ARC
  8
1
 62
3
 10
5257.975611613077
 20
241756.941624878
 30
0
 40
12.24999998870718
 50
178.8429079030577
 51
179.3704270315171
  0
ARC
  8
1
 62
3
 10
5244.367814560565
 20
241778.5332622911
 30
0
 40
21.49999999971691
 50
274.9604363017536
 51
279.6228047993788
  0
ARC
  8
1
 62
3
 10
5260.158007366458
 20
241758.4823082422
 30
0
 40
12.2499999999675
 50
161.0311718551075
 51
181.6666231928274
  0
ARC
  8
1
 62
3
 10
5260.158007367408
 20
241758.4823082424
 30
0
 40
12.25000000090551
 50
181.6666231936507
 51
184.8429079047985
  0
ARC
  8
1
 62
3
 10
5260.158007355268
 20
241758.482308241
 30
0
 40
12.24999998869499
 50
184.8429079029459
 51
185.3704270310229
  0
ARC
  8
1
 62
3
 10
5260.158007366516
 20
241758.4823082422
 30
0
 40
11.75000000002867
 50
161.0311718550026
 51
181.6666231905994
  0
ARC
  8
1
 62
3
 10
5248.163083700739
 20
241758.1333007189
 30
0
 40
0.2499999999726694
 50
1.666623221873506
 51
181.666623268108
  0
ARC
  8
1
 62
3
 10
5248.809660628477
 20
241762.3829525882
 30
0
 40
0.2500000000008105
 50
341.031171849466
 51
161.0311718700158
  0
ARC
  8
1
 62
3
 10
5260.158007366338
 20
241758.4823082422
 30
0
 40
11.74999999981375
 50
181.6666231906247
 51
184.6091007264558
  0
ARC
  8
1
 62
3
 10
5244.367814560565
 20
241778.5332622911
 30
0
 40
21.38756733212294
 50
280.9924967204134
 51
285.6465954381914
  0
ARC
  8
1
 62
3
 10
5260.158007366036
 20
241758.4823082422
 30
0
 40
11.74999999951824
 50
184.6091007265741
 51
185.1604644593174
  0
ARC
  8
1
 62
3
 10
5244.367814560565
 20
241778.5332622911
 30
0
 40
21.4999999999318
 50
280.9604363017358
 51
285.6228047995843
  0
ARC
  8
1
 62
3
 10
5262.167402451966
 20
241760.2426740552
 30
0
 40
11.75000000000219
 50
167.0311718552883
 51
187.6666231919417
  0
ARC
  8
1
 62
3
 10
5262.167402451908
 20
241760.2426740552
 30
0
 40
12.24999999993272
 50
167.0311718555432
 51
187.6666231902846
  0
ARC
  8
1
 62
3
 10
5262.167402451788
 20
241760.2426740552
 30
0
 40
11.74999999983771
 50
187.6666231920576
 51
190.6091007268953
  0
ARC
  8
1
 62
3
 10
5262.167402451486
 20
241760.242674055
 30
0
 40
11.74999999950389
 50
190.6091007263294
 51
191.1604644580902
  0
ARC
  8
1
 62
3
 10
5262.167402440878
 20
241760.242674053
 30
0
 40
12.2499999887269
 50
190.842907904362
 51
191.370427030974
  0
ARC
  8
1
 62
3
 10
5250.274669453155
 20
241758.6417674939
 30
0
 40
0.2499999999452805
 50
7.666623144665768
 51
187.6666231562461
  0
ARC
  8
1
 62
3
 10
5250.473494785528
 20
241762.935725018
 30
0
 40
0.2499999999771811
 50
347.0311718724311
 51
167.0311718536328
  0
ARC
  8
1
 62
3
 10
5262.167402452836
 20
241760.2426740552
 30
0
 40
12.25000000082759
 50
187.6666231897058
 51
190.8429079038677
  0
ARC
  8
1
 62
3
 10
5244.367814560565
 20
241778.5332622911
 30
0
 40
21.38756733216907
 50
286.9924967204214
 51
291.6465954381367
  0
ARC
  8
1
 62
3
 10
5244.367814560565
 20
241778.5332622911
 30
0
 40
21.49999999978016
 50
286.9604363018722
 51
291.6228047994209
  0
ARC
  8
1
 62
3
 10
5263.981781527668
 20
241762.2034353804
 30
0
 40
11.74999999999832
 50
173.0311718551155
 51
193.6666231914999
  0
ARC
  8
1
 62
3
 10
5263.981781527617
 20
241762.2034353804
 30
0
 40
12.24999999994894
 50
173.0311718549881
 51
193.6666231915897
  0
ARC
  8
1
 62
3
 10
5263.981781527206
 20
241762.2034353803
 30
0
 40
11.74999999952354
 50
196.6091007267454
 51
197.1604644593814
  0
ARC
  8
1
 62
3
 10
5252.321538467276
 20
241759.3681696481
 30
0
 40
0.2500000000091334
 50
13.66662321245422
 51
193.6666231721877
  0
ARC
  8
1
 62
3
 10
5252.070433832348
 20
241763.6593873304
 30
0
 40
0.2499999999843385
 50
353.0311718522472
 51
173.0311718531576
  0
ARC
  8
1
 62
3
 10
5263.981781527497
 20
241762.2034353804
 30
0
 40
11.74999999982849
 50
193.6666231916969
 51
196.6091007267478
  0
ARC
  8
1
 62
3
 10
5263.981781528527
 20
241762.2034353807
 30
0
 40
12.25000000090629
 50
193.6666231920396
 51
196.8429079050035
  0
ARC
  8
1
 62
3
 10
5244.367814560565
 20
241778.5332622911
 30
0
 40
21.38756733214464
 50
292.992496720489
 51
297.6465954384514
  0
ARC
  8
1
 62
3
 10
5263.981781516867
 20
241762.2034353768
 30
0
 40
12.24999998867554
 50
196.8429079033467
 51
197.3704270309359
  0
ARC
  8
1
 62
3
 10
5244.367814560565
 20
241778.5332622911
 30
0
 40
21.49999999993032
 50
292.9604363017822
 51
297.6228047996683
  0
ARC
  8
1
 62
3
 10
5265.581265876745
 20
241764.3431097065
 30
0
 40
12.24999999993382
 50
179.03117185583
 51
199.6666231912684
  0
ARC
  8
1
 62
3
 10
5254.281264817869
 20
241760.3045485682
 30
0
 40
0.249999999945757
 50
19.66662317725101
 51
199.6666231722002
  0
ARC
  8
1
 62
3
 10
5265.581265877619
 20
241764.3431097067
 30
0
 40
12.25000000083082
 50
199.6666231907899
 51
202.8429079030292
  0
ARC
  8
1
 62
3
 10
5265.581265866406
 20
241764.3431097021
 30
0
 40
12.24999998869429
 50
202.8429079035683
 51
203.3704270315156
  0
ARC
  8
1
 62
3
 10
5265.581265876796
 20
241764.3431097065
 30
0
 40
11.74999999998811
 50
179.0311718562224
 51
199.6666231918888
  0
ARC
  8
1
 62
3
 10
5253.582981370538
 20
241764.5460109292
 30
0
 40
0.2499999999824437
 50
359.0311718399744
 51
179.0311718534396
  0
ARC
  8
1
 62
3
 10
5265.581265876625
 20
241764.3431097065
 30
0
 40
11.74999999987298
 50
199.6666231921694
 51
202.6091007270169
  0
ARC
  8
1
 62
3
 10
5244.367814560565
 20
241778.5332622911
 30
0
 40
21.38756733216362
 50
298.9924967204608
 51
303.6465954385919
  0
ARC
  8
1
 62
3
 10
5265.581265876356
 20
241764.343109706
 30
0
 40
11.74999999942463
 50
202.6091007252944
 51
203.16046445783
  0
ARC
  8
1
 62
3
 10
5244.367814560565
 20
241778.5332622911
 30
0
 40
21.49999999992914
 50
298.9604363017937
 51
303.6228047994106
  0
ARC
  8
1
 62
3
 10
5266.948331214108
 20
241766.6382543139
 30
0
 40
11.75000000001979
 50
185.0311718570885
 51
205.6666231921888
  0
ARC
  8
1
 62
3
 10
5266.948331213948
 20
241766.6382543136
 30
0
 40
11.74999999979805
 50
205.6666231912477
 51
208.6091007255901
  0
ARC
  8
1
 62
3
 10
5266.948331214887
 20
241766.6382543143
 30
0
 40
12.25000000092292
 50
205.666623191952
 51
208.8429079037952
  0
ARC
  8
1
 62
3
 10
5266.948331214057
 20
241766.6382543136
 30
0
 40
12.24999999992809
 50
185.0311718545128
 51
205.6666231906877
  0
ARC
  8
1
 62
3
 10
5256.132377332909
 20
241761.4406450903
 30
0
 40
0.2499999999937078
 50
25.6666231971358
 51
205.6666231687544
  0
ARC
  8
1
 62
3
 10
5254.994565612756
 20
241765.585881781
 30
0
 40
0.2499999999834255
 50
5.031171836916276
 51
185.0311718164712
  0
ARC
  8
1
 62
3
 10
5244.367814560565
 20
241778.5332622911
 30
0
 40
21.38756733203743
 50
304.9924967207513
 51
309.6465954385298
  0
ARC
  8
1
 62
3
 10
5266.948331213675
 20
241766.6382543136
 30
0
 40
11.74999999947973
 50
208.6091007262272
 51
209.1604644588535
  0
ARC
  8
1
 62
3
 10
5266.948331204246
 20
241766.6382543084
 30
0
 40
12.24999998870553
 50
208.8429079035997
 51
209.3704270327946
  0
ARC
  8
1
 62
3
 10
5244.367814560565
 20
241778.5332622911
 30
0
 40
21.49999999982013
 50
304.96043630203
 51
309.6228047997615
  0
ARC
  8
1
 62
3
 10
5256.289720946667
 20
241766.7676068432
 30
0
 40
0.2499999999921699
 50
11.0311718759234
 51
191.0311718545279
  0
ARC
  8
1
 62
3
 10
5268.067999685535
 20
241769.0637231174
 30
0
 40
11.74999999977026
 50
211.666623190966
 51
214.6091007260294
  0
ARC
  8
1
 62
3
 10
5268.067999685288
 20
241769.0637231174
 30
0
 40
11.74999999955723
 50
214.6091007267145
 51
215.1604644600958
  0
ARC
  8
1
 62
3
 10
5268.067999685688
 20
241769.0637231174
 30
0
 40
11.74999999995401
 50
191.0311718542182
 51
211.6666231905748
  0
ARC
  8
1
 62
3
 10
5268.067999685637
 20
241769.0637231174
 30
0
 40
12.24999999991094
 50
191.0311718547131
 51
211.6666231916901
  0
ARC
  8
1
 62
3
 10
5257.854594836316
 20
241762.7640119036
 30
0
 40
0.2499999998664394
 50
31.66662314846121
 51
211.6666232812086
  0
ARC
  8
1
 62
3
 10
5268.067999686416
 20
241769.0637231182
 30
0
 40
12.25000000105723
 50
211.6666231929044
 51
214.8429079037006
  0
ARC
  8
1
 62
3
 10
5244.367814560565
 20
241778.5332622911
 30
0
 40
21.38756733218292
 50
310.9924967205031
 51
315.6465954382055
  0
ARC
  8
1
 62
3
 10
5268.067999676448
 20
241769.0637231111
 30
0
 40
12.24999998863505
 50
214.8429079030777
 51
215.3704270311984
  0
ARC
  8
1
 62
3
 10
5244.367814560565
 20
241778.5332622911
 30
0
 40
21.50000000011048
 50
310.9604363014798
 51
315.6228047996349
  0
ARC
  8
1
 62
3
 10
5268.928003969449
 20
241771.5929421744
 30
0
 40
11.75000000005344
 50
197.0311718564561
 51
217.6666231920189
  0
ARC
  8
1
 62
3
 10
5268.928003969409
 20
241771.5929421744
 30
0
 40
12.24999999995429
 50
197.0311718555018
 51
217.6666231907587
  0
ARC
  8
1
 62
3
 10
5259.429048352747
 20
241764.2601499237
 30
0
 40
0.2499999998958724
 50
37.66662316906348
 51
217.6666231476194
  0
ARC
  8
1
 62
3
 10
5268.928003969307
 20
241771.5929421741
 30
0
 40
11.74999999979711
 50
217.666623191206
 51
220.6091007251948
  0
ARC
  8
1
 62
3
 10
5268.928003970118
 20
241771.5929421748
 30
0
 40
12.25000000063618
 50
217.6666231901319
 51
220.8429079037987
  0
ARC
  8
1
 62
3
 10
5268.928003969078
 20
241771.5929421741
 30
0
 40
11.74999999943379
 50
220.6091007259193
 51
221.1604644595705
  0
ARC
  8
1
 62
3
 10
5257.454257379387
 20
241768.0782388888
 30
0
 40
0.2499999999002296
 50
17.03117179125662
 51
197.0311718722117
  0
ARC
  8
1
 62
3
 10
5244.367814560565
 20
241778.5332622911
 30
0
 40
21.38756733202549
 50
316.9924967209655
 51
321.6465954387397
  0
ARC
  8
1
 62
3
 10
5268.928003960936
 20
241771.592942167
 30
0
 40
12.24999998883249
 50
220.8429079042874
 51
221.3704270320811
  0
ARC
  8
1
 62
3
 10
5244.367814560565
 20
241778.5332622911
 30
0
 40
21.49999999999857
 50
316.9604363017083
 51
321.6228047999433
  0
ARC
  8
1
 62
3
 10
5269.518921678456
 20
241774.1982008306
 30
0
 40
12.24999999999454
 50
203.0311718559105
 51
223.6666231919669
  0
ARC
  8
1
 62
3
 10
5260.838487839977
 20
241765.9126671499
 30
0
 40
0.2499999999800112
 50
43.66662319158747
 51
223.6666232190297
  0
ARC
  8
1
 62
3
 10
5258.475416006068
 20
241769.5034183582
 30
0
 40
0.2500000000355681
 50
23.03117188275671
 51
203.0311718552672
  0
ARC
  8
1
 62
3
 10
5269.518921678157
 20
241774.1982008303
 30
0
 40
11.74999999955961
 50
226.6091007266042
 51
227.160464459328
  0
ARC
  8
1
 62
3
 10
5269.518921670809
 20
241774.1982008225
 30
0
 40
12.24999998873576
 50
226.8429079037414
 51
227.3704270318625
  0
ARC
  8
1
 62
3
 10
5269.518921678496
 20
241774.1982008306
 30
0
 40
11.74999999997564
 50
203.0311718552766
 51
223.6666231912644
  0
ARC
  8
1
 62
3
 10
5269.518921678368
 20
241774.1982008306
 30
0
 40
11.74999999988085
 50
223.6666231916931
 51
226.6091007269289
  0
ARC
  8
1
 62
3
 10
5269.518921679107
 20
241774.1982008313
 30
0
 40
12.25000000102698
 50
223.6666231922272
 51
226.8429079036405
  0
ARC
  8
1
 62
3
 10
5244.367814560565
 20
241778.5332622911
 30
0
 40
21.38756733217172
 50
322.9924967205865
 51
327.6465954387337
  0
ARC
  8
1
 62
3
 10
5244.367814560565
 20
241778.5332622911
 30
0
 40
21.49999999997219
 50
322.9604363017839
 51
327.6228047999693
  0
ARC
  8
1
 62
3
 10
5269.834278594716
 20
241776.8509553273
 30
0
 40
12.24999999985309
 50
209.0311718546372
 51
229.666623190716
  0
ARC
  8
1
 62
3
 10
5259.342008799117
 20
241771.0275306878
 30
0
 40
0.2499999999607085
 50
29.03117184711024
 51
209.0311718602568
  0
ARC
  8
1
 62
3
 10
5269.834278595287
 20
241776.8509553279
 30
0
 40
12.25000000059493
 50
229.6666231904416
 51
232.8429079029624
  0
ARC
  8
1
 62
3
 10
5269.834278594745
 20
241776.8509553273
 30
0
 40
11.74999999988056
 50
209.0311718546089
 51
229.6666231912599
  0
ARC
  8
1
 62
3
 10
5262.067471184047
 20
241767.7034582573
 30
0
 40
0.2500000000463435
 50
49.66662320686835
 51
229.6666231439134
  0
ARC
  8
1
 62
3
 10
5269.834278594636
 20
241776.8509553272
 30
0
 40
11.74999999981141
 50
229.6666231912982
 51
232.6091007261226
  0
ARC
  8
1
 62
3
 10
5244.367814560565
 20
241778.5332622911
 30
0
 40
21.38756733214983
 50
328.9924967207653
 51
333.6465954383725
  0
ARC
  8
1
 62
3
 10
5269.834278594458
 20
241776.850955327
 30
0
 40
11.74999999949083
 50
232.6091007262962
 51
233.1604644594251
  0
ARC
  8
1
 62
3
 10
5269.834278587968
 20
241776.8509553183
 30
0
 40
12.24999998859163
 50
232.8429079031971
 51
233.3704270313545
  0
ARC
  8
1
 62
3
 10
5244.367814560565
 20
241778.5332622911
 30
0
 40
21.50000000001933
 50
328.9604363016001
 51
333.6228048001332
  0
ARC
  8
1
 62
3
 10
5269.870619601857
 20
241779.5221415313
 30
0
 40
11.74999999998956
 50
215.0311718554267
 51
235.6666231916926
  0
ARC
  8
1
 62
3
 10
5263.102533386255
 20
241769.6129029644
 30
0
 40
0.2499999997963823
 50
55.66662316189127
 51
235.6666231940032
  0
ARC
  8
1
 62
3
 10
5260.044541186529
 20
241772.6338773829
 30
0
 40
0.2500000001109577
 50
35.03117189909116
 51
215.03117181808
  0
ARC
  8
1
 62
3
 10
5269.870619601747
 20
241779.5221415311
 30
0
 40
11.74999999987703
 50
235.6666231915717
 51
238.609100726879
  0
ARC
  8
1
 62
3
 10
5269.870619602308
 20
241779.522141532
 30
0
 40
12.25000000078756
 50
235.6666231912319
 51
238.8429079038691
  0
ARC
  8
1
 62
3
 10
5269.870619601598
 20
241779.5221415308
 30
0
 40
11.74999999963013
 50
238.6091007266868
 51
239.1604644579458
  0
ARC
  8
1
 62
3
 10
5269.870619596047
 20
241779.5221415215
 30
0
 40
12.24999998866326
 50
238.8429079035039
 51
239.3704270311678
  0
ARC
  8
1
 62
3
 10
5269.870619601818
 20
241779.5221415311
 30
0
 40
12.24999999985692
 50
215.0311718548804
 51
235.6666231907452
  0
ARC
  8
1
 62
3
 10
5244.367814560565
 20
241778.5332622911
 30
0
 40
21.38756733227923
 50
334.9924967201021
 51
339.6465954388099
  0
ARC
  8
1
 62
3
 10
5244.367814560565
 20
241778.5332622911
 30
0
 40
21.49999999983109
 50
334.9604363026809
 51
339.6228047995779
  0
ARC
  8
1
 62
3
 10
5269.627546540108
 20
241782.1824933674
 30
0
 40
11.75000000006336
 50
221.0311718559447
 51
241.6666231917518
  0
ARC
  8
1
 62
3
 10
5269.627546540086
 20
241782.1824933674
 30
0
 40
12.2499999999294
 50
221.0311718553568
 51
241.6666231917322
  0
ARC
  8
1
 62
3
 10
5263.932334088527
 20
241771.6200809946
 30
0
 40
0.2499999999544486
 50
61.66662318810739
 51
241.6666231900354
  0
ARC
  8
1
 62
3
 10
5260.575316076457
 20
241774.304858974
 30
0
 40
0.2500000000671037
 50
41.03117187669372
 51
221.0311718031039
  0
ARC
  8
1
 62
3
 10
5269.627546540497
 20
241782.1824933681
 30
0
 40
12.25000000090441
 50
241.6666231915903
 51
244.842907903536
  0
ARC
  8
1
 62
3
 10
5269.627546539897
 20
241782.1824933667
 30
0
 40
11.74999999937622
 50
244.6091007260609
 51
245.1604644588981
  0
ARC
  8
1
 62
3
 10
5269.627546535357
 20
241782.1824933571
 30
0
 40
12.24999998861436
 50
244.842907903421
 51
245.3704270319709
  0
ARC
  8
1
 62
3
 10
5269.627546540028
 20
241782.1824933672
 30
0
 40
11.74999999991706
 50
241.6666231916238
 51
244.6091007265185
  0
ARC
  8
1
 62
3
 10
5244.367814560565
 20
241778.5332622911
 30
0
 40
21.38756733220685
 50
340.9924967205812
 51
345.6465954387022
  0
ARC
  8
1
 62
3
 10
5244.367814560565
 20
241778.5332622911
 30
0
 40
21.50000000001993
 50
340.9604363015426
 51
345.6228047999488
  0
ARC
  8
1
 62
3
 10
5269.107722568867
 20
241784.8028634641
 30
0
 40
11.75000000005022
 50
227.0311718557445
 51
247.6666231913628
  0
ARC
  8
1
 62
3
 10
5269.107722568838
 20
241784.8028634641
 30
0
 40
12.25000000004281
 50
227.0311718558987
 51
247.6666231916361
  0
ARC
  8
1
 62
3
 10
5269.107722568798
 20
241784.8028634638
 30
0
 40
11.74999999967415
 50
247.6666231910813
 51
250.6091007259459
  0
ARC
  8
1
 62
3
 10
5269.107722569165
 20
241784.8028634648
 30
0
 40
12.25000000084666
 50
247.6666231914611
 51
250.8429079036116
  0
ARC
  8
1
 62
3
 10
5269.107722565207
 20
241784.8028634531
 30
0
 40
12.24999998840094
 50
250.8429079031417
 51
251.3704270313469
  0
ARC
  8
1
 62
3
 10
5264.547781820696
 20
241773.7030012861
 30
0
 40
0.2499999998976135
 50
67.66662318084289
 51
247.6666232091092
  0
ARC
  8
1
 62
3
 10
5260.928518188149
 20
241776.0221678366
 30
0
 40
0.250000000132547
 50
47.03117188960722
 51
227.0311718245564
  0
ARC
  8
1
 62
3
 10
5244.367814560565
 20
241778.5332622911
 30
0
 40
21.38756733216863
 50
346.9924967211736
 51
351.6465954384478
  0
ARC
  8
1
 62
3
 10
5269.107722568696
 20
241784.8028634638
 30
0
 40
11.74999999952155
 50
250.6091007264144
 51
251.1604644595405
  0
ARC
  8
1
 62
3
 10
5244.367814560565
 20
241778.5332622911
 30
0
 40
21.50000000001867
 50
346.9604363015053
 51
351.6228047996189
  0
ARC
  8
1
 62
3
 10
5268.316842988318
 20
241787.3545424984
 30
0
 40
11.74999999993283
 50
233.0311718552952
 51
253.6666231912701
  0
ARC
  8
1
 62
3
 10
5268.316842988525
 20
241787.3545424991
 30
0
 40
12.25000000078527
 50
253.6666231913929
 51
256.842907903775
  0
ARC
  8
1
 62
3
 10
5268.316842988205
 20
241787.3545424977
 30
0
 40
11.74999999948795
 50
256.6091007263711
 51
257.1604644589612
  0
ARC
  8
1
 62
3
 10
5268.316842985797
 20
241787.3545424874
 30
0
 40
12.24999998881774
 50
256.8429079037458
 51
257.370427031967
  0
ARC
  8
1
 62
3
 10
5268.316842988307
 20
241787.3545424982
 30
0
 40
12.24999999975398
 50
233.0311718547658
 51
253.6666231911859
  0
ARC
  8
1
 62
3
 10
5264.942133608648
 20
241775.8388429277
 30
0
 40
0.2500000000524756
 50
73.66662319483386
 51
253.6666231943093
  0
ARC
  8
1
 62
3
 10
5261.100277765337
 20
241777.7669887758
 30
0
 40
0.250000000104943
 50
53.03117187741965
 51
233.0311718333101
  0
ARC
  8
1
 62
3
 10
5268.316842988278
 20
241787.3545424982
 30
0
 40
11.74999999971394
 50
253.666623191178
 51
256.6091007265847
  0
ARC
  8
1
 62
3
 10
5244.367814560565
 20
241778.5332622911
 30
0
 40
21.38756733224423
 50
352.9924967203545
 51
357.6465954382605
  0
ARC
  8
1
 62
3
 10
5244.367814560565
 20
241778.5332622911
 30
0
 40
21.50000000001183
 50
352.960436301431
 51
357.6228048000511
  0
ARC
  8
1
 62
3
 10
5267.263572840667
 20
241789.8095737408
 30
0
 40
11.75000000029637
 50
239.0311718563823
 51
259.6666231912316
  0
ARC
  8
1
 62
3
 10
5265.111068851656
 20
241778.0042051917
 30
0
 40
0.2500000001835971
 50
79.66662320165501
 51
259.6666231864095
  0
ARC
  8
1
 62
3
 10
5261.088712974167
 20
241779.5202051679
 30
0
 40
0.2499999996800839
 50
59.03117181548681
 51
239.0311718681158
  0
ARC
  8
1
 62
3
 10
5267.263572840598
 20
241789.8095737402
 30
0
 40
11.7499999996138
 50
262.609100726483
 51
263.1604644589561
  0
ARC
  8
1
 62
3
 10
5267.263572839317
 20
241789.8095737296
 30
0
 40
12.24999998896878
 50
262.8429079037695
 51
263.3704270318449
  0
ARC
  8
1
 62
3
 10
5267.263572840656
 20
241789.8095737408
 30
0
 40
12.25000000009013
 50
239.0311718558309
 51
259.6666231913961
  0
ARC
  8
1
 62
3
 10
5267.263572840638
 20
241789.8095737404
 30
0
 40
11.74999999952962
 50
259.6666231910402
 51
262.6091007264172
  0
ARC
  8
1
 62
3
 10
5267.263572840787
 20
241789.8095737415
 30
0
 40
12.25000000072787
 50
259.6666231914039
 51
262.8429079038854
  0
ARC
  8
1
 62
3
 10
5244.367814560565
 20
241778.5332622911
 30
0
 40
21.38756733224452
 50
358.9924967204826
 51
3.646595438867785
  0
ARC
  8
1
 62
3
 10
5244.367814560565
 20
241778.5332622911
 30
0
 40
21.50000000000719
 50
358.9604363020296
 51
3.622804799967021
  0
ARC
  8
1
 62
3
 10
5265.959451974049
 20
241792.1410593547
 30
0
 40
11.74999999958675
 50
245.0311718546038
 51
265.666623191205
  0
ARC
  8
1
 62
3
 10
5265.052736659835
 20
241780.1753639159
 30
0
 40
0.2500000001529329
 50
85.66662319351983
 51
265.6666231895192
  0
ARC
  8
1
 62
3
 10
5260.893950520897
 20
241781.262608407
 30
0
 40
0.2500000001358447
 50
65.03117187082687
 51
245.03117184885
  0
ARC
  8
1
 62
3
 10
5265.959451974067
 20
241792.1410593558
 30
0
 40
12.25000000075453
 50
265.6666231915281
 51
268.8429079038445
  0
ARC
  8
1
 62
3
 10
5265.959451974038
 20
241792.1410593544
 30
0
 40
11.74999999936791
 50
268.6091007263344
 51
269.1604644588625
  0
ARC
  8
1
 62
3
 10
5265.959451974049
 20
241792.1410593547
 30
0
 40
12.24999999967836
 50
245.0311718548175
 51
265.6666231912178
  0
ARC
  8
1
 62
3
 10
5265.959451974038
 20
241792.1410593547
 30
0
 40
11.74999999963424
 50
265.6666231912625
 51
268.6091007263688
  0
ARC
  8
1
 62
3
 10
5244.367814560565
 20
241778.5332622911
 30
0
 40
21.38756733224871
 50
4.992496720683003
 51
9.646595438669436
  0
ARC
  8
1
 62
3
 10
5265.959451973878
 20
241792.1410593438
 30
0
 40
12.24999998861753
 50
268.8429079035939
 51
269.3704270318544
  0
ARC
  8
1
 62
3
 10
5244.367814560565
 20
241778.5332622911
 30
0
 40
21.5000000000243
 50
4.960436302334452
 51
9.622804799532675
  0
ARC
  8
1
 62
3
 10
5264.418768609597
 20
241794.3234550972
 30
0
 40
12.25000000016296
 50
251.0311718557457
 51
271.6666231913134
  0
ARC
  8
1
 62
3
 10
5264.767776132906
 20
241782.3285314312
 30
0
 40
0.2500000001615917
 50
91.66662319058553
 51
271.6666231933158
  0
ARC
  8
1
 62
3
 10
5260.518124263736
 20
241782.9751083592
 30
0
 40
0.2499999998273926
 50
71.03117184197656
 51
251.0311718707536
  0
ARC
  8
1
 62
3
 10
5264.418768609527
 20
241794.3234550979
 30
0
 40
12.25000000067402
 50
271.6666231915415
 51
274.8429079038858
  0
ARC
  8
1
 62
3
 10
5264.418768609626
 20
241794.3234550968
 30
0
 40
11.74999999962018
 50
274.6091007263382
 51
275.160464458863
  0
ARC
  8
1
 62
3
 10
5264.418768610597
 20
241794.3234550859
 30
0
 40
12.24999998860547
 50
274.8429079036474
 51
275.3704270318329
  0
ARC
  8
1
 62
3
 10
5264.418768609586
 20
241794.3234550972
 30
0
 40
11.75000000011694
 50
251.0311718557697
 51
271.6666231913395
  0
ARC
  8
1
 62
3
 10
5264.418768609608
 20
241794.323455097
 30
0
 40
11.74999999982481
 50
271.6666231912575
 51
274.6091007263424
  0
ARC
  8
1
 62
3
 10
5244.367814560565
 20
241778.5332622911
 30
0
 40
21.38756733226369
 50
10.99249672066788
 51
15.64659543862413
  0
ARC
  8
1
 62
3
 10
5244.367814560565
 20
241778.5332622911
 30
0
 40
21.50000000003702
 50
10.96043630221475
 51
15.62280479977509
  0
ARC
  8
1
 62
3
 10
5264.259309358028
 20
241784.4401171838
 30
0
 40
0.2500000000671721
 50
97.66662318969974
 51
277.6666231879836
  0
ARC
  8
1
 62
3
 10
5259.965351833797
 20
241784.6389425161
 30
0
 40
0.2499999999146296
 50
77.03117185201784
 51
257.0311718435927
  0
ARC
  8
1
 62
3
 10
5262.658402796728
 20
241796.3328501823
 30
0
 40
11.74999999975911
 50
280.6091007261324
 51
281.1604644589079
  0
ARC
  8
1
 62
3
 10
5262.658402798817
 20
241796.3328501713
 30
0
 40
12.24999998842796
 50
280.8429079038459
 51
281.3704270321289
  0
ARC
  8
1
 62
3
 10
5262.658402796637
 20
241796.3328501827
 30
0
 40
11.75000000022999
 50
257.0311718557807
 51
277.6666231913604
  0
ARC
  8
1
 62
3
 10
5262.658402796656
 20
241796.3328501827
 30
0
 40
12.24999999995254
 50
257.0311718553681
 51
277.6666231911691
  0
ARC
  8
1
 62
3
 10
5262.658402796667
 20
241796.3328501826
 30
0
 40
11.7499999998821
 50
277.6666231912722
 51
280.6091007261632
  0
ARC
  8
1
 62
3
 10
5262.658402796477
 20
241796.3328501834
 30
0
 40
12.25000000084894
 50
277.6666231915638
 51
280.8429079039687
  0
ARC
  8
1
 62
3
 10
5244.367814560565
 20
241778.5332622911
 30
0
 40
21.38756733224957
 50
16.99249672042681
 51
21.64659543836641
  0
ARC
  8
1
 62
3
 10
5244.367814560565
 20
241778.5332622911
 30
0
 40
21.50000000009442
 50
16.96043630245807
 51
21.62280479989943
  0
ARC
  8
1
 62
3
 10
5260.697641471425
 20
241798.1472292582
 30
0
 40
12.24999999985714
 50
263.0311718554156
 51
283.6666231916004
  0
ARC
  8
1
 62
3
 10
5263.532907203578
 20
241786.4869861981
 30
0
 40
0.249999999681176
 50
103.6666232103516
 51
283.6666231880856
  0
ARC
  8
1
 62
3
 10
5260.697641471465
 20
241798.1472292582
 30
0
 40
11.74999999998901
 50
283.6666231910866
 51
286.6091007264687
  0
ARC
  8
1
 62
3
 10
5260.697641471418
 20
241798.1472292582
 30
0
 40
11.74999999985456
 50
263.0311718554409
 51
283.6666231913108
  0
ARC
  8
1
 62
3
 10
5259.241689521498
 20
241786.235881563
 30
0
 40
0.249999999986184
 50
83.0311718556588
 51
263.0311718556405
  0
ARC
  8
1
 62
3
 10
5260.697641471178
 20
241798.1472292593
 30
0
 40
12.2500000008896
 50
283.6666231915025
 51
286.8429079035503
  0
ARC
  8
1
 62
3
 10
5244.367814560565
 20
241778.5332622911
 30
0
 40
21.38756733232611
 50
22.99249672088617
 51
27.64659543827536
  0
ARC
  8
1
 62
3
 10
5260.697641471556
 20
241798.1472292579
 30
0
 40
11.74999999945987
 50
286.6091007264493
 51
287.1604644587199
  0
ARC
  8
1
 62
3
 10
5260.697641474747
 20
241798.1472292476
 30
0
 40
12.24999998881775
 50
286.8429079034298
 51
287.3704270319022
  0
ARC
  8
1
 62
3
 10
5244.367814560565
 20
241778.5332622911
 30
0
 40
21.50000000002428
 50
22.96043630187625
 51
27.62280479992273
  0
ARC
  8
1
 62
3
 10
5262.596528283578
 20
241788.4467125486
 30
0
 40
0.2500000001598854
 50
109.6666231783057
 51
289.6666232023239
  0
ARC
  8
1
 62
3
 10
5258.557967145395
 20
241799.7467136075
 30
0
 40
11.74999999975793
 50
289.6666231913903
 51
292.6091007261286
  0
ARC
  8
1
 62
3
 10
5258.557967145515
 20
241799.7467136068
 30
0
 40
11.74999999922335
 50
292.6091007269523
 51
293.1604644596832
  0
ARC
  8
1
 62
3
 10
5258.557967145326
 20
241799.7467136075
 30
0
 40
11.74999999996862
 50
269.0311718555466
 51
289.6666231917077
  0
ARC
  8
1
 62
3
 10
5258.557967145348
 20
241799.7467136075
 30
0
 40
12.24999999986606
 50
269.0311718554503
 51
289.6666231915546
  0
ARC
  8
1
 62
3
 10
5258.355065922576
 20
241787.7484291013
 30
0
 40
0.2499999999484763
 50
89.03117185652049
 51
269.0311718548532
  0
ARC
  8
1
 62
3
 10
5258.557967144988
 20
241799.7467136082
 30
0
 40
12.25000000060096
 50
289.6666231920414
 51
292.8429079038198
  0
ARC
  8
1
 62
3
 10
5244.367814560565
 20
241778.5332622911
 30
0
 40
21.38756733233874
 50
28.99249672082481
 51
33.64659543893199
  0
ARC
  8
1
 62
3
 10
5258.557967149757
 20
241799.7467135969
 30
0
 40
12.24999998861419
 50
292.8429079038184
 51
293.3704270324368
  0
ARC
  8
1
 62
3
 10
5244.367814560565
 20
241778.5332622911
 30
0
 40
21.50000000015208
 50
28.96043630240675
 51
33.62280479946723
  0
ARC
  8
1
 62
3
 10
5256.262822538039
 20
241801.1137789449
 30
0
 40
11.74999999999566
 50
275.0311718555495
 51
295.6666231911351
  0
ARC
  8
1
 62
3
 10
5256.262822538068
 20
241801.1137789447
 30
0
 40
12.24999999977073
 50
275.0311718554658
 51
295.6666231915156
  0
ARC
  8
1
 62
3
 10
5257.315195070695
 20
241789.1600133436
 30
0
 40
0.2499999999611337
 50
95.0311718549428
 51
275.0311718546035
  0
ARC
  8
1
 62
3
 10
5256.262822543536
 20
241801.1137789348
 30
0
 40
12.24999998843861
 50
298.842907904331
 51
299.3704270318956
  0
ARC
  8
1
 62
3
 10
5261.460431761417
 20
241790.2978250634
 30
0
 40
0.2500000001550174
 50
115.6666231701197
 51
295.6666232165784
  0
ARC
  8
1
 62
3
 10
5256.262822538126
 20
241801.1137789447
 30
0
 40
11.74999999986823
 50
295.6666231911817
 51
298.6091007264803
  0
ARC
  8
1
 62
3
 10
5256.262822537617
 20
241801.1137789456
 30
0
 40
12.25000000085742
 50
295.6666231915895
 51
298.8429079042182
  0
ARC
  8
1
 62
3
 10
5244.367814560565
 20
241778.5332622911
 30
0
 40
21.38756733239075
 50
34.99249672090956
 51
39.64659543858813
  0
ARC
  8
1
 62
3
 10
5256.262822538268
 20
241801.1137789444
 30
0
 40
11.74999999943255
 50
298.6091007266205
 51
299.16046445877
  0
ARC
  8
1
 62
3
 10
5244.367814560565
 20
241778.5332622911
 30
0
 40
21.50000000006639
 50
34.96043630197033
 51
39.6228047995463
  0
ARC
  8
1
 62
3
 10
5253.837353734157
 20
241802.2334474165
 30
0
 40
11.75000000012763
 50
281.0311718554087
 51
301.6666231910655
  0
ARC
  8
1
 62
3
 10
5253.837353734186
 20
241802.2334474165
 30
0
 40
12.25000000030866
 50
281.0311718550958
 51
301.6666231911248
  0
ARC
  8
1
 62
3
 10
5256.133470008538
 20
241790.4551686773
 30
0
 40
0.2500000000497533
 50
101.0311718521142
 51
281.0311718499221
  0
ARC
  8
1
 62
3
 10
5260.137064948368
 20
241792.0200425671
 30
0
 40
0.2499999999217367
 50
121.6666232023597
 51
301.6666231883531
  0
ARC
  8
1
 62
3
 10
5253.837353734266
 20
241802.2334474162
 30
0
 40
11.74999999976083
 50
301.6666231914321
 51
304.6091007265118
  0
ARC
  8
1
 62
3
 10
5253.837353733658
 20
241802.2334474172
 30
0
 40
12.25000000088931
 50
301.6666231915096
 51
304.8429079036926
  0
ARC
  8
1
 62
3
 10
5244.367814560565
 20
241778.5332622911
 30
0
 40
21.38756733235274
 50
40.99249672071461
 51
45.64659543876395
  0
ARC
  8
1
 62
3
 10
5253.837353734437
 20
241802.2334474161
 30
0
 40
11.74999999958941
 50
304.6091007260674
 51
305.1604644587899
  0
ARC
  8
1
 62
3
 10
5253.837353740658
 20
241802.2334474073
 30
0
 40
12.24999998881272
 50
304.8429079032662
 51
305.3704270311948
  0
ARC
  8
1
 62
3
 10
5244.367814560565
 20
241778.5332622911
 30
0
 40
21.50000000016385
 50
40.96043630219087
 51
45.62280479968995
  0
ARC
  8
1
 62
3
 10
5251.308134677495
 20
241803.0934517001
 30
0
 40
12.25000000010897
 50
287.0311718551912
 51
307.6666231910456
  0
ARC
  8
1
 62
3
 10
5258.640926928117
 20
241793.5944960835
 30
0
 40
0.2499999999304827
 50
127.6666231998054
 51
307.6666231649866
  0
ARC
  8
1
 62
3
 10
5251.308134677586
 20
241803.0934517001
 30
0
 40
11.74999999987092
 50
307.6666231910625
 51
310.6091007257044
  0
ARC
  8
1
 62
3
 10
5251.308134676888
 20
241803.0934517008
 30
0
 40
12.25000000098505
 50
307.6666231912154
 51
310.8429079042679
  0
ARC
  8
1
 62
3
 10
5251.308134677775
 20
241803.0934516999
 30
0
 40
11.74999999970457
 50
310.6091007255583
 51
311.1604644589556
  0
ARC
  8
1
 62
3
 10
5251.308134684888
 20
241803.0934516916
 30
0
 40
12.24999998855815
 50
310.842907904182
 51
311.3704270321032
  0
ARC
  8
1
 62
3
 10
5251.308134677466
 20
241803.0934517001
 30
0
 40
11.74999999980139
 50
287.031171855775
 51
307.666623191526
  0
ARC
  8
1
 62
3
 10
5254.822837963176
 20
241791.6197051099
 30
0
 40
0.2500000003113644
 50
107.0311718341154
 51
287.0311718552067
  0
ARC
  8
1
 62
3
 10
5244.367814560565
 20
241778.5332622911
 30
0
 40
21.38756733226302
 50
46.99249672042619
 51
51.64659543845716
  0
ARC
  8
1
 62
3
 10
5244.367814560565
 20
241778.5332622911
 30
0
 40
21.50000000022751
 50
46.96043630224816
 51
51.62280479932922
  0
ARC
  8
1
 62
3
 10
5248.702876021215
 20
241803.6843694091
 30
0
 40
11.74999999981143
 50
293.0311718558869
 51
313.6666231916972
  0
ARC
  8
1
 62
3
 10
5256.988409701938
 20
241795.0039355707
 30
0
 40
0.2499999999642215
 50
133.6666231950416
 51
313.6666231994141
  0
ARC
  8
1
 62
3
 10
5253.397658493558
 20
241792.6408637367
 30
0
 40
0.250000000139761
 50
113.0311718408961
 51
293.0311718502593
  0
ARC
  8
1
 62
3
 10
5248.702876021346
 20
241803.6843694091
 30
0
 40
11.74999999982643
 50
313.6666231912352
 51
316.6091007266269
  0
ARC
  8
1
 62
3
 10
5248.702876020568
 20
241803.6843694098
 30
0
 40
12.25000000081589
 50
313.6666231918582
 51
316.8429079038267
  0
ARC
  8
1
 62
3
 10
5248.702876021255
 20
241803.6843694091
 30
0
 40
12.24999999999779
 50
293.0311718552939
 51
313.6666231917876
  0
ARC
  8
1
 62
3
 10
5244.367814560565
 20
241778.5332622911
 30
0
 40
21.3875673324553
 50
52.99249672079304
 51
57.64659543836903
  0
ARC
  8
1
 62
3
 10
5248.702876021568
 20
241803.6843694088
 30
0
 40
11.74999999937928
 50
316.6091007270179
 51
317.1604644593899
  0
ARC
  8
1
 62
3
 10
5248.702876029495
 20
241803.6843694015
 30
0
 40
12.24999998870109
 50
316.842907903566
 51
317.3704270312415
  0
ARC
  8
1
 62
3
 10
5244.367814560565
 20
241778.5332622911
 30
0
 40
21.50000000018433
 50
52.96043630206482
 51
57.62280479955923
  0
ARC
  8
1
 62
3
 10
5246.050121524436
 20
241803.9997263252
 30
0
 40
11.74999999963624
 50
299.0311718564468
 51
319.6666231917716
  0
ARC
  8
1
 62
3
 10
5246.050121524578
 20
241803.9997263252
 30
0
 40
11.74999999980216
 50
319.6666231913239
 51
322.6091007253979
  0
ARC
  8
1
 62
3
 10
5246.050121524818
 20
241803.9997263252
 30
0
 40
11.74999999976597
 50
322.6091007246869
 51
323.1604644590851
  0
ARC
  8
1
 62
3
 10
5246.050121524476
 20
241803.9997263252
 30
0
 40
12.25000000001214
 50
299.0311718551973
 51
319.6666231918256
  0
ARC
  8
1
 62
3
 10
5255.197618594356
 20
241796.2329189148
 30
0
 40
0.2499999998582751
 50
139.6666232241396
 51
319.6666231679815
  0
ARC
  8
1
 62
3
 10
5251.873546164187
 20
241793.5074565297
 30
0
 40
0.250000000193248
 50
119.0311718280202
 51
299.0311718316652
  0
ARC
  8
1
 62
3
 10
5246.050121523726
 20
241803.9997263259
 30
0
 40
12.25000000088956
 50
319.6666231915001
 51
322.8429079040632
  0
ARC
  8
1
 62
3
 10
5244.367814560565
 20
241778.5332622911
 30
0
 40
21.38756733203088
 50
58.99249672002793
 51
63.64659543841835
  0
ARC
  8
1
 62
3
 10
5246.050121533465
 20
241803.9997263188
 30
0
 40
12.24999998880719
 50
322.8429079030218
 51
323.3704270313695
  0
ARC
  8
1
 62
3
 10
5244.367814560565
 20
241778.5332622911
 30
0
 40
21.50000000021002
 50
58.96043630205302
 51
63.62280479968742
  0
ARC
  8
1
 62
3
 10
5243.378935320506
 20
241804.0360673323
 30
0
 40
11.74999999976816
 50
305.0311718562973
 51
325.6666231920155
  0
ARC
  8
1
 62
3
 10
5243.378935320557
 20
241804.0360673323
 30
0
 40
12.24999999976066
 50
305.0311718559648
 51
325.6666231918533
  0
ARC
  8
1
 62
3
 10
5253.288173887496
 20
241797.267981117
 30
0
 40
0.2499999998955087
 50
145.6666232188048
 51
325.6666231638601
  0
ARC
  8
1
 62
3
 10
5243.378935320659
 20
241804.0360673323
 30
0
 40
11.74999999976725
 50
325.6666231915928
 51
328.6091007260177
  0
ARC
  8
1
 62
3
 10
5243.378935320917
 20
241804.0360673323
 30
0
 40
11.7499999996465
 50
328.6091007253639
 51
329.1604644591932
  0
ARC
  8
1
 62
3
 10
5250.267199468707
 20
241794.2099889171
 30
0
 40
0.2500000000919271
 50
125.0311718387641
 51
305.0311718671018
  0
ARC
  8
1
 62
3
 10
5243.378935319745
 20
241804.036067333
 30
0
 40
12.25000000094004
 50
325.6666231911832
 51
328.842907903968
  0
ARC
  8
1
 62
3
 10
5244.367814560565
 20
241778.5332622911
 30
0
 40
21.38756733215352
 50
64.99249672022459
 51
69.64659543856277
  0
ARC
  8
1
 62
3
 10
5243.378935330197
 20
241804.0360673266
 30
0
 40
12.24999998861527
 50
328.8429079043027
 51
329.3704270329328
  0
ARC
  8
1
 62
3
 10
5244.367814560565
 20
241778.5332622911
 30
0
 40
21.50000000020306
 50
64.96043630195615
 51
69.6228047994406
  0
ARC
  8
1
 62
3
 10
5240.718583484518
 20
241803.7929942709
 30
0
 40
12.24999999992795
 50
311.0311718554981
 51
331.6666231909713
  0
ARC
  8
1
 62
3
 10
5248.596217877638
 20
241794.7407638073
 30
0
 40
0.2499999999447393
 50
131.0311718635195
 51
311.0311718535281
  0
ARC
  8
1
 62
3
 10
5240.718583483666
 20
241803.7929942712
 30
0
 40
12.25000000089333
 50
331.6666231915431
 51
334.8429079047268
  0
ARC
  8
1
 62
3
 10
5240.718583494726
 20
241803.7929942659
 30
0
 40
12.24999998853196
 50
334.8429079051621
 51
335.3704270323099
  0
ARC
  8
1
 62
3
 10
5240.718583484467
 20
241803.7929942709
 30
0
 40
11.7499999999941
 50
311.0311718555567
 51
331.6666231914126
  0
ARC
  8
1
 62
3
 10
5251.280995857155
 20
241798.0977818191
 30
0
 40
0.2500000000871144
 50
151.6666231457725
 51
331.6666232209734
  0
ARC
  8
1
 62
3
 10
5240.718583484638
 20
241803.7929942705
 30
0
 40
11.74999999965995
 50
331.6666231926408
 51
334.6091007276079
  0
ARC
  8
1
 62
3
 10
5244.367814560565
 20
241778.5332622911
 30
0
 40
21.38756733244522
 50
70.99249672052284
 51
75.64659543820712
  0
ARC
  8
1
 62
3
 10
5240.718583484907
 20
241803.7929942705
 30
0
 40
11.74999999945358
 50
334.609100727045
 51
335.1604644587779
  0
ARC
  8
1
 62
3
 10
5244.367814560565
 20
241778.5332622911
 30
0
 40
21.50000000004102
 50
70.96043630173635
 51
75.62280479948521
  0
ARC
  8
1
 62
3
 10
5238.098213387809
 20
241803.2731702993
 30
0
 40
12.24999999981296
 50
317.0311718560542
 51
337.66662319283
  0
ARC
  8
1
 62
3
 10
5238.098213398446
 20
241803.2731702958
 30
0
 40
12.2499999887117
 50
340.8429079035207
 51
341.3704270325891
  0
ARC
  8
1
 62
3
 10
5238.098213387769
 20
241803.2731702993
 30
0
 40
11.74999999993444
 50
317.031171855752
 51
337.6666231925955
  0
ARC
  8
1
 62
3
 10
5249.198075565847
 20
241798.7132295515
 30
0
 40
0.2499999999590037
 50
157.6666232080305
 51
337.666623192135
  0
ARC
  8
1
 62
3
 10
5246.878909014976
 20
241795.0939659188
 30
0
 40
0.2499999998963227
 50
137.031171876779
 51
317.0311718557854
  0
ARC
  8
1
 62
3
 10
5238.098213387925
 20
241803.2731702993
 30
0
 40
11.74999999972046
 50
337.6666231923056
 51
340.609100727933
  0
ARC
  8
1
 62
3
 10
5238.098213386918
 20
241803.2731703
 30
0
 40
12.25000000089612
 50
337.6666231913906
 51
340.8429079026979
  0
ARC
  8
1
 62
3
 10
5244.367814560565
 20
241778.5332622911
 30
0
 40
21.38756733253053
 50
76.99249672052726
 51
81.64659543826105
  0
ARC
  8
1
 62
3
 10
5238.098213388216
 20
241803.2731702993
 30
0
 40
11.74999999943052
 50
340.6091007274619
 51
341.1604644598338
  0
ARC
  8
1
 62
3
 10
5244.367814560565
 20
241778.5332622911
 30
0
 40
21.5000000002618
 50
76.96043630184445
 51
81.62280479946085
  0
ARC
  8
1
 62
3
 10
5235.546534352626
 20
241802.4822907191
 30
0
 40
12.2500000008346
 50
343.6666231924357
 51
346.8429079044998
  0
ARC
  8
1
 62
3
 10
5235.546534364507
 20
241802.4822907163
 30
0
 40
12.24999998864264
 50
346.8429079047077
 51
347.3704270335217
  0
ARC
  8
1
 62
3
 10
5235.546534353495
 20
241802.4822907191
 30
0
 40
11.75000000006388
 50
323.0311718550657
 51
343.6666231902143
  0
ARC
  8
1
 62
3
 10
5235.546534353546
 20
241802.4822907191
 30
0
 40
12.25000000006471
 50
323.0311718546458
 51
343.666623191225
  0
ARC
  8
1
 62
3
 10
5247.062233924166
 20
241799.1075813393
 30
0
 40
0.2499999999544277
 50
163.6666232151823
 51
343.6666232180547
  0
ARC
  8
1
 62
3
 10
5245.134088075988
 20
241795.2657254961
 30
0
 40
0.2499999999172625
 50
143.031171872176
 51
323.0311718243999
  0
ARC
  8
1
 62
3
 10
5235.546534353666
 20
241802.4822907191
 30
0
 40
11.74999999988451
 50
343.6666231899799
 51
346.60910072603
  0
ARC
  8
1
 62
3
 10
5244.367814560565
 20
241778.5332622911
 30
0
 40
21.38756733245999
 50
82.99249672044525
 51
87.64659543819093
  0
ARC
  8
1
 62
3
 10
5235.546534353957
 20
241802.4822907187
 30
0
 40
11.74999999944498
 50
346.6091007276342
 51
347.1604644601969
  0
ARC
  8
1
 62
3
 10
5244.367814560565
 20
241778.5332622911
 30
0
 40
21.50000000023087
 50
82.96043630176679
 51
87.62280479936243
  0
ARC
  8
1
 62
3
 10
5233.091503111328
 20
241801.4290205714
 30
0
 40
11.74999999979312
 50
349.6666231917073
 51
352.6091007262521
  0
ARC
  8
1
 62
3
 10
5233.091503122366
 20
241801.42902057
 30
0
 40
12.24999998869986
 50
352.8429079036802
 51
353.3704270319055
  0
ARC
  8
1
 62
3
 10
5233.091503111146
 20
241801.4290205714
 30
0
 40
11.75000000009113
 50
329.0311718547059
 51
349.6666231918663
  0
ARC
  8
1
 62
3
 10
5233.091503111197
 20
241801.4290205714
 30
0
 40
12.25000000000467
 50
329.0311718549758
 51
349.6666231909714
  0
ARC
  8
1
 62
3
 10
5244.896871660097
 20
241799.2765165824
 30
0
 40
0.2499999999942885
 50
169.666623170014
 51
349.6666231719582
  0
ARC
  8
1
 62
3
 10
5243.380871684017
 20
241795.2541607049
 30
0
 40
0.2499999998790805
 50
149.03117189342
 51
329.0311718352274
  0
ARC
  8
1
 62
3
 10
5233.091503110266
 20
241801.4290205714
 30
0
 40
12.25000000087328
 50
349.6666231917528
 51
352.8429079042481
  0
ARC
  8
1
 62
3
 10
5244.367814560565
 20
241778.5332622911
 30
0
 40
21.3875673324382
 50
88.99249672035525
 51
93.64659543818739
  0
ARC
  8
1
 62
3
 10
5233.091503111627
 20
241801.4290205714
 30
0
 40
11.74999999951763
 50
352.6091007260643
 51
353.1604644577389
  0
ARC
  8
1
 62
3
 10
5244.367814560565
 20
241778.5332622911
 30
0
 40
21.50000000002762
 50
88.96043630170095
 51
93.62280479929228
  0
ARC
  8
1
 62
3
 10
5230.760017496806
 20
241800.1248997047
 30
0
 40
12.24999999994118
 50
335.0311718555635
 51
355.6666231907985
  0
ARC
  8
1
 62
3
 10
5230.760017496937
 20
241800.1248997047
 30
0
 40
11.74999999981061
 50
355.6666231914166
 51
358.6091007265288
  0
ARC
  8
1
 62
3
 10
5230.760017495867
 20
241800.1248997049
 30
0
 40
12.25000000091136
 50
355.6666231901801
 51
358.8429079027111
  0
ARC
  8
1
 62
3
 10
5230.760017497246
 20
241800.1248997047
 30
0
 40
11.74999999950177
 50
358.6091007264922
 51
359.160464458845
  0
ARC
  8
1
 62
3
 10
5230.760017508047
 20
241800.1248997044
 30
0
 40
12.24999998870306
 50
358.8429079040104
 51
359.3704270330154
  0
ARC
  8
1
 62
3
 10
5230.760017496758
 20
241800.1248997047
 30
0
 40
11.75000000000452
 50
335.0311718554399
 51
355.6666231914822
  0
ARC
  8
1
 62
3
 10
5242.725712935727
 20
241799.2181843905
 30
0
 40
0.2499999999760062
 50
175.6666231879387
 51
355.6666231623426
  0
ARC
  8
1
 62
3
 10
5241.638468444736
 20
241795.0593982514
 30
0
 40
0.2500000000330536
 50
155.0311718285866
 51
335.0311718929251
  0
ARC
  8
1
 62
3
 10
5244.367814560565
 20
241778.5332622911
 30
0
 40
21.38756733239411
 50
94.99249672032613
 51
99.64659543803242
  0
ARC
  8
1
 62
3
 10
5244.367814560565
 20
241778.5332622911
 30
0
 40
21.50000000012346
 50
94.96043630167897
 51
99.62280479933989
  0
ARC
  8
1
 62
3
 10
5228.577621754618
 20
241798.5842163405
 30
0
 40
11.75000000006307
 50
341.0311718544601
 51
1.666623190174203
  0
ARC
  8
1
 62
3
 10
5239.925968492647
 20
241794.6835719945
 30
0
 40
0.2499999999569486
 50
161.0311718742233
 51
341.0311718068692
  0
ARC
  8
1
 62
3
 10
5228.577621753738
 20
241798.5842163402
 30
0
 40
12.25000000088275
 50
1.666623191747214
 51
4.842907904667202
  0
ARC
  8
1
 62
3
 10
5228.577621755106
 20
241798.5842163405
 30
0
 40
11.749999999498
 50
4.609100726012533
 51
5.160464458755255
  0
ARC
  8
1
 62
3
 10
5228.577621765867
 20
241798.5842163413
 30
0
 40
12.24999998872202
 50
4.842907904437945
 51
5.370427031160037
  0
ARC
  8
1
 62
3
 10
5228.577621754676
 20
241798.5842163405
 30
0
 40
12.25000000005178
 50
341.0311718538037
 51
1.666623190514222
  0
ARC
  8
1
 62
3
 10
5240.572545420396
 20
241798.9332238633
 30
0
 40
0.2499999999635464
 50
181.6666231285133
 51
1.666623268108016
  0
ARC
  8
1
 62
3
 10
5228.577621754807
 20
241798.5842163405
 30
0
 40
11.74999999979758
 50
1.666623190201032
 51
4.609100725895641
  0
ARC
  8
1
 62
3
 10
5244.367814560565
 20
241778.5332622911
 30
0
 40
21.38756733249435
 50
100.9924967202202
 51
105.6465954381188
  0
ARC
  8
1
 62
3
 10
5244.367814560565
 20
241778.5332622911
 30
0
 40
21.50000000030256
 50
100.9604363015346
 51
105.6228047993661
  0
ARC
  8
1
 62
3
 10
5226.568226669176
 20
241796.8238505271
 30
0
 40
11.74999999993123
 50
347.0311718568105
 51
7.666623191665063
  0
ARC
  8
1
 62
3
 10
5238.460959667987
 20
241798.4247570887
 30
0
 40
0.2500000000029666
 50
187.6666232303796
 51
7.666623182882657
  0
ARC
  8
1
 62
3
 10
5226.568226668295
 20
241796.8238505271
 30
0
 40
12.25000000089033
 50
7.666623191726576
 51
10.84290790399817
  0
ARC
  8
1
 62
3
 10
5226.568226669227
 20
241796.8238505271
 30
0
 40
12.24999999989563
 50
347.0311718562018
 51
7.666623192308273
  0
ARC
  8
1
 62
3
 10
5238.262134335596
 20
241794.1307995647
 30
0
 40
0.2499999999324429
 50
167.0311718974486
 51
347.0311717890074
  0
ARC
  8
1
 62
3
 10
5226.568226669347
 20
241796.8238505271
 30
0
 40
11.74999999982994
 50
7.666623191776294
 51
10.60910072745323
  0
ARC
  8
1
 62
3
 10
5244.367814560565
 20
241778.5332622911
 30
0
 40
21.38756733233501
 50
106.9924967202753
 51
111.6465954381277
  0
ARC
  8
1
 62
3
 10
5226.568226669649
 20
241796.8238505271
 30
0
 40
11.74999999955658
 50
10.60910072772512
 51
11.16046446060757
  0
ARC
  8
1
 62
3
 10
5226.568226680257
 20
241796.8238505296
 30
0
 40
12.24999998867216
 50
10.84290790302507
 51
11.37042703057366
  0
ARC
  8
1
 62
3
 10
5244.367814560565
 20
241778.5332622911
 30
0
 40
21.50000000017201
 50
106.960436301574
 51
111.6228047990674
  0
ARC
  8
1
 62
3
 10
5224.753847593517
 20
241794.8630892022
 30
0
 40
12.24999999995263
 50
353.0311718551273
 51
13.66662319065171
  0
ARC
  8
1
 62
3
 10
5236.414090653848
 20
241797.6983549341
 30
0
 40
0.2499999999847756
 50
193.6666232000827
 51
13.66662320989329
  0
ARC
  8
1
 62
3
 10
5224.753847593637
 20
241794.8630892022
 30
0
 40
11.74999999975285
 50
13.66662319017997
 51
16.60910072673129
  0
ARC
  8
1
 62
3
 10
5224.753847592608
 20
241794.8630892019
 30
0
 40
12.25000000086188
 50
13.66662319096934
 51
16.84290790317951
  0
ARC
  8
1
 62
3
 10
5224.753847593928
 20
241794.8630892022
 30
0
 40
11.74999999955982
 50
16.60910072713695
 51
17.16046445802544
  0
ARC
  8
1
 62
3
 10
5224.753847593466
 20
241794.8630892022
 30
0
 40
11.74999999999832
 50
353.0311718551155
 51
13.66662318998298
  0
ARC
  8
1
 62
3
 10
5236.665195288787
 20
241793.4071372522
 30
0
 40
0.2499999999843385
 50
173.0311718522472
 51
353.0311718599808
  0
ARC
  8
1
 62
3
 10
5244.367814560565
 20
241778.5332622911
 30
0
 40
21.38756733248689
 50
112.9924967200549
 51
117.646595437981
  0
ARC
  8
1
 62
3
 10
5224.753847604256
 20
241794.8630892054
 30
0
 40
12.24999998868598
 50
16.8429079033319
 51
17.37042703262483
  0
ARC
  8
1
 62
3
 10
5244.367814560565
 20
241778.5332622911
 30
0
 40
21.4999999999289
 50
112.9604363017734
 51
117.6228047992008
  0
ARC
  8
1
 62
3
 10
5223.154363244338
 20
241792.7234148762
 30
0
 40
11.749999999995
 50
359.0311718542358
 51
19.66662319001782
  0
ARC
  8
1
 62
3
 10
5223.154363244385
 20
241792.7234148762
 30
0
 40
12.24999999994034
 50
359.031171855286
 51
19.66662319075566
  0
ARC
  8
1
 62
3
 10
5223.154363244506
 20
241792.7234148762
 30
0
 40
11.74999999973842
 50
19.66662319029394
 51
22.60910072557752
  0
ARC
  8
1
 62
3
 10
5223.154363243516
 20
241792.7234148755
 30
0
 40
12.25000000095387
 50
19.66662319246343
 51
22.84290790466829
  0
ARC
  8
1
 62
3
 10
5234.454364303266
 20
241796.7619760142
 30
0
 40
0.2499999999849362
 50
199.6666232023751
 51
19.6666232101669
  0
ARC
  8
1
 62
3
 10
5235.152647750597
 20
241792.5205136531
 30
0
 40
0.2499999999829358
 50
179.0311718333053
 51
359.0311719268039
  0
ARC
  8
1
 62
3
 10
5244.367814560565
 20
241778.5332622911
 30
0
 40
21.38756733231636
 50
118.9924967202341
 51
123.6465954380222
  0
ARC
  8
1
 62
3
 10
5223.154363244778
 20
241792.7234148762
 30
0
 40
11.7499999994884
 50
22.6091007260873
 51
23.16046445785093
  0
ARC
  8
1
 62
3
 10
5223.154363254728
 20
241792.7234148805
 30
0
 40
12.24999998869094
 50
22.84290790357485
 51
23.37042703152234
  0
ARC
  8
1
 62
3
 10
5244.367814560565
 20
241778.5332622911
 30
0
 40
21.49999999993266
 50
118.9604363018107
 51
123.622804798818
  0
ARC
  8
1
 62
3
 10
5233.741063508375
 20
241791.4806428012
 30
0
 40
0.2499999999746969
 50
185.0311718237006
 51
5.031171909419805
  0
ARC
  8
1
 62
3
 10
5221.787297907186
 20
241790.428270269
 30
0
 40
11.74999999980789
 50
25.66662319122467
 51
28.60910072559015
  0
ARC
  8
1
 62
3
 10
5221.787297906248
 20
241790.4282702683
 30
0
 40
12.25000000092374
 50
25.66662319195017
 51
28.84290790367597
  0
ARC
  8
1
 62
3
 10
5221.787297907026
 20
241790.4282702687
 30
0
 40
11.74999999999171
 50
5.031171855533403
 51
25.66662319229365
  0
ARC
  8
1
 62
3
 10
5221.787297907077
 20
241790.4282702687
 30
0
 40
12.24999999995617
 50
5.031171856004367
 51
25.66662319203552
  0
ARC
  8
1
 62
3
 10
5232.603251788237
 20
241795.6258794922
 30
0
 40
0.2499999999432843
 50
205.6666231730879
 51
25.66662319379533
  0
ARC
  8
1
 62
3
 10
5244.367814560565
 20
241778.5332622911
 30
0
 40
21.38756733236914
 50
124.9924967201173
 51
129.6465954378334
  0
ARC
  8
1
 62
3
 10
5221.787297907456
 20
241790.428270269
 30
0
 40
11.74999999948213
 50
28.60910072622086
 51
29.16046445834918
  0
ARC
  8
1
 62
3
 10
5221.787297916896
 20
241790.428270274
 30
0
 40
12.24999998879744
 50
28.84290790445082
 51
29.37042703361455
  0
ARC
  8
1
 62
3
 10
5244.367814560565
 20
241778.5332622911
 30
0
 40
21.50000000005604
 50
124.9604363015756
 51
129.6228047991185
  0
ARC
  8
1
 62
3
 10
5220.667629435448
 20
241788.0028014648
 30
0
 40
11.7500000000148
 50
11.03117185604002
 51
31.66662319057715
  0
ARC
  8
1
 62
3
 10
5220.667629435498
 20
241788.0028014648
 30
0
 40
12.24999999998244
 50
11.03117185645076
 51
31.66662319166552
  0
ARC
  8
1
 62
3
 10
5232.445908174467
 20
241790.2989177393
 30
0
 40
0.2499999999861757
 50
191.0311718558042
 51
11.03117187416852
  0
ARC
  8
1
 62
3
 10
5220.667629435607
 20
241788.0028014648
 30
0
 40
11.74999999976407
 50
31.66662319098459
 51
34.60910072721754
  0
ARC
  8
1
 62
3
 10
5220.667629434715
 20
241788.0028014644
 30
0
 40
12.25000000087021
 50
31.66662319136475
 51
34.84290790381471
  0
ARC
  8
1
 62
3
 10
5220.667629435858
 20
241788.0028014648
 30
0
 40
11.74999999971355
 50
34.60910072791276
 51
35.16046446010601
  0
ARC
  8
1
 62
3
 10
5230.881034284818
 20
241794.3025126791
 30
0
 40
0.2500000001261792
 50
211.6666232449709
 51
31.66662318338574
  0
ARC
  8
1
 62
3
 10
5244.367814560565
 20
241778.5332622911
 30
0
 40
21.38756733240021
 50
130.9924967199843
 51
135.646595438219
  0
ARC
  8
1
 62
3
 10
5220.667629444698
 20
241788.0028014715
 30
0
 40
12.24999998863899
 50
34.84290790323068
 51
35.37042703124028
  0
ARC
  8
1
 62
3
 10
5244.367814560565
 20
241778.5332622911
 30
0
 40
21.50000000010333
 50
130.9604363014579
 51
135.6228047994415
  0
ARC
  8
1
 62
3
 10
5219.807625151686
 20
241785.4735824082
 30
0
 40
11.7499999999435
 50
17.03117185469074
 51
37.66662319124066
  0
ARC
  8
1
 62
3
 10
5231.281371741748
 20
241788.9882856938
 30
0
 40
0.2500000000110451
 50
197.0311718741653
 51
17.03117187227275
  0
ARC
  8
1
 62
3
 10
5219.807625160206
 20
241785.4735824153
 30
0
 40
12.24999998878066
 50
40.84290790413702
 51
41.37042703217201
  0
ARC
  8
1
 62
3
 10
5219.807625151737
 20
241785.4735824082
 30
0
 40
12.24999999994385
 50
17.03117185551677
 51
37.66662319086644
  0
ARC
  8
1
 62
3
 10
5229.306580768395
 20
241792.806374659
 30
0
 40
0.2500000000994196
 50
217.6666232257415
 51
37.66662313127014
  0
ARC
  8
1
 62
3
 10
5219.807625151828
 20
241785.4735824082
 30
0
 40
11.74999999986608
 50
37.66662319166343
 51
40.60910072638854
  0
ARC
  8
1
 62
3
 10
5219.807625151017
 20
241785.4735824075
 30
0
 40
12.25000000085751
 50
37.66662319139639
 51
40.84290790362892
  0
ARC
  8
1
 62
3
 10
5244.367814560565
 20
241778.5332622911
 30
0
 40
21.3875673322829
 50
136.9924967202227
 51
141.6465954379389
  0
ARC
  8
1
 62
3
 10
5219.807625152057
 20
241785.4735824085
 30
0
 40
11.74999999943104
 50
40.60910072593085
 51
41.16046445815811
  0
ARC
  8
1
 62
3
 10
5244.367814560565
 20
241778.5332622911
 30
0
 40
21.49999999998993
 50
136.9604363016868
 51
141.6228047991041
  0
ARC
  8
1
 62
3
 10
5227.897141281165
 20
241791.1538574327
 30
0
 40
0.2499999999773795
 50
223.6666231921631
 51
43.66662315320735
  0
ARC
  8
1
 62
3
 10
5219.216707442766
 20
241782.8683237521
 30
0
 40
11.74999999982846
 50
43.6666231913484
 51
46.60910072586621
  0
ARC
  8
1
 62
3
 10
5219.216707442977
 20
241782.8683237523
 30
0
 40
11.7499999994097
 50
46.60910072593144
 51
47.16046445836303
  0
ARC
  8
1
 62
3
 10
5219.216707450326
 20
241782.8683237601
 30
0
 40
12.24999998873576
 50
46.84290790374138
 51
47.37042703199222
  0
ARC
  8
1
 62
3
 10
5219.216707442646
 20
241782.868323752
 30
0
 40
11.74999999996894
 50
23.0311718552905
 51
43.66662319135483
  0
ARC
  8
1
 62
3
 10
5219.216707442675
 20
241782.8683237521
 30
0
 40
12.24999999987398
 50
23.03117185467104
 51
43.66662319029292
  0
ARC
  8
1
 62
3
 10
5230.260213115066
 20
241787.5631062241
 30
0
 40
0.2499999999103183
 50
203.0311718152338
 51
23.03117188693799
  0
ARC
  8
1
 62
3
 10
5219.216707442028
 20
241782.8683237513
 30
0
 40
12.25000000076312
 50
43.6666231909588
 51
46.84290790364052
  0
ARC
  8
1
 62
3
 10
5244.367814560565
 20
241778.5332622911
 30
0
 40
21.38756733227611
 50
142.9924967202115
 51
147.6465954378879
  0
ARC
  8
1
 62
3
 10
5244.367814560565
 20
241778.5332622911
 30
0
 40
21.50000000002188
 50
142.9604363015924
 51
147.6228047990471
  0
ARC
  8
1
 62
3
 10
5218.901350526386
 20
241780.2155692551
 30
0
 40
11.74999999999673
 50
29.03117185559294
 51
49.66662319096744
  0
ARC
  8
1
 62
3
 10
5226.668157937095
 20
241789.3630663249
 30
0
 40
0.2499999999839073
 50
229.6666231928048
 51
49.66662320003596
  0
ARC
  8
1
 62
3
 10
5218.901350526498
 20
241780.2155692551
 30
0
 40
11.74999999983418
 50
49.66662319138664
 51
52.60910072707058
  0
ARC
  8
1
 62
3
 10
5218.901350525836
 20
241780.2155692544
 30
0
 40
12.25000000085074
 50
49.66662319134593
 51
52.84290790386684
  0
ARC
  8
1
 62
3
 10
5218.901350526677
 20
241780.2155692554
 30
0
 40
11.74999999962958
 50
52.60910072681323
 51
53.16046445882951
  0
ARC
  8
1
 62
3
 10
5218.901350526426
 20
241780.2155692551
 30
0
 40
12.25000000000289
 50
29.03117185596083
 51
49.66662319133269
  0
ARC
  8
1
 62
3
 10
5229.393620322028
 20
241786.0389938947
 30
0
 40
0.2499999999137565
 50
209.0311718225682
 51
29.0311719021938
  0
ARC
  8
1
 62
3
 10
5244.367814560565
 20
241778.5332622911
 30
0
 40
21.38756733234162
 50
148.9924967198915
 51
153.6465954379489
  0
ARC
  8
1
 62
3
 10
5218.901350533167
 20
241780.2155692643
 30
0
 40
12.24999998856184
 50
52.8429079031556
 51
53.37042703135447
  0
ARC
  8
1
 62
3
 10
5244.367814560565
 20
241778.5332622911
 30
0
 40
21.50000000001622
 50
148.9604363015951
 51
153.6228047989476
  0
ARC
  8
1
 62
3
 10
5218.865009519318
 20
241777.5443830511
 30
0
 40
12.25000000007335
 50
35.03117185633187
 51
55.66662319186567
  0
ARC
  8
1
 62
3
 10
5228.691087934606
 20
241784.4326471993
 30
0
 40
0.2500000001117024
 50
215.0311718989715
 51
35.03117188920238
  0
ARC
  8
1
 62
3
 10
5218.865009519387
 20
241777.5443830515
 30
0
 40
11.74999999953852
 50
55.66662319046579
 51
58.60910072585931
  0
ARC
  8
1
 62
3
 10
5218.865009518816
 20
241777.5443830504
 30
0
 40
12.25000000095579
 50
55.66662319176925
 51
58.84290790375499
  0
ARC
  8
1
 62
3
 10
5218.865009525088
 20
241777.5443830607
 30
0
 40
12.2499999888127
 50
58.84290790392647
 51
59.37042703234681
  0
ARC
  8
1
 62
3
 10
5218.865009519285
 20
241777.5443830511
 30
0
 40
11.74999999986666
 50
35.03117185463363
 51
55.66662319117622
  0
ARC
  8
1
 62
3
 10
5225.633095734876
 20
241787.4536216182
 30
0
 40
0.2500000001093251
 50
235.666623210625
 51
55.66662319931428
  0
ARC
  8
1
 62
3
 10
5244.367814560565
 20
241778.5332622911
 30
0
 40
21.38756733227923
 50
154.9924967201021
 51
159.6465954378562
  0
ARC
  8
1
 62
3
 10
5218.865009519536
 20
241777.5443830515
 30
0
 40
11.7499999995537
 50
58.60910072648017
 51
59.16046445874606
  0
ARC
  8
1
 62
3
 10
5244.367814560565
 20
241778.5332622911
 30
0
 40
21.50000000000024
 50
154.960436301693
 51
159.6228047988475
  0
ARC
  8
1
 62
3
 10
5219.108082581056
 20
241774.8840312152
 30
0
 40
12.24999999992186
 50
41.03117185538753
 51
61.66662319184179
  0
ARC
  8
1
 62
3
 10
5219.108082581107
 20
241774.8840312155
 30
0
 40
11.74999999963872
 50
61.6666231908517
 51
64.60910072584903
  0
ARC
  8
1
 62
3
 10
5219.108082581238
 20
241774.8840312155
 30
0
 40
11.74999999953397
 50
64.60910072642596
 51
65.16046445889808
  0
ARC
  8
1
 62
3
 10
5219.108082581027
 20
241774.8840312152
 30
0
 40
11.75000000008247
 50
41.03117185605178
 51
61.66662319124909
  0
ARC
  8
1
 62
3
 10
5224.803295032619
 20
241785.4464435878
 30
0
 40
0.2499999999561752
 50
241.6666231873735
 51
61.66662321829602
  0
ARC
  8
1
 62
3
 10
5228.160313044677
 20
241782.7616656082
 30
0
 40
0.2499999997996228
 50
221.0311718062511
 51
41.0311718689254
  0
ARC
  8
1
 62
3
 10
5219.108082580638
 20
241774.8840312141
 30
0
 40
12.2500000012609
 50
61.66662319251354
 51
64.84290790429211
  0
ARC
  8
1
 62
3
 10
5244.367814560565
 20
241778.5332622911
 30
0
 40
21.38756733226029
 50
160.9924967201357
 51
165.6465954377179
  0
ARC
  8
1
 62
3
 10
5219.108082585785
 20
241774.8840312255
 30
0
 40
12.24999998861088
 50
64.84290790345557
 51
65.37042703183555
  0
ARC
  8
1
 62
3
 10
5244.367814560565
 20
241778.5332622911
 30
0
 40
21.50000000001649
 50
160.9604363015394
 51
165.6228047988897
  0
ARC
  8
1
 62
3
 10
5219.627906552279
 20
241772.2636611185
 30
0
 40
11.7500000000403
 50
47.0311718557964
 51
67.66662319136273
  0
ARC
  8
1
 62
3
 10
5227.807110932986
 20
241781.0443567456
 30
0
 40
0.2499999998581788
 50
227.0311718298947
 51
47.03117183410664
  0
ARC
  8
1
 62
3
 10
5219.627906552337
 20
241772.2636611188
 30
0
 40
11.7499999996783
 50
67.66662319103207
 51
70.60910072580035
  0
ARC
  8
1
 62
3
 10
5219.627906551977
 20
241772.2636611178
 30
0
 40
12.25000000054777
 50
67.66662319092353
 51
70.84290790364372
  0
ARC
  8
1
 62
3
 10
5219.627906552439
 20
241772.2636611188
 30
0
 40
11.74999999943949
 50
70.60910072626888
 51
71.1604644589448
  0
ARC
  8
1
 62
3
 10
5219.627906555927
 20
241772.2636611291
 30
0
 40
12.24999998875833
 50
70.84290790372246
 51
71.37042703192344
  0
ARC
  8
1
 62
3
 10
5219.627906552286
 20
241772.2636611185
 30
0
 40
12.24999999981413
 50
47.03117185485004
 51
67.66662319101992
  0
ARC
  8
1
 62
3
 10
5224.187847300435
 20
241783.3635232966
 30
0
 40
0.2500000000001122
 50
247.6666231938734
 51
67.66662317051166
  0
ARC
  8
1
 62
3
 10
5244.367814560565
 20
241778.5332622911
 30
0
 40
21.38756733222971
 50
166.9924967204111
 51
171.6465954384463
  0
ARC
  8
1
 62
3
 10
5244.367814560565
 20
241778.5332622911
 30
0
 40
21.50000000001513
 50
166.9604363015031
 51
171.6228047993911
  0
ARC
  8
1
 62
3
 10
5220.418786132816
 20
241769.7119820842
 30
0
 40
11.74999999986307
 50
53.03117185503917
 51
73.66662319127008
  0
ARC
  8
1
 62
3
 10
5220.418786132827
 20
241769.7119820842
 30
0
 40
12.24999999992113
 50
53.03117185531166
 51
73.66662319138796
  0
ARC
  8
1
 62
3
 10
5220.418786132605
 20
241769.7119820832
 30
0
 40
12.25000000100666
 50
73.66662319173177
 51
76.8429079036965
  0
ARC
  8
1
 62
3
 10
5220.418786135339
 20
241769.7119820952
 30
0
 40
12.24999998844912
 50
76.84290790334713
 51
77.37042703171916
  0
ARC
  8
1
 62
3
 10
5223.793495512487
 20
241781.2276816549
 30
0
 40
0.2500000000806606
 50
253.6666231965097
 51
73.66662318940648
  0
ARC
  8
1
 62
3
 10
5227.635351355798
 20
241779.2995358068
 30
0
 40
0.2500000001747016
 50
233.0311718894535
 51
53.03117183197776
  0
ARC
  8
1
 62
3
 10
5220.418786132856
 20
241769.7119820844
 30
0
 40
11.74999999971394
 50
73.66662319117795
 51
76.60910072612292
  0
ARC
  8
1
 62
3
 10
5244.367814560565
 20
241778.5332622911
 30
0
 40
21.3875673322334
 50
172.992496720351
 51
177.6465954381035
  0
ARC
  8
1
 62
3
 10
5220.418786132937
 20
241769.7119820846
 30
0
 40
11.7499999994028
 50
76.60910072627682
 51
77.16046445890554
  0
ARC
  8
1
 62
3
 10
5244.367814560565
 20
241778.5332622911
 30
0
 40
21.50000000000822
 50
172.9604363014298
 51
177.6228047989657
  0
ARC
  8
1
 62
3
 10
5221.472056280468
 20
241767.2569508418
 30
0
 40
11.74999999997195
 50
59.03117185543291
 51
79.66662319123155
  0
ARC
  8
1
 62
3
 10
5221.472056280537
 20
241767.2569508425
 30
0
 40
11.74999999912455
 50
82.60910072611979
 51
83.16046445861601
  0
ARC
  8
1
 62
3
 10
5221.472056280479
 20
241767.2569508418
 30
0
 40
12.2499999999404
 50
59.03117185541061
 51
79.6666231914205
  0
ARC
  8
1
 62
3
 10
5223.624560269475
 20
241779.0623193909
 30
0
 40
0.2500000002115764
 50
259.6666232036718
 51
79.66662318558929
  0
ARC
  8
1
 62
3
 10
5227.646916146968
 20
241777.5463194148
 30
0
 40
0.2500000001043189
 50
239.031171873835
 51
59.03117183379327
  0
ARC
  8
1
 62
3
 10
5221.472056280497
 20
241767.2569508418
 30
0
 40
11.74999999990184
 50
79.66662319137116
 51
82.6091007263644
  0
ARC
  8
1
 62
3
 10
5221.472056280348
 20
241767.2569508411
 30
0
 40
12.25000000072787
 50
79.6666231914039
 51
82.84290790364804
  0
ARC
  8
1
 62
3
 10
5244.367814560565
 20
241778.5332622911
 30
0
 40
21.38756733222997
 50
178.9924967204819
 51
183.6465954375456
  0
ARC
  8
1
 62
3
 10
5221.472056281828
 20
241767.256950853
 30
0
 40
12.24999998862181
 50
82.84290790358287
 51
83.37042703189137
  0
ARC
  8
1
 62
3
 10
5244.367814560565
 20
241778.5332622911
 30
0
 40
21.49999999999264
 50
178.960436302029
 51
183.6228047989632
  0
ARC
  8
1
 62
3
 10
5222.776177147086
 20
241764.9254652275
 30
0
 40
11.74999999992935
 50
65.03117185538662
 51
85.66662319135951
  0
ARC
  8
1
 62
3
 10
5222.776177147086
 20
241764.9254652275
 30
0
 40
12.24999999986112
 50
65.03117185523898
 51
85.6666231912898
  0
ARC
  8
1
 62
3
 10
5223.682892461296
 20
241776.8911606664
 30
0
 40
0.2499999998334997
 50
265.6666231885994
 51
85.66662319070372
  0
ARC
  8
1
 62
3
 10
5222.776177147057
 20
241764.9254652264
 30
0
 40
12.25000000095857
 50
85.6666231915449
 51
88.84290790384021
  0
ARC
  8
1
 62
3
 10
5227.841678600237
 20
241775.8039161752
 30
0
 40
0.2499999997928564
 50
245.0311718342238
 51
65.03117186931519
  0
ARC
  8
1
 62
3
 10
5222.776177147086
 20
241764.9254652275
 30
0
 40
11.75000000004135
 50
85.66662319135951
 51
88.60910072636041
  0
ARC
  8
1
 62
3
 10
5244.367814560565
 20
241778.5332622911
 30
0
 40
21.38756733221216
 50
184.9924967196741
 51
189.6465954386711
  0
ARC
  8
1
 62
3
 10
5222.776177147097
 20
241764.9254652279
 30
0
 40
11.74999999965887
 50
88.60910072636882
 51
89.16046445887709
  0
ARC
  8
1
 62
3
 10
5222.776177147268
 20
241764.9254652388
 30
0
 40
12.2499999887337
 50
88.8429079036559
 51
89.37042703185443
  0
ARC
  8
1
 62
3
 10
5244.367814560565
 20
241778.5332622911
 30
0
 40
21.49999999999551
 50
184.9604363015626
 51
189.6228047993049
  0
ARC
  8
1
 62
3
 10
5224.316860511545
 20
241762.7430694854
 30
0
 40
12.24999999977527
 50
71.03117185515838
 51
91.66662319134713
  0
ARC
  8
1
 62
3
 10
5223.967852988229
 20
241774.737993151
 30
0
 40
0.2500000001614595
 50
271.6666231895438
 51
91.66662319079387
  0
ARC
  8
1
 62
3
 10
5228.217504857398
 20
241774.0914162234
 30
0
 40
0.2500000002127197
 50
251.0311718723306
 51
71.03117184039959
  0
ARC
  8
1
 62
3
 10
5224.316860511538
 20
241762.7430694857
 30
0
 40
11.7499999993307
 50
91.66662319140309
 51
94.60910072639986
  0
ARC
  8
1
 62
3
 10
5224.316860511618
 20
241762.7430694843
 30
0
 40
12.2500000010525
 50
91.66662319153686
 51
94.84290790393669
  0
ARC
  8
1
 62
3
 10
5224.316860511516
 20
241762.7430694858
 30
0
 40
11.7499999997368
 50
94.609100726328
 51
95.16046445889829
  0
ARC
  8
1
 62
3
 10
5224.316860511545
 20
241762.7430694854
 30
0
 40
11.74999999973279
 50
71.03117185510703
 51
91.66662319139726
  0
ARC
  8
1
 62
3
 10
5244.367814560565
 20
241778.5332622911
 30
0
 40
21.38756733216577
 50
190.9924967193686
 51
195.6465954373557
  0
ARC
  8
1
 62
3
 10
5224.316860510538
 20
241762.7430694964
 30
0
 40
12.24999998851855
 50
94.8429079036861
 51
95.37042703183712
  0
ARC
  8
1
 62
3
 10
5244.367814560565
 20
241778.5332622911
 30
0
 40
21.49999999996151
 50
190.9604363012267
 51
195.6228047992601
  0
ARC
  8
1
 62
3
 10
5226.077226324497
 20
241760.7336743999
 30
0
 40
11.7499999999172
 50
77.03117185544767
 51
97.66662319136044
  0
ARC
  8
1
 62
3
 10
5226.077226324657
 20
241760.7336743992
 30
0
 40
12.25000000047446
 50
97.66662319181673
 51
100.8429079038328
  0
ARC
  8
1
 62
3
 10
5226.077226322325
 20
241760.7336744109
 30
0
 40
12.24999998891406
 50
100.8429079034147
 51
101.3704270319453
  0
ARC
  8
1
 62
3
 10
5226.077226324486
 20
241760.7336743999
 30
0
 40
12.25000000006415
 50
77.03117185552765
 51
97.66662319145998
  0
ARC
  8
1
 62
3
 10
5224.476319763106
 20
241772.6264073986
 30
0
 40
0.24999999989411
 50
277.6666231950388
 51
97.66662319503885
  0
ARC
  8
1
 62
3
 10
5228.770277287337
 20
241772.4275820662
 30
0
 40
0.249999999915446
 50
257.0311718512054
 51
77.03117186604636
  0
ARC
  8
1
 62
3
 10
5226.077226324468
 20
241760.7336743999
 30
0
 40
11.74999999996875
 50
97.66662319121978
 51
100.609100726272
  0
ARC
  8
1
 62
3
 10
5244.367814560565
 20
241778.5332622911
 30
0
 40
21.38756733219506
 50
196.9924967199823
 51
201.64659543837
  0
ARC
  8
1
 62
3
 10
5226.077226324406
 20
241760.7336744003
 30
0
 40
11.74999999953026
 50
100.6091007263414
 51
101.1604644588514
  0
ARC
  8
1
 62
3
 10
5244.367814560565
 20
241778.5332622911
 30
0
 40
21.49999999996078
 50
196.9604363014315
 51
201.6228047989764
  0
ARC
  8
1
 62
3
 10
5228.037987649716
 20
241758.9192953243
 30
0
 40
11.74999999994122
 50
83.03117185549253
 51
103.666623191646
  0
ARC
  8
1
 62
3
 10
5228.037987649705
 20
241758.9192953243
 30
0
 40
12.24999999956869
 50
83.03117185523357
 51
103.6666231914511
  0
ARC
  8
1
 62
3
 10
5225.202721917557
 20
241770.5795383845
 30
0
 40
0.2500000000768785
 50
283.6666231880856
 51
103.6666231880856
  0
ARC
  8
1
 62
3
 10
5228.037987649967
 20
241758.9192953233
 30
0
 40
12.25000000089196
 50
103.666623191548
 51
106.8429079041514
  0
ARC
  8
1
 62
3
 10
5228.037987649578
 20
241758.9192953244
 30
0
 40
11.74999999973668
 50
106.6091007260096
 51
107.1604644587326
  0
ARC
  8
1
 62
3
 10
5229.493939599636
 20
241770.8306430196
 30
0
 40
0.2500000000150728
 50
263.0311718564681
 51
83.03117184431056
  0
ARC
  8
1
 62
3
 10
5228.037987649665
 20
241758.9192953244
 30
0
 40
11.74999999962051
 50
103.6666231915053
 51
106.6091007264176
  0
ARC
  8
1
 62
3
 10
5244.367814560565
 20
241778.5332622911
 30
0
 40
21.38756733216827
 50
202.9924967199646
 51
207.6465954380727
  0
ARC
  8
1
 62
3
 10
5228.037987646388
 20
241758.919295335
 30
0
 40
12.24999998842778
 50
106.842907903982
 51
107.3704270318941
  0
ARC
  8
1
 62
3
 10
5244.367814560565
 20
241778.5332622911
 30
0
 40
21.49999999998938
 50
202.960436301663
 51
207.6228047990215
  0
ARC
  8
1
 62
3
 10
5230.177661975808
 20
241757.3198109751
 30
0
 40
11.74999999993954
 50
89.03117185553977
 51
109.6666231917077
  0
ARC
  8
1
 62
3
 10
5230.177661975787
 20
241757.3198109751
 30
0
 40
12.24999999986619
 50
89.03117185541622
 51
109.6666231915684
  0
ARC
  8
1
 62
3
 10
5226.139100837557
 20
241768.619812034
 30
0
 40
0.2500000001598854
 50
289.6666231783057
 51
109.6666232029985
  0
ARC
  8
1
 62
3
 10
5230.380563198566
 20
241769.3180954813
 30
0
 40
0.2499999999776836
 50
269.0311718551744
 51
89.0311718548532
  0
ARC
  8
1
 62
3
 10
5230.177661971366
 20
241757.3198109854
 30
0
 40
12.24999998860995
 50
112.8429079037714
 51
113.370427031893
  0
ARC
  8
1
 62
3
 10
5230.177661975736
 20
241757.3198109751
 30
0
 40
11.74999999975671
 50
109.6666231913736
 51
112.6091007261123
  0
ARC
  8
1
 62
3
 10
5230.177661976147
 20
241757.319810974
 30
0
 40
12.25000000095479
 50
109.6666231914138
 51
112.8429079036613
  0
ARC
  8
1
 62
3
 10
5244.367814560565
 20
241778.5332622911
 30
0
 40
21.38756733213807
 50
208.9924967198748
 51
213.6465954378515
  0
ARC
  8
1
 62
3
 10
5244.367814560565
 20
241778.5332622911
 30
0
 40
21.49999999995161
 50
208.9604363014614
 51
213.6228047986169
  0
ARC
  8
1
 62
3
 10
5232.472806583096
 20
241755.9527456377
 30
0
 40
11.74999999996666
 50
95.03117185556197
 51
115.6666231920117
  0
ARC
  8
1
 62
3
 10
5227.275197359707
 20
241766.7686995188
 30
0
 40
0.2500000001581689
 50
295.6666231716227
 51
115.6666231767663
  0
ARC
  8
1
 62
3
 10
5232.472806583518
 20
241755.952745637
 30
0
 40
12.25000000083119
 50
115.6666231916485
 51
118.8429079039728
  0
ARC
  8
1
 62
3
 10
5232.472806577595
 20
241755.9527456475
 30
0
 40
12.24999998878806
 50
118.8429079033483
 51
119.3704270312577
  0
ARC
  8
1
 62
3
 10
5232.472806583067
 20
241755.9527456379
 30
0
 40
12.24999999977073
 50
95.0311718554658
 51
115.6666231915155
  0
ARC
  8
1
 62
3
 10
5231.420434050447
 20
241767.906511239
 30
0
 40
0.2499999999604957
 50
275.0311718532817
 51
95.03117185626455
  0
ARC
  8
1
 62
3
 10
5232.472806583016
 20
241755.9527456379
 30
0
 40
11.74999999953194
 50
115.6666231920288
 51
118.6091007264085
  0
ARC
  8
1
 62
3
 10
5244.367814560565
 20
241778.5332622911
 30
0
 40
21.3875673321474
 50
214.9924967200335
 51
219.6465954378263
  0
ARC
  8
1
 62
3
 10
5232.472806582867
 20
241755.9527456382
 30
0
 40
11.74999999945418
 50
118.6091007265175
 51
119.1604644596845
  0
ARC
  8
1
 62
3
 10
5244.367814560565
 20
241778.5332622911
 30
0
 40
21.50000000006639
 50
214.9604363019703
 51
219.6228047995339
  0
ARC
  8
1
 62
3
 10
5234.898275386967
 20
241754.8330771661
 30
0
 40
11.75000000009697
 50
101.0311718553836
 51
121.6666231910202
  0
ARC
  8
1
 62
3
 10
5234.898275386949
 20
241754.8330771661
 30
0
 40
12.24999999996586
 50
101.0311718554084
 51
121.6666231911962
  0
ARC
  8
1
 62
3
 10
5228.598564172778
 20
241765.0464820155
 30
0
 40
0.2499999998907589
 50
301.6666232035551
 51
121.6666231906595
  0
ARC
  8
1
 62
3
 10
5234.898275386876
 20
241754.8330771664
 30
0
 40
11.74999999978942
 50
121.6666231913877
 51
124.6091007264604
  0
ARC
  8
1
 62
3
 10
5234.898275386698
 20
241754.8330771664
 30
0
 40
11.74999999968523
 50
124.6091007257449
 51
125.1604644585447
  0
ARC
  8
1
 62
3
 10
5234.898275380477
 20
241754.8330771753
 30
0
 40
12.24999998878468
 50
124.8429079033161
 51
125.3704270323396
  0
ARC
  8
1
 62
3
 10
5232.602159112596
 20
241766.6113559053
 30
0
 40
0.2500000000497533
 50
281.0311718521142
 51
101.0311718639612
  0
ARC
  8
1
 62
3
 10
5234.898275387476
 20
241754.8330771654
 30
0
 40
12.25000000088931
 50
121.6666231915096
 51
124.8429079036646
  0
ARC
  8
1
 62
3
 10
5244.367814560565
 20
241778.5332622911
 30
0
 40
21.38756733208272
 50
220.9924967198971
 51
225.6465954380414
  0
ARC
  8
1
 62
3
 10
5244.367814560565
 20
241778.5332622911
 30
0
 40
21.49999999991308
 50
220.9604363014358
 51
225.6228047989917
  0
ARC
  8
1
 62
3
 10
5230.094702193018
 20
241763.4720284991
 30
0
 40
0.2500000002299767
 50
307.6666231468191
 51
127.6666231649865
  0
ARC
  8
1
 62
3
 10
5233.912791157955
 20
241765.4468194724
 30
0
 40
0.2500000000049956
 50
287.0311718554059
 51
107.0311718554059
  0
ARC
  8
1
 62
3
 10
5237.427494443556
 20
241753.9730728825
 30
0
 40
11.74999999957587
 50
127.666623192218
 51
130.6091007257448
  0
ARC
  8
1
 62
3
 10
5237.427494443356
 20
241753.9730728827
 30
0
 40
11.74999999968307
 50
130.6091007256541
 51
131.1604644589156
  0
ARC
  8
1
 62
3
 10
5237.427494436236
 20
241753.973072891
 30
0
 40
12.24999998855815
 50
130.842907904182
 51
131.3704270320649
  0
ARC
  8
1
 62
3
 10
5237.427494443668
 20
241753.9730728822
 30
0
 40
11.75000000010856
 50
107.0311718553347
 51
127.6666231916994
  0
ARC
  8
1
 62
3
 10
5237.427494443636
 20
241753.9730728822
 30
0
 40
12.25000000010897
 50
107.0311718551912
 51
127.6666231901171
  0
ARC
  8
1
 62
3
 10
5237.427494444236
 20
241753.9730728815
 30
0
 40
12.25000000120875
 50
127.6666231903432
 51
130.8429079033776
  0
ARC
  8
1
 62
3
 10
5244.367814560565
 20
241778.5332622911
 30
0
 40
21.38756733198634
 50
226.9924967197348
 51
231.6465954378359
  0
ARC
  8
1
 62
3
 10
5244.367814560565
 20
241778.5332622911
 30
0
 40
21.49999999992164
 50
226.9604363015301
 51
231.6228047990403
  0
ARC
  8
1
 62
3
 10
5240.032753099887
 20
241753.3821551735
 30
0
 40
12.24999999992135
 50
113.0311718554967
 51
133.6666231917274
  0
ARC
  8
1
 62
3
 10
5231.747219419197
 20
241762.0625890119
 30
0
 40
0.2499999999617096
 50
313.6666231944384
 51
133.6666231998665
  0
ARC
  8
1
 62
3
 10
5240.032753100556
 20
241753.3821551728
 30
0
 40
12.25000000083129
 50
133.6666231917365
 51
136.8429079037918
  0
ARC
  8
1
 62
3
 10
5240.032753099916
 20
241753.3821551735
 30
0
 40
11.74999999981
 50
113.0311718558706
 51
133.6666231915992
  0
ARC
  8
1
 62
3
 10
5235.337970627576
 20
241764.4256608457
 30
0
 40
0.2499999999790568
 50
293.0311718565534
 51
113.0311718430061
  0
ARC
  8
1
 62
3
 10
5240.032753099788
 20
241753.3821551735
 30
0
 40
11.74999999984999
 50
133.6666231911501
 51
136.6091007265238
  0
ARC
  8
1
 62
3
 10
5244.367814560565
 20
241778.5332622911
 30
0
 40
21.38756733212774
 50
232.9924967201438
 51
237.6465954378096
  0
ARC
  8
1
 62
3
 10
5240.032753099566
 20
241753.3821551738
 30
0
 40
11.74999999939928
 50
136.6091007269148
 51
137.1604644592859
  0
ARC
  8
1
 62
3
 10
5240.032753091647
 20
241753.3821551809
 30
0
 40
12.24999998882584
 50
136.8429079029935
 51
137.3704270313762
  0
ARC
  8
1
 62
3
 10
5244.367814560565
 20
241778.5332622911
 30
0
 40
21.4999999998569
 50
232.9604363014185
 51
237.622804798888
  0
ARC
  8
1
 62
3
 10
5242.685507596706
 20
241753.0667982571
 30
0
 40
11.74999999994513
 50
119.0311718556514
 51
139.666623192011
  0
ARC
  8
1
 62
3
 10
5242.685507596659
 20
241753.0667982571
 30
0
 40
12.24999999996654
 50
119.0311718553741
 51
139.666623191337
  0
ARC
  8
1
 62
3
 10
5236.862082956947
 20
241763.5590680525
 30
0
 40
0.2499999998369886
 50
299.0311718733369
 51
119.0311718338522
  0
ARC
  8
1
 62
3
 10
5242.685507596557
 20
241753.0667982571
 30
0
 40
11.74999999976448
 50
139.6666231915403
 51
142.6091007256234
  0
ARC
  8
1
 62
3
 10
5242.685507596317
 20
241753.0667982571
 30
0
 40
11.74999999973062
 50
142.6091007249124
 51
143.160464457754
  0
ARC
  8
1
 62
3
 10
5242.685507587666
 20
241753.0667982638
 30
0
 40
12.24999998879849
 50
142.842907902991
 51
143.3704270309987
  0
ARC
  8
1
 62
3
 10
5233.538010526779
 20
241760.8336056678
 30
0
 40
0.2500000001031559
 50
319.6666231580402
 51
139.666623199973
  0
ARC
  8
1
 62
3
 10
5242.685507597408
 20
241753.0667982564
 30
0
 40
12.25000000097254
 50
139.6666231911153
 51
142.8429079028493
  0
ARC
  8
1
 62
3
 10
5244.367814560565
 20
241778.5332622911
 30
0
 40
21.387567332029
 50
238.9924967200363
 51
243.6465954379338
  0
ARC
  8
1
 62
3
 10
5244.367814560565
 20
241778.5332622911
 30
0
 40
21.49999999986467
 50
238.9604363014765
 51
243.6228047992137
  0
ARC
  8
1
 62
3
 10
5238.468429652427
 20
241762.8565356653
 30
0
 40
0.2499999999235412
 50
305.0311718650536
 51
125.0311718461772
  0
ARC
  8
1
 62
3
 10
5245.356693790926
 20
241753.0304572556
 30
0
 40
12.24999998881985
 50
148.8429079026543
 51
149.370427031267
  0
ARC
  8
1
 62
3
 10
5245.356693800625
 20
241753.03045725
 30
0
 40
11.75000000005362
 50
125.0311718553161
 51
145.6666231914196
  0
ARC
  8
1
 62
3
 10
5245.356693800585
 20
241753.03045725
 30
0
 40
12.25000000003325
 50
125.031171855175
 51
145.6666231918725
  0
ARC
  8
1
 62
3
 10
5235.447455233639
 20
241759.7985434656
 30
0
 40
0.2499999999939973
 50
325.666623185757
 51
145.6666232244478
  0
ARC
  8
1
 62
3
 10
5245.356693800476
 20
241753.03045725
 30
0
 40
11.74999999985008
 50
145.6666231910093
 51
148.6091007258988
  0
ARC
  8
1
 62
3
 10
5245.356693801386
 20
241753.0304572493
 30
0
 40
12.25000000092137
 50
145.6666231912884
 51
148.8429079026888
  0
ARC
  8
1
 62
3
 10
5244.367814560565
 20
241778.5332622911
 30
0
 40
21.38756733207286
 50
244.9924967201345
 51
249.6465954381922
  0
ARC
  8
1
 62
3
 10
5245.356693800207
 20
241753.03045725
 30
0
 40
11.74999999965235
 50
148.6091007252151
 51
149.160464457731
  0
ARC
  8
1
 62
3
 10
5244.367814560565
 20
241778.5332622911
 30
0
 40
21.49999999983698
 50
244.960436301479
 51
249.6228047991009
  0
ARC
  8
1
 62
3
 10
5240.139411243496
 20
241762.3257607753
 30
0
 40
0.2499999999447393
 50
311.0311718635194
 51
131.031171853528
  0
ARC
  8
1
 62
3
 10
5248.017045636497
 20
241753.2735303117
 30
0
 40
11.74999999985333
 50
151.666623190892
 51
154.609100725924
  0
ARC
  8
1
 62
3
 10
5248.017045637457
 20
241753.2735303114
 30
0
 40
12.25000000079445
 50
151.6666231922216
 51
154.8429079045819
  0
ARC
  8
1
 62
3
 10
5248.017045636228
 20
241753.2735303117
 30
0
 40
11.74999999960924
 50
154.6091007253631
 51
155.1604644583915
  0
ARC
  8
1
 62
3
 10
5248.017045626416
 20
241753.2735303165
 30
0
 40
12.24999998862515
 50
154.8429079043141
 51
155.3704270315799
  0
ARC
  8
1
 62
3
 10
5248.017045636657
 20
241753.2735303117
 30
0
 40
11.74999999998694
 50
131.0311718555165
 51
151.6666231912624
  0
ARC
  8
1
 62
3
 10
5248.017045636606
 20
241753.2735303117
 30
0
 40
12.24999999992079
 50
131.0311718554596
 51
151.6666231916499
  0
ARC
  8
1
 62
3
 10
5237.454633263976
 20
241758.9687427635
 30
0
 40
0.2500000000765038
 50
331.6666231520392
 51
151.6666232550125
  0
ARC
  8
1
 62
3
 10
5244.367814560565
 20
241778.5332622911
 30
0
 40
21.38756733208365
 50
250.9924967202227
 51
255.6465954379582
  0
ARC
  8
1
 62
3
 10
5244.367814560565
 20
241778.5332622911
 30
0
 40
21.499999999957
 50
250.9604363016719
 51
255.622804799225
  0
ARC
  8
1
 62
3
 10
5250.637415733326
 20
241753.7933542829
 30
0
 40
12.25000000009335
 50
137.0311718546713
 51
157.6666231910849
  0
ARC
  8
1
 62
3
 10
5239.537553555288
 20
241758.3532950311
 30
0
 40
0.2499999999489083
 50
337.6666232070801
 51
157.6666231868365
  0
ARC
  8
1
 62
3
 10
5241.856720106159
 20
241761.9725586638
 30
0
 40
0.2500000000946945
 50
317.0311718279722
 51
137.031171851473
  0
ARC
  8
1
 62
3
 10
5250.637415732918
 20
241753.7933542832
 30
0
 40
11.74999999949816
 50
160.6091007265247
 51
161.1604644594137
  0
ARC
  8
1
 62
3
 10
5250.637415722688
 20
241753.7933542864
 30
0
 40
12.24999998883844
 50
160.8429079018532
 51
161.3704270307832
  0
ARC
  8
1
 62
3
 10
5250.637415733366
 20
241753.7933542829
 30
0
 40
11.74999999999395
 50
137.0311718554404
 51
157.6666231909091
  0
ARC
  8
1
 62
3
 10
5250.637415733206
 20
241753.7933542829
 30
0
 40
11.74999999987096
 50
157.6666231906125
 51
160.6091007256513
  0
ARC
  8
1
 62
3
 10
5250.637415734217
 20
241753.7933542827
 30
0
 40
12.25000000087304
 50
157.6666231917876
 51
160.8429079032178
  0
ARC
  8
1
 62
3
 10
5244.367814560565
 20
241778.5332622911
 30
0
 40
21.38756733204765
 50
256.9924967202384
 51
261.646595438248
  0
ARC
  8
1
 62
3
 10
5244.367814560565
 20
241778.5332622911
 30
0
 40
21.49999999988992
 50
256.9604363016547
 51
261.6228047993163
  0
ARC
  8
1
 62
3
 10
5253.189094767636
 20
241754.5842338635
 30
0
 40
11.75000000006025
 50
143.0311718550524
 51
163.6666231903605
  0
ARC
  8
1
 62
3
 10
5253.189094767596
 20
241754.5842338635
 30
0
 40
12.249999999878
 50
143.0311718558626
 51
163.6666231912334
  0
ARC
  8
1
 62
3
 10
5243.601541045146
 20
241761.8007990865
 30
0
 40
0.2499999999004867
 50
323.0311718776305
 51
143.0311718776915
  0
ARC
  8
1
 62
3
 10
5253.189094767457
 20
241754.5842338635
 30
0
 40
11.74999999987633
 50
163.666623190116
 51
166.6091007256159
  0
ARC
  8
1
 62
3
 10
5253.189094767166
 20
241754.5842338638
 30
0
 40
11.74999999949217
 50
166.6091007266678
 51
167.1604644596316
  0
ARC
  8
1
 62
3
 10
5253.189094756627
 20
241754.584233866
 30
0
 40
12.24999998864264
 50
166.8429079047076
 51
167.3704270320634
  0
ARC
  8
1
 62
3
 10
5241.673395196968
 20
241757.9589432433
 30
0
 40
0.249999999952139
 50
343.666623208078
 51
163.6666232179961
  0
ARC
  8
1
 62
3
 10
5253.189094768505
 20
241754.5842338631
 30
0
 40
12.25000000094483
 50
163.6666231906009
 51
166.8429079042308
  0
ARC
  8
1
 62
3
 10
5244.367814560565
 20
241778.5332622911
 30
0
 40
21.38756733196981
 50
262.9924967202642
 51
267.6465954381851
  0
ARC
  8
1
 62
3
 10
5244.367814560565
 20
241778.5332622911
 30
0
 40
21.49999999982604
 50
262.9604363016433
 51
267.6228047993721
  0
ARC
  8
1
 62
3
 10
5255.644126009988
 20
241755.6375040112
 30
0
 40
11.7499999999863
 50
149.0311718555577
 51
169.6666231913111
  0
ARC
  8
1
 62
3
 10
5255.644126009937
 20
241755.6375040112
 30
0
 40
12.24999999995974
 50
149.031171855326
 51
169.6666231908397
  0
ARC
  8
1
 62
3
 10
5243.838757461027
 20
241757.7900080002
 30
0
 40
0.2499999999805644
 50
349.6666231965609
 51
169.6666231650598
  0
ARC
  8
1
 62
3
 10
5245.354757437107
 20
241761.8123638777
 30
0
 40
0.2499999999932707
 50
329.0311718546722
 51
149.0311718510981
  0
ARC
  8
1
 62
3
 10
5255.644126009806
 20
241755.6375040112
 30
0
 40
11.74999999981758
 50
169.666623191152
 51
172.609100726252
  0
ARC
  8
1
 62
3
 10
5255.644126009508
 20
241755.6375040112
 30
0
 40
11.74999999951854
 50
172.6091007260649
 51
173.1604644592894
  0
ARC
  8
1
 62
3
 10
5255.644125998769
 20
241755.6375040126
 30
0
 40
12.24999998869265
 50
172.8429079035387
 51
173.3704270336633
  0
ARC
  8
1
 62
3
 10
5244.367814560565
 20
241778.5332622911
 30
0
 40
19.75729364974139
 50
269.8643653515566
 51
274.3679628217134
  0
ARC
  8
1
 62
3
 10
5244.367814560565
 20
241778.5332622911
 30
0
 40
19.75729364970795
 50
275.8643653515635
 51
280.3679628216582
  0
ARC
  8
1
 62
3
 10
5244.367814560565
 20
241778.5332622911
 30
0
 40
19.75729364952852
 50
281.8643653516767
 51
286.3679628216281
  0
ARC
  8
1
 62
3
 10
5244.367814560565
 20
241778.5332622911
 30
0
 40
19.75729364941553
 50
287.8643653518097
 51
292.3679628216128
  0
ARC
  8
1
 62
3
 10
5244.367814560565
 20
241778.5332622911
 30
0
 40
19.75729364968874
 50
293.8643653515774
 51
298.367962821813
  0
ARC
  8
1
 62
3
 10
5244.367814560565
 20
241778.5332622911
 30
0
 40
19.75729364948133
 50
299.8643653518869
 51
304.3679628219441
  0
ARC
  8
1
 62
3
 10
5244.367814560565
 20
241778.5332622911
 30
0
 40
19.75729364954695
 50
305.8643653518706
 51
310.3679628221879
  0
ARC
  8
1
 62
3
 10
5244.367814560565
 20
241778.5332622911
 30
0
 40
19.75729364970629
 50
311.8643653515291
 51
316.3679628219064
  0
ARC
  8
1
 62
3
 10
5244.367814560565
 20
241778.5332622911
 30
0
 40
19.75729364972473
 50
317.8643653514551
 51
322.3679628220327
  0
ARC
  8
1
 62
3
 10
5244.367814560565
 20
241778.5332622911
 30
0
 40
19.75729364969406
 50
323.864365351528
 51
328.3679628220887
  0
ARC
  8
1
 62
3
 10
5244.367814560565
 20
241778.5332622911
 30
0
 40
19.75729364962357
 50
329.8643653519018
 51
334.3679628224747
  0
ARC
  8
1
 62
3
 10
5244.367814560565
 20
241778.5332622911
 30
0
 40
19.75729364968651
 50
335.8643653516011
 51
340.3679628224118
  0
ARC
  8
1
 62
3
 10
5244.367814560565
 20
241778.5332622911
 30
0
 40
19.7572936496555
 50
341.8643653518993
 51
346.3679628225689
  0
ARC
  8
1
 62
3
 10
5244.367814560565
 20
241778.5332622911
 30
0
 40
19.75729364967238
 50
347.8643653518563
 51
352.3679628213733
  0
ARC
  8
1
 62
3
 10
5244.367814560565
 20
241778.5332622911
 30
0
 40
19.75729364969103
 50
353.8643653516781
 51
358.3679628214762
  0
ARC
  8
1
 62
3
 10
5244.367814560565
 20
241778.5332622911
 30
0
 40
19.75729364969345
 50
359.8643653523475
 51
4.367962822026183
  0
ARC
  8
1
 62
3
 10
5244.367814560565
 20
241778.5332622911
 30
0
 40
19.75729364968706
 50
5.864365351283358
 51
10.36796282210231
  0
ARC
  8
1
 62
3
 10
5244.367814560565
 20
241778.5332622911
 30
0
 40
19.75729364967323
 50
11.86436535121126
 51
16.36796282197817
  0
ARC
  8
1
 62
3
 10
5244.367814560565
 20
241778.5332622911
 30
0
 40
19.75729364964108
 50
17.86436535112231
 51
22.36796282207019
  0
ARC
  8
1
 62
3
 10
5244.367814560565
 20
241778.5332622911
 30
0
 40
19.75729364971452
 50
23.86436535169431
 51
28.36796282214818
  0
ARC
  8
1
 62
3
 10
5244.367814560565
 20
241778.5332622911
 30
0
 40
19.75729364978872
 50
29.86436535201984
 51
34.36796282176231
  0
ARC
  8
1
 62
3
 10
5244.367814560565
 20
241778.5332622911
 30
0
 40
19.75729364977667
 50
35.86436535190974
 51
40.36796282229348
  0
ARC
  8
1
 62
3
 10
5244.367814560565
 20
241778.5332622911
 30
0
 40
19.75729364993852
 50
41.86436535232797
 51
46.36796282230088
  0
ARC
  8
1
 62
3
 10
5244.367814560565
 20
241778.5332622911
 30
0
 40
19.7572936497977
 50
47.864365351803
 51
52.36796282150909
  0
ARC
  8
1
 62
3
 10
5244.367814560565
 20
241778.5332622911
 30
0
 40
19.7572936497926
 50
53.86436535176276
 51
58.3679628219348
  0
ARC
  8
1
 62
3
 10
5244.367814560565
 20
241778.5332622911
 30
0
 40
19.75729364997117
 50
59.86436535203563
 51
64.36796282207088
  0
ARC
  8
1
 62
3
 10
5244.367814560565
 20
241778.5332622911
 30
0
 40
19.75729364981347
 50
65.86436535170826
 51
70.36796282181813
  0
ARC
  8
1
 62
3
 10
5244.367814560565
 20
241778.5332622911
 30
0
 40
19.75729364987145
 50
71.86436535171589
 51
76.36796282176762
  0
ARC
  8
1
 62
3
 10
5244.367814560565
 20
241778.5332622911
 30
0
 40
19.7572936497852
 50
77.86436535158944
 51
82.3679628217201
  0
ARC
  8
1
 62
3
 10
5244.367814560565
 20
241778.5332622911
 30
0
 40
19.75729364975397
 50
83.86436535155974
 51
88.36796282163955
  0
ARC
  8
1
 62
3
 10
5244.367814560565
 20
241778.5332622911
 30
0
 40
19.75729364974139
 50
89.86436535154606
 51
94.36796282159182
  0
ARC
  8
1
 62
3
 10
5244.367814560565
 20
241778.5332622911
 30
0
 40
19.75729364970684
 50
95.864365351532
 51
100.3679628216334
  0
ARC
  8
1
 62
3
 10
5244.367814560565
 20
241778.5332622911
 30
0
 40
19.75729364992428
 50
101.8643653513925
 51
106.3679628216179
  0
ARC
  8
1
 62
3
 10
5244.367814560565
 20
241778.5332622911
 30
0
 40
19.75729364980222
 50
107.8643653514372
 51
112.367962821603
  0
ARC
  8
1
 62
3
 10
5244.367814560565
 20
241778.5332622911
 30
0
 40
19.75729364976711
 50
113.8643653514653
 51
118.3679628214027
  0
ARC
  8
1
 62
3
 10
5244.367814560565
 20
241778.5332622911
 30
0
 40
19.75729364983468
 50
119.8643653512986
 51
124.3679628217925
  0
ARC
  8
1
 62
3
 10
5244.367814560565
 20
241778.5332622911
 30
0
 40
19.75729364987076
 50
125.8643653511527
 51
130.3679628214145
  0
ARC
  8
1
 62
3
 10
5244.367814560565
 20
241778.5332622911
 30
0
 40
19.7572936496984
 50
131.8643653515035
 51
136.3679628219064
  0
ARC
  8
1
 62
3
 10
5244.367814560565
 20
241778.5332622911
 30
0
 40
19.75729364972203
 50
137.864365351448
 51
142.3679628211573
  0
ARC
  8
1
 62
3
 10
5244.367814560565
 20
241778.5332622911
 30
0
 40
19.75729364969993
 50
143.8643653515404
 51
148.3679628211489
  0
ARC
  8
1
 62
3
 10
5244.367814560565
 20
241778.5332622911
 30
0
 40
19.75729364966426
 50
149.8643653516775
 51
154.3679628214809
  0
ARC
  8
1
 62
3
 10
5244.367814560565
 20
241778.5332622911
 30
0
 40
19.757293649707
 50
155.8643653514428
 51
160.3679628213747
  0
ARC
  8
1
 62
3
 10
5244.367814560565
 20
241778.5332622911
 30
0
 40
19.75729364970639
 50
161.8643653514148
 51
166.3679628215
  0
ARC
  8
1
 62
3
 10
5244.367814560565
 20
241778.5332622911
 30
0
 40
19.75729364974836
 50
167.8643653507814
 51
172.3679628213719
  0
ARC
  8
1
 62
3
 10
5244.367814560565
 20
241778.5332622911
 30
0
 40
19.75729364971129
 50
173.8643653508355
 51
178.3679628214759
  0
ARC
  8
1
 62
3
 10
5244.367814560565
 20
241778.5332622911
 30
0
 40
19.75729364969077
 50
179.8643653511659
 51
184.3679628208489
  0
ARC
  8
1
 62
3
 10
5244.367814560565
 20
241778.5332622911
 30
0
 40
19.75729364968344
 50
185.8643653512844
 51
190.3679628210311
  0
ARC
  8
1
 62
3
 10
5244.367814560565
 20
241778.5332622911
 30
0
 40
19.75729364966255
 50
191.8643653512178
 51
196.3679628217382
  0
ARC
  8
1
 62
3
 10
5244.367814560565
 20
241778.5332622911
 30
0
 40
19.75729364964801
 50
197.8643653511158
 51
202.367962821828
  0
ARC
  8
1
 62
3
 10
5244.367814560565
 20
241778.5332622911
 30
0
 40
19.75729364955813
 50
203.8643653506952
 51
208.3679628211878
  0
ARC
  8
1
 62
3
 10
5244.367814560565
 20
241778.5332622911
 30
0
 40
19.75729364958268
 50
209.8643653510004
 51
214.3679628217623
  0
ARC
  8
1
 62
3
 10
5244.367814560565
 20
241778.5332622911
 30
0
 40
19.75729364968026
 50
215.864365351487
 51
220.3679628214137
  0
ARC
  8
1
 62
3
 10
5244.367814560565
 20
241778.5332622911
 30
0
 40
19.75729364968331
 50
221.8643653515179
 51
226.3679628215514
  0
ARC
  8
1
 62
3
 10
5244.367814560565
 20
241778.5332622911
 30
0
 40
19.75729364950737
 50
227.8643653510982
 51
232.3679628215195
  0
ARC
  8
1
 62
3
 10
5244.367814560565
 20
241778.5332622911
 30
0
 40
19.75729364974344
 50
233.8643653516717
 51
238.3679628213683
  0
ARC
  8
1
 62
3
 10
5244.367814560565
 20
241778.5332622911
 30
0
 40
19.75729364964395
 50
239.8643653514848
 51
244.3679628215692
  0
ARC
  8
1
 62
3
 10
5244.367814560565
 20
241778.5332622911
 30
0
 40
19.75729364981644
 50
245.864365351689
 51
250.367962821828
  0
ARC
  8
1
 62
3
 10
5244.367814560565
 20
241778.5332622911
 30
0
 40
19.75729364987117
 50
251.8643653517184
 51
256.3679628214994
  0
ARC
  8
1
 62
3
 10
5244.367814560565
 20
241778.5332622911
 30
0
 40
19.75729364958583
 50
257.8643653514678
 51
262.3679628215535
  0
ARC
  8
1
 62
3
 10
5244.367814560565
 20
241778.5332622911
 30
0
 40
19.75729364975357
 50
263.8643653515702
 51
268.3679628216402
  0
ARC
  8
1
 62
3
 10
5432.618002843518
 20
241779.8332622912
 30
0
 40
33.00000000009135
 50
149.871228538253
 51
150.7393670377334
  0
ARC
  8
1
 62
3
 10
5242.767814560567
 20
241779.8332622912
 30
0
 40
33.00000000006371
 50
23.16764737613257
 51
24.91338500916817
  0
ARC
  8
1
 62
3
 10
5242.767814560567
 20
241779.8332622912
 30
0
 40
33.00000000009135
 50
30.12877146174706
 51
33.46199238988504
  0
ARC
  8
1
 62
3
 10
5242.767814560567
 20
241779.8332622912
 30
0
 40
36.39999999999051
 50
28.52222265553287
 51
29.29072505049678
  0
ARC
  8
1
 62
3
 10
5242.767814560567
 20
241779.8332622912
 30
0
 40
35.20000000001436
 50
27.67850648904416
 51
29.29685741978164
  0
ARC
  8
1
 62
3
 10
5242.767814560567
 20
241779.8332622912
 30
0
 40
32.99999999995199
 50
32.73416256015454
 51
33.46199238988504
  0
ARC
  8
1
 62
3
 10
5242.767814560567
 20
241779.8332622912
 30
0
 40
32.99999999998572
 50
28.3923246592625
 51
30.12877146174706
  0
CIRCLE
  8
1
 62
3
 10
5462.018002843516
 20
241747.5332622911
 30
0
 40
2.25
  0
CIRCLE
  8
1
 62
3
 10
5405.018002843516
 20
241804.5332622915
 30
0
 40
2.25
  0
CIRCLE
  8
1
 62
3
 10
5244.367814560565
 20
241778.5332622911
 30
0
 40
13.50000000037835
  0
CIRCLE
  8
1
 62
3
 10
5244.367814560565
 20
241778.5332622911
 30
0
 40
22
  0
CIRCLE
  8
1
 62
3
 10
5270.367814560576
 20
241804.5332622915
 30
0
 40
2.249999999989086
  0
CIRCLE
  8
1
 62
3
 10
5213.367814560565
 20
241747.5332622911
 30
0
 40
2.25
  0
CIRCLE
  8
1
 62
3
 10
5244.367814560565
 20
241778.5332622911
 30
0
 40
1.5
  0
CIRCLE
  8
1
 62
3
 10
5431.018002843516
 20
241778.5332622911
 30
0
 40
21
  0
CIRCLE
  8
1
 62
3
 10
5431.018002843516
 20
241778.5332622911
 30
0
 40
21.00000000001403
  0
POLYLINE
  8
1
 62
2
 66
1
  0
VERTEX
  8
1
 10
5396.418986709686
 20
241800.2410643777
 30
0
 42
0.07656810746173193
  0
VERTEX
  8
1
 10
5396.210774773547
 20
241800.1303354874
 30
0
 42
0.0832910900995251
  0
VERTEX
  8
1
 10
5396.072504698566
 20
241799.9792256448
 30
0
 42
0.06627222418318304
  0
VERTEX
  8
1
 10
5395.988340591657
 20
241799.7968777069
 30
0
 42
0.04036363588918871
  0
VERTEX
  8
1
 10
5395.942446559725
 20
241799.5924345308
 30
0
 42
0.01766152236823244
  0
VERTEX
  8
1
 10
5395.918986709688
 20
241799.3750389739
 30
0
 42
-0.01090820338099468
  0
VERTEX
  8
1
 10
5395.899485832936
 20
241799.1553577027
 30
0
 42
-0.05253892932129764
  0
VERTEX
  8
1
 10
5395.85491145879
 20
241798.9501526219
 30
0
 42
-0.0963881032846141
  0
VERTEX
  8
1
 10
5395.754911458798
 20
241798.776947541
 30
0
 42
-0.05436250988935151
  0
VERTEX
  8
1
 10
5395.599485832949
 20
241798.6357424603
 30
0
 42
-0.01101992844457864
  0
VERTEX
  8
1
 10
5395.418986709687
 20
241798.50901357
 30
0
 42
0.0173901417738566
  0
VERTEX
  8
1
 10
5395.242446559721
 20
241798.3799989654
 30
0
 42
0.03937207977261126
  0
VERTEX
  8
1
 10
5395.088340591643
 20
241798.2380319798
 30
0
 42
0.06548156921068724
  0
VERTEX
  8
1
 10
5394.972504698546
 20
241798.0739697562
 30
0
 42
0.08645404503471174
  0
VERTEX
  8
1
 10
5394.910774773527
 20
241797.8786694374
 30
0
 42
0.08462023804987952
  0
VERTEX
  8
1
 10
5394.918986709682
 20
241797.6429881663
 30
0
  0
SEQEND
  8
1
  0
POLYLINE
  8
1
 62
2
 66
1
  0
VERTEX
  8
1
 10
5395.451812832477
 20
241800.799462476
 30
0
 42
0.07656810734962941
  0
VERTEX
  8
1
 10
5395.243600896359
 20
241800.6887335857
 30
0
 42
0.08329109030020879
  0
VERTEX
  8
1
 10
5395.105330821382
 20
241800.5376237431
 30
0
 42
0.06627222436858479
  0
VERTEX
  8
1
 10
5395.021166714463
 20
241800.3552758052
 30
0
 42
0.04036363582856645
  0
VERTEX
  8
1
 10
5394.975272682522
 20
241800.1508326292
 30
0
 42
0.01766152239104969
  0
VERTEX
  8
1
 10
5394.951812832476
 20
241799.9334370722
 30
0
 42
-0.01090820338396832
  0
VERTEX
  8
1
 10
5394.932311955724
 20
241799.713755801
 30
0
 42
-0.05253892937817338
  0
VERTEX
  8
1
 10
5394.887737581579
 20
241799.5085507203
 30
0
 42
-0.09638810354758723
  0
VERTEX
  8
1
 10
5394.787737581589
 20
241799.3353456396
 30
0
 42
-0.0543625094943865
  0
VERTEX
  8
1
 10
5394.632311955739
 20
241799.1941405588
 30
0
 42
-0.01101992792107663
  0
VERTEX
  8
1
 10
5394.451812832479
 20
241799.0674116685
 30
0
 42
0.01739014188058746
  0
VERTEX
  8
1
 10
5394.275272682521
 20
241798.938397064
 30
0
 42
0.03937207937959941
  0
VERTEX
  8
1
 10
5394.121166714448
 20
241798.7964300785
 30
0
 42
0.06548156910413178
  0
VERTEX
  8
1
 10
5394.005330821352
 20
241798.6323678548
 30
0
 42
0.08645404504453229
  0
VERTEX
  8
1
 10
5393.943600896337
 20
241798.4370675359
 30
0
 42
0.08462023801929966
  0
VERTEX
  8
1
 10
5393.951812832495
 20
241798.2013862647
 30
0
  0
SEQEND
  8
1
  0
POLYLINE
  8
1
 62
2
 66
1
  0
VERTEX
  8
1
 10
5278.966830694258
 20
241800.2410643779
 30
0
 42
-0.07656810711021987
  0
VERTEX
  8
1
 10
5279.175042630483
 20
241800.1303354875
 30
0
 42
-0.0832910900469112
  0
VERTEX
  8
1
 10
5279.313312705542
 20
241799.9792256447
 30
0
 42
-0.06627222441803862
  0
VERTEX
  8
1
 10
5279.397476812517
 20
241799.7968777067
 30
0
 42
-0.04036363612469887
  0
VERTEX
  8
1
 10
5279.443370844492
 20
241799.5924345306
 30
0
 42
-0.01766152237103089
  0
VERTEX
  8
1
 10
5279.466830694544
 20
241799.3750389736
 30
0
 42
0.01090820337966122
  0
VERTEX
  8
1
 10
5279.486331571256
 20
241799.1553577025
 30
0
 42
0.05253892938837226
  0
VERTEX
  8
1
 10
5279.530905945315
 20
241798.950152622
 30
0
 42
0.09638810374239051
  0
VERTEX
  8
1
 10
5279.630905945233
 20
241798.7769475413
 30
0
 42
0.05436250981280035
  0
VERTEX
  8
1
 10
5279.786331571145
 20
241798.6357424604
 30
0
 42
0.0110199277090766
  0
VERTEX
  8
1
 10
5279.966830694511
 20
241798.50901357
 30
0
 42
-0.01739014199157694
  0
VERTEX
  8
1
 10
5280.143370844494
 20
241798.3799989655
 30
0
 42
-0.03937207967627871
  0
VERTEX
  8
1
 10
5280.297476812592
 20
241798.2380319799
 30
0
 42
-0.06548156953997898
  0
VERTEX
  8
1
 10
5280.413312705702
 20
241798.0739697561
 30
0
 42
-0.08645404513573878
  0
VERTEX
  8
1
 10
5280.475042630723
 20
241797.8786694373
 30
0
 42
-0.08462023799288566
  0
VERTEX
  8
1
 10
5280.466830694549
 20
241797.642988166
 30
0
  0
SEQEND
  8
1
  0
ARC
  8
1
 62
3
 10
5462.953065184857
 20
241753.3157143712
 30
0
 40
1.000000000060005
 50
145.699537549716
 51
225.0000000039796
  0
ARC
  8
1
 62
3
 10
5456.712632971186
 20
241746.1211177422
 30
0
 40
1.000000000068982
 50
45.00000000357421
 51
132.4251870228273
  0
ARC
  8
1
 62
3
 10
5404.253442651679
 20
241798.5803080619
 30
0
 40
1.000000000039117
 50
326.5380076069529
 51
44.9999999883562
  0
ARC
  8
1
 62
3
 10
5410.561021052176
 20
241805.7077585039
 30
0
 40
1.000000000018176
 50
225.0000000017687
 51
310.4462758725381
  0
ARC
  8
1
 62
3
 10
5402.129770094768
 20
241763.2332622911
 30
0
 40
2
 50
270
 51
332.1170395312053
  0
ARC
  8
1
 62
3
 10
5402.129770094768
 20
241763.2332622911
 30
0
 40
1.999999999842603
 50
332.1170395312053
 51
30.94370182314861
  0
ARC
  8
1
 62
3
 10
5401.159470830767
 20
241794.040042979
 30
0
 40
1.999999999993075
 50
149.9999999998855
 51
240.000000003566
  0
ARC
  8
1
 62
3
 10
5400.908694796187
 20
241794.1848285896
 30
0
 40
0.5000000000041583
 50
148.817326361043
 51
239.999999994935
  0
ARC
  8
1
 62
3
 10
5400.110432725097
 20
241795.2230556808
 30
0
 40
0.4999999999234426
 50
59.999999994935
 51
149.9999999999376
  0
ARC
  8
1
 62
3
 10
5402.616095081327
 20
241796.6631621908
 30
0
 40
1.999999999870203
 50
59.99999999785317
 51
150.7092749465776
  0
ARC
  8
1
 62
3
 10
5401.075114887898
 20
241796.9754972513
 30
0
 40
0.4999999998916448
 50
151.4777773678117
 51
240.0000000166129
  0
ARC
  8
1
 62
3
 10
5402.356267724065
 20
241796.8131735855
 30
0
 40
0.4999999998982379
 50
59.99999999326747
 51
150.7031425747883
  0
ARC
  8
1
 62
3
 10
5401.318641827677
 20
241779.6332622913
 30
0
 40
0.4999999999968706
 50
180.3661097322351
 51
270
  0
ARC
  8
1
 62
3
 10
5401.396863898269
 20
241777.4332622913
 30
0
 40
0.5
 50
90
 51
184.3012223152919
  0
ARC
  8
1
 62
3
 10
5403.139940502056
 20
241790.3562770966
 30
0
 40
0.4999999999234426
 50
59.999999994935
 51
160.3545619977896
  0
ARC
  8
1
 62
3
 10
5410.386828758808
 20
241786.1722842109
 30
0
 40
0.5000000000159218
 50
339.6821229158176
 51
59.999999994935
  0
ARC
  8
1
 62
3
 10
5409.045520052538
 20
241779.6332622913
 30
0
 40
0.5000000003783498
 50
270
 51
357.1340159947605
  0
ARC
  8
1
 62
3
 10
5409.045520052538
 20
241777.4332622913
 30
0
 40
0.4999999999969792
 50
2.865983971930656
 51
90
  0
ARC
  8
1
 62
3
 10
5405.383173621935
 20
241765.0031573316
 30
0
 40
0.4999999998970995
 50
211.2606608293979
 51
300.000000005065
  0
ARC
  8
1
 62
3
 10
5411.439274562307
 20
241768.4996488401
 30
0
 40
0.5000000001754891
 50
299.9999999883897
 51
27.13401600228893
  0
ARC
  8
1
 62
3
 10
5412.539274562317
 20
241766.5943929518
 30
0
 40
0.4999999999158953
 50
32.86598396967266
 51
120.0000000294935
  0
ARC
  8
1
 62
3
 10
5405.790878289007
 20
241762.6982045468
 30
0
 40
0.4999999998478285
 50
120.0000000100676
 51
171.6852925595375
  0
ARC
  8
1
 62
3
 10
5419.079133503858
 20
241760.05453401
 30
0
 40
0.5000000000053576
 50
330.0000000003545
 51
57.13401601109759
  0
ARC
  8
1
 62
3
 10
5420.984389392185
 20
241758.9545340099
 30
0
 40
0.5000000000909487
 50
62.86598398745266
 51
149.9999999997291
  0
ARC
  8
1
 62
3
 10
5429.918002843518
 20
241756.5607795004
 30
0
 40
0.5
 50
0
 51
87.13401601766033
  0
ARC
  8
1
 62
3
 10
5432.118002843518
 20
241756.5607795004
 30
0
 40
0.5000000000017086
 50
92.86598398275602
 51
180
  0
ARC
  8
1
 62
3
 10
5441.051616294847
 20
241758.9545340099
 30
0
 40
0.4999999999990565
 50
30.00000000006243
 51
117.1340160120836
  0
ARC
  8
1
 62
3
 10
5442.956872183167
 20
241760.05453401
 30
0
 40
0.4999999999133611
 50
122.865983987852
 51
210.0000000000103
  0
ARC
  8
1
 62
3
 10
5449.496731124727
 20
241766.5943929518
 30
0
 40
0.4999999995705773
 50
59.99999997158963
 51
147.134016031006
  0
ARC
  8
1
 62
3
 10
5450.596731124729
 20
241768.4996488401
 30
0
 40
0.4999999999330386
 50
152.8659839978537
 51
240.0000000116103
  0
ARC
  8
1
 62
3
 10
5452.990485634497
 20
241777.4332622913
 30
0
 40
0.5
 50
90
 51
177.1340160280277
  0
ARC
  8
1
 62
3
 10
5452.990485634497
 20
241779.6332622913
 30
0
 40
0.5000000000042643
 50
182.8659840052812
 51
270
  0
ARC
  8
1
 62
3
 10
5450.596731124729
 20
241788.5668757425
 30
0
 40
0.5000000002006938
 50
119.9999999867222
 51
207.1340160021464
  0
ARC
  8
1
 62
3
 10
5449.496731124727
 20
241790.4721316308
 30
0
 40
0.499999999883028
 50
212.8659839601943
 51
300.000000005065
  0
ARC
  8
1
 62
3
 10
5442.956872183167
 20
241797.0119905726
 30
0
 40
0.4999999999998441
 50
149.9999999999897
 51
237.1340160346257
  0
ARC
  8
1
 62
3
 10
5441.051616294836
 20
241798.1119905725
 30
0
 40
0.4999999999025921
 50
242.8659839783822
 51
329.9999999999376
  0
ARC
  8
1
 62
3
 10
5432.118002843507
 20
241800.5057450821
 30
0
 40
0.4999999999890861
 50
180
 51
267.1340160179929
  0
ARC
  8
1
 62
3
 10
5429.918002843518
 20
241800.5057450821
 30
0
 40
0.4999999999139606
 50
272.8659839820072
 51
0
  0
ARC
  8
1
 62
3
 10
5420.984389392185
 20
241798.1119905725
 30
0
 40
0.4999999999959059
 50
210.0000000002709
 51
297.1340160221743
  0
ARC
  8
1
 62
3
 10
5419.079133503858
 20
241797.0119905726
 30
0
 40
0.5000000002370758
 50
302.8659839653743
 51
30.00000000027087
  0
ARC
  8
1
 62
3
 10
5414.086828758816
 20
241792.5808721985
 30
0
 40
0.4999999999275352
 50
239.9999999941227
 51
320.3178770914262
  0
ARC
  8
1
 62
3
 10
5334.471796327488
 20
241750.3385445093
 30
0
 40
0.2999999999992724
 50
180
 51
270.9999999982932
  0
ARC
  8
1
 62
3
 10
5349.571796327457
 20
241737.8332622912
 30
0
 40
1.5
 50
270
 51
0
  0
ARC
  8
1
 62
3
 10
5349.571796327457
 20
241811.3332622912
 30
0
 40
1.5
 50
0
 51
90.00438332502878
  0
ARC
  8
1
 62
3
 10
5332.571796327457
 20
241811.3332622912
 30
0
 40
1.5
 50
90
 51
180
  0
ARC
  8
1
 62
3
 10
5332.571796327457
 20
241737.8332622912
 30
0
 40
1.5
 50
180
 51
270
  0
ARC
  8
1
 62
3
 10
5218.673184432896
 20
241746.1211177422
 30
0
 40
1.000000000087521
 50
47.57481297751885
 51
134.9999999963152
  0
ARC
  8
1
 62
3
 10
5212.432752219228
 20
241753.3157143712
 30
0
 40
1.000000000059978
 50
314.9999999959099
 51
34.30046245040142
  0
ARC
  8
1
 62
3
 10
5271.132374752407
 20
241798.5803080619
 30
0
 40
0.9999999997995186
 50
135.0000000116438
 51
213.4619923930471
  0
ARC
  8
1
 62
3
 10
5271.132374752407
 20
241798.5803080619
 30
0
 40
0.9999999997995186
 50
135.0000000116438
 51
213.4619923930471
  0
ARC
  8
1
 62
3
 10
5273.256047309317
 20
241763.2332622911
 30
0
 40
2.000000000065356
 50
149.056298176838
 51
270
  0
ARC
  8
1
 62
3
 10
5264.824796351905
 20
241805.7077585039
 30
0
 40
1.000000000157667
 50
229.5537241271446
 51
314.9999999988208
  0
ARC
  8
1
 62
3
 10
5271.132374752407
 20
241798.5803080619
 30
0
 40
0.9999999997995186
 50
135.0000000116438
 51
213.4619923930471
  0
ARC
  8
1
 62
3
 10
5271.132374752407
 20
241798.5803080619
 30
0
 40
0.9999999997995186
 50
135.0000000116438
 51
213.4619923930471
  0
ARC
  8
1
 62
3
 10
5274.226346573319
 20
241794.040042979
 30
0
 40
2.000000000197863
 50
299.9999999967274
 51
30.00000000001032
  0
ARC
  8
1
 62
3
 10
5274.477122607906
 20
241794.1848285896
 30
0
 40
0.4999999999234426
 50
300.000000005065
 51
31.18267363960455
  0
ARC
  8
1
 62
3
 10
5275.275384678996
 20
241795.2230556808
 30
0
 40
0.4999999999990565
 50
30.00000000006243
 51
120.000000005065
  0
ARC
  8
1
 62
3
 10
5272.769722322758
 20
241796.6631621908
 30
0
 40
2.000000000053129
 50
29.29072505357538
 51
120.0000000021469
  0
ARC
  8
1
 62
3
 10
5274.310702516187
 20
241796.9754972513
 30
0
 40
0.500000000251103
 50
299.9999999833872
 51
28.52222263233761
  0
ARC
  8
1
 62
3
 10
5273.029549680027
 20
241796.8131735855
 30
0
 40
0.5000000000220766
 50
29.29685742577264
 51
120.0000000067325
  0
LINE
  8
1
 62
2
 10
5419.119779141211
 20
241846.1665956244
 30
0
 11
5392.51108707167
 21
241802.4972912856
 31
0
  0
SOLID
  8
1
 62
2
 10
5393.734821435841
 20
241805.2646845766
 30
0
 11
5394.409377787538
 21
241804.8536621773
 31
0
 12
5392.51108707167
 22
241802.4972912856
 32
0
 13
5392.51108707167
 23
241802.4972912856
 33
0
  0
TEXT
  8
1
 62
2
 10
5342.905266459145
 20
241665.0409841872
 30
0
 40
4.5
  1
E0720H
 41
0.9
  0
TEXT
  8
1
 62
2
 10
5448.18904321048
 20
241839.9588034167
 30
0
 40
4.166666666666667
  1
赤（＋Ｖ）
 41
0.9
  0
TEXT
  8
1
 62
2
 10
5420.561337582777
 20
241848.1276345856
 30
0
 40
4.166666666666667
  1
リード線  ＵＬ３２６５ ＡＷＧ２６
 41
0.9
  0
TEXT
  8
1
 62
2
 10
5448.18904321048
 20
241833.29213675
 30
0
 40
4.166666666666667
  1
黒（ＧＮＤ）
 41
0.9
  0
TEXT
  8
1
 62
2
 10
5448.18904321048
 20
241826.6254700834
 30
0
 40
4.166666666666667
  1
黄（センサー）
 41
0.9
  0
TEXT
  8
1
 62
2
 10
5286.924089246469
 20
241815.5718871732
 30
0
 40
4.166666666666667
  1
（貫通穴）
 41
0.9
  0
TEXT
  8
1
 62
2
 10
5259.687539020529
 20
241743.1026717844
 30
0
 40
2
  1
>ABS+PBT
 41
0.9
  0
TEXT
  8
1
 62
2
 10
5259.687539020529
 20
241740.1026717844
 30
0
 40
2
  1
 -GF30<
 41
0.9
  0
TEXT
  8
1
 62
2
 10
5165.188310599787
 20
241823.4383177114
 30
0
 40
4.166666666666667
  1
（吸込内径）
 41
0.9
  0
TEXT
  8
1
 62
2
 10
5402.137727303479
 20
241743.1026717844
 30
0
 40
2
  1
>ABS+PBT
 41
0.9
  0
TEXT
  8
1
 62
2
 10
5402.137727303479
 20
241740.1026717844
 30
0
 40
2
  1
 -GF30<
 41
0.9
  0
TEXT
  8
1
 62
3
 10
5433.997299763566
 20
241784.5332622911
 30
0
 40
1.666666666666667
  1
DC BRUSHLESS
 41
0.765
  0
TEXT
  8
1
 62
2
 10
5417.455738511216
 20
241766.5332622911
 30
0
 40
1.666666666666667
  1
JAPAN SERVO CO.,LTD.
 41
0.9
  0
DIMENSION
  8
1
  6
CONTINUOUS
 62
2
  2
*D0
  3
DMST_1
 10
5393.12762665765
 20
241776.9652247897
 30
0
 11
5382.846231043416
 21
241787.0581132536
 31
0
 12
0
 22
0
 32
0
 70
1
  1
300
 13
5375.730843154942
 23
241803.908277133
 33
0
 14
5400.445114674322
 24
241789.6394858181
 34
0
 53
0
  0
DIMENSION
  8
1
  6
CONTINUOUS
 62
2
  2
*D1
  3
DMST_2
 10
5331.071796327457
 20
241835
 30
0
 11
5340
 21
241838.6
 31
0
 12
0
 22
0
 32
0
 70
1
 13
5351.071796327457
 23
241811.3332622912
 33
0
 14
5331.071796327457
 24
241811.3332622912
 34
0
 53
0
  0
DIMENSION
  8
1
  6
CONTINUOUS
 62
2
  2
*D2
  3
DMST_2
 10
5160
 20
241736.3332622912
 30
0
 11
5156.4
 21
241770
 31
0
 12
0
 22
0
 32
0
 70
0
 13
5242.767814560567
 23
241812.8332622912
 33
0
 14
5246.467814560568
 24
241736.3332622912
 34
0
 50
90
 53
0
  0
DIMENSION
  8
1
  6
CONTINUOUS
 62
2
  2
*D3
  3
DMST_2
 10
5179.69052037299
 20
241771.5332622911
 30
0
 11
5176.09052037299
 21
241776.308337026
 31
0
 12
0
 22
0
 32
0
 70
0
 13
5205.270120450338
 23
241781.5332622911
 33
0
 14
5205.975346125636
 24
241771.5332622911
 34
0
 50
90
 53
0
  0
DIMENSION
  8
1
  6
CONTINUOUS
 62
2
  2
*D4
  3
DMST_3
 10
5170
 20
241747.5332622911
 30
0
 11
5166.4
 21
241760
 31
0
 12
0
 22
0
 32
0
 70
0
 13
5204.943395503847
 23
241778.5332622911
 33
0
 14
5210.978800026997
 24
241747.5332622911
 34
0
 50
90
 53
0
  0
DIMENSION
  8
1
  6
CONTINUOUS
 62
2
  2
*D5
  3
DMST_2
 10
5189.95172587879
 20
241778.5332622911
 30
0
 11
5186.35172587879
 21
241786.439653855
 31
0
 12
0
 22
0
 32
0
 70
0
 13
5204.168529122896
 23
241776.5332622911
 33
0
 14
5204.943395503847
 24
241778.5332622911
 34
0
 50
90
 53
0
  0
DIMENSION
  8
1
  6
CONTINUOUS
 62
2
  2
*D8
  3
DMST_2
 10
5295
 20
241761.2332622911
 30
0
 11
5291.4
 21
241750
 31
0
 12
0
 22
0
 32
0
 70
1
 13
5276.467814560568
 23
241736.3332622912
 33
0
 14
5276.467814560568
 24
241761.2332622911
 34
0
 53
0
  0
DIMENSION
  8
1
  6
CONTINUOUS
 62
2
  2
*D9
  3
DMST_4
 10
5213.367814560565
 20
241699.981331912
 30
0
 11
5228.054728805
 21
241703.581331912
 31
0
 12
0
 22
0
 32
0
 70
0
 13
5244.367814560565
 23
241733.5563770504
 33
0
 14
5213.367814560565
 24
241745.0730333804
 34
0
 53
0
  0
DIMENSION
  8
1
  6
CONTINUOUS
 62
2
  2
*D10
  3
DMST_5
 10
5276.467814560568
 20
241721.098687075
 30
0
 11
5268.62564751183
 21
241724.698687075
 31
0
 12
0
 22
0
 32
0
 70
0
 13
5259.467814560568
 23
241734.3106400037
 33
0
 14
5276.467814560568
 24
241736.3332622912
 34
0
 53
0
  0
DIMENSION
  8
1
  6
CONTINUOUS
 62
2
  2
*D11
  3
DMST_6
 10
5264.467814560568
 20
241710
 30
0
 11
5260
 21
241713.6
 31
0
 12
0
 22
0
 32
0
 70
1
 13
5254.467814560568
 23
241735.0332622911
 33
0
 14
5264.467814560568
 24
241735.0332622911
 34
0
 53
0
  0
DIMENSION
  8
1
  6
CONTINUOUS
 62
2
  2
*D12
  3
DMST_5
 10
5244.367814560565
 20
241700
 30
0
 11
5260
 21
241703.6
 31
0
 12
0
 22
0
 32
0
 70
0
 13
5276.467814560568
 23
241736.3332622912
 33
0
 14
5244.367814560565
 24
241733.5563770504
 34
0
 53
0
  0
DIMENSION
  8
1
  6
CONTINUOUS
 62
2
  2
*D13
  3
DMST_2
 10
5242.767814560567
 20
241825
 30
0
 11
5230
 21
241828.6
 31
0
 12
0
 22
0
 32
0
 70
0
 13
5244.367814560565
 23
241814.3014820988
 33
0
 14
5242.767814560567
 24
241814.853233792
 34
0
 53
0
  0
DIMENSION
  8
1
  6
CONTINUOUS
 62
2
  2
*D14
  3
DMST_2
 10
5237.767814560567
 20
241835.031135871
 30
0
 11
5233.05762775954
 21
241838.631135871
 31
0
 12
0
 22
0
 32
0
 70
0
 13
5247.767814560567
 23
241813.7668739467
 33
0
 14
5237.767814560567
 24
241813.803439865
 34
0
 53
0
  0
DIMENSION
  8
1
  6
CONTINUOUS
 62
2
  2
*D15
  3
DMST_3
 10
5270.367814560576
 20
241845.055412867
 30
0
 11
5258.90335398849
 21
241848.655412867
 31
0
 12
0
 22
0
 32
0
 70
0
 13
5244.367814560565
 23
241814.3014820988
 33
0
 14
5270.367814560576
 24
241806.9815960651
 34
0
 53
0
  0
DIMENSION
  8
1
  6
CONTINUOUS
 62
2
  2
*D16
  3
DMST_2
 10
5206.267814560607
 20
241855
 30
0
 11
5240
 21
241858.6
 31
0
 12
0
 22
0
 32
0
 70
0
 13
5276.467814560568
 23
241761.2332622911
 33
0
 14
5206.267814560607
 24
241779.3440118847
 34
0
 53
0
  0
DIMENSION
  8
1
  6
CONTINUOUS
 62
2
  2
*D17
  3
DMST_7
 10
5269.33554883953
 20
241802.5340305688
 30
0
 11
5298.09482151844
 21
241825.960296486
 31
0
 12
0
 22
0
 32
0
 70
3
  1
2-%%c<>
 15
5271.40008028161
 25
241806.5324940142
 35
0
 40
0
 53
0
  0
DIMENSION
  8
1
  6
CONTINUOUS
 62
2
  2
*D18
  3
DMST_8
 10
5260.410784845015
 20
241763.4792560319
 30
0
 11
5180
 21
241833.6
 31
0
 12
0
 22
0
 32
0
 70
3
 15
5228.324844276153
 25
241793.5872685504
 35
0
 40
0
 53
0
  0
INSERT
  8
1
  2
*D6
 10
0
 20
0
 30
0
  0
INSERT
  8
1
  2
*D7
 10
0
 20
0
 30
0
  0
ENDSEC
  0
EOF
