  0
SECTION
  2
HEADER
  9
$ACADVER
  1
AC1014
  9
$ACADMAINTVER
 70
             0
  9
$DWGCODEPAGE
  3
ANSI_1252
  9
$INSBASE
 10
0.0
 20
0.0
 30
0.0
  9
$EXTMIN
 10
-174.610424759117
 20
-112.1675251999997
 30
0.0
  9
$EXTMAX
 10
163.4705744347965
 20
85.8000000000004
 30
0.0
  9
$LIMMIN
 10
0.0
 20
0.0
  9
$LIMMAX
 10
0.0
 20
0.0
  9
$ORTHOMODE
 70
             0
  9
$REGENMODE
 70
             1
  9
$FILLMODE
 70
             1
  9
$QTEXTMODE
 70
             0
  9
$MIRRTEXT
 70
             1
  9
$DRAGMODE
 70
             2
  9
$LTSCALE
 40
1.0
  9
$OSMODE
 70
             0
  9
$ATTMODE
 70
             1
  9
$TEXTSIZE
 40
0.2
  9
$TRACEWID
 40
0.05
  9
$TEXTSTYLE
  7
STANDARD
  9
$CLAYER
  8
0
  9
$CELTYPE
  6
CONTINUOUS
  9
$CECOLOR
 62
           256
  9
$CELTSCALE
 40
1.0
  9
$DELOBJ
 70
             1
  9
$DISPSILH
 70
             0
  9
$DIMSCALE
 40
1.0
  9
$DIMASZ
 40
0.18
  9
$DIMEXO
 40
0.0625
  9
$DIMDLI
 40
0.38
  9
$DIMRND
 40
0.0
  9
$DIMDLE
 40
0.0
  9
$DIMEXE
 40
0.18
  9
$DIMTP
 40
0.0
  9
$DIMTM
 40
0.0
  9
$DIMTXT
 40
0.18
  9
$DIMCEN
 40
0.09
  9
$DIMTSZ
 40
0.0
  9
$DIMTOL
 70
             0
  9
$DIMLIM
 70
             0
  9
$DIMTIH
 70
             1
  9
$DIMTOH
 70
             1
  9
$DIMSE1
 70
             0
  9
$DIMSE2
 70
             0
  9
$DIMTAD
 70
             0
  9
$DIMZIN
 70
             0
  9
$DIMBLK
  1

  9
$DIMASO
 70
             1
  9
$DIMSHO
 70
             1
  9
$DIMPOST
  1

  9
$DIMAPOST
  1

  9
$DIMALT
 70
             0
  9
$DIMALTD
 70
             2
  9
$DIMALTF
 40
25.4
  9
$DIMLFAC
 40
1.0
  9
$DIMTOFL
 70
             0
  9
$DIMTVP
 40
0.0
  9
$DIMTIX
 70
             0
  9
$DIMSOXD
 70
             0
  9
$DIMSAH
 70
             0
  9
$DIMBLK1
  1

  9
$DIMBLK2
  1

  9
$DIMSTYLE
  2
STANDARD
  9
$DIMCLRD
 70
             0
  9
$DIMCLRE
 70
             0
  9
$DIMCLRT
 70
             0
  9
$DIMTFAC
 40
1.0
  9
$DIMGAP
 40
0.09
  9
$DIMJUST
 70
             0
  9
$DIMSD1
 70
             0
  9
$DIMSD2
 70
             0
  9
$DIMTOLJ
 70
             1
  9
$DIMTZIN
 70
             0
  9
$DIMALTZ
 70
             0
  9
$DIMALTTZ
 70
             0
  9
$DIMFIT
 70
             3
  9
$DIMUPT
 70
             0
  9
$DIMUNIT
 70
             2
  9
$DIMDEC
 70
             4
  9
$DIMTDEC
 70
             4
  9
$DIMALTU
 70
             2
  9
$DIMALTTD
 70
             2
  9
$DIMTXSTY
  7
STANDARD
  9
$DIMAUNIT
 70
             0
  9
$LUNITS
 70
             2
  9
$LUPREC
 70
             4
  9
$SKETCHINC
 40
0.1
  9
$FILLETRAD
 40
0.0
  9
$AUNITS
 70
             0
  9
$AUPREC
 70
             0
  9
$MENU
  1
acad
  9
$ELEVATION
 40
0.0
  9
$PELEVATION
 40
0.0
  9
$THICKNESS
 40
0.0
  9
$LIMCHECK
 70
             0
  9
$BLIPMODE
 70
             1
  9
$CHAMFERA
 40
0.0
  9
$CHAMFERB
 40
0.0
  9
$CHAMFERC
 40
0.0
  9
$CHAMFERD
 40
0.0
  9
$SKPOLY
 70
             0
  9
$TDCREATE
 40
0.000000000
  9
$TDUPDATE
 40
0.000000000
  9
$TDINDWG
 40
0.0000000000
  9
$TDUSRTIMER
 40
0.0000000000
  9
$USRTIMER
 70
             1
  9
$ANGBASE
 50
0.0
  9
$ANGDIR
 70
             0
  9
$PDMODE
 70
             0
  9
$PDSIZE
 40
0.0
  9
$PLINEWID
 40
0.0
  9
$COORDS
 70
             0
  9
$SPLFRAME
 70
             0
  9
$SPLINETYPE
 70
             6
  9
$SPLINESEGS
 70
             8
  9
$ATTDIA
 70
             0
  9
$ATTREQ
 70
             1
  9
$HANDLING
 70
             1
  9
$HANDSEED
  5
2A2
  9
$SURFTAB1
 70
             6
  9
$SURFTAB2
 70
             6
  9
$SURFTYPE
 70
             6
  9
$SURFU
 70
             6
  9
$SURFV
 70
             6
  9
$UCSNAME
  2

  9
$UCSORG
 10
0.0
 20
0.0
 30
0.0
  9
$UCSXDIR
 10
1.0
 20
0.0
 30
0.0
  9
$UCSYDIR
 10
0.0
 20
1.0
 30
0.0
  9
$PUCSNAME
  2

  9
$PUCSORG
 10
0.0
 20
0.0
 30
0.0
  9
$PUCSXDIR
 10
1.0
 20
0.0
 30
0.0
  9
$PUCSYDIR
 10
0.0
 20
1.0
 30
0.0
  9
$USERI1
 70
             0
  9
$USERI2
 70
             0
  9
$USERI3
 70
             0
  9
$USERI4
 70
             0
  9
$USERI5
 70
             0
  9
$USERR1
 40
12.01
  9
$USERR2
 40
0.0
  9
$USERR3
 40
0.0
  9
$USERR4
 40
0.0
  9
$USERR5
 40
0.0
  9
$WORLDVIEW
 70
             1
  9
$SHADEDGE
 70
             3
  9
$SHADEDIF
 70
            70
  9
$TILEMODE
 70
             1
  9
$MAXACTVP
 70
            16
  9
$PINSBASE
 10
0.0
 20
0.0
 30
0.0
  9
$PLIMCHECK
 70
             0
  9
$PEXTMIN
 10
1.00000000000000E+20
 20
1.00000000000000E+20
 30
1.00000000000000E+20
  9
$PEXTMAX
 10
-1.00000000000000E+20
 20
-1.00000000000000E+20
 30
-1.00000000000000E+20
  9
$PLIMMIN
 10
0.0
 20
0.0
  9
$PLIMMAX
 10
12.0
 20
9.0
  9
$UNITMODE
 70
             0
  9
$VISRETAIN
 70
             0
  9
$PLINEGEN
 70
             1
  9
$PSLTSCALE
 70
             0
  9
$TREEDEPTH
 70
          3020
  9
$PICKSTYLE
 70
             1
  9
$CMLSTYLE
  2
STANDARD
  9
$CMLJUST
 70
             0
  9
$CMLSCALE
 40
1.0
  9
$PROXYGRAPHICS
 70
             0
  9
$MEASUREMENT
 70
             1
  0
ENDSEC
  0
SECTION
  2
CLASSES
  0
CLASS
  1
LWPOLYLINE
  2
AcDbPolyline
  3
"AutoCAD"
 90
        0
280
             0
281
             1
  0
CLASS
  1
IMAGE
  2
AcDbRasterImage
  3
ISM
 90
      127
280
             0
281
             1
  0
CLASS
  1
OLE2FRAME
  2
AcDbOle2Frame
  3
""
 90
        0
280
             0
281
             1
  0
CLASS
  1
HATCH
  2
AcDbHatch
  3
"ACAD_SEDONA"
 90
        0
280
             0
281
             1
  0
CLASS
  1
DICTIONARYVAR
  2
AcDbDictionaryVar
  3
"AutoCAD"
 90
        0
280
             0
281
             0
  0
CLASS
  1
RASTERVARIABLES
  2
AcDbRasterVariables
  3
ISM
 90
        0
280
             0
281
             0
  0
CLASS
  1
IMAGEDEF
  2
AcDbRasterImageDef
  3
ISM
 90
        0
280
             0
281
             0
  0
CLASS
  1
IMAGEDEF_REACTOR
  2
AcDbRasterImageDefReactor
  3
ISM
 90
        1
280
             0
281
             0
  0
CLASS
  1
IDBUFFER
  2
AcDbIdBuffer
  3
"Acad"
 90
        0
280
             0
281
             0
  0
CLASS
  1
SPATIAL_FILTER
  2
AcDbSpatialFilter
  3
"Acad"
 90
        0
280
             0
281
             0
  0
CLASS
  1
XRECORD
  2
AcDbXrecord
  3
"<Built In>"
 90
        0
280
             0
281
             0
  0
CLASS
  1
SORTENTSTABLE
  2
AcDbSortentsTable
  3
"AutoCAD"
 90
        0
280
             0
281
             0
  0
CLASS
  1
LAYER_INDEX
  2
AcDbLayerIndex
  3
"Acad"
 90
        0
280
             0
281
             0
  0
CLASS
  1
SPATIAL_INDEX
  2
AcDbSpatialIndex
  3
"Acad"
 90
        0
280
             0
281
             0
  0
CLASS
  1
OBJECT_PTR
  2
CAseDLPNTableRecord
  3
"ASE-LPNTableRecord"
 90
        1
280
             0
281
             0
  0
CLASS
  1
LAYOUT
  2
AcDbLayout
  3
"AutoCAD 2000"
 90
        0
280
             0
281
             0
  0
CLASS
  1
PLOTSETTINGS
  2
AcDbPlotSettings
  3
"AutoCAD 2000"
 90
        0
280
             0
281
             0
  0
CLASS
  1
ACDBDICTIONARYWDFLT
  2
AcDbDictionaryWithDefault
  3
"AutoCAD 2000"
 90
        0
280
             0
281
             0
  0
CLASS
  1
ACDBPLACEHOLDER
  2
AcDbPlaceHolder
  3
"AutoCAD 2000"
 90
        0
280
             0
281
             0
  0
ENDSEC
  0
SECTION
  2
TABLES
  0
TABLE
  2
VPORT
  5
7
100
AcDbSymbolTable
 70
             1
  0
VPORT
  5
15
100
AcDbSymbolTableRecord
100
AcDbViewportTableRecord
  2
*ACTIVE
 70
             0
 10
0.0
 20
0.0
 11
1.0
 21
1.0
 12
-5.56992516216025
 22
-13.18376259999965
 13
0.0
 23
0.0
 14
1.0
 24
1.0
 15
0.0
 25
0.0
 16
0.0
 26
0.0
 36
1.0
 17
0.0
 27
0.0
 37
0.0
 40
232.04222340217362
 41
1.60267857142857
 42
50.0
 43
0.0
 44
0.0
 50
0.0
 51
0.0
 71
             0
 72
           100
 73
             1
 74
             1
 75
             0
 76
             0
 77
             0
 78
             0
  0
ENDTAB
  0
TABLE
  2
LTYPE
  5
4
100
AcDbSymbolTable
 70
            10
  0
LTYPE
  5
11
100
AcDbSymbolTableRecord
100
AcDbLinetypeTableRecord
  2
BYBLOCK
 70
            64
  3

 72
            65
 73
             0
 40
0.0
  0
LTYPE
  5
12
100
AcDbSymbolTableRecord
100
AcDbLinetypeTableRecord
  2
BYLAYER
 70
            64
  3

 72
            65
 73
             0
 40
0.0
  0
LTYPE
  5
13
100
AcDbSymbolTableRecord
100
AcDbLinetypeTableRecord
  2
CONTINUOUS
 70
            64
  3
Solid line
 72
            65
 73
             0
 40
0.0
  0
LTYPE
  5
1D
100
AcDbSymbolTableRecord
100
AcDbLinetypeTableRecord
  2
DASHED
 70
            64
  3
Dashed
 72
            65
 73
             2
 40
15.0
 49
7.0
 74
             0
 49
-8.0
 74
             0
  0
LTYPE
  5
1E
100
AcDbSymbolTableRecord
100
AcDbLinetypeTableRecord
  2
DOTTED
 70
            64
  3
Dotted
 72
            65
 73
             2
 40
1.0
 49
0.0
 74
             0
 49
-1.0
 74
             0
  0
LTYPE
  5
1F
100
AcDbSymbolTableRecord
100
AcDbLinetypeTableRecord
  2
DOT_CENTER
 70
            64
  3
Dot_Center
 72
            65
 73
             4
 40
14.0
 49
12.0
 74
             0
 49
-1.0
 74
             0
 49
0.0
 74
             0
 49
-1.0
 74
             0
  0
LTYPE
  5
20
100
AcDbSymbolTableRecord
100
AcDbLinetypeTableRecord
  2
LONG_DASHED
 70
            64
  3
Long_Dashed
 72
            65
 73
             2
 40
15.0
 49
10.0
 74
             0
 49
-5.0
 74
             0
  0
LTYPE
  5
21
100
AcDbSymbolTableRecord
100
AcDbLinetypeTableRecord
  2
DASH_CENTER
 70
            64
  3
Dash_Center
 72
            65
 73
             4
 40
14.0
 49
11.0
 74
             0
 49
-1.0
 74
             0
 49
1.0
 74
             0
 49
-1.0
 74
             0
  0
LTYPE
  5
22
100
AcDbSymbolTableRecord
100
AcDbLinetypeTableRecord
  2
PHANTOM
 70
            64
  3
Phantom
 72
            65
 73
             6
 40
13.0
 49
10.0
 74
             0
 49
-1.0
 74
             0
 49
0.0
 74
             0
 49
-1.0
 74
             0
 49
0.0
 74
             0
 49
-1.0
 74
             0
  0
LTYPE
  5
23
100
AcDbSymbolTableRecord
100
AcDbLinetypeTableRecord
  2
CENTER_DASH_DASH
 70
            64
  3
Center_Dash_Dash
 72
            65
 73
             6
 40
14.0
 49
9.0
 74
             0
 49
-1.0
 74
             0
 49
1.0
 74
             0
 49
-1.0
 74
             0
 49
1.0
 74
             0
 49
-1.0
 74
             0
  0
ENDTAB
  0
TABLE
  2
LAYER
  5
2
100
AcDbSymbolTable
 70
             2
  0
LAYER
  5
14
100
AcDbSymbolTableRecord
100
AcDbLayerTableRecord
  2
0
 70
             0
 62
             7
  6
CONTINUOUS
  0
LAYER
  5
24
100
AcDbSymbolTableRecord
100
AcDbLayerTableRecord
  2
1
 70
             0
 62
             7
  6
CONTINUOUS
  0
ENDTAB
  0
TABLE
  2
STYLE
  5
3
100
AcDbSymbolTable
 70
             5
  0
STYLE
  5
17
100
AcDbSymbolTableRecord
100
AcDbTextStyleTableRecord
  2
STANDARD
 70
             0
 40
0.0
 41
1.0
 50
0.0
 71
             0
 42
0.0
  3
txt
  4

  0
STYLE
  5
4B
100
AcDbSymbolTableRecord
100
AcDbTextStyleTableRecord
  2
CONVERTER_1
 70
             0
 40
0.0
 41
0.81
 50
0.0
 71
             0
 42
0.0
  3
txt.shx
  4

  0
STYLE
  5
4D
100
AcDbSymbolTableRecord
100
AcDbTextStyleTableRecord
  2
CONVERTER_2
 70
             0
 40
0.0
 41
0.72
 50
0.0
 71
             0
 42
0.0
  3
txt.shx
  4

  0
STYLE
  5
58
100
AcDbSymbolTableRecord
100
AcDbTextStyleTableRecord
  2
CONVERTER_3
 70
             0
 40
0.0
 41
0.9
 50
0.0
 71
             0
 42
0.0
  3
txt.shx
  4

  0
STYLE
  5
20B
100
AcDbSymbolTableRecord
100
AcDbTextStyleTableRecord
  2
CONVERTER_4
 70
             0
 40
0.0
 41
0.54
 50
0.0
 71
             0
 42
0.0
  3
txt.shx
  4

  0
ENDTAB
  0
TABLE
  2
VIEW
  5
5
100
AcDbSymbolTable
 70
             0
  0
ENDTAB
  0
TABLE
  2
UCS
  5
6
100
AcDbSymbolTable
 70
             0
  0
ENDTAB
  0
TABLE
  2
APPID
  5
8
100
AcDbSymbolTable
 70
             1
  0
APPID
  5
16
100
AcDbSymbolTableRecord
100
AcDbRegAppTableRecord
  2
ACAD
 70
             0
  0
ENDTAB
  0
TABLE
  2
DIMSTYLE
  5
9
100
AcDbSymbolTable
 70
            17
  0
DIMSTYLE
105
18
100
AcDbSymbolTableRecord
100
AcDbDimStyleTableRecord
  2
STANDARD
 70
             0
  3

  4

  5

  6

  7

 40
1.0
 41
0.18
 42
0.0625
 43
0.38
 44
0.18
 45
0.0
 46
0.0
 47
0.0
 48
0.0
 71
             0
 72
             0
 73
             1
 74
             1
 75
             0
 76
             0
 77
             0
 78
             0
140
0.18
141
0.09
142
0.0
143
25.4
144
1.0
145
0.0
146
1.0
147
0.09
170
             0
171
             2
172
             0
173
             0
174
             0
175
             0
176
             0
177
             0
178
             0
270
             2
271
             4
272
             4
273
             2
274
             2
275
             0
280
             0
281
             0
282
             0
283
             1
284
             0
285
             0
286
             0
287
             3
288
             0
340
17
  0
DIMSTYLE
105
5B
100
AcDbSymbolTableRecord
100
AcDbDimStyleTableRecord
  2
ME10_DIM_0
 70
             0
  3

  4

  5

  6

  7

 40
1.0
 41
1.6
 42
0.5
 43
0.38
 44
0.5
 45
0.0
 46
0.0
 47
0.0
 48
0.0
 71
             0
 72
             0
 73
             0
 74
             0
 75
             0
 76
             0
 77
             1
 78
             8
140
1.6
141
0.09
142
0.0
143
25.4
144
1.0
145
0.0
146
1.0
147
0.625
170
             0
171
             2
172
             1
173
             1
174
             0
175
             0
176
             2
177
             2
178
             2
270
             2
271
             3
272
             4
273
             2
274
             2
275
             0
280
             0
281
             0
282
             0
283
             1
284
             0
285
             0
286
             0
287
             3
288
             0
340
58
  0
DIMSTYLE
105
70
100
AcDbSymbolTableRecord
100
AcDbDimStyleTableRecord
  2
ME10_DIM_1
 70
             0
  3

  4

  5

  6
_DOT
  7

 40
1.0
 41
1.6
 42
0.5
 43
0.38
 44
0.5
 45
0.0
 46
0.0
 47
0.0
 48
0.0
 71
             0
 72
             0
 73
             0
 74
             0
 75
             0
 76
             0
 77
             1
 78
             8
140
1.6
141
0.09
142
0.0
143
25.4
144
1.0
145
0.0
146
1.0
147
0.625
170
             0
171
             2
172
             1
173
             1
174
             0
175
             0
176
             2
177
             2
178
             2
270
             2
271
             3
272
             4
273
             2
274
             2
275
             0
280
             0
281
             0
282
             0
283
             1
284
             0
285
             0
286
             0
287
             3
288
             0
340
58
  0
DIMSTYLE
105
7D
100
AcDbSymbolTableRecord
100
AcDbDimStyleTableRecord
  2
ME10_DIM_2
 70
             0
  3
2-<>~T0.5
  4

  5

  6

  7

 40
1.0
 41
1.6
 42
0.5
 43
0.38
 44
0.5
 45
0.0
 46
0.0
 47
0.0
 48
0.0
 71
             0
 72
             0
 73
             0
 74
             0
 75
             0
 76
             0
 77
             1
 78
             8
140
1.6
141
0.09
142
0.0
143
25.4
144
1.0
145
0.0
146
1.0
147
0.625
170
             0
171
             2
172
             1
173
             1
174
             0
175
             0
176
             2
177
             2
178
             2
270
             2
271
             3
272
             4
273
             2
274
             2
275
             0
280
             0
281
             0
282
             0
283
             1
284
             0
285
             0
286
             0
287
             3
288
             0
340
58
  0
DIMSTYLE
105
89
100
AcDbSymbolTableRecord
100
AcDbDimStyleTableRecord
  2
ME10_DIM_3
 70
             0
  3

  4

  5

  6
_NONE
  7
_NONE
 40
1.0
 41
0.0
 42
0.5
 43
0.38
 44
0.5
 45
0.0
 46
0.0
 47
0.0
 48
0.0
 71
             0
 72
             0
 73
             0
 74
             0
 75
             0
 76
             0
 77
             1
 78
             8
140
1.6
141
0.09
142
0.0
143
25.4
144
1.0
145
0.0
146
1.0
147
0.625
170
             0
171
             2
172
             1
173
             1
174
             0
175
             0
176
             2
177
             2
178
             2
270
             2
271
             3
272
             4
273
             2
274
             2
275
             0
280
             0
281
             0
282
             0
283
             1
284
             0
285
             0
286
             0
287
             3
288
             0
340
58
  0
DIMSTYLE
105
21A
100
AcDbSymbolTableRecord
100
AcDbDimStyleTableRecord
  2
ME10_DIM_4
 70
             0
  3
{\Fgdt;n}<>
  4

  5

  6

  7

 40
1.0
 41
3.2
 42
1.0
 43
0.38
 44
1.0
 45
0.0
 46
0.0
 47
0.0
 48
0.0
 71
             0
 72
             0
 73
             0
 74
             0
 75
             0
 76
             0
 77
             1
 78
             8
140
3.2
141
0.09
142
0.0
143
25.4
144
1.0
145
0.0
146
1.0
147
0.625
170
             0
171
             2
172
             1
173
             1
174
             0
175
             0
176
             2
177
             2
178
             2
270
             2
271
             3
272
             4
273
             2
274
             2
275
             0
280
             0
281
             0
282
             0
283
             1
284
             0
285
             0
286
             0
287
             3
288
             0
340
58
  0
DIMSTYLE
105
225
100
AcDbSymbolTableRecord
100
AcDbDimStyleTableRecord
  2
ME10_DIM_5
 70
             0
  3
(<>)
  4

  5

  6

  7

 40
1.0
 41
3.2
 42
1.0
 43
0.38
 44
1.0
 45
0.0
 46
0.0
 47
0.0
 48
0.0
 71
             0
 72
             0
 73
             0
 74
             0
 75
             0
 76
             0
 77
             1
 78
             8
140
3.2
141
0.09
142
0.0
143
25.4
144
1.0
145
0.0
146
1.0
147
0.625
170
             0
171
             2
172
             1
173
             1
174
             0
175
             0
176
             2
177
             2
178
             2
270
             2
271
             3
272
             4
273
             2
274
             2
275
             0
280
             0
281
             0
282
             0
283
             1
284
             0
285
             0
286
             0
287
             3
288
             0
340
58
  0
DIMSTYLE
105
230
100
AcDbSymbolTableRecord
100
AcDbDimStyleTableRecord
  2
ME10_DIM_6
 70
             0
  3

  4

  5

  6

  7

 40
1.0
 41
3.2
 42
1.0
 43
0.38
 44
1.0
 45
0.0
 46
0.0
 47
0.0
 48
0.0
 71
             0
 72
             0
 73
             0
 74
             0
 75
             0
 76
             0
 77
             1
 78
             8
140
3.2
141
0.09
142
0.0
143
25.4
144
1.0
145
0.0
146
1.0
147
0.625
170
             0
171
             2
172
             1
173
             1
174
             0
175
             0
176
             2
177
             2
178
             2
270
             2
271
             3
272
             4
273
             2
274
             2
275
             0
280
             0
281
             0
282
             0
283
             1
284
             0
285
             0
286
             0
287
             3
288
             0
340
58
  0
DIMSTYLE
105
23D
100
AcDbSymbolTableRecord
100
AcDbDimStyleTableRecord
  2
ME10_DIM_7
 70
             0
  3

  4

  5

  6

  7

 40
1.0
 41
3.2
 42
1.0
 43
0.38
 44
1.0
 45
0.0
 46
0.0
 47
0.0
 48
0.0
 71
             0
 72
             0
 73
             0
 74
             0
 75
             0
 76
             0
 77
             1
 78
             8
140
3.2
141
0.09
142
0.0
143
25.4
144
1.0
145
0.0
146
1.0
147
0.625
170
             0
171
             2
172
             1
173
             1
174
             0
175
             0
176
             2
177
             2
178
             2
270
             2
271
             3
272
             4
273
             2
274
             2
275
             0
280
             0
281
             0
282
             0
283
             1
284
             0
285
             0
286
             0
287
             3
288
             0
340
58
  0
DIMSTYLE
105
248
100
AcDbSymbolTableRecord
100
AcDbDimStyleTableRecord
  2
ME10_DIM_8
 70
             0
  3

  4

  5

  6

  7

 40
1.0
 41
3.2
 42
1.0
 43
0.38
 44
1.0
 45
0.0
 46
0.0
 47
0.1
 48
-0.3
 71
             1
 72
             0
 73
             0
 74
             0
 75
             0
 76
             0
 77
             1
 78
             8
140
3.2
141
0.09
142
0.0
143
25.4
144
1.0
145
0.0
146
0.6
147
0.625
170
             0
171
             2
172
             1
173
             1
174
             0
175
             0
176
             2
177
             2
178
             2
270
             2
271
             3
272
             1
273
             2
274
             2
275
             0
280
             0
281
             0
282
             0
283
             1
284
             0
285
             0
286
             0
287
             3
288
             0
340
58
  0
DIMSTYLE
105
253
100
AcDbSymbolTableRecord
100
AcDbDimStyleTableRecord
  2
ME10_DIM_9
 70
             0
  3
{\Fgdt;n}<>
  4

  5

  6

  7

 40
1.0
 41
3.2
 42
1.0
 43
0.38
 44
1.0
 45
0.0
 46
0.0
 47
0.0
 48
-0.03
 71
             1
 72
             0
 73
             0
 74
             0
 75
             0
 76
             0
 77
             1
 78
             8
140
3.2
141
0.09
142
0.0
143
25.4
144
1.0
145
0.0
146
0.6
147
0.625
170
             0
171
             2
172
             1
173
             1
174
             0
175
             0
176
             2
177
             2
178
             2
270
             2
271
             3
272
             0
273
             2
274
             2
275
             0
280
             0
281
             0
282
             0
283
             1
284
             0
285
             0
286
             0
287
             3
288
             0
340
58
  0
DIMSTYLE
105
25E
100
AcDbSymbolTableRecord
100
AcDbDimStyleTableRecord
  2
ME10_DIM_10
 70
             0
  3

  4

  5

  6

  7

 40
1.0
 41
3.2
 42
1.0
 43
0.38
 44
1.0
 45
0.0
 46
0.0
 47
0.3
 48
0.3
 71
             1
 72
             0
 73
             0
 74
             0
 75
             0
 76
             0
 77
             1
 78
             8
140
3.2
141
0.09
142
0.0
143
25.4
144
1.0
145
0.0
146
0.6
147
0.625
170
             0
171
             2
172
             1
173
             1
174
             0
175
             0
176
             2
177
             2
178
             2
270
             2
271
             3
272
             1
273
             2
274
             2
275
             0
280
             0
281
             0
282
             0
283
             1
284
             0
285
             0
286
             0
287
             3
288
             0
340
58
  0
DIMSTYLE
105
269
100
AcDbSymbolTableRecord
100
AcDbDimStyleTableRecord
  2
ME10_DIM_11
 70
             0
  3

  4

  5

  6

  7

 40
1.0
 41
3.2
 42
1.0
 43
0.38
 44
1.0
 45
0.0
 46
0.0
 47
0.3
 48
0.3
 71
             1
 72
             0
 73
             0
 74
             0
 75
             0
 76
             0
 77
             1
 78
             8
140
3.2
141
0.09
142
0.0
143
25.4
144
1.0
145
0.0
146
0.6
147
0.625
170
             0
171
             2
172
             1
173
             1
174
             0
175
             0
176
             2
177
             2
178
             2
270
             2
271
             3
272
             1
273
             2
274
             2
275
             0
280
             0
281
             0
282
             0
283
             1
284
             0
285
             0
286
             0
287
             3
288
             0
340
58
  0
DIMSTYLE
105
274
100
AcDbSymbolTableRecord
100
AcDbDimStyleTableRecord
  2
ME10_DIM_12
 70
             0
  3
 <>
  4

  5

  6

  7

 40
1.0
 41
3.2
 42
1.0
 43
0.38
 44
1.0
 45
0.0
 46
0.0
 47
0.0
 48
0.0
 71
             0
 72
             0
 73
             0
 74
             0
 75
             0
 76
             0
 77
             1
 78
             8
140
3.2
141
0.09
142
0.0
143
25.4
144
1.0
145
0.0
146
1.0
147
0.625
170
             0
171
             2
172
             1
173
             1
174
             0
175
             0
176
             2
177
             2
178
             2
270
             2
271
             3
272
             4
273
             2
274
             2
275
             0
280
             0
281
             0
282
             0
283
             1
284
             0
285
             0
286
             0
287
             3
288
             0
340
58
  0
DIMSTYLE
105
27F
100
AcDbSymbolTableRecord
100
AcDbDimStyleTableRecord
  2
ME10_DIM_13
 70
             0
  3
{\Fgdt;n}<>
  4

  5

  6

  7

 40
1.0
 41
3.2
 42
1.0
 43
0.38
 44
1.0
 45
0.0
 46
0.0
 47
0.0
 48
0.0
 71
             0
 72
             0
 73
             0
 74
             0
 75
             0
 76
             0
 77
             1
 78
             8
140
3.2
141
0.09
142
0.0
143
25.4
144
1.0
145
0.0
146
1.0
147
0.625
170
             0
171
             2
172
             1
173
             1
174
             0
175
             0
176
             2
177
             2
178
             2
270
             2
271
             3
272
             4
273
             2
274
             2
275
             0
280
             0
281
             0
282
             0
283
             1
284
             0
285
             0
286
             0
287
             3
288
             0
340
58
  0
DIMSTYLE
105
28A
100
AcDbSymbolTableRecord
100
AcDbDimStyleTableRecord
  2
ME10_DIM_14
 70
             0
  3
{\Fgdt;n}<>
  4

  5

  6

  7

 40
1.0
 41
3.2
 42
1.0
 43
0.38
 44
1.0
 45
0.0
 46
0.0
 47
0.0
 48
0.0
 71
             0
 72
             0
 73
             0
 74
             0
 75
             0
 76
             0
 77
             1
 78
             8
140
3.2
141
0.09
142
0.0
143
25.4
144
1.0
145
0.0
146
1.0
147
0.625
170
             0
171
             2
172
             1
173
             1
174
             0
175
             0
176
             2
177
             2
178
             2
270
             2
271
             3
272
             4
273
             2
274
             2
275
             0
280
             0
281
             0
282
             0
283
             1
284
             0
285
             0
286
             0
287
             3
288
             0
340
58
  0
DIMSTYLE
105
297
100
AcDbSymbolTableRecord
100
AcDbDimStyleTableRecord
  2
ME10_DIM_15
 70
             0
  3
(<>)
  4

  5

  6

  7

 40
1.0
 41
3.2
 42
1.0
 43
0.38
 44
1.0
 45
0.0
 46
0.0
 47
0.0
 48
0.0
 71
             0
 72
             0
 73
             0
 74
             0
 75
             0
 76
             0
 77
             1
 78
             8
140
3.2
141
0.09
142
0.0
143
25.4
144
1.0
145
0.0
146
1.0
147
0.625
170
             0
171
             2
172
             1
173
             1
174
             0
175
             0
176
             2
177
             2
178
             2
270
             2
271
             3
272
             4
273
             2
274
             2
275
             0
280
             0
281
             0
282
             0
283
             1
284
             0
285
             0
286
             0
287
             3
288
             0
340
58
  0
ENDTAB
  0
TABLE
  2
BLOCK_RECORD
  5
1
100
AcDbSymbolTable
 70
            21
  0
BLOCK_RECORD
  5
A
100
AcDbSymbolTableRecord
100
AcDbBlockTableRecord
  2
*MODEL_SPACE
  0
BLOCK_RECORD
  5
B
100
AcDbSymbolTableRecord
100
AcDbBlockTableRecord
  2
*PAPER_SPACE
  0
BLOCK_RECORD
  5
25
100
AcDbSymbolTableRecord
100
AcDbBlockTableRecord
  2
_____V______
  0
BLOCK_RECORD
  5
4F
100
AcDbSymbolTableRecord
100
AcDbBlockTableRecord
  2
*D1
  0
BLOCK_RECORD
  5
5D
100
AcDbSymbolTableRecord
100
AcDbBlockTableRecord
  2
*D2
  0
BLOCK_RECORD
  5
68
100
AcDbSymbolTableRecord
100
AcDbBlockTableRecord
  2
_DOT
  0
BLOCK_RECORD
  5
72
100
AcDbSymbolTableRecord
100
AcDbBlockTableRecord
  2
*D4
  0
BLOCK_RECORD
  5
7F
100
AcDbSymbolTableRecord
100
AcDbBlockTableRecord
  2
*D5
  0
BLOCK_RECORD
  5
86
100
AcDbSymbolTableRecord
100
AcDbBlockTableRecord
  2
_NONE
  0
BLOCK_RECORD
  5
8B
100
AcDbSymbolTableRecord
100
AcDbBlockTableRecord
  2
*D7
  0
BLOCK_RECORD
  5
211
100
AcDbSymbolTableRecord
100
AcDbBlockTableRecord
  2
*D8
  0
BLOCK_RECORD
  5
21C
100
AcDbSymbolTableRecord
100
AcDbBlockTableRecord
  2
*D9
  0
BLOCK_RECORD
  5
227
100
AcDbSymbolTableRecord
100
AcDbBlockTableRecord
  2
*D10
  0
BLOCK_RECORD
  5
232
100
AcDbSymbolTableRecord
100
AcDbBlockTableRecord
  2
*D11
  0
BLOCK_RECORD
  5
23F
100
AcDbSymbolTableRecord
100
AcDbBlockTableRecord
  2
*D12
  0
BLOCK_RECORD
  5
24A
100
AcDbSymbolTableRecord
100
AcDbBlockTableRecord
  2
*D13
  0
BLOCK_RECORD
  5
255
100
AcDbSymbolTableRecord
100
AcDbBlockTableRecord
  2
*D14
  0
BLOCK_RECORD
  5
260
100
AcDbSymbolTableRecord
100
AcDbBlockTableRecord
  2
*D15
  0
BLOCK_RECORD
  5
26B
100
AcDbSymbolTableRecord
100
AcDbBlockTableRecord
  2
*D16
  0
BLOCK_RECORD
  5
276
100
AcDbSymbolTableRecord
100
AcDbBlockTableRecord
  2
*D17
  0
BLOCK_RECORD
  5
281
100
AcDbSymbolTableRecord
100
AcDbBlockTableRecord
  2
*D18
  0
BLOCK_RECORD
  5
28C
100
AcDbSymbolTableRecord
100
AcDbBlockTableRecord
  2
*D19
  0
BLOCK_RECORD
  5
299
100
AcDbSymbolTableRecord
100
AcDbBlockTableRecord
  2
*D20
  0
ENDTAB
  0
ENDSEC
  0
SECTION
  2
BLOCKS
  0
BLOCK
  5
D
100
AcDbEntity
  8
0
100
AcDbBlockBegin
  2
*MODEL_SPACE
 70
             0
 10
0.0
 20
0.0
 30
0.0
  3
*MODEL_SPACE
  1

  0
ENDBLK
  5
E
100
AcDbEntity
  8
0
100
AcDbBlockEnd
  0
BLOCK
  5
F
100
AcDbEntity
 67
             1
  8
0
100
AcDbBlockBegin
  2
*PAPER_SPACE
 70
             0
 10
0.0
 20
0.0
 30
0.0
  3
*PAPER_SPACE
  1

  0
ENDBLK
  5
10
100
AcDbEntity
 67
             1
  8
0
100
AcDbBlockEnd
  0
BLOCK
  5
26
100
AcDbEntity
  8
0
100
AcDbBlockBegin
  2
_____V______
 70
             0
 10
49.39524886579382
 20
-73.34927644553748
 30
0.0
  3
_____V______
  1

  0
DIMENSION
  5
8A
100
AcDbEntity
  8
1
100
AcDbDimension
  2
*D5
 10
58.04999999996404
 20
-43.83316961478697
 11
60.54999999992801
 21
-42.53316961478697
 31
0.0
 53
0.00013888888889
  1
<>
  3
ME10_DIM_3
100
AcDbAlignedDimension
 13
63.04999999989197
 23
-54.72427644553747
 14
58.04999999996403
 24
-52.22433812620145
100
AcDbRotatedDimension
  0
DIMENSION
  5
7E
100
AcDbEntity
  8
1
100
AcDbDimension
  2
*D4
 10
70.54999999989195
 20
-54.22427644553747
 11
69.24999999989196
 21
-46.12977852317647
 31
0.0
 53
90.0
  1
<>
  3
ME10_DIM_2
100
AcDbAlignedDimension
 13
62.54999999989197
 23
-57.72427644553747
 14
62.54999999989197
 24
-54.22427644553747
 50
90.0
100
AcDbRotatedDimension
  0
DIMENSION
  5
71
100
AcDbEntity
  8
1
100
AcDbDimension
  2
*D2
 10
57.34999999996398
 20
-43.83316961478697
 11
53.9626582542871
 21
-42.53316961478697
 31
0.0
 53
0.00013888888889
  1
<>
  3
ME10_DIM_1
100
AcDbAlignedDimension
 13
58.04999999996403
 23
-52.22433812620145
 14
57.34999999996397
 24
-48.83316961478697
100
AcDbRotatedDimension
  0
DIMENSION
  5
5C
100
AcDbEntity
  8
1
100
AcDbDimension
  2
*D1
 10
61.04999999989198
 20
-47.9027859574819
 11
65.55486472089851
 21
-46.6027859574819
 31
0.0
 53
0.00013888888889
  1
<>
  3
ME10_DIM_0
100
AcDbAlignedDimension
 13
63.04999999989197
 23
-54.72427644553747
 14
61.04999999989197
 24
-54.17427644553717
100
AcDbRotatedDimension
  0
MTEXT
  5
4E
100
AcDbEntity
  8
1
 62
             2
100
AcDbMText
 10
60.04999999989198
 20
-69.67427644553746
 30
0.0
 40
1.75
 41
0.0
 71
             5
 72
             1
  1
cds`hk@cq`vhmf@@(+)A(-)@sdqlhm`k
  7
CONVERTER_2
  0
MTEXT
  5
4C
100
AcDbEntity
  8
1
 62
             2
100
AcDbMText
 10
60.04999999989198
 20
-72.47427644553744
 30
0.0
 40
1.75
 41
0.0
 71
             5
 72
             1
  1
iQFPj
  7
CONVERTER_1
  0
LEADER
  5
4A
100
AcDbEntity
  8
1
  6
CONTINUOUS
 62
             2
100
AcDbLeader
  3
Standard
 71
             0
 73
             3
 74
             0
 75
             0
 40
0.0
 76
             2
 10
62.54999999989197
 20
-43.83316961478697
 30
0.0
 10
65.34782273428249
 20
-43.83316961478697
 30
0.0
 77
             2
  0
XLINE
  5
48
100
AcDbEntity
  8
1
  6
DOT_CENTER
 62
             3
 60
             1
100
AcDbXline
 10
49.74999999989199
 20
-55.97427644553747
 30
0.0
 11
1.0
 21
0.0
 31
0.0
  0
SPLINE
  5
47
100
AcDbEntity
  8
1
  6
CONTINUOUS
 62
             2
100
AcDbSpline
210
0.0
220
0.0
230
1.0
 70
             0
 71
             3
 72
            11
 73
             7
 74
            11
 42
0.00000000001
 43
0.00000000001
 44
0.00000000001
 40
0.0
 40
0.0
 40
0.0
 40
0.0
 40
8.8172586376120421
 40
13.80450422862512
 40
17.652653168574769
 40
26.23093779383856
 40
26.23093779383856
 40
26.23093779383856
 40
26.23093779383856
 10
57.34999999996397
 20
-64.012489058437865
 30
0.0
 10
52.899658858464157
 20
-61.82711533500175
 30
0.0
 10
53.64738856692238
 20
-61.092546887838211
 30
0.0
 10
50.861837191510759
 20
-57.383734186712587
 30
0.0
 10
53.345747784729937
 20
-51.857764163768977
 30
0.0
 10
53.326603354318777
 20
-49.393885841506531
 30
0.0
 10
57.34999999996397
 20
-48.833169614786968
 30
0.0
 11
57.34999999996397
 21
-64.012489058437865
 31
0.0
 11
54.315574952784878
 21
-62.302891120511383
 31
0.0
 11
53.206068423427254
 21
-61.159697584655554
 31
0.0
 11
52.661109905661078
 21
-60.005187697447546
 31
0.0
 11
51.920537768967172
 21
-58.643067484044053
 31
0.0
 11
51.527860007080392
 21
-56.842530577234193
 31
0.0
 11
51.889142512459216
 21
-55.18579908536757
 31
0.0
 11
52.499217063006675
 21
-53.50067984695869
 31
0.0
 11
53.236340279849166
 21
-51.345892278803852
 31
0.0
 11
54.491013806575651
 21
-49.75782410768285
 31
0.0
 11
57.34999999996397
 21
-48.833169614786968
 31
0.0
  0
CIRCLE
  5
46
100
AcDbEntity
  8
1
  6
CONTINUOUS
 62
             3
100
AcDbCircle
 10
61.04999999989197
 20
-55.97427644553747
 40
1.0
  0
LINE
  5
45
100
AcDbEntity
  8
1
  6
CONTINUOUS
 62
             2
100
AcDbLine
 10
39.07783494208595
 20
-70.97427644553747
 11
81.40817059150197
 21
-70.97427644553747
  0
LINE
  5
44
100
AcDbEntity
  8
1
  6
CONTINUOUS
 62
             3
100
AcDbLine
 10
57.34999999996396
 20
-60.72422093297875
 11
56.34999999996397
 21
-59.72421476487347
  0
LINE
  5
43
100
AcDbEntity
  8
1
  6
CONTINUOUS
 62
             3
100
AcDbLine
 10
57.34999999996397
 20
-59.72421476487349
 11
57.34999999996397
 21
-64.01248905843787
  0
LINE
  5
42
100
AcDbEntity
  8
1
  6
CONTINUOUS
 62
             3
100
AcDbLine
 10
58.04999999996403
 20
-59.72433812620145
 11
52.50484335401588
 21
-59.72433812620189
  0
LINE
  5
41
100
AcDbEntity
  8
1
  6
CONTINUOUS
 62
             3
100
AcDbLine
 10
56.34999999996397
 20
-52.22433812620145
 11
57.34999999996396
 21
-51.22433195809618
  0
LINE
  5
40
100
AcDbEntity
  8
1
  6
CONTINUOUS
 62
             3
100
AcDbLine
 10
55.34999999996397
 20
-52.22421476487236
 11
55.34999999996397
 21
-53.22421476487349
  0
LINE
  5
3F
100
AcDbEntity
  8
1
  6
CONTINUOUS
 62
             3
100
AcDbLine
 10
55.34999999996397
 20
-58.72433812620145
 11
55.34999999996397
 21
-59.72433812620257
  0
LINE
  5
3E
100
AcDbEntity
  8
1
  6
CONTINUOUS
 62
             1
100
AcDbLine
 10
64.32999999989193
 20
-55.97427644553747
 11
49.74999999989199
 21
-55.97427644553747
  0
LINE
  5
3D
100
AcDbEntity
  8
1
  6
CONTINUOUS
 62
             3
100
AcDbLine
 10
62.54999999989197
 20
-54.22427644553747
 11
58.54999999996403
 21
-54.22427644553747
  0
LINE
  5
3C
100
AcDbEntity
  8
1
  6
CONTINUOUS
 62
             3
100
AcDbLine
 10
63.04999999989197
 20
-54.72427644553747
 11
63.04999999989197
 21
-57.22427644553747
  0
LINE
  5
3B
100
AcDbEntity
  8
1
  6
CONTINUOUS
 62
             3
100
AcDbLine
 10
63.04999999989197
 20
-54.72427644553747
 11
62.54999999989197
 21
-54.22427644553747
  0
LINE
  5
3A
100
AcDbEntity
  8
1
  6
CONTINUOUS
 62
             3
100
AcDbLine
 10
63.04999999989197
 20
-57.22427644553747
 11
62.54999999989197
 21
-57.72427644553747
  0
LINE
  5
39
100
AcDbEntity
  8
1
  6
CONTINUOUS
 62
             1
100
AcDbLine
 10
61.04999999989197
 20
-54.17427644553717
 11
61.04999999989197
 21
-57.77427644553777
  0
LINE
  5
38
100
AcDbEntity
  8
1
  6
CONTINUOUS
 62
             1
100
AcDbLine
 10
49.74999999989199
 20
-55.97427644553747
 11
64.32999999989193
 21
-55.97427644553747
  0
LINE
  5
37
100
AcDbEntity
  8
1
  6
CONTINUOUS
 62
             3
100
AcDbLine
 10
58.54999999996403
 20
-57.72427644553747
 11
62.54999999989197
 21
-57.72427644553747
  0
LINE
  5
36
100
AcDbEntity
  8
1
  6
CONTINUOUS
 62
             3
100
AcDbLine
 10
58.04999999996403
 20
-54.97427644553747
 11
58.04999999996403
 21
-52.22433812620145
  0
LINE
  5
35
100
AcDbEntity
  8
1
  6
CONTINUOUS
 62
             3
100
AcDbLine
 10
55.34999999996397
 20
-54.97427644553747
 11
58.04999999996403
 21
-54.97427644553747
  0
LINE
  5
34
100
AcDbEntity
  8
1
  6
CONTINUOUS
 62
             3
100
AcDbLine
 10
55.34999999996397
 20
-56.97427644553747
 11
55.34999999996397
 21
-54.97427644553747
  0
LINE
  5
33
100
AcDbEntity
  8
1
  6
CONTINUOUS
 62
             3
100
AcDbLine
 10
58.04999999996403
 20
-56.97427644553724
 11
55.34999999996397
 21
-56.97427644553747
  0
LINE
  5
32
100
AcDbEntity
  8
1
  6
CONTINUOUS
 62
             3
100
AcDbLine
 10
58.04999999996403
 20
-59.72433812620145
 11
58.04999999996403
 21
-56.97427644553724
  0
LINE
  5
31
100
AcDbEntity
  8
1
  6
CONTINUOUS
 62
             3
100
AcDbLine
 10
56.54999999996403
 20
-52.22433812620145
 11
56.54999999996403
 21
-53.22433812620145
  0
LINE
  5
30
100
AcDbEntity
  8
1
  6
CONTINUOUS
 62
             3
100
AcDbLine
 10
56.54999999996403
 20
-53.22433812620145
 11
55.34999999996397
 21
-53.22433812620145
  0
LINE
  5
2F
100
AcDbEntity
  8
1
  6
CONTINUOUS
 62
             3
100
AcDbLine
 10
56.54999999996403
 20
-58.72433812620145
 11
56.54999999996403
 21
-59.72433812620145
  0
LINE
  5
2E
100
AcDbEntity
  8
1
  6
CONTINUOUS
 62
             3
100
AcDbLine
 10
55.34999999996397
 20
-58.72433812620145
 11
56.54999999996403
 21
-58.72433812620145
  0
LINE
  5
2D
100
AcDbEntity
  8
1
  6
CONTINUOUS
 62
             3
100
AcDbLine
 10
57.34999999996397
 20
-48.83316961478697
 11
57.34999999996397
 21
-52.22433812620145
  0
LINE
  5
2C
100
AcDbEntity
  8
1
  6
CONTINUOUS
 62
             3
100
AcDbLine
 10
52.91433484835476
 20
-52.22429287316726
 11
58.04999999996403
 21
-52.22433812620145
  0
LINE
  5
2B
100
AcDbEntity
  8
1
  6
CONTINUOUS
 62
             3
100
AcDbLine
 10
58.04999999996403
 20
-54.53394621596917
 11
58.54999999996403
 21
-54.22427644553747
  0
LINE
  5
2A
100
AcDbEntity
  8
1
  6
CONTINUOUS
 62
             3
100
AcDbLine
 10
58.54999999996403
 20
-57.72427644553747
 11
58.04999999996403
 21
-57.41460667510594
  0
SOLID
  5
49
100
AcDbEntity
  8
1
 62
             2
100
AcDbTrace
 10
64.14999999989198
 20
-43.62252561864713
 11
64.14999999989198
 21
-44.0438136109268
 12
62.54999999989197
 22
-43.83316961478697
 13
62.54999999989197
 23
-43.83316961478697
  0
INSERT
  5
92
100
AcDbEntity
  8
0
100
AcDbBlockReference
  2
*D7
 10
0.0
 20
0.0
  0
ENDBLK
  5
93
100
AcDbEntity
  8
0
100
AcDbBlockEnd
  0
BLOCK
  5
50
100
AcDbEntity
  8
0
100
AcDbBlockBegin
  2
*D1
 70
             1
 10
0.0
 20
0.0
 30
0.0
  3
*D1
  1

  0
LINE
  5
51
100
AcDbEntity
  8
0
  6
CONTINUOUS
 62
             2
100
AcDbLine
 10
63.04999999989198
 20
-47.9027859574819
 11
66.24999999989198
 21
-47.9027859574819
  0
LINE
  5
52
100
AcDbEntity
  8
0
  6
CONTINUOUS
 62
             2
100
AcDbLine
 10
61.04999999989198
 20
-47.9027859574819
 11
63.04999999989198
 21
-47.9027859574819
  0
LINE
  5
53
100
AcDbEntity
  8
0
  6
CONTINUOUS
 62
             2
100
AcDbLine
 10
57.84999999989198
 20
-47.9027859574819
 11
61.04999999989198
 21
-47.9027859574819
  0
LINE
  5
54
100
AcDbEntity
  8
0
  6
CONTINUOUS
 62
             2
100
AcDbLine
 10
63.04999999989198
 20
-54.22427644553747
 11
63.04999999989198
 21
-47.4027859574819
  0
LINE
  5
55
100
AcDbEntity
  8
0
  6
CONTINUOUS
 62
             2
100
AcDbLine
 10
61.04999999989198
 20
-53.67427644553717
 11
61.04999999989198
 21
-47.4027859574819
  0
SOLID
  5
56
100
AcDbEntity
  8
0
 62
             2
100
AcDbTrace
 10
59.44999999989198
 20
-48.11342995362173
 11
59.44999999989198
 21
-47.69214196134206
 12
61.04999999989198
 22
-47.9027859574819
 13
61.04999999989198
 23
-47.9027859574819
  0
SOLID
  5
57
100
AcDbEntity
  8
0
 62
             2
100
AcDbTrace
 10
64.64999999989198
 20
-47.69214196134206
 11
64.64999999989198
 21
-48.11342995362173
 12
63.04999999989198
 22
-47.9027859574819
 13
63.04999999989198
 23
-47.9027859574819
  0
MTEXT
  5
59
100
AcDbEntity
  8
0
 62
             2
100
AcDbMText
 10
65.0748647208985
 20
-47.4027859574819
 30
0.0
 40
1.6
 41
0.0
 71
             7
 72
             1
  1
2
  7
CONVERTER_3
 11
0.99999999999706
 21
0.00000242406841
 31
0.0
  0
ENDBLK
  5
5A
100
AcDbEntity
  8
0
100
AcDbBlockEnd
  0
BLOCK
  5
5E
100
AcDbEntity
  8
0
100
AcDbBlockBegin
  2
*D2
 70
             1
 10
0.0
 20
0.0
 30
0.0
  3
*D2
  1

  0
LINE
  5
5F
100
AcDbEntity
  8
0
  6
CONTINUOUS
 62
             2
100
AcDbLine
 10
57.34999999996398
 20
-43.83316961478697
 11
52.5026582542871
 21
-43.83316961478697
  0
LINE
  5
60
100
AcDbEntity
  8
0
  6
CONTINUOUS
 62
             2
100
AcDbLine
 10
57.34999999996398
 20
-43.83316961478697
 11
58.04999999996404
 21
-43.83316961478697
  0
LINE
  5
61
100
AcDbEntity
  8
0
  6
CONTINUOUS
 62
             2
100
AcDbLine
 10
58.04999999996404
 20
-51.72433812620144
 11
58.04999999996404
 21
-43.33316961478697
  0
LINE
  5
62
100
AcDbEntity
  8
0
  6
CONTINUOUS
 62
             2
100
AcDbLine
 10
57.34999999996398
 20
-48.33316961478697
 11
57.34999999996398
 21
-43.33316961478697
  0
SOLID
  5
63
100
AcDbEntity
  8
0
 62
             2
100
AcDbTrace
 10
55.74999999996398
 20
-44.0438136109268
 11
55.74999999996398
 21
-43.62252561864713
 12
57.34999999996398
 22
-43.83316961478697
 13
57.34999999996398
 23
-43.83316961478697
  0
CIRCLE
  5
64
100
AcDbEntity
  8
0
 62
             2
100
AcDbCircle
 10
58.04999999996404
 20
-43.83316961478697
 40
0.375
  0
HATCH
  5
65
100
AcDbEntity
  8
0
 62
             2
100
AcDbHatch
 10
0.0
 20
0.0
 30
0.0
210
0.0
220
0.0
230
1.0
  2
SOLID
 70
             1
 71
             1
 91
        1
 92
        1
 93
        1
 72
             2
 10
58.049999999964044
 20
-43.833169614786968
 40
0.375
 50
-180.0
 51
180.0
 73
             1
 97
        1
330
64
 75
             0
 76
             1
 98
        1
 10
0.0
 20
0.0
  0
MTEXT
  5
66
100
AcDbEntity
  8
0
 62
             2
100
AcDbMText
 10
52.5026582542871
 20
-43.33316961478697
 30
0.0
 40
1.6
 41
0.0
 71
             7
 72
             1
  1
0.7
  7
CONVERTER_3
 11
0.99999999999706
 21
0.00000242406841
 31
0.0
  0
ENDBLK
  5
67
100
AcDbEntity
  8
0
100
AcDbBlockEnd
  0
BLOCK
  5
69
100
AcDbEntity
  8
0
 62
             0
100
AcDbBlockBegin
  2
_DOT
 70
             0
 10
0.0
 20
0.0
 30
0.0
  3
_DOT
  1

  0
POLYLINE
  5
6A
100
AcDbEntity
  8
0
  6
BYBLOCK
 62
             0
100
AcDb2dPolyline
 66
             1
 10
0.0
 20
0.0
 30
0.0
 70
             1
 40
0.5
 41
0.5
  0
VERTEX
  5
6B
100
AcDbEntity
  8
0
  6
BYBLOCK
 62
             0
100
AcDbVertex
100
AcDb2dVertex
 10
-0.25
 20
0.0
 42
1.0
  0
VERTEX
  5
6C
100
AcDbEntity
  8
0
  6
BYBLOCK
 62
             0
100
AcDbVertex
100
AcDb2dVertex
 10
0.25
 20
0.0
 42
1.0
  0
SEQEND
  5
6D
100
AcDbEntity
  8
0
 62
             0
  0
LINE
  5
6E
100
AcDbEntity
  8
0
  6
BYBLOCK
 62
             0
100
AcDbLine
 10
-0.5
 20
0.0
 11
-1.0
 21
0.0
  0
ENDBLK
  5
6F
100
AcDbEntity
  8
0
 62
             0
100
AcDbBlockEnd
  0
BLOCK
  5
73
100
AcDbEntity
  8
0
100
AcDbBlockBegin
  2
*D4
 70
             1
 10
0.0
 20
0.0
 30
0.0
  3
*D4
  1

  0
LINE
  5
74
100
AcDbEntity
  8
0
  6
CONTINUOUS
 62
             2
100
AcDbLine
 10
70.54999999989195
 20
-54.22427644553747
 11
70.54999999989195
 21
-39.54860205258824
  0
LINE
  5
75
100
AcDbEntity
  8
0
  6
CONTINUOUS
 62
             2
100
AcDbLine
 10
70.54999999989195
 20
-57.72427644553747
 11
70.54999999989195
 21
-54.22427644553747
  0
LINE
  5
76
100
AcDbEntity
  8
0
  6
CONTINUOUS
 62
             2
100
AcDbLine
 10
70.54999999989195
 20
-60.92427644553747
 11
70.54999999989195
 21
-57.72427644553747
  0
LINE
  5
77
100
AcDbEntity
  8
0
  6
CONTINUOUS
 62
             2
100
AcDbLine
 10
63.04999999989196
 20
-54.22427644553747
 11
71.04999999989195
 21
-54.22427644553747
  0
LINE
  5
78
100
AcDbEntity
  8
0
  6
CONTINUOUS
 62
             2
100
AcDbLine
 10
63.04999999989196
 20
-57.72427644553747
 11
71.04999999989195
 21
-57.72427644553747
  0
SOLID
  5
79
100
AcDbEntity
  8
0
 62
             2
100
AcDbTrace
 10
70.33935600375212
 20
-52.62427644553747
 11
70.76064399603179
 21
-52.62427644553747
 12
70.54999999989195
 22
-54.22427644553747
 13
70.54999999989195
 23
-54.22427644553747
  0
SOLID
  5
7A
100
AcDbEntity
  8
0
 62
             2
100
AcDbTrace
 10
70.76064399603179
 20
-59.32427644553747
 11
70.33935600375212
 21
-59.32427644553747
 12
70.54999999989195
 22
-57.72427644553747
 13
70.54999999989195
 23
-57.72427644553747
  0
MTEXT
  5
7B
100
AcDbEntity
  8
0
 62
             2
100
AcDbMText
 10
70.04999999989195
 20
-52.29495499376471
 30
0.0
 40
1.6
 41
0.0
 71
             7
 72
             1
  1
\C2;2-\C2;3.5\C2;~T0.5
  7
CONVERTER_3
 11
0.0
 21
1.0
 31
0.0
  0
ENDBLK
  5
7C
100
AcDbEntity
  8
0
100
AcDbBlockEnd
  0
BLOCK
  5
80
100
AcDbEntity
  8
0
100
AcDbBlockBegin
  2
*D5
 70
             1
 10
0.0
 20
0.0
 30
0.0
  3
*D5
  1

  0
LINE
  5
81
100
AcDbEntity
  8
0
  6
CONTINUOUS
 62
             2
100
AcDbLine
 10
58.04999999996404
 20
-43.83316961478697
 11
63.04999999989197
 21
-43.83316961478697
  0
LINE
  5
82
100
AcDbEntity
  8
0
  6
CONTINUOUS
 62
             2
100
AcDbLine
 10
63.04999999989197
 20
-54.22427644553747
 11
63.04999999989197
 21
-43.33316961478697
  0
LINE
  5
83
100
AcDbEntity
  8
0
  6
CONTINUOUS
 62
             2
100
AcDbLine
 10
58.04999999996404
 20
-51.72433812620145
 11
58.04999999996404
 21
-43.33316961478697
  0
MTEXT
  5
84
100
AcDbEntity
  8
0
 62
             2
100
AcDbMText
 10
60.06999999992802
 20
-43.33316961478697
 30
0.0
 40
1.6
 41
0.0
 71
             7
 72
             1
  1
5
  7
CONVERTER_3
 11
0.99999999999706
 21
0.00000242406841
 31
0.0
  0
ENDBLK
  5
85
100
AcDbEntity
  8
0
100
AcDbBlockEnd
  0
BLOCK
  5
87
100
AcDbEntity
  8
0
 62
             0
100
AcDbBlockBegin
  2
_NONE
 70
             0
 10
0.0
 20
0.0
 30
0.0
  3
_NONE
  1

  0
ENDBLK
  5
88
100
AcDbEntity
  8
0
 62
             0
100
AcDbBlockEnd
  0
BLOCK
  5
8C
100
AcDbEntity
  8
0
100
AcDbBlockBegin
  2
*D7
 70
             1
 10
0.0
 20
0.0
 30
0.0
  3
*D7
  1

  0
LINE
  5
8D
100
AcDbEntity
  8
0
  6
CONTINUOUS
 62
             2
100
AcDbLine
 10
61.4993699070361
 20
-56.86762222772558
 11
65.09337371641249
 21
-64.01248905843787
  0
LINE
  5
8E
100
AcDbEntity
  8
0
  6
CONTINUOUS
 62
             2
100
AcDbLine
 10
65.09337371641249
 20
-64.01248905843787
 11
74.8426252508272
 21
-64.01248905843787
  0
SOLID
  5
8F
100
AcDbEntity
  8
0
 62
             2
100
AcDbTrace
 10
62.40653968396148
 20
-58.20231840624072
 11
62.03018383297194
 21
-58.39163255221237
 12
61.4993699070361
 22
-56.86762222772558
 13
61.4993699070361
 23
-56.86762222772558
  0
MTEXT
  5
90
100
AcDbEntity
  8
0
 62
             2
100
AcDbMText
 10
66.72262525083875
 20
-63.51249859957111
 30
0.0
 40
1.6
 41
0.0
 71
             7
 72
             1
  1
\C2;2-{\Fgdt;n}\C2;\C2;2\C2;\H0.960000;{\Fgdt;`}0.5
  7
CONVERTER_3
 11
0.99999999999706
 21
0.00000242406841
 31
0.0
  0
ENDBLK
  5
91
100
AcDbEntity
  8
0
100
AcDbBlockEnd
  0
BLOCK
  5
212
100
AcDbEntity
  8
0
100
AcDbBlockBegin
  2
*D8
 70
             1
 10
0.0
 20
0.0
 30
0.0
  3
*D8
  1

  0
LINE
  5
213
100
AcDbEntity
  8
0
  6
CONTINUOUS
 62
             2
100
AcDbLine
 10
87.19999999992797
 20
0.80000000000035
 11
87.19999999992797
 21
39.20000000000033
  0
LINE
  5
214
100
AcDbEntity
  8
0
  6
CONTINUOUS
 62
             2
100
AcDbLine
 10
33.59999999998983
 20
39.20000000000033
 11
88.19999999992797
 21
39.20000000000033
  0
LINE
  5
215
100
AcDbEntity
  8
0
  6
CONTINUOUS
 62
             2
100
AcDbLine
 10
33.59999999998983
 20
0.80000000000035
 11
88.19999999992797
 21
0.80000000000035
  0
SOLID
  5
216
100
AcDbEntity
  8
0
 62
             2
100
AcDbTrace
 10
87.62128799220763
 20
36.00000000000033
 11
86.7787120076483
 21
36.00000000000033
 12
87.19999999992797
 22
39.20000000000033
 13
87.19999999992797
 23
39.20000000000033
  0
SOLID
  5
217
100
AcDbEntity
  8
0
 62
             2
100
AcDbTrace
 10
86.7787120076483
 20
4.00000000000035
 11
87.62128799220764
 21
4.00000000000035
 12
87.19999999992797
 22
0.80000000000035
 13
87.19999999992797
 23
0.80000000000035
  0
MTEXT
  5
218
100
AcDbEntity
  8
0
 62
             2
100
AcDbMText
 10
86.19999999992797
 20
12.31200000000034
 30
0.0
 40
3.2
 41
0.0
 71
             7
 72
             1
  1
\C2;{\Fgdt;n}\C2;38.4
  7
CONVERTER_3
 11
0.0
 21
1.0
 31
0.0
  0
ENDBLK
  5
219
100
AcDbEntity
  8
0
100
AcDbBlockEnd
  0
BLOCK
  5
21D
100
AcDbEntity
  8
0
100
AcDbBlockBegin
  2
*D9
 70
             1
 10
0.0
 20
0.0
 30
0.0
  3
*D9
  1

  0
LINE
  5
21E
100
AcDbEntity
  8
0
  6
CONTINUOUS
 62
             2
100
AcDbLine
 10
159.2000000000005
 20
2.95000023236265
 11
159.2000000000005
 21
37.04999976763827
  0
LINE
  5
21F
100
AcDbEntity
  8
0
  6
CONTINUOUS
 62
             2
100
AcDbLine
 10
133.25317550374507
 20
2.95000023236265
 11
160.2000000000005
 21
2.95000023236265
  0
LINE
  5
220
100
AcDbEntity
  8
0
  6
CONTINUOUS
 62
             2
100
AcDbLine
 10
133.25317550374507
 20
37.04999976763827
 11
160.2000000000005
 21
37.04999976763827
  0
SOLID
  5
221
100
AcDbEntity
  8
0
 62
             2
100
AcDbTrace
 10
159.62128799228017
 20
33.84999976763827
 11
158.77871200772083
 21
33.84999976763827
 12
159.2000000000005
 22
37.04999976763827
 13
159.2000000000005
 23
37.04999976763827
  0
SOLID
  5
222
100
AcDbEntity
  8
0
 62
             2
100
AcDbTrace
 10
158.77871200772083
 20
6.15000023236265
 11
159.62128799228017
 21
6.15000023236265
 12
159.2000000000005
 22
2.95000023236265
 13
159.2000000000005
 23
2.95000023236265
  0
MTEXT
  5
223
100
AcDbEntity
  8
0
 62
             2
100
AcDbMText
 10
158.2000000000005
 20
14.97600000000046
 30
0.0
 40
3.2
 41
0.0
 71
             7
 72
             1
  1
\C2;(\C2;34\C2;)
  7
CONVERTER_3
 11
0.0
 21
1.0
 31
0.0
  0
ENDBLK
  5
224
100
AcDbEntity
  8
0
100
AcDbBlockEnd
  0
BLOCK
  5
228
100
AcDbEntity
  8
0
100
AcDbBlockBegin
  2
*D10
 70
             1
 10
0.0
 20
0.0
 30
0.0
  3
*D10
  1

  0
LINE
  5
229
100
AcDbEntity
  8
0
  6
CONTINUOUS
 62
             2
100
AcDbLine
 10
-24.49999999985971
 20
80.0000000000004
 11
52.19999999992797
 21
80.0000000000004
  0
LINE
  5
22A
100
AcDbEntity
  8
0
  6
CONTINUOUS
 62
             2
100
AcDbLine
 10
52.19999999992797
 20
27.30000000000008
 11
52.19999999992797
 21
81.0000000000004
  0
LINE
  5
22B
100
AcDbEntity
  8
0
  6
CONTINUOUS
 62
             2
100
AcDbLine
 10
-24.49999999985971
 20
60.99999999966616
 11
-24.49999999985971
 21
81.0000000000004
  0
SOLID
  5
22C
100
AcDbEntity
  8
0
 62
             2
100
AcDbTrace
 10
-21.29999999985972
 20
80.42128799228007
 11
-21.29999999985972
 21
79.57871200772073
 12
-24.49999999985971
 22
80.0000000000004
 13
-24.49999999985971
 23
80.0000000000004
  0
SOLID
  5
22D
100
AcDbEntity
  8
0
 62
             2
100
AcDbTrace
 10
48.99999999992797
 20
79.57871200772074
 11
48.99999999992797
 21
80.42128799228007
 12
52.19999999992797
 22
80.0000000000004
 13
52.19999999992797
 23
80.0000000000004
  0
MTEXT
  5
22E
100
AcDbEntity
  8
0
 62
             2
100
AcDbMText
 10
9.49000000003414
 20
81.0000000000004
 30
0.0
 40
3.2
 41
0.0
 71
             7
 72
             1
  1
76.7
  7
CONVERTER_3
 11
0.99999999999706
 21
0.00000242406841
 31
0.0
  0
ENDBLK
  5
22F
100
AcDbEntity
  8
0
100
AcDbBlockEnd
  0
BLOCK
  5
233
100
AcDbEntity
  8
0
100
AcDbBlockBegin
  2
*D11
 70
             1
 10
0.0
 20
0.0
 30
0.0
  3
*D11
  1

  0
LINE
  5
234
100
AcDbEntity
  8
0
  6
CONTINUOUS
 62
             2
100
AcDbLine
 10
-20.99999999992899
 20
70.0000000000004
 11
-12.7142969673578
 21
70.0000000000004
  0
LINE
  5
235
100
AcDbEntity
  8
0
  6
CONTINUOUS
 62
             2
100
AcDbLine
 10
-24.49999999985971
 20
70.0000000000004
 11
-20.99999999992899
 21
70.0000000000004
  0
LINE
  5
236
100
AcDbEntity
  8
0
  6
CONTINUOUS
 62
             2
100
AcDbLine
 10
-30.89999999985971
 20
70.0000000000004
 11
-24.49999999985971
 21
70.0000000000004
  0
LINE
  5
237
100
AcDbEntity
  8
0
  6
CONTINUOUS
 62
             2
100
AcDbLine
 10
-20.99999999992899
 20
42.57842712439924
 11
-20.99999999992899
 21
71.0000000000004
  0
LINE
  5
238
100
AcDbEntity
  8
0
  6
CONTINUOUS
 62
             2
100
AcDbLine
 10
-24.49999999985971
 20
60.99999999966616
 11
-24.49999999985971
 21
71.0000000000004
  0
SOLID
  5
239
100
AcDbEntity
  8
0
 62
             2
100
AcDbTrace
 10
-27.69999999985971
 20
69.57871200772074
 11
-27.69999999985971
 21
70.42128799228007
 12
-24.49999999985971
 22
70.0000000000004
 13
-24.49999999985971
 23
70.0000000000004
  0
SOLID
  5
23A
100
AcDbEntity
  8
0
 62
             2
100
AcDbTrace
 10
-17.79999999992899
 20
70.42128799228007
 11
-17.79999999992899
 21
69.57871200772073
 12
-20.99999999992899
 22
70.0000000000004
 13
-20.99999999992899
 23
70.0000000000004
  0
MTEXT
  5
23B
100
AcDbEntity
  8
0
 62
             2
100
AcDbMText
 10
-18.5542969673578
 20
71.0000000000004
 30
0.0
 40
3.2
 41
0.0
 71
             7
 72
             1
  1
3.5
  7
CONVERTER_3
 11
0.99999999999706
 21
0.00000242406841
 31
0.0
  0
ENDBLK
  5
23C
100
AcDbEntity
  8
0
100
AcDbBlockEnd
  0
BLOCK
  5
240
100
AcDbEntity
  8
0
100
AcDbBlockBegin
  2
*D12
 70
             1
 10
0.0
 20
0.0
 30
0.0
  3
*D12
  1

  0
LINE
  5
241
100
AcDbEntity
  8
0
  6
CONTINUOUS
 62
             2
100
AcDbLine
 10
-36.50000000000007
 20
80.00000000000038
 11
-24.49999999985971
 21
80.00000000000038
  0
LINE
  5
242
100
AcDbEntity
  8
0
  6
CONTINUOUS
 62
             2
100
AcDbLine
 10
-24.49999999985971
 20
60.99999999966616
 11
-24.49999999985971
 21
81.00000000000038
  0
LINE
  5
243
100
AcDbEntity
  8
0
  6
CONTINUOUS
 62
             2
100
AcDbLine
 10
-36.50000000000007
 20
23.70000000000044
 11
-36.50000000000007
 21
81.00000000000038
  0
SOLID
  5
244
100
AcDbEntity
  8
0
 62
             2
100
AcDbTrace
 10
-33.30000000000007
 20
80.42128799228006
 11
-33.30000000000007
 21
79.57871200772071
 12
-36.50000000000007
 22
80.00000000000038
 13
-36.50000000000007
 23
80.00000000000038
  0
SOLID
  5
245
100
AcDbEntity
  8
0
 62
             2
100
AcDbTrace
 10
-27.69999999985971
 20
79.57871200772073
 11
-27.69999999985971
 21
80.42128799228006
 12
-24.49999999985971
 22
80.00000000000038
 13
-24.49999999985971
 23
80.00000000000038
  0
MTEXT
  5
246
100
AcDbEntity
  8
0
 62
             2
100
AcDbMText
 10
-35.73999999992989
 20
81.8000000000004
 30
0.0
 40
3.2
 41
0.0
 71
             7
 72
             1
  1
\C2;12\C2;\H1.920000;\S+0.1^ -0.3;
  7
CONVERTER_3
 11
0.99999999999706
 21
0.00000242406841
 31
0.0
  0
ENDBLK
  5
247
100
AcDbEntity
  8
0
100
AcDbBlockEnd
  0
BLOCK
  5
24B
100
AcDbEntity
  8
0
100
AcDbBlockBegin
  2
*D13
 70
             1
 10
0.0
 20
0.0
 30
0.0
  3
*D13
  1

  0
LINE
  5
24C
100
AcDbEntity
  8
0
  6
CONTINUOUS
 62
             2
100
AcDbLine
 10
-46.50000000000008
 20
-16.50000000032816
 11
-46.50000000000008
 21
56.49999999967184
  0
LINE
  5
24D
100
AcDbEntity
  8
0
  6
CONTINUOUS
 62
             2
100
AcDbLine
 10
-26.99999999987287
 20
56.49999999967184
 11
-47.50000000000008
 21
56.49999999967184
  0
LINE
  5
24E
100
AcDbEntity
  8
0
  6
CONTINUOUS
 62
             2
100
AcDbLine
 10
-27.0000000001473
 20
-16.50000000032816
 11
-47.50000000000008
 21
-16.50000000032816
  0
SOLID
  5
24F
100
AcDbEntity
  8
0
 62
             2
100
AcDbTrace
 10
-46.07871200772041
 20
53.29999999967184
 11
-46.92128799227974
 21
53.29999999967184
 12
-46.50000000000008
 22
56.49999999967184
 13
-46.50000000000008
 23
56.49999999967184
  0
SOLID
  5
250
100
AcDbEntity
  8
0
 62
             2
100
AcDbTrace
 10
-46.92128799227974
 20
-13.30000000032816
 11
-46.07871200772041
 21
-13.30000000032816
 12
-46.50000000000008
 22
-16.50000000032816
 13
-46.50000000000008
 23
-16.50000000032816
  0
MTEXT
  5
251
100
AcDbEntity
  8
0
 62
             2
100
AcDbMText
 10
-48.30000000000008
 20
7.20799999967184
 30
0.0
 40
3.2
 41
0.0
 71
             7
 72
             1
  3
\C2;{\Fgdt;n}5{\Fgdt;u}{\Fgdt;`}{\Fgdt;;}5{\Fgdt;u}{\Fgdt;`}{\Fgdt;;}{\Fgdt;7}{\Fgdt;'}{\Fgdt;o}{\Fgdt;7}5{\Fgdt;u}{\Fgdt;`}{\Fgdt;;}5{\Fgdt;a}{\Fgdt;n}{\Fgdt;9}{\Fgdt;`}{\Fgdt;~}{\Fgdt;~}{\Fgdt;~}{\Fgdt;~}{\Fgdt;;}5{\Fgdt;|}{\Fgdt;~}7{\Fgdt;~}{\Fgd
  1
t;~}{\Fgdt;'}{\Fgdt;;}
  7
CONVERTER_3
 11
0.0
 21
1.0
 31
0.0
  0
ENDBLK
  5
252
100
AcDbEntity
  8
0
100
AcDbBlockEnd
  0
BLOCK
  5
256
100
AcDbEntity
  8
0
100
AcDbBlockBegin
  2
*D14
 70
             1
 10
0.0
 20
0.0
 30
0.0
  3
*D14
  1

  0
LINE
  5
257
100
AcDbEntity
  8
0
  6
CONTINUOUS
 62
             2
100
AcDbLine
 10
-74.80000000000007
 20
-13.24999999999954
 11
-74.80000000000007
 21
53.2500000000004
  0
LINE
  5
258
100
AcDbEntity
  8
0
  6
CONTINUOUS
 62
             2
100
AcDbLine
 10
-91.19
 20
53.2500000000004
 11
-73.80000000000007
 21
53.2500000000004
  0
LINE
  5
259
100
AcDbEntity
  8
0
  6
CONTINUOUS
 62
             2
100
AcDbLine
 10
-91.19000000000006
 20
-13.24999999999954
 11
-73.80000000000007
 21
-13.24999999999954
  0
SOLID
  5
25A
100
AcDbEntity
  8
0
 62
             2
100
AcDbTrace
 10
-74.37871200772041
 20
50.0500000000004
 11
-75.22128799227974
 21
50.0500000000004
 12
-74.80000000000007
 22
53.2500000000004
 13
-74.80000000000007
 23
53.2500000000004
  0
SOLID
  5
25B
100
AcDbEntity
  8
0
 62
             2
100
AcDbTrace
 10
-75.22128799227974
 20
-10.04999999999954
 11
-74.3787120077204
 21
-10.04999999999954
 12
-74.80000000000007
 22
-13.24999999999954
 13
-74.80000000000007
 23
-13.24999999999954
  0
MTEXT
  5
25C
100
AcDbEntity
  8
0
 62
             2
100
AcDbMText
 10
-75.80000000000007
 20
12.41600000000043
 30
0.0
 40
3.2
 41
0.0
 71
             7
 72
             1
  1
\C2;66.5\C2;\H1.920000;{\Fgdt;`}0.3
  7
CONVERTER_3
 11
0.0
 21
1.0
 31
0.0
  0
ENDBLK
  5
25D
100
AcDbEntity
  8
0
100
AcDbBlockEnd
  0
BLOCK
  5
261
100
AcDbEntity
  8
0
100
AcDbBlockBegin
  2
*D15
 70
             1
 10
0.0
 20
0.0
 30
0.0
  3
*D15
  1

  0
LINE
  5
262
100
AcDbEntity
  8
0
  6
CONTINUOUS
 62
             2
100
AcDbLine
 10
-163.25000000000011
 20
70.0000000000004
 11
-96.75000000000011
 21
70.0000000000004
  0
LINE
  5
263
100
AcDbEntity
  8
0
  6
CONTINUOUS
 62
             2
100
AcDbLine
 10
-96.75000000000011
 20
58.8100000000004
 11
-96.75000000000011
 21
71.0000000000004
  0
LINE
  5
264
100
AcDbEntity
  8
0
  6
CONTINUOUS
 62
             2
100
AcDbLine
 10
-163.25000000000011
 20
58.8100000000004
 11
-163.25000000000011
 21
71.0000000000004
  0
SOLID
  5
265
100
AcDbEntity
  8
0
 62
             2
100
AcDbTrace
 10
-160.05000000000013
 20
70.42128799228007
 11
-160.05000000000013
 21
69.57871200772073
 12
-163.25000000000011
 22
70.0000000000004
 13
-163.25000000000011
 23
70.0000000000004
  0
SOLID
  5
266
100
AcDbEntity
  8
0
 62
             2
100
AcDbTrace
 10
-99.95000000000012
 20
69.57871200772074
 11
-99.95000000000012
 21
70.42128799228007
 12
-96.75000000000011
 22
70.0000000000004
 13
-96.75000000000011
 23
70.0000000000004
  0
MTEXT
  5
267
100
AcDbEntity
  8
0
 62
             2
100
AcDbMText
 10
-137.58400000000012
 20
71.0000000000004
 30
0.0
 40
3.2
 41
0.0
 71
             7
 72
             1
  1
\C2;66.5\C2;\H1.920000;{\Fgdt;`}0.3
  7
CONVERTER_3
 11
0.99999999999706
 21
0.00000242406841
 31
0.0
  0
ENDBLK
  5
268
100
AcDbEntity
  8
0
100
AcDbBlockEnd
  0
BLOCK
  5
26C
100
AcDbEntity
  8
0
100
AcDbBlockBegin
  2
*D16
 70
             1
 10
0.0
 20
0.0
 30
0.0
  3
*D16
  1

  0
LINE
  5
26D
100
AcDbEntity
  8
0
  6
CONTINUOUS
 62
             2
100
AcDbLine
 10
-170.00000000000011
 20
80.0000000000004
 11
-90.00000000000011
 21
80.0000000000004
  0
LINE
  5
26E
100
AcDbEntity
  8
0
  6
CONTINUOUS
 62
             2
100
AcDbLine
 10
-90.00000000000011
 20
54.20000000000044
 11
-90.00000000000011
 21
81.0000000000004
  0
LINE
  5
26F
100
AcDbEntity
  8
0
  6
CONTINUOUS
 62
             2
100
AcDbLine
 10
-170.00000000000011
 20
54.20000000000044
 11
-170.00000000000011
 21
81.0000000000004
  0
SOLID
  5
270
100
AcDbEntity
  8
0
 62
             2
100
AcDbTrace
 10
-166.80000000000013
 20
80.42128799228007
 11
-166.80000000000013
 21
79.57871200772073
 12
-170.00000000000011
 22
80.0000000000004
 13
-170.00000000000011
 23
80.0000000000004
  0
SOLID
  5
271
100
AcDbEntity
  8
0
 62
             2
100
AcDbTrace
 10
-93.20000000000012
 20
79.57871200772074
 11
-93.20000000000012
 21
80.42128799228007
 12
-90.00000000000011
 22
80.0000000000004
 13
-90.00000000000011
 23
80.0000000000004
  0
MTEXT
  5
272
100
AcDbEntity
  8
0
 62
             2
100
AcDbMText
 10
-135.57741176469059
 20
80.9999872784894
 30
0.0
 40
3.2
 41
0.0
 71
             7
 72
             1
  1
\C2; \C2;80
  7
CONVERTER_3
 11
0.99999999999706
 21
0.00000242406841
 31
0.0
  0
ENDBLK
  5
273
100
AcDbEntity
  8
0
100
AcDbBlockEnd
  0
BLOCK
  5
277
100
AcDbEntity
  8
0
100
AcDbBlockBegin
  2
*D17
 70
             1
 10
0.0
 20
0.0
 30
0.0
  3
*D17
  1

  0
LINE
  5
278
100
AcDbEntity
  8
0
  6
CONTINUOUS
 62
             2
100
AcDbLine
 10
67.19999999992797
 20
12.69999999999993
 11
67.19999999992797
 21
27.30000000000007
  0
LINE
  5
279
100
AcDbEntity
  8
0
  6
CONTINUOUS
 62
             2
100
AcDbLine
 10
52.19999999992797
 20
27.30000000000007
 11
68.19999999992797
 21
27.30000000000007
  0
LINE
  5
27A
100
AcDbEntity
  8
0
  6
CONTINUOUS
 62
             2
100
AcDbLine
 10
52.19999999992797
 20
12.69999999999993
 11
68.19999999992797
 21
12.69999999999993
  0
SOLID
  5
27B
100
AcDbEntity
  8
0
 62
             2
100
AcDbTrace
 10
67.62128799220763
 20
24.10000000000007
 11
66.7787120076483
 21
24.10000000000007
 12
67.19999999992797
 22
27.30000000000007
 13
67.19999999992797
 23
27.30000000000007
  0
SOLID
  5
27C
100
AcDbEntity
  8
0
 62
             2
100
AcDbTrace
 10
66.7787120076483
 20
15.89999999999993
 11
67.62128799220764
 21
15.89999999999993
 12
67.19999999992797
 22
12.69999999999993
 13
67.19999999992797
 23
12.69999999999993
  0
MTEXT
  5
27D
100
AcDbEntity
  8
0
 62
             2
100
AcDbMText
 10
66.19999999992797
 20
12.792
 30
0.0
 40
3.2
 41
0.0
 71
             7
 72
             1
  1
\C2;{\Fgdt;n}\C2;14.6
  7
CONVERTER_3
 11
0.0
 21
1.0
 31
0.0
  0
ENDBLK
  5
27E
100
AcDbEntity
  8
0
100
AcDbBlockEnd
  0
BLOCK
  5
282
100
AcDbEntity
  8
0
100
AcDbBlockBegin
  2
*D18
 70
             1
 10
0.0
 20
0.0
 30
0.0
  3
*D18
  1

  0
LINE
  5
283
100
AcDbEntity
  8
0
  6
CONTINUOUS
 62
             2
100
AcDbLine
 10
77.19999999992797
 20
1.4000000000005
 11
77.19999999992797
 21
38.60000000000047
  0
LINE
  5
284
100
AcDbEntity
  8
0
  6
CONTINUOUS
 62
             2
100
AcDbLine
 10
48.20000000000005
 20
38.60000000000047
 11
78.19999999992797
 21
38.60000000000047
  0
LINE
  5
285
100
AcDbEntity
  8
0
  6
CONTINUOUS
 62
             2
100
AcDbLine
 10
48.20000000000005
 20
1.4000000000005
 11
78.19999999992797
 21
1.4000000000005
  0
SOLID
  5
286
100
AcDbEntity
  8
0
 62
             2
100
AcDbTrace
 10
77.62128799220763
 20
35.40000000000047
 11
76.7787120076483
 21
35.40000000000047
 12
77.19999999992797
 22
38.60000000000047
 13
77.19999999992797
 23
38.60000000000047
  0
SOLID
  5
287
100
AcDbEntity
  8
0
 62
             2
100
AcDbTrace
 10
76.7787120076483
 20
4.6000000000005
 11
77.62128799220764
 21
4.6000000000005
 12
77.19999999992797
 22
1.4000000000005
 13
77.19999999992797
 23
1.4000000000005
  0
MTEXT
  5
288
100
AcDbEntity
  8
0
 62
             2
100
AcDbMText
 10
76.19999999992797
 20
12.31200000000049
 30
0.0
 40
3.2
 41
0.0
 71
             7
 72
             1
  1
\C2;{\Fgdt;n}\C2;37.2
  7
CONVERTER_3
 11
0.0
 21
1.0
 31
0.0
  0
ENDBLK
  5
289
100
AcDbEntity
  8
0
100
AcDbBlockEnd
  0
BLOCK
  5
28D
100
AcDbEntity
  8
0
100
AcDbBlockBegin
  2
*D19
 70
             1
 10
0.0
 20
0.0
 30
0.0
  3
*D19
  1

  0
LINE
  5
28E
100
AcDbEntity
  8
0
  6
CONTINUOUS
 62
             2
100
AcDbLine
 10
52.19999999992797
 20
70.0000000000004
 11
64.79897482997859
 21
70.0000000000004
  0
LINE
  5
28F
100
AcDbEntity
  8
0
  6
CONTINUOUS
 62
             2
100
AcDbLine
 10
46.5
 20
70.0000000000004
 11
52.19999999992797
 21
70.0000000000004
  0
LINE
  5
290
100
AcDbEntity
  8
0
  6
CONTINUOUS
 62
             2
100
AcDbLine
 10
40.09999999999999
 20
70.0000000000004
 11
46.5
 21
70.0000000000004
  0
LINE
  5
291
100
AcDbEntity
  8
0
  6
CONTINUOUS
 62
             2
100
AcDbLine
 10
52.19999999992797
 20
27.30000000000008
 11
52.19999999992797
 21
71.0000000000004
  0
LINE
  5
292
100
AcDbEntity
  8
0
  6
CONTINUOUS
 62
             2
100
AcDbLine
 10
46.5
 20
39.21804153555613
 11
46.5
 21
71.0000000000004
  0
SOLID
  5
293
100
AcDbEntity
  8
0
 62
             2
100
AcDbTrace
 10
43.3
 20
69.57871200772074
 11
43.3
 21
70.42128799228007
 12
46.5
 22
70.0000000000004
 13
46.5
 23
70.0000000000004
  0
SOLID
  5
294
100
AcDbEntity
  8
0
 62
             2
100
AcDbTrace
 10
55.39999999992797
 20
70.42128799228007
 11
55.39999999992797
 21
69.57871200772073
 12
52.19999999992797
 22
70.0000000000004
 13
52.19999999992797
 23
70.0000000000004
  0
MTEXT
  5
295
100
AcDbEntity
  8
0
 62
             2
100
AcDbMText
 10
54.2549748299863
 20
70.99999363924491
 30
0.0
 40
3.2
 41
0.0
 71
             7
 72
             1
  1
\C2;(\C2;5.7\C2;)
  7
CONVERTER_3
 11
0.99999999999706
 21
0.00000242406841
 31
0.0
  0
ENDBLK
  5
296
100
AcDbEntity
  8
0
100
AcDbBlockEnd
  0
BLOCK
  5
29A
100
AcDbEntity
  8
0
100
AcDbBlockBegin
  2
*D20
 70
             1
 10
0.0
 20
0.0
 30
0.0
  3
*D20
  1

  0
LINE
  5
29B
100
AcDbEntity
  8
0
  6
CONTINUOUS
 62
             2
100
AcDbLine
 10
-84.25734997418741
 20
-29.9999999999996
 11
-51.6573996238599
 21
-29.9999999999996
  0
LINE
  5
29C
100
AcDbEntity
  8
0
  6
CONTINUOUS
 62
             2
100
AcDbLine
 10
-95.04610337708124
 20
-15.53456479409204
 11
-84.25734997418741
 21
-29.9999999999996
  0
SOLID
  5
29D
100
AcDbEntity
  8
0
 62
             2
100
AcDbTrace
 10
-92.79525112842303
 20
-17.84781958488992
 11
-93.47066145497459
 21
-18.3515607689752
 12
-95.04610337708124
 22
-15.53456479409204
 13
-95.04610337708124
 23
-15.53456479409204
  0
MTEXT
  5
29E
100
AcDbEntity
  8
0
 62
             2
100
AcDbMText
 10
-81.68939962383676
 20
-29.00001908226609
 30
0.0
 40
3.2
 41
0.0
 71
             7
 72
             1
  1
\C2;4-{\Fgdt;n}\C2;5.7\C2;HOLES
  7
CONVERTER_3
 11
0.99999999999706
 21
0.00000242406841
 31
0.0
  0
ENDBLK
  5
29F
100
AcDbEntity
  8
0
100
AcDbBlockEnd
  0
ENDSEC
  0
SECTION
  2
ENTITIES
  0
DIMENSION
  5
298
100
AcDbEntity
  8
1
100
AcDbDimension
  2
*D19
 10
46.5
 20
70.0000000000004
 11
59.7989748299786
 21
72.60000000000039
 31
0.0
 53
0.00013888888889
  1
<>
  3
ME10_DIM_15
100
AcDbAlignedDimension
 13
52.19999999992797
 23
26.30000000000007
 14
46.5
 24
38.21804153555613
100
AcDbRotatedDimension
  0
DIMENSION
  5
28B
100
AcDbEntity
  8
1
100
AcDbDimension
  2
*D18
 10
77.19999999992797
 20
38.60000000000047
 11
74.59999999992797
 21
20.00000000000049
 31
0.0
 53
90.0
  1
<>
  3
ME10_DIM_14
100
AcDbAlignedDimension
 13
47.20000000000005
 23
1.4000000000005
 14
47.20000000000005
 24
38.60000000000047
 50
90.0
100
AcDbRotatedDimension
  0
DIMENSION
  5
280
100
AcDbEntity
  8
1
100
AcDbDimension
  2
*D17
 10
67.19999999992797
 20
27.30000000000007
 11
64.59999999992797
 21
20.0
 31
0.0
 53
90.0
  1
<>
  3
ME10_DIM_13
100
AcDbAlignedDimension
 13
51.19999999992797
 23
12.69999999999993
 14
51.19999999992797
 24
27.30000000000007
 50
90.0
100
AcDbRotatedDimension
  0
DIMENSION
  5
275
100
AcDbEntity
  8
1
100
AcDbDimension
  2
*D16
 10
-170.00000000000011
 20
80.0000000000004
 11
-130.00000000000011
 21
82.60000000000039
 31
0.0
 53
0.00013888888889
  1
<>
  3
ME10_DIM_12
100
AcDbAlignedDimension
 13
-90.00000000000006
 23
53.20000000000044
 14
-170.0
 24
53.20000000000044
100
AcDbRotatedDimension
  0
DIMENSION
  5
26A
100
AcDbEntity
  8
1
100
AcDbDimension
  2
*D15
 10
-163.25000000000011
 20
70.0000000000004
 11
-130.00000000000011
 21
72.60000000000039
 31
0.0
 53
0.00013888888889
  1
<>
  3
ME10_DIM_11
100
AcDbAlignedDimension
 13
-96.75000000000006
 23
57.8100000000004
 14
-163.25
 24
57.8100000000004
100
AcDbRotatedDimension
  0
DIMENSION
  5
25F
100
AcDbEntity
  8
1
100
AcDbDimension
  2
*D14
 10
-74.80000000000007
 20
53.2500000000004
 11
-77.40000000000006
 21
20.00000000000043
 31
0.0
 53
90.0
  1
<>
  3
ME10_DIM_10
100
AcDbAlignedDimension
 13
-92.19000000000006
 23
-13.24999999999955
 14
-92.19
 24
53.2500000000004
 50
90.0
100
AcDbRotatedDimension
  0
DIMENSION
  5
254
100
AcDbEntity
  8
1
100
AcDbDimension
  2
*D13
 10
-46.50000000000008
 20
56.49999999967184
 11
-49.90000000000008
 21
19.99999999967184
 31
0.0
 53
90.0
  1
{\Fgdt;n}73h7
  3
ME10_DIM_9
100
AcDbAlignedDimension
 13
-26.0000000001473
 23
-16.50000000032816
 14
-25.99999999987287
 24
56.49999999967184
 50
90.0
100
AcDbRotatedDimension
  0
DIMENSION
  5
249
100
AcDbEntity
  8
1
100
AcDbDimension
  2
*D12
 10
-36.50000000000007
 20
80.00000000000038
 11
-30.49999999992989
 21
83.40000000000039
 31
0.0
 53
0.00013888888889
  1
<>
  3
ME10_DIM_8
100
AcDbAlignedDimension
 13
-24.49999999985971
 23
59.99999999966616
 14
-36.50000000000008
 24
22.70000000000044
100
AcDbRotatedDimension
  0
DIMENSION
  5
23E
100
AcDbEntity
  8
1
100
AcDbDimension
  2
*D11
 10
-24.49999999985971
 20
70.0000000000004
 11
-15.6342969673578
 21
72.60000000000039
 31
0.0
 53
0.00013888888889
  1
<>
  3
ME10_DIM_7
100
AcDbAlignedDimension
 13
-20.99999999992899
 23
41.57842712439924
 14
-24.49999999985971
 24
59.99999999966616
100
AcDbRotatedDimension
  0
DIMENSION
  5
231
100
AcDbEntity
  8
1
100
AcDbDimension
  2
*D10
 10
-24.49999999985971
 20
80.0000000000004
 11
13.85000000003414
 21
82.60000000000039
 31
0.0
 53
0.00013888888889
  1
<>
  3
ME10_DIM_6
100
AcDbAlignedDimension
 13
52.19999999992797
 23
26.30000000000007
 14
-24.49999999985971
 24
59.99999999966616
100
AcDbRotatedDimension
  0
DIMENSION
  5
226
100
AcDbEntity
  8
1
100
AcDbDimension
  2
*D9
 10
159.2000000000005
 20
37.04999976763827
 11
156.60000000000051
 21
20.00000000000046
 31
0.0
 53
90.0
  1
(34
  3
ME10_DIM_5
100
AcDbAlignedDimension
 13
132.25317550374501
 23
2.9500002323627
 14
132.25317550374501
 24
37.04999976763827
 50
90.0
100
AcDbRotatedDimension
  0
DIMENSION
  5
21B
100
AcDbEntity
  8
1
100
AcDbDimension
  2
*D8
 10
87.19999999992797
 20
39.20000000000033
 11
84.59999999992797
 21
20.00000000000034
 31
0.0
 53
90.0
  1
<>
  3
ME10_DIM_4
100
AcDbAlignedDimension
 13
32.59999999998983
 23
0.80000000000035
 14
32.59999999998983
 24
39.20000000000033
 50
90.0
100
AcDbRotatedDimension
  0
MTEXT
  5
210
100
AcDbEntity
  8
1
 62
             2
100
AcDbMText
 10
-38.06965340276969
 20
83.32220762083367
 30
0.0
 40
3.5
 41
0.0
 71
             5
 72
             1
  1
Î
  7
CONVERTER_3
  0
MTEXT
  5
20F
100
AcDbEntity
  8
1
 62
             2
100
AcDbMText
 10
-167.9089583252044
 20
-47.88864240382497
 30
0.0
 40
3.5
 41
0.0
 71
             5
 72
             1
  1
@L
  7
CONVERTER_3
  0
MTEXT
  5
20E
100
AcDbEntity
  8
1
 62
             2
100
AcDbMText
 10
-167.9089583252044
 20
-57.88864240382497
 30
0.0
 40
3.5
 41
0.0
 71
             4
 72
             1
  1
PDÎÀ²@ëAo%%dëýÞ½¨Ð¯§øå%%cñÕB
  7
CONVERTER_3
  0
MTEXT
  5
20D
100
AcDbEntity
  8
1
 62
             2
100
AcDbMText
 10
-160.9089583252044
 20
-62.68864240382499
 30
0.0
 40
3.5
 41
0.0
 71
             4
 72
             1
  1
Î@o`qsDvgdm@ntsots@rg`es@hr@otkkdc@toD
  7
CONVERTER_4
  0
MTEXT
  5
20C
100
AcDbEntity
  8
1
 62
             2
100
AcDbMText
 10
-171.9089583252044
 20
-52.68864240382499
 30
0.0
 40
3.5
 41
0.0
 71
             4
 72
             1
  1
mnsd
  7
CONVERTER_4
  0
MTEXT
  5
20A
100
AcDbEntity
  8
1
 62
             2
100
AcDbMText
 10
148.97353823009161
 20
-12.25333888821444
 30
0.0
 40
3.5
 41
0.0
 71
             5
 72
             1
  1
iak`bjj
  7
CONVERTER_2
  0
MTEXT
  5
209
100
AcDbEntity
  8
1
 62
             2
100
AcDbMText
 10
148.97353823009161
 20
-6.65333888821448
 30
0.0
 40
3.5
 41
0.0
 71
             5
 72
             1
  1
(-)sdqlhm`k
  7
CONVERTER_2
  0
MTEXT
  5
208
100
AcDbEntity
  8
1
 62
             2
100
AcDbMText
 10
111.0323893605003
 20
46.14666111178559
 30
0.0
 40
3.5
 41
0.0
 71
             5
 72
             1
  1
iqdcj
  7
CONVERTER_2
  0
MTEXT
  5
207
100
AcDbEntity
  8
1
 62
             2
100
AcDbMText
 10
111.0323893605003
 20
51.74666111178556
 30
0.0
 40
3.5
 41
0.0
 71
             5
 72
             1
  1
(+)sdqlhm`k
  7
CONVERTER_2
  0
MTEXT
  5
206
100
AcDbEntity
  8
1
 62
             2
100
AcDbMText
 10
2.37897820311301
 20
51.80000000000035
 30
0.0
 40
3.5
 41
0.0
 71
             5
 72
             1
  1
m`ld@ok`sd
  7
CONVERTER_2
  0
TEXT
  5
205
100
AcDbEntity
  8
1
 62
             2
100
AcDbText
 10
108.11837130000011
 20
-112.1675251999997
 40
4.5
  1
DMN37H8HPB
 41
0.9
  7
CONVERTER_3
100
AcDbText
  0
LEADER
  5
204
100
AcDbEntity
  8
1
  6
CONTINUOUS
 62
             2
100
AcDbLeader
  3
Standard
 71
             0
 73
             3
 74
             0
 75
             0
 40
0.0
 76
             3
 10
131.7500000000008
 20
2.75000000000051
 30
0.0
 10
134.4705744347965
 20
-9.19999999999948
 30
0.0
 10
163.4705744347965
 20
-9.19999999999948
 30
0.0
 77
             2
  0
LEADER
  5
202
100
AcDbEntity
  8
1
  6
CONTINUOUS
 62
             2
100
AcDbLeader
  3
Standard
 71
             0
 73
             3
 74
             0
 75
             0
 40
0.0
 76
             3
 10
128.2500000000008
 20
37.25000000000114
 30
0.0
 10
125.5294255652052
 20
49.20000000000056
 30
0.0
 10
96.5294255652052
 20
49.20000000000056
 30
0.0
 77
             2
  0
LEADER
  5
200
100
AcDbEntity
  8
1
  6
CONTINUOUS
 62
             2
100
AcDbLeader
  3
Standard
 71
             0
 73
             3
 74
             0
 75
             0
 40
0.0
 76
             3
 10
-1.66345657827205
 20
39.20000000000033
 30
0.0
 10
-11.66345657827205
 20
49.20000000000033
 30
0.0
 10
16.42141298449808
 20
49.20000000000033
 30
0.0
 77
             2
  0
ARC
  5
1FE
100
AcDbEntity
  8
1
  6
CONTINUOUS
 62
             3
100
AcDbCircle
 10
51.19999999992797
 20
13.69999999999993
 40
1.0
100
AcDbArc
 50
-90.0
 51
0.0
  0
ARC
  5
1FD
100
AcDbEntity
  8
1
  6
CONTINUOUS
 62
             3
100
AcDbCircle
 10
51.19999999992797
 20
26.30000000000007
 40
1.0
100
AcDbArc
 50
0.0
 51
90.0
  0
ARC
  5
1FC
100
AcDbEntity
  8
1
  6
CONTINUOUS
 62
             3
100
AcDbCircle
 10
-19.0
 20
3.39999999999998
 40
2.0
100
AcDbArc
 50
180.0
 51
-90.0
  0
ARC
  5
1FB
100
AcDbEntity
  8
1
  6
CONTINUOUS
 62
             3
100
AcDbCircle
 10
-19.0
 20
36.60000000000003
 40
1.99999999999996
100
AcDbArc
 50
90.0
 51
-179.99999999999878
  0
ARC
  5
1FA
100
AcDbEntity
  8
1
  6
CONTINUOUS
 62
             3
100
AcDbCircle
 10
-122.1267949192431
 20
6.7632087817201
 40
0.10000000000002
100
AcDbArc
 50
-60.00000000000739
 51
29.99999999999153
  0
ARC
  5
1F9
100
AcDbEntity
  8
1
  6
CONTINUOUS
 62
             3
100
AcDbCircle
 10
-122.4732050807568
 20
6.56320878172011
 40
0.10000000000006
100
AcDbArc
 50
-150.00000000001256
 51
-60.00000000000739
  0
ARC
  5
1F8
100
AcDbEntity
  8
1
  6
CONTINUOUS
 62
             3
100
AcDbCircle
 10
-124.1124355652982
 20
7.00243926626143
 40
0.09999999999997
100
AcDbArc
 50
-149.99999999998406
 51
-60.00000000000713
  0
ARC
  5
1F7
100
AcDbEntity
  8
1
  6
CONTINUOUS
 62
             3
100
AcDbCircle
 10
-124.3124355652982
 20
7.34884942777524
 40
0.09999999999997
100
AcDbArc
 50
120.0000000000089
 51
-149.99999999997999
  0
ARC
  5
1F6
100
AcDbEntity
  8
1
  6
CONTINUOUS
 62
             3
100
AcDbCircle
 10
-123.8732050807568
 20
8.98807991231655
 40
0.09999999999997
100
AcDbArc
 50
120.0000000000089
 51
-150.00000000000847
  0
ARC
  5
1F5
100
AcDbEntity
  8
1
  6
CONTINUOUS
 62
             3
100
AcDbCircle
 10
-123.5267949192431
 20
9.18807991231654
 40
0.10000000000006
100
AcDbArc
 50
29.99999999998746
 51
119.99999999999261
  0
ARC
  5
1F4
100
AcDbEntity
  8
1
  6
CONTINUOUS
 62
             3
100
AcDbCircle
 10
-121.8875644347017
 20
8.74884942777521
 40
0.09999999999997
100
AcDbArc
 50
30.00000000001596
 51
119.99999999999261
  0
ARC
  5
1F3
100
AcDbEntity
  8
1
  6
CONTINUOUS
 62
             3
100
AcDbCircle
 10
-121.6875644347017
 20
8.40243926626141
 40
0.09999999999997
100
AcDbArc
 50
-59.9999999999911
 51
30.00000000002003
  0
ARC
  5
1F2
100
AcDbEntity
  8
1
  6
CONTINUOUS
 62
             3
100
AcDbCircle
 10
-145.40000000000001
 20
19.80000000000047
 40
0.09999999999999
100
AcDbArc
 50
180.0
 51
-90.0
  0
ARC
  5
1F1
100
AcDbEntity
  8
1
  6
CONTINUOUS
 62
             3
100
AcDbCircle
 10
-145.40000000000001
 20
20.20000000000044
 40
0.10000000000003
100
AcDbArc
 50
90.0
 51
180.0
  0
ARC
  5
1F0
100
AcDbEntity
  8
1
  6
CONTINUOUS
 62
             3
100
AcDbCircle
 10
-144.19999999999999
 20
21.40000000000043
 40
0.10000000000003
100
AcDbArc
 50
90.0
 51
180.0
  0
ARC
  5
1EF
100
AcDbEntity
  8
1
  6
CONTINUOUS
 62
             3
100
AcDbCircle
 10
-143.80000000000001
 20
21.40000000000043
 40
0.10000000000002
100
AcDbArc
 50
0.0
 51
90.0
  0
ARC
  5
1EE
100
AcDbEntity
  8
1
  6
CONTINUOUS
 62
             3
100
AcDbCircle
 10
-142.59999999999999
 20
20.20000000000044
 40
0.09999999999999
100
AcDbArc
 50
0.0
 51
90.0
  0
ARC
  5
1ED
100
AcDbEntity
  8
1
  6
CONTINUOUS
 62
             3
100
AcDbCircle
 10
-142.59999999999999
 20
19.80000000000047
 40
0.10000000000003
100
AcDbArc
 50
-90.0
 51
0.0
  0
ARC
  5
1EC
100
AcDbEntity
  8
1
  6
CONTINUOUS
 62
             3
100
AcDbCircle
 10
-143.80000000000001
 20
18.60000000000042
 40
0.09999999999996
100
AcDbArc
 50
-90.0
 51
0.0
  0
ARC
  5
1EB
100
AcDbEntity
  8
1
  6
CONTINUOUS
 62
             3
100
AcDbCircle
 10
-144.19999999999999
 20
18.60000000000042
 40
0.10000000000002
100
AcDbArc
 50
180.0
 51
-90.0
  0
ARC
  5
1EA
100
AcDbEntity
  8
1
  6
CONTINUOUS
 62
             3
100
AcDbCircle
 10
-122.4732050807569
 20
33.4367912182808
 40
0.10000000000007
100
AcDbArc
 50
59.99999999995803
 51
149.99999999998758
  0
ARC
  5
1E9
100
AcDbEntity
  8
1
  6
CONTINUOUS
 62
             3
100
AcDbCircle
 10
-122.1267949192431
 20
33.23679121828081
 40
0.10000000000004
100
AcDbArc
 50
-29.999999999988
 51
60.00000000000942
  0
ARC
  5
1E8
100
AcDbEntity
  8
1
  6
CONTINUOUS
 62
             3
100
AcDbCircle
 10
-121.6875644347018
 20
31.5975607337395
 40
0.10000000000005
100
AcDbArc
 50
-29.99999999998976
 51
59.99999999999212
  0
ARC
  5
1E7
100
AcDbEntity
  8
1
  6
CONTINUOUS
 62
             3
100
AcDbCircle
 10
-121.8875644347018
 20
31.2511505722257
 40
0.09999999999997
100
AcDbArc
 50
-120.00000000000787
 51
-29.99999999998746
  0
ARC
  5
1E6
100
AcDbEntity
  8
1
  6
CONTINUOUS
 62
             3
100
AcDbCircle
 10
-123.5267949192431
 20
30.81192008768437
 40
0.09999999999997
100
AcDbArc
 50
-120.00000000000787
 51
-29.99999999998746
  0
ARC
  5
1E5
100
AcDbEntity
  8
1
  6
CONTINUOUS
 62
             3
100
AcDbCircle
 10
-123.8732050807569
 20
31.01192008768436
 40
0.09999999999996
100
AcDbArc
 50
149.99999999997999
 51
-119.99999999995956
  0
ARC
  5
1E4
100
AcDbEntity
  8
1
  6
CONTINUOUS
 62
             3
100
AcDbCircle
 10
-124.3124355652982
 20
32.65115057222573
 40
0.09999999999996
100
AcDbArc
 50
149.99999999997999
 51
-119.99999999999464
  0
ARC
  5
1E3
100
AcDbEntity
  8
1
  6
CONTINUOUS
 62
             3
100
AcDbCircle
 10
-124.1124355652982
 20
32.99756073373948
 40
0.10000000000001
100
AcDbArc
 50
60.00000000000535
 51
149.99999999998758
  0
ARC
  5
1E2
100
AcDbEntity
  8
1
  6
CONTINUOUS
 62
             3
100
AcDbCircle
 10
-163.2000000000001
 20
-13.19999999999959
 40
6.7999999999999
100
AcDbArc
 50
180.0
 51
-90.0
  0
ARC
  5
1E1
100
AcDbEntity
  8
1
  6
CONTINUOUS
 62
             3
100
AcDbCircle
 10
-163.2000000000001
 20
53.20000000000044
 40
6.79999999999995
100
AcDbArc
 50
90.0
 51
180.0
  0
ARC
  5
1E0
100
AcDbEntity
  8
1
  6
CONTINUOUS
 62
             3
100
AcDbCircle
 10
-96.8
 20
53.20000000000044
 40
6.79999999999994
100
AcDbArc
 50
0.0
 51
90.0
  0
ARC
  5
1DF
100
AcDbEntity
  8
1
  6
CONTINUOUS
 62
             3
100
AcDbCircle
 10
-96.8
 20
-13.19999999999959
 40
6.80000000000001
100
AcDbArc
 50
-90.0
 51
0.0
  0
ARC
  5
1DE
100
AcDbEntity
  8
1
  6
CONTINUOUS
 62
             3
100
AcDbCircle
 10
-27.22426406871226
 20
21.80000000000052
 40
0.30000000000018
100
AcDbArc
 50
-90.0
 51
-44.99999999998656
  0
ARC
  5
1DD
100
AcDbEntity
  8
1
  6
CONTINUOUS
 62
             3
100
AcDbCircle
 10
-27.22426406871226
 20
18.20000000000027
 40
0.30000000000035
100
AcDbArc
 50
44.99999999998656
 51
90.0
  0
ARC
  5
1DC
100
AcDbEntity
  8
1
  6
CONTINUOUS
 62
             3
100
AcDbCircle
 10
-21.99999999991867
 20
44.32106781152231
 40
0.5
100
AcDbArc
 50
179.99999999978505
 51
-135.00000000021387
  0
ARC
  5
1DB
100
AcDbEntity
  8
1
  6
CONTINUOUS
 62
             3
100
AcDbCircle
 10
-22.00000000009685
 20
-3.07842712508938
 40
0.49999999999998
100
AcDbArc
 50
134.99999999978584
 51
179.99999999978499
  0
ARC
  5
1DA
100
AcDbEntity
  8
1
  6
CONTINUOUS
 62
             3
100
AcDbCircle
 10
-23.49999999992899
 20
41.57842712440862
 40
2.5
100
AcDbArc
 50
-0.00000000021495
 51
44.99999999978456
  0
ARC
  5
1D9
100
AcDbEntity
  8
1
  6
CONTINUOUS
 62
             3
100
AcDbCircle
 10
-23.50000000008653
 20
-0.33578643796449
 40
2.50000000000002
100
AcDbArc
 50
-45.00000000021561
 51
-0.00000000021496
  0
XLINE
  5
1D8
100
AcDbEntity
  8
1
  6
DOT_CENTER
 62
             3
 60
             1
100
AcDbXline
 10
55.78800145276795
 20
20.0
 30
0.0
 11
1.0
 21
0.0
 31
0.0
  0
CIRCLE
  5
1D7
100
AcDbEntity
  8
1
  6
CONTINUOUS
 62
             3
100
AcDbCircle
 10
-122.9999999999999
 20
7.87564434701829
 40
2.74999999999999
  0
CIRCLE
  5
1D6
100
AcDbEntity
  8
1
  6
CONTINUOUS
 62
             3
100
AcDbCircle
 10
-144.0
 20
20.00000000000046
 40
2.75
  0
CIRCLE
  5
1D5
100
AcDbEntity
  8
1
  6
CONTINUOUS
 62
             3
100
AcDbCircle
 10
-123.0
 20
32.12435565298262
 40
2.74999999999999
  0
CIRCLE
  5
1D4
100
AcDbEntity
  8
1
  6
CONTINUOUS
 62
             3
100
AcDbCircle
 10
-130.0
 20
20.00000000000046
 40
6.30000000000006
  0
CIRCLE
  5
1D3
100
AcDbEntity
  8
1
  6
CONTINUOUS
 62
             2
100
AcDbCircle
 10
-130.0
 20
20.00000000000046
 40
7.30000000000006
  0
CIRCLE
  5
1D2
100
AcDbEntity
  8
1
  6
CONTINUOUS
 62
             3
100
AcDbCircle
 10
-163.25
 20
-13.2499999999996
 40
2.85000000000008
  0
CIRCLE
  5
1D1
100
AcDbEntity
  8
1
  6
CONTINUOUS
 62
             3
100
AcDbCircle
 10
-163.25
 20
53.2500000000004
 40
2.85000000000008
  0
CIRCLE
  5
1D0
100
AcDbEntity
  8
1
  6
CONTINUOUS
 62
             3
100
AcDbCircle
 10
-96.75000000000006
 20
53.2500000000004
 40
2.85000000000008
  0
CIRCLE
  5
1CF
100
AcDbEntity
  8
1
  6
CONTINUOUS
 62
             3
100
AcDbCircle
 10
-96.75000000000006
 20
-13.24999999999955
 40
2.85000000000003
  0
CIRCLE
  5
1CE
100
AcDbEntity
  8
1
  6
CONTINUOUS
 62
             3
100
AcDbCircle
 10
-130.0
 20
20.00000000000046
 40
20.75
  0
CIRCLE
  5
1CD
100
AcDbEntity
  8
1
  6
CONTINUOUS
 62
             3
100
AcDbCircle
 10
-112.5000000000001
 20
20.00000000000046
 40
1.60000000000003
  0
CIRCLE
  5
1CC
100
AcDbEntity
  8
1
  6
CONTINUOUS
 62
             3
100
AcDbCircle
 10
-138.75
 20
35.15544456622803
 40
1.60000000000006
  0
CIRCLE
  5
1CB
100
AcDbEntity
  8
1
  6
CONTINUOUS
 62
             3
100
AcDbCircle
 10
-138.75000000000011
 20
4.84455543377283
 40
1.59999999999997
  0
CIRCLE
  5
1CA
100
AcDbEntity
  8
1
  6
CONTINUOUS
 62
             3
100
AcDbCircle
 10
-130.0
 20
20.00000000000046
 40
7.5
  0
CIRCLE
  5
1C9
100
AcDbEntity
  8
1
  6
CONTINUOUS
 62
             3
100
AcDbCircle
 10
-130.0
 20
20.00000000000046
 40
3.0
  0
CIRCLE
  5
1C8
100
AcDbEntity
  8
1
  6
DASHED
 62
             1
100
AcDbCircle
 10
-130.0
 20
20.00000000000046
 40
2.59999999999999
  0
CIRCLE
  5
1C7
100
AcDbEntity
  8
1
  6
CONTINUOUS
 62
             3
100
AcDbCircle
 10
-130.0
 20
20.00000000000046
 40
1.5
  0
CIRCLE
  5
1C6
100
AcDbEntity
  8
1
  6
CONTINUOUS
 62
             3
100
AcDbCircle
 10
-96.75000000000006
 20
-13.24999999999955
 40
2.85000000000018
  0
CIRCLE
  5
1C5
100
AcDbEntity
  8
1
  6
CONTINUOUS
 62
             3
100
AcDbCircle
 10
130.0000000000008
 20
20.00000000000048
 40
18.59999999999284
  0
CIRCLE
  5
1C4
100
AcDbEntity
  8
1
  6
CONTINUOUS
 62
             3
100
AcDbCircle
 10
120.10050506338909
 20
10.10050506338871
 40
1.24999999999973
  0
CIRCLE
  5
1C3
100
AcDbEntity
  8
1
  6
CONTINUOUS
 62
             3
100
AcDbCircle
 10
139.8994949366124
 20
10.10050506338871
 40
1.24999999999973
  0
CIRCLE
  5
1C2
100
AcDbEntity
  8
1
  6
CONTINUOUS
 62
             3
100
AcDbCircle
 10
120.10050506338909
 20
29.89949493661209
 40
1.24999999999972
  0
CIRCLE
  5
1C1
100
AcDbEntity
  8
1
  6
CONTINUOUS
 62
             3
100
AcDbCircle
 10
130.0000000000008
 20
20.00000000000048
 40
2.5
  0
CIRCLE
  5
1C0
100
AcDbEntity
  8
1
  6
CONTINUOUS
 62
             3
100
AcDbCircle
 10
130.0000000000008
 20
20.00000000000048
 40
3.99999999999998
  0
CIRCLE
  5
1BF
100
AcDbEntity
  8
1
  6
CONTINUOUS
 62
             3
100
AcDbCircle
 10
130.0000000000008
 20
20.00000000000048
 40
7.29999999999436
  0
CIRCLE
  5
1BE
100
AcDbEntity
  8
1
  6
CONTINUOUS
 62
             3
100
AcDbCircle
 10
139.8994949366124
 20
29.89949493661226
 40
1.24999999999973
  0
ARC
  5
1BD
100
AcDbEntity
  8
1
  6
DASH_CENTER
 62
             1
100
AcDbCircle
 10
-130.0
 20
20.00000000000046
 40
14.00000000000001
100
AcDbArc
 50
-75.32906578838946
 51
-43.58761663694962
  0
ARC
  5
1BC
100
AcDbEntity
  8
1
  6
CONTINUOUS
 62
             3
100
AcDbCircle
 10
-122.6328980509103
 20
9.2456874725786
 40
0.70294732953247
100
AcDbArc
 50
-149.76027010391644
 51
-60.23972989607834
  0
ARC
  5
1BB
100
AcDbEntity
  8
1
  6
CONTINUOUS
 62
             3
100
AcDbCircle
 10
-124.3700431255602
 20
8.24274629610801
 40
0.7029473295325
100
AcDbArc
 50
-60.23972989608539
 51
29.76027010391892
  0
ARC
  5
1BA
100
AcDbEntity
  8
1
  6
CONTINUOUS
 62
             3
100
AcDbCircle
 10
-123.3671019490896
 20
6.50560122145805
 40
0.70294732953247
100
AcDbArc
 50
30.23972989608351
 51
120.2397298960847
  0
ARC
  5
1B9
100
AcDbEntity
  8
1
  6
CONTINUOUS
 62
             3
100
AcDbCircle
 10
-121.6299568744397
 20
7.50854239792864
 40
0.70294732953246
100
AcDbArc
 50
120.23972989607998
 51
-150.23972989608109
  0
ARC
  5
1B8
100
AcDbEntity
  8
1
  6
DASH_CENTER
 62
             1
100
AcDbCircle
 10
-130.0
 20
20.00000000000046
 40
13.99999999999993
100
AcDbArc
 50
164.67093421161019
 51
-163.58761663694978
  0
ARC
  5
1B7
100
AcDbEntity
  8
1
  6
CONTINUOUS
 62
             3
100
AcDbCircle
 10
-142.99705882352939
 20
18.99705882352987
 40
0.70294732953249
100
AcDbArc
 50
90.23972989608296
 51
179.76027010391908
  0
ARC
  5
1B6
100
AcDbEntity
  8
1
  6
CONTINUOUS
 62
             3
100
AcDbCircle
 10
-142.99705882352939
 20
21.00294117647104
 40
0.70294732953252
100
AcDbArc
 50
179.76027010391908
 51
-90.23972989608296
  0
ARC
  5
1B5
100
AcDbEntity
  8
1
  6
CONTINUOUS
 62
             3
100
AcDbCircle
 10
-145.00294117647061
 20
21.00294117647104
 40
0.70294732953249
100
AcDbArc
 50
-89.76027010391704
 51
0.23972989608092
  0
ARC
  5
1B4
100
AcDbEntity
  8
1
  6
CONTINUOUS
 62
             3
100
AcDbCircle
 10
-145.00294117647061
 20
18.99705882352987
 40
0.70294732953252
100
AcDbArc
 50
0.23972989608092
 51
89.76027010390779
  0
ARC
  5
1B3
100
AcDbEntity
  8
1
  6
DASH_CENTER
 62
             1
100
AcDbCircle
 10
-130.0
 20
20.00000000000046
 40
14.00000000000003
100
AcDbArc
 50
44.67093421161005
 51
76.41238336305014
  0
ARC
  5
1B2
100
AcDbEntity
  8
1
  6
CONTINUOUS
 62
             3
100
AcDbCircle
 10
-124.3700431255602
 20
31.7572537038929
 40
0.70294732953247
100
AcDbArc
 50
-29.76027010391918
 51
59.76027010392235
  0
ARC
  5
1B1
100
AcDbEntity
  8
1
  6
CONTINUOUS
 62
             3
100
AcDbCircle
 10
-122.6328980509103
 20
30.75431252742231
 40
0.70294732953251
100
AcDbArc
 50
59.76027010392235
 51
149.76027010391618
  0
ARC
  5
1B0
100
AcDbEntity
  8
1
  6
CONTINUOUS
 62
             3
100
AcDbCircle
 10
-121.6299568744397
 20
32.49145760207227
 40
0.70294732953249
100
AcDbArc
 50
150.23972989607705
 51
-119.7602701039241
  0
ARC
  5
1AF
100
AcDbEntity
  8
1
  6
CONTINUOUS
 62
             3
100
AcDbCircle
 10
-123.3671019490897
 20
33.49439877854286
 40
0.70294732953245
100
AcDbArc
 50
-119.76027010391692
 51
-30.23972989607549
  0
ARC
  5
1AE
100
AcDbEntity
  8
1
  6
DASH_CENTER
 62
             1
100
AcDbCircle
 10
-130.0
 20
20.00000000000046
 40
17.50000000000002
100
AcDbArc
 50
-131.8518257111169
 51
-109.25354654090469
  0
ARC
  5
1AD
100
AcDbEntity
  8
1
  6
DASH_CENTER
 62
             1
100
AcDbCircle
 10
-130.0
 20
20.00000000000046
 40
17.49999999999998
100
AcDbArc
 50
-9.72388015286584
 51
9.82113205827375
  0
ARC
  5
1AC
100
AcDbEntity
  8
1
  6
DASH_CENTER
 62
             1
100
AcDbCircle
 10
-130.0
 20
20.00000000000046
 40
17.49999999999994
100
AcDbArc
 50
109.53657001179219
 51
128.95476060725085
  0
ARC
  5
1AB
100
AcDbEntity
  8
1
  6
CONTINUOUS
 62
             3
100
AcDbCircle
 10
-130.0
 20
20.00000000000046
 40
32.50000000000002
100
AcDbArc
 50
-100.63870931501249
 51
-79.36129068498769
  0
ARC
  5
1AA
100
AcDbEntity
  8
1
  6
CONTINUOUS
 62
             3
100
AcDbCircle
 10
-130.0
 20
20.00000000000046
 40
36.50000000000004
100
AcDbArc
 50
-99.46142619262217
 51
-80.538573807378
  0
ARC
  5
1A9
100
AcDbEntity
  8
1
  6
CONTINUOUS
 62
             3
100
AcDbCircle
 10
-130.0
 20
20.00000000000046
 40
32.49999999999992
100
AcDbArc
 50
169.36129068498761
 51
-169.36129068498749
  0
ARC
  5
1A8
100
AcDbEntity
  8
1
  6
CONTINUOUS
 62
             3
100
AcDbCircle
 10
-130.0
 20
20.00000000000046
 40
36.50000000000012
100
AcDbArc
 50
170.53857380737796
 51
-170.53857380737787
  0
ARC
  5
1A7
100
AcDbEntity
  8
1
  6
CONTINUOUS
 62
             3
100
AcDbCircle
 10
-130.0
 20
20.00000000000046
 40
32.49999999999994
100
AcDbArc
 50
79.36129068498768
 51
100.63870931501252
  0
ARC
  5
1A6
100
AcDbEntity
  8
1
  6
CONTINUOUS
 62
             3
100
AcDbCircle
 10
-130.0
 20
20.00000000000046
 40
36.49999999999997
100
AcDbArc
 50
80.53857380737799
 51
99.46142619262217
  0
ARC
  5
1A5
100
AcDbEntity
  8
1
  6
CONTINUOUS
 62
             3
100
AcDbCircle
 10
-130.0
 20
20.00000000000046
 40
32.49999999999992
100
AcDbArc
 50
-10.63870931501262
 51
10.63870931501242
  0
ARC
  5
1A4
100
AcDbEntity
  8
1
  6
CONTINUOUS
 62
             3
100
AcDbCircle
 10
-130.0
 20
20.00000000000046
 40
36.5
100
AcDbArc
 50
-9.46142619262226
 51
9.46142619262208
  0
ARC
  5
1A3
100
AcDbEntity
  8
1
  6
CONTINUOUS
 62
             3
100
AcDbCircle
 10
-20.0
 20
7.87564434701829
 40
5.0
100
AcDbArc
 50
154.15806723683281
 51
176.56018723248468
  0
ARC
  5
1A2
100
AcDbEntity
  8
1
  6
CONTINUOUS
 62
             3
100
AcDbCircle
 10
-26.59328433515596
 20
7.87564434701829
 40
1.63013529947249
100
AcDbArc
 50
-10.60480627874257
 51
10.60480627874453
  0
ARC
  5
1A1
100
AcDbEntity
  8
1
  6
CONTINUOUS
 62
             3
100
AcDbCircle
 10
-20.0
 20
7.87564434701829
 40
4.99999999999998
100
AcDbArc
 50
-176.56018723248533
 51
-154.15806723683284
  0
ARC
  5
1A0
100
AcDbEntity
  8
1
  6
CONTINUOUS
 62
             3
100
AcDbCircle
 10
-20.0
 20
32.12435565298216
 40
4.99999999999996
100
AcDbArc
 50
-176.56018723248982
 51
-154.15806723683758
  0
ARC
  5
19F
100
AcDbEntity
  8
1
  6
CONTINUOUS
 62
             3
100
AcDbCircle
 10
-26.59328433515596
 20
32.12435565298262
 40
1.6301352994725
100
AcDbArc
 50
-10.6048062787449
 51
10.60480627874429
  0
ARC
  5
19E
100
AcDbEntity
  8
1
  6
CONTINUOUS
 62
             3
100
AcDbCircle
 10
-20.0
 20
32.12435565298216
 40
5.0000000000002
100
AcDbArc
 50
154.15806723682809
 51
176.56018723247948
  0
ARC
  5
19D
100
AcDbEntity
  8
1
  6
CONTINUOUS
 62
             3
100
AcDbCircle
 10
130.0000000000008
 20
20.00000000000048
 40
17.5999999999999
100
AcDbArc
 50
-78.52948454991993
 51
-53.25719616101199
  0
ARC
  5
19C
100
AcDbEntity
  8
1
  6
CONTINUOUS
 62
             3
100
AcDbCircle
 10
130.0000000000008
 20
20.00000000000048
 40
17.6000000000002
100
AcDbArc
 50
133.25719616101202
 51
-133.25719616101202
  0
ARC
  5
19B
100
AcDbEntity
  8
1
  6
CONTINUOUS
 62
             3
100
AcDbCircle
 10
130.0000000000008
 20
20.00000000000048
 40
17.6000000000001
100
AcDbArc
 50
102.30221641067659
 51
126.74280383898879
  0
ARC
  5
19A
100
AcDbEntity
  8
1
  6
CONTINUOUS
 62
             3
100
AcDbCircle
 10
130.0000000000008
 20
20.00000000000048
 40
17.59999999999991
100
AcDbArc
 50
-46.7428038389879
 51
46.74280383898817
  0
ARC
  5
199
100
AcDbEntity
  8
1
  6
CONTINUOUS
 62
             3
100
AcDbCircle
 10
130.0000000000008
 20
20.00000000000048
 40
17.60000000000019
100
AcDbArc
 50
-126.74280383898902
 51
-101.47051545007453
  0
ARC
  5
198
100
AcDbEntity
  8
1
  6
DASH_CENTER
 62
             1
100
AcDbCircle
 10
130.0000000000008
 20
20.00000000000048
 40
14.00000000000006
100
AcDbArc
 50
-146.72599795298134
 51
-124.64408854168359
  0
ARC
  5
197
100
AcDbEntity
  8
1
  6
DASH_CENTER
 62
             1
100
AcDbCircle
 10
130.0000000000008
 20
20.00000000000048
 40
14.00000000000018
100
AcDbArc
 50
-55.35591145831704
 51
-33.27400204701864
  0
ARC
  5
196
100
AcDbEntity
  8
1
  6
DASH_CENTER
 62
             1
100
AcDbCircle
 10
130.0000000000008
 20
20.00000000000048
 40
14.0000000000001
100
AcDbArc
 50
124.6440885416841
 51
146.72599795298129
  0
ARC
  5
195
100
AcDbEntity
  8
1
  6
DASH_CENTER
 62
             1
100
AcDbCircle
 10
130.0000000000008
 20
20.00000000000048
 40
14.00000000000008
100
AcDbArc
 50
33.27400204701868
 51
55.35591145831653
  0
ARC
  5
194
100
AcDbEntity
  8
1
  6
CONTINUOUS
 62
             3
100
AcDbCircle
 10
130.0000000000008
 20
20.00000000000048
 40
17.59999999999996
100
AcDbArc
 50
53.257196161012
 51
77.69778358932462
  0
ARC
  5
193
100
AcDbEntity
  8
1
  6
CONTINUOUS
 62
             3
100
AcDbCircle
 10
129.9999999999994
 20
20.00000000000779
 40
17.20000000000022
100
AcDbArc
 50
-102.59295577931084
 51
-101.74102408501935
  0
ARC
  5
192
100
AcDbEntity
  8
1
  6
CONTINUOUS
 62
             3
100
AcDbCircle
 10
129.9999999999994
 20
20.00000000000779
 40
17.19999999999949
100
AcDbArc
 50
-78.25897591497514
 51
-77.40704422068372
  0
ARC
  5
191
100
AcDbEntity
  8
1
  6
CONTINUOUS
 62
             3
100
AcDbCircle
 10
130.0000000000008
 20
20.00000000000048
 40
19.19999999999964
100
AcDbArc
 50
-138.61449399425467
 51
-144.58550600574787
  0
LINE
  5
190
100
AcDbEntity
  8
1
  6
CONTINUOUS
 62
             3
100
AcDbLine
 10
5.99999999998988
 20
33.45041284603002
 11
5.99999999998988
 21
39.20000000000039
  0
LINE
  5
18F
100
AcDbEntity
  8
1
  6
CONTINUOUS
 62
             3
100
AcDbLine
 10
-11.00000000001012
 20
33.45041284603002
 11
5.99999999998988
 21
33.45041284603002
  0
LINE
  5
18E
100
AcDbEntity
  8
1
  6
CONTINUOUS
 62
             3
100
AcDbLine
 10
-11.00000000001012
 20
33.45041284603002
 11
-11.00000000001008
 21
39.20000000000033
  0
LINE
  5
18D
100
AcDbEntity
  8
1
  6
CONTINUOUS
 62
             3
100
AcDbLine
 10
-26.0000000001415
 20
22.50000000000044
 11
-26.09999999999991
 21
22.50000000000046
  0
LINE
  5
18C
100
AcDbEntity
  8
1
  6
CONTINUOUS
 62
             3
100
AcDbLine
 10
-26.0000000001415
 20
14.0000000000004
 11
-24.50000000003264
 21
14.0000000000004
  0
LINE
  5
18B
100
AcDbEntity
  8
1
  6
CONTINUOUS
 62
             3
100
AcDbLine
 10
-26.0000000001415
 20
26.0000000000004
 11
-26.0000000001415
 21
14.0000000000004
  0
LINE
  5
18A
100
AcDbEntity
  8
1
  6
CONTINUOUS
 62
             3
100
AcDbLine
 10
-24.49999999998752
 20
26.0000000000004
 11
-26.0000000001415
 21
26.0000000000004
  0
LINE
  5
189
100
AcDbEntity
  8
1
  6
CONTINUOUS
 62
             3
100
AcDbLine
 10
45.5
 20
38.21804153555613
 11
46.5
 21
37.9832561011556
  0
LINE
  5
188
100
AcDbEntity
  8
1
  6
CONTINUOUS
 62
             3
100
AcDbLine
 10
47.20000000000005
 20
37.29999976764503
 11
52.19999999992797
 21
37.29999976764503
  0
LINE
  5
187
100
AcDbEntity
  8
1
  6
CONTINUOUS
 62
             3
100
AcDbLine
 10
52.19999999992797
 20
36.79999976764503
 11
47.19999999999999
 21
36.79999976764503
  0
LINE
  5
186
100
AcDbEntity
  8
1
  6
CONTINUOUS
 62
             3
100
AcDbLine
 10
52.19999999992797
 20
37.29999976764503
 11
52.19999999992797
 21
36.79999976764503
  0
LINE
  5
185
100
AcDbEntity
  8
1
  6
CONTINUOUS
 62
             2
100
AcDbLine
 10
51.69999999992797
 20
37.29999976764503
 11
51.69999999992797
 21
36.79999976764503
  0
LINE
  5
184
100
AcDbEntity
  8
1
  6
CONTINUOUS
 62
             2
100
AcDbLine
 10
47.70000000000016
 20
37.29999976764503
 11
47.70000000000016
 21
36.79999976764503
  0
LINE
  5
183
100
AcDbEntity
  8
1
  6
CONTINUOUS
 62
             1
100
AcDbLine
 10
50.19999999992797
 20
38.26804130320005
 11
50.19999999992797
 21
35.69119398286481
  0
LINE
  5
182
100
AcDbEntity
  8
1
  6
CONTINUOUS
 62
             3
100
AcDbLine
 10
46.50000000000006
 20
1.95256250877344
 11
46.5
 21
1.73226888746183
  0
LINE
  5
181
100
AcDbEntity
  8
1
  6
CONTINUOUS
 62
             3
100
AcDbLine
 10
46.50000000000006
 20
1.95256250877344
 11
45.50000000000006
 21
1.73226888746183
  0
LINE
  5
180
100
AcDbEntity
  8
1
  6
CONTINUOUS
 62
             3
100
AcDbLine
 10
46.50000000000006
 20
3.20000023235497
 11
46.50000000000006
 21
1.95256250877344
  0
LINE
  5
17F
100
AcDbEntity
  8
1
  6
CONTINUOUS
 62
             3
100
AcDbLine
 10
47.19999999999999
 20
3.20000023235497
 11
46.50000000000006
 21
3.20000023235497
  0
LINE
  5
17E
100
AcDbEntity
  8
1
  6
CONTINUOUS
 62
             3
100
AcDbLine
 10
46.5
 20
38.21804153555613
 11
46.50000000000006
 21
3.20000023235497
  0
LINE
  5
17D
100
AcDbEntity
  8
1
  6
CONTINUOUS
 62
             3
100
AcDbLine
 10
47.20000000000005
 20
1.73226888746183
 11
33.20000000000005
 21
1.73226888746183
  0
LINE
  5
17C
100
AcDbEntity
  8
1
  6
CONTINUOUS
 62
             3
100
AcDbLine
 10
33.20000000000005
 20
1.4000000000005
 11
33.20000000000005
 21
1.78195846444484
  0
LINE
  5
17B
100
AcDbEntity
  8
1
  6
CONTINUOUS
 62
             3
100
AcDbLine
 10
46.5
 20
10.80000000000595
 11
47.20000000000005
 21
10.80000000000595
  0
LINE
  5
17A
100
AcDbEntity
  8
1
  6
CONTINUOUS
 62
             3
100
AcDbLine
 10
47.20000000000005
 20
10.80000000000595
 11
47.20000000000005
 21
1.4000000000005
  0
LINE
  5
179
100
AcDbEntity
  8
1
  6
CONTINUOUS
 62
             3
100
AcDbLine
 10
52.19999999992797
 20
3.20000023235497
 11
52.19999999992797
 21
2.70000023235497
  0
LINE
  5
178
100
AcDbEntity
  8
1
  6
CONTINUOUS
 62
             2
100
AcDbLine
 10
51.69999999992797
 20
3.20000023235497
 11
51.69999999992797
 21
2.70000023235497
  0
LINE
  5
177
100
AcDbEntity
  8
1
  6
CONTINUOUS
 62
             3
100
AcDbLine
 10
52.19999999992797
 20
2.70000023235497
 11
47.20000000000005
 21
2.70000023235497
  0
LINE
  5
176
100
AcDbEntity
  8
1
  6
CONTINUOUS
 62
             3
100
AcDbLine
 10
47.19999999999999
 20
3.20000023235497
 11
52.19999999992797
 21
3.20000023235497
  0
LINE
  5
175
100
AcDbEntity
  8
1
  6
CONTINUOUS
 62
             2
100
AcDbLine
 10
47.70000000000016
 20
3.20000023235497
 11
47.70000000000016
 21
2.70000023235497
  0
LINE
  5
174
100
AcDbEntity
  8
1
  6
CONTINUOUS
 62
             1
100
AcDbLine
 10
50.19999999992797
 20
4.30880601713519
 11
50.19999999992797
 21
1.73195869679995
  0
LINE
  5
173
100
AcDbEntity
  8
1
  6
CONTINUOUS
 62
             3
100
AcDbLine
 10
33.20000000000005
 20
38.21804153555613
 11
47.20000000000005
 21
38.21804153555613
  0
LINE
  5
172
100
AcDbEntity
  8
1
  6
CONTINUOUS
 62
             3
100
AcDbLine
 10
33.20000000000005
 20
38.21804153555613
 11
33.20000000000005
 21
38.60000000000047
  0
LINE
  5
171
100
AcDbEntity
  8
1
  6
CONTINUOUS
 62
             3
100
AcDbLine
 10
47.20000000000005
 20
38.60000000000047
 11
47.20000000000005
 21
29.19999999999502
  0
LINE
  5
170
100
AcDbEntity
  8
1
  6
CONTINUOUS
 62
             3
100
AcDbLine
 10
47.20000000000005
 20
29.19999999999502
 11
46.5
 21
29.19999999999502
  0
LINE
  5
16F
100
AcDbEntity
  8
1
  6
CONTINUOUS
 62
             3
100
AcDbLine
 10
-19.0
 20
1.40000000000002
 11
-17.40000000001017
 21
1.40000000000003
  0
LINE
  5
16E
100
AcDbEntity
  8
1
  6
CONTINUOUS
 62
             3
100
AcDbLine
 10
52.19999999992797
 20
26.30000000000007
 11
52.19999999992797
 21
13.69999999999993
  0
LINE
  5
16D
100
AcDbEntity
  8
1
  6
CONTINUOUS
 62
             3
100
AcDbLine
 10
51.19999999992797
 20
12.69999999999993
 11
46.5
 21
12.69999999999993
  0
LINE
  5
16C
100
AcDbEntity
  8
1
  6
CONTINUOUS
 62
             3
100
AcDbLine
 10
46.5
 20
27.30000000000007
 11
51.19999999992797
 21
27.30000000000007
  0
LINE
  5
16B
100
AcDbEntity
  8
1
  6
CONTINUOUS
 62
             1
100
AcDbLine
 10
55.78800145276795
 20
20.0
 11
-38.59205852673847
 21
20.00000000000046
  0
LINE
  5
16A
100
AcDbEntity
  8
1
  6
CONTINUOUS
 62
             3
100
AcDbLine
 10
47.20000000000005
 20
38.60000000000047
 11
32.59999999998983
 21
38.60000000000034
  0
LINE
  5
169
100
AcDbEntity
  8
1
  6
CONTINUOUS
 62
             2
100
AcDbLine
 10
-174.610424759117
 20
-50.488642403825
 11
-161.3011530869413
 21
-50.488642403825
  0
LINE
  5
168
100
AcDbEntity
  8
1
  6
CONTINUOUS
 62
             2
100
AcDbLine
 10
-168.8123262088622
 20
-60.488642403825
 11
-78.6905819939829
 21
-60.488642403825
  0
LINE
  5
167
100
AcDbEntity
  8
1
  6
CONTINUOUS
 62
             3
100
AcDbLine
 10
-122.55980762113531
 20
6.5132087817201
 11
-122.75980762113529
 21
6.8596189432339
  0
LINE
  5
166
100
AcDbEntity
  8
1
  6
CONTINUOUS
 62
             3
100
AcDbLine
 10
-122.0401923788646
 20
6.81320878172011
 11
-122.24019237886461
 21
7.15961894323391
  0
LINE
  5
165
100
AcDbEntity
  8
1
  6
CONTINUOUS
 62
             3
100
AcDbLine
 10
-123.44019237886459
 20
9.23807991231655
 11
-123.24019237886461
 21
8.89166975080275
  0
LINE
  5
164
100
AcDbEntity
  8
1
  6
CONTINUOUS
 62
             3
100
AcDbLine
 10
-121.9375644347017
 20
8.83545196815368
 11
-122.2839745962155
 21
8.63545196815363
  0
LINE
  5
163
100
AcDbEntity
  8
1
  6
CONTINUOUS
 62
             3
100
AcDbLine
 10
-121.6375644347017
 20
8.315836725883
 11
-121.9839745962155
 21
8.11583672588296
  0
LINE
  5
162
100
AcDbEntity
  8
1
  6
CONTINUOUS
 62
             3
100
AcDbLine
 10
-121.60096189432331
 20
8.45243926626142
 11
-121.80096189432329
 21
8.79884942777522
  0
LINE
  5
161
100
AcDbEntity
  8
1
  6
CONTINUOUS
 62
             3
100
AcDbLine
 10
-124.19903810567661
 20
6.95243926626142
 11
-124.3990381056766
 21
7.29884942777522
  0
LINE
  5
160
100
AcDbEntity
  8
1
  6
CONTINUOUS
 62
             3
100
AcDbLine
 10
-123.5767949192431
 20
9.274682452695
 11
-123.9232050807568
 21
9.07468245269496
  0
LINE
  5
15F
100
AcDbEntity
  8
1
  6
CONTINUOUS
 62
             3
100
AcDbLine
 10
-122.0767949192431
 20
6.67660624134163
 11
-122.4232050807568
 21
6.47660624134164
  0
LINE
  5
15E
100
AcDbEntity
  8
1
  6
CONTINUOUS
 62
             3
100
AcDbLine
 10
-123.75980762113529
 20
8.59166975080274
 11
-123.9598076211353
 21
8.93807991231654
  0
LINE
  5
15D
100
AcDbEntity
  8
1
  6
CONTINUOUS
 62
             3
100
AcDbLine
 10
-124.0211196708655
 20
7.63251079168305
 11
-124.3624355652982
 21
7.43545196815364
  0
LINE
  5
15C
100
AcDbEntity
  8
1
  6
CONTINUOUS
 62
             3
100
AcDbLine
 10
-123.72111967086551
 20
7.11289554941243
 11
-124.0624355652982
 21
6.91583672588297
  0
LINE
  5
15B
100
AcDbEntity
  8
1
  6
CONTINUOUS
 62
             1
100
AcDbLine
 10
-121.4138485804416
 20
5.12834949984574
 11
-124.5958675078864
 21
10.63976795282594
  0
LINE
  5
15A
100
AcDbEntity
  8
1
  6
CONTINUOUS
 62
             3
100
AcDbLine
 10
-145.40000000000001
 20
20.30000000000047
 11
-145.0
 21
20.30000000000047
  0
LINE
  5
159
100
AcDbEntity
  8
1
  6
CONTINUOUS
 62
             3
100
AcDbLine
 10
-145.40000000000001
 20
19.70000000000044
 11
-144.99999999999989
 21
19.70000000000044
  0
LINE
  5
158
100
AcDbEntity
  8
1
  6
CONTINUOUS
 62
             3
100
AcDbLine
 10
-142.59999999999999
 20
19.70000000000044
 11
-143.0
 21
19.70000000000044
  0
LINE
  5
157
100
AcDbEntity
  8
1
  6
CONTINUOUS
 62
             3
100
AcDbLine
 10
-143.69999999999999
 20
18.60000000000042
 11
-143.69999999999999
 21
19.00000000000046
  0
LINE
  5
156
100
AcDbEntity
  8
1
  6
CONTINUOUS
 62
             3
100
AcDbLine
 10
-144.30000000000001
 20
18.60000000000042
 11
-144.30000000000001
 21
19.00000000000046
  0
LINE
  5
155
100
AcDbEntity
  8
1
  6
CONTINUOUS
 62
             3
100
AcDbLine
 10
-144.19999999999999
 20
18.50000000000046
 11
-143.80000000000001
 21
18.50000000000046
  0
LINE
  5
154
100
AcDbEntity
  8
1
  6
CONTINUOUS
 62
             3
100
AcDbLine
 10
-144.19999999999999
 20
21.50000000000046
 11
-143.80000000000001
 21
21.50000000000046
  0
LINE
  5
153
100
AcDbEntity
  8
1
  6
CONTINUOUS
 62
             3
100
AcDbLine
 10
-142.5
 20
19.80000000000047
 11
-142.5
 21
20.20000000000044
  0
LINE
  5
152
100
AcDbEntity
  8
1
  6
CONTINUOUS
 62
             3
100
AcDbLine
 10
-145.5
 20
19.80000000000047
 11
-145.5
 21
20.20000000000044
  0
LINE
  5
151
100
AcDbEntity
  8
1
  6
CONTINUOUS
 62
             3
100
AcDbLine
 10
-143.0
 20
20.30000000000047
 11
-142.59999999999999
 21
20.30000000000047
  0
LINE
  5
150
100
AcDbEntity
  8
1
  6
CONTINUOUS
 62
             3
100
AcDbLine
 10
-143.69999999999999
 20
21.00588235294163
 11
-143.69999999999999
 21
21.40000000000043
  0
LINE
  5
14F
100
AcDbEntity
  8
1
  6
CONTINUOUS
 62
             3
100
AcDbLine
 10
-144.30000000000001
 20
21.00588235294163
 11
-144.30000000000001
 21
21.40000000000043
  0
LINE
  5
14E
100
AcDbEntity
  8
1
  6
CONTINUOUS
 62
             1
100
AcDbLine
 10
-147.1723028391167
 20
20.00000000000046
 11
-140.80826498422709
 21
20.00000000000046
  0
LINE
  5
14D
100
AcDbEntity
  8
1
  6
CONTINUOUS
 62
             3
100
AcDbLine
 10
-122.0401923788646
 20
33.1867912182808
 11
-122.24019237886461
 21
32.84038105676706
  0
LINE
  5
14C
100
AcDbEntity
  8
1
  6
CONTINUOUS
 62
             3
100
AcDbLine
 10
-122.55980762113531
 20
33.48679121828081
 11
-122.75980762113529
 21
33.14038105676707
  0
LINE
  5
14B
100
AcDbEntity
  8
1
  6
CONTINUOUS
 62
             3
100
AcDbLine
 10
-123.9598076211353
 20
31.06192008768437
 11
-123.75980762113529
 21
31.40833024919817
  0
LINE
  5
14A
100
AcDbEntity
  8
1
  6
CONTINUOUS
 62
             3
100
AcDbLine
 10
-124.3624355652982
 20
32.56454803184727
 11
-124.0160254037844
 21
32.36454803184728
  0
LINE
  5
149
100
AcDbEntity
  8
1
  6
CONTINUOUS
 62
             3
100
AcDbLine
 10
-124.0624355652982
 20
33.08416327411794
 11
-123.7160254037844
 21
32.88416327411795
  0
LINE
  5
148
100
AcDbEntity
  8
1
  6
CONTINUOUS
 62
             3
100
AcDbLine
 10
-124.19903810567661
 20
33.04756073373949
 11
-124.3990381056766
 21
32.70115057222574
  0
LINE
  5
147
100
AcDbEntity
  8
1
  6
CONTINUOUS
 62
             3
100
AcDbLine
 10
-121.60096189432331
 20
31.54756073373949
 11
-121.80096189432329
 21
31.20115057222569
  0
LINE
  5
146
100
AcDbEntity
  8
1
  6
CONTINUOUS
 62
             3
100
AcDbLine
 10
-123.9232050807568
 20
30.92531754730595
 11
-123.5767949192431
 21
30.72531754730596
  0
LINE
  5
145
100
AcDbEntity
  8
1
  6
CONTINUOUS
 62
             3
100
AcDbLine
 10
-122.4232050807568
 20
33.52339375865927
 11
-122.0767949192431
 21
33.32339375865928
  0
LINE
  5
144
100
AcDbEntity
  8
1
  6
CONTINUOUS
 62
             3
100
AcDbLine
 10
-123.24019237886461
 20
31.10833024919816
 11
-123.44019237886459
 21
30.76192008768436
  0
LINE
  5
143
100
AcDbEntity
  8
1
  6
CONTINUOUS
 62
             3
100
AcDbLine
 10
-122.27888032913449
 20
31.36160685537669
 11
-121.9375644347018
 21
31.16454803184729
  0
LINE
  5
142
100
AcDbEntity
  8
1
  6
CONTINUOUS
 62
             3
100
AcDbLine
 10
-121.9788803291345
 20
31.88122209764737
 11
-121.6375644347018
 21
31.68416327411791
  0
LINE
  5
141
100
AcDbEntity
  8
1
  6
CONTINUOUS
 62
             1
100
AcDbLine
 10
-121.4138485804416
 20
34.87165050015517
 11
-124.5958675078864
 21
29.36023204717498
  0
LINE
  5
140
100
AcDbEntity
  8
1
  6
CONTINUOUS
 62
             1
100
AcDbLine
 10
-152.88000000000059
 20
20.00000000000046
 11
-107.1200000000006
 21
20.00000000000046
  0
LINE
  5
13F
100
AcDbEntity
  8
1
  6
CONTINUOUS
 62
             1
100
AcDbLine
 10
-130.0
 20
-2.87999999999909
 11
-130.0
 21
42.88000000000091
  0
LINE
  5
13E
100
AcDbEntity
  8
1
  6
CONTINUOUS
 62
             3
100
AcDbLine
 10
-136.0
 20
-11.94135250736844
 11
-136.0
 21
-16.00347205478897
  0
LINE
  5
13D
100
AcDbEntity
  8
1
  6
CONTINUOUS
 62
             3
100
AcDbLine
 10
-124.0000000000001
 20
-16.00347205478897
 11
-124.0000000000001
 21
-11.94135250736844
  0
LINE
  5
13C
100
AcDbEntity
  8
1
  6
CONTINUOUS
 62
             3
100
AcDbLine
 10
-161.9413525073688
 20
26.0000000000004
 11
-166.00347205478951
 21
26.0000000000004
  0
LINE
  5
13B
100
AcDbEntity
  8
1
  6
CONTINUOUS
 62
             3
100
AcDbLine
 10
-166.00347205478951
 20
14.00000000000046
 11
-161.9413525073688
 21
14.00000000000046
  0
LINE
  5
13A
100
AcDbEntity
  8
1
  6
CONTINUOUS
 62
             3
100
AcDbLine
 10
-124.0000000000001
 20
51.94135250736929
 11
-124.0000000000001
 21
56.00347205478983
  0
LINE
  5
139
100
AcDbEntity
  8
1
  6
CONTINUOUS
 62
             3
100
AcDbLine
 10
-136.0
 20
56.00347205478983
 11
-136.0
 21
51.94135250736929
  0
LINE
  5
138
100
AcDbEntity
  8
1
  6
CONTINUOUS
 62
             3
100
AcDbLine
 10
-98.05864749263122
 20
14.0000000000004
 11
-93.99652794521063
 21
14.0000000000004
  0
LINE
  5
137
100
AcDbEntity
  8
1
  6
CONTINUOUS
 62
             3
100
AcDbLine
 10
-93.99652794521063
 20
26.0000000000004
 11
-98.05864749263122
 21
26.0000000000004
  0
LINE
  5
136
100
AcDbEntity
  8
1
  6
CONTINUOUS
 62
             1
100
AcDbLine
 10
-158.69
 20
-13.2499999999996
 11
-167.81
 21
-13.2499999999996
  0
LINE
  5
135
100
AcDbEntity
  8
1
  6
CONTINUOUS
 62
             1
100
AcDbLine
 10
-163.25
 20
-17.80999999999955
 11
-163.25
 21
-8.6899999999996
  0
LINE
  5
134
100
AcDbEntity
  8
1
  6
CONTINUOUS
 62
             1
100
AcDbLine
 10
-158.69
 20
53.2500000000004
 11
-167.81
 21
53.2500000000004
  0
LINE
  5
133
100
AcDbEntity
  8
1
  6
CONTINUOUS
 62
             1
100
AcDbLine
 10
-163.25
 20
48.69000000000045
 11
-163.25
 21
57.8100000000004
  0
LINE
  5
132
100
AcDbEntity
  8
1
  6
CONTINUOUS
 62
             1
100
AcDbLine
 10
-92.19
 20
53.2500000000004
 11
-101.31
 21
53.2500000000004
  0
LINE
  5
131
100
AcDbEntity
  8
1
  6
CONTINUOUS
 62
             1
100
AcDbLine
 10
-96.75000000000006
 20
48.69000000000045
 11
-96.75000000000006
 21
57.8100000000004
  0
LINE
  5
130
100
AcDbEntity
  8
1
  6
CONTINUOUS
 62
             1
100
AcDbLine
 10
-92.19000000000006
 20
-13.24999999999955
 11
-101.3100000000001
 21
-13.24999999999955
  0
LINE
  5
12F
100
AcDbEntity
  8
1
  6
CONTINUOUS
 62
             1
100
AcDbLine
 10
-96.75000000000006
 20
-17.8099999999996
 11
-96.75000000000006
 21
-8.6899999999996
  0
LINE
  5
12E
100
AcDbEntity
  8
1
  6
CONTINUOUS
 62
             3
100
AcDbLine
 10
-96.8
 20
60.0000000000004
 11
-163.2000000000001
 21
60.0000000000004
  0
LINE
  5
12D
100
AcDbEntity
  8
1
  6
CONTINUOUS
 62
             3
100
AcDbLine
 10
-90.00000000000006
 20
-13.19999999999959
 11
-90.00000000000006
 21
53.20000000000044
  0
LINE
  5
12C
100
AcDbEntity
  8
1
  6
CONTINUOUS
 62
             3
100
AcDbLine
 10
-163.2000000000001
 20
-19.9999999999996
 11
-96.8
 21
-19.9999999999996
  0
LINE
  5
12B
100
AcDbEntity
  8
1
  6
CONTINUOUS
 62
             3
100
AcDbLine
 10
-170.0
 20
53.20000000000044
 11
-170.0
 21
-13.19999999999959
  0
LINE
  5
12A
100
AcDbEntity
  8
1
  6
CONTINUOUS
 62
             1
100
AcDbLine
 10
-140.05000000000001
 20
2.5928893839332
 11
-137.4500000000001
 21
7.09622148361234
  0
LINE
  5
129
100
AcDbEntity
  8
1
  6
CONTINUOUS
 62
             1
100
AcDbLine
 10
-137.44999999999999
 20
32.90377851638857
 11
-140.05000000000001
 21
37.40711061606766
  0
LINE
  5
128
100
AcDbEntity
  8
1
  6
CONTINUOUS
 62
             1
100
AcDbLine
 10
-86.18236369606996
 20
20.00000000000046
 11
-174.18236369607001
 21
20.00000000000046
  0
LINE
  5
127
100
AcDbEntity
  8
1
  6
CONTINUOUS
 62
             1
100
AcDbLine
 10
-130.0
 20
63.80654558757044
 11
-130.0
 21
-23.82922826213957
  0
LINE
  5
126
100
AcDbEntity
  8
1
  6
CONTINUOUS
 62
             3
100
AcDbLine
 10
-26.09999999999991
 20
17.50000000000046
 11
-26.0000000001415
 21
17.50000000000044
  0
LINE
  5
125
100
AcDbEntity
  8
1
  6
CONTINUOUS
 62
             3
100
AcDbLine
 10
-26.09999999999991
 20
22.50000000000046
 11
-26.09999999999991
 21
17.50000000000046
  0
LINE
  5
124
100
AcDbEntity
  8
1
  6
CONTINUOUS
 62
             3
100
AcDbLine
 10
-26.09999999999991
 20
22.50000000000046
 11
-27.012132034356
 21
21.58786796564436
  0
LINE
  5
123
100
AcDbEntity
  8
1
  6
CONTINUOUS
 62
             3
100
AcDbLine
 10
-26.09999999999991
 20
17.50000000000046
 11
-27.012132034356
 21
18.41213203435643
  0
LINE
  5
122
100
AcDbEntity
  8
1
  6
CONTINUOUS
 62
             2
100
AcDbLine
 10
-27.09999999999991
 20
21.50000000000034
 11
-27.09999999999991
 21
18.50000000000034
  0
LINE
  5
121
100
AcDbEntity
  8
1
  6
CONTINUOUS
 62
             2
100
AcDbLine
 10
-28.09999999999991
 20
21.50000000000034
 11
-28.09999999999991
 21
18.50000000000034
  0
LINE
  5
120
100
AcDbEntity
  8
1
  6
CONTINUOUS
 62
             3
100
AcDbLine
 10
-30.00000000000007
 20
18.50000000000034
 11
-27.22426406871226
 21
18.50000000000034
  0
LINE
  5
11F
100
AcDbEntity
  8
1
  6
CONTINUOUS
 62
             3
100
AcDbLine
 10
-27.22426406871226
 20
21.50000000000034
 11
-30.00000000000007
 21
21.50000000000034
  0
LINE
  5
11E
100
AcDbEntity
  8
1
  6
CONTINUOUS
 62
             3
100
AcDbLine
 10
-30.3000000000001
 20
23.00000000000046
 11
-36.20000000000007
 21
23.00000000000046
  0
LINE
  5
11D
100
AcDbEntity
  8
1
  6
CONTINUOUS
 62
             1
100
AcDbLine
 10
-35.04347347123427
 20
22.60000000000048
 11
-37.30000000000009
 21
22.60000000000048
  0
LINE
  5
11C
100
AcDbEntity
  8
1
  6
CONTINUOUS
 62
             1
100
AcDbLine
 10
-29.20000000000006
 20
22.60000000000048
 11
-31.45652652876589
 21
22.60000000000048
  0
LINE
  5
11B
100
AcDbEntity
  8
1
  6
CONTINUOUS
 62
             1
100
AcDbLine
 10
-32.47252247892927
 20
22.60000000000048
 11
-34.02747752107089
 21
22.60000000000048
  0
LINE
  5
11A
100
AcDbEntity
  8
1
  6
CONTINUOUS
 62
             3
100
AcDbLine
 10
-36.50000000000008
 20
22.70000000000044
 11
-36.20000000000007
 21
23.00000000000046
  0
LINE
  5
119
100
AcDbEntity
  8
1
  6
CONTINUOUS
 62
             3
100
AcDbLine
 10
-30.3000000000001
 20
23.00000000000046
 11
-30.00000000000007
 21
22.70000000000044
  0
LINE
  5
118
100
AcDbEntity
  8
1
  6
CONTINUOUS
 62
             3
100
AcDbLine
 10
-36.20000000000007
 20
17.00000000000034
 11
-30.3000000000001
 21
17.00000000000034
  0
LINE
  5
117
100
AcDbEntity
  8
1
  6
CONTINUOUS
 62
             1
100
AcDbLine
 10
-37.30000000000009
 20
17.40000000000032
 11
-35.04347347123427
 21
17.40000000000032
  0
LINE
  5
116
100
AcDbEntity
  8
1
  6
CONTINUOUS
 62
             1
100
AcDbLine
 10
-31.45652652876589
 20
17.40000000000032
 11
-29.20000000000006
 21
17.40000000000032
  0
LINE
  5
115
100
AcDbEntity
  8
1
  6
CONTINUOUS
 62
             1
100
AcDbLine
 10
-34.02747752107089
 20
17.40000000000032
 11
-32.47252247892927
 21
17.40000000000032
  0
LINE
  5
114
100
AcDbEntity
  8
1
  6
CONTINUOUS
 62
             3
100
AcDbLine
 10
-36.20000000000007
 20
17.00000000000034
 11
-36.50000000000008
 21
17.30000000000035
  0
LINE
  5
113
100
AcDbEntity
  8
1
  6
CONTINUOUS
 62
             3
100
AcDbLine
 10
-30.00000000000007
 20
17.30000000000035
 11
-30.3000000000001
 21
17.00000000000034
  0
LINE
  5
112
100
AcDbEntity
  8
1
  6
CONTINUOUS
 62
             3
100
AcDbLine
 10
-25.99999999987287
 20
56.49999999967184
 11
-24.49999999987287
 21
56.49999999966616
  0
LINE
  5
111
100
AcDbEntity
  8
1
  6
CONTINUOUS
 62
             3
100
AcDbLine
 10
-25.99999999988793
 20
52.49999999967184
 11
-25.99999999987287
 21
56.49999999967184
  0
LINE
  5
110
100
AcDbEntity
  8
1
  6
CONTINUOUS
 62
             3
100
AcDbLine
 10
-24.49999999988793
 20
52.49999999966616
 11
-25.99999999988793
 21
52.49999999967184
  0
LINE
  5
10F
100
AcDbEntity
  8
1
  6
CONTINUOUS
 62
             3
100
AcDbLine
 10
-22.49999999985971
 20
59.99999999965866
 11
-24.49999999985971
 21
59.99999999966616
  0
LINE
  5
10E
100
AcDbEntity
  8
1
  6
CONTINUOUS
 62
             3
100
AcDbLine
 10
-21.73223304695596
 20
43.34619407736835
 11
-22.35355339051328
 21
43.96751442093034
  0
LINE
  5
10D
100
AcDbEntity
  8
1
  6
CONTINUOUS
 62
             3
100
AcDbLine
 10
-24.5000000001473
 20
-16.50000000033384
 11
-26.0000000001473
 21
-16.50000000032816
  0
LINE
  5
10C
100
AcDbEntity
  8
1
  6
CONTINUOUS
 62
             3
100
AcDbLine
 10
-26.0000000001473
 20
-16.50000000032816
 11
-26.00000000013226
 21
-12.50000000032816
  0
LINE
  5
10B
100
AcDbEntity
  8
1
  6
CONTINUOUS
 62
             3
100
AcDbLine
 10
-26.00000000013226
 20
-12.50000000032816
 11
-24.50000000013226
 21
-12.50000000033384
  0
LINE
  5
10A
100
AcDbEntity
  8
1
  6
CONTINUOUS
 62
             3
100
AcDbLine
 10
-24.50000000016046
 20
-20.00000000033384
 11
-22.50000000016046
 21
-20.00000000034135
  0
LINE
  5
109
100
AcDbEntity
  8
1
  6
CONTINUOUS
 62
             3
100
AcDbLine
 10
-22.35355339068879
 20
-2.72487373449479
 11
-21.7322330471268
 21
-2.10355339093752
  0
LINE
  5
108
100
AcDbEntity
  8
1
  6
CONTINUOUS
 62
             3
100
AcDbLine
 10
-22.50000000016046
 20
-20.00000000034135
 11
-22.49999999985971
 21
59.99999999965866
  0
LINE
  5
107
100
AcDbEntity
  8
1
  6
CONTINUOUS
 62
             3
100
AcDbLine
 10
-24.49999999985971
 20
59.99999999966616
 11
-24.50000000016046
 21
-20.00000000033384
  0
LINE
  5
106
100
AcDbEntity
  8
1
  6
CONTINUOUS
 62
             1
100
AcDbLine
 10
-20.44679422821507
 20
-13.25000000034908
 11
-28.99406519517707
 21
-13.2500000003169
  0
LINE
  5
105
100
AcDbEntity
  8
1
  6
CONTINUOUS
 62
             1
100
AcDbLine
 10
-28.9940651949271
 20
53.2499999996831
 11
-20.4467942279651
 21
53.24999999965093
  0
LINE
  5
104
100
AcDbEntity
  8
1
  6
CONTINUOUS
 62
             3
100
AcDbLine
 10
-21.00000000008653
 20
-0.33578643797387
 11
-20.99999999992899
 21
41.57842712439924
  0
LINE
  5
103
100
AcDbEntity
  8
1
  6
CONTINUOUS
 62
             3
100
AcDbLine
 10
-30.00000000000007
 20
22.70000000000044
 11
-30.00000000000007
 21
17.30000000000035
  0
LINE
  5
102
100
AcDbEntity
  8
1
  6
CONTINUOUS
 62
             3
100
AcDbLine
 10
-36.50000000000008
 20
17.30000000000035
 11
-36.50000000000008
 21
22.70000000000044
  0
LINE
  5
101
100
AcDbEntity
  8
1
  6
CONTINUOUS
 62
             1
100
AcDbLine
 10
132.25317550374501
 20
2.9500002323627
 11
127.751049042681
 21
2.95000023235753
  0
LINE
  5
100
100
AcDbEntity
  8
1
  6
CONTINUOUS
 62
             1
100
AcDbLine
 10
127.751049042681
 20
37.04999976764344
 11
132.25317550374501
 21
37.04999976763827
  0
LINE
  5
FF
100
AcDbEntity
  8
1
  6
CONTINUOUS
 62
             3
100
AcDbLine
 10
118.2422874312466
 20
7.54342763235809
 11
119.7743763174846
 21
6.2578524129849
  0
LINE
  5
FE
100
AcDbEntity
  8
1
  6
CONTINUOUS
 62
             3
100
AcDbLine
 10
118.2422874312466
 20
7.54342763235809
 11
117.2953977580562
 21
6.41496846254313
  0
LINE
  5
FD
100
AcDbEntity
  8
1
  6
CONTINUOUS
 62
             3
100
AcDbLine
 10
119.7743763174846
 20
6.2578524129849
 11
118.8274866442941
 21
5.12939324317006
  0
LINE
  5
FC
100
AcDbEntity
  8
1
  6
CONTINUOUS
 62
             3
100
AcDbLine
 10
140.22562368251701
 20
6.2578524129849
 11
141.75771256875501
 21
7.54342763235809
  0
LINE
  5
FB
100
AcDbEntity
  8
1
  6
CONTINUOUS
 62
             3
100
AcDbLine
 10
142.70460224194531
 20
6.41496846254313
 11
141.75771256875501
 21
7.54342763235809
  0
LINE
  5
FA
100
AcDbEntity
  8
1
  6
CONTINUOUS
 62
             3
100
AcDbLine
 10
141.17251335570731
 20
5.12939324317006
 11
140.22562368251701
 21
6.2578524129849
  0
LINE
  5
F9
100
AcDbEntity
  8
1
  6
CONTINUOUS
 62
             3
100
AcDbLine
 10
119.7743763174846
 20
33.74214758701606
 11
118.2422874312466
 21
32.45657236764288
  0
LINE
  5
F8
100
AcDbEntity
  8
1
  6
CONTINUOUS
 62
             3
100
AcDbLine
 10
117.2953977580562
 20
33.58503153745784
 11
118.2422874312466
 21
32.45657236764288
  0
LINE
  5
F7
100
AcDbEntity
  8
1
  6
CONTINUOUS
 62
             3
100
AcDbLine
 10
118.8274866442941
 20
34.87060675683102
 11
119.7743763174846
 21
33.74214758701606
  0
LINE
  5
F6
100
AcDbEntity
  8
1
  6
CONTINUOUS
 62
             3
100
AcDbLine
 10
141.75771256875501
 20
32.45657236764288
 11
140.22562368251701
 21
33.74214758701606
  0
LINE
  5
F5
100
AcDbEntity
  8
1
  6
CONTINUOUS
 62
             3
100
AcDbLine
 10
141.75771256875501
 20
32.45657236764288
 11
142.70460224194531
 21
33.58503153745784
  0
LINE
  5
F4
100
AcDbEntity
  8
1
  6
CONTINUOUS
 62
             3
100
AcDbLine
 10
140.22562368251701
 20
33.74214758701606
 11
141.17251335570731
 21
34.87060675683102
  0
LINE
  5
F3
100
AcDbEntity
  8
1
  6
CONTINUOUS
 62
             1
100
AcDbLine
 10
130.0000000000008
 20
-1.80562446000113
 11
130.0000000000008
 21
42.25639306268619
  0
LINE
  5
F2
100
AcDbEntity
  8
1
  6
CONTINUOUS
 62
             1
100
AcDbLine
 10
108.1943755399991
 20
20.00000000000046
 11
152.2563930626865
 21
20.00000000000046
  0
LINE
  5
F1
100
AcDbEntity
  8
1
  6
CONTINUOUS
 62
             3
100
AcDbLine
 10
130.99999999999969
 20
3.25000023236203
 11
130.50000000000099
 21
3.25000023236191
  0
LINE
  5
F0
100
AcDbEntity
  8
1
  6
CONTINUOUS
 62
             3
100
AcDbLine
 10
129.50000000000099
 20
3.20000023236185
 11
129.50000000000099
 21
3.40000023236189
  0
LINE
  5
EF
100
AcDbEntity
  8
1
  6
CONTINUOUS
 62
             3
100
AcDbLine
 10
129.50000000000099
 20
3.40000023236189
 11
130.50000000000099
 21
3.40000023236189
  0
LINE
  5
EE
100
AcDbEntity
  8
1
  6
CONTINUOUS
 62
             3
100
AcDbLine
 10
130.50000000000099
 20
3.40000023236189
 11
130.50000000000099
 21
3.20000023236196
  0
LINE
  5
ED
100
AcDbEntity
  8
1
  6
CONTINUOUS
 62
             3
100
AcDbLine
 10
128.25000000000031
 20
2.70000023236196
 11
128.2500000000008
 21
3.20000023236185
  0
LINE
  5
EC
100
AcDbEntity
  8
1
  6
CONTINUOUS
 62
             3
100
AcDbLine
 10
128.2500000000008
 20
3.20000023236185
 11
131.7500000000008
 21
3.20000023236196
  0
LINE
  5
EB
100
AcDbEntity
  8
1
  6
CONTINUOUS
 62
             3
100
AcDbLine
 10
131.7500000000008
 20
3.20000023236196
 11
131.75000000000139
 21
2.70000023236196
  0
LINE
  5
EA
100
AcDbEntity
  8
1
  6
CONTINUOUS
 62
             2
100
AcDbLine
 10
128.7500000000008
 20
3.20000023236185
 11
128.7500000000008
 21
2.70000023236185
  0
LINE
  5
E9
100
AcDbEntity
  8
1
  6
CONTINUOUS
 62
             2
100
AcDbLine
 10
131.2500000000008
 20
3.20000023236196
 11
131.2500000000008
 21
2.70000023236196
  0
LINE
  5
E8
100
AcDbEntity
  8
1
  6
CONTINUOUS
 62
             3
100
AcDbLine
 10
131.75000000000131
 20
3.25000023236191
 11
130.99999999999969
 21
3.25000023236203
  0
LINE
  5
E7
100
AcDbEntity
  8
1
  6
CONTINUOUS
 62
             3
100
AcDbLine
 10
129.50000000000099
 20
3.25000023236191
 11
128.99999999999969
 21
3.25000023236203
  0
LINE
  5
E6
100
AcDbEntity
  8
1
  6
CONTINUOUS
 62
             3
100
AcDbLine
 10
128.9999999999996
 20
2.70000023236207
 11
130.9999999999996
 21
2.70000023236207
  0
LINE
  5
E5
100
AcDbEntity
  8
1
  6
CONTINUOUS
 62
             3
100
AcDbLine
 10
128.25000000000031
 20
2.70000023236196
 11
128.9999999999996
 21
2.70000023236207
  0
LINE
  5
E4
100
AcDbEntity
  8
1
  6
CONTINUOUS
 62
             3
100
AcDbLine
 10
130.9999999999996
 20
2.70000023236207
 11
131.75000000000139
 21
2.70000023236196
  0
LINE
  5
E3
100
AcDbEntity
  8
1
  6
CONTINUOUS
 62
             3
100
AcDbLine
 10
128.99999999999969
 20
3.25000023236203
 11
128.25000000000031
 21
3.25000023236191
  0
LINE
  5
E2
100
AcDbEntity
  8
0
  6
CONTINUOUS
 62
             3
100
AcDbLine
 10
131.75000000000131
 20
3.25000023236191
 11
131.75000000000139
 21
2.70000023236196
  0
LINE
  5
E1
100
AcDbEntity
  8
0
  6
CONTINUOUS
 62
             3
100
AcDbLine
 10
128.25000000000031
 20
2.70000023236196
 11
128.25000000000031
 21
3.25000023236191
  0
LINE
  5
E0
100
AcDbEntity
  8
1
  6
CONTINUOUS
 62
             2
100
AcDbLine
 10
134.5000000000019
 20
2.98500661181515
 11
134.5000000000008
 21
1.95256250877378
  0
LINE
  5
DF
100
AcDbEntity
  8
1
  6
CONTINUOUS
 62
             2
100
AcDbLine
 10
125.5000000000019
 20
2.98500661181447
 11
125.5000000000008
 21
1.95256250877389
  0
LINE
  5
DE
100
AcDbEntity
  8
1
  6
CONTINUOUS
 62
             2
100
AcDbLine
 10
125.2500000000007
 20
37.98325610115558
 11
125.2500000000007
 21
36.94690237182073
  0
LINE
  5
DD
100
AcDbEntity
  8
1
  6
CONTINUOUS
 62
             2
100
AcDbLine
 10
134.7500000000008
 20
37.98325610115558
 11
134.7500000000008
 21
36.9469023718205
  0
LINE
  5
DC
100
AcDbEntity
  8
1
  6
CONTINUOUS
 62
             1
100
AcDbLine
 10
118.43543569450109
 20
8.43543569450071
 11
121.7188830075394
 21
11.71888300753881
  0
LINE
  5
DB
100
AcDbEntity
  8
1
  6
CONTINUOUS
 62
             1
100
AcDbLine
 10
138.28111699246219
 20
11.71888300753881
 11
141.56456430550051
 21
8.43543569450071
  0
LINE
  5
DA
100
AcDbEntity
  8
1
  6
CONTINUOUS
 62
             1
100
AcDbLine
 10
121.7188830075394
 20
28.28111699246199
 11
118.43543569450109
 21
31.5645643055002
  0
LINE
  5
D9
100
AcDbEntity
  8
1
  6
CONTINUOUS
 62
             1
100
AcDbLine
 10
141.56456430550051
 20
31.5645643055002
 11
138.28111699246219
 21
28.28111699246199
  0
LINE
  5
D8
100
AcDbEntity
  8
1
  6
CONTINUOUS
 62
             3
100
AcDbLine
 10
130.50000000000099
 20
36.74999976763894
 11
131.00000000000071
 21
36.74999976763894
  0
LINE
  5
D7
100
AcDbEntity
  8
1
  6
CONTINUOUS
 62
             3
100
AcDbLine
 10
129.50000000000099
 20
36.59999976763891
 11
129.50000000000099
 21
36.79999976763889
  0
LINE
  5
D6
100
AcDbEntity
  8
1
  6
CONTINUOUS
 62
             3
100
AcDbLine
 10
130.50000000000099
 20
36.59999976763891
 11
129.50000000000099
 21
36.59999976763891
  0
LINE
  5
D5
100
AcDbEntity
  8
1
  6
CONTINUOUS
 62
             3
100
AcDbLine
 10
130.50000000000099
 20
36.79999976763889
 11
130.50000000000099
 21
36.59999976763891
  0
LINE
  5
D4
100
AcDbEntity
  8
1
  6
CONTINUOUS
 62
             3
100
AcDbLine
 10
128.2500000000008
 20
36.79999976763889
 11
128.25000000000031
 21
37.29999976763889
  0
LINE
  5
D3
100
AcDbEntity
  8
1
  6
CONTINUOUS
 62
             3
100
AcDbLine
 10
131.7500000000008
 20
36.79999976763889
 11
128.2500000000008
 21
36.79999976763889
  0
LINE
  5
D2
100
AcDbEntity
  8
1
  6
CONTINUOUS
 62
             3
100
AcDbLine
 10
131.75000000000139
 20
37.29999976763889
 11
131.7500000000008
 21
36.79999976763889
  0
LINE
  5
D1
100
AcDbEntity
  8
1
  6
CONTINUOUS
 62
             2
100
AcDbLine
 10
128.7500000000008
 20
37.29999976763889
 11
128.7500000000008
 21
36.79999976763889
  0
LINE
  5
D0
100
AcDbEntity
  8
1
  6
CONTINUOUS
 62
             2
100
AcDbLine
 10
131.2500000000008
 20
37.29999976763889
 11
131.2500000000008
 21
36.79999976763889
  0
LINE
  5
CF
100
AcDbEntity
  8
0
  6
CONTINUOUS
 62
             3
100
AcDbLine
 10
133.5000000000006
 20
1.73226888746922
 11
133.5000000000021
 21
3.15986935918545
  0
LINE
  5
CE
100
AcDbEntity
  8
0
  6
CONTINUOUS
 62
             3
100
AcDbLine
 10
126.5000000000006
 20
1.73226888746945
 11
126.5000000000021
 21
3.15986935918431
  0
LINE
  5
CD
100
AcDbEntity
  8
1
  6
CONTINUOUS
 62
             3
100
AcDbLine
 10
130.9999999999996
 20
2.70000023236207
 11
130.99999999999969
 21
1.42690117401753
  0
LINE
  5
CC
100
AcDbEntity
  8
1
  6
CONTINUOUS
 62
             3
100
AcDbLine
 10
128.9999999999996
 20
2.70000023236207
 11
128.9999999999996
 21
1.42690117401753
  0
LINE
  5
CB
100
AcDbEntity
  8
1
  6
CONTINUOUS
 62
             3
100
AcDbLine
 10
130.99999999999969
 20
3.25000023236203
 11
130.99999999999969
 21
10.80000000000655
  0
LINE
  5
CA
100
AcDbEntity
  8
1
  6
CONTINUOUS
 62
             3
100
AcDbLine
 10
128.99999999999969
 20
3.25000023236203
 11
128.99999999999969
 21
10.80000000000655
  0
LINE
  5
C9
100
AcDbEntity
  8
1
  6
CONTINUOUS
 62
             3
100
AcDbLine
 10
133.74999999999969
 20
10.80000000000655
 11
126.2499999999994
 21
10.80000000000655
  0
LINE
  5
C8
100
AcDbEntity
  8
1
  6
CONTINUOUS
 62
             3
100
AcDbLine
 10
133.74999999999969
 20
3.21377052463072
 11
133.74999999999969
 21
10.80000000000655
  0
LINE
  5
C7
100
AcDbEntity
  8
1
  6
CONTINUOUS
 62
             3
100
AcDbLine
 10
126.2499999999994
 20
10.80000000000655
 11
126.2500000000008
 21
3.21377052463072
  0
LINE
  5
C6
100
AcDbEntity
  8
0
  6
CONTINUOUS
 62
             3
100
AcDbLine
 10
133.75000000000139
 20
38.21805423199049
 11
133.7500000000008
 21
36.78622947537025
  0
LINE
  5
C5
100
AcDbEntity
  8
0
  6
CONTINUOUS
 62
             3
100
AcDbLine
 10
126.25000000000151
 20
38.21805423199118
 11
126.2500000000007
 21
36.78622947537025
  0
LINE
  5
C4
100
AcDbEntity
  8
1
  6
CONTINUOUS
 62
             3
100
AcDbLine
 10
133.7500000000008
 20
29.19999999999442
 11
133.7500000000008
 21
36.78622947537025
  0
LINE
  5
C3
100
AcDbEntity
  8
1
  6
CONTINUOUS
 62
             3
100
AcDbLine
 10
126.2500000000007
 20
29.19999999999442
 11
133.7500000000008
 21
29.19999999999442
  0
LINE
  5
C2
100
AcDbEntity
  8
1
  6
CONTINUOUS
 62
             3
100
AcDbLine
 10
126.2500000000007
 20
36.78622947537025
 11
126.2500000000007
 21
29.19999999999442
  0
LINE
  5
C1
100
AcDbEntity
  8
1
  6
CONTINUOUS
 62
             3
100
AcDbLine
 10
131.00000000000071
 20
36.74999976763894
 11
131.75000000000131
 21
36.74999976763894
  0
LINE
  5
C0
100
AcDbEntity
  8
1
  6
CONTINUOUS
 62
             3
100
AcDbLine
 10
131.00000000000071
 20
36.74999976763894
 11
131.0000000000008
 21
29.19999999999504
  0
LINE
  5
BF
100
AcDbEntity
  8
1
  6
CONTINUOUS
 62
             3
100
AcDbLine
 10
129.00000000000071
 20
36.74999976763894
 11
129.50000000000099
 21
36.74999976763894
  0
LINE
  5
BE
100
AcDbEntity
  8
1
  6
CONTINUOUS
 62
             3
100
AcDbLine
 10
129.00000000000071
 20
36.74999976763894
 11
129.00000000000071
 21
29.19999999999442
  0
LINE
  5
BD
100
AcDbEntity
  8
1
  6
CONTINUOUS
 62
             3
100
AcDbLine
 10
131.0000000000008
 20
37.29999976763889
 11
129.0000000000008
 21
37.29999976763889
  0
LINE
  5
BC
100
AcDbEntity
  8
1
  6
CONTINUOUS
 62
             3
100
AcDbLine
 10
131.0000000000008
 20
37.29999976763889
 11
131.0
 21
38.57309882598352
  0
LINE
  5
BB
100
AcDbEntity
  8
1
  6
CONTINUOUS
 62
             3
100
AcDbLine
 10
129.0000000000008
 20
37.29999976763889
 11
128.25000000000031
 21
37.29999976763889
  0
LINE
  5
BA
100
AcDbEntity
  8
1
  6
CONTINUOUS
 62
             3
100
AcDbLine
 10
129.0000000000008
 20
37.29999976763889
 11
129.0000000000006
 21
38.57309882598355
  0
LINE
  5
B9
100
AcDbEntity
  8
1
  6
CONTINUOUS
 62
             3
100
AcDbLine
 10
131.75000000000139
 20
37.29999976763889
 11
131.0000000000008
 21
37.29999976763889
  0
LINE
  5
B8
100
AcDbEntity
  8
1
  6
CONTINUOUS
 62
             3
100
AcDbLine
 10
128.25000000000031
 20
36.74999976763894
 11
129.00000000000071
 21
36.74999976763894
  0
LINE
  5
B7
100
AcDbEntity
  8
0
  6
CONTINUOUS
 62
             3
100
AcDbLine
 10
131.75000000000139
 20
37.29999976763889
 11
131.75000000000131
 21
36.74999976763894
  0
LINE
  5
B6
100
AcDbEntity
  8
0
  6
CONTINUOUS
 62
             3
100
AcDbLine
 10
128.25000000000031
 20
36.74999976763894
 11
128.25000000000031
 21
37.29999976763889
  0
LINE
  5
B5
100
AcDbEntity
  8
1
  6
CONTINUOUS
 62
             3
100
AcDbLine
 10
128.05000000000049
 20
29.19999999999442
 11
128.05000000000049
 21
28.99999999999443
  0
LINE
  5
B4
100
AcDbEntity
  8
1
  6
CONTINUOUS
 62
             3
100
AcDbLine
 10
128.05000000000049
 20
28.99999999999443
 11
129.05000000000049
 21
28.99999999999443
  0
LINE
  5
B3
100
AcDbEntity
  8
1
  6
CONTINUOUS
 62
             3
100
AcDbLine
 10
129.05000000000049
 20
28.99999999999443
 11
129.05000000000049
 21
29.19999999999442
  0
LINE
  5
B2
100
AcDbEntity
  8
1
  6
CONTINUOUS
 62
             3
100
AcDbLine
 10
131.95000000000081
 20
28.9999999999946
 11
131.95000000000081
 21
29.19999999999442
  0
LINE
  5
B1
100
AcDbEntity
  8
1
  6
CONTINUOUS
 62
             3
100
AcDbLine
 10
130.95000000000081
 20
28.9999999999946
 11
131.95000000000081
 21
28.9999999999946
  0
LINE
  5
B0
100
AcDbEntity
  8
1
  6
CONTINUOUS
 62
             3
100
AcDbLine
 10
130.95000000000081
 20
29.19999999999442
 11
130.95000000000081
 21
28.9999999999946
  0
LINE
  5
AF
100
AcDbEntity
  8
1
  6
CONTINUOUS
 62
             3
100
AcDbLine
 10
128.05000000000049
 20
11.00000000000637
 11
128.05000000000049
 21
10.80000000000638
  0
LINE
  5
AE
100
AcDbEntity
  8
1
  6
CONTINUOUS
 62
             3
100
AcDbLine
 10
129.05000000000049
 20
11.00000000000637
 11
128.05000000000049
 21
11.00000000000637
  0
LINE
  5
AD
100
AcDbEntity
  8
1
  6
CONTINUOUS
 62
             3
100
AcDbLine
 10
129.05000000000049
 20
10.80000000000638
 11
129.05000000000049
 21
11.00000000000637
  0
LINE
  5
AC
100
AcDbEntity
  8
1
  6
CONTINUOUS
 62
             3
100
AcDbLine
 10
131.95000000000081
 20
10.80000000000655
 11
131.95000000000081
 21
11.00000000000637
  0
LINE
  5
AB
100
AcDbEntity
  8
1
  6
CONTINUOUS
 62
             3
100
AcDbLine
 10
131.95000000000081
 20
11.00000000000637
 11
130.95000000000081
 21
11.00000000000637
  0
LINE
  5
AA
100
AcDbEntity
  8
1
  6
CONTINUOUS
 62
             3
100
AcDbLine
 10
130.95000000000081
 20
11.00000000000637
 11
130.95000000000081
 21
10.80000000000655
  0
LINE
  5
A9
100
AcDbEntity
  8
1
  6
CONTINUOUS
 62
             3
100
AcDbLine
 10
116.0655317480843
 20
7.6796674340215
 11
115.5946559427363
 21
7.306455869545
  0
LINE
  5
A8
100
AcDbEntity
  8
1
  6
CONTINUOUS
 62
             3
100
AcDbLine
 10
114.8232361875276
 20
9.2470543486732
 11
114.3523603821797
 21
8.87384278419671
  0
LINE
  5
A7
100
AcDbEntity
  8
1
  6
CONTINUOUS
 62
             3
100
AcDbLine
 10
32.59999999998983
 20
7.67966743402133
 11
32.59999999998983
 21
0.80000000000035
  0
LINE
  5
A6
100
AcDbEntity
  8
1
  6
CONTINUOUS
 62
             3
100
AcDbLine
 10
-17.40000000001018
 20
7.30645586954483
 11
32.59999999998983
 21
7.30645586954483
  0
LINE
  5
A5
100
AcDbEntity
  8
1
  6
CONTINUOUS
 62
             3
100
AcDbLine
 10
32.59999999998983
 20
7.67966743402133
 11
-17.40000000001015
 21
7.67966743402133
  0
LINE
  5
A4
100
AcDbEntity
  8
1
  6
CONTINUOUS
 62
             3
100
AcDbLine
 10
-17.40000000001015
 20
8.87384278419648
 11
-17.40000000001017
 21
39.20000000000033
  0
LINE
  5
A3
100
AcDbEntity
  8
1
  6
CONTINUOUS
 62
             3
100
AcDbLine
 10
-17.40000000001015
 20
8.87384278419648
 11
32.59999999998983
 21
8.87384278419648
  0
LINE
  5
A2
100
AcDbEntity
  8
1
  6
CONTINUOUS
 62
             3
100
AcDbLine
 10
-17.40000000001017
 20
0.80000000000035
 11
-17.40000000001015
 21
7.67966743402133
  0
LINE
  5
A1
100
AcDbEntity
  8
1
  6
CONTINUOUS
 62
             3
100
AcDbLine
 10
32.59999999998983
 20
39.20000000000033
 11
32.59999999998983
 21
8.87384278419648
  0
LINE
  5
A0
100
AcDbEntity
  8
1
  6
CONTINUOUS
 62
             3
100
AcDbLine
 10
32.59999999998983
 20
0.80000000000035
 11
-17.40000000001017
 21
0.80000000000035
  0
LINE
  5
9F
100
AcDbEntity
  8
1
  6
CONTINUOUS
 62
             3
100
AcDbLine
 10
-17.40000000001017
 20
39.20000000000033
 11
32.59999999998983
 21
39.20000000000033
  0
LINE
  5
9E
100
AcDbEntity
  8
1
  6
CONTINUOUS
 62
             3
100
AcDbLine
 10
-17.40000000001017
 20
38.6
 11
-19.0
 21
38.59999999999999
  0
LINE
  5
9D
100
AcDbEntity
  8
1
  6
CONTINUOUS
 62
             3
100
AcDbLine
 10
32.59999999998983
 20
1.40000000000037
 11
47.20000000000005
 21
1.4000000000005
  0
POINT
  5
9C
100
AcDbEntity
  8
1
 62
             3
 60
             1
100
AcDbPoint
 10
45.5
 20
38.21804153555613
  0
POINT
  5
9B
100
AcDbEntity
  8
1
 62
             3
 60
             1
100
AcDbPoint
 10
47.19999999999999
 20
36.79999976764503
  0
POINT
  5
9A
100
AcDbEntity
  8
1
 62
             3
 60
             1
100
AcDbPoint
 10
55.78800145276795
 20
20.0
  0
POINT
  5
99
100
AcDbEntity
  8
1
 62
             3
 60
             1
100
AcDbPoint
 10
45.50000000000006
 20
1.73226888746183
  0
POINT
  5
98
100
AcDbEntity
  8
1
 62
             3
 60
             1
100
AcDbPoint
 10
46.50000000000006
 20
1.95256250877344
  0
POINT
  5
97
100
AcDbEntity
  8
1
 62
             3
 60
             1
100
AcDbPoint
 10
46.50000000000006
 20
3.20000023235497
  0
POINT
  5
96
100
AcDbEntity
  8
1
 62
             3
 60
             1
100
AcDbPoint
 10
47.19999999999999
 20
3.20000023235497
  0
POINT
  5
95
100
AcDbEntity
  8
1
 62
             3
 60
             1
100
AcDbPoint
 10
-130.0
 20
20.00000000000046
  0
INSERT
  5
29
100
AcDbEntity
  8
1
100
AcDbBlockReference
  2
_____V______
 10
30.59049773165967
 20
-84.75000000000003
 41
2.0
 42
2.0
 43
2.0
  0
SOLID
  5
1FF
100
AcDbEntity
  8
1
 62
             2
100
AcDbTrace
 10
-4.46415362073964
 20
41.34905042583857
 11
-3.81250700411029
 21
42.00069704246792
 12
-1.66345657827205
 22
39.20000000000033
 13
-1.66345657827205
 23
39.20000000000033
  0
SOLID
  5
201
100
AcDbEntity
  8
1
 62
             2
100
AcDbTrace
 10
127.02377187382938
 20
40.56039064750308
 11
127.92234673031254
 21
40.7649630142226
 12
128.2500000000008
 22
37.25000000000114
 13
128.2500000000008
 23
37.25000000000114
  0
SOLID
  5
203
100
AcDbEntity
  8
1
 62
             2
100
AcDbTrace
 10
132.9762281261722
 20
-0.56039064750144
 11
132.07765326968905
 21
-0.76496301422095
 12
131.7500000000008
 22
2.75000000000051
 13
131.7500000000008
 23
2.75000000000051
  0
INSERT
  5
2A0
100
AcDbEntity
  8
0
100
AcDbBlockReference
  2
*D20
 10
0.0
 20
0.0
  0
ENDSEC
  0
SECTION
  2
OBJECTS
  0
DICTIONARY
  5
19
100
AcDbDictionary
  3
ACAD_GROUP
350
1A
  3
ACAD_MLINESTYLE
350
1B
  0
DICTIONARY
  5
1A
102
{ACAD_REACTORS
330
19
102
}
100
AcDbDictionary
  0
DICTIONARY
  5
1B
102
{ACAD_REACTORS
330
19
102
}
100
AcDbDictionary
  3
STANDARD
350
1C
  0
MLINESTYLE
  5
1C
102
{ACAD_REACTORS
330
1B
102
}
100
AcDbMlineStyle
  2
STANDARD
 70
             0
  3

 62
             0
 51
90.0
 52
90.0
 71
             2
 49
0.5
 62
           256
  6
BYLAYER
 49
-0.5
 62
           256
  6
BYLAYER
  0
ENDSEC
  0
EOF
