  0
SECTION
  2
HEADER
  9
$ACADVER
  1
AC1009
  9
$INSBASE
 10
0
 20
0
  9
$EXTMIN
 10
-247.7413399017973
 20
-23.533010240282
  9
$EXTMAX
 10
8.088785727887
 20
186.736583114268
  9
$LIMMIN
 10
-247.7413399017973
 20
-23.533010240282
  9
$LIMMAX
 10
8.088785727887
 20
186.736583114268
  9
$VIEWCTR
 10
10
 20
10
  9
$VIEWSIZE
 40
10
  9
$SNAPMODE
 70
0
  9
$SNAPUNIT
 10
1
 20
1
  9
$SNAPBASE
 10
0
 20
0
  9
$SNAPANG
 50
0
  9
$SNAPSTYLE
 70
0
  9
$SNAPISOPAIR
 70
0
  9
$GRIDMODE
 70
0
  9
$GRIDUNIT
 10
0
 20
0
  9
$ORTHOMODE
 70
0
  9
$REGENMODE
 70
1
  9
$FILLMODE
 70
1
  9
$QTEXTMODE
 70
0
  9
$DRAGMODE
 70
2
  9
$LTSCALE
 40
1
  9
$OSMODE
 70
0
  9
$ATTMODE
 70
1
  9
$TEXTSIZE
 40
3.5
  9
$TRACEWID
 40
0.5
  9
$TEXTSTYLE
  7
STANDARD
  9
$CLAYER
  8
0
  9
$CELTYPE
  6
BYLAYER
  9
$CECOLOR
 62
256
  9
$DIMSCALE
 40
1
  9
$DIMASZ
 40
0.18
  9
$DIMEXO
 40
0.0625
  9
$DIMDLI
 40
0.38
  9
$DIMRND
 40
0
  9
$DIMDLE
 40
0
  9
$DIMEXE
 40
0.18
  9
$DIMTP
 40
0
  9
$DIMTM
 40
0
  9
$DIMTXT
 40
0.18
  9
$DIMCEN
 40
0.09
  9
$DIMTSZ
 40
0
  9
$DIMTOL
 70
0
  9
$DIMLIM
 70
0
  9
$DIMTIH
 70
1
  9
$DIMTOH
 70
1
  9
$DIMSE1
 70
0
  9
$DIMSE2
 70
0
  9
$DIMTAD
 70
0
  9
$DIMZIN
 70
0
  9
$DIMBLK
  1

  9
$DIMASO
 70
1
  9
$DIMSHO
 70
1
  9
$DIMPOST
  1

  9
$DIMAPOST
  1

  9
$DIMALT
 70
0
  9
$DIMALTD
 70
2
  9
$DIMALTF
 40
25.4
  9
$DIMLFAC
 40
1
  9
$DIMTOFL
 70
0
  9
$DIMTVP
 40
0
  9
$DIMTIX
 70
0
  9
$DIMSOXD
 70
0
  9
$DIMSAH
 70
0
  9
$DIMBLK1
  1

  9
$DIMBLK2
  1

  9
$DIMSTYLE
  2
*UNNAMED
  9
$DIMCLRD
 70
0
  9
$DIMCLRE
 70
0
  9
$DIMCLRT
 70
0
  9
$DIMTFAC
 40
1
  9
$DIMGAP
 40
0.09
  9
$LUNITS
 70
2
  9
$LUPREC
 70
4
  9
$AXISMODE
 70
0
  9
$AXISUNIT
 10
0
 20
0
  9
$SKETCHINC
 40
0.1
  9
$FILLETRAD
 40
2
  9
$AUNITS
 70
0
  9
$AUPREC
 70
0
  9
$MENU
  1
ACAD
  9
$ELEVATION
 40
0
  9
$THICKNESS
 40
0
  9
$VIEWDIR
 10
0
 20
0
 30
1
  9
$LIMCHECK
 70
0
  9
$BLIPMODE
 70
1
  9
$CHAMFERA
 40
0
  9
$CHAMFERB
 40
0
  9
$FASTZOOM
 70
1
  9
$SKPOLY
 70
0
  9
$ANGBASE
 50
0
  9
$ANGDIR
 70
0
  9
$PDMODE
 70
0
  9
$PDSIZE
 40
0
  9
$PLINEWID
 40
0
  9
$COORDS
 70
2
  0
ENDSEC
  0
SECTION
  2
TABLES
  0
TABLE
  2
DIMSTYLE
 70
6
  0
DIMSTYLE
  2
DMST_1
 70
0
  3

  4

  5

  6

  7

 40
1
 41
3.2
 42
1
 43
7
 44
1.5
 45
0
 46
0
 47
0
 48
0
140
3.2
141
0
142
0
143
25.4
144
1
145
0
146
1
147
0.09
 71
0
 72
0
 73
0
 74
0
 75
0
 76
0
 77
1
 78
9
170
0
171
2
172
0
173
0
174
0
175
0
176
2
177
2
178
2
  0
DIMSTYLE
  2
DMST_2
 70
0
  3

  4

  5

  6

  7

 40
1
 41
3.2
 42
1
 43
7
 44
1
 45
0
 46
0
 47
0.5
 48
0.5
140
3.2
141
0
142
0
143
25.4
144
1
145
0
146
0.6
147
0.09
 71
1
 72
0
 73
0
 74
0
 75
0
 76
0
 77
1
 78
1
170
0
171
2
172
0
173
0
174
0
175
0
176
2
177
2
178
2
  0
DIMSTYLE
  2
DMST_3
 70
0
  3

  4

  5

  6

  7

 40
1
 41
3.2
 42
1
 43
7
 44
1
 45
0
 46
0
 47
0
 48
0
140
3.2
141
0
142
0
143
25.4
144
1
145
0
146
1
147
0.09
 71
0
 72
0
 73
0
 74
0
 75
0
 76
0
 77
1
 78
1
170
0
171
2
172
0
173
0
174
0
175
0
176
2
177
2
178
2
  0
DIMSTYLE
  2
DMST_4
 70
0
  3

  4

  5

  6

  7

 40
1
 41
3.5
 42
1
 43
7
 44
2
 45
0
 46
0
 47
0
 48
0
140
3.5
141
0
142
0
143
25.4
144
1
145
0
146
1
147
0.09
 71
0
 72
0
 73
0
 74
0
 75
0
 76
0
 77
1
 78
1
170
0
171
2
172
0
173
0
174
0
175
0
176
2
177
2
178
2
  0
DIMSTYLE
  2
DMST_5
 70
0
  3

  4

  5

  6

  7

 40
1
 41
3.2
 42
1
 43
7
 44
1
 45
0
 46
0
 47
0.1
 48
0.1
140
3.2
141
0
142
0
143
25.4
144
1
145
0
146
0.6
147
0.09
 71
1
 72
0
 73
0
 74
0
 75
0
 76
0
 77
1
 78
1
170
0
171
2
172
0
173
0
174
0
175
0
176
2
177
2
178
2
  0
DIMSTYLE
  2
DMST_6
 70
0
  3

  4

  5

  6

  7

 40
1
 41
3.2
 42
1
 43
7
 44
1
 45
0
 46
0
 47
0
 48
0.02
140
3.2
141
0
142
0
143
25.4
144
1
145
0
146
0.6
147
0.09
 71
1
 72
0
 73
0
 74
0
 75
0
 76
0
 77
1
 78
1
170
0
171
2
172
0
173
0
174
0
175
0
176
2
177
2
178
2
  0
ENDTAB
  0
TABLE
  2
LTYPE
 70
9
  0
LTYPE
  2
CONTINUOUS
 70
64
  3
Solid line
 72
65
 73
0
 40
0
  0
LTYPE
  2
BORDER
 70
64
  3
__ __ . __ __ .
 72
65
 73
6
 40
11.78165052241967
 49
3.366185863548477
 49
-1.683092931774239
 49
3.366185863548477
 49
-1.683092931774239
 49
0
 49
-1.683092931774239
  0
LTYPE
  2
CENTER
 70
64
  3
____ _ ____ _
 72
65
 73
4
 40
13.46474345419391
 49
8.415464658871194
 49
-1.683092931774239
 49
1.683092931774239
 49
-1.683092931774239
  0
LTYPE
  2
DASHDOT
 70
64
  3
__ . __ . __ .
 72
65
 73
4
 40
6.732371727096955
 49
3.366185863548477
 49
-1.683092931774239
 49
0
 49
-1.683092931774239
  0
LTYPE
  2
DASHED
 70
64
  3
__ __ __ __ __
 72
65
 73
2
 40
5.049278795322716
 49
3.366185863548477
 49
-1.683092931774239
  0
LTYPE
  2
DIVIDE
 70
64
  3
__ . . __ . . 
 72
65
 73
6
 40
8.415464658871194
 49
3.366185863548477
 49
-1.683092931774239
 49
0
 49
-1.683092931774239
 49
0
 49
-1.683092931774239
  0
LTYPE
  2
DOT
 70
64
  3
..............
 72
65
 73
4
 40
3.366185863548477
 49
0
 49
-1.683092931774239
 49
0
 49
-1.683092931774239
  0
LTYPE
  2
HIDDEN
 70
64
  3
_ _ _ _ _ _ _
 72
65
 73
2
 40
2.524639397661358
 49
1.683092931774239
 49
-0.8415464658871193
  0
LTYPE
  2
PHANTOM
 70
64
  3
_____ _ _ _____ _ _ 
 72
65
 73
6
 40
16.83092931774239
 49
8.415464658871194
 49
-1.683092931774239
 49
1.683092931774239
 49
-1.683092931774239
 49
1.683092931774239
 49
-1.683092931774239
  0
ENDTAB
  0
TABLE
  2
LAYER
 70
3
  0
LAYER
  2
0
 70
0
 62
7
  6
CONTINUOUS
  0
LAYER
  2
1
 70
0
 62
7
  6
CONTINUOUS
  0
ENDTAB
  0
TABLE
  2
STYLE
 70
4
  0
STYLE
  2
STANDARD
 70
0
 40
0
 41
1
 50
0
 71
0
 42
3.5
  3
txt
  4

  0
STYLE
  2
SIMPLEX
 70
0
 40
0
 41
1
 50
0
 71
0
 42
3.5
  3
simplex
  4

  0
STYLE
  2
COMPLEX
 70
0
 40
0
 41
1
 50
0
 71
0
 42
3.5
  3
complex
  4

  0
STYLE
  2
ITALIC
 70
0
 40
0
 41
1
 50
0
 71
0
 42
3.5
  3
italic
  4

  0
ENDTAB
  0
TABLE
  2
VIEW
 70
0
  0
ENDTAB
  0
ENDSEC
  0
SECTION
  2
BLOCKS
  0
BLOCK
  8
1
  2
*X0
 70
1
 10
0
 20
0
 30
0
  0
LINE
  8
1
 62
2
 10
-67.65050730446168
 20
143.4735704230275
 30
0
 11
-67.65050730446157
 21
143.5740857084578
 31
0
  0
LINE
  8
1
 62
2
 10
-67.55050730446169
 20
143.373581219603
 30
0
 11
-67.55050730446158
 21
143.6510854579189
 31
0
  0
LINE
  8
1
 62
2
 10
-67.4505073044617
 20
143.2735920161786
 30
0
 11
-67.45050730446158
 21
143.7280852073799
 31
0
  0
LINE
  8
1
 62
2
 10
-67.3505073044617
 20
143.1736028127542
 30
0
 11
-67.35050730446159
 21
143.8050849568409
 31
0
  0
LINE
  8
1
 62
2
 10
-67.25050730446171
 20
143.0736136093298
 30
0
 11
-67.25050730446159
 21
143.882084706302
 31
0
  0
LINE
  8
1
 62
2
 10
-67.15050730446171
 20
142.9736244059053
 30
0
 11
-67.1505073044616
 21
143.959084455763
 31
0
  0
LINE
  8
1
 62
2
 10
-67.0505073044616
 20
143.030987718722
 30
0
 11
-67.0505073044616
 21
144.0360842052241
 31
0
  0
LINE
  8
1
 62
2
 10
-66.95050730446161
 20
143.160887283262
 30
0
 11
-66.95050730446161
 21
144.1130839546851
 31
0
  0
LINE
  8
1
 62
2
 10
-66.85050730446162
 20
143.2907868478021
 30
0
 11
-66.85050730446162
 21
144.1900837041461
 31
0
  0
LINE
  8
1
 62
2
 10
-66.75050730446162
 20
143.4206864123421
 30
0
 11
-66.75050730446162
 21
144.2670834536072
 31
0
  0
LINE
  8
1
 62
2
 10
-66.65050730446163
 20
143.5505859768821
 30
0
 11
-66.65050730446163
 21
144.3440832030682
 31
0
  0
LINE
  8
1
 62
2
 10
-66.55050730446163
 20
143.6804855414222
 30
0
 11
-66.55050730446163
 21
144.4210829525293
 31
0
  0
LINE
  8
1
 62
2
 10
-66.45050730446164
 20
143.8103851059622
 30
0
 11
-66.45050730446164
 21
144.4980827019903
 31
0
  0
LINE
  8
1
 62
2
 10
-66.35050730446164
 20
143.9402846705023
 30
0
 11
-66.35050730446164
 21
144.5750824514513
 31
0
  0
LINE
  8
1
 62
2
 10
-66.25050730446165
 20
144.0701842350423
 30
0
 11
-66.25050730446165
 21
144.6520822009124
 31
0
  0
LINE
  8
1
 62
2
 10
-66.15050730446166
 20
144.2000837995823
 30
0
 11
-66.15050730446166
 21
144.7290819503734
 31
0
  0
LINE
  8
1
 62
2
 10
-66.05050730446166
 20
144.3299833641224
 30
0
 11
-66.05050730446166
 21
144.8060816998344
 31
0
  0
LINE
  8
1
 62
2
 10
-65.95050730446167
 20
144.4598829286624
 30
0
 11
-65.95050730446167
 21
144.8830814492955
 31
0
  0
LINE
  8
1
 62
2
 10
-65.85050730446167
 20
144.5897824932025
 30
0
 11
-65.85050730446167
 21
144.9600811987565
 31
0
  0
LINE
  8
1
 62
2
 10
-65.75050730446168
 20
144.7196820577425
 30
0
 11
-65.75050730446168
 21
145.0370809482176
 31
0
  0
LINE
  8
1
 62
2
 10
-65.65050730446168
 20
144.8495816222825
 30
0
 11
-65.65050730446168
 21
145.1140806976786
 31
0
  0
LINE
  8
1
 62
2
 10
-65.55050730446169
 20
144.9794811868226
 30
0
 11
-65.55050730446169
 21
145.1910804471396
 31
0
  0
LINE
  8
1
 62
2
 10
-65.4505073044617
 20
145.1093807513626
 30
0
 11
-65.4505073044617
 21
145.2680801966007
 31
0
  0
LINE
  8
1
 62
2
 10
-65.3505073044617
 20
145.2392803159027
 30
0
 11
-65.3505073044617
 21
145.3450799460617
 31
0
  0
LINE
  8
1
 62
2
 10
-65.25050730446171
 20
145.3691798804427
 30
0
 11
-65.25050730446171
 21
145.4220796955227
 31
0
  0
ENDBLK
  8
0
  0
BLOCK
  8
0
  2
_D18
 70
0
 10
0
 20
0
 30
0
  0
INSERT
  8
1
  2
*X0
 10
0
 20
0
 30
0
  0
LINE
  8
1
 62
2
 10
-65.15050730445971
 20
145.4990794449853
 30
0
 11
-80.92824619752498
 21
129.7196369124807
 31
0
  0
LINE
  8
1
 62
2
 10
-80.92824619752498
 20
129.7196369124807
 30
0
 11
-101.248246197525
 21
129.7196369124807
 31
0
  0
TEXT
  8
1
 62
2
 10
-101.248246197525
 20
130.7196369124807
 30
0
 40
3.2
  1
2-%%c
 41
0.8910000000000004
  0
TEXT
  8
1
 62
2
 10
-91.96824619752499
 20
130.7196369124807
 30
0
 40
3.2
  1
3.5
 41
0.8910000000000004
  0
ENDBLK
  8
0
  0
BLOCK
  8
1
  2
*X1
 70
1
 10
0
 20
0
 30
0
  0
LINE
  8
1
 62
2
 10
-205.2351488715481
 20
19.7140698475637
 30
0
 11
-205.2351488715481
 21
20.04886202587091
 31
0
  0
LINE
  8
1
 62
2
 10
-205.1351488715481
 20
19.39691036732736
 30
0
 11
-205.1351488715481
 21
20.06649472394175
 31
0
  0
LINE
  8
1
 62
2
 10
-205.0351488715481
 20
19.07975088709102
 30
0
 11
-205.0351488715481
 21
20.0841274220126
 31
0
  0
LINE
  8
1
 62
2
 10
-204.9351488715481
 20
18.76259140685468
 30
0
 11
-204.9351488715481
 21
20.10176012008344
 31
0
  0
LINE
  8
1
 62
2
 10
-204.8351488715481
 20
18.44543192661834
 30
0
 11
-204.8351488715481
 21
20.11939281815429
 31
0
  0
LINE
  8
1
 62
2
 10
-204.7351488715481
 20
18.12827244638201
 30
0
 11
-204.7351488715481
 21
20.13702551622513
 31
0
  0
LINE
  8
1
 62
2
 10
-204.6351488715481
 20
17.81111296614567
 30
0
 11
-204.6351488715481
 21
20.15465821429597
 31
0
  0
LINE
  8
1
 62
2
 10
-204.5351488715481
 20
17.49395348590933
 30
0
 11
-204.5351488715481
 21
20.17229091236682
 31
0
  0
LINE
  8
1
 62
2
 10
-204.4351488715481
 20
17.17679400567299
 30
0
 11
-204.4351488715481
 21
20.18992361043766
 31
0
  0
LINE
  8
1
 62
2
 10
-204.3351488715481
 20
16.85963452543665
 30
0
 11
-204.3351488715481
 21
18.07418955265251
 31
0
  0
ENDBLK
  8
0
  0
BLOCK
  8
1
  2
*X2
 70
1
 10
0
 20
0
 30
0
  0
LINE
  8
1
 62
2
 10
-176.6203824417803
 20
11.85922977552555
 30
0
 11
-176.6203824417802
 21
13.07378480270186
 31
0
  0
LINE
  8
1
 62
2
 10
-176.5203824417802
 20
9.743495717694225
 30
0
 11
-176.5203824417802
 21
12.75662532246553
 31
0
  0
LINE
  8
1
 62
2
 10
-176.4203824417803
 20
9.761128415765072
 30
0
 11
-176.4203824417803
 21
12.43946584222919
 31
0
  0
LINE
  8
1
 62
2
 10
-176.3203824417803
 20
9.778761113835918
 30
0
 11
-176.3203824417803
 21
12.12230636199285
 31
0
  0
LINE
  8
1
 62
2
 10
-176.2203824417803
 20
9.796393811906764
 30
0
 11
-176.2203824417803
 21
11.80514688175651
 31
0
  0
LINE
  8
1
 62
2
 10
-176.1203824417803
 20
9.814026509977611
 30
0
 11
-176.1203824417803
 21
11.48798740152017
 31
0
  0
LINE
  8
1
 62
2
 10
-176.0203824417803
 20
9.831659208048457
 30
0
 11
-176.0203824417803
 21
11.17082792128384
 31
0
  0
LINE
  8
1
 62
2
 10
-175.9203824417803
 20
9.849291906119303
 30
0
 11
-175.9203824417803
 21
10.8536684410475
 31
0
  0
LINE
  8
1
 62
2
 10
-175.8203824417803
 20
9.86692460419015
 30
0
 11
-175.8203824417803
 21
10.53650896081116
 31
0
  0
LINE
  8
1
 62
2
 10
-175.7203824417803
 20
9.884557302260996
 30
0
 11
-175.7203824417803
 21
10.21934948057482
 31
0
  0
ENDBLK
  8
0
  0
BLOCK
  8
1
  2
*X3
 70
1
 10
0
 20
0
 30
0
  0
LINE
  8
1
 62
2
 10
-208.0398138171111
 20
76.2690984793098
 30
0
 11
-208.0398138171113
 21
76.46675255314942
 31
0
  0
LINE
  8
1
 62
2
 10
-207.9398138171111
 20
76.21894328716988
 30
0
 11
-207.9398138171113
 21
76.61425143484905
 31
0
  0
LINE
  8
1
 62
2
 10
-207.8398138171112
 20
76.16878809502995
 30
0
 11
-207.8398138171113
 21
76.76175031654869
 31
0
  0
LINE
  8
1
 62
2
 10
-207.7398138171112
 20
76.11863290289003
 30
0
 11
-207.7398138171113
 21
76.90924919824832
 31
0
  0
LINE
  8
1
 62
2
 10
-207.6398138171112
 20
76.0684777107501
 30
0
 11
-207.6398138171113
 21
77.05674807994795
 31
0
  0
LINE
  8
1
 62
2
 10
-207.5398138171112
 20
76.01832251861018
 30
0
 11
-207.5398138171112
 21
77.00838806788154
 31
0
  0
LINE
  8
1
 62
2
 10
-207.4398138171112
 20
75.96816732647025
 30
0
 11
-207.4398138171112
 21
76.91949104749899
 31
0
  0
LINE
  8
1
 62
2
 10
-207.3398138171112
 20
75.91801213433033
 30
0
 11
-207.3398138171112
 21
76.83059402711645
 31
0
  0
LINE
  8
1
 62
2
 10
-207.2398138171112
 20
75.8678569421904
 30
0
 11
-207.2398138171112
 21
76.7416970067339
 31
0
  0
LINE
  8
1
 62
2
 10
-207.1398138171112
 20
75.81770175005048
 30
0
 11
-207.1398138171112
 21
76.65279998635135
 31
0
  0
LINE
  8
1
 62
2
 10
-207.0398138171112
 20
75.76754655791055
 30
0
 11
-207.0398138171112
 21
76.56390296596881
 31
0
  0
LINE
  8
1
 62
2
 10
-206.9398138171112
 20
75.71739136577062
 30
0
 11
-206.9398138171112
 21
76.47500594558626
 31
0
  0
LINE
  8
1
 62
2
 10
-206.8398138171112
 20
75.6672361736307
 30
0
 11
-206.8398138171112
 21
76.38610892520372
 31
0
  0
LINE
  8
1
 62
2
 10
-206.7398138171112
 20
75.61708098149077
 30
0
 11
-206.7398138171112
 21
76.29721190482117
 31
0
  0
LINE
  8
1
 62
2
 10
-206.6398138171112
 20
75.56692578935085
 30
0
 11
-206.6398138171112
 21
76.20831488443862
 31
0
  0
LINE
  8
1
 62
2
 10
-206.5398138171112
 20
75.51677059721092
 30
0
 11
-206.5398138171112
 21
76.11941786405608
 31
0
  0
LINE
  8
1
 62
2
 10
-206.4398138171112
 20
75.466615405071
 30
0
 11
-206.4398138171112
 21
76.03052084367353
 31
0
  0
LINE
  8
1
 62
2
 10
-206.3398138171112
 20
75.41646021293107
 30
0
 11
-206.3398138171112
 21
75.94162382329098
 31
0
  0
LINE
  8
1
 62
2
 10
-206.2398138171112
 20
75.36630502079115
 30
0
 11
-206.2398138171112
 21
75.85272680290844
 31
0
  0
LINE
  8
1
 62
2
 10
-206.1398138171113
 20
75.31614982865122
 30
0
 11
-206.1398138171113
 21
75.76382978252589
 31
0
  0
LINE
  8
1
 62
2
 10
-206.0398138171113
 20
75.26599463651129
 30
0
 11
-206.0398138171113
 21
75.67493276214334
 31
0
  0
LINE
  8
1
 62
2
 10
-205.9398138171113
 20
75.21583944437137
 30
0
 11
-205.9398138171113
 21
75.5860357417608
 31
0
  0
LINE
  8
1
 62
2
 10
-205.8398138171113
 20
75.16568425223144
 30
0
 11
-205.8398138171113
 21
75.49713872137825
 31
0
  0
LINE
  8
1
 62
2
 10
-205.7398138171113
 20
75.11552906009152
 30
0
 11
-205.7398138171113
 21
75.4082417009957
 31
0
  0
LINE
  8
1
 62
2
 10
-205.6398138171113
 20
75.06537386795159
 30
0
 11
-205.6398138171113
 21
75.31934468061316
 31
0
  0
LINE
  8
1
 62
2
 10
-205.5398138171113
 20
75.01521867581167
 30
0
 11
-205.5398138171113
 21
75.23044766023061
 31
0
  0
LINE
  8
1
 62
2
 10
-205.4398138171113
 20
74.96506348367174
 30
0
 11
-205.4398138171113
 21
75.14155063984806
 31
0
  0
LINE
  8
1
 62
2
 10
-205.3398138171113
 20
74.91490829153182
 30
0
 11
-205.3398138171113
 21
75.05265361946552
 31
0
  0
LINE
  8
1
 62
2
 10
-205.2398138171113
 20
74.86475309939189
 30
0
 11
-205.2398138171113
 21
74.96375659908297
 31
0
  0
LINE
  8
1
 62
2
 10
-205.1398138171113
 20
74.81459790725197
 30
0
 11
-205.1398138171113
 21
74.87485957870042
 31
0
  0
LINE
  8
1
 62
2
 10
-205.0398138171113
 20
74.76444271511204
 30
0
 11
-205.0398138171113
 21
74.78596255831788
 31
0
  0
ENDBLK
  8
0
  0
BLOCK
  8
1
  2
*D0
 70
1
 10
0
 20
0
 30
0
  0
LINE
  8
1
 62
2
 10
6.588785727887
 20
47.73658311426798
 30
0
 11
6.588785727887
 21
151.236583114268
 31
0
  0
LINE
  8
1
 62
2
 10
-33.31313724319598
 20
151.236583114268
 30
0
 11
8.088785727887
 21
151.236583114268
 31
0
  0
LINE
  8
1
 62
2
 10
-38.11313724319595
 20
47.73658311426798
 30
0
 11
8.088785727887
 21
47.73658311426798
 31
0
  0
SOLID
  8
1
 62
2
 10
6.588785727887
 20
47.73658311426798
 30
0
 11
6.172785727886999
 21
50.93658311426798
 31
0
 12
7.004785727886999
 22
50.93658311426798
 32
0
 13
7.004785727886999
 23
50.93658311426798
 33
0
  0
SOLID
  8
1
 62
2
 10
6.588785727887
 20
151.236583114268
 30
0
 11
7.004785727887
 21
148.036583114268
 31
0
 12
6.172785727887
 22
148.036583114268
 32
0
 13
6.172785727887
 23
148.036583114268
 33
0
  0
TEXT
  8
1
 62
2
 10
4.588785727887
 20
100.4461304375049
 30
0
 40
3.2
  1
103.5
 50
90
 41
0.9
  0
ENDBLK
  8
0
  0
BLOCK
  8
1
  2
*D1
 70
1
 10
0
 20
0
 30
0
  0
LINE
  8
1
 62
2
 10
-190.4842670239371
 20
35.1891266480435
 30
0
 11
-172.5842670239371
 21
35.1891266480435
 31
0
  0
LINE
  8
1
 62
2
 10
-172.5842670239371
 20
98.23658311426797
 30
0
 11
-172.5842670239371
 21
33.6891266480435
 31
0
  0
LINE
  8
1
 62
2
 10
-190.4842670239371
 20
44.83658311426791
 30
0
 11
-190.4842670239371
 21
33.6891266480435
 31
0
  0
SOLID
  8
1
 62
2
 10
-190.4842670239371
 20
35.1891266480435
 30
0
 11
-187.2842670239371
 21
35.6051266480435
 31
0
 12
-187.2842670239371
 22
34.7731266480435
 32
0
 13
-187.2842670239371
 23
34.7731266480435
 33
0
  0
SOLID
  8
1
 62
2
 10
-172.5842670239371
 20
35.1891266480435
 30
0
 11
-175.7842670239371
 21
34.7731266480435
 31
0
 12
-175.7842670239371
 22
35.6051266480435
 32
0
 13
-175.7842670239371
 23
35.6051266480435
 33
0
  0
TEXT
  8
1
 62
2
 10
-185.157430319236
 20
37.1891266480435
 30
0
 40
3.2
  1
17.9
 41
0.9
  0
ENDBLK
  8
0
  0
BLOCK
  8
1
  2
*D2
 70
1
 10
0
 20
0
 30
0
  0
LINE
  8
1
 62
2
 10
-49.11313724319597
 20
159.56701000393
 30
0
 11
-57.0827520986105
 21
159.56701000393
 31
0
  0
LINE
  8
1
 62
2
 10
-49.11313724319597
 20
159.56701000393
 30
0
 11
-44.11313724319595
 21
159.56701000393
 31
0
  0
LINE
  8
1
 62
2
 10
-37.71313724319595
 20
159.56701000393
 30
0
 11
-44.11313724319595
 21
159.56701000393
 31
0
  0
LINE
  8
1
 62
2
 10
-44.11313724319595
 20
99.13658311426795
 30
0
 11
-44.11313724319595
 21
161.06701000393
 31
0
  0
LINE
  8
1
 62
2
 10
-49.11313724319597
 20
155.941318278939
 30
0
 11
-49.11313724319597
 21
161.06701000393
 31
0
  0
SOLID
  8
1
 62
2
 10
-49.11313724319597
 20
159.56701000393
 30
0
 11
-52.31313724319598
 21
159.15101000393
 31
0
 12
-52.31313724319598
 22
159.98301000393
 32
0
 13
-52.31313724319598
 23
159.98301000393
 33
0
  0
SOLID
  8
1
 62
2
 10
-44.11313724319595
 20
159.56701000393
 30
0
 11
-40.91313724319595
 21
159.98301000393
 31
0
 12
-40.91313724319595
 22
159.15101000393
 32
0
 13
-40.91313724319595
 23
159.15101000393
 33
0
  0
TEXT
  8
1
 62
2
 10
-57.0827520986105
 20
161.56701000393
 30
0
 40
3.2
  1
5
 41
0.9
  0
ENDBLK
  8
0
  0
BLOCK
  8
1
  2
*D3
 70
1
 10
0
 20
0
 30
0
  0
LINE
  8
1
 62
2
 10
-42.71313724319586
 20
28.3365831142679
 30
0
 11
-8.149137243195955
 21
28.3365831142679
 31
0
  0
LINE
  8
1
 62
2
 10
-51.91313724319582
 20
28.3365831142679
 30
0
 11
-45.51313724319582
 21
28.3365831142679
 31
0
  0
LINE
  8
1
 62
2
 10
-45.51313724319582
 20
28.3365831142679
 30
0
 11
-42.71313724319586
 21
28.3365831142679
 31
0
  0
LINE
  8
1
 62
2
 10
-51.91313724319582
 20
28.3365831142679
 30
0
 11
-45.51313724319582
 21
28.3365831142679
 31
0
  0
LINE
  8
1
 62
2
 10
-45.51313724319582
 20
43.4365831142679
 30
0
 11
-45.51313724319582
 21
27.3365831142679
 31
0
  0
LINE
  8
1
 62
2
 10
-42.71313724319586
 20
43.4365831142679
 30
0
 11
-42.71313724319586
 21
27.3365831142679
 31
0
  0
SOLID
  8
1
 62
2
 10
-42.71313724319586
 20
28.3365831142679
 30
0
 11
-45.91313724319586
 21
27.9205831142679
 31
0
 12
-45.91313724319586
 22
28.7525831142679
 32
0
 13
-45.91313724319586
 23
28.7525831142679
 33
0
  0
SOLID
  8
1
 62
2
 10
-45.51313724319582
 20
28.3365831142679
 30
0
 11
-42.31313724319582
 21
28.7525831142679
 31
0
 12
-42.31313724319582
 22
27.9205831142679
 32
0
 13
-42.31313724319582
 23
27.9205831142679
 33
0
  0
TEXT
  8
1
 62
2
 10
-25.87713724319596
 20
29.3365831142679
 30
0
 40
3.2
  1
2-2.8
 41
0.8910000000000001
  0
TEXT
  8
1
 62
2
 10
-12.99713724319596
 20
29.9765831142679
 30
0
 40
1.92
  1
%%p0.5
 41
0.8910000000000001
  0
ENDBLK
  8
0
  0
BLOCK
  8
1
  2
*D4
 70
1
 10
0
 20
0
 30
0
  0
LINE
  8
1
 62
2
 10
-7.013137243195956
 20
50.9365831142679
 30
0
 11
-7.013137243195956
 21
60.89771314715588
 31
0
  0
LINE
  8
1
 62
2
 10
-7.013137243195956
 20
47.73658311426797
 30
0
 11
-7.013137243195956
 21
50.9365831142679
 31
0
  0
LINE
  8
1
 62
2
 10
-7.013137243195956
 20
41.33658311426797
 30
0
 11
-7.013137243195956
 21
47.73658311426797
 31
0
  0
LINE
  8
1
 62
2
 10
-38.11313724319595
 20
47.73658311426797
 30
0
 11
-6.013137243195956
 21
47.73658311426797
 31
0
  0
LINE
  8
1
 62
2
 10
-29.21313724319597
 20
50.9365831142679
 30
0
 11
-6.013137243195956
 21
50.9365831142679
 31
0
  0
SOLID
  8
1
 62
2
 10
-7.013137243195956
 20
47.73658311426797
 30
0
 11
-7.429137243195958
 21
50.93658311426798
 31
0
 12
-6.597137243195958
 22
50.93658311426798
 32
0
 13
-6.597137243195958
 23
50.93658311426798
 33
0
  0
SOLID
  8
1
 62
2
 10
-7.013137243195956
 20
50.9365831142679
 30
0
 11
-6.597137243195957
 21
47.73658311426789
 31
0
 12
-7.429137243195957
 22
47.73658311426789
 32
0
 13
-7.429137243195957
 23
47.73658311426789
 33
0
  0
TEXT
  8
1
 62
2
 10
-8.013137243195951
 20
55.05771314715588
 30
0
 40
3.2
  1
3.2
 50
90
 41
0.8910000000000001
  0
ENDBLK
  8
0
  0
BLOCK
  8
1
  2
*D5
 70
1
 10
0
 20
0
 30
0
  0
LINE
  8
1
 62
2
 10
-58.61313724319595
 20
8.336583114267901
 30
0
 11
-29.61313724319595
 21
8.336583114267901
 31
0
  0
LINE
  8
1
 62
2
 10
-58.61313724319595
 20
8.336583114267901
 30
0
 11
-29.61313724319595
 21
8.336583114267901
 31
0
  0
LINE
  8
1
 62
2
 10
-29.61313724319595
 20
61.73658311426797
 30
0
 11
-29.61313724319595
 21
7.336583114267901
 31
0
  0
LINE
  8
1
 62
2
 10
-58.61313724319595
 20
61.73658311426797
 30
0
 11
-58.61313724319595
 21
7.336583114267901
 31
0
  0
SOLID
  8
1
 62
2
 10
-29.61313724319595
 20
8.336583114267903
 30
0
 11
-32.81313724319595
 21
7.920583114267903
 31
0
 12
-32.81313724319595
 22
8.752583114267903
 32
0
 13
-32.81313724319595
 23
8.752583114267903
 33
0
  0
SOLID
  8
1
 62
2
 10
-58.61313724319595
 20
8.336583114267901
 30
0
 11
-55.41313724319595
 21
8.752583114267901
 31
0
 12
-55.41313724319595
 22
7.920583114267901
 32
0
 13
-55.41313724319595
 23
7.920583114267901
 33
0
  0
TEXT
  8
1
 62
2
 10
-44.59313724319596
 20
9.336583114267901
 30
0
 40
3.2
  1
29
 41
0.8910000000000001
  0
TEXT
  8
1
 62
2
 10
-48.43313724319595
 20
9.336583114267901
 30
0
 40
3.2
  1
%%c
 41
0.8910000000000001
  0
ENDBLK
  8
0
  0
BLOCK
  8
1
  2
*D6
 70
1
 10
0
 20
0
 30
0
  0
LINE
  8
1
 62
2
 10
-49.11313724319595
 20
18.3365831142679
 30
0
 11
-39.11313724319595
 21
18.3365831142679
 31
0
  0
LINE
  8
1
 62
2
 10
-49.11313724319595
 20
18.3365831142679
 30
0
 11
-39.11313724319595
 21
18.3365831142679
 31
0
  0
LINE
  8
1
 62
2
 10
-39.11313724319595
 20
46.73658311426797
 30
0
 11
-39.11313724319595
 21
17.3365831142679
 31
0
  0
LINE
  8
1
 62
2
 10
-49.11313724319595
 20
46.73658311426797
 30
0
 11
-49.11313724319595
 21
17.3365831142679
 31
0
  0
SOLID
  8
1
 62
2
 10
-39.11313724319595
 20
18.3365831142679
 30
0
 11
-42.31313724319595
 21
17.9205831142679
 31
0
 12
-42.31313724319595
 22
18.7525831142679
 32
0
 13
-42.31313724319595
 23
18.7525831142679
 33
0
  0
SOLID
  8
1
 62
2
 10
-49.11313724319595
 20
18.3365831142679
 30
0
 11
-45.91313724319595
 21
18.7525831142679
 31
0
 12
-45.91313724319595
 22
17.9205831142679
 32
0
 13
-45.91313724319595
 23
17.9205831142679
 33
0
  0
TEXT
  8
1
 62
2
 10
-44.11313724319595
 20
19.3365831142679
 30
0
 40
3.2
  1
10
 41
0.8910000000000001
  0
TEXT
  8
1
 62
2
 10
-47.95313724319595
 20
19.3365831142679
 30
0
 40
3.2
  1
%%c
 41
0.8910000000000001
  0
ENDBLK
  8
0
  0
BLOCK
  8
1
  2
*D7
 70
1
 10
0
 20
0
 30
0
  0
LINE
  8
1
 62
2
 10
-67.11313724319598
 20
181.236583114268
 30
0
 11
-31.11313724319596
 21
181.236583114268
 31
0
  0
LINE
  8
1
 62
2
 10
-67.11313724319598
 20
181.236583114268
 30
0
 11
-31.11313724319596
 21
181.236583114268
 31
0
  0
LINE
  8
1
 62
2
 10
-67.11313724319598
 20
149.036583114268
 30
0
 11
-67.11313724319598
 21
183.236583114268
 31
0
  0
LINE
  8
1
 62
2
 10
-31.11313724319596
 20
149.036583114268
 30
0
 11
-31.11313724319596
 21
183.236583114268
 31
0
  0
SOLID
  8
1
 62
2
 10
-31.11313724319596
 20
181.236583114268
 30
0
 11
-34.61313724319597
 21
180.781583114268
 31
0
 12
-34.61313724319597
 22
181.691583114268
 32
0
 13
-34.61313724319597
 23
181.691583114268
 33
0
  0
SOLID
  8
1
 62
2
 10
-67.11313724319598
 20
181.236583114268
 30
0
 11
-63.61313724319598
 21
181.691583114268
 31
0
 12
-63.61313724319598
 22
180.781583114268
 32
0
 13
-63.61313724319598
 23
180.781583114268
 33
0
  0
TEXT
  8
1
 62
2
 10
-51.71188724319597
 20
183.236583114268
 30
0
 40
3.5
  1
36
 41
0.8910000000000002
  0
ENDBLK
  8
0
  0
BLOCK
  8
1
  2
*D8
 70
1
 10
0
 20
0
 30
0
  0
LINE
  8
1
 62
2
 10
-5.863137243195951
 20
133.236583114268
 30
0
 11
-5.863137243195951
 21
151.236583114268
 31
0
  0
LINE
  8
1
 62
2
 10
-33.31313724319597
 20
151.236583114268
 30
0
 11
-3.863137243195951
 21
151.236583114268
 31
0
  0
LINE
  8
1
 62
2
 10
-35.43813724319597
 20
133.236583114268
 30
0
 11
-3.863137243195951
 21
133.236583114268
 31
0
  0
SOLID
  8
1
 62
2
 10
-5.863137243195951
 20
133.236583114268
 30
0
 11
-6.318137243195952
 21
136.736583114268
 31
0
 12
-5.408137243195953
 22
136.736583114268
 32
0
 13
-5.408137243195953
 23
136.736583114268
 33
0
  0
SOLID
  8
1
 62
2
 10
-5.863137243195954
 20
151.236583114268
 30
0
 11
-5.408137243195955
 21
147.736583114268
 31
0
 12
-6.318137243195954
 22
147.736583114268
 32
0
 13
-6.318137243195954
 23
147.736583114268
 33
0
  0
TEXT
  8
1
 62
2
 10
-7.863137243195951
 20
140.157583114268
 30
0
 40
3.5
  1
18
 50
90
 41
0.8910000000000002
  0
ENDBLK
  8
0
  0
BLOCK
  8
1
  2
*D9
 70
1
 10
0
 20
0
 30
0
  0
LINE
  8
1
 62
2
 10
-5.863137243195951
 20
90.236583114268
 30
0
 11
-5.863137243195951
 21
133.236583114268
 31
0
  0
LINE
  8
1
 62
2
 10
-30.91313724319596
 20
90.236583114268
 30
0
 11
-3.863137243195951
 21
90.236583114268
 31
0
  0
LINE
  8
1
 62
2
 10
-35.43813724319597
 20
133.236583114268
 30
0
 11
-3.863137243195951
 21
133.236583114268
 31
0
  0
SOLID
  8
1
 62
2
 10
-5.863137243195951
 20
90.236583114268
 30
0
 11
-6.318137243195952
 21
93.736583114268
 31
0
 12
-5.408137243195952
 22
93.736583114268
 32
0
 13
-5.408137243195952
 23
93.736583114268
 33
0
  0
SOLID
  8
1
 62
2
 10
-5.863137243195951
 20
133.236583114268
 30
0
 11
-5.408137243195952
 21
129.736583114268
 31
0
 12
-6.318137243195952
 22
129.736583114268
 32
0
 13
-6.318137243195952
 23
129.736583114268
 33
0
  0
TEXT
  8
1
 62
2
 10
-7.863137243195951
 20
112.3598865196327
 30
0
 40
3.5
  1
43
 50
90
 41
0.8910000000000002
  0
ENDBLK
  8
0
  0
BLOCK
  8
1
  2
*D10
 70
1
 10
0
 20
0
 30
0
  0
LINE
  8
1
 62
2
 10
-194.084267023937
 20
181.236583114268
 30
0
 11
-172.584267023937
 21
181.236583114268
 31
0
  0
LINE
  8
1
 62
2
 10
-194.084267023937
 20
181.236583114268
 30
0
 11
-172.584267023937
 21
181.236583114268
 31
0
  0
LINE
  8
1
 62
2
 10
-172.584267023937
 20
151.236583114268
 30
0
 11
-172.584267023937
 21
182.236583114268
 31
0
  0
LINE
  8
1
 62
2
 10
-194.084267023937
 20
152.236583114268
 30
0
 11
-194.084267023937
 21
182.236583114268
 31
0
  0
SOLID
  8
1
 62
2
 10
-172.584267023937
 20
181.236583114268
 30
0
 11
-175.784267023937
 21
180.820583114268
 31
0
 12
-175.784267023937
 22
181.652583114268
 32
0
 13
-175.784267023937
 23
181.652583114268
 33
0
  0
SOLID
  8
1
 62
2
 10
-194.084267023937
 20
181.236583114268
 30
0
 11
-190.884267023937
 21
181.652583114268
 31
0
 12
-190.884267023937
 22
180.820583114268
 32
0
 13
-190.884267023937
 23
180.820583114268
 33
0
  0
TEXT
  8
1
 62
2
 10
-187.254667023937
 20
183.236583114268
 30
0
 40
3.2
  1
21.5
 41
0.8910000000000001
  0
ENDBLK
  8
0
  0
BLOCK
  8
1
  2
*D11
 70
1
 10
0
 20
0
 30
0
  0
LINE
  8
1
 62
2
 10
-172.584267023937
 20
181.236583114268
 30
0
 11
-157.084267023937
 21
181.236583114268
 31
0
  0
LINE
  8
1
 62
2
 10
-172.584267023937
 20
181.236583114268
 30
0
 11
-157.084267023937
 21
181.236583114268
 31
0
  0
LINE
  8
1
 62
2
 10
-157.084267023937
 20
136.236583114268
 30
0
 11
-157.084267023937
 21
182.236583114268
 31
0
  0
LINE
  8
1
 62
2
 10
-172.584267023937
 20
151.236583114268
 30
0
 11
-172.584267023937
 21
182.236583114268
 31
0
  0
SOLID
  8
1
 62
2
 10
-157.084267023937
 20
181.236583114268
 30
0
 11
-160.284267023937
 21
180.820583114268
 31
0
 12
-160.284267023937
 22
181.652583114268
 32
0
 13
-160.284267023937
 23
181.652583114268
 33
0
  0
SOLID
  8
1
 62
2
 10
-172.584267023937
 20
181.236583114268
 30
0
 11
-169.384267023937
 21
181.652583114268
 31
0
 12
-169.384267023937
 22
180.820583114268
 32
0
 13
-169.384267023937
 23
180.820583114268
 33
0
  0
TEXT
  8
1
 62
2
 10
-168.754667023937
 20
183.236583114268
 30
0
 40
3.2
  1
15.5
 41
0.8910000000000001
  0
ENDBLK
  8
0
  0
BLOCK
  8
1
  2
*D12
 70
1
 10
0
 20
0
 30
0
  0
LINE
  8
1
 62
2
 10
-167.584267023937
 20
161.236583114268
 30
0
 11
-157.084267023937
 21
161.236583114268
 31
0
  0
LINE
  8
1
 62
2
 10
-167.584267023937
 20
161.236583114268
 30
0
 11
-157.084267023937
 21
161.236583114268
 31
0
  0
LINE
  8
1
 62
2
 10
-157.084267023937
 20
136.236583114268
 30
0
 11
-157.084267023937
 21
162.236583114268
 31
0
  0
LINE
  8
1
 62
2
 10
-167.584267023937
 20
137.236583114268
 30
0
 11
-167.584267023937
 21
162.236583114268
 31
0
  0
SOLID
  8
1
 62
2
 10
-157.084267023937
 20
161.236583114268
 30
0
 11
-160.284267023937
 21
160.820583114268
 31
0
 12
-160.284267023937
 22
161.652583114268
 32
0
 13
-160.284267023937
 23
161.652583114268
 33
0
  0
SOLID
  8
1
 62
2
 10
-167.584267023937
 20
161.236583114268
 30
0
 11
-164.384267023937
 21
161.652583114268
 31
0
 12
-164.384267023937
 22
160.820583114268
 32
0
 13
-164.384267023937
 23
160.820583114268
 33
0
  0
TEXT
  8
1
 62
2
 10
-166.254667023937
 20
163.236583114268
 30
0
 40
3.2
  1
10.5
 41
0.8910000000000001
  0
ENDBLK
  8
0
  0
BLOCK
  8
1
  2
*D13
 70
1
 10
0
 20
0
 30
0
  0
LINE
  8
1
 62
2
 10
-147.00474411234
 20
130.236583114268
 30
0
 11
-147.00474411234
 21
116.5008588239535
 31
0
  0
LINE
  8
1
 62
2
 10
-147.00474411234
 20
130.236583114268
 30
0
 11
-147.00474411234
 21
135.236583114268
 31
0
  0
LINE
  8
1
 62
2
 10
-147.00474411234
 20
141.636583114268
 30
0
 11
-147.00474411234
 21
135.236583114268
 31
0
  0
LINE
  8
1
 62
2
 10
-156.084267023937
 20
135.236583114268
 30
0
 11
-146.00474411234
 21
135.236583114268
 31
0
  0
LINE
  8
1
 62
2
 10
-156.584267023937
 20
130.236583114268
 30
0
 11
-146.00474411234
 21
130.236583114268
 31
0
  0
SOLID
  8
1
 62
2
 10
-147.00474411234
 20
130.236583114268
 30
0
 11
-147.42074411234
 21
133.436583114268
 31
0
 12
-146.58874411234
 22
133.436583114268
 32
0
 13
-146.58874411234
 23
133.436583114268
 33
0
  0
SOLID
  8
1
 62
2
 10
-147.00474411234
 20
135.236583114268
 30
0
 11
-146.58874411234
 21
132.036583114268
 31
0
 12
-147.42074411234
 22
132.036583114268
 32
0
 13
-147.42074411234
 23
132.036583114268
 33
0
  0
TEXT
  8
1
 62
2
 10
-149.00474411234
 20
117.0545388239535
 30
0
 40
3.2
  1
5
 50
90
 41
0.8910000000000001
  0
TEXT
  8
1
 62
2
 10
-149.64474411234
 20
120.5553388239535
 30
0
 40
1.92
  1
%%p0.1
 50
90
 41
0.8910000000000001
  0
ENDBLK
  8
0
  0
BLOCK
  8
1
  2
*D14
 70
1
 10
0
 20
0
 30
0
  0
LINE
  8
1
 62
2
 10
-137.00474411234
 20
130.236583114268
 30
0
 11
-137.00474411234
 21
112.2755125665802
 31
0
  0
LINE
  8
1
 62
2
 10
-137.00474411234
 20
130.236583114268
 30
0
 11
-137.00474411234
 21
136.236583114268
 31
0
  0
LINE
  8
1
 62
2
 10
-137.00474411234
 20
142.636583114268
 30
0
 11
-137.00474411234
 21
136.236583114268
 31
0
  0
LINE
  8
1
 62
2
 10
-166.584267023937
 20
136.236583114268
 30
0
 11
-136.00474411234
 21
136.236583114268
 31
0
  0
LINE
  8
1
 62
2
 10
-156.584267023937
 20
130.236583114268
 30
0
 11
-136.00474411234
 21
130.236583114268
 31
0
  0
SOLID
  8
1
 62
2
 10
-137.00474411234
 20
130.236583114268
 30
0
 11
-137.42074411234
 21
133.436583114268
 31
0
 12
-136.58874411234
 22
133.436583114268
 32
0
 13
-136.58874411234
 23
133.436583114268
 33
0
  0
SOLID
  8
1
 62
2
 10
-137.00474411234
 20
136.236583114268
 30
0
 11
-136.58874411234
 21
133.036583114268
 31
0
 12
-137.42074411234
 22
133.036583114268
 32
0
 13
-137.42074411234
 23
133.036583114268
 33
0
  0
TEXT
  8
1
 62
2
 10
-139.80474411234
 20
116.1002325665802
 30
0
 40
3.2
  1
6
 50
90
 41
0.8910000000000001
  0
TEXT
  8
1
 62
2
 10
-141.88474411234
 20
119.6010325665802
 30
0
 40
1.92
  1
 0
 50
90
 41
0.8910000000000001
  0
TEXT
  8
1
 62
2
 10
-139.00474411234
 20
119.6010325665802
 30
0
 40
1.92
  1
-0.02
 50
90
 41
0.8910000000000001
  0
TEXT
  8
1
 62
2
 10
-139.80474411234
 20
112.2826325665802
 30
0
 40
3.2
  1
%%c
 50
90
 41
0.8910000000000001
  0
ENDBLK
  8
0
  0
BLOCK
  8
1
  2
*D15
 70
1
 10
0
 20
0
 30
0
  0
LINE
  8
1
 62
2
 10
-127.00474411234
 20
128.236583114268
 30
0
 11
-127.00474411234
 21
138.236583114268
 31
0
  0
LINE
  8
1
 62
2
 10
-168.584267023937
 20
138.236583114268
 30
0
 11
-126.00474411234
 21
138.236583114268
 31
0
  0
LINE
  8
1
 62
2
 10
-168.584267023937
 20
128.236583114268
 30
0
 11
-126.00474411234
 21
128.236583114268
 31
0
  0
SOLID
  8
1
 62
2
 10
-127.00474411234
 20
128.236583114268
 30
0
 11
-127.42074411234
 21
131.436583114268
 31
0
 12
-126.58874411234
 22
131.436583114268
 32
0
 13
-126.58874411234
 23
131.436583114268
 33
0
  0
SOLID
  8
1
 62
2
 10
-127.00474411234
 20
138.236583114268
 30
0
 11
-126.58874411234
 21
135.036583114268
 31
0
 12
-127.42074411234
 22
135.036583114268
 32
0
 13
-127.42074411234
 23
135.036583114268
 33
0
  0
TEXT
  8
1
 62
2
 10
-129.00474411234
 20
133.244583114268
 30
0
 40
3.2
  1
10
 50
90
 41
0.8910000000000001
  0
TEXT
  8
1
 62
2
 10
-129.00474411234
 20
129.426983114268
 30
0
 40
3.2
  1
%%c
 50
90
 41
0.8910000000000001
  0
ENDBLK
  8
0
  0
BLOCK
  8
1
  2
*D16
 70
1
 10
0
 20
0
 30
0
  0
LINE
  8
1
 62
2
 10
-166.184267023937
 20
171.236583114268
 30
0
 11
-172.584267023937
 21
171.236583114268
 31
0
  0
LINE
  8
1
 62
2
 10
-173.084267023937
 20
171.236583114268
 30
0
 11
-189.249802787562
 21
171.236583114268
 31
0
  0
LINE
  8
1
 62
2
 10
-173.084267023937
 20
171.236583114268
 30
0
 11
-172.584267023937
 21
171.236583114268
 31
0
  0
LINE
  8
1
 62
2
 10
-173.084267023937
 20
171.236583114268
 30
0
 11
-189.249802787562
 21
171.236583114268
 31
0
  0
LINE
  8
1
 62
2
 10
-172.584267023937
 20
151.236583114268
 30
0
 11
-172.584267023937
 21
172.236583114268
 31
0
  0
LINE
  8
1
 62
2
 10
-173.084267023937
 20
152.236583114268
 30
0
 11
-173.084267023937
 21
172.236583114268
 31
0
  0
SOLID
  8
1
 62
2
 10
-172.584267023937
 20
171.236583114268
 30
0
 11
-175.784267023937
 21
170.820583114268
 31
0
 12
-175.784267023937
 22
171.652583114268
 32
0
 13
-175.784267023937
 23
171.652583114268
 33
0
  0
SOLID
  8
1
 62
2
 10
-173.084267023937
 20
171.236583114268
 30
0
 11
-169.884267023937
 21
171.652583114268
 31
0
 12
-169.884267023937
 22
170.820583114268
 32
0
 13
-169.884267023937
 23
170.820583114268
 33
0
  0
TEXT
  8
1
 62
2
 10
-183.242202787562
 20
172.236583114268
 30
0
 40
3.2
  1
0.5
 41
0.8910000000000001
  0
TEXT
  8
1
 62
2
 10
-189.277402787562
 20
172.236583114268
 30
0
 40
3.2
  1
4-
 41
0.8910000000000001
  0
ENDBLK
  8
0
  0
BLOCK
  8
1
  2
*D17
 70
1
 10
0
 20
0
 30
0
  0
LINE
  8
1
 62
2
 10
-63.91313724319598
 20
171.236583114268
 30
0
 11
-34.31313724319598
 21
171.236583114268
 31
0
  0
LINE
  8
1
 62
2
 10
-63.91313724319598
 20
171.236583114268
 30
0
 11
-34.31313724319598
 21
171.236583114268
 31
0
  0
LINE
  8
1
 62
2
 10
-63.91313724319598
 20
152.736583114268
 30
0
 11
-63.91313724319598
 21
172.236583114268
 31
0
  0
LINE
  8
1
 62
2
 10
-34.31313724319598
 20
152.736583114268
 30
0
 11
-34.31313724319598
 21
172.236583114268
 31
0
  0
SOLID
  8
1
 62
2
 10
-34.31313724319598
 20
171.236583114268
 30
0
 11
-37.51313724319599
 21
170.820583114268
 31
0
 12
-37.51313724319599
 22
171.652583114268
 32
0
 13
-37.51313724319599
 23
171.652583114268
 33
0
  0
SOLID
  8
1
 62
2
 10
-63.91313724319598
 20
171.236583114268
 30
0
 11
-60.71313724319598
 21
171.652583114268
 31
0
 12
-60.71313724319598
 22
170.820583114268
 32
0
 13
-60.71313724319598
 23
170.820583114268
 33
0
  0
TEXT
  8
1
 62
2
 10
-53.50873724319597
 20
172.236583114268
 30
0
 40
3.2
  1
29.6
 41
0.8910000000000001
  0
ENDBLK
  8
0
  0
BLOCK
  8
1
  2
*D18
 70
1
 10
0
 20
0
 30
0
  0
LINE
  8
1
 62
2
 10
-17.01313724319596
 20
133.236583114268
 30
0
 11
-17.01313724319596
 21
147.236583114268
 31
0
  0
LINE
  8
1
 62
2
 10
-28.81313724319597
 20
147.236583114268
 30
0
 11
-16.01313724319596
 21
147.236583114268
 31
0
  0
LINE
  8
1
 62
2
 10
-35.43813724319597
 20
133.236583114268
 30
0
 11
-16.01313724319596
 21
133.236583114268
 31
0
  0
SOLID
  8
1
 62
2
 10
-17.01313724319596
 20
133.236583114268
 30
0
 11
-17.42913724319596
 21
136.436583114268
 31
0
 12
-16.59713724319596
 22
136.436583114268
 32
0
 13
-16.59713724319596
 23
136.436583114268
 33
0
  0
SOLID
  8
1
 62
2
 10
-17.01313724319596
 20
147.236583114268
 30
0
 11
-16.59713724319596
 21
144.036583114268
 31
0
 12
-17.42913724319596
 22
144.036583114268
 32
0
 13
-17.42913724319596
 23
144.036583114268
 33
0
  0
TEXT
  8
1
 62
2
 10
-18.01313724319595
 20
138.335783114268
 30
0
 40
3.2
  1
14
 50
90
 41
0.8910000000000001
  0
ENDBLK
  8
0
  0
BLOCK
  8
1
  2
*D19
 70
1
 10
0
 20
0
 30
0
  0
LINE
  8
1
 62
2
 10
-17.01313724319596
 20
102.236583114268
 30
0
 11
-17.01313724319596
 21
133.236583114268
 31
0
  0
LINE
  8
1
 62
2
 10
-35.43813724319597
 20
133.236583114268
 30
0
 11
-16.01313724319596
 21
133.236583114268
 31
0
  0
LINE
  8
1
 62
2
 10
-28.81313724319597
 20
102.236583114268
 30
0
 11
-16.01313724319596
 21
102.236583114268
 31
0
  0
SOLID
  8
1
 62
2
 10
-17.01313724319596
 20
102.236583114268
 30
0
 11
-17.42913724319596
 21
105.436583114268
 31
0
 12
-16.59713724319596
 22
105.436583114268
 32
0
 13
-16.59713724319596
 23
105.436583114268
 33
0
  0
SOLID
  8
1
 62
2
 10
-17.01313724319596
 20
133.236583114268
 30
0
 11
-16.59713724319596
 21
130.036583114268
 31
0
 12
-17.42913724319596
 22
130.036583114268
 32
0
 13
-17.42913724319596
 23
130.036583114268
 33
0
  0
TEXT
  8
1
 62
2
 10
-18.01313724319595
 20
115.835783114268
 30
0
 40
3.2
  1
31
 50
90
 41
0.8910000000000001
  0
ENDBLK
  8
0
  0
BLOCK
  8
1
  2
*D20
 70
1
 10
0
 20
0
 30
0
  0
LINE
  8
1
 62
2
 10
-24.2966706836801
 20
35.7592315373753
 30
0
 11
-10.2166706836801
 21
35.7592315373753
 31
0
  0
LINE
  8
1
 62
2
 10
-43.57399182363148
 20
45.17329198915603
 30
0
 11
-24.2966706836801
 21
35.7592315373753
 31
0
  0
SOLID
  8
1
 62
2
 10
-43.57399182363148
 20
45.17329198915603
 30
0
 11
-40.5160010725435
 21
44.14288014612415
 31
0
 12
-40.88109809936527
 22
43.39526516432811
 32
0
 13
-40.88109809936527
 23
43.39526516432811
 33
0
  0
TEXT
  8
1
 62
2
 10
-15.2566706836801
 20
37.7592315373753
 30
0
 40
3.2
  1
1.2
 41
0.8910000000000001
  0
TEXT
  8
1
 62
2
 10
-19.0966706836801
 20
37.7592315373753
 30
0
 40
3.2
  1
%%c
 41
0.8910000000000001
  0
ENDBLK
  8
0
  0
ENDSEC
  0
SECTION
  2
ENTITIES
  0
INSERT
  8
1
  2
*X1
 10
0
 20
0
 30
0
  0
INSERT
  8
1
  2
*X2
 10
0
 20
0
 30
0
  0
INSERT
  8
1
  2
*X3
 10
0
 20
0
 30
0
  0
LINE
  8
1
 62
3
 10
-57.01313724319593
 20
89.73658311426797
 30
0
 11
-31.21313724319597
 21
89.73658311426797
 31
0
  0
LINE
  8
1
 62
2
 10
-206.6046902418799
 20
29.88470403060006
 30
0
 11
-204.2735968485677
 21
16.66441644927704
 31
0
  0
LINE
  8
1
 62
2
 10
-239.3617631197401
 20
29.88470403060006
 30
0
 11
-206.6046902418799
 21
29.88470403060006
 31
0
  0
LINE
  8
1
 62
2
 10
-174.3508410714464
 20
0.04871529753228288
 30
0
 11
-176.6819344647587
 21
13.26900287885519
 31
0
  0
LINE
  8
1
 62
2
 10
-141.5937681935862
 20
0.04871529753228288
 30
0
 11
-174.3508410714464
 21
0.04871529753228288
 31
0
  0
LINE
  8
1
 62
2
 10
-214.9842670239371
 20
81.51629553294504
 30
0
 11
-204.9842670239371
 21
74.73658311426794
 31
0
  0
LINE
  8
1
 62
2
 10
-247.7413399017973
 20
81.51629553294504
 30
0
 11
-214.9842670239371
 21
81.51629553294504
 31
0
  0
LINE
  8
1
 62
1
 10
-190.4842670239371
 20
32.9838785355054
 30
0
 11
-190.4842670239371
 21
-3.156121464494476
 31
0
  0
LINE
  8
1
 62
1
 10
-172.4142670239372
 20
14.91387853550545
 30
0
 11
-208.5542670239371
 21
14.91387853550545
 31
0
  0
LINE
  8
1
 62
1
 10
-202.7840747915832
 20
17.61387853550539
 30
0
 11
-202.7840747915832
 21
12.21387853550553
 31
0
  0
LINE
  8
1
 62
1
 10
-178.184459256291
 20
17.61387853550539
 30
0
 11
-178.184459256291
 21
12.21387853550553
 31
0
  0
LINE
  8
1
 62
3
 10
-204.8947188926159
 20
13.30487979700675
 30
0
 11
-204.3074503808184
 21
13.4545629829129
 31
0
  0
LINE
  8
1
 62
3
 10
-203.9067828380881
 20
9.428801578992676
 30
0
 11
-203.3195143262904
 21
9.578484764898832
 31
0
  0
LINE
  8
1
 62
3
 10
-177.0996676649724
 20
11.16387853550546
 30
0
 11
-183.4842670239372
 21
11.16387853550546
 31
0
  0
LINE
  8
1
 62
3
 10
-177.0996676649724
 20
18.66387853550546
 30
0
 11
-183.4842670239372
 21
18.66387853550546
 31
0
  0
LINE
  8
1
 62
3
 10
-176.5932627405888
 20
15.41387853550307
 30
0
 11
-177.934459256291
 21
15.41387853550546
 31
0
  0
LINE
  8
1
 62
3
 10
-176.5932627405888
 20
14.41387853550785
 30
0
 11
-177.934459256291
 21
14.41387853550546
 31
0
  0
LINE
  8
1
 62
3
 10
-203.0340747915832
 20
15.41387853550546
 30
0
 11
-203.0340747915832
 21
14.41387853550546
 31
0
  0
LINE
  8
1
 62
3
 10
-203.0340747915832
 20
15.41387853550546
 30
0
 11
-204.3752713072853
 21
15.41387853550546
 31
0
  0
LINE
  8
1
 62
3
 10
-202.5340747915832
 20
15.41387853550546
 30
0
 11
-202.5340747915832
 21
14.41387853550546
 31
0
  0
LINE
  8
1
 62
3
 10
-197.484267023937
 20
15.41387853550546
 30
0
 11
-197.484267023937
 21
14.41387853550546
 31
0
  0
LINE
  8
1
 62
3
 10
-197.484267023937
 20
15.41387853550546
 30
0
 11
-202.5340747915832
 21
15.41387853550546
 31
0
  0
LINE
  8
1
 62
3
 10
-203.0340747915832
 20
14.41387853550546
 30
0
 11
-203.0340747915832
 21
14.01387853550548
 31
0
  0
LINE
  8
1
 62
3
 10
-203.0340747915832
 20
14.41387853550546
 30
0
 11
-204.384267023937
 21
14.41387853550546
 31
0
  0
LINE
  8
1
 62
3
 10
-202.5340747915832
 20
14.41387853550546
 30
0
 11
-202.5340747915832
 21
14.01387853550548
 31
0
  0
LINE
  8
1
 62
3
 10
-197.484267023937
 20
14.41387853550546
 30
0
 11
-197.484267023937
 21
11.16387853550546
 31
0
  0
LINE
  8
1
 62
3
 10
-197.484267023937
 20
14.41387853550546
 30
0
 11
-202.5340747915832
 21
14.41387853550546
 31
0
  0
LINE
  8
1
 62
3
 10
-178.434459256291
 20
15.41387853550546
 30
0
 11
-178.434459256291
 21
14.41387853550546
 31
0
  0
LINE
  8
1
 62
3
 10
-183.4842670239372
 20
15.41387853550546
 30
0
 11
-183.4842670239372
 21
14.41387853550546
 31
0
  0
LINE
  8
1
 62
3
 10
-178.434459256291
 20
15.41387853550546
 30
0
 11
-183.4842670239372
 21
15.41387853550546
 31
0
  0
LINE
  8
1
 62
3
 10
-177.934459256291
 20
15.41387853550546
 30
0
 11
-177.934459256291
 21
14.41387853550546
 31
0
  0
LINE
  8
1
 62
3
 10
-178.434459256291
 20
14.41387853550546
 30
0
 11
-178.434459256291
 21
14.01387853550548
 31
0
  0
LINE
  8
1
 62
3
 10
-183.4842670239372
 20
14.41387853550546
 30
0
 11
-183.4842670239372
 21
11.16387853550546
 31
0
  0
LINE
  8
1
 62
3
 10
-178.434459256291
 20
14.41387853550546
 30
0
 11
-183.4842670239372
 21
14.41387853550546
 31
0
  0
LINE
  8
1
 62
3
 10
-177.934459256291
 20
14.41387853550546
 30
0
 11
-177.934459256291
 21
14.01387853550548
 31
0
  0
LINE
  8
1
 62
3
 10
-177.934459256291
 20
16.31387853550544
 30
0
 11
-177.934459256291
 21
15.81387853550544
 31
0
  0
LINE
  8
1
 62
3
 10
-178.434459256291
 20
16.31387853550544
 30
0
 11
-178.434459256291
 21
15.81387853550544
 31
0
  0
LINE
  8
1
 62
3
 10
-202.5340747915832
 20
16.31387853550544
 30
0
 11
-202.5340747915832
 21
15.81387853550544
 31
0
  0
LINE
  8
1
 62
3
 10
-203.0340747915832
 20
16.31387853550544
 30
0
 11
-203.0340747915832
 21
15.81387853550544
 31
0
  0
LINE
  8
1
 62
3
 10
-177.934459256291
 20
14.01387853550548
 30
0
 11
-178.434459256291
 21
14.01387853550548
 31
0
  0
LINE
  8
1
 62
3
 10
-177.934459256291
 20
14.01387853550548
 30
0
 11
-177.934459256291
 21
13.51387853550548
 31
0
  0
LINE
  8
1
 62
3
 10
-178.434459256291
 20
14.01387853550548
 30
0
 11
-178.434459256291
 21
13.51387853550548
 31
0
  0
LINE
  8
1
 62
3
 10
-177.934459256291
 20
15.81387853550544
 30
0
 11
-178.434459256291
 21
15.81387853550544
 31
0
  0
LINE
  8
1
 62
3
 10
-177.934459256291
 20
15.81387853550544
 30
0
 11
-177.934459256291
 21
15.41387853550546
 31
0
  0
LINE
  8
1
 62
3
 10
-178.434459256291
 20
15.81387853550544
 30
0
 11
-178.434459256291
 21
15.41387853550546
 31
0
  0
LINE
  8
1
 62
3
 10
-177.934459256291
 20
16.31387853550544
 30
0
 11
-178.434459256291
 21
16.31387853550544
 31
0
  0
LINE
  8
1
 62
3
 10
-177.934459256291
 20
13.51387853550548
 30
0
 11
-178.434459256291
 21
13.51387853550548
 31
0
  0
LINE
  8
1
 62
3
 10
-202.5340747915832
 20
15.81387853550544
 30
0
 11
-203.0340747915832
 21
15.81387853550544
 31
0
  0
LINE
  8
1
 62
3
 10
-202.5340747915832
 20
15.81387853550544
 30
0
 11
-202.5340747915832
 21
15.41387853550546
 31
0
  0
LINE
  8
1
 62
3
 10
-203.0340747915832
 20
15.81387853550544
 30
0
 11
-203.0340747915832
 21
15.41387853550546
 31
0
  0
LINE
  8
1
 62
3
 10
-202.5340747915832
 20
16.31387853550544
 30
0
 11
-203.0340747915832
 21
16.31387853550544
 31
0
  0
LINE
  8
1
 62
3
 10
-202.5340747915832
 20
13.51387853550548
 30
0
 11
-203.0340747915832
 21
13.51387853550548
 31
0
  0
LINE
  8
1
 62
3
 10
-202.5340747915832
 20
14.01387853550548
 30
0
 11
-203.0340747915832
 21
14.01387853550548
 31
0
  0
LINE
  8
1
 62
3
 10
-202.5340747915832
 20
14.01387853550548
 30
0
 11
-202.5340747915832
 21
13.51387853550548
 31
0
  0
LINE
  8
1
 62
3
 10
-203.0340747915832
 20
14.01387853550548
 30
0
 11
-203.0340747915832
 21
13.51387853550548
 31
0
  0
LINE
  8
1
 62
3
 10
-197.484267023937
 20
18.66387853550546
 30
0
 11
-203.8688663829018
 21
18.66387853550546
 31
0
  0
LINE
  8
1
 62
3
 10
-197.484267023937
 20
11.16387853550546
 30
0
 11
-203.8688663829018
 21
11.16387853550546
 31
0
  0
LINE
  8
1
 62
3
 10
-197.484267023937
 20
18.66387853550546
 30
0
 11
-197.484267023937
 21
15.41387853550546
 31
0
  0
LINE
  8
1
 62
3
 10
-183.4842670239372
 20
18.66387853550546
 30
0
 11
-183.4842670239372
 21
15.41387853550546
 31
0
  0
LINE
  8
1
 62
3
 10
-204.9842670239371
 20
66.08475235896435
 30
0
 11
-204.9842670239371
 21
83.08475235896435
 31
0
  0
LINE
  8
1
 62
3
 10
-204.9842670239371
 20
83.08475235896435
 30
0
 11
-198.490504968355
 21
83.08475235896435
 31
0
  0
LINE
  8
1
 62
3
 10
-198.490504968355
 20
83.08475235896435
 30
0
 11
-198.490504968355
 21
66.08475235896435
 31
0
  0
LINE
  8
1
 62
3
 10
-198.490504968355
 20
66.08475235896435
 30
0
 11
-204.9842670239371
 21
66.08475235896435
 31
0
  0
LINE
  8
1
 62
3
 10
-204.9842670239371
 20
66.08475235896435
 30
0
 11
-204.9842670239371
 21
83.08475235896435
 31
0
  0
LINE
  8
1
 62
3
 10
-175.9842670239371
 20
66.08475235896435
 30
0
 11
-175.9842670239371
 21
62.73658311426794
 31
0
  0
LINE
  8
1
 62
3
 10
-175.9842670239371
 20
83.08475235896435
 30
0
 11
-175.9842670239371
 21
66.08475235896435
 31
0
  0
LINE
  8
1
 62
3
 10
-175.9842670239371
 20
83.08475235896435
 30
0
 11
-175.9842670239371
 21
66.08475235896435
 31
0
  0
LINE
  8
0
 62
3
 10
-204.384267023937
 20
88.73658311426794
 30
0
 11
-204.384267023937
 21
86.73658311426794
 31
0
  0
LINE
  8
0
 62
3
 10
-177.0996676649723
 20
51.63658311426792
 30
0
 11
-176.8590147326949
 21
51.63658311426792
 31
0
  0
LINE
  8
0
 62
3
 10
-176.8590147326949
 20
51.63658311426792
 30
0
 11
-176.8590147326949
 21
52.43658311426793
 31
0
  0
LINE
  8
0
 62
3
 10
-183.4842670239371
 20
50.93658311426793
 30
0
 11
-177.0996676649723
 21
50.93658311426793
 31
0
  0
LINE
  8
0
 62
3
 10
-177.0996676649723
 20
50.93658311426793
 30
0
 11
-177.0996676649723
 21
51.63658311426792
 31
0
  0
LINE
  8
0
 62
3
 10
-185.4842670239371
 20
50.93658311426793
 30
0
 11
-183.4842670239371
 21
50.93658311426793
 31
0
  0
LINE
  8
0
 62
3
 10
-185.9842670239371
 20
50.93658311426793
 30
0
 11
-189.2342670239371
 21
50.93658311426793
 31
0
  0
LINE
  8
0
 62
3
 10
-185.9842670239371
 20
50.93658311426793
 30
0
 11
-185.4842670239371
 21
50.93658311426793
 31
0
  0
LINE
  8
0
 62
3
 10
-204.0676342026638
 20
52.43658311426793
 30
0
 11
-204.0676342026638
 21
62.43658311426793
 31
0
  0
LINE
  8
0
 62
3
 10
-197.484267023937
 20
50.93658311426793
 30
0
 11
-194.9842670239371
 21
50.93658311426793
 31
0
  0
LINE
  8
0
 62
3
 10
-189.2342670239371
 20
50.93658311426793
 30
0
 11
-191.7342670239371
 21
50.93658311426793
 31
0
  0
LINE
  8
0
 62
3
 10
-191.7342670239371
 20
50.93658311426793
 30
0
 11
-194.9842670239371
 21
50.93658311426793
 31
0
  0
LINE
  8
0
 62
3
 10
-203.8688663829018
 20
50.93658311426793
 30
0
 11
-197.484267023937
 21
50.93658311426793
 31
0
  0
LINE
  8
0
 62
3
 10
-203.8688663829018
 20
50.93658311426793
 30
0
 11
-203.8688663829018
 21
51.63658311426792
 31
0
  0
LINE
  8
0
 62
3
 10
-204.1095193151792
 20
52.43658311426793
 30
0
 11
-204.0676342026638
 21
52.43658311426793
 31
0
  0
LINE
  8
0
 62
3
 10
-204.1095193151792
 20
51.63658311426792
 30
0
 11
-203.8688663829018
 21
51.63658311426792
 31
0
  0
LINE
  8
0
 62
3
 10
-204.1095193151792
 20
51.63658311426792
 30
0
 11
-204.1095193151792
 21
52.43658311426793
 31
0
  0
LINE
  8
0
 62
3
 10
-203.384267023937
 20
89.73658311426794
 30
0
 11
-177.584267023937
 21
89.73658311426794
 31
0
  0
LINE
  8
0
 62
3
 10
-176.9008998452103
 20
52.43658311426793
 30
0
 11
-176.8590147326949
 21
52.43658311426793
 31
0
  0
LINE
  8
0
 62
3
 10
-176.9008998452103
 20
52.43658311426793
 30
0
 11
-176.9008998452103
 21
62.43658311426793
 31
0
  0
LINE
  8
0
 62
3
 10
-204.2315875246677
 20
62.43658311426793
 30
0
 11
-204.0676342026638
 21
62.43658311426793
 31
0
  0
LINE
  8
0
 62
3
 10
-204.384267023937
 20
62.43658311426793
 30
0
 11
-204.2315875246677
 21
62.43658311426793
 31
0
  0
LINE
  8
0
 62
3
 10
-176.9008998452103
 20
62.43658311426793
 30
0
 11
-176.584267023937
 21
62.43658311426793
 31
0
  0
LINE
  8
1
 62
3
 10
-189.184267023937
 20
86.73658311426794
 30
0
 11
-189.184267023937
 21
84.23658311426794
 31
0
  0
LINE
  8
1
 62
3
 10
-189.184267023937
 20
84.23658311426794
 30
0
 11
-191.784267023937
 21
84.23658311426794
 31
0
  0
LINE
  8
1
 62
3
 10
-191.784267023937
 20
84.23658311426794
 30
0
 11
-191.784267023937
 21
86.73658311426794
 31
0
  0
LINE
  8
1
 62
3
 10
-191.784267023937
 20
86.73658311426794
 30
0
 11
-189.184267023937
 21
86.73658311426794
 31
0
  0
LINE
  8
1
 62
3
 10
-175.9842670239371
 20
86.73658311426794
 30
0
 11
-175.9842670239371
 21
83.08475235896435
 31
0
  0
LINE
  8
1
 62
3
 10
-175.9842670239371
 20
62.73658311426794
 30
0
 11
-204.9842670239371
 21
62.73658311426794
 31
0
  0
LINE
  8
1
 62
3
 10
-204.9842670239371
 20
62.73658311426794
 30
0
 11
-204.9842670239371
 21
86.73658311426794
 31
0
  0
LINE
  8
1
 62
3
 10
-204.9842670239371
 20
86.73658311426794
 30
0
 11
-176.584267023937
 21
86.73658311426794
 31
0
  0
LINE
  8
1
 62
3
 10
-176.584267023937
 20
86.73658311426794
 30
0
 11
-175.9842670239371
 21
86.73658311426794
 31
0
  0
LINE
  8
0
 62
3
 10
-176.584267023937
 20
62.73658311426794
 30
0
 11
-176.584267023937
 21
62.43658311426793
 31
0
  0
LINE
  8
1
 62
3
 10
-176.584267023937
 20
88.73658311426794
 30
0
 11
-176.584267023937
 21
86.73658311426794
 31
0
  0
LINE
  8
0
 62
3
 10
-204.384267023937
 20
62.73658311426794
 30
0
 11
-204.384267023937
 21
62.43658311426793
 31
0
  0
LINE
  8
0
 62
3
 10
-176.5932627405888
 20
50.13658311426792
 30
0
 11
-176.5932627405888
 21
52.43658311426793
 31
0
  0
LINE
  8
0
 62
3
 10
-177.0996676649723
 20
51.63658311426792
 30
0
 11
-176.8590147326949
 21
51.63658311426792
 31
0
  0
LINE
  8
0
 62
3
 10
-176.8590147326949
 20
51.63658311426792
 30
0
 11
-176.8590147326949
 21
52.43658311426793
 31
0
  0
LINE
  8
0
 62
3
 10
-176.5932627405888
 20
50.13658311426792
 30
0
 11
-177.0996676649723
 21
50.13658311426792
 31
0
  0
LINE
  8
0
 62
3
 10
-178.4344592562909
 20
50.13658311426792
 30
0
 11
-177.0996676649723
 21
50.13658311426792
 31
0
  0
LINE
  8
0
 62
3
 10
-177.0996676649723
 20
50.93658311426793
 30
0
 11
-177.0996676649723
 21
51.63658311426792
 31
0
  0
LINE
  8
0
 62
3
 10
-177.0996676649723
 20
50.13658311426792
 30
0
 11
-177.0996676649723
 21
50.93658311426793
 31
0
  0
LINE
  8
0
 62
3
 10
-183.4842670239371
 20
50.13658311426792
 30
0
 11
-183.4842670239371
 21
50.93658311426793
 31
0
  0
LINE
  8
0
 62
3
 10
-183.4842670239371
 20
50.13658311426792
 30
0
 11
-178.4344592562909
 21
50.13658311426792
 31
0
  0
LINE
  8
0
 62
3
 10
-176.9008998452103
 20
52.43658311426793
 30
0
 11
-176.8590147326949
 21
52.43658311426793
 31
0
  0
LINE
  8
0
 62
3
 10
-176.584267023937
 20
52.43658311426793
 30
0
 11
-176.584267023937
 21
62.43658311426793
 31
0
  0
LINE
  8
0
 62
3
 10
-176.9008998452103
 20
52.43658311426793
 30
0
 11
-176.9008998452103
 21
62.43658311426793
 31
0
  0
LINE
  8
0
 62
3
 10
-176.9008998452103
 20
62.43658311426793
 30
0
 11
-176.584267023937
 21
62.43658311426793
 31
0
  0
LINE
  8
0
 62
3
 10
-176.5932627405888
 20
52.43658311426793
 30
0
 11
-176.584267023937
 21
52.43658311426793
 31
0
  0
LINE
  8
0
 62
3
 10
-204.3752713072853
 20
52.43658311426793
 30
0
 11
-204.3752713072853
 21
50.13658311426792
 31
0
  0
LINE
  8
0
 62
3
 10
-204.1095193151792
 20
51.63658311426792
 30
0
 11
-203.8688663829018
 21
51.63658311426792
 31
0
  0
LINE
  8
0
 62
3
 10
-204.1095193151792
 20
52.43658311426793
 30
0
 11
-204.1095193151792
 21
51.63658311426792
 31
0
  0
LINE
  8
0
 62
3
 10
-203.8688663829018
 20
50.13658311426792
 30
0
 11
-204.3752713072853
 21
50.13658311426792
 31
0
  0
LINE
  8
0
 62
3
 10
-203.8688663829018
 20
50.13658311426792
 30
0
 11
-202.5340747915831
 21
50.13658311426792
 31
0
  0
LINE
  8
0
 62
3
 10
-203.8688663829018
 20
51.63658311426792
 30
0
 11
-203.8688663829018
 21
50.93658311426793
 31
0
  0
LINE
  8
0
 62
3
 10
-203.8688663829018
 20
50.93658311426793
 30
0
 11
-203.8688663829018
 21
50.13658311426792
 31
0
  0
LINE
  8
0
 62
3
 10
-197.484267023937
 20
50.93658311426793
 30
0
 11
-197.484267023937
 21
50.13658311426792
 31
0
  0
LINE
  8
0
 62
3
 10
-202.5340747915831
 20
50.13658311426792
 30
0
 11
-197.484267023937
 21
50.13658311426792
 31
0
  0
LINE
  8
0
 62
3
 10
-204.1095193151792
 20
52.43658311426793
 30
0
 11
-204.0676342026638
 21
52.43658311426793
 31
0
  0
LINE
  8
0
 62
3
 10
-204.384267023937
 20
62.43658311426793
 30
0
 11
-204.384267023937
 21
52.43658311426793
 31
0
  0
LINE
  8
0
 62
3
 10
-204.0676342026638
 20
62.43658311426793
 30
0
 11
-204.0676342026638
 21
52.43658311426793
 31
0
  0
LINE
  8
0
 62
3
 10
-204.384267023937
 20
62.43658311426793
 30
0
 11
-204.0676342026638
 21
62.43658311426793
 31
0
  0
LINE
  8
0
 62
3
 10
-204.384267023937
 20
52.43658311426793
 30
0
 11
-204.3752713072853
 21
52.43658311426793
 31
0
  0
LINE
  8
0
 62
3
 10
-178.4344592562909
 20
43.93658311426793
 30
0
 11
-177.9344592562909
 21
43.93658311426793
 31
0
  0
LINE
  8
0
 62
3
 10
-178.4344592562909
 20
44.43658311426793
 30
0
 11
-178.4344592562909
 21
43.93658311426793
 31
0
  0
LINE
  8
0
 62
3
 10
-177.9344592562909
 20
44.43658311426793
 30
0
 11
-177.9344592562909
 21
43.93658311426793
 31
0
  0
LINE
  8
0
 62
3
 10
-177.9344592562909
 20
50.13658311426792
 30
0
 11
-177.9344592562909
 21
44.43658311426793
 31
0
  0
LINE
  8
0
 62
3
 10
-177.9344592562909
 20
44.43658311426793
 30
0
 11
-178.4344592562909
 21
44.43658311426793
 31
0
  0
LINE
  8
0
 62
3
 10
-178.4344592562909
 20
50.13658311426792
 30
0
 11
-178.4344592562909
 21
44.43658311426793
 31
0
  0
LINE
  8
0
 62
3
 10
-203.0340747915831
 20
43.93658311426793
 30
0
 11
-202.5340747915831
 21
43.93658311426793
 31
0
  0
LINE
  8
0
 62
3
 10
-202.5340747915831
 20
43.93658311426793
 30
0
 11
-202.5340747915831
 21
44.43658311426793
 31
0
  0
LINE
  8
0
 62
3
 10
-203.0340747915831
 20
43.93658311426793
 30
0
 11
-203.0340747915831
 21
44.43658311426793
 31
0
  0
LINE
  8
0
 62
3
 10
-203.0340747915831
 20
44.43658311426793
 30
0
 11
-203.0340747915831
 21
50.13658311426792
 31
0
  0
LINE
  8
0
 62
3
 10
-202.5340747915831
 20
44.43658311426793
 30
0
 11
-203.0340747915831
 21
44.43658311426793
 31
0
  0
LINE
  8
0
 62
3
 10
-202.5340747915831
 20
44.43658311426793
 30
0
 11
-202.5340747915831
 21
50.13658311426792
 31
0
  0
LINE
  8
0
 62
3
 10
-195.4842670239371
 20
47.73658311426794
 30
0
 11
-195.4842670239371
 21
50.93658311426793
 31
0
  0
LINE
  8
0
 62
3
 10
-185.4842670239371
 20
47.73658311426794
 30
0
 11
-185.4842670239371
 21
50.93658311426793
 31
0
  0
LINE
  8
0
 62
3
 10
-195.4842670239371
 20
47.73658311426794
 30
0
 11
-185.4842670239371
 21
47.73658311426794
 31
0
  0
LINE
  8
0
 62
3
 10
-185.9842670239371
 20
50.93658311426793
 30
0
 11
-189.2342670239371
 21
50.93658311426793
 31
0
  0
LINE
  8
0
 62
3
 10
-189.2342670239371
 20
50.93658311426793
 30
0
 11
-191.7342670239371
 21
50.93658311426793
 31
0
  0
LINE
  8
0
 62
3
 10
-191.7342670239371
 20
50.93658311426793
 30
0
 11
-194.9842670239371
 21
50.93658311426793
 31
0
  0
LINE
  8
0
 62
4
 10
-191.334267023937
 20
47.83658311426791
 30
0
 11
-190.4842670239371
 21
47.83658311426791
 31
0
  0
LINE
  8
0
 62
4
 10
-190.4842670239371
 20
47.83658311426791
 30
0
 11
-189.634267023937
 21
47.83658311426791
 31
0
  0
LINE
  8
1
 62
1
 10
-190.4842670239371
 20
45.83658311426791
 30
0
 11
-190.4842670239371
 21
97.13658311426792
 31
0
  0
LINE
  8
0
 62
3
 10
-44.61313724319606
 20
52.4365831142679
 30
0
 11
-43.61313724319606
 21
52.4365831142679
 31
0
  0
LINE
  8
0
 62
3
 10
-42.68813724319588
 20
50.13658311426784
 30
0
 11
-40.36313724319595
 21
50.13658311426784
 31
0
  0
LINE
  8
0
 62
3
 10
-40.36313724319595
 20
50.13658311426784
 30
0
 11
-40.36313724319595
 21
50.9365831142679
 31
0
  0
LINE
  8
0
 62
3
 10
-40.36313724319584
 20
59.33869986115096
 30
0
 11
-40.36313724319584
 21
59.38658311426784
 31
0
  0
LINE
  8
0
 62
3
 10
-40.36313724319584
 20
60.4365831142679
 30
0
 11
-40.36313724319584
 21
60.9365831142679
 31
0
  0
LINE
  8
0
 62
3
 10
-40.36313724319584
 20
59.38658311426784
 30
0
 11
-40.36313724319584
 21
60.4365831142679
 31
0
  0
LINE
  8
0
 62
3
 10
-40.36313724319584
 20
60.9365831142679
 30
0
 11
-40.36313724319572
 21
62.43658311426779
 31
0
  0
LINE
  8
0
 62
3
 10
-41.36313724319606
 20
51.63658311426784
 30
0
 11
-41.36313724319606
 21
52.4365831142679
 31
0
  0
LINE
  8
0
 62
3
 10
-41.36313724319606
 20
52.4365831142679
 30
0
 11
-40.36313724319595
 21
52.4365831142679
 31
0
  0
LINE
  8
0
 62
3
 10
-40.36313724319595
 20
50.9365831142679
 30
0
 11
-40.36313724319595
 21
51.23658311426797
 31
0
  0
LINE
  8
0
 62
3
 10
-40.36313724319595
 20
51.23658311426797
 30
0
 11
-40.36313724319595
 21
51.63658311426784
 31
0
  0
LINE
  8
0
 62
3
 10
-40.73813724319595
 20
51.63658311426784
 30
0
 11
-40.36313724319595
 21
51.63658311426784
 31
0
  0
LINE
  8
0
 62
3
 10
-41.36313724319606
 20
51.63658311426784
 30
0
 11
-40.73813724319595
 21
51.63658311426784
 31
0
  0
LINE
  8
0
 62
3
 10
-40.36313724319595
 20
52.4365831142679
 30
0
 11
-40.36313724319584
 21
52.73658311426797
 31
0
  0
LINE
  8
0
 62
3
 10
-40.36313724319584
 20
52.73658311426797
 30
0
 11
-40.36313724319584
 21
59.33869986115096
 31
0
  0
LINE
  8
0
 62
3
 10
-47.86313724319595
 20
50.9365831142679
 30
0
 11
-47.86313724319595
 21
51.63658311426784
 31
0
  0
LINE
  8
0
 62
3
 10
-46.86313724319606
 20
51.63658311426784
 30
0
 11
-46.86313724319606
 21
52.4365831142679
 31
0
  0
LINE
  8
0
 62
3
 10
-47.48813724319595
 20
51.63658311426784
 30
0
 11
-46.86313724319606
 21
51.63658311426784
 31
0
  0
LINE
  8
0
 62
3
 10
-47.86313724319595
 20
51.63658311426784
 30
0
 11
-47.48813724319595
 21
51.63658311426784
 31
0
  0
LINE
  8
0
 62
3
 10
-47.86313724319595
 20
52.4365831142679
 30
0
 11
-46.86313724319606
 21
52.4365831142679
 31
0
  0
LINE
  8
0
 62
3
 10
-42.71313724319586
 20
50.13658311426784
 30
0
 11
-42.68813724319588
 21
50.13658311426784
 31
0
  0
LINE
  8
0
 62
3
 10
-43.61313724319606
 20
50.13658311426784
 30
0
 11
-42.71313724319586
 21
50.13658311426784
 31
0
  0
LINE
  8
0
 62
3
 10
-43.61313724319606
 20
50.13658311426784
 30
0
 11
-43.61313724319606
 21
52.4365831142679
 31
0
  0
LINE
  8
0
 62
3
 10
-45.51313724319581
 20
62.4365831142679
 30
0
 11
-42.71313724319586
 21
62.4365831142679
 31
0
  0
LINE
  8
0
 62
3
 10
-42.08813724319597
 20
62.4365831142679
 30
0
 11
-42.05858642849429
 21
62.4365831142679
 31
0
  0
LINE
  8
0
 62
3
 10
-42.05858642849429
 20
62.4365831142679
 30
0
 11
-41.71313724319552
 21
62.4365831142679
 31
0
  0
LINE
  8
0
 62
3
 10
-41.71313724319552
 20
62.4365831142679
 30
0
 11
-40.36313724319572
 21
62.43658311426779
 31
0
  0
LINE
  8
0
 62
3
 10
-42.71313724319586
 20
62.4365831142679
 30
0
 11
-42.08813724319597
 21
62.4365831142679
 31
0
  0
LINE
  8
0
 62
3
 10
-46.16768805789761
 20
62.4365831142679
 30
0
 11
-46.13813724319581
 21
62.4365831142679
 31
0
  0
LINE
  8
0
 62
3
 10
-46.13813724319581
 20
62.4365831142679
 30
0
 11
-45.51313724319581
 21
62.4365831142679
 31
0
  0
LINE
  8
0
 62
3
 10
-47.86313724319572
 20
62.43658311426802
 30
0
 11
-46.51313724319627
 21
62.4365831142679
 31
0
  0
LINE
  8
0
 62
3
 10
-46.51313724319627
 20
62.4365831142679
 30
0
 11
-46.16768805789761
 21
62.4365831142679
 31
0
  0
LINE
  8
0
 62
3
 10
-45.53813724319602
 20
50.13658311426784
 30
0
 11
-44.61313724319606
 21
50.13658311426784
 31
0
  0
LINE
  8
0
 62
3
 10
-47.86313724319595
 20
50.13658311426784
 30
0
 11
-45.53813724319602
 21
50.13658311426784
 31
0
  0
LINE
  8
0
 62
3
 10
-44.61313724319606
 20
50.13658311426784
 30
0
 11
-44.61313724319606
 21
52.4365831142679
 31
0
  0
LINE
  8
0
 62
3
 10
-47.86313724319595
 20
50.13658311426784
 30
0
 11
-47.86313724319595
 21
50.9365831142679
 31
0
  0
LINE
  8
0
 62
3
 10
-47.86313724319595
 20
52.4365831142679
 30
0
 11
-47.86313724319572
 21
62.43658311426802
 31
0
  0
LINE
  8
0
 62
3
 10
-42.71313724319586
 20
50.13658311426784
 30
0
 11
-42.71313724319586
 21
44.4365831142679
 31
0
  0
LINE
  8
0
 62
3
 10
-45.51313724319581
 20
44.4365831142679
 30
0
 11
-45.01313724319581
 21
43.9365831142679
 31
0
  0
LINE
  8
0
 62
3
 10
-45.51313724319581
 20
44.4365831142679
 30
0
 11
-45.51313724319581
 21
50.13658311426784
 31
0
  0
LINE
  8
0
 62
3
 10
-42.71313724319586
 20
44.4365831142679
 30
0
 11
-43.21313724319586
 21
43.9365831142679
 31
0
  0
LINE
  8
0
 62
3
 10
-43.21313724319586
 20
43.9365831142679
 30
0
 11
-45.01313724319581
 21
43.9365831142679
 31
0
  0
LINE
  8
0
 62
3
 10
-44.61313724319606
 20
52.4365831142679
 30
0
 11
-43.61313724319606
 21
52.4365831142679
 31
0
  0
LINE
  8
0
 62
3
 10
-49.11313724319595
 20
47.73658311426797
 30
0
 11
-45.71313724319597
 21
47.73658311426797
 31
0
  0
LINE
  8
0
 62
3
 10
-49.11313724319595
 20
47.73658311426797
 30
0
 11
-49.11313724319595
 21
50.9365831142679
 31
0
  0
LINE
  8
0
 62
3
 10
-41.36313724319606
 20
51.63658311426784
 30
0
 11
-41.36313724319606
 21
52.4365831142679
 31
0
  0
LINE
  8
0
 62
3
 10
-41.36313724319606
 20
52.4365831142679
 30
0
 11
-41.16319892385931
 21
52.4365831142679
 31
0
  0
LINE
  8
0
 62
3
 10
-40.73813724319595
 20
51.63658311426784
 30
0
 11
-40.36313724319595
 21
51.63658311426784
 31
0
  0
LINE
  8
0
 62
3
 10
-41.36313724319606
 20
51.63658311426784
 30
0
 11
-40.73813724319595
 21
51.63658311426784
 31
0
  0
LINE
  8
0
 62
3
 10
-39.11313724319595
 20
47.73658311426797
 30
0
 11
-39.11313724319595
 21
50.9365831142679
 31
0
  0
LINE
  8
0
 62
3
 10
-42.51313724319593
 20
47.73658311426797
 30
0
 11
-39.11313724319595
 21
47.73658311426797
 31
0
  0
LINE
  8
0
 62
3
 10
-46.86313724319606
 20
51.63658311426784
 30
0
 11
-46.86313724319606
 21
52.4365831142679
 31
0
  0
LINE
  8
0
 62
3
 10
-47.48813724319595
 20
51.63658311426784
 30
0
 11
-46.86313724319606
 21
51.63658311426784
 31
0
  0
LINE
  8
0
 62
3
 10
-47.86313724319595
 20
51.63658311426784
 30
0
 11
-47.48813724319595
 21
51.63658311426784
 31
0
  0
LINE
  8
0
 62
3
 10
-47.06307556253236
 20
52.4365831142679
 30
0
 11
-46.86313724319606
 21
52.4365831142679
 31
0
  0
LINE
  8
0
 62
3
 10
-47.86313724319595
 20
50.9365831142679
 30
0
 11
-48.61313724319595
 21
50.9365831142679
 31
0
  0
LINE
  8
0
 62
3
 10
-39.61313724319595
 20
50.9365831142679
 30
0
 11
-40.36313724319595
 21
50.9365831142679
 31
0
  0
LINE
  8
0
 62
3
 10
-58.01313724319593
 20
88.73658311426797
 30
0
 11
-58.01313724319593
 21
86.73658311426797
 31
0
  0
LINE
  8
0
 62
3
 10
-57.01313724319593
 20
90.23658311426797
 30
0
 11
-31.21313724319597
 21
90.23658311426797
 31
0
  0
LINE
  8
0
 62
3
 10
-30.21313724319597
 20
88.73658311426797
 30
0
 11
-30.21313724319597
 21
86.73658311426797
 31
0
  0
LINE
  8
0
 62
3
 10
-40.36313724319595
 20
50.9365831142679
 30
0
 11
-40.36313724319595
 21
51.23658311426797
 31
0
  0
LINE
  8
0
 62
3
 10
-40.36313724319595
 20
51.23658311426797
 30
0
 11
-40.36313724319595
 21
51.73658311426797
 31
0
  0
LINE
  8
0
 62
3
 10
-39.61313724319595
 20
50.9365831142679
 30
0
 11
-39.56313724319588
 21
50.9365831142679
 31
0
  0
LINE
  8
0
 62
3
 10
-58.01313724319593
 20
50.9365831142679
 30
0
 11
-48.66313724319602
 21
50.9365831142679
 31
0
  0
LINE
  8
0
 62
3
 10
-47.86313724319595
 20
50.9365831142679
 30
0
 11
-48.61313724319595
 21
50.9365831142679
 31
0
  0
LINE
  8
0
 62
3
 10
-47.86313724319595
 20
50.9365831142679
 30
0
 11
-47.86313724319595
 21
51.73658311426797
 31
0
  0
LINE
  8
0
 62
3
 10
-39.61313724319595
 20
50.9365831142679
 30
0
 11
-40.36313724319595
 21
50.9365831142679
 31
0
  0
LINE
  8
1
 62
3
 10
-40.36313724319595
 20
51.73658311426797
 30
0
 11
-39.56313724319588
 21
50.9365831142679
 31
0
  0
LINE
  8
0
 62
3
 10
-40.36313724319595
 20
51.73658311426797
 30
0
 11
-40.36313724319572
 21
62.43658311426779
 31
0
  0
LINE
  8
0
 62
3
 10
-39.56313724319588
 20
50.9365831142679
 30
0
 11
-30.21313724319597
 21
50.9365831142679
 31
0
  0
LINE
  8
1
 62
3
 10
-47.86313724319595
 20
51.73658311426797
 30
0
 11
-48.66313724319602
 21
50.9365831142679
 31
0
  0
LINE
  8
0
 62
3
 10
-48.66313724319602
 20
50.9365831142679
 30
0
 11
-48.61313724319595
 21
50.9365831142679
 31
0
  0
LINE
  8
0
 62
3
 10
-47.86313724319595
 20
51.73658311426797
 30
0
 11
-47.86313724319572
 21
62.43658311426802
 31
0
  0
LINE
  8
0
 62
3
 10
-30.21313724319597
 20
62.73658311426797
 30
0
 11
-30.21313724319597
 21
50.9365831142679
 31
0
  0
LINE
  8
0
 62
3
 10
-58.01313724319593
 20
62.73658311426797
 30
0
 11
-58.01313724319593
 21
50.9365831142679
 31
0
  0
LINE
  8
1
 62
1
 10
-44.11313724319595
 20
41.9365831142679
 30
0
 11
-44.11313724319595
 21
98.13658311426795
 31
0
  0
LINE
  8
0
 62
3
 10
-42.71313724319586
 20
50.13658311426784
 30
0
 11
-42.71313724319586
 21
44.4365831142679
 31
0
  0
LINE
  8
0
 62
3
 10
-45.51313724319581
 20
44.4365831142679
 30
0
 11
-45.01313724319581
 21
43.9365831142679
 31
0
  0
LINE
  8
0
 62
3
 10
-45.51313724319581
 20
44.4365831142679
 30
0
 11
-45.51313724319581
 21
50.13658311426784
 31
0
  0
LINE
  8
0
 62
3
 10
-42.71313724319586
 20
44.4365831142679
 30
0
 11
-43.21313724319586
 21
43.9365831142679
 31
0
  0
LINE
  8
0
 62
3
 10
-43.21313724319586
 20
43.9365831142679
 30
0
 11
-45.01313724319581
 21
43.9365831142679
 31
0
  0
LINE
  8
1
 62
3
 10
-43.33313724319598
 20
45.4365831142679
 30
0
 11
-44.89313724319581
 21
45.4365831142679
 31
0
  0
LINE
  8
1
 62
3
 10
-44.11313724319595
 20
46.21658311426788
 30
0
 11
-44.11313724319595
 21
44.65658311426793
 31
0
  0
LINE
  8
1
 62
3
 10
-58.61313724319595
 20
86.73658311426797
 30
0
 11
-58.61313724319595
 21
62.73658311426797
 31
0
  0
LINE
  8
1
 62
3
 10
-58.61313724319595
 20
62.73658311426797
 30
0
 11
-29.61313724319595
 21
62.73658311426797
 31
0
  0
LINE
  8
1
 62
3
 10
-29.61313724319595
 20
62.73658311426797
 30
0
 11
-29.61313724319595
 21
86.73658311426797
 31
0
  0
LINE
  8
1
 62
3
 10
-29.61313724319595
 20
86.73658311426797
 30
0
 11
-58.61313724319595
 21
86.73658311426797
 31
0
  0
LINE
  8
1
 62
3
 10
-67.11313724319598
 20
90.23658311426797
 30
0
 11
-67.11313724319598
 21
148.036583114268
 31
0
  0
LINE
  8
1
 62
3
 10
-63.91313724319596
 20
151.236583114268
 30
0
 11
-34.31313724319597
 21
151.236583114268
 31
0
  0
LINE
  8
1
 62
3
 10
-31.11313724319597
 20
148.036583114268
 30
0
 11
-31.11313724319597
 21
90.23658311426797
 31
0
  0
LINE
  8
1
 62
3
 10
-31.11313724319597
 20
90.23658311426797
 30
0
 11
-31.41313724319596
 21
90.23658311426797
 31
0
  0
LINE
  8
1
 62
3
 10
-56.81313724319597
 20
90.23658311426797
 30
0
 11
-67.11313724319598
 21
90.23658311426797
 31
0
  0
LINE
  8
1
 62
3
 10
-31.91313724319596
 20
90.23658311426797
 30
0
 11
-56.31313724319597
 21
90.23658311426797
 31
0
  0
LINE
  8
1
 62
3
 10
-51.34920522069575
 20
135.236583114268
 30
0
 11
-46.87706926569618
 21
135.236583114268
 31
0
  0
LINE
  8
1
 62
3
 10
-178.2842670239371
 20
90.23658311426797
 30
0
 11
-187.0842670239371
 21
90.23658311426794
 31
0
  0
LINE
  8
1
 62
3
 10
-194.0842670239371
 20
89.73658311426797
 30
0
 11
-203.1842670239371
 21
89.73658311426797
 31
0
  0
LINE
  8
1
 62
3
 10
-194.084267023937
 20
151.236583114268
 30
0
 11
-187.084267023937
 21
151.236583114268
 31
0
  0
LINE
  8
1
 62
3
 10
-173.084267023937
 20
151.236583114268
 30
0
 11
-173.084267023937
 21
150.236583114268
 31
0
  0
LINE
  8
1
 62
3
 10
-173.0842670239371
 20
90.23658311426793
 30
0
 11
-178.2842670239371
 21
90.23658311426797
 31
0
  0
LINE
  8
1
 62
3
 10
-173.084267023937
 20
138.236583114268
 30
0
 11
-169.584267023937
 21
138.236583114268
 31
0
  0
LINE
  8
1
 62
3
 10
-173.084267023937
 20
138.236583114268
 30
0
 11
-173.084267023937
 21
128.236583114268
 31
0
  0
LINE
  8
1
 62
3
 10
-173.084267023937
 20
128.236583114268
 30
0
 11
-169.584267023937
 21
128.236583114268
 31
0
  0
LINE
  8
1
 62
3
 10
-173.084267023937
 20
128.236583114268
 30
0
 11
-173.084267023937
 21
105.236583114268
 31
0
  0
LINE
  8
1
 62
3
 10
-187.084267023937
 20
151.236583114268
 30
0
 11
-173.084267023937
 21
151.236583114268
 31
0
  0
LINE
  8
1
 62
3
 10
-187.0842670239371
 20
90.23658311426794
 30
0
 11
-194.0842670239371
 21
90.23658311426797
 31
0
  0
LINE
  8
1
 62
3
 10
-173.084267023937
 20
150.236583114268
 30
0
 11
-172.584267023937
 21
150.236583114268
 31
0
  0
LINE
  8
1
 62
3
 10
-173.084267023937
 20
150.236583114268
 30
0
 11
-173.084267023937
 21
144.236583114268
 31
0
  0
LINE
  8
1
 62
3
 10
-172.584267023937
 20
150.236583114268
 30
0
 11
-172.584267023937
 21
144.236583114268
 31
0
  0
LINE
  8
1
 62
3
 10
-172.584267023937
 20
144.236583114268
 30
0
 11
-173.084267023937
 21
144.236583114268
 31
0
  0
LINE
  8
1
 62
3
 10
-173.084267023937
 20
144.236583114268
 30
0
 11
-173.084267023937
 21
138.236583114268
 31
0
  0
LINE
  8
1
 62
3
 10
-173.084267023937
 20
105.236583114268
 30
0
 11
-172.5842670239371
 21
105.236583114268
 31
0
  0
LINE
  8
1
 62
3
 10
-173.084267023937
 20
105.236583114268
 30
0
 11
-173.084267023937
 21
99.23658311426797
 31
0
  0
LINE
  8
1
 62
3
 10
-172.5842670239371
 20
105.236583114268
 30
0
 11
-172.5842670239371
 21
99.23658311426797
 31
0
  0
LINE
  8
1
 62
3
 10
-172.5842670239371
 20
99.23658311426797
 30
0
 11
-173.084267023937
 21
99.23658311426797
 31
0
  0
LINE
  8
1
 62
3
 10
-173.084267023937
 20
99.23658311426797
 30
0
 11
-173.0842670239371
 21
90.23658311426793
 31
0
  0
LINE
  8
1
 62
1
 10
-174.9569372230961
 20
102.236583114268
 30
0
 11
-171.0177191832031
 21
102.236583114268
 31
0
  0
LINE
  8
1
 62
1
 10
-174.9569372230961
 20
147.236583114268
 30
0
 11
-171.0177191832031
 21
147.236583114268
 31
0
  0
LINE
  8
1
 62
3
 10
-169.584267023937
 20
128.236583114268
 30
0
 11
-169.584267023937
 21
130.236583114268
 31
0
  0
LINE
  8
1
 62
3
 10
-194.084267023937
 20
151.236583114268
 30
0
 11
-194.084267023937
 21
118.136583114268
 31
0
  0
LINE
  8
1
 62
3
 10
-187.0842670239371
 20
90.23658311426794
 30
0
 11
-187.084267023937
 21
151.236583114268
 31
0
  0
LINE
  8
1
 62
3
 10
-194.084267023937
 20
112.336583114268
 30
0
 11
-189.8660792303581
 21
112.336583114268
 31
0
  0
LINE
  8
1
 62
3
 10
-189.084267023937
 20
112.336583114268
 30
0
 11
-189.084267023937
 21
118.136583114268
 31
0
  0
LINE
  8
1
 62
3
 10
-189.084267023937
 20
118.136583114268
 30
0
 11
-189.8660792303581
 21
118.136583114268
 31
0
  0
LINE
  8
1
 62
3
 10
-194.084267023937
 20
118.136583114268
 30
0
 11
-194.084267023937
 21
112.336583114268
 31
0
  0
LINE
  8
1
 62
1
 10
-195.8264115195531
 20
115.236583114268
 30
0
 11
-185.5173940960021
 21
115.236583114268
 31
0
  0
LINE
  8
1
 62
3
 10
-194.0842670239371
 20
90.23658311426797
 30
0
 11
-194.0842670239371
 21
91.83658311426797
 31
0
  0
LINE
  8
1
 62
3
 10
-194.0842670239371
 20
104.486583114268
 30
0
 11
-196.084267023937
 21
104.486583114268
 31
0
  0
LINE
  8
1
 62
3
 10
-194.0842670239371
 20
104.486583114268
 30
0
 11
-194.084267023937
 21
112.336583114268
 31
0
  0
LINE
  8
1
 62
3
 10
-196.084267023937
 20
104.486583114268
 30
0
 11
-196.084267023937
 21
98.48658311426797
 31
0
  0
LINE
  8
1
 62
3
 10
-196.084267023937
 20
98.48658311426797
 30
0
 11
-194.0842670239371
 21
98.48658311426797
 31
0
  0
LINE
  8
1
 62
3
 10
-194.0842670239371
 20
98.48658311426797
 30
0
 11
-194.0842670239371
 21
104.486583114268
 31
0
  0
LINE
  8
1
 62
1
 10
-197.251235065898
 20
101.486583114268
 30
0
 11
-192.8929512770791
 21
101.486583114268
 31
0
  0
LINE
  8
1
 62
3
 10
-178.2088609952731
 20
89.73658311426797
 30
0
 11
-177.7400008934271
 21
89.73658311426797
 31
0
  0
LINE
  8
1
 62
3
 10
-177.7400008934271
 20
89.73658311426797
 30
0
 11
-177.7842670239371
 21
89.73658311426797
 31
0
  0
LINE
  8
1
 62
3
 10
-178.2088609952731
 20
89.73658311426797
 30
0
 11
-178.2747598918171
 21
89.73658311426797
 31
0
  0
LINE
  8
1
 62
3
 10
-194.0842670239371
 20
91.83658311426797
 30
0
 11
-194.0842670239371
 21
98.48658311426797
 31
0
  0
LINE
  8
1
 62
3
 10
-203.1842670239371
 20
91.33658311426797
 30
0
 11
-203.1842670239371
 21
89.73658311426797
 31
0
  0
LINE
  8
1
 62
3
 10
-203.1842670239371
 20
91.33658311426797
 30
0
 11
-202.1342670239371
 21
91.33658311426797
 31
0
  0
LINE
  8
1
 62
3
 10
-202.1342670239371
 20
91.33658311426797
 30
0
 11
-202.1342670239371
 21
91.83658311426797
 31
0
  0
LINE
  8
1
 62
3
 10
-202.1342670239371
 20
91.33658311426797
 30
0
 11
-195.8342670239371
 21
91.33658311426797
 31
0
  0
LINE
  8
1
 62
3
 10
-202.1342670239371
 20
91.83658311426797
 30
0
 11
-201.8842670239371
 21
91.83658311426797
 31
0
  0
LINE
  8
1
 62
3
 10
-195.8342670239371
 20
91.83658311426797
 30
0
 11
-195.8342670239371
 21
91.33658311426797
 31
0
  0
LINE
  8
1
 62
3
 10
-195.8342670239371
 20
91.33658311426797
 30
0
 11
-194.0842670239371
 21
91.33658311426797
 31
0
  0
LINE
  8
1
 62
3
 10
-189.8660792303581
 20
118.136583114268
 30
0
 11
-194.084267023937
 21
118.136583114268
 31
0
  0
LINE
  8
1
 62
3
 10
-189.8660792303581
 20
112.336583114268
 30
0
 11
-189.084267023937
 21
112.336583114268
 31
0
  0
LINE
  8
1
 62
3
 10
-201.8842670239371
 20
91.83658311426797
 30
0
 11
-201.8842670239371
 21
92.31246594367278
 31
0
  0
LINE
  8
1
 62
3
 10
-201.8842670239371
 20
91.83658311426797
 30
0
 11
-196.0842670239371
 21
91.83658311426797
 31
0
  0
LINE
  8
1
 62
3
 10
-200.8842670239371
 20
93.31246594367278
 30
0
 11
-197.0842670239371
 21
93.31246594367278
 31
0
  0
LINE
  8
1
 62
3
 10
-196.0842670239371
 20
92.31246594367278
 30
0
 11
-196.0842670239371
 21
91.83658311426797
 31
0
  0
LINE
  8
1
 62
3
 10
-196.0842670239371
 20
91.83658311426797
 30
0
 11
-195.8342670239371
 21
91.83658311426797
 31
0
  0
LINE
  8
1
 62
1
 10
-176.5918731429471
 20
133.236583114268
 30
0
 11
-153.1774059014321
 21
133.236583114268
 31
0
  0
LINE
  8
1
 62
3
 10
-56.81313724319597
 20
90.23658311426797
 30
0
 11
-56.31313724319597
 21
90.23658311426797
 31
0
  0
LINE
  8
1
 62
3
 10
-31.91313724319596
 20
90.23658311426797
 30
0
 11
-31.41313724319596
 21
90.23658311426797
 31
0
  0
LINE
  8
1
 62
1
 10
-63.91313724319596
 20
151.736583114268
 30
0
 11
-63.91313724319596
 21
142.736583114268
 31
0
  0
LINE
  8
1
 62
1
 10
-68.41313724319596
 20
147.236583114268
 30
0
 11
-65.66313724319596
 21
147.236583114268
 31
0
  0
LINE
  8
1
 62
1
 10
-34.31313724319597
 20
151.736583114268
 30
0
 11
-34.31313724319597
 21
142.736583114268
 31
0
  0
LINE
  8
1
 62
1
 10
-63.91313724319596
 20
106.736583114268
 30
0
 11
-63.91313724319596
 21
97.73658311426797
 31
0
  0
LINE
  8
1
 62
1
 10
-68.41313724319596
 20
102.236583114268
 30
0
 11
-59.41313724319596
 21
102.236583114268
 31
0
  0
LINE
  8
1
 62
1
 10
-34.31313724319597
 20
106.736583114268
 30
0
 11
-34.31313724319597
 21
97.73658311426797
 31
0
  0
LINE
  8
1
 62
1
 10
-38.81313724319597
 20
102.236583114268
 30
0
 11
-29.81313724319597
 21
102.236583114268
 31
0
  0
LINE
  8
1
 62
1
 10
-61.78813724319596
 20
133.236583114268
 30
0
 11
-54.11313724319595
 21
133.236583114268
 31
0
  0
LINE
  8
1
 62
1
 10
-49.11313724319597
 20
85.15075838465398
 30
0
 11
-49.11313724319597
 21
154.941318278939
 31
0
  0
LINE
  8
1
 62
1
 10
-198.9842670239371
 20
94.35012401763157
 30
0
 11
-198.9842670239371
 21
88.09135037752246
 31
0
  0
LINE
  8
1
 62
3
 10
-169.584267023937
 20
136.236583114268
 30
0
 11
-167.584267023937
 21
136.236583114268
 31
0
  0
LINE
  8
1
 62
3
 10
-169.584267023937
 20
136.236583114268
 30
0
 11
-169.584267023937
 21
138.236583114268
 31
0
  0
LINE
  8
1
 62
3
 10
-167.584267023937
 20
136.236583114268
 30
0
 11
-167.584267023937
 21
135.236583114268
 31
0
  0
LINE
  8
1
 62
3
 10
-167.584267023937
 20
135.236583114268
 30
0
 11
-157.584267023937
 21
135.236583114268
 31
0
  0
LINE
  8
1
 62
3
 10
-157.084267023937
 20
135.236583114268
 30
0
 11
-157.084267023937
 21
130.736583114268
 31
0
  0
LINE
  8
1
 62
3
 10
-157.584267023937
 20
130.236583114268
 30
0
 11
-169.584267023937
 21
130.236583114268
 31
0
  0
LINE
  8
1
 62
3
 10
-169.584267023937
 20
130.236583114268
 30
0
 11
-169.584267023937
 21
136.236583114268
 31
0
  0
LINE
  8
1
 62
3
 10
-157.584267023937
 20
130.236583114268
 30
0
 11
-157.084267023937
 21
130.736583114268
 31
0
  0
LINE
  8
1
 62
3
 10
-157.584267023937
 20
135.236583114268
 30
0
 11
-157.584267023937
 21
130.236583114268
 31
0
  0
LINE
  8
1
 62
3
 10
-157.584267023937
 20
135.236583114268
 30
0
 11
-157.084267023937
 21
135.236583114268
 31
0
  0
LINE
  8
1
 62
1
 10
-38.81313724319597
 20
147.236583114268
 30
0
 11
-29.81313724319597
 21
147.236583114268
 31
0
  0
LINE
  8
1
 62
1
 10
-65.66313724319596
 20
147.236583114268
 30
0
 11
-59.41313724319596
 21
147.236583114268
 31
0
  0
LINE
  8
1
 62
1
 10
-36.43813724319597
 20
133.236583114268
 30
0
 11
-54.11313724319595
 21
133.236583114268
 31
0
  0
ARC
  8
1
 62
3
 10
-63.91313724319596
 20
148.036583114268
 30
0
 40
3.199999999999989
 50
90
 51
180
  0
ARC
  8
1
 62
3
 10
-34.31313724319597
 20
148.036583114268
 30
0
 40
3.199999999999999
 50
0
 51
90
  0
ARC
  8
1
 62
3
 10
-200.8842670239371
 20
92.31246594367278
 30
0
 40
1
 50
90
 51
180
  0
ARC
  8
1
 62
3
 10
-197.0842670239371
 20
92.31246594367278
 30
0
 40
1
 50
0
 51
90
  0
ARC
  8
1
 62
3
 10
-190.4842670239371
 20
14.91387853550546
 30
0
 40
13.89999999999985
 50
202.571824234034
 51
186.026402042642
  0
ARC
  8
1
 62
3
 10
-190.4842670239371
 20
14.91387853550546
 30
0
 40
13.89999999999997
 50
186.026402042642
 51
202.571824234034
  0
ARC
  8
1
 62
3
 10
-190.4842670239371
 20
14.91387853550546
 30
0
 40
14.50000000000005
 50
202.2272549045399
 51
186.370971372136
  0
ARC
  8
1
 62
3
 10
-190.4842670239371
 20
14.91387853550546
 30
0
 40
13.49999999999988
 50
196.1276202131609
 51
343.8723797868393
  0
ARC
  8
1
 62
3
 10
-190.4842670239371
 20
14.91387853550546
 30
0
 40
13.50000000000004
 50
16.12762021316071
 51
163.8723797868392
  0
ARC
  8
1
 62
3
 10
-177.584267023937
 20
88.73658311426794
 30
0
 40
1
 50
0
 51
90
  0
ARC
  8
1
 62
3
 10
-203.384267023937
 20
88.73658311426794
 30
0
 40
1
 50
90
 51
180
  0
ARC
  8
0
 62
4
 10
-189.634267023937
 20
48.23658311426794
 30
0
 40
0.400000000000027
 50
270
 51
311.4096221092635
  0
ARC
  8
0
 62
4
 10
-191.334267023937
 20
48.23658311426794
 30
0
 40
0.4000000000000377
 50
228.5903778907239
 51
270
  0
ARC
  8
1
 62
3
 10
-57.01313724319593
 20
88.73658311426797
 30
0
 40
1
 50
90
 51
180
  0
ARC
  8
1
 62
3
 10
-31.21313724319597
 20
88.73658311426797
 30
0
 40
1
 50
0
 51
90
  0
ARC
  8
1
 62
3
 10
-49.11313724319597
 20
133.236583114268
 30
0
 40
2.999999999999992
 50
138.1896851042213
 51
41.81031489577855
  0
ARC
  8
1
 62
3
 10
-49.11313724319597
 20
133.236583114268
 30
0
 40
3.000000000000003
 50
41.81031489577855
 51
138.1896851042213
  0
ARC
  8
1
 62
3
 10
-187.2137994232517
 20
115.236583114268
 30
0
 40
3.929960327431376
 50
132.4453889898049
 51
227.5546110101952
  0
CIRCLE
  8
1
 62
2
 10
-190.4842670239371
 20
14.91387853550546
 30
0
 40
0.8499999999999943
  0
CIRCLE
  8
1
 62
3
 10
-190.4842670239371
 20
14.91387853550546
 30
0
 40
1.25
  0
CIRCLE
  8
1
 62
3
 10
-190.4842670239371
 20
14.91387853550546
 30
0
 40
4.5
  0
CIRCLE
  8
1
 62
3
 10
-190.4842670239371
 20
14.91387853550546
 30
0
 40
6.549999999999983
  0
CIRCLE
  8
1
 62
3
 10
-190.4842670239371
 20
14.91387853550546
 30
0
 40
5
  0
CIRCLE
  8
0
 62
3
 10
-44.11313724319595
 20
45.4365831142679
 30
0
 40
0.6000000000000085
  0
CIRCLE
  8
0
 62
3
 10
-44.11313724319595
 20
45.4365831142679
 30
0
 40
0.6000000000000085
  0
CIRCLE
  8
1
 62
3
 10
-63.91313724319596
 20
147.236583114268
 30
0
 40
3
  0
CIRCLE
  8
1
 62
3
 10
-34.31313724319597
 20
147.236583114268
 30
0
 40
2.999999999999996
  0
CIRCLE
  8
1
 62
3
 10
-34.31313724319597
 20
102.236583114268
 30
0
 40
2.999999999999996
  0
CIRCLE
  8
1
 62
3
 10
-63.91313724319596
 20
102.236583114268
 30
0
 40
3
  0
CIRCLE
  8
1
 62
3
 10
-34.31313724319597
 20
102.236583114268
 30
0
 40
1.75
  0
CIRCLE
  8
1
 62
3
 10
-49.11313724319597
 20
133.236583114268
 30
0
 40
4.999999999999979
  0
CIRCLE
  8
1
 62
3
 10
-63.91313724319596
 20
147.236583114268
 30
0
 40
1.75
  0
TEXT
  8
1
 62
2
 10
-242.1090007900902
 20
24.63470403060006
 30
0
 40
3.5
  1
    (RED)
 41
0.8910000000000004
  0
TEXT
  8
1
 62
2
 10
-242.1090007900902
 20
31.63470403060006
 30
0
 40
3.5
  1
(ü{)TERMINAL
 41
0.8910000000000004
  0
TEXT
  8
1
 62
2
 10
-176.6552373519912
 20
-5.201284702467717
 30
0
 40
3.5
  1
   (BLACK)
 41
0.8910000000000004
  0
TEXT
  8
1
 62
2
 10
-176.6552373519912
 20
1.798715297532283
 30
0
 40
3.5
  1
(ü|)TERMINAL
 41
0.8910000000000004
  0
TEXT
  8
1
 62
2
 10
-245.6218275721472
 20
82.36629553294503
 30
0
 40
3.5
  1
NAME PLATE
 41
0.8019000000000003
 72
1
 73
2
 11
-231.5885775721472
 21
84.11629553294503
 31
0
  0
TEXT
  8
1
 62
2
 10
-99.79712988024795
 20
124.9988483208382
 30
0
 40
3.5
  1
HOLE
 41
0.8910000000000004
 72
1
 73
2
 11
-93.56012988024796
 21
126.7488483208382
 31
0
  0
TEXT
  8
1
 62
2
 10
-122.36682089696
 20
-23.533010240282
 30
0
 40
4
  1
DMN29BA
 41
0.891
  0
DIMENSION
  8
1
  6
CONTINUOUS
 62
2
  2
*D0
  3
DMST_1
 10
6.588785727887
 20
151.236583114268
 30
0
 11
2.988785727887
 21
105.8461304375049
 31
0
 12
0
 22
0
 32
0
 70
0
 13
-39.11313724319595
 23
47.73658311426797
 33
0
 14
-34.31313724319597
 24
151.236583114268
 34
0
 50
90
 53
0
  0
DIMENSION
  8
1
  6
CONTINUOUS
 62
2
  2
*D1
  3
DMST_1
 10
-172.5842670239371
 20
35.1891266480435
 30
0
 11
-181.197430319236
 21
38.7891266480435
 31
0
 12
0
 22
0
 32
0
 70
0
 13
-190.4842670239371
 23
45.83658311426791
 33
0
 14
-172.5842670239371
 24
99.23658311426797
 34
0
 53
0
  0
DIMENSION
  8
1
  6
CONTINUOUS
 62
2
  2
*D2
  3
DMST_1
 10
-49.11313724319597
 20
159.56701000393
 30
0
 11
-56.1227520986105
 21
163.16701000393
 31
0
 12
0
 22
0
 32
0
 70
0
 13
-44.11313724319595
 23
98.13658311426795
 33
0
 14
-49.11313724319597
 24
154.941318278939
 34
0
 53
0
  0
DIMENSION
  8
1
  6
CONTINUOUS
 62
2
  2
*D3
  3
DMST_2
 10
-42.71313724319586
 20
28.3365831142679
 30
0
 11
-17.01313724319596
 21
30.9365831142679
 31
0
 12
0
 22
0
 32
0
 70
0
  1
2-2.8
 13
-45.51313724319581
 23
44.4365831142679
 33
0
 14
-42.71313724319586
 24
44.4365831142679
 34
0
 53
0
  0
DIMENSION
  8
1
  6
CONTINUOUS
 62
2
  2
*D4
  3
DMST_3
 10
-7.013137243195956
 20
50.9365831142679
 30
0
 11
-9.613137243195951
 21
57.97771314715588
 31
0
 12
0
 22
0
 32
0
 70
0
 13
-39.11313724319595
 23
47.73658311426797
 33
0
 14
-30.21313724319597
 24
50.9365831142679
 34
0
 50
90
 53
0
  0
DIMENSION
  8
1
  6
CONTINUOUS
 62
2
  2
*D5
  3
DMST_3
 10
-29.61313724319595
 20
8.336583114267901
 30
0
 11
-44.11313724319595
 21
10.9365831142679
 31
0
 12
0
 22
0
 32
0
 70
0
  1
29
 13
-58.61313724319595
 23
62.73658311426797
 33
0
 14
-29.61313724319595
 24
62.73658311426797
 34
0
 53
0
  0
DIMENSION
  8
1
  6
CONTINUOUS
 62
2
  2
*D6
  3
DMST_3
 10
-39.11313724319595
 20
18.3365831142679
 30
0
 11
-44.11313724319595
 21
20.9365831142679
 31
0
 12
0
 22
0
 32
0
 70
0
  1
10
 13
-49.11313724319595
 23
47.73658311426797
 33
0
 14
-39.11313724319595
 24
47.73658311426797
 34
0
 53
0
  0
DIMENSION
  8
1
  6
CONTINUOUS
 62
2
  2
*D7
  3
DMST_4
 10
-67.11313724319598
 20
181.236583114268
 30
0
 11
-49.11313724319597
 21
184.986583114268
 31
0
 12
0
 22
0
 32
0
 70
0
 13
-31.11313724319597
 23
148.036583114268
 33
0
 14
-67.11313724319598
 24
148.036583114268
 34
0
 53
0
  0
DIMENSION
  8
1
  6
CONTINUOUS
 62
2
  2
*D8
  3
DMST_4
 10
-5.863137243195951
 20
151.236583114268
 30
0
 11
-9.613137243195951
 21
142.236583114268
 31
0
 12
0
 22
0
 32
0
 70
0
 13
-36.43813724319597
 23
133.236583114268
 33
0
 14
-34.31313724319597
 24
151.236583114268
 34
0
 50
90
 53
0
  0
DIMENSION
  8
1
  6
CONTINUOUS
 62
2
  2
*D9
  3
DMST_4
 10
-5.863137243195951
 20
133.236583114268
 30
0
 11
-9.613137243195951
 21
114.9586365196327
 31
0
 12
0
 22
0
 32
0
 70
0
 13
-31.91313724319596
 23
90.23658311426797
 33
0
 14
-36.43813724319597
 24
133.236583114268
 34
0
 50
90
 53
0
  0
DIMENSION
  8
1
  6
CONTINUOUS
 62
2
  2
*D10
  3
DMST_3
 10
-172.584267023937
 20
181.236583114268
 30
0
 11
-183.334267023937
 21
184.836583114268
 31
0
 12
0
 22
0
 32
0
 70
0
 13
-194.084267023937
 23
151.236583114268
 33
0
 14
-172.584267023937
 24
150.236583114268
 34
0
 53
0
  0
DIMENSION
  8
1
  6
CONTINUOUS
 62
2
  2
*D11
  3
DMST_3
 10
-157.084267023937
 20
181.236583114268
 30
0
 11
-164.834267023937
 21
184.836583114268
 31
0
 12
0
 22
0
 32
0
 70
0
 13
-172.584267023937
 23
150.236583114268
 33
0
 14
-157.084267023937
 24
135.236583114268
 34
0
 53
0
  0
DIMENSION
  8
1
  6
CONTINUOUS
 62
2
  2
*D12
  3
DMST_3
 10
-157.084267023937
 20
161.236583114268
 30
0
 11
-162.334267023937
 21
164.836583114268
 31
0
 12
0
 22
0
 32
0
 70
0
 13
-167.584267023937
 23
136.236583114268
 33
0
 14
-157.084267023937
 24
135.236583114268
 34
0
 53
0
  0
DIMENSION
  8
1
  6
CONTINUOUS
 62
2
  2
*D13
  3
DMST_5
 10
-147.00474411234
 20
130.236583114268
 30
0
 11
-150.60474411234
 21
120.3968588239535
 31
0
 12
0
 22
0
 32
0
 70
0
 13
-157.084267023937
 23
135.236583114268
 33
0
 14
-157.584267023937
 24
130.236583114268
 34
0
 50
90
 53
0
  0
DIMENSION
  8
1
  6
CONTINUOUS
 62
2
  2
*D14
  3
DMST_6
 10
-137.00474411234
 20
130.236583114268
 30
0
 11
-141.40474411234
 21
119.3395125665802
 31
0
 12
0
 22
0
 32
0
 70
0
  1
6
 13
-167.584267023937
 23
136.236583114268
 33
0
 14
-157.584267023937
 24
130.236583114268
 34
0
 50
90
 53
0
  0
DIMENSION
  8
1
  6
CONTINUOUS
 62
2
  2
*D15
  3
DMST_3
 10
-127.00474411234
 20
138.236583114268
 30
0
 11
-130.60474411234
 21
133.236583114268
 31
0
 12
0
 22
0
 32
0
 70
0
  1
10
 13
-169.584267023937
 23
128.236583114268
 33
0
 14
-169.584267023937
 24
138.236583114268
 34
0
 50
90
 53
0
  0
DIMENSION
  8
1
  6
CONTINUOUS
 62
2
  2
*D16
  3
DMST_3
 10
-173.084267023937
 20
171.236583114268
 30
0
 11
-183.289802787562
 21
173.836583114268
 31
0
 12
0
 22
0
 32
0
 70
0
  1
0.5
 13
-172.584267023937
 23
150.236583114268
 33
0
 14
-173.084267023937
 24
151.236583114268
 34
0
 53
0
  0
DIMENSION
  8
1
  6
CONTINUOUS
 62
2
  2
*D17
  3
DMST_3
 10
-34.31313724319598
 20
171.236583114268
 30
0
 11
-49.11313724319597
 21
173.836583114268
 31
0
 12
0
 22
0
 32
0
 70
0
 13
-63.91313724319596
 23
151.736583114268
 33
0
 14
-34.31313724319597
 24
151.736583114268
 34
0
 53
0
  0
DIMENSION
  8
1
  6
CONTINUOUS
 62
2
  2
*D18
  3
DMST_3
 10
-17.01313724319596
 20
147.236583114268
 30
0
 11
-19.61313724319595
 21
140.236583114268
 31
0
 12
0
 22
0
 32
0
 70
0
 13
-36.43813724319597
 23
133.236583114268
 33
0
 14
-29.81313724319597
 24
147.236583114268
 34
0
 50
90
 53
0
  0
DIMENSION
  8
1
  6
CONTINUOUS
 62
2
  2
*D19
  3
DMST_3
 10
-17.01313724319596
 20
133.236583114268
 30
0
 11
-19.61313724319595
 21
117.736583114268
 31
0
 12
0
 22
0
 32
0
 70
0
 13
-29.81313724319597
 23
102.236583114268
 33
0
 14
-36.43813724319597
 24
133.236583114268
 34
0
 50
90
 53
0
  0
INSERT
  8
0
  2
_D18
 10
0
 20
0
 30
0
  0
INSERT
  8
1
  2
*D20
 10
0
 20
0
 30
0
  0
ENDSEC
  0
EOF
