  0
SECTION
  2
HEADER
  9
$ACADVER
  1
AC1009
  9
$INSBASE
 10
0
 20
0
  9
$EXTMIN
 10
-160.748206490425
 20
-57.5999999032661
  9
$EXTMAX
 10
168.4718759407428
 20
123.1201316972079
  9
$LIMMIN
 10
-160.748206490425
 20
-57.5999999032661
  9
$LIMMAX
 10
168.4718759407428
 20
123.1201316972079
  9
$VIEWCTR
 10
10
 20
10
  9
$VIEWSIZE
 40
10
  9
$SNAPMODE
 70
0
  9
$SNAPUNIT
 10
1
 20
1
  9
$SNAPBASE
 10
0
 20
0
  9
$SNAPANG
 50
0
  9
$SNAPSTYLE
 70
0
  9
$SNAPISOPAIR
 70
0
  9
$GRIDMODE
 70
0
  9
$GRIDUNIT
 10
0
 20
0
  9
$ORTHOMODE
 70
0
  9
$REGENMODE
 70
1
  9
$FILLMODE
 70
1
  9
$QTEXTMODE
 70
0
  9
$DRAGMODE
 70
2
  9
$LTSCALE
 40
1
  9
$OSMODE
 70
0
  9
$ATTMODE
 70
1
  9
$TEXTSIZE
 40
3.5
  9
$TRACEWID
 40
0.5
  9
$TEXTSTYLE
  7
STANDARD
  9
$CLAYER
  8
0
  9
$CELTYPE
  6
BYLAYER
  9
$CECOLOR
 62
256
  9
$DIMSCALE
 40
1
  9
$DIMASZ
 40
0.18
  9
$DIMEXO
 40
0.0625
  9
$DIMDLI
 40
0.38
  9
$DIMRND
 40
0
  9
$DIMDLE
 40
0
  9
$DIMEXE
 40
0.18
  9
$DIMTP
 40
0
  9
$DIMTM
 40
0
  9
$DIMTXT
 40
0.18
  9
$DIMCEN
 40
0.09
  9
$DIMTSZ
 40
0
  9
$DIMTOL
 70
0
  9
$DIMLIM
 70
0
  9
$DIMTIH
 70
1
  9
$DIMTOH
 70
1
  9
$DIMSE1
 70
0
  9
$DIMSE2
 70
0
  9
$DIMTAD
 70
0
  9
$DIMZIN
 70
0
  9
$DIMBLK
  1

  9
$DIMASO
 70
1
  9
$DIMSHO
 70
1
  9
$DIMPOST
  1

  9
$DIMAPOST
  1

  9
$DIMALT
 70
0
  9
$DIMALTD
 70
2
  9
$DIMALTF
 40
25.4
  9
$DIMLFAC
 40
1
  9
$DIMTOFL
 70
0
  9
$DIMTVP
 40
0
  9
$DIMTIX
 70
0
  9
$DIMSOXD
 70
0
  9
$DIMSAH
 70
0
  9
$DIMBLK1
  1

  9
$DIMBLK2
  1

  9
$DIMSTYLE
  2
*UNNAMED
  9
$DIMCLRD
 70
0
  9
$DIMCLRE
 70
0
  9
$DIMCLRT
 70
0
  9
$DIMTFAC
 40
1
  9
$DIMGAP
 40
0.09
  9
$LUNITS
 70
2
  9
$LUPREC
 70
4
  9
$AXISMODE
 70
0
  9
$AXISUNIT
 10
0
 20
0
  9
$SKETCHINC
 40
0.1
  9
$FILLETRAD
 40
2
  9
$AUNITS
 70
0
  9
$AUPREC
 70
0
  9
$MENU
  1
ACAD
  9
$ELEVATION
 40
0
  9
$THICKNESS
 40
0
  9
$VIEWDIR
 10
0
 20
0
 30
1
  9
$LIMCHECK
 70
0
  9
$BLIPMODE
 70
1
  9
$CHAMFERA
 40
0
  9
$CHAMFERB
 40
0
  9
$FASTZOOM
 70
1
  9
$SKPOLY
 70
0
  9
$ANGBASE
 50
0
  9
$ANGDIR
 70
0
  9
$PDMODE
 70
0
  9
$PDSIZE
 40
0
  9
$PLINEWID
 40
0
  9
$COORDS
 70
2
  0
ENDSEC
  0
SECTION
  2
TABLES
  0
TABLE
  2
DIMSTYLE
 70
7
  0
DIMSTYLE
  2
DMST_1
 70
0
  3

  4

  5

  6

  7

 40
1
 41
3.2
 42
1
 43
7
 44
1
 45
0
 46
0
 47
0
 48
0
140
3.2
141
0
142
0
143
25.4
144
1
145
0
146
1
147
0.09
 71
0
 72
0
 73
0
 74
0
 75
0
 76
0
 77
1
 78
9
170
0
171
2
172
0
173
0
174
0
175
0
176
2
177
2
178
2
  0
DIMSTYLE
  2
DMST_2
 70
0
  3

  4

  5

  6

  7

 40
1
 41
3.2
 42
1
 43
7
 44
1
 45
0
 46
0
 47
0.2
 48
0.2
140
3.2
141
0
142
0
143
25.4
144
1
145
0
146
0.6
147
0.09
 71
1
 72
0
 73
0
 74
0
 75
0
 76
0
 77
1
 78
9
170
0
171
2
172
0
173
0
174
0
175
0
176
2
177
2
178
2
  0
DIMSTYLE
  2
DMST_3
 70
0
  3

  4

  5

  6

  7

 40
1
 41
3.2
 42
1
 43
7
 44
1
 45
0
 46
0
 47
0
 48
0
140
3.2
141
0
142
0
143
25.4
144
1
145
0
146
1
147
0.09
 71
0
 72
0
 73
1
 74
1
 75
0
 76
0
 77
1
 78
9
170
0
171
2
172
0
173
0
174
0
175
0
176
2
177
2
178
2
  0
DIMSTYLE
  2
DMST_4
 70
0
  3

  4

  5

  6

  7

 40
1
 41
3.2
 42
1
 43
7
 44
1
 45
0
 46
0
 47
0.1
 48
0.1
140
3.2
141
0
142
0
143
25.4
144
1
145
0
146
0.6
147
0.09
 71
1
 72
0
 73
0
 74
0
 75
0
 76
0
 77
1
 78
9
170
0
171
2
172
0
173
0
174
0
175
0
176
2
177
2
178
2
  0
DIMSTYLE
  2
DMST_5
 70
0
  3

  4

  5

  6

  7

 40
1
 41
3.2
 42
1
 43
7
 44
1
 45
0
 46
0
 47
0
 48
0.02
140
3.2
141
0
142
0
143
25.4
144
1
145
0
146
0.6
147
0.09
 71
1
 72
0
 73
0
 74
0
 75
0
 76
0
 77
1
 78
9
170
0
171
2
172
0
173
0
174
0
175
0
176
2
177
2
178
2
  0
DIMSTYLE
  2
DMST_6
 70
0
  3
×0.5
  4

  5

  6

  7

 40
1
 41
3.2
 42
1
 43
7
 44
1
 45
0
 46
0
 47
0
 48
0
140
3.2
141
0
142
0
143
25.4
144
1
145
0
146
1
147
0.09
 71
0
 72
0
 73
0
 74
0
 75
0
 76
0
 77
1
 78
9
170
0
171
2
172
0
173
0
174
0
175
0
176
2
177
2
178
2
  0
DIMSTYLE
  2
DMST_7
 70
0
  3
)
  4

  5

  6

  7

 40
1
 41
3.2
 42
1
 43
7
 44
1
 45
0
 46
0
 47
0
 48
0
140
3.2
141
0
142
0
143
25.4
144
1
145
0
146
1
147
0.09
 71
0
 72
0
 73
0
 74
0
 75
0
 76
0
 77
1
 78
9
170
0
171
2
172
0
173
0
174
0
175
0
176
2
177
2
178
2
  0
ENDTAB
  0
TABLE
  2
LTYPE
 70
9
  0
LTYPE
  2
CONTINUOUS
 70
64
  3
Solid line
 72
65
 73
0
 40
0
  0
LTYPE
  2
BORDER
 70
64
  3
__ __ . __ __ .
 72
65
 73
6
 40
15.16145116459325
 49
4.331843189883787
 49
-2.165921594941894
 49
4.331843189883787
 49
-2.165921594941894
 49
0
 49
-2.165921594941894
  0
LTYPE
  2
CENTER
 70
64
  3
____ _ ____ _
 72
65
 73
4
 40
17.32737275953515
 49
10.82960797470947
 49
-2.165921594941894
 49
2.165921594941894
 49
-2.165921594941894
  0
LTYPE
  2
DASHDOT
 70
64
  3
__ . __ . __ .
 72
65
 73
4
 40
8.663686379767574
 49
4.331843189883787
 49
-2.165921594941894
 49
0
 49
-2.165921594941894
  0
LTYPE
  2
DASHED
 70
64
  3
__ __ __ __ __
 72
65
 73
2
 40
6.49776478482568
 49
4.331843189883787
 49
-2.165921594941894
  0
LTYPE
  2
DIVIDE
 70
64
  3
__ . . __ . . 
 72
65
 73
6
 40
10.82960797470947
 49
4.331843189883787
 49
-2.165921594941894
 49
0
 49
-2.165921594941894
 49
0
 49
-2.165921594941894
  0
LTYPE
  2
DOT
 70
64
  3
..............
 72
65
 73
4
 40
4.331843189883787
 49
0
 49
-2.165921594941894
 49
0
 49
-2.165921594941894
  0
LTYPE
  2
HIDDEN
 70
64
  3
_ _ _ _ _ _ _
 72
65
 73
2
 40
3.24888239241284
 49
2.165921594941894
 49
-1.082960797470947
  0
LTYPE
  2
PHANTOM
 70
64
  3
_____ _ _ _____ _ _ 
 72
65
 73
6
 40
21.65921594941894
 49
10.82960797470947
 49
-2.165921594941894
 49
2.165921594941894
 49
-2.165921594941894
 49
2.165921594941894
 49
-2.165921594941894
  0
ENDTAB
  0
TABLE
  2
LAYER
 70
4
  0
LAYER
  2
1
 70
0
 62
7
  6
CONTINUOUS
  0
LAYER
  2
CONSTRUCTION
 70
0
 62
7
  6
CONTINUOUS
  0
LAYER
  2
0
 70
0
 62
7
  6
CONTINUOUS
  0
ENDTAB
  0
TABLE
  2
STYLE
 70
4
  0
STYLE
  2
STANDARD
 70
0
 40
0
 41
1
 50
0
 71
0
 42
3.5
  3
txt
  4

  0
STYLE
  2
SIMPLEX
 70
0
 40
0
 41
1
 50
0
 71
0
 42
3.5
  3
simplex
  4

  0
STYLE
  2
COMPLEX
 70
0
 40
0
 41
1
 50
0
 71
0
 42
3.5
  3
complex
  4

  0
STYLE
  2
ITALIC
 70
0
 40
0
 41
1
 50
0
 71
0
 42
3.5
  3
italic
  4

  0
ENDTAB
  0
TABLE
  2
VIEW
 70
0
  0
ENDTAB
  0
ENDSEC
  0
SECTION
  2
BLOCKS
  0
BLOCK
  8
1
  2
*D0
 70
1
 10
0
 20
0
 30
0
  0
LINE
  8
1
 62
2
 10
-12.59999999999991
 20
44.9866101935789
 30
0
 11
60.00000000000001
 21
44.9866101935789
 31
0
  0
LINE
  8
1
 62
2
 10
60.00000000000001
 20
6
 30
0
 11
60.00000000000001
 21
45.9866101935789
 31
0
  0
LINE
  8
1
 62
2
 10
-12.59999999999991
 20
26
 30
0
 11
-12.59999999999991
 21
45.9866101935789
 31
0
  0
SOLID
  8
1
 62
2
 10
60.00000000000001
 20
44.9866101935789
 30
0
 11
56.80000000000001
 21
44.5706101935789
 31
0
 12
56.80000000000001
 22
45.40261019357889
 32
0
 13
56.80000000000001
 23
45.40261019357889
 33
0
  0
SOLID
  8
1
 62
2
 10
-12.59999999999991
 20
44.9866101935789
 30
0
 11
-9.399999999999912
 21
45.40261019357889
 31
0
 12
-9.399999999999912
 22
44.5706101935789
 32
0
 13
-9.399999999999912
 23
44.5706101935789
 33
0
  0
TEXT
  8
1
 62
2
 10
19.34000000000005
 20
45.9866101935789
 30
0
 40
3.2
  1
72.6
 41
0.9
  0
ENDBLK
  8
0
  0
BLOCK
  8
1
  2
*D1
 70
1
 10
0
 20
0
 30
0
  0
LINE
  8
1
 62
2
 10
-87.74820649042502
 20
-20.00000000000003
 30
0
 11
-87.74820649042502
 21
0
 31
0
  0
LINE
  8
1
 62
2
 10
-134.748206490425
 20
-20.00000000000003
 30
0
 11
-86.74820649042502
 21
-20.00000000000003
 31
0
  0
LINE
  8
1
 62
2
 10
-159.748206490425
 20
0
 30
0
 11
-86.74820649042502
 21
0
 31
0
  0
SOLID
  8
1
 62
2
 10
-87.74820649042502
 20
0
 30
0
 11
-87.33220649042502
 21
-3.200000000000001
 31
0
 12
-88.16420649042502
 22
-3.200000000000001
 32
0
 13
-88.16420649042502
 23
-3.200000000000001
 33
0
  0
SOLID
  8
1
 62
2
 10
-87.74820649042502
 20
-20.00000000000003
 30
0
 11
-88.16420649042502
 21
-16.80000000000003
 31
0
 12
-87.33220649042502
 22
-16.80000000000003
 32
0
 13
-87.33220649042502
 23
-16.80000000000003
 33
0
  0
TEXT
  8
1
 62
2
 10
-88.74820649042502
 20
-15.62400000000002
 30
0
 40
3.2
  1
20
 50
90
 41
0.9
  0
TEXT
  8
1
 62
2
 10
-89.38820649042502
 20
-9.22400000000002
 30
0
 40
1.92
  1
%%p0.2
 50
90
 41
0.9
  0
ENDBLK
  8
0
  0
BLOCK
  8
1
  2
*D2
 70
1
 10
0
 20
0
 30
0
  0
LINE
  8
1
 62
2
 10
-87.74820649042502
 20
0
 30
0
 11
-87.74820649042502
 21
9.999999999999996
 31
0
  0
LINE
  8
1
 62
2
 10
-87.74820649042502
 20
9.999999999999996
 30
0
 11
-87.74820649042502
 21
22.40307763805193
 31
0
  0
LINE
  8
1
 62
2
 10
-159.748206490425
 20
0
 30
0
 11
-86.74820649042502
 21
0
 31
0
  0
LINE
  8
1
 62
2
 10
-117.748206490425
 20
9.999999999999996
 30
0
 11
-86.74820649042502
 21
9.999999999999996
 31
0
  0
SOLID
  8
1
 62
2
 10
-87.74820649042502
 20
0
 30
0
 11
-88.16420649042502
 21
3.200000000000001
 31
0
 12
-87.33220649042502
 22
3.200000000000001
 32
0
 13
-87.33220649042502
 23
3.200000000000001
 33
0
  0
SOLID
  8
1
 62
2
 10
-87.74820649042502
 20
9.999999999999996
 30
0
 11
-87.33220649042502
 21
6.799999999999995
 31
0
 12
-88.16420649042502
 22
6.799999999999995
 32
0
 13
-88.16420649042502
 23
6.799999999999995
 33
0
  0
TEXT
  8
1
 62
2
 10
-88.74820649042502
 20
12.11507763805193
 30
0
 40
3.2
  1
10
 50
90
 41
0.9
  0
TEXT
  8
1
 62
2
 10
-89.38820649042502
 20
17.55507763805193
 30
0
 40
1.92
  1
%%p0.2
 50
90
 41
0.9
  0
ENDBLK
  8
0
  0
BLOCK
  8
1
  2
*D3
 70
1
 10
0
 20
0
 30
0
  0
LINE
  8
1
 62
2
 10
-97.74820649042501
 20
-6.399999999999999
 30
0
 11
-97.74820649042501
 21
0
 31
0
  0
LINE
  8
1
 62
2
 10
-97.74820649042501
 20
0
 30
0
 11
-97.74820649042501
 21
8.000000000000004
 31
0
  0
LINE
  8
1
 62
2
 10
-97.74820649042501
 20
8.000000000000004
 30
0
 11
-97.74820649042501
 21
21.19705733913622
 31
0
  0
LINE
  8
1
 62
2
 10
-159.748206490425
 20
0
 30
0
 11
-96.74820649042501
 21
0
 31
0
  0
LINE
  8
1
 62
2
 10
-140.748206490425
 20
8.000000000000004
 30
0
 11
-96.74820649042501
 21
8.000000000000004
 31
0
  0
SOLID
  8
1
 62
2
 10
-97.74820649042501
 20
0
 30
0
 11
-97.33220649042501
 21
-3.200000000000001
 31
0
 12
-98.164206490425
 22
-3.200000000000001
 32
0
 13
-98.164206490425
 23
-3.200000000000001
 33
0
  0
SOLID
  8
1
 62
2
 10
-97.74820649042501
 20
8.000000000000004
 30
0
 11
-98.164206490425
 21
11.20000000000001
 31
0
 12
-97.33220649042501
 22
11.20000000000001
 32
0
 13
-97.33220649042501
 23
11.20000000000001
 33
0
  0
TEXT
  8
1
 62
2
 10
-98.74820649042501
 20
12.82905733913622
 30
0
 40
3.2
  1
8
 50
90
 41
0.9
  0
TEXT
  8
1
 62
2
 10
-99.38820649042501
 20
16.34905733913622
 30
0
 40
1.92
  1
%%p0.2
 50
90
 41
0.9
  0
ENDBLK
  8
0
  0
BLOCK
  8
1
  2
*D4
 70
1
 10
0
 20
0
 30
0
  0
LINE
  8
1
 62
2
 10
-149.748206490425
 20
35
 30
0
 11
-132.748206490425
 21
35
 31
0
  0
LINE
  8
1
 62
2
 10
-149.748206490425
 20
8.000000000000011
 30
0
 11
-149.748206490425
 21
36
 31
0
  0
LINE
  8
1
 62
2
 10
-132.748206490425
 20
-26.99999999999999
 30
0
 11
-132.748206490425
 21
36
 31
0
  0
SOLID
  8
1
 62
2
 10
-149.748206490425
 20
35
 30
0
 11
-146.548206490425
 21
35.416
 31
0
 12
-146.548206490425
 22
34.584
 32
0
 13
-146.548206490425
 23
34.584
 33
0
  0
SOLID
  8
1
 62
2
 10
-132.748206490425
 20
35
 30
0
 11
-135.948206490425
 21
34.584
 31
0
 12
-135.948206490425
 22
35.416
 32
0
 13
-135.948206490425
 23
35.416
 33
0
  0
TEXT
  8
1
 62
2
 10
-146.392206490425
 20
36
 30
0
 40
3.2
  1
17
 41
0.9
  0
TEXT
  8
1
 62
2
 10
-140.952206490425
 20
36.64
 30
0
 40
1.92
  1
%%p0.2
 41
0.9
  0
ENDBLK
  8
0
  0
BLOCK
  8
1
  2
*D5
 70
1
 10
0
 20
0
 30
0
  0
LINE
  8
1
 62
2
 10
-132.748206490425
 20
35
 30
0
 11
-115.748206490425
 21
35
 31
0
  0
LINE
  8
1
 62
2
 10
-132.748206490425
 20
-26.99999999999999
 30
0
 11
-132.748206490425
 21
36
 31
0
  0
LINE
  8
1
 62
2
 10
-115.748206490425
 20
8
 30
0
 11
-115.748206490425
 21
36
 31
0
  0
SOLID
  8
1
 62
2
 10
-132.748206490425
 20
35
 30
0
 11
-129.548206490425
 21
35.416
 31
0
 12
-129.548206490425
 22
34.584
 32
0
 13
-129.548206490425
 23
34.584
 33
0
  0
SOLID
  8
1
 62
2
 10
-115.748206490425
 20
35
 30
0
 11
-118.948206490425
 21
34.584
 31
0
 12
-118.948206490425
 22
35.416
 32
0
 13
-118.948206490425
 23
35.416
 33
0
  0
TEXT
  8
1
 62
2
 10
-129.392206490425
 20
36
 30
0
 40
3.2
  1
17
 41
0.9
  0
TEXT
  8
1
 62
2
 10
-123.952206490425
 20
36.64
 30
0
 40
1.92
  1
%%p0.2
 41
0.9
  0
ENDBLK
  8
0
  0
BLOCK
  8
1
  2
*D6
 70
1
 10
0
 20
0
 30
0
  0
LINE
  8
1
 62
2
 10
-157.748206490425
 20
45
 30
0
 11
-107.748206490425
 21
45
 31
0
  0
LINE
  8
1
 62
2
 10
-157.748206490425
 20
1.000000000000014
 30
0
 11
-157.748206490425
 21
46
 31
0
  0
LINE
  8
1
 62
2
 10
-107.748206490425
 20
1.000000000000014
 30
0
 11
-107.748206490425
 21
46
 31
0
  0
SOLID
  8
1
 62
2
 10
-157.748206490425
 20
45
 30
0
 11
-154.548206490425
 21
45.416
 31
0
 12
-154.548206490425
 22
44.584
 32
0
 13
-154.548206490425
 23
44.584
 33
0
  0
SOLID
  8
1
 62
2
 10
-107.748206490425
 20
45
 30
0
 11
-110.948206490425
 21
44.584
 31
0
 12
-110.948206490425
 22
45.416
 32
0
 13
-110.948206490425
 23
45.416
 33
0
  0
TEXT
  8
1
 62
2
 10
-133.228206490425
 20
46
 30
0
 40
3.2
  1
50
 41
0.9
  0
TEXT
  8
1
 62
2
 10
-137.068206490425
 20
46
 30
0
 40
3.2
  1
%%c
 41
0.9
  0
ENDBLK
  8
0
  0
BLOCK
  8
1
  2
*D7
 70
1
 10
0
 20
0
 30
0
  0
LINE
  8
1
 62
2
 10
-12.5999999999999
 20
35
 30
0
 11
18
 21
35
 31
0
  0
LINE
  8
1
 62
2
 10
18
 20
18.3778068896783
 30
0
 11
18
 21
36
 31
0
  0
LINE
  8
1
 62
2
 10
-12.5999999999999
 20
26
 30
0
 11
-12.5999999999999
 21
36
 31
0
  0
SOLID
  8
1
 62
2
 10
-12.5999999999999
 20
35
 30
0
 11
-9.399999999999894
 21
35.416
 31
0
 12
-9.399999999999894
 22
34.584
 32
0
 13
-9.399999999999894
 23
34.584
 33
0
  0
SOLID
  8
1
 62
2
 10
18
 20
35
 30
0
 11
14.8
 21
34.584
 31
0
 12
14.8
 22
35.416
 32
0
 13
14.8
 23
35.416
 33
0
  0
TEXT
  8
1
 62
2
 10
-1.659999999999954
 20
36
 30
0
 40
3.2
  1
30.6
 41
0.9
  0
ENDBLK
  8
0
  0
BLOCK
  8
1
  2
*D8
 70
1
 10
0
 20
0
 30
0
  0
LINE
  8
1
 62
2
 10
-67.60000000000005
 20
2
 30
0
 11
-67.60000000000005
 21
14
 31
0
  0
LINE
  8
1
 62
2
 10
-67.60000000000005
 20
14
 30
0
 11
-67.60000000000005
 21
30.8308775561075
 31
0
  0
LINE
  8
1
 62
2
 10
-17.60000000000009
 20
2
 30
0
 11
-68.60000000000005
 21
2
 31
0
  0
LINE
  8
1
 62
2
 10
-17.60000000000009
 20
14
 30
0
 11
-68.60000000000005
 21
14
 31
0
  0
SOLID
  8
1
 62
2
 10
-67.60000000000005
 20
2
 30
0
 11
-68.01600000000005
 21
5.200000000000001
 31
0
 12
-67.18400000000005
 22
5.200000000000001
 32
0
 13
-67.18400000000005
 23
5.200000000000001
 33
0
  0
SOLID
  8
1
 62
2
 10
-67.60000000000005
 20
14
 30
0
 11
-67.18400000000005
 21
10.8
 31
0
 12
-68.01600000000005
 22
10.8
 32
0
 13
-68.01600000000005
 23
10.8
 33
0
  0
TEXT
  8
1
 62
2
 10
-68.60000000000005
 20
21.1188775561075
 30
0
 40
3.2
  1
12
 50
90
 41
0.9
  0
TEXT
  8
1
 62
2
 10
-69.24000000000005
 20
26.5588775561075
 30
0
 40
1.92
  1
%%p0.1
 50
90
 41
0.9
  0
TEXT
  8
1
 62
2
 10
-68.60000000000005
 20
17.2788775561075
 30
0
 40
3.2
  1
%%c
 50
90
 41
0.9
  0
ENDBLK
  8
0
  0
BLOCK
  8
1
  2
*D9
 70
1
 10
0
 20
0
 30
0
  0
LINE
  8
1
 62
2
 10
-57.6
 20
-1.399999999999992
 30
0
 11
-57.6
 21
5
 31
0
  0
LINE
  8
1
 62
2
 10
-57.6
 20
5
 30
0
 11
-57.6
 21
11
 31
0
  0
LINE
  8
1
 62
2
 10
-57.6
 20
11
 30
0
 11
-57.6
 21
31.68265290341061
 31
0
  0
LINE
  8
1
 62
2
 10
-38.60000000000003
 20
5
 30
0
 11
-58.6
 21
5
 31
0
  0
LINE
  8
1
 62
2
 10
-26.60000000000007
 20
11
 30
0
 11
-58.6
 21
11
 31
0
  0
SOLID
  8
1
 62
2
 10
-57.6
 20
5
 30
0
 11
-57.18400000000001
 21
1.799999999999999
 31
0
 12
-58.01600000000001
 22
1.799999999999999
 32
0
 13
-58.01600000000001
 23
1.799999999999999
 33
0
  0
SOLID
  8
1
 62
2
 10
-57.6
 20
11
 30
0
 11
-58.01600000000001
 21
14.2
 31
0
 12
-57.18400000000001
 22
14.2
 32
0
 13
-57.18400000000001
 23
14.2
 33
0
  0
TEXT
  8
1
 62
2
 10
-59.4
 20
21.39465290341061
 30
0
 40
3.2
  1
6
 50
90
 41
0.9
  0
TEXT
  8
1
 62
2
 10
-61.48
 20
24.91465290341061
 30
0
 40
1.92
  1
 0
 50
90
 41
0.9
  0
TEXT
  8
1
 62
2
 10
-58.6
 20
24.91465290341061
 30
0
 40
1.92
  1
-0.02
 50
90
 41
0.9
  0
TEXT
  8
1
 62
2
 10
-59.4
 20
17.55465290341061
 30
0
 40
3.2
  1
%%c
 50
90
 41
0.9
  0
ENDBLK
  8
0
  0
BLOCK
  8
1
  2
*D10
 70
1
 10
0
 20
0
 30
0
  0
LINE
  8
1
 62
2
 10
-47.60000000000011
 20
-1.400000000000002
 30
0
 11
-47.60000000000011
 21
5
 31
0
  0
LINE
  8
1
 62
2
 10
-47.60000000000011
 20
5
 30
0
 11
-47.60000000000011
 21
10.5
 31
0
  0
LINE
  8
1
 62
2
 10
-47.60000000000011
 20
10.5
 30
0
 11
-47.60000000000011
 21
30.0538793078661
 31
0
  0
LINE
  8
1
 62
2
 10
-38.60000000000008
 20
5
 30
0
 11
-48.60000000000011
 21
5
 31
0
  0
LINE
  8
1
 62
2
 10
-38.60000000000008
 20
10.5
 30
0
 11
-48.60000000000011
 21
10.5
 31
0
  0
SOLID
  8
1
 62
2
 10
-47.60000000000011
 20
5
 30
0
 11
-47.18400000000011
 21
1.799999999999999
 31
0
 12
-48.01600000000011
 22
1.799999999999999
 32
0
 13
-48.01600000000011
 23
1.799999999999999
 33
0
  0
SOLID
  8
1
 62
2
 10
-47.60000000000011
 20
10.5
 30
0
 11
-48.01600000000011
 21
13.7
 31
0
 12
-47.18400000000011
 22
13.7
 32
0
 13
-47.18400000000011
 23
13.7
 33
0
  0
TEXT
  8
1
 62
2
 10
-48.6000000000001
 20
17.7658793078661
 30
0
 40
3.2
  1
5.5
 50
90
 41
0.9
  0
TEXT
  8
1
 62
2
 10
-49.2400000000001
 20
25.2058793078661
 30
0
 40
1.92
  1
%%p0.2
 50
90
 41
0.9
  0
ENDBLK
  8
0
  0
BLOCK
  8
1
  2
*D11
 70
1
 10
0
 20
0
 30
0
  0
LINE
  8
1
 62
2
 10
-37.60000000000011
 20
45
 30
0
 11
-12.59999999999995
 21
45
 31
0
  0
LINE
  8
1
 62
2
 10
-12.59999999999995
 20
26
 30
0
 11
-12.59999999999995
 21
46
 31
0
  0
LINE
  8
1
 62
2
 10
-37.60000000000011
 20
11.5
 30
0
 11
-37.60000000000011
 21
46
 31
0
  0
SOLID
  8
1
 62
2
 10
-37.60000000000011
 20
45
 30
0
 11
-34.40000000000011
 21
45.416
 31
0
 12
-34.40000000000011
 22
44.584
 32
0
 13
-34.40000000000011
 23
44.584
 33
0
  0
SOLID
  8
1
 62
2
 10
-12.59999999999995
 20
45
 30
0
 11
-15.79999999999995
 21
44.584
 31
0
 12
-15.79999999999995
 22
45.416
 32
0
 13
-15.79999999999995
 23
45.416
 33
0
  0
TEXT
  8
1
 62
2
 10
-27.50000000000002
 20
46
 30
0
 40
3.2
  1
25
 41
0.9
  0
ENDBLK
  8
0
  0
BLOCK
  8
1
  2
*D12
 70
1
 10
0
 20
0
 30
0
  0
LINE
  8
1
 62
2
 10
-12.59999999999992
 20
35
 30
0
 11
-6.199999999999914
 21
35
 31
0
  0
LINE
  8
1
 62
2
 10
-16.60000000000012
 20
35
 30
0
 11
-23.00000000000012
 21
35
 31
0
  0
LINE
  8
1
 62
2
 10
-16.60000000000012
 20
35
 30
0
 11
-12.59999999999992
 21
35
 31
0
  0
LINE
  8
1
 62
2
 10
-12.59999999999992
 20
26
 30
0
 11
-12.59999999999992
 21
36
 31
0
  0
LINE
  8
1
 62
2
 10
-16.60000000000012
 20
15
 30
0
 11
-16.60000000000012
 21
36
 31
0
  0
SOLID
  8
1
 62
2
 10
-16.60000000000012
 20
35
 30
0
 11
-19.80000000000012
 21
34.584
 31
0
 12
-19.80000000000012
 22
35.416
 32
0
 13
-19.80000000000012
 23
35.416
 33
0
  0
SOLID
  8
1
 62
2
 10
-12.59999999999992
 20
35
 30
0
 11
-9.399999999999919
 21
35.416
 31
0
 12
-9.399999999999919
 22
34.584
 32
0
 13
-9.399999999999919
 23
34.584
 33
0
  0
TEXT
  8
1
 62
2
 10
-15.56000000000002
 20
36
 30
0
 40
3.2
  1
4
 41
0.9
  0
ENDBLK
  8
0
  0
BLOCK
  8
1
  2
*D13
 70
1
 10
0
 20
0
 30
0
  0
LINE
  8
1
 62
2
 10
-37.60000000000011
 20
35
 30
0
 11
-25.60000000000015
 21
35
 31
0
  0
LINE
  8
1
 62
2
 10
-25.60000000000015
 20
11.5
 30
0
 11
-25.60000000000015
 21
36
 31
0
  0
LINE
  8
1
 62
2
 10
-37.60000000000011
 20
11.5
 30
0
 11
-37.60000000000011
 21
36
 31
0
  0
SOLID
  8
1
 62
2
 10
-37.60000000000011
 20
35
 30
0
 11
-34.40000000000011
 21
35.416
 31
0
 12
-34.40000000000011
 22
34.584
 32
0
 13
-34.40000000000011
 23
34.584
 33
0
  0
SOLID
  8
1
 62
2
 10
-25.60000000000015
 20
35
 30
0
 11
-28.80000000000015
 21
34.584
 31
0
 12
-28.80000000000015
 22
35.416
 32
0
 13
-28.80000000000015
 23
35.416
 33
0
  0
TEXT
  8
1
 62
2
 10
-33.52000000000014
 20
36
 30
0
 40
3.2
  1
12
 41
0.9
  0
ENDBLK
  8
0
  0
BLOCK
  8
1
  2
*D14
 70
1
 10
0
 20
0
 30
0
  0
LINE
  8
1
 62
2
 10
76.50440636242246
 20
83.49241090727359
 30
0
 11
76.50440636242246
 21
89.8924109072736
 31
0
  0
LINE
  8
1
 62
2
 10
76.50440636242246
 20
89.8924109072736
 30
0
 11
76.50440636242246
 21
92.69241090727358
 31
0
  0
LINE
  8
1
 62
2
 10
76.50440636242246
 20
92.69241090727358
 30
0
 11
76.50440636242246
 21
123.1201316972079
 31
0
  0
LINE
  8
1
 62
2
 10
64.30000000000001
 20
89.8924109072736
 30
0
 11
77.50440636242246
 21
89.8924109072736
 31
0
  0
LINE
  8
1
 62
2
 10
64.30000000000001
 20
92.69241090727358
 30
0
 11
77.50440636242246
 21
92.69241090727358
 31
0
  0
SOLID
  8
1
 62
2
 10
76.50440636242246
 20
92.69241090727358
 30
0
 11
76.08840636242246
 21
95.89241090727359
 31
0
 12
76.92040636242246
 22
95.89241090727359
 32
0
 13
76.92040636242246
 23
95.89241090727359
 33
0
  0
SOLID
  8
1
 62
2
 10
76.50440636242246
 20
89.8924109072736
 30
0
 11
76.92040636242246
 21
86.6924109072736
 31
0
 12
76.08840636242246
 22
86.6924109072736
 32
0
 13
76.08840636242246
 23
86.6924109072736
 33
0
  0
TEXT
  8
1
 62
2
 10
75.50440636242243
 20
106.075425814855
 30
0
 40
3.2
  1
2.8
 50
90
 41
0.9
  0
TEXT
  8
1
 62
2
 10
75.50440636242243
 20
98.35777875603145
 30
0
 40
3.2
  1
２－
 50
90
 41
0.9
  0
TEXT
  8
1
 62
2
 10
75.50440636242243
 20
113.515425814855
 30
0
 40
3.2
  1
×0.5
 50
90
 41
0.9
  0
ENDBLK
  8
0
  0
BLOCK
  8
1
  2
*D15
 70
1
 10
0
 20
0
 30
0
  0
LINE
  8
1
 62
2
 10
60
 20
35.0802795370828
 30
0
 11
72.0241291613778
 21
35.0802795370828
 31
0
  0
LINE
  8
1
 62
2
 10
56.80000000000001
 20
35.0802795370828
 30
0
 11
60
 21
35.0802795370828
 31
0
  0
LINE
  8
1
 62
2
 10
50.40000000000001
 20
35.0802795370828
 30
0
 11
56.80000000000001
 21
35.0802795370828
 31
0
  0
LINE
  8
1
 62
2
 10
60
 20
5.999999999999996
 30
0
 11
60
 21
36.0802795370828
 31
0
  0
LINE
  8
1
 62
2
 10
56.80000000000001
 20
14.38459935896481
 30
0
 11
56.80000000000001
 21
36.0802795370828
 31
0
  0
SOLID
  8
1
 62
2
 10
56.80000000000001
 20
35.0802795370828
 30
0
 11
53.60000000000001
 21
34.6642795370828
 31
0
 12
53.60000000000001
 22
35.49627953708279
 32
0
 13
53.60000000000001
 23
35.49627953708279
 33
0
  0
SOLID
  8
1
 62
2
 10
60
 20
35.0802795370828
 30
0
 11
63.2
 21
35.49627953708279
 31
0
 12
63.2
 22
34.6642795370828
 32
0
 13
63.2
 23
34.6642795370828
 33
0
  0
TEXT
  8
1
 62
2
 10
66.1841291613778
 20
36.0802795370828
 30
0
 40
3.2
  1
3.2
 41
0.9
  0
ENDBLK
  8
0
  0
BLOCK
  8
1
  2
*D16
 70
1
 10
0
 20
0
 30
0
  0
LINE
  8
1
 62
2
 10
73.79999999999998
 20
-5
 30
0
 11
73.79999999999998
 21
5
 31
0
  0
LINE
  8
1
 62
2
 10
61
 20
5
 30
0
 11
74.79999999999998
 21
5
 31
0
  0
LINE
  8
1
 62
2
 10
61
 20
-5
 30
0
 11
74.79999999999998
 21
-5
 31
0
  0
SOLID
  8
1
 62
2
 10
73.79999999999998
 20
5
 30
0
 11
74.21599999999998
 21
1.799999999999999
 31
0
 12
73.38399999999999
 22
1.799999999999999
 32
0
 13
73.38399999999999
 23
1.799999999999999
 33
0
  0
SOLID
  8
1
 62
2
 10
73.79999999999998
 20
-5
 30
0
 11
73.38399999999999
 21
-1.799999999999999
 31
0
 12
74.21599999999998
 22
-1.799999999999999
 32
0
 13
74.21599999999998
 23
-1.799999999999999
 33
0
  0
TEXT
  8
1
 62
2
 10
72.79999999999998
 20
0
 30
0
 40
3.2
  1
10
 50
90
 41
0.9
  0
TEXT
  8
1
 62
2
 10
72.79999999999998
 20
-3.84
 30
0
 40
3.2
  1
%%c
 50
90
 41
0.9
  0
ENDBLK
  8
0
  0
BLOCK
  8
1
  2
*D17
 70
1
 10
0
 20
0
 30
0
  0
LINE
  8
1
 62
2
 10
84.61964094611339
 20
-14.5
 30
0
 11
84.61964094611339
 21
14.5
 31
0
  0
LINE
  8
1
 62
2
 10
46
 20
-14.5
 30
0
 11
85.61964094611339
 21
-14.5
 31
0
  0
LINE
  8
1
 62
2
 10
46
 20
14.5
 30
0
 11
85.61964094611339
 21
14.5
 31
0
  0
SOLID
  8
1
 62
2
 10
84.61964094611339
 20
14.5
 30
0
 11
85.03564094611339
 21
11.3
 31
0
 12
84.2036409461134
 22
11.3
 32
0
 13
84.2036409461134
 23
11.3
 33
0
  0
SOLID
  8
1
 62
2
 10
84.61964094611339
 20
-14.5
 30
0
 11
84.2036409461134
 21
-11.3
 31
0
 12
85.03564094611339
 22
-11.3
 32
0
 13
85.03564094611339
 23
-11.3
 33
0
  0
TEXT
  8
1
 62
2
 10
83.61964094611339
 20
-0.4800000000000004
 30
0
 40
3.2
  1
29
 50
90
 41
0.9
  0
TEXT
  8
1
 62
2
 10
83.61964094611339
 20
-4.32
 30
0
 40
3.2
  1
%%c
 50
90
 41
0.9
  0
ENDBLK
  8
0
  0
BLOCK
  8
1
  2
*D18
 70
1
 10
0
 20
0
 30
0
  0
LINE
  8
1
 62
2
 10
56.80000000000001
 20
110.1924109072735
 30
0
 11
63.80000000000001
 21
110.1924109072735
 31
0
  0
LINE
  8
1
 62
2
 10
56.80000000000001
 20
110.1924109072735
 30
0
 11
50.40000000000001
 21
110.1924109072735
 31
0
  0
LINE
  8
1
 62
2
 10
63.80000000000001
 20
110.1924109072735
 30
0
 11
70.20000000000002
 21
110.1924109072735
 31
0
  0
LINE
  8
1
 62
2
 10
56.80000000000001
 20
106.1924109072735
 30
0
 11
56.80000000000001
 21
111.1924109072735
 31
0
  0
LINE
  8
1
 62
2
 10
63.80000000000001
 20
93.19241090727361
 30
0
 11
63.80000000000001
 21
111.1924109072735
 31
0
  0
SOLID
  8
1
 62
2
 10
63.80000000000001
 20
110.1924109072735
 30
0
 11
67.00000000000001
 21
110.6084109072735
 31
0
 12
67.00000000000001
 22
109.7764109072735
 32
0
 13
67.00000000000001
 23
109.7764109072735
 33
0
  0
SOLID
  8
1
 62
2
 10
56.80000000000001
 20
110.1924109072735
 30
0
 11
53.60000000000001
 21
109.7764109072735
 31
0
 12
53.60000000000001
 22
110.6084109072735
 32
0
 13
53.60000000000001
 23
110.6084109072735
 33
0
  0
TEXT
  8
1
 62
2
 10
59.34000000000001
 20
111.1924109072735
 30
0
 40
3.2
  1
7
 41
0.9
  0
ENDBLK
  8
0
  0
BLOCK
  8
1
  2
*D19
 70
1
 10
0
 20
0
 30
0
  0
LINE
  8
1
 62
2
 10
155.4768407529399
 20
-12.29980776764609
 30
0
 11
155.4768407529399
 21
12.29980776764609
 31
0
  0
LINE
  8
1
 62
2
 10
134.6699999999999
 20
-12.29980776764609
 30
0
 11
156.4768407529399
 21
-12.29980776764609
 31
0
  0
LINE
  8
1
 62
2
 10
134.6699999999999
 20
12.29980776764609
 30
0
 11
156.4768407529399
 21
12.29980776764609
 31
0
  0
SOLID
  8
1
 62
2
 10
155.4768407529399
 20
12.29980776764609
 30
0
 11
155.8928407529399
 21
9.099807767646089
 31
0
 12
155.0608407529399
 22
9.099807767646089
 32
0
 13
155.0608407529399
 23
9.099807767646089
 33
0
  0
SOLID
  8
1
 62
2
 10
155.4768407529399
 20
-12.29980776764609
 30
0
 11
155.0608407529399
 21
-9.099807767646089
 31
0
 12
155.8928407529399
 22
-9.099807767646089
 32
0
 13
155.8928407529399
 23
-9.099807767646089
 33
0
  0
TEXT
  8
1
 62
2
 10
154.4768407529399
 20
-4.36
 30
0
 40
3.2
  1
24.6
 50
90
 41
0.9
  0
TEXT
  8
1
 62
2
 10
154.4768407529399
 20
-6.44
 30
0
 40
3.2
  1
(
 50
90
 41
0.9
  0
TEXT
  8
1
 62
2
 10
154.4768407529399
 20
5.96
 30
0
 40
3.2
  1
)
 50
90
 41
0.9
  0
ENDBLK
  8
0
  0
BLOCK
  8
1
  2
*D20
 70
1
 10
0
 20
0
 30
0
  0
LINE
  8
1
 62
2
 10
-131.6496737253423
 20
-21.67129463711217
 30
0
 11
-123.1691835987091
 21
-34.5734110957482
 31
0
  0
LINE
  8
1
 62
2
 10
-123.1691835987091
 20
-34.5734110957482
 30
0
 11
-74.76918359870913
 21
-34.5734110957482
 31
0
  0
SOLID
  8
1
 62
2
 10
-131.6496737253423
 20
-21.67129463711217
 30
0
 11
-129.5443920166907
 21
-24.11687124135438
 31
0
 12
-130.2396505857293
 22
-24.57386087162878
 32
0
 13
-130.2396505857293
 23
-24.57386087162878
 33
0
  0
TEXT
  8
1
 62
2
 10
-108.6891835987091
 20
-33.5734110957482
 30
0
 40
3.2
  1
4
 41
0.9
  0
TEXT
  8
1
 62
2
 10
-117.9691835987091
 20
-33.5734110957482
 30
0
 40
3.2
  1
3-M
 41
0.9
  0
TEXT
  8
1
 62
2
 10
-105.1691835987091
 20
-33.5734110957482
 30
0
 40
3.2
  1
DEPTH 5MAX
 41
0.9
  0
ENDBLK
  8
0
  0
BLOCK
  8
1
  2
*D21
 70
1
 10
0
 20
0
 30
0
  0
LINE
  8
1
 62
2
 10
62.68108400234502
 20
90.82897268792097
 30
0
 11
72.85361718422433
 21
78.45810265636695
 31
0
  0
LINE
  8
1
 62
2
 10
72.85361718422433
 20
78.45810265636695
 30
0
 11
86.77361718422441
 21
78.45810265636695
 31
0
  0
SOLID
  8
1
 62
2
 10
62.68108400234502
 20
90.82897268792097
 30
0
 11
65.0348491802696
 21
88.62152042633304
 31
0
 12
64.39221484943401
 22
88.09308394308127
 32
0
 13
64.39221484943401
 23
88.09308394308127
 33
0
  0
TEXT
  8
1
 62
2
 10
81.8936171842244
 20
79.45810265636695
 30
0
 40
3.2
  1
1.2
 41
0.9
  0
TEXT
  8
1
 62
2
 10
78.05361718422439
 20
79.45810265636695
 30
0
 40
3.2
  1
%%c
 41
0.9
  0
ENDBLK
  8
0
  0
ENDSEC
  0
SECTION
  2
ENTITIES
  0
LINE
  8
1
 62
3
 10
14.09999999999991
 20
19.37780688967831
 30
0
 11
16
 21
19.37780688967831
 31
0
  0
LINE
  8
1
 62
3
 10
16
 20
-22.22514344369849
 30
0
 11
14.09999999999991
 21
-22.22514344369849
 31
0
  0
LINE
  8
1
 62
3
 10
12.10000000000002
 20
-25
 30
0
 11
12.09999999999991
 21
25
 31
0
  0
LINE
  8
1
 62
3
 10
10.5
 20
-25
 30
0
 11
10.5
 21
25
 31
0
  0
LINE
  8
1
 62
3
 10
12.10000000000002
 20
-25
 30
0
 11
10.5
 21
-25
 31
0
  0
LINE
  8
1
 62
3
 10
10.5
 20
25
 30
0
 11
12.09999999999991
 21
25
 31
0
  0
LINE
  8
1
 62
3
 10
18
 20
17.37780688967831
 30
0
 11
18
 21
-20.22514344369849
 31
0
  0
LINE
  8
1
 62
1
 10
-15.59999999999991
 20
0
 30
0
 11
20.59999999999991
 21
0
 31
0
  0
LINE
  8
1
 62
1
 10
-40.60000000000002
 20
8
 30
0
 11
-5.599999999999909
 21
8
 31
0
  0
LINE
  8
1
 62
3
 10
-16.60000000000014
 20
2
 30
0
 11
-12.59999999999991
 21
2
 31
0
  0
LINE
  8
1
 62
3
 10
-12.59999999999991
 20
14
 30
0
 11
-16.60000000000014
 21
14
 31
0
  0
LINE
  8
1
 62
3
 10
-16.60000000000014
 20
14
 30
0
 11
-16.60000000000014
 21
2
 31
0
  0
LINE
  8
1
 62
3
 10
-12.59999999999991
 20
25
 30
0
 11
-12.59999999999991
 21
-25
 31
0
  0
LINE
  8
1
 62
3
 10
-12.59999999999991
 20
-25
 30
0
 11
9
 21
-25
 31
0
  0
LINE
  8
1
 62
3
 10
-8.599999999999909
 20
-25
 30
0
 11
-8.599999999999909
 21
25
 31
0
  0
LINE
  8
1
 62
3
 10
9
 20
25
 30
0
 11
-12.59999999999991
 21
25
 31
0
  0
LINE
  8
1
 62
3
 10
-16.60000000000014
 20
11
 30
0
 11
-25.60000000000014
 21
11
 31
0
  0
LINE
  8
1
 62
3
 10
-25.60000000000014
 20
10.5
 30
0
 11
-37.60000000000002
 21
10.5
 31
0
  0
LINE
  8
1
 62
3
 10
-37.60000000000002
 20
10.5
 30
0
 11
-37.60000000000002
 21
5
 31
0
  0
LINE
  8
1
 62
3
 10
-25.60000000000014
 20
11
 30
0
 11
-25.60000000000014
 21
10.5
 31
0
  0
LINE
  8
1
 62
3
 10
-37.60000000000002
 20
5
 30
0
 11
-16.60000000000014
 21
5
 31
0
  0
LINE
  8
1
 62
3
 10
-134.4065188856027
 20
10.5
 30
0
 11
-131.0898940952474
 21
10.5
 31
0
  0
LINE
  8
1
 62
1
 10
-160.748206490425
 20
-1.776356839400251e-015
 30
0
 11
-104.748206490425
 21
-1.776356839400251e-015
 31
0
  0
LINE
  8
1
 62
1
 10
-118.248206490425
 20
-19
 30
0
 11
-118.248206490425
 21
-10
 31
0
  0
LINE
  8
1
 62
1
 10
-122.748206490425
 20
-14.5
 30
0
 11
-113.748206490425
 21
-14.5
 31
0
  0
LINE
  8
1
 62
1
 10
-118.748206490425
 20
10
 30
0
 11
-112.748206490425
 21
10
 31
0
  0
LINE
  8
1
 62
1
 10
-119.248206490425
 20
11.5
 30
0
 11
-119.248206490425
 21
20.49999999999998
 31
0
  0
LINE
  8
1
 62
1
 10
-123.748206490425
 20
16
 30
0
 11
-114.748206490425
 21
16
 31
0
  0
LINE
  8
1
 62
1
 10
-152.748206490425
 20
-4.500000000000002
 30
0
 11
-152.748206490425
 21
4.5
 31
0
  0
LINE
  8
1
 62
1
 10
-115.748206490425
 20
7
 30
0
 11
-115.748206490425
 21
13
 31
0
  0
LINE
  8
1
 62
1
 10
-149.748206490425
 20
7
 30
0
 11
-149.748206490425
 21
13
 31
0
  0
LINE
  8
1
 62
1
 10
-152.748206490425
 20
10
 30
0
 11
-146.748206490425
 21
10
 31
0
  0
LINE
  8
1
 62
1
 10
-135.748206490425
 20
-20.00000000000004
 30
0
 11
-129.748206490425
 21
-20.00000000000004
 31
0
  0
LINE
  8
1
 62
1
 10
-132.748206490425
 20
28
 30
0
 11
-132.748206490425
 21
-28
 31
0
  0
LINE
  8
1
 62
1
 10
-141.748206490425
 20
8
 30
0
 11
-123.748206490425
 21
8
 31
0
  0
LINE
  8
1
 62
3
 10
-118.2423241374838
 20
16.3
 30
0
 11
-117.848206490425
 21
16.3
 31
0
  0
LINE
  8
1
 62
3
 10
-118.2423241374838
 20
15.7
 30
0
 11
-117.848206490425
 21
15.7
 31
0
  0
LINE
  8
1
 62
3
 10
-118.948206490425
 20
15
 30
0
 11
-118.948206490425
 21
14.60000000000001
 31
0
  0
LINE
  8
1
 62
3
 10
-119.448206490425
 20
17.5
 30
0
 11
-119.048206490425
 21
17.5
 31
0
  0
LINE
  8
1
 62
3
 10
-119.448206490425
 20
14.5
 30
0
 11
-119.048206490425
 21
14.5
 31
0
  0
LINE
  8
1
 62
3
 10
-117.748206490425
 20
16.2
 30
0
 11
-117.748206490425
 21
15.8
 31
0
  0
LINE
  8
1
 62
3
 10
-120.748206490425
 20
16.2
 30
0
 11
-120.748206490425
 21
15.8
 31
0
  0
LINE
  8
1
 62
3
 10
-120.648206490425
 20
16.3
 30
0
 11
-120.248206490425
 21
16.3
 31
0
  0
LINE
  8
1
 62
3
 10
-120.648206490425
 20
15.7
 30
0
 11
-120.248206490425
 21
15.7
 31
0
  0
LINE
  8
1
 62
3
 10
-119.548206490425
 20
14.60000000000001
 30
0
 11
-119.548206490425
 21
15
 31
0
  0
LINE
  8
1
 62
3
 10
-119.548206490425
 20
17.4
 30
0
 11
-119.548206490425
 21
17
 31
0
  0
LINE
  8
1
 62
3
 10
-118.948206490425
 20
17.4
 30
0
 11
-118.948206490425
 21
17
 31
0
  0
LINE
  8
1
 62
3
 10
-117.2423241374838
 20
-14.2
 30
0
 11
-116.848206490425
 21
-14.2
 31
0
  0
LINE
  8
1
 62
3
 10
-117.2423241374838
 20
-14.8
 30
0
 11
-116.848206490425
 21
-14.8
 31
0
  0
LINE
  8
1
 62
3
 10
-117.948206490425
 20
-15.5
 30
0
 11
-117.948206490425
 21
-15.9
 31
0
  0
LINE
  8
1
 62
3
 10
-118.448206490425
 20
-13
 30
0
 11
-118.048206490425
 21
-13
 31
0
  0
LINE
  8
1
 62
3
 10
-118.448206490425
 20
-16
 30
0
 11
-118.048206490425
 21
-16
 31
0
  0
LINE
  8
1
 62
3
 10
-116.748206490425
 20
-14.3
 30
0
 11
-116.748206490425
 21
-14.7
 31
0
  0
LINE
  8
1
 62
3
 10
-119.748206490425
 20
-14.3
 30
0
 11
-119.748206490425
 21
-14.7
 31
0
  0
LINE
  8
1
 62
3
 10
-119.648206490425
 20
-14.2
 30
0
 11
-119.248206490425
 21
-14.2
 31
0
  0
LINE
  8
1
 62
3
 10
-119.648206490425
 20
-14.8
 30
0
 11
-119.248206490425
 21
-14.8
 31
0
  0
LINE
  8
1
 62
3
 10
-118.548206490425
 20
-15.9
 30
0
 11
-118.548206490425
 21
-15.5
 31
0
  0
LINE
  8
1
 62
3
 10
-118.548206490425
 20
-13.09999999999999
 30
0
 11
-118.548206490425
 21
-13.5
 31
0
  0
LINE
  8
1
 62
3
 10
-117.948206490425
 20
-13.09999999999999
 30
0
 11
-117.948206490425
 21
-13.5
 31
0
  0
LINE
  8
1
 62
3
 10
-151.7423241374838
 20
0.2999999999999972
 30
0
 11
-151.348206490425
 21
0.2999999999999972
 31
0
  0
LINE
  8
1
 62
3
 10
-151.7423241374838
 20
-0.3000000000000025
 30
0
 11
-151.348206490425
 21
-0.3000000000000025
 31
0
  0
LINE
  8
1
 62
3
 10
-152.448206490425
 20
-1.000000000000002
 30
0
 11
-152.448206490425
 21
-1.400000000000002
 31
0
  0
LINE
  8
1
 62
3
 10
-152.948206490425
 20
1.5
 30
0
 11
-152.5482064904251
 21
1.5
 31
0
  0
LINE
  8
1
 62
3
 10
-152.948206490425
 20
-1.500000000000002
 30
0
 11
-152.5482064904251
 21
-1.500000000000002
 31
0
  0
LINE
  8
1
 62
3
 10
-151.248206490425
 20
0.1999999999999975
 30
0
 11
-151.248206490425
 21
-0.2000000000000028
 31
0
  0
LINE
  8
1
 62
3
 10
-154.248206490425
 20
0.1999999999999975
 30
0
 11
-154.248206490425
 21
-0.2000000000000028
 31
0
  0
LINE
  8
1
 62
3
 10
-154.148206490425
 20
0.2999999999999972
 30
0
 11
-153.748206490425
 21
0.2999999999999972
 31
0
  0
LINE
  8
1
 62
3
 10
-154.148206490425
 20
-0.3000000000000025
 30
0
 11
-153.748206490425
 21
-0.3000000000000025
 31
0
  0
LINE
  8
1
 62
3
 10
-153.0482064904251
 20
-1.400000000000002
 30
0
 11
-153.0482064904251
 21
-1.000000000000002
 31
0
  0
LINE
  8
1
 62
3
 10
-153.0482064904251
 20
1.399999999999999
 30
0
 11
-153.0482064904251
 21
1
 31
0
  0
LINE
  8
1
 62
3
 10
-152.448206490425
 20
1.399999999999999
 30
0
 11
-152.448206490425
 21
1
 31
0
  0
LINE
  8
1
 62
2
 10
10.1026284570443
 20
68.0822467716166
 30
0
 11
100.1026284570443
 21
68.0822467716166
 31
0
  0
LINE
  8
0
 62
3
 10
52.4547034433326
 20
105.1924109072735
 30
0
 11
56.80000000000001
 21
105.1924109072735
 31
0
  0
LINE
  8
0
 62
3
 10
55.0801708036024
 20
77.39241090727353
 30
0
 11
56.80000000000001
 21
77.39241090727353
 31
0
  0
LINE
  8
1
 62
3
 10
41.65183075530359
 20
14.5
 30
0
 11
45
 21
14.5
 31
0
  0
LINE
  8
1
 62
3
 10
24.65183075530359
 20
14.5
 30
0
 11
41.65183075530359
 21
14.5
 31
0
  0
LINE
  8
1
 62
3
 10
24.65183075530359
 20
6.99371589512505
 30
0
 11
24.65183075530359
 21
14.5
 31
0
  0
LINE
  8
1
 62
3
 10
41.65183075530359
 20
6.99371589512505
 30
0
 11
24.65183075530359
 21
6.99371589512505
 31
0
  0
LINE
  8
1
 62
3
 10
41.65183075530359
 20
14.5
 30
0
 11
41.65183075530359
 21
6.99371589512505
 31
0
  0
LINE
  8
1
 62
3
 10
24.65183075530359
 20
14.5
 30
0
 11
41.65183075530359
 21
14.5
 31
0
  0
LINE
  8
0
 62
3
 10
55.30000000000001
 20
90.79241090727339
 30
0
 11
55.30000000000001
 21
91.79241090727339
 31
0
  0
LINE
  8
0
 62
3
 10
57.60000000000002
 20
92.71741090727352
 30
0
 11
57.60000000000002
 21
95.04241090727351
 31
0
  0
LINE
  8
0
 62
3
 10
57.60000000000002
 20
95.04241090727351
 30
0
 11
56.80000000000001
 21
95.04241090727351
 31
0
  0
LINE
  8
0
 62
3
 10
56.10000000000002
 20
94.04241090727339
 30
0
 11
55.30000000000001
 21
94.04241090727339
 31
0
  0
LINE
  8
0
 62
3
 10
55.30000000000001
 20
94.04241090727339
 30
0
 11
55.30000000000001
 21
95.04241090727351
 31
0
  0
LINE
  8
0
 62
3
 10
56.80000000000001
 20
95.04241090727351
 30
0
 11
56.5
 21
95.04241090727351
 31
0
  0
LINE
  8
0
 62
3
 10
56.5
 20
95.04241090727351
 30
0
 11
56.10000000000002
 21
95.04241090727351
 31
0
  0
LINE
  8
0
 62
3
 10
56.10000000000002
 20
94.66741090727351
 30
0
 11
56.10000000000002
 21
95.04241090727351
 31
0
  0
LINE
  8
0
 62
3
 10
56.10000000000002
 20
94.04241090727339
 30
0
 11
56.10000000000002
 21
94.66741090727351
 31
0
  0
LINE
  8
0
 62
3
 10
55.30000000000001
 20
95.04241090727351
 30
0
 11
55
 21
95.04241090727362
 31
0
  0
LINE
  8
0
 62
3
 10
55
 20
95.04241090727362
 30
0
 11
49.17097783758328
 21
95.04241090727365
 31
0
  0
LINE
  8
0
 62
3
 10
56.80000000000001
 20
87.54241090727351
 30
0
 11
56.10000000000002
 21
87.54241090727351
 31
0
  0
LINE
  8
0
 62
3
 10
56.10000000000002
 20
88.54241090727339
 30
0
 11
55.30000000000001
 21
88.54241090727339
 31
0
  0
LINE
  8
0
 62
3
 10
56.10000000000002
 20
87.91741090727351
 30
0
 11
56.10000000000002
 21
88.54241090727339
 31
0
  0
LINE
  8
0
 62
3
 10
56.10000000000002
 20
87.54241090727351
 30
0
 11
56.10000000000002
 21
87.91741090727351
 31
0
  0
LINE
  8
0
 62
3
 10
55.30000000000001
 20
87.54241090727351
 30
0
 11
55.30000000000001
 21
88.54241090727339
 31
0
  0
LINE
  8
0
 62
3
 10
57.60000000000002
 20
92.6924109072736
 30
0
 11
57.60000000000002
 21
92.71741090727352
 31
0
  0
LINE
  8
0
 62
3
 10
57.60000000000002
 20
91.79241090727339
 30
0
 11
57.60000000000002
 21
92.6924109072736
 31
0
  0
LINE
  8
0
 62
3
 10
57.60000000000002
 20
91.79241090727339
 30
0
 11
55.30000000000001
 21
91.79241090727339
 31
0
  0
LINE
  8
0
 62
3
 10
57.60000000000002
 20
89.8674109072735
 30
0
 11
57.60000000000002
 21
90.79241090727339
 31
0
  0
LINE
  8
0
 62
3
 10
57.60000000000002
 20
87.54241090727351
 30
0
 11
57.60000000000002
 21
89.8674109072735
 31
0
  0
LINE
  8
0
 62
3
 10
57.60000000000002
 20
90.79241090727339
 30
0
 11
55.30000000000001
 21
90.79241090727339
 31
0
  0
LINE
  8
0
 62
3
 10
57.60000000000002
 20
87.54241090727351
 30
0
 11
56.80000000000001
 21
87.54241090727351
 31
0
  0
LINE
  8
0
 62
3
 10
55.30000000000001
 20
87.54241090727351
 30
0
 11
47.36018625339425
 21
87.54241090727369
 31
0
  0
LINE
  8
0
 62
3
 10
57.60000000000002
 20
92.6924109072736
 30
0
 11
63.30000000000001
 21
92.6924109072736
 31
0
  0
LINE
  8
0
 62
3
 10
63.30000000000001
 20
89.89241090727364
 30
0
 11
63.80000000000001
 21
90.39241090727364
 31
0
  0
LINE
  8
0
 62
4
 10
63.30000000000001
 20
89.89241090727364
 30
0
 11
57.60000000000002
 21
89.89241090727364
 31
0
  0
LINE
  8
0
 62
3
 10
63.30000000000001
 20
92.6924109072736
 30
0
 11
63.80000000000001
 21
92.1924109072736
 31
0
  0
LINE
  8
0
 62
3
 10
63.80000000000001
 20
92.1924109072736
 30
0
 11
63.80000000000001
 21
90.39241090727364
 31
0
  0
LINE
  8
0
 62
3
 10
55.30000000000001
 20
90.79241090727339
 30
0
 11
55.30000000000001
 21
91.79241090727339
 31
0
  0
LINE
  8
0
 62
3
 10
60
 20
86.29241090727351
 30
0
 11
60
 21
89.89241090727347
 31
0
  0
LINE
  8
0
 62
3
 10
60
 20
86.29241090727351
 30
0
 11
56.80000000000001
 21
86.29241090727351
 31
0
  0
LINE
  8
0
 62
3
 10
56.10000000000002
 20
94.04241090727339
 30
0
 11
55.30000000000001
 21
94.04241090727339
 31
0
  0
LINE
  8
0
 62
3
 10
55.30000000000001
 20
94.04241090727339
 30
0
 11
55.30000000000001
 21
94.24234922661015
 31
0
  0
LINE
  8
0
 62
3
 10
56.10000000000002
 20
94.66741090727351
 30
0
 11
56.10000000000002
 21
95.04241090727351
 31
0
  0
LINE
  8
0
 62
3
 10
56.10000000000002
 20
94.04241090727339
 30
0
 11
56.10000000000002
 21
94.66741090727351
 31
0
  0
LINE
  8
0
 62
3
 10
60
 20
96.29241090727351
 30
0
 11
56.80000000000001
 21
96.29241090727351
 31
0
  0
LINE
  8
0
 62
3
 10
60
 20
92.6924109072736
 30
0
 11
60
 21
96.29241090727351
 31
0
  0
LINE
  8
0
 62
3
 10
56.10000000000002
 20
88.54241090727339
 30
0
 11
55.30000000000001
 21
88.54241090727339
 31
0
  0
LINE
  8
0
 62
3
 10
56.10000000000002
 20
87.91741090727351
 30
0
 11
56.10000000000002
 21
88.54241090727339
 31
0
  0
LINE
  8
0
 62
3
 10
56.10000000000002
 20
87.54241090727351
 30
0
 11
56.10000000000002
 21
87.91741090727351
 31
0
  0
LINE
  8
0
 62
3
 10
55.30000000000001
 20
88.3424725879371
 30
0
 11
55.30000000000001
 21
88.54241090727339
 31
0
  0
LINE
  8
0
 62
3
 10
56.80000000000001
 20
87.54241090727351
 30
0
 11
56.80000000000001
 21
86.79241090727351
 31
0
  0
LINE
  8
0
 62
3
 10
56.80000000000001
 20
95.79241090727351
 30
0
 11
56.80000000000001
 21
95.04241090727351
 31
0
  0
LINE
  8
0
 62
3
 10
56.80000000000001
 20
95.04241090727351
 30
0
 11
56.5
 21
95.04241090727351
 31
0
  0
LINE
  8
0
 62
3
 10
56.5
 20
95.04241090727351
 30
0
 11
56
 21
95.04241090727351
 31
0
  0
LINE
  8
0
 62
3
 10
56.80000000000001
 20
95.79241090727351
 30
0
 11
56.80000000000001
 21
95.84241090727352
 31
0
  0
LINE
  8
0
 62
3
 10
56.80000000000001
 20
77.39241090727353
 30
0
 11
56.80000000000001
 21
86.7424109072735
 31
0
  0
LINE
  8
0
 62
3
 10
56.80000000000001
 20
87.54241090727351
 30
0
 11
56.80000000000001
 21
86.79241090727351
 31
0
  0
LINE
  8
0
 62
3
 10
56.80000000000001
 20
87.54241090727351
 30
0
 11
56
 21
87.54241090727351
 31
0
  0
LINE
  8
0
 62
3
 10
56.80000000000001
 20
95.79241090727351
 30
0
 11
56.80000000000001
 21
95.04241090727351
 31
0
  0
LINE
  8
1
 62
3
 10
56
 20
95.04241090727351
 30
0
 11
56.80000000000001
 21
95.84241090727352
 31
0
  0
LINE
  8
0
 62
3
 10
56
 20
95.04241090727351
 30
0
 11
49.17097783758328
 21
95.04241090727365
 31
0
  0
LINE
  8
0
 62
3
 10
56.80000000000001
 20
95.84241090727352
 30
0
 11
56.80000000000001
 21
105.1924109072735
 31
0
  0
LINE
  8
1
 62
3
 10
56
 20
87.54241090727351
 30
0
 11
56.80000000000001
 21
86.7424109072735
 31
0
  0
LINE
  8
0
 62
3
 10
56.80000000000001
 20
86.7424109072735
 30
0
 11
56.80000000000001
 21
86.79241090727351
 31
0
  0
LINE
  8
0
 62
3
 10
56
 20
87.54241090727351
 30
0
 11
47.36018625339425
 21
87.54241090727369
 31
0
  0
LINE
  8
1
 62
1
 10
65.80000000000001
 20
91.29241090727351
 30
0
 11
43.4013677182645
 21
91.29241090727351
 31
0
  0
LINE
  8
0
 62
3
 10
57.60000000000002
 20
92.6924109072736
 30
0
 11
63.30000000000001
 21
92.6924109072736
 31
0
  0
LINE
  8
0
 62
3
 10
63.30000000000001
 20
89.89241090727364
 30
0
 11
63.80000000000001
 21
90.39241090727364
 31
0
  0
LINE
  8
0
 62
3
 10
63.30000000000001
 20
89.89241090727364
 30
0
 11
57.60000000000002
 21
89.89241090727364
 31
0
  0
LINE
  8
0
 62
3
 10
63.30000000000001
 20
92.6924109072736
 30
0
 11
63.80000000000001
 21
92.1924109072736
 31
0
  0
LINE
  8
0
 62
3
 10
63.80000000000001
 20
92.1924109072736
 30
0
 11
63.80000000000001
 21
90.39241090727364
 31
0
  0
LINE
  8
1
 62
3
 10
62.30000000000001
 20
92.07241090727348
 30
0
 11
62.30000000000001
 21
90.51241090727365
 31
0
  0
LINE
  8
1
 62
3
 10
61.52000000000004
 20
91.29241090727351
 30
0
 11
63.07999999999998
 21
91.29241090727351
 31
0
  0
LINE
  8
0
 62
3
 10
19
 20
-13.89999999999998
 30
0
 11
21
 21
-13.89999999999998
 31
0
  0
LINE
  8
0
 62
3
 10
56.10000000000002
 20
13.38459935896481
 30
0
 11
56.10000000000002
 21
13.62525229124219
 31
0
  0
LINE
  8
0
 62
3
 10
56.10000000000002
 20
13.62525229124219
 30
0
 11
55.30000000000001
 21
13.62525229124219
 31
0
  0
LINE
  8
0
 62
3
 10
56.80000000000001
 20
6.999999999999943
 30
0
 11
56.80000000000001
 21
13.38459935896481
 31
0
  0
LINE
  8
0
 62
3
 10
56.80000000000001
 20
13.38459935896481
 30
0
 11
56.10000000000002
 21
13.38459935896481
 31
0
  0
LINE
  8
0
 62
3
 10
56.80000000000001
 20
5
 30
0
 11
56.80000000000001
 21
6.999999999999943
 31
0
  0
LINE
  8
0
 62
3
 10
56.80000000000001
 20
4.5
 30
0
 11
56.80000000000001
 21
1.25
 31
0
  0
LINE
  8
0
 62
3
 10
56.80000000000001
 20
4.5
 30
0
 11
56.80000000000001
 21
5
 31
0
  0
LINE
  8
0
 62
3
 10
55.30000000000001
 20
-13.58336717872669
 30
0
 11
45.30000000000001
 21
-13.58336717872669
 31
0
  0
LINE
  8
0
 62
3
 10
56.80000000000001
 20
-6.999999999999943
 30
0
 11
56.80000000000001
 21
-4.5
 31
0
  0
LINE
  8
0
 62
3
 10
56.80000000000001
 20
1.25
 30
0
 11
56.80000000000001
 21
-1.25
 31
0
  0
LINE
  8
0
 62
3
 10
56.80000000000001
 20
-1.25
 30
0
 11
56.80000000000001
 21
-4.5
 31
0
  0
LINE
  8
0
 62
3
 10
56.80000000000001
 20
-13.38459935896475
 30
0
 11
56.80000000000001
 21
-6.999999999999943
 31
0
  0
LINE
  8
0
 62
3
 10
56.80000000000001
 20
-13.38459935896475
 30
0
 11
56.10000000000002
 21
-13.38459935896475
 31
0
  0
LINE
  8
0
 62
3
 10
55.30000000000001
 20
-13.62525229124213
 30
0
 11
55.30000000000001
 21
-13.58336717872669
 31
0
  0
LINE
  8
0
 62
3
 10
56.10000000000002
 20
-13.62525229124213
 30
0
 11
56.10000000000002
 21
-13.38459935896475
 31
0
  0
LINE
  8
0
 62
3
 10
56.10000000000002
 20
-13.62525229124213
 30
0
 11
55.30000000000001
 21
-13.62525229124213
 31
0
  0
LINE
  8
0
 62
3
 10
18
 20
5
 30
0
 11
18
 21
12.90000000000003
 31
0
  0
LINE
  8
0
 62
3
 10
55.30000000000001
 20
13.58336717872675
 30
0
 11
55.30000000000001
 21
13.62525229124219
 31
0
  0
LINE
  8
0
 62
3
 10
55.30000000000001
 20
13.58336717872675
 30
0
 11
45.30000000000001
 21
13.58336717872675
 31
0
  0
LINE
  8
0
 62
3
 10
45.30000000000001
 20
-13.74732050073061
 30
0
 11
45.30000000000001
 21
-13.58336717872669
 31
0
  0
LINE
  8
0
 62
3
 10
45.30000000000001
 20
-13.89999999999998
 30
0
 11
45.30000000000001
 21
-13.74732050073061
 31
0
  0
LINE
  8
0
 62
3
 10
18
 20
-12.89999999999998
 30
0
 11
18
 21
5
 31
0
  0
LINE
  8
0
 62
3
 10
45.30000000000001
 20
13.58336717872675
 30
0
 11
45.30000000000001
 21
13.90000000000003
 31
0
  0
LINE
  8
1
 62
3
 10
21
 20
1.300000000000068
 30
0
 11
23.5
 21
1.300000000000068
 31
0
  0
LINE
  8
1
 62
3
 10
23.5
 20
1.300000000000068
 30
0
 11
23.5
 21
-1.299999999999955
 31
0
  0
LINE
  8
1
 62
3
 10
23.5
 20
-1.299999999999955
 30
0
 11
21
 21
-1.299999999999955
 31
0
  0
LINE
  8
1
 62
3
 10
21
 20
-1.299999999999955
 30
0
 11
21
 21
1.300000000000068
 31
0
  0
LINE
  8
1
 62
3
 10
21
 20
14.5
 30
0
 11
24.65183075530359
 21
14.5
 31
0
  0
LINE
  8
1
 62
3
 10
45
 20
14.5
 30
0
 11
45
 21
-14.5
 31
0
  0
LINE
  8
1
 62
3
 10
45
 20
-14.5
 30
0
 11
21
 21
-14.5
 31
0
  0
LINE
  8
1
 62
3
 10
21
 20
-14.5
 30
0
 11
21
 21
13.90000000000003
 31
0
  0
LINE
  8
1
 62
3
 10
21
 20
13.90000000000003
 30
0
 11
21
 21
14.5
 31
0
  0
LINE
  8
0
 62
3
 10
45
 20
13.90000000000003
 30
0
 11
45.30000000000001
 21
13.90000000000003
 31
0
  0
LINE
  8
1
 62
3
 10
19
 20
13.90000000000003
 30
0
 11
21
 21
13.90000000000003
 31
0
  0
LINE
  8
0
 62
3
 10
45
 20
-13.89999999999998
 30
0
 11
45.30000000000001
 21
-13.89999999999998
 31
0
  0
LINE
  8
0
 62
3
 10
57.60000000000002
 20
13.89100428334825
 30
0
 11
55.30000000000001
 21
13.89100428334825
 31
0
  0
LINE
  8
0
 62
3
 10
56.10000000000002
 20
13.38459935896481
 30
0
 11
56.10000000000002
 21
13.62525229124219
 31
0
  0
LINE
  8
0
 62
3
 10
56.10000000000002
 20
13.62525229124219
 30
0
 11
55.30000000000001
 21
13.62525229124219
 31
0
  0
LINE
  8
0
 62
3
 10
57.60000000000002
 20
13.89100428334825
 30
0
 11
57.60000000000002
 21
13.38459935896481
 31
0
  0
LINE
  8
0
 62
3
 10
57.60000000000002
 20
12.04980776764614
 30
0
 11
57.60000000000002
 21
13.38459935896481
 31
0
  0
LINE
  8
0
 62
3
 10
56.80000000000001
 20
13.38459935896481
 30
0
 11
56.10000000000002
 21
13.38459935896481
 31
0
  0
LINE
  8
0
 62
3
 10
57.60000000000002
 20
13.38459935896481
 30
0
 11
56.80000000000001
 21
13.38459935896481
 31
0
  0
LINE
  8
0
 62
3
 10
57.60000000000002
 20
6.999999999999943
 30
0
 11
56.80000000000001
 21
6.999999999999943
 31
0
  0
LINE
  8
0
 62
3
 10
57.60000000000002
 20
6.999999999999943
 30
0
 11
57.60000000000002
 21
12.04980776764614
 31
0
  0
LINE
  8
0
 62
3
 10
55.30000000000001
 20
13.58336717872675
 30
0
 11
55.30000000000001
 21
13.62525229124219
 31
0
  0
LINE
  8
0
 62
3
 10
55.30000000000001
 20
13.90000000000003
 30
0
 11
45.30000000000001
 21
13.90000000000003
 31
0
  0
LINE
  8
0
 62
3
 10
55.30000000000001
 20
13.58336717872675
 30
0
 11
45.30000000000001
 21
13.58336717872675
 31
0
  0
LINE
  8
0
 62
3
 10
45.30000000000001
 20
13.58336717872675
 30
0
 11
45.30000000000001
 21
13.90000000000003
 31
0
  0
LINE
  8
0
 62
3
 10
55.30000000000001
 20
13.89100428334825
 30
0
 11
55.30000000000001
 21
13.90000000000003
 31
0
  0
LINE
  8
0
 62
3
 10
55.30000000000001
 20
-13.89100428334825
 30
0
 11
57.60000000000002
 21
-13.89100428334825
 31
0
  0
LINE
  8
0
 62
3
 10
56.10000000000002
 20
-13.62525229124213
 30
0
 11
56.10000000000002
 21
-13.38459935896475
 31
0
  0
LINE
  8
0
 62
3
 10
55.30000000000001
 20
-13.62525229124213
 30
0
 11
56.10000000000002
 21
-13.62525229124213
 31
0
  0
LINE
  8
0
 62
3
 10
57.60000000000002
 20
-13.38459935896475
 30
0
 11
57.60000000000002
 21
-13.89100428334825
 31
0
  0
LINE
  8
0
 62
3
 10
57.60000000000002
 20
-13.38459935896475
 30
0
 11
57.60000000000002
 21
-12.04980776764609
 31
0
  0
LINE
  8
0
 62
3
 10
56.10000000000002
 20
-13.38459935896475
 30
0
 11
56.80000000000001
 21
-13.38459935896475
 31
0
  0
LINE
  8
0
 62
3
 10
56.80000000000001
 20
-13.38459935896475
 30
0
 11
57.60000000000002
 21
-13.38459935896475
 31
0
  0
LINE
  8
0
 62
3
 10
56.80000000000001
 20
-6.999999999999943
 30
0
 11
57.60000000000002
 21
-6.999999999999943
 31
0
  0
LINE
  8
0
 62
3
 10
57.60000000000002
 20
-12.04980776764609
 30
0
 11
57.60000000000002
 21
-6.999999999999943
 31
0
  0
LINE
  8
0
 62
3
 10
55.30000000000001
 20
-13.62525229124213
 30
0
 11
55.30000000000001
 21
-13.58336717872669
 31
0
  0
LINE
  8
0
 62
3
 10
45.30000000000001
 20
-13.89999999999998
 30
0
 11
55.30000000000001
 21
-13.89999999999998
 31
0
  0
LINE
  8
0
 62
3
 10
45.30000000000001
 20
-13.58336717872669
 30
0
 11
55.30000000000001
 21
-13.58336717872669
 31
0
  0
LINE
  8
0
 62
3
 10
45.30000000000001
 20
-13.89999999999998
 30
0
 11
45.30000000000001
 21
-13.58336717872669
 31
0
  0
LINE
  8
0
 62
3
 10
55.30000000000001
 20
-13.89999999999998
 30
0
 11
55.30000000000001
 21
-13.89100428334825
 31
0
  0
LINE
  8
0
 62
3
 10
63.80000000000001
 20
12.04980776764614
 30
0
 11
63.80000000000001
 21
12.54980776764614
 31
0
  0
LINE
  8
0
 62
3
 10
63.30000000000001
 20
12.04980776764614
 30
0
 11
63.80000000000001
 21
12.04980776764614
 31
0
  0
LINE
  8
0
 62
3
 10
63.30000000000001
 20
12.54980776764614
 30
0
 11
63.80000000000001
 21
12.54980776764614
 31
0
  0
LINE
  8
0
 62
3
 10
57.60000000000002
 20
12.54980776764614
 30
0
 11
63.30000000000001
 21
12.54980776764614
 31
0
  0
LINE
  8
0
 62
3
 10
63.30000000000001
 20
12.54980776764614
 30
0
 11
63.30000000000001
 21
12.04980776764614
 31
0
  0
LINE
  8
0
 62
3
 10
57.60000000000002
 20
12.04980776764614
 30
0
 11
63.30000000000001
 21
12.04980776764614
 31
0
  0
LINE
  8
0
 62
3
 10
63.80000000000001
 20
-12.54980776764609
 30
0
 11
63.80000000000001
 21
-12.04980776764609
 31
0
  0
LINE
  8
0
 62
3
 10
63.80000000000001
 20
-12.04980776764609
 30
0
 11
63.30000000000001
 21
-12.04980776764609
 31
0
  0
LINE
  8
0
 62
3
 10
63.80000000000001
 20
-12.54980776764609
 30
0
 11
63.30000000000001
 21
-12.54980776764609
 31
0
  0
LINE
  8
0
 62
3
 10
63.30000000000001
 20
-12.54980776764609
 30
0
 11
57.60000000000002
 21
-12.54980776764609
 31
0
  0
LINE
  8
0
 62
3
 10
63.30000000000001
 20
-12.04980776764609
 30
0
 11
63.30000000000001
 21
-12.54980776764609
 31
0
  0
LINE
  8
0
 62
3
 10
63.30000000000001
 20
-12.04980776764609
 30
0
 11
57.60000000000002
 21
-12.04980776764609
 31
0
  0
LINE
  8
0
 62
3
 10
60
 20
-5
 30
0
 11
56.80000000000001
 21
-5
 31
0
  0
LINE
  8
0
 62
3
 10
60
 20
5
 30
0
 11
56.80000000000001
 21
5
 31
0
  0
LINE
  8
0
 62
3
 10
60
 20
-5
 30
0
 11
60
 21
5
 31
0
  0
LINE
  8
0
 62
3
 10
56.80000000000001
 20
4.5
 30
0
 11
56.80000000000001
 21
1.25
 31
0
  0
LINE
  8
0
 62
3
 10
56.80000000000001
 20
1.25
 30
0
 11
56.80000000000001
 21
-1.25
 31
0
  0
LINE
  8
0
 62
3
 10
56.80000000000001
 20
-1.25
 30
0
 11
56.80000000000001
 21
-4.5
 31
0
  0
LINE
  8
0
 62
4
 10
59.90000000000003
 20
-0.8500000000000227
 30
0
 11
59.90000000000003
 21
0
 31
0
  0
LINE
  8
0
 62
4
 10
59.90000000000003
 20
0
 30
0
 11
59.90000000000003
 21
0.8499999999999659
 31
0
  0
LINE
  8
1
 62
1
 10
61.90000000000003
 20
0
 30
0
 11
-5.399999999999977
 21
0
 31
0
  0
LINE
  8
1
 62
3
 10
127.22
 20
6.999999999999886
 30
0
 11
130.47
 21
6.999999999999886
 31
0
  0
LINE
  8
1
 62
3
 10
127.22
 20
-6.999999999999886
 30
0
 11
130.47
 21
-6.999999999999886
 31
0
  0
LINE
  8
1
 62
3
 10
134.72
 20
-6.999999999999886
 30
0
 11
134.72
 21
-13.38459935896469
 31
0
  0
LINE
  8
1
 62
3
 10
127.22
 20
-6.999999999999886
 30
0
 11
127.22
 21
-13.38459935896469
 31
0
  0
LINE
  8
1
 62
3
 10
131.87
 20
-12.54980776764609
 30
0
 11
132.37
 21
-12.54980776764609
 31
0
  0
LINE
  8
1
 62
3
 10
131.87
 20
-12.04980776764609
 30
0
 11
132.37
 21
-12.04980776764609
 31
0
  0
LINE
  8
1
 62
3
 10
131.87
 20
-12.04980776764609
 30
0
 11
131.87
 21
-12.54980776764609
 31
0
  0
LINE
  8
1
 62
3
 10
132.37
 20
-12.04980776764609
 30
0
 11
132.37
 21
-12.54980776764609
 31
0
  0
LINE
  8
1
 62
3
 10
129.57
 20
-12.04980776764609
 30
0
 11
129.57
 21
-12.54980776764609
 31
0
  0
LINE
  8
1
 62
3
 10
130.07
 20
-12.54980776764609
 30
0
 11
130.47
 21
-12.54980776764609
 31
0
  0
LINE
  8
1
 62
3
 10
130.07
 20
-12.04980776764609
 30
0
 11
130.47
 21
-12.04980776764609
 31
0
  0
LINE
  8
1
 62
3
 10
130.07
 20
-12.04980776764609
 30
0
 11
130.07
 21
-12.54980776764609
 31
0
  0
LINE
  8
1
 62
3
 10
132.37
 20
12.54980776764609
 30
0
 11
132.37
 21
12.04980776764609
 31
0
  0
LINE
  8
1
 62
3
 10
129.57
 20
12.54980776764609
 30
0
 11
129.57
 21
12.04980776764609
 31
0
  0
LINE
  8
1
 62
3
 10
130.07
 20
12.04980776764609
 30
0
 11
130.47
 21
12.04980776764609
 31
0
  0
LINE
  8
1
 62
3
 10
130.07
 20
12.54980776764609
 30
0
 11
130.47
 21
12.54980776764609
 31
0
  0
LINE
  8
1
 62
3
 10
130.07
 20
12.54980776764609
 30
0
 11
130.07
 21
12.04980776764609
 31
0
  0
LINE
  8
1
 62
3
 10
131.87
 20
12.04980776764609
 30
0
 11
132.37
 21
12.04980776764609
 31
0
  0
LINE
  8
1
 62
3
 10
131.87
 20
12.54980776764609
 30
0
 11
132.37
 21
12.54980776764609
 31
0
  0
LINE
  8
1
 62
3
 10
131.87
 20
12.54980776764609
 30
0
 11
131.87
 21
12.04980776764609
 31
0
  0
LINE
  8
1
 62
3
 10
129.57
 20
-12.54980776764609
 30
0
 11
130.07
 21
-12.54980776764609
 31
0
  0
LINE
  8
1
 62
3
 10
129.57
 20
-12.04980776764609
 30
0
 11
130.07
 21
-12.04980776764609
 31
0
  0
LINE
  8
1
 62
3
 10
129.57
 20
12.04980776764609
 30
0
 11
130.07
 21
12.04980776764609
 31
0
  0
LINE
  8
1
 62
3
 10
129.57
 20
12.54980776764609
 30
0
 11
130.07
 21
12.54980776764609
 31
0
  0
LINE
  8
1
 62
3
 10
131.47
 20
12.54980776764609
 30
0
 11
131.87
 21
12.54980776764609
 31
0
  0
LINE
  8
1
 62
3
 10
131.47
 20
12.04980776764609
 30
0
 11
131.47
 21
6.999999999999886
 31
0
  0
LINE
  8
1
 62
3
 10
131.47
 20
6.999999999999886
 30
0
 11
134.72
 21
6.999999999999886
 31
0
  0
LINE
  8
1
 62
3
 10
131.47
 20
12.04980776764609
 30
0
 11
131.87
 21
12.04980776764609
 31
0
  0
LINE
  8
1
 62
3
 10
130.47
 20
12.54980776764609
 30
0
 11
131.47
 21
12.54980776764609
 31
0
  0
LINE
  8
1
 62
3
 10
130.47
 20
12.04980776764609
 30
0
 11
130.47
 21
6.999999999999886
 31
0
  0
LINE
  8
1
 62
3
 10
130.47
 20
6.999999999999886
 30
0
 11
131.47
 21
6.999999999999886
 31
0
  0
LINE
  8
1
 62
3
 10
130.47
 20
12.04980776764609
 30
0
 11
131.47
 21
12.04980776764609
 31
0
  0
LINE
  8
1
 62
3
 10
131.47
 20
-6.999999999999886
 30
0
 11
131.47
 21
-12.04980776764609
 31
0
  0
LINE
  8
1
 62
3
 10
131.47
 20
-6.999999999999886
 30
0
 11
134.72
 21
-6.999999999999886
 31
0
  0
LINE
  8
1
 62
3
 10
131.47
 20
-12.04980776764609
 30
0
 11
131.87
 21
-12.04980776764609
 31
0
  0
LINE
  8
1
 62
3
 10
131.47
 20
-12.54980776764609
 30
0
 11
131.47
 21
-13.89999999999998
 31
0
  0
LINE
  8
1
 62
3
 10
131.47
 20
-12.54980776764609
 30
0
 11
131.87
 21
-12.54980776764609
 31
0
  0
LINE
  8
1
 62
3
 10
130.47
 20
-6.999999999999886
 30
0
 11
130.47
 21
-12.04980776764609
 31
0
  0
LINE
  8
1
 62
3
 10
130.47
 20
-6.999999999999886
 30
0
 11
131.47
 21
-6.999999999999886
 31
0
  0
LINE
  8
1
 62
3
 10
130.47
 20
-12.04980776764609
 30
0
 11
131.47
 21
-12.04980776764609
 31
0
  0
LINE
  8
1
 62
3
 10
130.47
 20
-12.54980776764609
 30
0
 11
130.47
 21
-13.8910042833482
 31
0
  0
LINE
  8
1
 62
3
 10
130.47
 20
-12.54980776764609
 30
0
 11
131.47
 21
-12.54980776764609
 31
0
  0
LINE
  8
1
 62
3
 10
131.4699999999976
 20
13.89100428334831
 30
0
 11
131.47
 21
12.54980776764609
 31
0
  0
LINE
  8
1
 62
3
 10
130.4700000000024
 20
13.89100428334831
 30
0
 11
130.47
 21
12.54980776764609
 31
0
  0
LINE
  8
1
 62
3
 10
127.22
 20
13.38459935896469
 30
0
 11
127.22
 21
6.999999999999886
 31
0
  0
LINE
  8
1
 62
3
 10
134.72
 20
13.38459935896469
 30
0
 11
134.72
 21
6.999999999999886
 31
0
  0
LINE
  8
1
 62
3
 10
136.4550769565128
 20
-13.42251581415098
 30
0
 11
136.3053937706066
 21
-12.83524730235337
 31
0
  0
LINE
  8
1
 62
3
 10
132.5789987384987
 20
-14.41045186867888
 30
0
 11
132.4293155525925
 21
-13.82318335688132
 31
0
  0
LINE
  8
1
 62
1
 10
128.27
 20
12.29980776764609
 30
0
 11
133.6699999999999
 21
12.29980776764609
 31
0
  0
LINE
  8
1
 62
1
 10
128.27
 20
-12.29980776764609
 30
0
 11
133.6699999999999
 21
-12.29980776764609
 31
0
  0
LINE
  8
1
 62
1
 10
130.97
 20
18.06999999999988
 30
0
 11
130.97
 21
-18.06999999999988
 31
0
  0
LINE
  8
1
 62
1
 10
112.9
 20
0
 30
0
 11
149.0399999999999
 21
0
 31
0
  0
ARC
  8
1
 62
3
 10
-132.748206490425
 20
-1.776356839400251e-015
 30
0
 40
25
 50
180
 51
0
  0
ARC
  8
1
 62
3
 10
-132.748206490425
 20
-1.776356839400251e-015
 30
0
 40
24.99999999999999
 50
0
 51
180
  0
ARC
  8
1
 62
3
 10
-120.2511476668956
 20
17.00294117647059
 30
0
 40
0.7029473295325093
 50
270.2397298960818
 51
359.760270103919
  0
ARC
  8
1
 62
3
 10
-118.2452653139544
 20
17.00294117647059
 30
0
 40
0.7029473295325092
 50
180.239729896081
 51
270.2397298960818
  0
ARC
  8
1
 62
3
 10
-118.2452653139544
 20
14.99705882352942
 30
0
 40
0.7029473295325004
 50
89.76027010391822
 51
179.7602701039198
  0
ARC
  8
1
 62
3
 10
-120.2511476668956
 20
14.99705882352942
 30
0
 40
0.7029473295325234
 50
0.239729896080195
 51
89.76027010391822
  0
ARC
  8
1
 62
3
 10
-119.2511476668956
 20
-13.49705882352941
 30
0
 40
0.7029473295325093
 50
270.2397298960818
 51
359.760270103919
  0
ARC
  8
1
 62
3
 10
-117.2452653139544
 20
-13.49705882352941
 30
0
 40
0.7029473295325092
 50
180.239729896081
 51
270.2397298960818
  0
ARC
  8
1
 62
3
 10
-117.2452653139544
 20
-15.50294117647058
 30
0
 40
0.7029473295325004
 50
89.76027010391822
 51
179.7602701039198
  0
ARC
  8
1
 62
3
 10
-119.2511476668956
 20
-15.50294117647058
 30
0
 40
0.7029473295325234
 50
0.239729896080195
 51
89.76027010391822
  0
ARC
  8
1
 62
3
 10
-153.7511476668956
 20
1.002941176470589
 30
0
 40
0.7029473295325126
 50
270.239729896083
 51
359.760270103919
  0
ARC
  8
1
 62
3
 10
-151.7452653139544
 20
1.002941176470589
 30
0
 40
0.7029473295325234
 50
180.2397298960809
 51
270.239729896083
  0
ARC
  8
1
 62
3
 10
-151.7452653139544
 20
-1.002941176470593
 30
0
 40
0.7029473295325115
 50
89.76027010391707
 51
179.7602701039189
  0
ARC
  8
1
 62
3
 10
-153.7511476668956
 20
-1.002941176470593
 30
0
 40
0.7029473295324381
 50
0.2397298960811109
 51
89.76027010391707
  0
ARC
  8
1
 62
3
 10
19
 20
12.90000000000003
 30
0
 40
1
 50
90
 51
180
  0
ARC
  8
1
 62
3
 10
19
 20
-12.89999999999998
 30
0
 40
1
 50
180
 51
270
  0
ARC
  8
0
 62
4
 10
59.5
 20
0.8499999999999659
 30
0
 40
0.400000000000027
 50
0
 51
41.40962210927236
  0
ARC
  8
0
 62
4
 10
59.5
 20
-0.8500000000000227
 30
0
 40
0.3999999999999868
 50
318.5903778907338
 51
0
  0
ARC
  8
1
 62
3
 10
130.97
 20
0
 30
0
 40
13.49999999999998
 50
106.1276202131608
 51
253.8723797868392
  0
ARC
  8
1
 62
3
 10
130.97
 20
0
 30
0
 40
13.49999999999994
 50
286.1276202131608
 51
73.87237978683923
  0
ARC
  8
1
 62
3
 10
130.97
 20
0
 30
0
 40
14.50000000000003
 50
292.22725490454
 51
276.370971372136
  0
ARC
  8
1
 62
3
 10
130.97
 20
0
 30
0
 40
13.89999999999997
 50
276.0264020426417
 51
292.5718242340338
  0
ARC
  8
1
 62
3
 10
130.97
 20
0
 30
0
 40
13.8999999999999
 50
292.5718242340338
 51
276.0264020426417
  0
CIRCLE
  8
1
 62
3
 10
-132.748206490425
 20
8
 30
0
 40
3
  0
CIRCLE
  8
1
 62
3
 10
-132.748206490425
 20
8
 30
0
 40
5.999999999999986
  0
CIRCLE
  8
1
 62
3
 10
-118.248206490425
 20
-14.5
 30
0
 40
3
  0
CIRCLE
  8
1
 62
3
 10
-119.248206490425
 20
16
 30
0
 40
3
  0
CIRCLE
  8
1
 62
3
 10
-132.748206490425
 20
-20.00000000000004
 30
0
 40
1.5
  0
CIRCLE
  8
1
 62
3
 10
-115.748206490425
 20
10
 30
0
 40
1.5
  0
CIRCLE
  8
1
 62
2
 10
-115.748206490425
 20
10
 30
0
 40
2
  0
CIRCLE
  8
1
 62
2
 10
-132.748206490425
 20
-20.00000000000004
 30
0
 40
2
  0
CIRCLE
  8
1
 62
3
 10
-149.748206490425
 20
10
 30
0
 40
1.5
  0
CIRCLE
  8
1
 62
2
 10
-149.748206490425
 20
10
 30
0
 40
2
  0
CIRCLE
  8
1
 62
3
 10
-152.748206490425
 20
-1.776356839400251e-015
 30
0
 40
3
  0
CIRCLE
  8
1
 62
3
 10
-119.248206490425
 20
16
 30
0
 40
2.75
  0
CIRCLE
  8
1
 62
3
 10
-118.248206490425
 20
-14.5
 30
0
 40
2.75
  0
CIRCLE
  8
1
 62
3
 10
-152.748206490425
 20
-1.776356839400251e-015
 30
0
 40
2.75
  0
CIRCLE
  8
0
 62
3
 10
62.30000000000001
 20
91.29241090727351
 30
0
 40
0.6000000000000156
  0
CIRCLE
  8
0
 62
3
 10
62.30000000000001
 20
91.29241090727351
 30
0
 40
0.6000000000000156
  0
CIRCLE
  8
1
 62
3
 10
130.97
 20
0
 30
0
 40
5
  0
CIRCLE
  8
1
 62
3
 10
130.97
 20
0
 30
0
 40
6.549999999999898
  0
CIRCLE
  8
1
 62
3
 10
130.97
 20
0
 30
0
 40
4.5
  0
CIRCLE
  8
1
 62
3
 10
130.97
 20
0
 30
0
 40
1.25
  0
CIRCLE
  8
1
 62
2
 10
130.97
 20
0
 30
0
 40
0.8499999999999943
  0
POLYLINE
  8
1
 62
3
 66
1
  0
VERTEX
  8
1
 10
52.4547034433326
 20
105.1924109072735
 30
0
 42
0.09199770479408487
  0
VERTEX
  8
1
 10
51.21817968549964
 20
103.5864396028605
 30
0
 42
0.06423884780069902
  0
VERTEX
  8
1
 10
50.58796791337237
 20
101.7405707920739
 30
0
 42
0.02491961949460657
  0
VERTEX
  8
1
 10
50.28631127695942
 20
99.76858873150394
 30
0
 42
-0.01157185282298691
  0
VERTEX
  8
1
 10
50.03545292626937
 20
97.78427767774099
 30
0
 42
-0.05013265371427927
  0
VERTEX
  8
1
 10
49.55763601131081
 20
95.90142188737542
 30
0
 42
-0.03292771833988149
  0
VERTEX
  8
1
 10
48.4128703823939
 20
93.64837717538386
 30
0
 42
0.0570574989264652
  0
VERTEX
  8
1
 10
47.47432060434487
 20
91.39164718165118
 30
0
 42
0.0656836422545441
  0
VERTEX
  8
1
 10
47.16316368628118
 20
89.13475885215253
 30
0
 42
0.09041020664261582
  0
VERTEX
  8
1
 10
47.53189289667743
 20
87.01807315014113
 30
0
 42
0.1213881381458456
  0
VERTEX
  8
1
 10
48.68374140412901
 20
85.40699219604645
 30
0
 42
0.03147100946698877
  0
VERTEX
  8
1
 10
50.34270686215236
 20
84.19967900015136
 30
0
 42
-0.07416187627763134
  0
VERTEX
  8
1
 10
52.27828174342396
 20
82.56765454225017
 30
0
 42
-0.06410344027329361
  0
VERTEX
  8
1
 10
53.95804365747184
 20
80.12683848176616
 30
0
 42
-0.04298638278608734
  0
VERTEX
  8
1
 10
55.0801708036024
 20
77.39241090727353
 30
0
  0
SEQEND
  8
1
  0
ARC
  8
1
 62
3
 10
16
 20
17.37780688967831
 30
0
 40
2
 50
0
 51
90
  0
ARC
  8
1
 62
3
 10
14.09999999999991
 20
21.37780688967831
 30
0
 40
2
 50
180
 51
270
  0
ARC
  8
1
 62
3
 10
16
 20
-20.22514344369849
 30
0
 40
2
 50
270
 51
0
  0
ARC
  8
1
 62
3
 10
14.09999999999991
 20
-24.22514344369849
 30
0
 40
2
 50
90
 51
180
  0
ARC
  8
1
 62
3
 10
9
 20
-23.49999999999999
 30
0
 40
1.500000000000011
 50
270
 51
0
  0
ARC
  8
1
 62
3
 10
9
 20
23.50000000000001
 30
0
 40
1.5
 50
0
 51
90
  0
ARC
  8
1
 62
3
 10
-120.648206490425
 20
16.2
 30
0
 40
0.1000000000000014
 50
90
 51
180
  0
ARC
  8
1
 62
3
 10
-120.648206490425
 20
15.8
 30
0
 40
0.1000000000000085
 50
180
 51
270
  0
ARC
  8
1
 62
3
 10
-119.448206490425
 20
14.60000000000001
 30
0
 40
0.1000000000000085
 50
180
 51
270
  0
ARC
  8
1
 62
3
 10
-119.048206490425
 20
14.60000000000001
 30
0
 40
0.1000000000000103
 50
270
 51
0
  0
ARC
  8
1
 62
3
 10
-117.848206490425
 20
15.8
 30
0
 40
0.1000000000000014
 50
270
 51
0
  0
ARC
  8
1
 62
3
 10
-117.848206490425
 20
16.2
 30
0
 40
0.09999999999999432
 50
0
 51
90
  0
ARC
  8
1
 62
3
 10
-119.048206490425
 20
17.4
 30
0
 40
0.1000000000000085
 50
0
 51
90
  0
ARC
  8
1
 62
3
 10
-119.448206490425
 20
17.4
 30
0
 40
0.1000000000000014
 50
90
 51
180
  0
ARC
  8
1
 62
3
 10
-119.648206490425
 20
-14.3
 30
0
 40
0.1000000000000014
 50
90
 51
180
  0
ARC
  8
1
 62
3
 10
-119.648206490425
 20
-14.7
 30
0
 40
0.1000000000000085
 50
180
 51
270
  0
ARC
  8
1
 62
3
 10
-118.448206490425
 20
-15.9
 30
0
 40
0.1000000000000085
 50
180
 51
270
  0
ARC
  8
1
 62
3
 10
-118.048206490425
 20
-15.9
 30
0
 40
0.09999999999999965
 50
270
 51
0
  0
ARC
  8
1
 62
3
 10
-116.848206490425
 20
-14.7
 30
0
 40
0.1000000000000014
 50
270
 51
0
  0
ARC
  8
1
 62
3
 10
-116.848206490425
 20
-14.3
 30
0
 40
0.09999999999999432
 50
0
 51
90
  0
ARC
  8
1
 62
3
 10
-118.048206490425
 20
-13.09999999999999
 30
0
 40
0.1000000000000085
 50
0
 51
90
  0
ARC
  8
1
 62
3
 10
-118.448206490425
 20
-13.09999999999999
 30
0
 40
0.09999999999999076
 50
90
 51
180
  0
ARC
  8
1
 62
3
 10
-154.148206490425
 20
0.1999999999999975
 30
0
 40
0.0999999999999997
 50
90
 51
180
  0
ARC
  8
1
 62
3
 10
-154.148206490425
 20
-0.2000000000000028
 30
0
 40
0.09999999999999432
 50
180
 51
270
  0
ARC
  8
1
 62
3
 10
-152.948206490425
 20
-1.400000000000002
 30
0
 40
0.1000000000000796
 50
180
 51
270
  0
ARC
  8
1
 62
3
 10
-152.5482064904251
 20
-1.400000000000002
 30
0
 40
0.1000000000000001
 50
270
 51
0
  0
ARC
  8
1
 62
3
 10
-151.348206490425
 20
-0.2000000000000028
 30
0
 40
0.0999999999999997
 50
270
 51
0
  0
ARC
  8
1
 62
3
 10
-151.348206490425
 20
0.1999999999999975
 30
0
 40
0.1000000000000227
 50
0
 51
90
  0
ARC
  8
1
 62
3
 10
-152.5482064904251
 20
1.399999999999999
 30
0
 40
0.1000000000000796
 50
0
 51
90
  0
ARC
  8
1
 62
3
 10
-152.948206490425
 20
1.399999999999999
 30
0
 40
0.100000000000001
 50
90
 51
180
  0
LINE
  8
1
 62
2
 10
55.4218317311455
 20
24.5
 30
0
 11
21.3230130506733
 21
24.5
 31
0
  0
LINE
  8
1
 62
2
 10
21.3230130506733
 20
24.5
 30
0
 11
33.6873990022161
 21
14.5
 31
0
  0
SOLID
  8
1
 62
2
 10
30.67628289963082
 20
16.3426886533633
 30
0
 11
31.25580711045883
 21
17.05923475445739
 31
0
 12
33.6873990022161
 22
14.5
 32
0
 13
33.6873990022161
 23
14.5
 33
0
  0
LINE
  8
1
 62
2
 10
93.36393515265701
 20
27.5
 30
0
 11
126.1210080305172
 21
27.5
 31
0
  0
LINE
  8
1
 62
2
 10
126.1210080305172
 20
27.5
 30
0
 11
128.4521014238295
 21
14.27971241867698
 31
0
  0
SOLID
  8
1
 62
2
 10
127.390549400849
 20
17.64652529719998
 30
0
 11
128.2981162031415
 21
17.80655381123944
 31
0
 12
128.4521014238295
 22
14.27971241867698
 32
0
 13
128.4521014238295
 23
14.27971241867698
 33
0
  0
LINE
  8
1
 62
2
 10
168.4718759407428
 20
-26.90911534819259
 30
0
 11
135.7148030628826
 21
-26.90911534819259
 31
0
  0
LINE
  8
1
 62
2
 10
135.7148030628826
 20
-26.90911534819259
 30
0
 11
133.3837096695704
 21
-13.68882776686968
 31
0
  0
SOLID
  8
1
 62
2
 10
134.4452616925508
 20
-17.05564064539269
 30
0
 11
133.5376948902584
 21
-17.21566915943214
 31
0
 12
133.3837096695704
 22
-13.68882776686968
 32
0
 13
133.3837096695704
 23
-13.68882776686968
 33
0
  0
TEXT
  8
1
 62
2
 10
-4.681628699999692
 20
-57.5999999032661
 30
0
 40
4.5
  1
DMN29B50G
 41
0.9
  0
TEXT
  8
1
 62
2
 10
7.300269274953799
 20
69.33043841440239
 30
0
 40
3.5
  1
DETAIL DRAWING (+)(-) TERMINAL
 41
0.9
 72
1
 73
2
 11
54.5502692749538
 21
71.08043841440239
 31
0
  0
TEXT
  8
1
 62
2
 10
22.0588609860637
 20
26.0795594494374
 30
0
 40
3.5
  1
NAME PLATE
 41
0.9
 72
1
 73
2
 11
37.8088609860637
 21
27.8295594494374
 31
0
  0
TEXT
  8
1
 62
2
 10
90.61669748230689
 20
29.25
 30
0
 40
3.5
  1
(＋)TERMINAL
 41
0.9
  0
TEXT
  8
1
 62
2
 10
90.61669748230689
 20
22.25
 30
0
 40
3.5
  1
    (RED)
 41
0.9
  0
TEXT
  8
1
 62
2
 10
133.4104067823378
 20
-25.15911534819259
 30
0
 40
3.5
  1
(－)TERMINAL
 41
0.9
  0
TEXT
  8
1
 62
2
 10
133.4104067823378
 20
-32.15911534819259
 30
0
 40
3.5
  1
   (BLACK)
 41
0.9
  0
DIMENSION
  8
1
  6
CONTINUOUS
 62
2
  2
*D0
  3
DMST_1
 10
60.00000000000001
 20
44.9866101935789
 30
0
 11
23.70000000000005
 21
47.5866101935789
 31
0
 12
0
 22
0
 32
0
 70
0
 13
-12.59999999999991
 23
25
 33
0
 14
60
 24
5
 34
0
 53
0
  0
DIMENSION
  8
1
  6
CONTINUOUS
 62
2
  2
*D1
  3
DMST_2
 10
-87.74820649042502
 20
-20.00000000000003
 30
0
 11
-90.34820649042501
 21
-10.00000000000002
 31
0
 12
0
 22
0
 32
0
 70
0
 13
-160.748206490425
 23
-1.776356839400251e-015
 33
0
 14
-135.748206490425
 24
-20.00000000000004
 34
0
 50
90
 53
0
  0
DIMENSION
  8
1
  6
CONTINUOUS
 62
2
  2
*D2
  3
DMST_2
 10
-87.74820649042502
 20
9.999999999999996
 30
0
 11
-90.34820649042501
 21
17.25907763805193
 31
0
 12
0
 22
0
 32
0
 70
0
 13
-160.748206490425
 23
-1.776356839400251e-015
 33
0
 14
-118.748206490425
 24
10
 34
0
 50
90
 53
0
  0
DIMENSION
  8
1
  6
CONTINUOUS
 62
2
  2
*D3
  3
DMST_2
 10
-97.74820649042501
 20
8.000000000000004
 30
0
 11
-100.348206490425
 21
17.01305733913622
 31
0
 12
0
 22
0
 32
0
 70
0
 13
-160.748206490425
 23
-1.776356839400251e-015
 33
0
 14
-141.748206490425
 24
8
 34
0
 50
90
 53
0
  0
DIMENSION
  8
1
  6
CONTINUOUS
 62
2
  2
*D4
  3
DMST_2
 10
-149.748206490425
 20
35
 30
0
 11
-141.248206490425
 21
37.6
 31
0
 12
0
 22
0
 32
0
 70
0
 13
-132.748206490425
 23
-28
 33
0
 14
-149.748206490425
 24
7
 34
0
 53
0
  0
DIMENSION
  8
1
  6
CONTINUOUS
 62
2
  2
*D5
  3
DMST_2
 10
-132.748206490425
 20
35
 30
0
 11
-124.248206490425
 21
37.6
 31
0
 12
0
 22
0
 32
0
 70
0
 13
-115.748206490425
 23
7
 33
0
 14
-132.748206490425
 24
-28
 34
0
 53
0
  0
DIMENSION
  8
1
  6
CONTINUOUS
 62
2
  2
*D6
  3
DMST_1
 10
-157.748206490425
 20
45
 30
0
 11
-132.748206490425
 21
47.6
 31
0
 12
0
 22
0
 32
0
 70
0
  1
%%c<>
 13
-107.748206490425
 23
-1.776356839400251e-015
 33
0
 14
-157.748206490425
 24
-1.776356839400251e-015
 34
0
 53
0
  0
DIMENSION
  8
1
  6
CONTINUOUS
 62
2
  2
*D7
  3
DMST_3
 10
-12.5999999999999
 20
35
 30
0
 11
2.700000000000046
 21
37.6
 31
0
 12
0
 22
0
 32
0
 70
0
 13
18
 23
17.37780688967831
 33
0
 14
-12.59999999999991
 24
25
 34
0
 53
0
  0
DIMENSION
  8
1
  6
CONTINUOUS
 62
2
  2
*D8
  3
DMST_4
 10
-67.60000000000005
 20
14
 30
0
 11
-70.20000000000005
 21
24.0548775561075
 31
0
 12
0
 22
0
 32
0
 70
0
  1
%%c<>
 13
-16.60000000000014
 23
2
 33
0
 14
-16.60000000000014
 24
14
 34
0
 50
90
 53
0
  0
DIMENSION
  8
1
  6
CONTINUOUS
 62
2
  2
*D9
  3
DMST_5
 10
-57.6
 20
11
 30
0
 11
-61
 21
24.61865290341061
 31
0
 12
0
 22
0
 32
0
 70
0
  1
%%c<>
 13
-37.60000000000002
 23
5
 33
0
 14
-25.60000000000014
 24
11
 34
0
 50
90
 53
0
  0
DIMENSION
  8
1
  6
CONTINUOUS
 62
2
  2
*D10
  3
DMST_2
 10
-47.60000000000011
 20
10.5
 30
0
 11
-50.2000000000001
 21
23.9098793078661
 31
0
 12
0
 22
0
 32
0
 70
0
 13
-37.60000000000002
 23
5
 33
0
 14
-37.60000000000002
 24
10.5
 34
0
 50
90
 53
0
  0
DIMENSION
  8
1
  6
CONTINUOUS
 62
2
  2
*D11
  3
DMST_1
 10
-12.59999999999995
 20
45
 30
0
 11
-25.10000000000002
 21
47.6
 31
0
 12
0
 22
0
 32
0
 70
0
 13
-37.60000000000002
 23
10.5
 33
0
 14
-12.59999999999991
 24
25
 34
0
 53
0
  0
DIMENSION
  8
1
  6
CONTINUOUS
 62
2
  2
*D12
  3
DMST_1
 10
-12.59999999999992
 20
35
 30
0
 11
-14.60000000000002
 21
37.6
 31
0
 12
0
 22
0
 32
0
 70
0
 13
-16.60000000000014
 23
14
 33
0
 14
-12.59999999999991
 24
25
 34
0
 53
0
  0
DIMENSION
  8
1
  6
CONTINUOUS
 62
2
  2
*D13
  3
DMST_1
 10
-37.60000000000011
 20
35
 30
0
 11
-31.60000000000014
 21
37.6
 31
0
 12
0
 22
0
 32
0
 70
0
 13
-25.60000000000014
 23
10.5
 33
0
 14
-37.60000000000002
 24
10.5
 34
0
 53
0
  0
DIMENSION
  8
1
  6
CONTINUOUS
 62
2
  2
*D14
  3
DMST_6
 10
76.50440636242246
 20
92.69241090727358
 30
0
 11
73.90440636242244
 21
110.7389552266197
 31
0
 12
0
 22
0
 32
0
 70
0
  1
２－<>
 13
63.30000000000001
 23
89.89241090727364
 33
0
 14
63.30000000000001
 24
92.6924109072736
 34
0
 50
90
 53
0
  0
DIMENSION
  8
1
  6
CONTINUOUS
 62
2
  2
*D15
  3
DMST_1
 10
60
 20
35.0802795370828
 30
0
 11
69.1041291613778
 21
37.6802795370828
 31
0
 12
0
 22
0
 32
0
 70
0
 13
56.80000000000001
 23
13.38459935896481
 33
0
 14
60
 24
5
 34
0
 53
0
  0
DIMENSION
  8
1
  6
CONTINUOUS
 62
2
  2
*D16
  3
DMST_1
 10
73.79999999999998
 20
5
 30
0
 11
71.19999999999999
 21
0
 31
0
 12
0
 22
0
 32
0
 70
0
  1
%%c<>
 13
60
 23
-5
 33
0
 14
60
 24
5
 34
0
 50
90
 53
0
  0
DIMENSION
  8
1
  6
CONTINUOUS
 62
2
  2
*D17
  3
DMST_1
 10
84.61964094611339
 20
-14.5
 30
0
 11
82.0196409461134
 21
0
 31
0
 12
0
 22
0
 32
0
 70
0
  1
%%c<>
 13
45
 23
14.5
 33
0
 14
45
 24
-14.5
 34
0
 50
90
 53
0
  0
DIMENSION
  8
1
  6
CONTINUOUS
 62
2
  2
*D18
  3
DMST_1
 10
56.80000000000001
 20
110.1924109072735
 30
0
 11
60.30000000000001
 21
112.7924109072735
 31
0
 12
0
 22
0
 32
0
 70
0
 13
63.80000000000001
 23
92.1924109072736
 33
0
 14
56.80000000000001
 24
105.1924109072735
 34
0
 53
0
  0
DIMENSION
  8
1
  6
CONTINUOUS
 62
2
  2
*D19
  3
DMST_7
 10
155.4768407529399
 20
-12.29980776764609
 30
0
 11
152.8768407529399
 21
0
 31
0
 12
0
 22
0
 32
0
 70
0
  1
(<>
 13
133.6699999999999
 23
12.29980776764609
 33
0
 14
133.6699999999999
 24
-12.29980776764609
 34
0
 50
90
 53
0
  0
DIMENSION
  8
1
  6
CONTINUOUS
 62
2
  2
*D21
  3
DMST_3
 10
61.91891599765494
 20
91.75584912662608
 30
0
 11
82.41361718422439
 21
81.05810265636694
 31
0
 12
0
 22
0
 32
0
 70
3
 15
62.68108400234506
 25
90.82897268792091
 35
0
 40
0
 53
0
  0
INSERT
  8
1
  2
*D20
 10
0
 20
0
 30
0
  0
ENDSEC
  0
EOF
