  0
SECTION
  2
HEADER
  9
$ACADVER
  1
AC1014
  9
$ACADMAINTVER
 70
             0
  9
$DWGCODEPAGE
  3
ANSI_1252
  9
$INSBASE
 10
0.0
 20
0.0
 30
0.0
  9
$EXTMIN
 10
-1684546.8578884101
 20
2502641.8711320828
 30
0.0
  9
$EXTMAX
 10
-1684140.24841399
 20
2502926.244772254
 30
0.0
  9
$LIMMIN
 10
0.0
 20
0.0
  9
$LIMMAX
 10
0.0
 20
0.0
  9
$ORTHOMODE
 70
             0
  9
$REGENMODE
 70
             1
  9
$FILLMODE
 70
             1
  9
$QTEXTMODE
 70
             0
  9
$MIRRTEXT
 70
             1
  9
$DRAGMODE
 70
             2
  9
$LTSCALE
 40
1.0
  9
$OSMODE
 70
             0
  9
$ATTMODE
 70
             1
  9
$TEXTSIZE
 40
0.2
  9
$TRACEWID
 40
0.05
  9
$TEXTSTYLE
  7
STANDARD
  9
$CLAYER
  8
0
  9
$CELTYPE
  6
CONTINUOUS
  9
$CECOLOR
 62
           256
  9
$CELTSCALE
 40
1.0
  9
$DELOBJ
 70
             1
  9
$DISPSILH
 70
             0
  9
$DIMSCALE
 40
1.0
  9
$DIMASZ
 40
0.18
  9
$DIMEXO
 40
0.0625
  9
$DIMDLI
 40
0.38
  9
$DIMRND
 40
0.0
  9
$DIMDLE
 40
0.0
  9
$DIMEXE
 40
0.18
  9
$DIMTP
 40
0.0
  9
$DIMTM
 40
0.0
  9
$DIMTXT
 40
0.18
  9
$DIMCEN
 40
0.09
  9
$DIMTSZ
 40
0.0
  9
$DIMTOL
 70
             0
  9
$DIMLIM
 70
             0
  9
$DIMTIH
 70
             1
  9
$DIMTOH
 70
             1
  9
$DIMSE1
 70
             0
  9
$DIMSE2
 70
             0
  9
$DIMTAD
 70
             0
  9
$DIMZIN
 70
             0
  9
$DIMBLK
  1

  9
$DIMASO
 70
             1
  9
$DIMSHO
 70
             1
  9
$DIMPOST
  1

  9
$DIMAPOST
  1

  9
$DIMALT
 70
             0
  9
$DIMALTD
 70
             2
  9
$DIMALTF
 40
25.4
  9
$DIMLFAC
 40
1.0
  9
$DIMTOFL
 70
             0
  9
$DIMTVP
 40
0.0
  9
$DIMTIX
 70
             0
  9
$DIMSOXD
 70
             0
  9
$DIMSAH
 70
             0
  9
$DIMBLK1
  1

  9
$DIMBLK2
  1

  9
$DIMSTYLE
  2
STANDARD
  9
$DIMCLRD
 70
             0
  9
$DIMCLRE
 70
             0
  9
$DIMCLRT
 70
             0
  9
$DIMTFAC
 40
1.0
  9
$DIMGAP
 40
0.09
  9
$DIMJUST
 70
             0
  9
$DIMSD1
 70
             0
  9
$DIMSD2
 70
             0
  9
$DIMTOLJ
 70
             1
  9
$DIMTZIN
 70
             0
  9
$DIMALTZ
 70
             0
  9
$DIMALTTZ
 70
             0
  9
$DIMFIT
 70
             3
  9
$DIMUPT
 70
             0
  9
$DIMUNIT
 70
             2
  9
$DIMDEC
 70
             4
  9
$DIMTDEC
 70
             4
  9
$DIMALTU
 70
             2
  9
$DIMALTTD
 70
             2
  9
$DIMTXSTY
  7
STANDARD
  9
$DIMAUNIT
 70
             0
  9
$LUNITS
 70
             2
  9
$LUPREC
 70
             4
  9
$SKETCHINC
 40
0.1
  9
$FILLETRAD
 40
0.0
  9
$AUNITS
 70
             0
  9
$AUPREC
 70
             0
  9
$MENU
  1
acad
  9
$ELEVATION
 40
0.0
  9
$PELEVATION
 40
0.0
  9
$THICKNESS
 40
0.0
  9
$LIMCHECK
 70
             0
  9
$BLIPMODE
 70
             1
  9
$CHAMFERA
 40
0.0
  9
$CHAMFERB
 40
0.0
  9
$CHAMFERC
 40
0.0
  9
$CHAMFERD
 40
0.0
  9
$SKPOLY
 70
             0
  9
$TDCREATE
 40
0.000000000
  9
$TDUPDATE
 40
0.000000000
  9
$TDINDWG
 40
0.0000000000
  9
$TDUSRTIMER
 40
0.0000000000
  9
$USRTIMER
 70
             1
  9
$ANGBASE
 50
0.0
  9
$ANGDIR
 70
             0
  9
$PDMODE
 70
             0
  9
$PDSIZE
 40
0.0
  9
$PLINEWID
 40
0.0
  9
$COORDS
 70
             0
  9
$SPLFRAME
 70
             0
  9
$SPLINETYPE
 70
             6
  9
$SPLINESEGS
 70
             8
  9
$ATTDIA
 70
             0
  9
$ATTREQ
 70
             1
  9
$HANDLING
 70
             1
  9
$HANDSEED
  5
302
  9
$SURFTAB1
 70
             6
  9
$SURFTAB2
 70
             6
  9
$SURFTYPE
 70
             6
  9
$SURFU
 70
             6
  9
$SURFV
 70
             6
  9
$UCSNAME
  2

  9
$UCSORG
 10
0.0
 20
0.0
 30
0.0
  9
$UCSXDIR
 10
1.0
 20
0.0
 30
0.0
  9
$UCSYDIR
 10
0.0
 20
1.0
 30
0.0
  9
$PUCSNAME
  2

  9
$PUCSORG
 10
0.0
 20
0.0
 30
0.0
  9
$PUCSXDIR
 10
1.0
 20
0.0
 30
0.0
  9
$PUCSYDIR
 10
0.0
 20
1.0
 30
0.0
  9
$USERI1
 70
             0
  9
$USERI2
 70
             0
  9
$USERI3
 70
             0
  9
$USERI4
 70
             0
  9
$USERI5
 70
             0
  9
$USERR1
 40
12.01
  9
$USERR2
 40
0.0
  9
$USERR3
 40
0.0
  9
$USERR4
 40
0.0
  9
$USERR5
 40
0.0
  9
$WORLDVIEW
 70
             1
  9
$SHADEDGE
 70
             3
  9
$SHADEDIF
 70
            70
  9
$TILEMODE
 70
             1
  9
$MAXACTVP
 70
            16
  9
$PINSBASE
 10
0.0
 20
0.0
 30
0.0
  9
$PLIMCHECK
 70
             0
  9
$PEXTMIN
 10
1.00000000000000E+20
 20
1.00000000000000E+20
 30
1.00000000000000E+20
  9
$PEXTMAX
 10
-1.00000000000000E+20
 20
-1.00000000000000E+20
 30
-1.00000000000000E+20
  9
$PLIMMIN
 10
0.0
 20
0.0
  9
$PLIMMAX
 10
12.0
 20
9.0
  9
$UNITMODE
 70
             0
  9
$VISRETAIN
 70
             0
  9
$PLINEGEN
 70
             1
  9
$PSLTSCALE
 70
             0
  9
$TREEDEPTH
 70
          3020
  9
$PICKSTYLE
 70
             1
  9
$CMLSTYLE
  2
STANDARD
  9
$CMLJUST
 70
             0
  9
$CMLSCALE
 40
1.0
  9
$PROXYGRAPHICS
 70
             0
  9
$MEASUREMENT
 70
             1
  0
ENDSEC
  0
SECTION
  2
CLASSES
  0
CLASS
  1
LWPOLYLINE
  2
AcDbPolyline
  3
"AutoCAD"
 90
        0
280
             0
281
             1
  0
CLASS
  1
IMAGE
  2
AcDbRasterImage
  3
ISM
 90
      127
280
             0
281
             1
  0
CLASS
  1
OLE2FRAME
  2
AcDbOle2Frame
  3
""
 90
        0
280
             0
281
             1
  0
CLASS
  1
HATCH
  2
AcDbHatch
  3
"ACAD_SEDONA"
 90
        0
280
             0
281
             1
  0
CLASS
  1
DICTIONARYVAR
  2
AcDbDictionaryVar
  3
"AutoCAD"
 90
        0
280
             0
281
             0
  0
CLASS
  1
RASTERVARIABLES
  2
AcDbRasterVariables
  3
ISM
 90
        0
280
             0
281
             0
  0
CLASS
  1
IMAGEDEF
  2
AcDbRasterImageDef
  3
ISM
 90
        0
280
             0
281
             0
  0
CLASS
  1
IMAGEDEF_REACTOR
  2
AcDbRasterImageDefReactor
  3
ISM
 90
        1
280
             0
281
             0
  0
CLASS
  1
IDBUFFER
  2
AcDbIdBuffer
  3
"Acad"
 90
        0
280
             0
281
             0
  0
CLASS
  1
SPATIAL_FILTER
  2
AcDbSpatialFilter
  3
"Acad"
 90
        0
280
             0
281
             0
  0
CLASS
  1
XRECORD
  2
AcDbXrecord
  3
"<Built In>"
 90
        0
280
             0
281
             0
  0
CLASS
  1
SORTENTSTABLE
  2
AcDbSortentsTable
  3
"AutoCAD"
 90
        0
280
             0
281
             0
  0
CLASS
  1
LAYER_INDEX
  2
AcDbLayerIndex
  3
"Acad"
 90
        0
280
             0
281
             0
  0
CLASS
  1
SPATIAL_INDEX
  2
AcDbSpatialIndex
  3
"Acad"
 90
        0
280
             0
281
             0
  0
CLASS
  1
OBJECT_PTR
  2
CAseDLPNTableRecord
  3
"ASE-LPNTableRecord"
 90
        1
280
             0
281
             0
  0
CLASS
  1
LAYOUT
  2
AcDbLayout
  3
"AutoCAD 2000"
 90
        0
280
             0
281
             0
  0
CLASS
  1
PLOTSETTINGS
  2
AcDbPlotSettings
  3
"AutoCAD 2000"
 90
        0
280
             0
281
             0
  0
CLASS
  1
ACDBDICTIONARYWDFLT
  2
AcDbDictionaryWithDefault
  3
"AutoCAD 2000"
 90
        0
280
             0
281
             0
  0
CLASS
  1
ACDBPLACEHOLDER
  2
AcDbPlaceHolder
  3
"AutoCAD 2000"
 90
        0
280
             0
281
             0
  0
ENDSEC
  0
SECTION
  2
TABLES
  0
TABLE
  2
VPORT
  5
7
100
AcDbSymbolTable
 70
             1
  0
VPORT
  5
15
100
AcDbSymbolTableRecord
100
AcDbViewportTableRecord
  2
*ACTIVE
 70
             0
 10
0.0
 20
0.0
 11
1.0
 21
1.0
 12
-1684343.5531512001
 22
2502784.0579521684
 13
0.0
 23
0.0
 14
1.0
 24
1.0
 15
0.0
 25
0.0
 16
0.0
 26
0.0
 36
1.0
 17
0.0
 27
0.0
 37
0.0
 40
312.81100418837741
 41
1.60267857142857
 42
50.0
 43
0.0
 44
0.0
 50
0.0
 51
0.0
 71
             0
 72
           100
 73
             1
 74
             1
 75
             0
 76
             0
 77
             0
 78
             0
  0
ENDTAB
  0
TABLE
  2
LTYPE
  5
4
100
AcDbSymbolTable
 70
            10
  0
LTYPE
  5
11
100
AcDbSymbolTableRecord
100
AcDbLinetypeTableRecord
  2
BYBLOCK
 70
            64
  3

 72
            65
 73
             0
 40
0.0
  0
LTYPE
  5
12
100
AcDbSymbolTableRecord
100
AcDbLinetypeTableRecord
  2
BYLAYER
 70
            64
  3

 72
            65
 73
             0
 40
0.0
  0
LTYPE
  5
13
100
AcDbSymbolTableRecord
100
AcDbLinetypeTableRecord
  2
CONTINUOUS
 70
            64
  3
Solid line
 72
            65
 73
             0
 40
0.0
  0
LTYPE
  5
1D
100
AcDbSymbolTableRecord
100
AcDbLinetypeTableRecord
  2
DASHED
 70
            64
  3
Dashed
 72
            65
 73
             2
 40
15.0
 49
7.0
 74
             0
 49
-8.0
 74
             0
  0
LTYPE
  5
1E
100
AcDbSymbolTableRecord
100
AcDbLinetypeTableRecord
  2
DOTTED
 70
            64
  3
Dotted
 72
            65
 73
             2
 40
1.0
 49
0.0
 74
             0
 49
-1.0
 74
             0
  0
LTYPE
  5
1F
100
AcDbSymbolTableRecord
100
AcDbLinetypeTableRecord
  2
DOT_CENTER
 70
            64
  3
Dot_Center
 72
            65
 73
             4
 40
14.0
 49
12.0
 74
             0
 49
-1.0
 74
             0
 49
0.0
 74
             0
 49
-1.0
 74
             0
  0
LTYPE
  5
20
100
AcDbSymbolTableRecord
100
AcDbLinetypeTableRecord
  2
LONG_DASHED
 70
            64
  3
Long_Dashed
 72
            65
 73
             2
 40
15.0
 49
10.0
 74
             0
 49
-5.0
 74
             0
  0
LTYPE
  5
21
100
AcDbSymbolTableRecord
100
AcDbLinetypeTableRecord
  2
DASH_CENTER
 70
            64
  3
Dash_Center
 72
            65
 73
             4
 40
14.0
 49
11.0
 74
             0
 49
-1.0
 74
             0
 49
1.0
 74
             0
 49
-1.0
 74
             0
  0
LTYPE
  5
22
100
AcDbSymbolTableRecord
100
AcDbLinetypeTableRecord
  2
PHANTOM
 70
            64
  3
Phantom
 72
            65
 73
             6
 40
13.0
 49
10.0
 74
             0
 49
-1.0
 74
             0
 49
0.0
 74
             0
 49
-1.0
 74
             0
 49
0.0
 74
             0
 49
-1.0
 74
             0
  0
LTYPE
  5
23
100
AcDbSymbolTableRecord
100
AcDbLinetypeTableRecord
  2
CENTER_DASH_DASH
 70
            64
  3
Center_Dash_Dash
 72
            65
 73
             6
 40
14.0
 49
9.0
 74
             0
 49
-1.0
 74
             0
 49
1.0
 74
             0
 49
-1.0
 74
             0
 49
1.0
 74
             0
 49
-1.0
 74
             0
  0
ENDTAB
  0
TABLE
  2
LAYER
  5
2
100
AcDbSymbolTable
 70
             2
  0
LAYER
  5
14
100
AcDbSymbolTableRecord
100
AcDbLayerTableRecord
  2
0
 70
             0
 62
             7
  6
CONTINUOUS
  0
LAYER
  5
24
100
AcDbSymbolTableRecord
100
AcDbLayerTableRecord
  2
1
 70
             0
 62
             7
  6
CONTINUOUS
  0
ENDTAB
  0
TABLE
  2
STYLE
  5
3
100
AcDbSymbolTable
 70
             3
  0
STYLE
  5
17
100
AcDbSymbolTableRecord
100
AcDbTextStyleTableRecord
  2
STANDARD
 70
             0
 40
0.0
 41
1.0
 50
0.0
 71
             0
 42
0.0
  3
txt
  4

  0
STYLE
  5
2A1
100
AcDbSymbolTableRecord
100
AcDbTextStyleTableRecord
  2
CONVERTER_1
 70
             0
 40
0.0
 41
0.9
 50
0.0
 71
             0
 42
0.0
  3
txt.shx
  4

  0
STYLE
  5
2AD
100
AcDbSymbolTableRecord
100
AcDbTextStyleTableRecord
  2
CONVERTER_2
 70
             0
 40
0.0
 41
0.81
 50
0.0
 71
             0
 42
0.0
  3
txt.shx
  4

  0
ENDTAB
  0
TABLE
  2
VIEW
  5
5
100
AcDbSymbolTable
 70
             0
  0
ENDTAB
  0
TABLE
  2
UCS
  5
6
100
AcDbSymbolTable
 70
             0
  0
ENDTAB
  0
TABLE
  2
APPID
  5
8
100
AcDbSymbolTable
 70
             1
  0
APPID
  5
16
100
AcDbSymbolTableRecord
100
AcDbRegAppTableRecord
  2
ACAD
 70
             0
  0
ENDTAB
  0
TABLE
  2
DIMSTYLE
  5
9
100
AcDbSymbolTable
 70
             8
  0
DIMSTYLE
105
18
100
AcDbSymbolTableRecord
100
AcDbDimStyleTableRecord
  2
STANDARD
 70
             0
  3

  4

  5

  6

  7

 40
1.0
 41
0.18
 42
0.0625
 43
0.38
 44
0.18
 45
0.0
 46
0.0
 47
0.0
 48
0.0
 71
             0
 72
             0
 73
             1
 74
             1
 75
             0
 76
             0
 77
             0
 78
             0
140
0.18
141
0.09
142
0.0
143
25.4
144
1.0
145
0.0
146
1.0
147
0.09
170
             0
171
             2
172
             0
173
             0
174
             0
175
             0
176
             0
177
             0
178
             0
270
             2
271
             4
272
             4
273
             2
274
             2
275
             0
280
             0
281
             0
282
             0
283
             1
284
             0
285
             0
286
             0
287
             3
288
             0
340
17
  0
DIMSTYLE
105
2A4
100
AcDbSymbolTableRecord
100
AcDbDimStyleTableRecord
  2
ME10_DIM_0
 70
             0
  3

  4

  5

  6

  7

 40
1.0
 41
4.16
 42
1.0
 43
0.38
 44
1.5
 45
0.0
 46
0.0
 47
30.0
 48
30.0
 71
             1
 72
             0
 73
             0
 74
             0
 75
             0
 76
             0
 77
             1
 78
             8
140
3.2
141
0.09
142
0.0
143
25.4
144
1.0
145
0.0
146
0.6
147
0.625
170
             0
171
             2
172
             1
173
             1
174
             0
175
             0
176
             2
177
             2
178
             2
270
             2
271
             4
272
             0
273
             2
274
             2
275
             0
280
             0
281
             0
282
             0
283
             1
284
             0
285
             0
286
             0
287
             3
288
             0
340
2A1
  0
DIMSTYLE
105
2B0
100
AcDbSymbolTableRecord
100
AcDbDimStyleTableRecord
  2
ME10_DIM_1
 70
             0
  3
Æ<>
  4

  5

  6

  7

 40
1.0
 41
3.9
 42
1.0
 43
0.38
 44
1.5
 45
0.0
 46
0.0
 47
0.0
 48
0.0
 71
             0
 72
             0
 73
             0
 74
             0
 75
             0
 76
             0
 77
             1
 78
             8
140
3.0
141
0.09
142
0.0
143
25.4
144
1.0
145
0.0
146
1.0
147
0.625
170
             0
171
             2
172
             1
173
             1
174
             0
175
             0
176
             2
177
             2
178
             2
270
             2
271
             4
272
             4
273
             2
274
             2
275
             0
280
             0
281
             0
282
             0
283
             1
284
             0
285
             0
286
             0
287
             3
288
             0
340
2AD
  0
DIMSTYLE
105
2BD
100
AcDbSymbolTableRecord
100
AcDbDimStyleTableRecord
  2
ME10_DIM_2
 70
             0
  3

  4

  5

  6

  7

 40
1.0
 41
3.9
 42
1.0
 43
0.38
 44
1.5
 45
0.0
 46
0.0
 47
0.0
 48
0.0
 71
             0
 72
             0
 73
             0
 74
             0
 75
             0
 76
             0
 77
             1
 78
             8
140
3.0
141
0.09
142
0.0
143
25.4
144
1.0
145
0.0
146
1.0
147
0.625
170
             0
171
             2
172
             1
173
             1
174
             0
175
             0
176
             2
177
             2
178
             2
270
             2
271
             4
272
             4
273
             2
274
             2
275
             0
280
             0
281
             0
282
             0
283
             1
284
             0
285
             0
286
             0
287
             3
288
             0
340
2AD
  0
DIMSTYLE
105
2C8
100
AcDbSymbolTableRecord
100
AcDbDimStyleTableRecord
  2
ME10_DIM_3
 70
             0
  3

  4

  5

  6

  7

 40
1.0
 41
3.9
 42
1.0
 43
0.38
 44
1.5
 45
0.0
 46
0.0
 47
0.0
 48
0.0
 71
             0
 72
             0
 73
             0
 74
             0
 75
             0
 76
             0
 77
             1
 78
             8
140
3.0
141
0.09
142
0.0
143
25.4
144
1.0
145
0.0
146
1.0
147
0.625
170
             0
171
             2
172
             1
173
             1
174
             0
175
             0
176
             2
177
             2
178
             2
270
             2
271
             4
272
             4
273
             2
274
             2
275
             0
280
             0
281
             0
282
             0
283
             1
284
             0
285
             0
286
             0
287
             3
288
             0
340
2AD
  0
DIMSTYLE
105
2D5
100
AcDbSymbolTableRecord
100
AcDbDimStyleTableRecord
  2
ME10_DIM_4
 70
             0
  3

  4

  5

  6

  7

 40
1.0
 41
3.9
 42
1.0
 43
0.38
 44
1.5
 45
0.0
 46
0.0
 47
0.0
 48
0.0
 71
             0
 72
             0
 73
             0
 74
             0
 75
             0
 76
             0
 77
             1
 78
             8
140
3.0
141
0.09
142
0.0
143
25.4
144
1.0
145
0.0
146
1.0
147
0.625
170
             0
171
             2
172
             1
173
             1
174
             0
175
             0
176
             2
177
             2
178
             2
270
             2
271
             4
272
             4
273
             2
274
             2
275
             0
280
             0
281
             0
282
             0
283
             1
284
             0
285
             0
286
             0
287
             3
288
             0
340
2AD
  0
DIMSTYLE
105
2E0
100
AcDbSymbolTableRecord
100
AcDbDimStyleTableRecord
  2
ME10_DIM_5
 70
             0
  3

  4

  5

  6

  7

 40
1.0
 41
3.9
 42
1.0
 43
0.38
 44
1.5
 45
0.0
 46
0.0
 47
0.0
 48
0.0
 71
             0
 72
             0
 73
             0
 74
             0
 75
             0
 76
             0
 77
             1
 78
             8
140
3.0
141
0.09
142
0.0
143
25.4
144
1.0
145
0.0
146
1.0
147
0.625
170
             0
171
             2
172
             1
173
             1
174
             0
175
             0
176
             2
177
             2
178
             2
270
             2
271
             4
272
             4
273
             2
274
             2
275
             0
280
             0
281
             0
282
             0
283
             1
284
             0
285
             0
286
             0
287
             3
288
             0
340
2AD
  0
DIMSTYLE
105
2FF
100
AcDbSymbolTableRecord
100
AcDbDimStyleTableRecord
  2
ME10_DIM_6
 70
             0
  3

  4

  5

  6

  7

 40
1.0
 41
3.9
 42
1.0
 43
0.38
 44
1.5
 45
0.0
 46
0.0
 47
2.0
 48
2.0
 71
             1
 72
             0
 73
             0
 74
             0
 75
             0
 76
             0
 77
             1
 78
             8
140
3.0
141
0.09
142
0.0
143
25.4
144
1.0
145
0.0
146
0.6
147
0.625
170
             0
171
             2
172
             1
173
             1
174
             0
175
             0
176
             2
177
             2
178
             2
270
             2
271
             2
272
             0
273
             2
274
             2
275
             0
280
             0
281
             0
282
             0
283
             1
284
             0
285
             0
286
             0
287
             3
288
             0
340
2AD
  0
ENDTAB
  0
TABLE
  2
BLOCK_RECORD
  5
1
100
AcDbSymbolTable
 70
             9
  0
BLOCK_RECORD
  5
A
100
AcDbSymbolTableRecord
100
AcDbBlockTableRecord
  2
*MODEL_SPACE
  0
BLOCK_RECORD
  5
B
100
AcDbSymbolTableRecord
100
AcDbBlockTableRecord
  2
*PAPER_SPACE
  0
BLOCK_RECORD
  5
29A
100
AcDbSymbolTableRecord
100
AcDbBlockTableRecord
  2
*D0
  0
BLOCK_RECORD
  5
2A6
100
AcDbSymbolTableRecord
100
AcDbBlockTableRecord
  2
*D1
  0
BLOCK_RECORD
  5
2B2
100
AcDbSymbolTableRecord
100
AcDbBlockTableRecord
  2
*D2
  0
BLOCK_RECORD
  5
2BF
100
AcDbSymbolTableRecord
100
AcDbBlockTableRecord
  2
*D3
  0
BLOCK_RECORD
  5
2CA
100
AcDbSymbolTableRecord
100
AcDbBlockTableRecord
  2
*D4
  0
BLOCK_RECORD
  5
2D7
100
AcDbSymbolTableRecord
100
AcDbBlockTableRecord
  2
*D5
  0
BLOCK_RECORD
  5
2E2
100
AcDbSymbolTableRecord
100
AcDbBlockTableRecord
  2
*D6
  0
BLOCK_RECORD
  5
2EB
100
AcDbSymbolTableRecord
100
AcDbBlockTableRecord
  2
*D7
  0
BLOCK_RECORD
  5
2F4
100
AcDbSymbolTableRecord
100
AcDbBlockTableRecord
  2
*D8
  0
ENDTAB
  0
ENDSEC
  0
SECTION
  2
BLOCKS
  0
BLOCK
  5
D
100
AcDbEntity
  8
0
100
AcDbBlockBegin
  2
*MODEL_SPACE
 70
             0
 10
0.0
 20
0.0
 30
0.0
  3
*MODEL_SPACE
  1

  0
ENDBLK
  5
E
100
AcDbEntity
  8
0
100
AcDbBlockEnd
  0
BLOCK
  5
F
100
AcDbEntity
 67
             1
  8
0
100
AcDbBlockBegin
  2
*PAPER_SPACE
 70
             0
 10
0.0
 20
0.0
 30
0.0
  3
*PAPER_SPACE
  1

  0
ENDBLK
  5
10
100
AcDbEntity
 67
             1
  8
0
100
AcDbBlockEnd
  0
BLOCK
  5
29B
100
AcDbEntity
  8
0
100
AcDbBlockBegin
  2
*D0
 70
             1
 10
0.0
 20
0.0
 30
0.0
  3
*D0
  1

  0
LINE
  5
29C
100
AcDbEntity
  8
0
  6
CONTINUOUS
 62
             2
100
AcDbLine
 10
-1684367.6767029103
 20
2502846.2115394198
 11
-1684259.6766469853
 21
2502846.2115394198
  0
LINE
  5
29D
100
AcDbEntity
  8
0
  6
CONTINUOUS
 62
             2
100
AcDbLine
 10
-1684259.6766469853
 20
2502781.4619615707
 11
-1684259.6766469853
 21
2502847.7115394198
  0
LINE
  5
29E
100
AcDbEntity
  8
0
  6
CONTINUOUS
 62
             2
100
AcDbLine
 10
-1684367.6767029103
 20
2502782.8378358935
 11
-1684367.6767029103
 21
2502847.7115394198
  0
SOLID
  5
29F
100
AcDbEntity
  8
0
 62
             2
100
AcDbTrace
 10
-1684363.5167029104
 20
2502846.7592138099
 11
-1684363.5167029104
 21
2502845.6638650298
 12
-1684367.6767029103
 22
2502846.2115394198
 13
-1684367.6767029103
 23
2502846.2115394198
  0
SOLID
  5
2A0
100
AcDbEntity
  8
0
 62
             2
100
AcDbTrace
 10
-1684263.8366469853
 20
2502845.6638650298
 11
-1684263.8366469853
 21
2502846.7592138099
 12
-1684259.6766469853
 22
2502846.2115394198
 13
-1684259.6766469853
 23
2502846.2115394198
  0
MTEXT
  5
2A2
100
AcDbEntity
  8
0
 62
             2
100
AcDbMText
 10
-1684319.5151434401
 20
2502848.2115394198
 30
0.0
 40
3.2
 41
0.0
 71
             7
 72
             1
  1
\C2;300\C2;\H1.920000;{\Fgdt;`}30
  7
CONVERTER_1
 11
0.99999999999706
 21
0.00000242406841
 31
0.0
  0
ENDBLK
  5
2A3
100
AcDbEntity
  8
0
100
AcDbBlockEnd
  0
BLOCK
  5
2A7
100
AcDbEntity
  8
0
100
AcDbBlockBegin
  2
*D1
 70
             1
 10
0.0
 20
0.0
 30
0.0
  3
*D1
  1

  0
LINE
  5
2A8
100
AcDbEntity
  8
0
  6
CONTINUOUS
 62
             2
100
AcDbLine
 10
-1684141.74841399
 20
2502828.1878358941
 11
-1684141.74841399
 21
2502656.6878358941
  0
LINE
  5
2A9
100
AcDbEntity
  8
0
  6
CONTINUOUS
 62
             2
100
AcDbLine
 10
-1684165.894560437
 20
2502656.6878358941
 11
-1684140.24841399
 21
2502656.6878358941
  0
LINE
  5
2AA
100
AcDbEntity
  8
0
  6
CONTINUOUS
 62
             2
100
AcDbLine
 10
-1684165.894560437
 20
2502828.1878358941
 11
-1684140.24841399
 21
2502828.1878358941
  0
SOLID
  5
2AB
100
AcDbEntity
  8
0
 62
             2
100
AcDbTrace
 10
-1684141.2349692495
 20
2502824.2878358942
 11
-1684142.2618587306
 21
2502824.2878358942
 12
-1684141.74841399
 22
2502828.1878358941
 13
-1684141.74841399
 23
2502828.1878358941
  0
SOLID
  5
2AC
100
AcDbEntity
  8
0
 62
             2
100
AcDbTrace
 10
-1684142.2618587306
 20
2502660.587835894
 11
-1684141.2349692495
 21
2502660.587835894
 12
-1684141.74841399
 22
2502656.6878358941
 13
-1684141.74841399
 23
2502656.6878358941
  0
MTEXT
  5
2AE
100
AcDbEntity
  8
0
 62
             2
100
AcDbMText
 10
-1684144.5484139898
 20
2502737.5193627835
 30
0.0
 40
3.0
 41
0.0
 71
             7
 72
             1
  1
\C2;Æ\C2;172
  7
CONVERTER_2
 11
0.0
 21
1.0
 31
0.0
  0
ENDBLK
  5
2AF
100
AcDbEntity
  8
0
100
AcDbBlockEnd
  0
BLOCK
  5
2B3
100
AcDbEntity
  8
0
100
AcDbBlockBegin
  2
*D2
 70
             1
 10
0.0
 20
0.0
 30
0.0
  3
*D2
  1

  0
LINE
  5
2B4
100
AcDbEntity
  8
0
  6
CONTINUOUS
 62
             2
100
AcDbLine
 10
-1684209.4945604391
 20
2502840.122005472
 11
-1684201.6945604391
 21
2502840.122005472
  0
LINE
  5
2B5
100
AcDbEntity
  8
0
  6
CONTINUOUS
 62
             2
100
AcDbLine
 10
-1684216.9945604391
 20
2502840.122005472
 11
-1684209.4945604391
 21
2502840.122005472
  0
LINE
  5
2B6
100
AcDbEntity
  8
0
  6
CONTINUOUS
 62
             2
100
AcDbLine
 10
-1684226.758735681
 20
2502840.122005472
 11
-1684216.9945604391
 21
2502840.122005472
  0
LINE
  5
2B7
100
AcDbEntity
  8
0
  6
CONTINUOUS
 62
             2
100
AcDbLine
 10
-1684209.4945604391
 20
2502828.1878358936
 11
-1684209.4945604391
 21
2502841.622005472
  0
LINE
  5
2B8
100
AcDbEntity
  8
0
  6
CONTINUOUS
 62
             2
100
AcDbLine
 10
-1684216.9945604391
 20
2502829.0561750503
 11
-1684216.9945604391
 21
2502841.622005472
  0
SOLID
  5
2B9
100
AcDbEntity
  8
0
 62
             2
100
AcDbTrace
 10
-1684220.894560439
 20
2502839.6085607312
 11
-1684220.894560439
 21
2502840.6354502128
 12
-1684216.9945604391
 22
2502840.122005472
 13
-1684216.9945604391
 23
2502840.122005472
  0
SOLID
  5
2BA
100
AcDbEntity
  8
0
 62
             2
100
AcDbTrace
 10
-1684205.5945604392
 20
2502840.6354502128
 11
-1684205.5945604392
 21
2502839.6085607312
 12
-1684209.4945604391
 22
2502840.122005472
 13
-1684209.4945604391
 23
2502840.122005472
  0
MTEXT
  5
2BB
100
AcDbEntity
  8
0
 62
             2
100
AcDbMText
 10
-1684226.758735681
 20
2502842.122005472
 30
0.0
 40
3.0
 41
0.0
 71
             7
 72
             1
  1
7.5
  7
CONVERTER_2
 11
0.99999999999706
 21
0.00000242406841
 31
0.0
  0
ENDBLK
  5
2BC
100
AcDbEntity
  8
0
100
AcDbBlockEnd
  0
BLOCK
  5
2C0
100
AcDbEntity
  8
0
100
AcDbBlockBegin
  2
*D3
 70
             1
 10
0.0
 20
0.0
 30
0.0
  3
*D3
  1

  0
LINE
  5
2C1
100
AcDbEntity
  8
0
  6
CONTINUOUS
 62
             2
100
AcDbLine
 10
-1684216.9945604391
 20
2502847.1330674891
 11
-1684166.1945604375
 21
2502847.1330674891
  0
LINE
  5
2C2
100
AcDbEntity
  8
0
  6
CONTINUOUS
 62
             2
100
AcDbLine
 10
-1684166.1945604375
 20
2502829.0561750499
 11
-1684166.1945604375
 21
2502848.6330674891
  0
LINE
  5
2C3
100
AcDbEntity
  8
0
  6
CONTINUOUS
 62
             2
100
AcDbLine
 10
-1684216.9945604391
 20
2502829.0561750499
 11
-1684216.9945604391
 21
2502848.6330674891
  0
SOLID
  5
2C4
100
AcDbEntity
  8
0
 62
             2
100
AcDbTrace
 10
-1684213.0945604392
 20
2502847.6465122299
 11
-1684213.0945604392
 21
2502846.6196227483
 12
-1684216.9945604391
 22
2502847.1330674891
 13
-1684216.9945604391
 23
2502847.1330674891
  0
SOLID
  5
2C5
100
AcDbEntity
  8
0
 62
             2
100
AcDbTrace
 10
-1684170.0945604374
 20
2502846.6196227483
 11
-1684170.0945604374
 21
2502847.6465122299
 12
-1684166.1945604375
 22
2502847.1330674891
 13
-1684166.1945604375
 23
2502847.1330674891
  0
MTEXT
  5
2C6
100
AcDbEntity
  8
0
 62
             2
100
AcDbMText
 10
-1684194.2120562051
 20
2502849.1330674891
 30
0.0
 40
3.0
 41
0.0
 71
             7
 72
             1
  1
51
  7
CONVERTER_2
 11
0.99999999999706
 21
0.00000242406841
 31
0.0
  0
ENDBLK
  5
2C7
100
AcDbEntity
  8
0
100
AcDbBlockEnd
  0
BLOCK
  5
2CB
100
AcDbEntity
  8
0
100
AcDbBlockBegin
  2
*D4
 70
             1
 10
0.0
 20
0.0
 30
0.0
  3
*D4
  1

  0
LINE
  5
2CC
100
AcDbEntity
  8
0
  6
CONTINUOUS
 62
             2
100
AcDbLine
 10
-1684173.6945604377
 20
2502840.122005472
 11
-1684181.4945604377
 21
2502840.122005472
  0
LINE
  5
2CD
100
AcDbEntity
  8
0
  6
CONTINUOUS
 62
             2
100
AcDbLine
 10
-1684166.1945604377
 20
2502840.122005472
 11
-1684173.6945604377
 21
2502840.122005472
  0
LINE
  5
2CE
100
AcDbEntity
  8
0
  6
CONTINUOUS
 62
             2
100
AcDbLine
 10
-1684156.3294363341
 20
2502840.122005472
 11
-1684166.1945604377
 21
2502840.122005472
  0
LINE
  5
2CF
100
AcDbEntity
  8
0
  6
CONTINUOUS
 62
             2
100
AcDbLine
 10
-1684173.6945604377
 20
2502829.1878358945
 11
-1684173.6945604377
 21
2502841.622005472
  0
LINE
  5
2D0
100
AcDbEntity
  8
0
  6
CONTINUOUS
 62
             2
100
AcDbLine
 10
-1684166.1945604377
 20
2502829.0561750503
 11
-1684166.1945604377
 21
2502841.622005472
  0
SOLID
  5
2D1
100
AcDbEntity
  8
0
 62
             2
100
AcDbTrace
 10
-1684162.2945604378
 20
2502840.6354502128
 11
-1684162.2945604378
 21
2502839.6085607312
 12
-1684166.1945604377
 22
2502840.122005472
 13
-1684166.1945604377
 23
2502840.122005472
  0
SOLID
  5
2D2
100
AcDbEntity
  8
0
 62
             2
100
AcDbTrace
 10
-1684177.5945604376
 20
2502839.6085607312
 11
-1684177.5945604376
 21
2502840.6354502128
 12
-1684173.6945604377
 22
2502840.122005472
 13
-1684173.6945604377
 23
2502840.122005472
  0
MTEXT
  5
2D3
100
AcDbEntity
  8
0
 62
             2
100
AcDbMText
 10
-1684161.3919363341
 20
2502842.122005472
 30
0.0
 40
3.0
 41
0.0
 71
             7
 72
             1
  1
7.5
  7
CONVERTER_2
 11
0.99999999999706
 21
0.00000242406841
 31
0.0
  0
ENDBLK
  5
2D4
100
AcDbEntity
  8
0
100
AcDbBlockEnd
  0
BLOCK
  5
2D8
100
AcDbEntity
  8
0
100
AcDbBlockBegin
  2
*D5
 70
             1
 10
0.0
 20
0.0
 30
0.0
  3
*D5
  1

  0
LINE
  5
2D9
100
AcDbEntity
  8
0
  6
CONTINUOUS
 62
             2
100
AcDbLine
 10
-1684518.0767029112
 20
2502846.3115394199
 11
-1684367.6767029103
 21
2502846.3115394199
  0
LINE
  5
2DA
100
AcDbEntity
  8
0
  6
CONTINUOUS
 62
             2
100
AcDbLine
 10
-1684367.6767029103
 20
2502784.6449044612
 11
-1684367.6767029103
 21
2502847.8115394199
  0
LINE
  5
2DB
100
AcDbEntity
  8
0
  6
CONTINUOUS
 62
             2
100
AcDbLine
 10
-1684518.0767029112
 20
2502784.6449044612
 11
-1684518.0767029112
 21
2502847.8115394199
  0
SOLID
  5
2DC
100
AcDbEntity
  8
0
 62
             2
100
AcDbTrace
 10
-1684514.1767029113
 20
2502846.8249841607
 11
-1684514.1767029113
 21
2502845.7980946791
 12
-1684518.0767029112
 22
2502846.3115394199
 13
-1684518.0767029112
 23
2502846.3115394199
  0
SOLID
  5
2DD
100
AcDbEntity
  8
0
 62
             2
100
AcDbTrace
 10
-1684371.5767029102
 20
2502845.7980946791
 11
-1684371.5767029102
 21
2502846.8249841607
 12
-1684367.6767029103
 22
2502846.3115394199
 13
-1684367.6767029103
 23
2502846.3115394199
  0
MTEXT
  5
2DE
100
AcDbEntity
  8
0
 62
             2
100
AcDbMText
 10
-1684442.8000346001
 20
2502848.3115394199
 30
0.0
 40
3.0
 41
0.0
 71
             7
 72
             1
  1
150
  7
CONVERTER_2
 11
0.99999999999706
 21
0.00000242406841
 31
0.0
  0
ENDBLK
  5
2DF
100
AcDbEntity
  8
0
100
AcDbBlockEnd
  0
BLOCK
  5
2E3
100
AcDbEntity
  8
0
100
AcDbBlockBegin
  2
*D6
 70
             1
 10
0.0
 20
0.0
 30
0.0
  3
*D6
  1

  0
LINE
  5
2E4
100
AcDbEntity
  8
0
  6
CONTINUOUS
 62
             2
100
AcDbLine
 10
-1684526.66288841
 20
2502772.9757552301
 11
-1684546.8578884099
 21
2502772.9757552301
  0
LINE
  5
2E5
100
AcDbEntity
  8
0
  6
CONTINUOUS
 62
             2
100
AcDbLine
 10
-1684366.7739394328
 20
2502714.7003271552
 11
-1684526.66288841
 21
2502772.9757552301
  0
SOLID
  5
2E6
100
AcDbEntity
  8
0
 62
             2
100
AcDbTrace
 10
-1684515.1394360736
 20
2502769.3222369719
 11
-1684515.4910824434
 21
2502768.3574329312
 12
-1684518.9794663892
 22
2502770.1753446311
 13
-1684518.9794663892
 23
2502770.1753446311
  0
SOLID
  5
2E7
100
AcDbEntity
  8
0
 62
             2
100
AcDbTrace
 10
-1684370.6139697484
 20
2502715.5534348143
 11
-1684370.2623233786
 21
2502716.5182388551
 12
-1684366.7739394328
 22
2502714.7003271552
 13
-1684366.7739394328
 23
2502714.7003271552
  0
MTEXT
  5
2E8
100
AcDbEntity
  8
0
 62
             2
100
AcDbMText
 10
-1684548.3878884099
 20
2502774.9757552301
 30
0.0
 40
3.0
 41
0.0
 71
             7
 72
             1
  1
\C2;{\Fgdt;n}\C2;\C2;162\C2;\H1.800000;{\Fgdt;`}0.3
  7
CONVERTER_2
  0
ENDBLK
  5
2E9
100
AcDbEntity
  8
0
100
AcDbBlockEnd
  0
BLOCK
  5
2EC
100
AcDbEntity
  8
0
100
AcDbBlockBegin
  2
*D7
 70
             1
 10
0.0
 20
0.0
 30
0.0
  3
*D7
  1

  0
LINE
  5
2ED
100
AcDbEntity
  8
0
  6
CONTINUOUS
 62
             2
100
AcDbLine
 10
-1684456.0195328561
 20
2502834.9542277101
 11
-1684481.2135034441
 21
2502834.9542277101
  0
LINE
  5
2EE
100
AcDbEntity
  8
0
  6
CONTINUOUS
 62
             2
100
AcDbLine
 10
-1684436.7846041054
 20
2502818.0996403047
 11
-1684456.0195328561
 21
2502834.9542277101
  0
SOLID
  5
2EF
100
AcDbEntity
  8
0
 62
             2
100
AcDbTrace
 10
-1684447.8405641585
 20
2502827.1047429033
 11
-1684447.1638065167
 21
2502827.8770777406
 12
-1684444.5689525793
 22
2502824.9206680013
 13
-1684444.5689525793
 23
2502824.9206680013
  0
SOLID
  5
2F0
100
AcDbEntity
  8
0
 62
             2
100
AcDbTrace
 10
-1684437.9128416635
 20
2502819.770928883
 11
-1684438.5895993053
 21
2502818.9985940456
 12
-1684441.1844532427
 22
2502821.955003785
 13
-1684441.1844532427
 23
2502821.955003785
  0
MTEXT
  5
2F1
100
AcDbEntity
  8
0
 62
             2
100
AcDbMText
 10
-1684482.0570328562
 20
2502836.9542277101
 30
0.0
 40
3.0
 41
0.0
 71
             7
 72
             1
  1
\C2;8~{\Fgdt;n}\C2;\C2;4.5\C2;\H1.800000;{\Fgdt;`}0.3
  7
CONVERTER_2
  0
ENDBLK
  5
2F2
100
AcDbEntity
  8
0
100
AcDbBlockEnd
  0
BLOCK
  5
2F5
100
AcDbEntity
  8
0
100
AcDbBlockBegin
  2
*D8
 70
             1
 10
0.0
 20
0.0
 30
0.0
  3
*D8
  1

  0
LINE
  5
2F6
100
AcDbEntity
  8
0
  6
CONTINUOUS
 62
             2
100
AcDbLine
 10
-1684369.2370880747
 20
2502691.826730819
 11
-1684359.9970485966
 21
2502685.4762276295
  0
LINE
  5
2F7
100
AcDbEntity
  8
0
  6
CONTINUOUS
 62
             2
100
AcDbLine
 10
-1684516.5163177454
 20
2502691.826730819
 11
-1684525.7563572247
 21
2502685.4762276281
  0
LINE
  5
2F8
100
AcDbEntity
  8
0
  6
CONTINUOUS
 62
             2
100
AcDbLine
 10
-1684359.9970485966
 20
2502685.4762276295
 11
-1684358.7608593137
 21
2502684.626618274
  0
LINE
  5
2F9
100
AcDbEntity
  8
0
  6
CONTINUOUS
 62
             2
100
AcDbLine
 10
-1684525.7563572247
 20
2502685.4762276281
 11
-1684526.9925465076
 21
2502684.6266182731
  0
ARC
  5
2FA
100
AcDbEntity
  8
0
  6
CONTINUOUS
 62
             2
100
AcDbCircle
 10
-1684442.876702911
 20
2502742.4378358931
 40
100.56670381043506
100
AcDbArc
 50
-145.50000000009808
 51
-34.49999999902062
  0
SOLID
  5
2FB
100
AcDbEntity
  8
0
 62
             2
100
AcDbTrace
 10
-1684523.0680453719
 20
2502682.6045373795
 11
-1684523.9028955048
 21
2502682.006601545
 12
-1684525.7563572247
 22
2502685.4762276281
 13
-1684525.7563572247
 23
2502685.4762276281
  0
SOLID
  5
2FC
100
AcDbEntity
  8
0
 62
             2
100
AcDbTrace
 10
-1684361.8505103164
 20
2502682.0066015464
 11
-1684362.6853604494
 21
2502682.6045373809
 12
-1684359.9970485966
 22
2502685.4762276295
 13
-1684359.9970485966
 23
2502685.4762276295
  0
MTEXT
  5
2FD
100
AcDbEntity
  8
0
 62
             2
100
AcDbMText
 10
-1684449.7231581863
 20
2502643.9543776363
 30
0.0
 40
3.0
 41
0.0
 71
             7
 72
             1
  1
\C2;111{\Fgdt;~}\C2;\H1.800000;{\Fgdt;`}2{\Fgdt;~}
  7
CONVERTER_2
 11
0.99999999999706
 21
0.00000242406841
 31
0.0
  0
ENDBLK
  5
2FE
100
AcDbEntity
  8
0
100
AcDbBlockEnd
  0
ENDSEC
  0
SECTION
  2
ENTITIES
  0
DIMENSION
  5
300
100
AcDbEntity
  8
1
100
AcDbDimension
  2
*D8
 10
-1684442.8767029103
 20
2502641.8711320828
 11
-1684444.1834646601
 21
2502645.3799286298
 31
0.0
 70
             5
  1
<>
  3
ME10_DIM_6
100
AcDb3PointAngularDimension
 13
-1684515.692191557
 23
2502692.3931370559
 14
-1684370.0612142631
 24
2502692.3931370559
 15
-1684442.876702911
 25
2502742.4378358931
  0
DIMENSION
  5
2E1
100
AcDbEntity
  8
1
100
AcDbDimension
  2
*D5
 10
-1684518.0767029112
 20
2502846.3115394199
 11
-1684439.9650346001
 21
2502849.8115394199
 31
0.0
 53
0.00013888888889
  1
150
  3
ME10_DIM_5
100
AcDbAlignedDimension
 13
-1684367.6767029101
 23
2502783.6449044612
 14
-1684518.0767029109
 24
2502783.6449044612
100
AcDbRotatedDimension
  0
DIMENSION
  5
2D6
100
AcDbEntity
  8
1
100
AcDbDimension
  2
*D4
 10
-1684166.1945604377
 20
2502840.122005472
 11
-1684158.8606863341
 21
2502843.622005472
 31
0.0
 53
0.00013888888889
  1
7.5
  3
ME10_DIM_4
100
AcDbAlignedDimension
 13
-1684173.6945604379
 23
2502828.1878358941
 14
-1684166.1945604379
 24
2502828.0561750499
100
AcDbRotatedDimension
  0
DIMENSION
  5
2C9
100
AcDbEntity
  8
1
100
AcDbDimension
  2
*D3
 10
-1684216.9945604391
 20
2502847.1330674891
 11
-1684192.592056205
 21
2502850.6330674891
 31
0.0
 53
0.00013888888889
  1
51
  3
ME10_DIM_3
100
AcDbAlignedDimension
 13
-1684166.1945604379
 23
2502828.0561750499
 14
-1684216.9945604389
 24
2502828.0561750499
100
AcDbRotatedDimension
  0
DIMENSION
  5
2BE
100
AcDbEntity
  8
1
100
AcDbDimension
  2
*D2
 10
-1684216.9945604391
 20
2502840.122005472
 11
-1684224.227485681
 21
2502843.622005472
 31
0.0
 53
0.00013888888889
  1
7.5
  3
ME10_DIM_2
100
AcDbAlignedDimension
 13
-1684209.4945604389
 23
2502827.1878358931
 14
-1684216.9945604389
 24
2502828.0561750499
100
AcDbRotatedDimension
  0
DIMENSION
  5
2B1
100
AcDbEntity
  8
1
100
AcDbDimension
  2
*D1
 10
-1684141.74841399
 20
2502828.1878358941
 11
-1684145.6484139899
 21
2502743.3773039598
 31
0.0
 53
90.0
  1
Æ172
  3
ME10_DIM_1
100
AcDbAlignedDimension
 13
-1684166.894560437
 23
2502656.6878358941
 14
-1684166.894560437
 24
2502828.1878358941
 50
90.0
100
AcDbRotatedDimension
  0
DIMENSION
  5
2A5
100
AcDbEntity
  8
1
100
AcDbDimension
  2
*D0
 10
-1684367.6767029103
 20
2502846.2115394198
 11
-1684312.76314344
 21
2502849.8115394199
 31
0.0
 53
0.00013888888889
  1
300
  3
ME10_DIM_0
100
AcDbAlignedDimension
 13
-1684259.6766469851
 23
2502780.4619615711
 14
-1684367.6767029101
 24
2502781.837835894
100
AcDbRotatedDimension
  0
LWPOLYLINE
  5
299
100
AcDbEntity
  8
0
  6
CONTINUOUS
 62
             3
100
AcDbPolyline
 90
        4
 70
             0
 10
-1684374.2262841209
 20
2502891.4209031072
 10
-1684373.1102521711
 20
2502889.2400083109
 10
-1684373.1102521711
 20
2502889.2400083109
 10
-1684370.6767029101
 20
2502884.4643887989
  0
LWPOLYLINE
  5
297
100
AcDbEntity
  8
0
  6
CONTINUOUS
 62
             3
100
AcDbPolyline
 90
        4
 70
             0
 10
-1684368.683582573
 20
2502874.1447912478
 10
-1684376.6156352989
 20
2502889.0750075369
 10
-1684376.6156352989
 20
2502889.0750075369
 10
-1684378.2200713879
 20
2502892.0446288618
  0
LWPOLYLINE
  5
295
100
AcDbEntity
  8
0
  6
CONTINUOUS
 62
             3
100
AcDbPolyline
 90
        4
 70
             0
 10
-1684438.8025458229
 20
2502874.1447912478
 10
-1684438.366295791
 20
2502876.1377210058
 10
-1684438.366295791
 20
2502876.1377210058
 10
-1684438.157612517
 20
2502878.1447912478
  0
LWPOLYLINE
  5
293
100
AcDbEntity
  8
0
  6
CONTINUOUS
 62
             3
100
AcDbPolyline
 90
        4
 70
             0
 10
-1684447.595793305
 20
2502878.1447912478
 10
-1684447.3838111451
 20
2502876.1167826951
 10
-1684447.3838111451
 20
2502876.1167826951
 10
-1684446.950859997
 20
2502874.1447912478
  0
LWPOLYLINE
  5
291
100
AcDbEntity
  8
0
  6
CONTINUOUS
 62
             3
100
AcDbPolyline
 90
        4
 70
             0
 10
-1684176.4946082339
 20
2502817.6378358938
 10
-1684175.15942064
 20
2502818.9765208028
 10
-1684175.15942064
 20
2502818.9765208028
 10
-1684173.6945604379
 20
2502820.4450702248
  0
LWPOLYLINE
  5
28F
100
AcDbEntity
  8
0
  6
CONTINUOUS
 62
             3
100
AcDbPolyline
 90
        4
 70
             0
 10
-1684176.6945604379
 20
2502667.4383118399
 10
-1684173.9852423749
 20
2502664.7220045002
 10
-1684173.9852423749
 20
2502664.7220045002
 10
-1684173.6945604379
 20
2502664.4306015628
  0
LWPOLYLINE
  5
28D
100
AcDbEntity
  8
0
  6
CONTINUOUS
 62
             3
100
AcDbPolyline
 90
        4
 70
             0
 10
-1684173.6945604379
 20
2502690.7622824558
 10
-1684175.2067448699
 20
2502693.0805276241
 10
-1684175.2067448699
 20
2502693.0805276241
 10
-1684176.6945604379
 20
2502695.4254670618
  0
LWPOLYLINE
  5
28B
100
AcDbEntity
  8
0
  6
CONTINUOUS
 62
             3
100
AcDbPolyline
 90
        4
 70
             0
 10
-1684210.4945604389
 20
2502660.8968314049
 10
-1684212.5225689909
 20
2502659.9383441908
 10
-1684212.5225689909
 20
2502659.9383441908
 10
-1684214.494560438
 20
2502658.9957580818
  0
LWPOLYLINE
  5
289
100
AcDbEntity
  8
0
  6
CONTINUOUS
 62
             3
100
AcDbPolyline
 90
        4
 70
             0
 10
-1684196.594722823
 20
2502667.4392359061
 10
-1684198.7372878769
 20
2502666.4381358381
 10
-1684198.7372878769
 20
2502666.4381358381
 10
-1684209.4945604389
 20
2502661.412854692
  0
LWPOLYLINE
  5
287
100
AcDbEntity
  8
0
  6
CONTINUOUS
 62
             3
100
AcDbPolyline
 90
        4
 70
             0
 10
-1684198.5582908329
 20
2502696.862479249
 10
-1684203.966124773
 20
2502692.4878709768
 10
-1684203.966124773
 20
2502692.4878709768
 10
-1684209.4945604389
 20
2502688.275311728
  0
LWPOLYLINE
  5
285
100
AcDbEntity
  8
0
  6
CONTINUOUS
 62
             3
100
AcDbPolyline
 90
        4
 70
             0
 10
-1684214.494560438
 20
2502825.879913704
 10
-1684212.501630679
 20
2502824.9273752938
 10
-1684212.501630679
 20
2502824.9273752938
 10
-1684210.4945604389
 20
2502823.9788403809
  0
LWPOLYLINE
  5
283
100
AcDbEntity
  8
0
  6
CONTINUOUS
 62
             3
100
AcDbPolyline
 90
        4
 70
             0
 10
-1684209.4945604389
 20
2502823.4628170938
 10
-1684198.7372878769
 20
2502818.43753595
 10
-1684198.7372878769
 20
2502818.43753595
 10
-1684196.594722823
 20
2502817.4364358801
  0
LWPOLYLINE
  5
281
100
AcDbEntity
  8
0
  6
CONTINUOUS
 62
             3
100
AcDbPolyline
 90
       16
 70
             0
 10
-1684211.6414809511
 20
2502777.837835894
 10
-1684211.8362757771
 20
2502777.8325064559
 10
-1684211.8362757771
 20
2502777.8325064559
 10
-1684212.472163311
 20
2502777.7100254148
 10
-1684212.472163311
 20
2502777.7100254148
 10
-1684212.72938184
 20
2502777.5590829528
 10
-1684212.72938184
 20
2502777.5590829528
 10
-1684212.8361720301
 20
2502777.4216442248
 10
-1684212.8361720301
 20
2502777.4216442248
 10
-1684212.871622541
 20
2502777.3013220928
 10
-1684212.871622541
 20
2502777.3013220928
 10
-1684212.863866213
 20
2502777.167628719
 10
-1684212.863866213
 20
2502777.167628719
 10
-1684212.7919704809
 20
2502776.9921959862
 10
-1684212.7919704809
 20
2502776.9921959862
 10
-1684212.6772933269
 20
2502776.837835894
  0
LWPOLYLINE
  5
27F
100
AcDbEntity
  8
0
  6
CONTINUOUS
 62
             3
100
AcDbPolyline
 90
       16
 70
             0
 10
-1684196.594722823
 20
2502742.4378358931
 10
-1684197.023097717
 20
2502747.9208706538
 10
-1684197.023097717
 20
2502747.9208706538
 10
-1684198.22923663
 20
2502753.1681447681
 10
-1684198.22923663
 20
2502753.1681447681
 10
-1684199.663355829
 20
2502757.1717428272
 10
-1684199.663355829
 20
2502757.1717428272
 10
-1684201.453975623
 20
2502761.0308910538
 10
-1684201.453975623
 20
2502761.0308910538
 10
-1684203.490955173
 20
2502764.6566991052
 10
-1684203.490955173
 20
2502764.6566991052
 10
-1684205.761346112
 20
2502768.1422201558
 10
-1684205.761346112
 20
2502768.1422201558
 10
-1684209.093201706
 20
2502772.602608799
 10
-1684209.093201706
 20
2502772.602608799
 10
-1684212.6772933269
 20
2502776.837835894
  0
LWPOLYLINE
  5
27D
100
AcDbEntity
  8
0
  6
CONTINUOUS
 62
             3
100
AcDbPolyline
 90
       12
 70
             0
 10
-1684202.3064230189
 20
2502702.3589307019
 10
-1684199.670966225
 20
2502702.14238927
 10
-1684199.670966225
 20
2502702.14238927
 10
-1684198.647791635
 20
2502701.8887572521
 10
-1684198.647791635
 20
2502701.8887572521
 10
-1684197.7174600691
 20
2502701.4860424362
 10
-1684197.7174600691
 20
2502701.4860424362
 10
-1684196.9306096521
 20
2502700.825512181
 10
-1684196.9306096521
 20
2502700.825512181
 10
-1684196.658278137
 20
2502700.2934415541
 10
-1684196.658278137
 20
2502700.2934415541
 10
-1684196.594722823
 20
2502699.8440868761
  0
LWPOLYLINE
  5
27B
100
AcDbEntity
  8
0
  6
CONTINUOUS
 62
             3
100
AcDbPolyline
 90
       18
 70
             0
 10
-1684214.494560438
 20
2502706.0491136648
 10
-1684211.187915093
 20
2502709.7409959789
 10
-1684211.187915093
 20
2502709.7409959789
 10
-1684208.0631737311
 20
2502713.5871831118
 10
-1684208.0631737311
 20
2502713.5871831118
 10
-1684204.8152362229
 20
2502718.1290388042
 10
-1684204.8152362229
 20
2502718.1290388042
 10
-1684201.9390611809
 20
2502722.9224152341
 10
-1684201.9390611809
 20
2502722.9224152341
 10
-1684199.5577957579
 20
2502727.960899672
 10
-1684199.5577957579
 20
2502727.960899672
 10
-1684198.146688354
 20
2502732.0011051879
 10
-1684198.146688354
 20
2502732.0011051879
 10
-1684197.1586855131
 20
2502736.1755497181
 10
-1684197.1586855131
 20
2502736.1755497181
 10
-1684196.6528315451
 20
2502740.41955911
 10
-1684196.6528315451
 20
2502740.41955911
 10
-1684196.594722823
 20
2502742.4378358931
  0
LWPOLYLINE
  5
279
100
AcDbEntity
  8
0
  6
CONTINUOUS
 62
             3
100
AcDbPolyline
 90
        4
 70
             0
 10
-1684173.6945604379
 20
2502820.4441817869
 10
-1684175.159258686
 20
2502818.975777694
 10
-1684175.159258686
 20
2502818.975777694
 10
-1684176.6945604379
 20
2502817.4364358801
  0
LWPOLYLINE
  5
277
100
AcDbEntity
  8
0
  6
CONTINUOUS
 62
             3
100
AcDbPolyline
 90
       10
 70
             0
 10
-1684435.376702911
 20
2502821.3200323209
 10
-1684435.4161659279
 20
2502821.453973298
 10
-1684435.4161659279
 20
2502821.453973298
 10
-1684435.5652443389
 20
2502821.611234216
 10
-1684435.5652443389
 20
2502821.611234216
 10
-1684435.7887770131
 20
2502821.736597585
 10
-1684435.7887770131
 20
2502821.736597585
 10
-1684436.0629466251
 20
2502821.8263826249
 10
-1684436.0629466251
 20
2502821.8263826249
 10
-1684436.376702911
 20
2502821.8762977729
  0
LWPOLYLINE
  5
275
100
AcDbEntity
  8
0
  6
CONTINUOUS
 62
             3
100
AcDbPolyline
 90
       10
 70
             0
 10
-1684449.3767029119
 20
2502821.8762977729
 10
-1684449.465610249
 20
2502821.8671211191
 10
-1684449.465610249
 20
2502821.8671211191
 10
-1684449.8061205989
 20
2502821.794666844
 10
-1684449.8061205989
 20
2502821.794666844
 10
-1684450.1088272999
 20
2502821.6637995099
 10
-1684450.1088272999
 20
2502821.6637995099
 10
-1684450.3082170321
 20
2502821.4967524121
 10
-1684450.3082170321
 20
2502821.4967524121
 10
-1684450.376702911
 20
2502821.3200323209
  0
LWPOLYLINE
  5
273
100
AcDbEntity
  8
0
  6
CONTINUOUS
 62
             3
100
AcDbPolyline
 90
       10
 70
             0
 10
-1684511.8904681769
 20
2502703.5004334911
 10
-1684511.978857825
 20
2502703.4440317182
 10
-1684511.978857825
 20
2502703.4440317182
 10
-1684512.0492416581
 20
2502703.2984486939
 10
-1684512.0492416581
 20
2502703.2984486939
 10
-1684512.057540477
 20
2502703.0959090302
 10
-1684512.057540477
 20
2502703.0959090302
 10
-1684512.005796087
 20
2502702.8490748499
 10
-1684512.005796087
 20
2502702.8490748499
 10
-1684511.9208114969
 20
2502702.639101983
  0
LWPOLYLINE
  5
271
100
AcDbEntity
  8
0
  6
CONTINUOUS
 62
             3
100
AcDbPolyline
 90
       14
 70
             0
 10
-1684502.9834555569
 20
2502690.0938055511
 10
-1684502.8563970949
 20
2502689.953334217
 10
-1684502.8563970949
 20
2502689.953334217
 10
-1684502.5165894891
 20
2502689.6349242469
 10
-1684502.5165894891
 20
2502689.6349242469
 10
-1684502.2996989989
 20
2502689.487512907
 10
-1684502.2996989989
 20
2502689.487512907
 10
-1684502.169277465
 20
2502689.4333093148
 10
-1684502.169277465
 20
2502689.4333093148
 10
-1684502.051066637
 20
2502689.4300379092
 10
-1684502.051066637
 20
2502689.4300379092
 10
-1684501.974322038
 20
2502689.5048058848
 10
-1684501.974322038
 20
2502689.5048058848
 10
-1684501.958087127
 20
2502689.6359329689
  0
LWPOLYLINE
  5
26F
100
AcDbEntity
  8
0
  6
CONTINUOUS
 62
             3
100
AcDbPolyline
 90
       14
 70
             0
 10
-1684383.7953186959
 20
2502689.6359329689
 10
-1684383.7957256651
 20
2502689.593196163
 10
-1684383.7957256651
 20
2502689.593196163
 10
-1684383.761146914
 20
2502689.4720908469
 10
-1684383.761146914
 20
2502689.4720908469
 10
-1684383.691936299
 20
2502689.4271948719
 10
-1684383.691936299
 20
2502689.4271948719
 10
-1684383.585720897
 20
2502689.4328916608
 10
-1684383.585720897
 20
2502689.4328916608
 10
-1684383.403037355
 20
2502689.516750427
 10
-1684383.403037355
 20
2502689.516750427
 10
-1684383.2101121671
 20
2502689.656559689
 10
-1684383.2101121671
 20
2502689.656559689
 10
-1684382.769950263
 20
2502690.0938055511
  0
LWPOLYLINE
  5
26D
100
AcDbEntity
  8
0
  6
CONTINUOUS
 62
             3
100
AcDbPolyline
 90
       10
 70
             0
 10
-1684373.8563557591
 20
2502702.5803942
 10
-1684373.8218498989
 20
2502702.653515208
 10
-1684373.8218498989
 20
2502702.653515208
 10
-1684373.724987241
 20
2502702.92998137
 10
-1684373.724987241
 20
2502702.92998137
 10
-1684373.6922064291
 20
2502703.1941949632
 10
-1684373.6922064291
 20
2502703.1941949632
 10
-1684373.741151165
 20
2502703.3983457629
 10
-1684373.741151165
 20
2502703.3983457629
 10
-1684373.8629376451
 20
2502703.5004334911
  0
LWPOLYLINE
  5
26B
100
AcDbEntity
  8
0
  6
CONTINUOUS
 62
             3
100
AcDbPolyline
 90
        6
 70
             0
 10
-1684370.176702911
 20
2502777.837835894
 10
-1684370.5117993569
 20
2502777.708929373
 10
-1684370.5117993569
 20
2502777.708929373
 10
-1684370.6511522119
 20
2502777.4956264449
 10
-1684370.6511522119
 20
2502777.4956264449
 10
-1684370.6767029101
 20
2502777.337835894
  0
ARC
  5
269
100
AcDbEntity
  8
1
  6
CONTINUOUS
 62
             3
100
AcDbCircle
 10
-1684442.876702911
 20
2502742.4378358931
 40
12.00000000010376
100
AcDbArc
 50
-169.99999999452623
 51
-99.99999999845548
  0
ARC
  5
268
100
AcDbEntity
  8
1
  6
CONTINUOUS
 62
             3
100
AcDbCircle
 10
-1684442.876702911
 20
2502742.4378358931
 40
13.0000000005235
100
AcDbArc
 50
-124.2656476957908
 51
-113.42848984767589
  0
ARC
  5
267
100
AcDbEntity
  8
1
  6
CONTINUOUS
 62
             3
100
AcDbCircle
 10
-1684442.876702911
 20
2502742.4378358931
 40
12.99999999900632
100
AcDbArc
 50
-151.59564770143947
 51
-140.75848984812922
  0
ARC
  5
266
100
AcDbEntity
  8
1
  6
CONTINUOUS
 62
             3
100
AcDbCircle
 10
-1684442.876702911
 20
2502742.4378358931
 40
12.99999999868985
100
AcDbArc
 50
-170.00000000644573
 51
-168.08848984851588
  0
ARC
  5
265
100
AcDbEntity
  8
1
  6
CONTINUOUS
 62
             3
100
AcDbCircle
 10
-1684462.5173976379
 20
2502773.2029640512
 40
1.00000000238881
100
AcDbArc
 50
10.00000016429861
 51
122.55447416194478
  0
ARC
  5
264
100
AcDbEntity
  8
1
  6
CONTINUOUS
 62
             3
100
AcDbCircle
 10
-1684470.783581659
 20
2502765.9634839911
 40
1.00000000098231
100
AcDbArc
 50
139.86893214810368
 51
-126.99000000445882
  0
ARC
  5
263
100
AcDbEntity
  8
1
  6
CONTINUOUS
 62
             3
100
AcDbCircle
 10
-1684473.190284163
 20
2502762.7685218528
 40
0.99999999981201
100
AcDbArc
 50
53.00999998502564
 51
146.15106786759634
  0
ARC
  5
262
100
AcDbEntity
  8
1
  6
CONTINUOUS
 62
             3
100
AcDbCircle
 10
-1684460.3394517771
 20
2502760.8512192932
 40
0.99999999968171
100
AcDbArc
 50
-97.5129219507502
 51
10.00000004218917
  0
ARC
  5
261
100
AcDbEntity
  8
1
  6
CONTINUOUS
 62
             3
100
AcDbCircle
 10
-1684459.617884065
 20
2502756.7590054469
 40
1.00000000066302
100
AcDbArc
 50
9.99999991081372
 51
85.90073206368038
  0
ARC
  5
260
100
AcDbEntity
  8
1
  6
CONTINUOUS
 62
             3
100
AcDbCircle
 10
-1684478.4695036151
 20
2502750.5250194608
 40
0.99999999788975
100
AcDbArc
 50
167.19893211984296
 51
-99.66000000443222
  0
ARC
  5
25F
100
AcDbEntity
  8
1
  6
CONTINUOUS
 62
             3
100
AcDbCircle
 10
-1684479.140708365
 20
2502746.5817360338
 40
0.99999999982669
100
AcDbArc
 50
80.33999997793971
 51
173.48106783237895
  0
ARC
  5
25E
100
AcDbEntity
  8
1
  6
CONTINUOUS
 62
             3
100
AcDbCircle
 10
-1684459.034476158
 20
2502753.4503347878
 40
1.00000000041608
100
AcDbArc
 50
-88.39530052925086
 51
9.9999999015477
  0
ARC
  5
25D
100
AcDbEntity
  8
1
  6
CONTINUOUS
 62
             3
100
AcDbCircle
 10
-1684458.327927107
 20
2502749.4432960041
 40
1.00000000172863
100
AcDbArc
 50
9.99999987295611
 51
86.73639352150805
  0
ARC
  5
25C
100
AcDbEntity
  8
1
  6
CONTINUOUS
 62
             3
100
AcDbCircle
 10
-1684457.7468948329
 20
2502746.1480982359
 40
0.99999999989401
100
AcDbArc
 50
-85.92369200591099
 51
9.99999998421243
  0
ARC
  5
25B
100
AcDbEntity
  8
1
  6
CONTINUOUS
 62
             3
100
AcDbCircle
 10
-1684457.046410023
 20
2502742.1754514701
 40
0.99999999931384
100
AcDbArc
 50
10.00000008699629
 51
90.66669326877947
  0
ARC
  5
25A
100
AcDbEntity
  8
1
  6
CONTINUOUS
 62
             3
100
AcDbCircle
 10
-1684456.5752484859
 20
2502739.5482253372
 40
1.00000000004409
100
AcDbArc
 50
-65.75568052550908
 51
11.91151018018591
  0
ARC
  5
259
100
AcDbEntity
  8
1
  6
CONTINUOUS
 62
             3
100
AcDbCircle
 10
-1684455.1912770839
 20
2502735.778161508
 40
1.00000000016083
100
AcDbArc
 50
28.40435232154083
 51
116.58744123350188
  0
ARC
  5
258
100
AcDbEntity
  8
1
  6
CONTINUOUS
 62
             3
100
AcDbCircle
 10
-1684453.719512332
 20
2502733.5815678369
 40
0.99999999950495
100
AcDbArc
 50
-38.42568040676255
 51
39.24151019282218
  0
ARC
  5
257
100
AcDbEntity
  8
1
  6
CONTINUOUS
 62
             3
100
AcDbCircle
 10
-1684450.759132032
 20
2502730.867731696
 40
0.99999999880119
100
AcDbArc
 50
55.73435228812637
 51
143.91744125678494
  0
ARC
  5
256
100
AcDbEntity
  8
1
  6
CONTINUOUS
 62
             3
100
AcDbCircle
 10
-1684478.2094725149
 20
2502733.2811229392
 40
0.99999999975147
100
AcDbArc
 50
-165.47106796782154
 51
-72.3299999351147
  0
ARC
  5
255
100
AcDbEntity
  8
1
  6
CONTINUOUS
 62
             3
100
AcDbCircle
 10
-1684476.995335686
 20
2502729.469840772
 40
0.99999999983029
100
AcDbArc
 50
107.67000000594356
 51
-159.18893207484012
  0
ARC
  5
254
100
AcDbEntity
  8
1
  6
CONTINUOUS
 62
             3
100
AcDbCircle
 10
-1684470.061539283
 20
2502718.0814266452
 40
0.99999999956028
100
AcDbArc
 50
-138.14106798937931
 51
-44.99999996226818
  0
ARC
  5
253
100
AcDbEntity
  8
1
  6
CONTINUOUS
 62
             3
100
AcDbCircle
 10
-1684467.233112159
 20
2502715.2529995209
 40
0.99999999918471
100
AcDbArc
 50
134.99999995283522
 51
-131.85893205823146
  0
ARC
  5
252
100
AcDbEntity
  8
1
  6
CONTINUOUS
 62
             3
100
AcDbCircle
 10
-1684455.844698031
 20
2502708.3192031169
 40
1.00000000302054
100
AcDbArc
 50
-110.81106794485268
 51
-17.67000005273767
  0
ARC
  5
251
100
AcDbEntity
  8
1
  6
CONTINUOUS
 62
             3
100
AcDbCircle
 10
-1684452.0334158631
 20
2502707.1050662901
 40
0.99999999976945
100
AcDbArc
 50
162.33000004894896
 51
-104.5289320575327
  0
ARC
  5
250
100
AcDbEntity
  8
1
  6
CONTINUOUS
 62
             3
100
AcDbCircle
 10
-1684438.7328027689
 20
2502706.1738304379
 40
1.00000000074794
100
AcDbArc
 50
-83.48106797097671
 51
9.66000002234025
  0
ARC
  5
24F
100
AcDbEntity
  8
1
  6
CONTINUOUS
 62
             3
100
AcDbCircle
 10
-1684434.7895193431
 20
2502706.8450351888
 40
1.00000000024668
100
AcDbArc
 50
-170.33999999556781
 51
-77.19893199980942
  0
ARC
  5
24E
100
AcDbEntity
  8
1
  6
CONTINUOUS
 62
             3
100
AcDbCircle
 10
-1684422.546016949
 20
2502712.1242546421
 40
0.99999999911298
100
AcDbArc
 50
-56.15106794866576
 51
36.98999997235289
  0
ARC
  5
24D
100
AcDbEntity
  8
1
  6
CONTINUOUS
 62
             3
100
AcDbCircle
 10
-1684419.3510548109
 20
2502714.5309571428
 40
0.99999999981201
100
AcDbArc
 50
-143.00999998502562
 51
-49.8689320621209
  0
ARC
  5
24C
100
AcDbEntity
  8
1
  6
CONTINUOUS
 62
             3
100
AcDbCircle
 10
-1684412.1115747511
 20
2502722.7971411669
 40
0.99999999932215
100
AcDbArc
 50
-32.55447431961642
 51
79.9999999748199
  0
ARC
  5
24B
100
AcDbEntity
  8
1
  6
CONTINUOUS
 62
             3
100
AcDbCircle
 10
-1684436.8127334609
 20
2502727.1526219021
 40
1.00000000094604
100
AcDbArc
 50
79.99999999722347
 51
-141.13000366538236
  0
ARC
  5
24A
100
AcDbEntity
  8
1
  6
CONTINUOUS
 62
             3
100
AcDbCircle
 10
-1684441.785664629
 20
2502728.0294838389
 40
1.00000000089717
100
AcDbArc
 50
18.64107882338237
 51
80.00000000648949
  0
ARC
  5
249
100
AcDbEntity
  8
1
  6
CONTINUOUS
 62
             3
100
AcDbCircle
 10
-1684444.570284259
 20
2502728.5204874119
 40
1.00000000062259
100
AcDbArc
 50
80.00000010232384
 51
171.41133714654154
  0
ARC
  5
248
100
AcDbEntity
  8
1
  6
CONTINUOUS
 62
             3
100
AcDbCircle
 10
-1684448.443161533
 20
2502729.5920374189
 40
0.99999999951893
100
AcDbArc
 50
-11.0956804569224
 51
66.57151022746132
  0
ARC
  5
247
100
AcDbEntity
  8
1
  6
CONTINUOUS
 62
             2
100
AcDbCircle
 10
-1684442.876702911
 20
2502742.4378358931
 40
11.50000000032555
100
AcDbArc
 50
-170.00000000149788
 51
-99.99999999930788
  0
ARC
  5
246
100
AcDbEntity
  8
1
  6
CONTINUOUS
 62
             3
100
AcDbCircle
 10
-1684446.3601152131
 20
2502671.2371133501
 40
3.9999999978942
100
AcDbArc
 50
-70.43089832000327
 51
-27.59999997354505
  0
ARC
  5
245
100
AcDbEntity
  8
1
  6
CONTINUOUS
 62
             3
100
AcDbCircle
 10
-1684449.626702911
 20
2502658.207867946
 40
2.0
100
AcDbArc
 50
0.0
 51
85.41823659174905
  0
ARC
  5
244
100
AcDbEntity
  8
1
  6
CONTINUOUS
 62
             3
100
AcDbCircle
 10
-1684436.126702911
 20
2502658.207867946
 40
2.00000000192874
100
AcDbArc
 50
94.58176334841184
 51
180.0
  0
ARC
  5
243
100
AcDbEntity
  8
1
  6
CONTINUOUS
 62
             3
100
AcDbCircle
 10
-1684432.3518066839
 20
2502665.6558291512
 40
4.99999999853737
100
AcDbArc
 50
152.40000000337483
 51
-82.19482176491452
  0
ARC
  5
242
100
AcDbEntity
  8
1
  6
CONTINUOUS
 62
             3
100
AcDbCircle
 10
-1684443.0535362749
 20
2502690.5126983202
 40
9.9999999997571
100
AcDbArc
 50
-27.59999998859056
 51
-2.09999999598889
  0
ARC
  5
241
100
AcDbEntity
  8
1
  6
CONTINUOUS
 62
             3
100
AcDbCircle
 10
-1684436.4104295601
 20
2502690.2691066568
 40
9.99999999961659
100
AcDbArc
 50
-27.60000001008594
 51
-2.1000000094668
  0
ARC
  5
240
100
AcDbEntity
  8
1
  6
CONTINUOUS
 62
             3
100
AcDbCircle
 10
-1684452.7948123789
 20
2502664.5669099679
 40
4.00000000366891
100
AcDbArc
 50
-97.25845428335623
 51
-17.51001549023225
  0
ARC
  5
23F
100
AcDbEntity
  8
1
  6
CONTINUOUS
 62
             3
100
AcDbCircle
 10
-1684437.7819426111
 20
2502697.8278211271
 40
5.00000000021194
100
AcDbArc
 50
-2.10000000927126
 51
96.51533000000822
  0
ARC
  5
23E
100
AcDbEntity
  8
1
  6
CONTINUOUS
 62
             3
100
AcDbCircle
 10
-1684420.9236051729
 20
2502703.270611078
 40
5.0000000006828
100
AcDbArc
 50
119.27048368451337
 51
177.89999999567019
  0
ARC
  5
23D
100
AcDbEntity
  8
1
  6
CONTINUOUS
 62
             3
100
AcDbCircle
 10
-1684482.415830083
 20
2502763.713818186
 40
5.00000000108079
100
AcDbArc
 50
-126.89999998350088
 51
-28.28467002145182
  0
ARC
  5
23C
100
AcDbEntity
  8
1
  6
CONTINUOUS
 62
             3
100
AcDbCircle
 10
-1684487.5677693239
 20
2502746.7643336579
 40
5.00000000153482
100
AcDbArc
 50
-5.5295163149545
 51
53.10000000369057
  0
ARC
  5
23B
100
AcDbEntity
  8
1
  6
CONTINUOUS
 62
             3
100
AcDbCircle
 10
-1684511.932888099
 20
2502777.6158586829
 40
4.99999999957845
100
AcDbArc
 50
27.59999999640966
 51
142.07005825124787
  0
ARC
  5
23A
100
AcDbEntity
  8
1
  6
CONTINUOUS
 62
             3
100
AcDbCircle
 10
-1684402.8767029119
 20
2502781.337835894
 40
1.0
100
AcDbArc
 50
90.0
 51
180.0
  0
ARC
  5
239
100
AcDbEntity
  8
1
  6
CONTINUOUS
 62
             3
100
AcDbCircle
 10
-1684379.708356407
 20
2502787.337835894
 40
5.0
100
AcDbArc
 50
-90.0
 51
35.40517818997522
  0
ARC
  5
238
100
AcDbEntity
  8
1
  6
CONTINUOUS
 62
             3
100
AcDbCircle
 10
-1684449.626702911
 20
2502826.6678038361
 40
1.99999999652606
100
AcDbArc
 50
-85.41823657896138
 51
0.0
  0
ARC
  5
237
100
AcDbEntity
  8
1
  6
CONTINUOUS
 62
             3
100
AcDbCircle
 10
-1684384.318912585
 20
2502690.1574840201
 40
4.00000000207201
100
AcDbArc
 50
-41.75845431208777
 51
37.98998453456693
  0
ARC
  5
236
100
AcDbEntity
  8
1
  6
CONTINUOUS
 62
             3
100
AcDbCircle
 10
-1684210.9691832089
 20
2502779.837835894
 40
2.0
100
AcDbArc
 50
-90.0
 51
-35.00000004685031
  0
SPLINE
  5
235
100
AcDbEntity
  8
1
  6
CONTINUOUS
 62
             2
100
AcDbSpline
210
0.0
220
0.0
230
1.0
 70
             0
 71
             3
 72
             8
 73
             4
 74
             3
 42
0.00000000001
 43
0.00000000001
 44
0.00000000001
 40
0.0
 40
0.0
 40
0.0
 40
0.0
 40
4.0033650314223719
 40
4.0033650314223719
 40
4.0033650314223719
 40
4.0033650314223719
 10
-1684314.3615470021
 20
2502781.0268458859
 30
0.0
 10
-1684313.8142828131
 20
2502778.2954016202
 30
0.0
 10
-1684309.115195889
 20
2502777.8315947
 30
0.0
 10
-1684310.382335919
 20
2502773.3932240061
 30
0.0
 11
-1684314.3615470021
 21
2502781.0268458859
 31
0.0
 11
-1684311.6915398785
 21
2502777.8501323564
 31
0.0
 11
-1684310.382335919
 21
2502773.3932240061
 31
0.0
  0
SPLINE
  5
234
100
AcDbEntity
  8
1
  6
CONTINUOUS
 62
             2
100
AcDbSpline
210
0.0
220
0.0
230
1.0
 70
             0
 71
             3
 72
             8
 73
             4
 74
             3
 42
0.00000000001
 43
0.00000000001
 44
0.00000000001
 40
0.0
 40
0.0
 40
0.0
 40
0.0
 40
4.0033650314223719
 40
4.0033650314223719
 40
4.0033650314223719
 40
4.0033650314223719
 10
-1684312.9971658529
 20
2502781.0268458859
 30
0.0
 10
-1684312.449901663
 20
2502778.2954016202
 30
0.0
 10
-1684307.7508147389
 20
2502777.8315947
 30
0.0
 10
-1684309.0179547679
 20
2502773.3932240061
 30
0.0
 11
-1684312.9971658529
 21
2502781.0268458859
 31
0.0
 11
-1684310.3271587284
 21
2502777.8501323564
 31
0.0
 11
-1684309.0179547679
 21
2502773.3932240061
 31
0.0
  0
SPLINE
  5
233
100
AcDbEntity
  8
1
  6
CONTINUOUS
 62
             2
100
AcDbSpline
210
0.0
220
0.0
230
1.0
 70
             0
 71
             3
 72
            12
 73
             8
 74
            12
 42
0.00000000001
 43
0.00000000001
 44
0.00000000001
 40
0.0
 40
0.0
 40
0.0
 40
0.0
 40
1.1833915107208559
 40
2.4288312345483858
 40
2.8765826417173059
 40
3.5512622437155978
 40
4.107675976652617
 40
4.107675976652617
 40
4.107675976652617
 40
4.107675976652617
 10
-1684208.0204711091
 20
2502791.7201991039
 30
0.0
 10
-1684206.9934724269
 20
2502793.213011723
 30
0.0
 10
-1684205.9721901789
 20
2502790.4989816472
 30
0.0
 10
-1684203.7998689951
 20
2502792.7247821288
 30
0.0
 10
-1684202.459717521
 20
2502791.568159679
 30
0.0
 10
-1684201.3373983409
 20
2502791.7462929739
 30
0.0
 10
-1684200.389590102
 20
2502792.069964936
 30
0.0
 10
-1684200.3987780691
 20
2502791.4470453318
 30
0.0
 11
-1684208.0204711091
 21
2502791.7201991039
 31
0.0
 11
-1684207.1431852069
 21
2502792.4192760186
 31
0.0
 11
-1684206.458305761
 21
2502792.109486212
 31
0.0
 11
-1684205.8053041152
 21
2502791.658736717
 31
0.0
 11
-1684204.6032091507
 21
2502791.9029190429
 31
0.0
 11
-1684203.3708009913
 21
2502792.1856854423
 31
0.0
 11
-1684202.9687868243
 21
2502792.0016657379
 31
0.0
 11
-1684202.5698389243
 21
2502791.7852044087
 31
0.0
 11
-1684201.9249951516
 21
2502791.6888493695
 31
0.0
 11
-1684201.2208501806
 21
2502791.8168213335
 31
0.0
 11
-1684200.6552879245
 21
2502791.905598626
 31
0.0
 11
-1684200.3987780691
 21
2502791.4470453318
 31
0.0
  0
SPLINE
  5
232
100
AcDbEntity
  8
1
  6
CONTINUOUS
 62
             3
100
AcDbSpline
210
0.0
220
0.0
230
1.0
 70
             0
 71
             3
 72
            35
 73
            31
 74
            57
 42
0.00000000001
 43
0.00000000001
 44
0.00000000001
 40
0.0
 40
0.0
 40
0.0
 40
0.0
 40
2.8982357416541609
 40
4.1992659394710143
 40
6.7615624612460241
 40
9.8607690400309025
 40
12.76067532510816
 40
13.858847584964771
 40
15.07212712415849
 40
16.070873285628188
 40
17.7165798855948
 40
18.496973827613271
 40
19.161976404589112
 40
21.582696712161582
 40
24.95130550538688
 40
27.829378443743732
 40
30.051042213799452
 40
32.355257404272699
 40
34.805260577398982
 40
36.543523151821532
 40
37.415601763428
 40
38.208273172462839
 40
40.232685536976788
 40
43.322309546674767
 40
46.198077572145287
 40
49.305481906115403
 40
53.556824133726117
 40
55.714810116028382
 40
57.11397722744664
 40
58.278239030249779
 40
58.278239030249779
 40
58.278239030249779
 40
58.278239030249779
 10
-1684457.749863653
 20
2502779.5272232508
 30
0.0
 10
-1684458.1034206289
 20
2502781.4131724392
 30
0.0
 10
-1684458.9350859909
 20
2502784.1612591799
 30
0.0
 10
-1684461.5693803639
 20
2502787.8457999979
 30
0.0
 10
-1684464.8092702229
 20
2502791.1866806229
 30
0.0
 10
-1684469.0613719111
 20
2502794.9882345232
 30
0.0
 10
-1684472.7662717199
 20
2502797.9605532829
 30
0.0
 10
-1684475.2752578461
 20
2502800.3308312921
 30
0.0
 10
-1684476.2914575569
 20
2502802.5334859048
 30
0.0
 10
-1684475.208710961
 20
2502805.040116312
 30
0.0
 10
-1684473.629075025
 20
2502806.692503666
 30
0.0
 10
-1684471.987312451
 20
2502807.965683904
 30
0.0
 10
-1684469.603549409
 20
2502808.975144567
 30
0.0
 10
-1684465.5774286389
 20
2502810.4785928759
 30
0.0
 10
-1684460.016206109
 20
2502812.082861972
 30
0.0
 10
-1684454.486204965
 20
2502813.2527473639
 30
0.0
 10
-1684449.571911904
 20
2502813.7850755998
 30
0.0
 10
-1684444.9177034369
 20
2502813.8889372838
 30
0.0
 10
-1684440.590882729
 20
2502813.6331046689
 30
0.0
 10
-1684437.2352581909
 20
2502813.394746366
 30
0.0
 10
-1684434.9753848589
 20
2502812.9923028699
 30
0.0
 10
-1684432.8221668471
 20
2502811.751008831
 30
0.0
 10
-1684429.7402788091
 20
2502809.2989156321
 30
0.0
 10
-1684425.9187314699
 20
2502805.5587052489
 30
0.0
 10
-1684422.2345602571
 20
2502800.7465189449
 30
0.0
 10
-1684418.530104677
 20
2502795.0102926628
 30
0.0
 10
-1684415.9808579569
 20
2502789.1243842258
 30
0.0
 10
-1684414.950002701
 20
2502784.0030892682
 30
0.0
 10
-1684414.692319975
 20
2502780.8625680241
 30
0.0
 10
-1684414.7079886589
 20
2502779.1496333969
 30
0.0
 10
-1684414.7486323901
 20
2502778.37353219
 30
0.0
 11
-1684457.749863653
 21
2502779.5272232508
 31
0.0
 11
-1684458.4658677047
 21
2502782.3354666783
 31
0.0
 11
-1684459.6345659082
 21
2502784.9874787708
 31
0.0
 11
-1684460.331473008
 21
2502786.085978556
 31
0.0
 11
-1684461.1111748782
 21
2502787.1299876398
 31
0.0
 11
-1684462.7915795664
 21
2502789.065808407
 31
0.0
 11
-1684464.5957571687
 21
2502790.887532067
 31
0.0
 11
-1684466.8632010308
 21
2502792.9998588893
 31
0.0
 11
-1684469.2009555355
 21
2502795.0363238985
 31
0.0
 11
-1684471.4298845269
 21
2502796.8984587276
 31
0.0
 11
-1684473.6214711037
 21
2502798.7909034966
 31
0.0
 11
-1684474.4138671095
 21
2502799.544348401
 31
0.0
 11
-1684475.128819312
 21
2502800.38834853
 31
0.0
 11
-1684475.7358473362
 21
2502801.4807007317
 31
0.0
 11
-1684475.9662445316
 21
2502802.6658269502
 31
0.0
 11
-1684475.7691303086
 21
2502803.6375424056
 31
0.0
 11
-1684475.3221855264
 21
2502804.5566372471
 31
0.0
 11
-1684474.3356690789
 21
2502805.8877171604
 31
0.0
 11
-1684473.1519397628
 21
2502807.031194618
 31
0.0
 11
-1684472.5410615348
 21
2502807.5209063832
 31
0.0
 11
-1684471.8900197675
 21
2502807.949680734
 31
0.0
 11
-1684471.2977283697
 21
2502808.2499947422
 31
0.0
 11
-1684470.6850535742
 21
2502808.5126817832
 31
0.0
 11
-1684468.4297566297
 21
2502809.3992447336
 31
0.0
 11
-1684466.1506514163
 21
2502810.2093680538
 31
0.0
 11
-1684462.9365835378
 21
2502811.216019283
 31
0.0
 11
-1684459.6807658854
 21
2502812.0883789738
 31
0.0
 11
-1684456.8726512799
 21
2502812.7257966283
 31
0.0
 11
-1684454.0401461287
 21
2502813.2358213947
 31
0.0
 11
-1684451.8368458766
 21
2502813.5237544398
 31
0.0
 11
-1684449.6229459117
 21
2502813.7169678127
 31
0.0
 11
-1684447.3205793668
 21
2502813.8193675946
 31
0.0
 11
-1684445.0158086803
 21
2502813.8261333099
 31
0.0
 11
-1684442.566419621
 21
2502813.7399226646
 31
0.0
 11
-1684440.1213027751
 21
2502813.594025298
 31
0.0
 11
-1684438.3900525549
 21
2502813.4657726847
 31
0.0
 11
-1684436.6597633194
 21
2502813.2715788619
 31
0.0
 11
-1684435.7959047814
 21
2502813.1225590953
 31
0.0
 11
-1684434.9593909334
 21
2502812.8832257129
 31
0.0
 11
-1684434.2405815385
 21
2502812.5530308471
 31
0.0
 11
-1684433.5548915034
 21
2502812.1479072762
 31
0.0
 11
-1684431.8960621888
 21
2502810.9821242574
 31
0.0
 11
-1684430.3308901889
 21
2502809.6986630647
 31
0.0
 11
-1684428.057696563
 21
2502807.6032607919
 31
0.0
 11
-1684425.9320336021
 21
2502805.358943393
 31
0.0
 11
-1684424.1003949726
 21
2502803.1413383954
 31
0.0
 11
-1684422.3895909416
 21
2502800.8277992839
 31
0.0
 11
-1684420.6556128026
 21
2502798.2483138968
 31
0.0
 11
-1684419.067619985
 21
2502795.5753374095
 31
0.0
 11
-1684417.2050941505
 21
2502791.7427562275
 31
0.0
 11
-1684415.8032072703
 21
2502787.7242704392
 31
0.0
 11
-1684415.3021735281
 21
2502785.6235025977
 31
0.0
 11
-1684414.9512070233
 21
2502783.4932292458
 31
0.0
 11
-1684414.8051647551
 21
2502782.1014016154
 31
0.0
 11
-1684414.7258477462
 21
2502780.7039842564
 31
0.0
 11
-1684414.7126328517
 21
2502779.5386582636
 31
0.0
 11
-1684414.7486323901
 21
2502778.37353219
 31
0.0
  0
SPLINE
  5
231
100
AcDbEntity
  8
1
  6
CONTINUOUS
 62
             3
100
AcDbSpline
210
0.0
220
0.0
230
1.0
 70
             0
 71
             3
 72
            28
 73
            24
 74
            43
 42
0.00000000001
 43
0.00000000001
 44
0.00000000001
 40
0.0
 40
0.0
 40
0.0
 40
0.0
 40
2.8982357416541609
 40
4.1992659394710143
 40
6.7615624612460241
 40
9.8607690400309025
 40
12.76067532510816
 40
13.858847584964771
 40
15.07212712415849
 40
16.070873285628188
 40
17.7165798855948
 40
18.496973827613271
 40
19.161976404589112
 40
21.582696712161582
 40
24.95130550538688
 40
27.829378443743732
 40
30.051042213799452
 40
32.355257404272699
 40
34.805260577398982
 40
36.543523151821532
 40
37.415601763428
 40
38.208273172462839
 40
39.341571797032863
 40
39.341571797032863
 40
39.341571797032863
 40
39.341571797032863
 10
-1684482.8595309509
 20
2502739.908940631
 30
0.0
 10
-1684484.762430331
 20
2502740.1554783192
 30
0.0
 10
-1684487.6330148601
 20
2502740.2137230569
 30
0.0
 10
-1684491.9512631451
 20
2502738.8469459601
 30
0.0
 10
-1684496.1298104599
 20
2502736.7980164848
 30
0.0
 10
-1684501.0592747531
 20
2502733.9287722278
 30
0.0
 10
-1684505.030994883
 20
2502731.3237001318
 30
0.0
 10
-1684508.0605825779
 20
2502729.6699687131
 30
0.0
 10
-1684510.469454583
 20
2502729.3841630649
 30
0.0
 10
-1684512.518814666
 20
2502731.1885076649
 30
0.0
 10
-1684513.6021940771
 20
2502733.2014464908
 30
0.0
 10
-1684514.3057279021
 20
2502735.156289815
 30
0.0
 10
-1684514.529158755
 20
2502737.7353236871
 30
0.0
 10
-1684514.7148833249
 20
2502742.0289831599
 30
0.0
 10
-1684514.5221216299
 20
2502747.8137664981
 30
0.0
 10
-1684513.9258844249
 20
2502753.43462459
 30
0.0
 10
-1684512.9135585909
 20
2502758.2728935
 30
0.0
 10
-1684511.574107412
 20
2502762.731403816
 30
0.0
 10
-1684509.993735007
 20
2502766.76739822
 30
0.0
 10
-1684508.730097777
 20
2502769.8851300352
 30
0.0
 10
-1684507.649012005
 20
2502771.910035416
 30
0.0
 10
-1684506.2489709409
 20
2502773.1722881859
 30
0.0
 10
-1684505.211959135
 20
2502773.9316042722
 30
0.0
 10
-1684504.585377339
 20
2502774.3536025481
 30
0.0
 11
-1684482.8595309509
 21
2502739.908940631
 31
0.0
 11
-1684485.7515865818
 21
2502740.0957752573
 31
0.0
 11
-1684488.6349475679
 21
2502739.8037940199
 31
0.0
 11
-1684489.8950390841
 21
2502739.4804510828
 31
0.0
 11
-1684491.1288918555
 21
2502739.0615270888
 31
0.0
 11
-1684493.4892404159
 21
2502738.0615687752
 31
0.0
 11
-1684495.7793241146
 21
2502736.9086374794
 31
0.0
 11
-1684498.4889449903
 21
2502735.4049151051
 31
0.0
 11
-1684501.1481441793
 21
2502733.8108807458
 31
0.0
 11
-1684503.607916581
 21
2502732.266474613
 31
0.0
 11
-1684506.0849760068
 21
2502730.7669495121
 31
0.0
 11
-1684507.046408524
 21
2502730.2461634069
 31
0.0
 11
-1684508.0700327265
 21
2502729.827013839
 31
0.0
 11
-1684509.2965033825
 21
2502729.5872512753
 31
0.0
 11
-1684510.4948220449
 21
2502729.7343546641
 31
0.0
 11
-1684511.358066716
 21
2502730.2220980194
 31
0.0
 11
-1684512.09406432
 21
2502730.9311836925
 31
0.0
 11
-1684513.0551461976
 21
2502732.2807429028
 31
0.0
 11
-1684513.7768654092
 21
2502733.7598903505
 31
0.0
 11
-1684514.0538372202
 21
2502734.4921993283
 31
0.0
 11
-1684514.2604428905
 21
2502735.2438754044
 31
0.0
 11
-1684514.3630303778
 21
2502735.8999801287
 31
0.0
 11
-1684514.4235336764
 21
2502736.5638432452
 31
0.0
 11
-1684514.5697800647
 21
2502738.9827211178
 31
0.0
 11
-1684514.6359708838
 21
2502741.4006208563
 31
0.0
 11
-1684514.6001514986
 21
2502744.7684533931
 31
0.0
 11
-1684514.4237118815
 21
2502748.1344939563
 31
0.0
 11
-1684514.1621769601
 21
2502751.0021425383
 31
0.0
 11
-1684513.7719471108
 21
2502753.8536213404
 31
0.0
 11
-1684513.3649304875
 21
2502756.0380606074
 31
0.0
 11
-1684512.864554612
 21
2502758.203310811
 31
0.0
 11
-1684512.2504722029
 21
2502760.4246347891
 31
0.0
 11
-1684511.5446934707
 21
2502762.6186926896
 31
0.0
 11
-1684510.7057994301
 21
2502764.9215595615
 31
0.0
 11
-1684509.8114601299
 21
2502767.2019191049
 31
0.0
 11
-1684509.1544989054
 21
2502768.8088036701
 31
0.0
 11
-1684508.4351208252
 21
2502770.3943973319
 31
0.0
 11
-1684508.0264476361
 21
2502771.169925984
 31
0.0
 11
-1684507.5403310689
 21
2502771.8915398475
 31
0.0
 11
-1684507.0041727717
 21
2502772.4731323808
 31
0.0
 11
-1684506.4069874864
 21
2502773.0000722888
 31
0.0
 11
-1684505.5118432916
 21
2502773.700360911
 31
0.0
 11
-1684504.585377339
 21
2502774.3536025481
 31
0.0
  0
SPLINE
  5
230
100
AcDbEntity
  8
1
  6
CONTINUOUS
 62
             3
100
AcDbSpline
210
0.0
220
0.0
230
1.0
 70
             0
 71
             3
 72
            35
 73
            31
 74
            57
 42
0.00000000001
 43
0.00000000001
 44
0.00000000001
 40
0.0
 40
0.0
 40
0.0
 40
0.0
 40
2.8982357416541609
 40
4.1992659394710143
 40
6.7615624612460241
 40
9.8607690400309025
 40
12.76067532510816
 40
13.858847584964771
 40
15.07212712415849
 40
16.070873285628188
 40
17.7165798855948
 40
18.496973827613271
 40
19.161976404589112
 40
21.582696712161582
 40
24.95130550538688
 40
27.829378443743732
 40
30.051042213799452
 40
32.355257404272699
 40
34.805260577398982
 40
36.543523151821532
 40
37.415601763428
 40
38.208273172462839
 40
40.232685536976788
 40
43.322309546674767
 40
46.198077572145287
 40
49.305481906115403
 40
53.556824133726117
 40
55.714810116028382
 40
57.11397722744664
 40
60.162488649656609
 40
60.162488649656609
 40
60.162488649656609
 40
60.162488649656609
 10
-1684452.9396190189
 20
2502703.7855053088
 30
0.0
 10
-1684453.7621185379
 20
2502702.0519247898
 30
0.0
 10
-1684454.7045719831
 20
2502699.3398352792
 30
0.0
 10
-1684454.739101823
 20
2502694.8105797591
 30
0.0
 10
-1684454.081696227
 20
2502690.2033910779
 30
0.0
 10
-1684452.8761710189
 20
2502684.6285467069
 30
0.0
 10
-1684451.6259292411
 20
2502680.0462048459
 30
0.0
 10
-1684450.9893312859
 20
2502676.6538646109
 30
0.0
 10
-1684451.461896348
 20
2502674.2745723929
 30
0.0
 10
-1684453.811217129
 20
2502672.8830882772
 30
0.0
 10
-1684456.0604183639
 20
2502672.474765535
 30
0.0
 10
-1684458.1369887551
 20
2502672.4097449118
 30
0.0
 10
-1684460.658839656
 20
2502672.994214844
 30
0.0
 10
-1684464.799744525
 20
2502674.1443940238
 30
0.0
 10
-1684470.2418337751
 20
2502676.1153176501
 30
0.0
 10
-1684475.403340061
 20
2502678.419313604
 30
0.0
 10
-1684479.6919813489
 20
2502680.8771999991
 30
0.0
 10
-1684483.5183634621
 20
2502683.528849232
 30
0.0
 10
-1684486.868460309
 20
2502686.2790635652
 30
0.0
 10
-1684489.4431140891
 20
2502688.444286102
 30
0.0
 10
-1684491.034839669
 20
2502690.098189943
 30
0.0
 10
-1684492.0472153041
 20
2502692.3680477082
 30
0.0
 10
-1684493.0992108809
 20
2502696.1633211169
 30
0.0
 10
-1684493.9924671201
 20
2502701.435464046
 30
0.0
 10
-1684494.1444921009
 20
2502707.494106052
 30
0.0
 10
-1684493.7697904089
 20
2502714.312234954
 30
0.0
 10
-1684492.3725241499
 20
2502720.5724445349
 30
0.0
 10
-1684490.196281923
 20
2502725.3215807048
 30
0.0
 10
-1684487.9053036
 20
2502729.0881955181
 30
0.0
 10
-1684485.970007157
 20
2502731.3680935148
 30
0.0
 10
-1684484.4750663149
 20
2502732.7444681739
 30
0.0
 11
-1684452.9396190189
 21
2502703.7855053088
 31
0.0
 11
-1684454.0110036451
 21
2502701.09273203
 31
0.0
 11
-1684454.6243205341
 21
2502698.2602656102
 31
0.0
 11
-1684454.7061928201
 21
2502696.9619289003
 31
0.0
 11
-1684454.6890539001
 21
2502695.6590105481
 31
0.0
 11
-1684454.4674248479
 21
2502693.1051815567
 31
0.0
 11
-1684454.0785968076
 21
2502690.5709071686
 31
0.0
 11
-1684453.4857907433
 21
2502687.5292288098
 31
0.0
 11
-1684452.7915117196
 21
2502684.5075963875
 31
0.0
 11
-1684452.0828056757
 21
2502681.6909660753
 31
0.0
 11
-1684451.4221260166
 21
2502678.8717638254
 31
0.0
 11
-1684451.2239279852
 21
2502677.7964554075
 31
0.0
 11
-1684451.1416103328
 21
2502676.6934065991
 31
0.0
 11
-1684451.29258286
 21
2502675.4528729827
 31
0.0
 11
-1684451.8027873267
 21
2502674.3586616581
 31
0.0
 11
-1684452.5334160968
 21
2502673.6883881744
 31
0.0
 11
-1684453.4352324135
 21
2502673.2075323807
 31
0.0
 11
-1684455.0157301265
 21
2502672.710525929
 31
0.0
 11
-1684456.6455064462
 21
2502672.4812118681
 31
0.0
 11
-1684457.4275626682
 21
2502672.4440919417
 31
0.0
 11
-1684458.2062937622
 21
2502672.4798789532
 31
0.0
 11
-1684458.861987713
 21
2502672.585059966
 31
0.0
 11
-1684459.5120556036
 21
2502672.7326628952
 31
0.0
 11
-1684461.8577377861
 21
2502673.3410486868
 31
0.0
 11
-1684464.1777511761
 21
2502674.0252695852
 31
0.0
 11
-1684467.3696814578
 21
2502675.1000533327
 31
0.0
 11
-1684470.5164534291
 21
2502676.3080211179
 31
0.0
 11
-1684473.1629305643
 21
2502677.4429077557
 31
0.0
 11
-1684475.7542604047
 21
2502678.6951938057
 31
0.0
 11
-1684477.7060105503
 21
2502679.7573184734
 31
0.0
 11
-1684479.610661217
 21
2502680.9023033204
 31
0.0
 11
-1684481.5335039611
 21
2502682.1727572568
 31
0.0
 11
-1684483.4020794029
 21
2502683.5219938983
 31
0.0
 11
-1684485.3330034327
 21
2502685.0314545413
 31
0.0
 11
-1684487.225388193
 21
2502686.5866916128
 31
0.0
 11
-1684488.5506140471
 21
2502687.7080535041
 31
0.0
 11
-1684489.8363031787
 21
2502688.8821981028
 31
0.0
 11
-1684490.4475877953
 21
2502689.5105209351
 31
0.0
 11
-1684490.9836650826
 21
2502690.1958362111
 31
0.0
 11
-1684491.3711104263
 21
2502690.8854750302
 31
0.0
 11
-1684491.6877196576
 21
2502691.6162653738
 31
0.0
 11
-1684492.344510698
 21
2502693.5344390562
 31
0.0
 11
-1684492.8563618837
 21
2502695.4927659915
 31
0.0
 11
-1684493.4637676049
 21
2502698.5241317288
 31
0.0
 11
-1684493.8642883962
 21
2502701.5892559849
 31
0.0
 11
-1684494.0426396623
 21
2502704.4599462887
 31
0.0
 11
-1684494.0668450273
 21
2502707.3372241259
 31
0.0
 11
-1684493.9534793408
 21
2502710.4432784184
 31
0.0
 11
-1684493.6670563584
 21
2502713.5391605813
 31
0.0
 11
-1684492.9211367131
 21
2502717.734549108
 31
0.0
 11
-1684491.6932803392
 21
2502721.8095808355
 31
0.0
 11
-1684490.8638247959
 21
2502723.8036379656
 31
0.0
 11
-1684489.8956194031
 21
2502725.7333582453
 31
0.0
 11
-1684489.1956743251
 21
2502726.9452119437
 31
0.0
 11
-1684488.4384618169
 21
2502728.1223677038
 31
0.0
 11
-1684486.5891277916
 21
2502730.5484198909
 31
0.0
 11
-1684484.4750663149
 21
2502732.7444681739
 31
0.0
  0
SPLINE
  5
22F
100
AcDbEntity
  8
1
  6
CONTINUOUS
 62
             3
100
AcDbSpline
210
0.0
220
0.0
230
1.0
 70
             0
 71
             3
 72
            31
 73
            27
 74
            49
 42
0.00000000001
 43
0.00000000001
 44
0.00000000001
 40
0.0
 40
0.0
 40
0.0
 40
0.0
 40
2.8982357416541609
 40
4.1992659394710143
 40
6.7615624612460241
 40
9.8607690400309025
 40
12.76067532510816
 40
13.858847584964771
 40
15.07212712415849
 40
16.070873285628188
 40
17.7165798855948
 40
18.496973827613271
 40
19.161976404589112
 40
21.582696712161582
 40
24.95130550538688
 40
27.829378443743732
 40
30.051042213799452
 40
32.355257404272699
 40
34.805260577398982
 40
36.543523151821532
 40
37.415601763428
 40
38.208273172462839
 40
40.232685536976788
 40
43.322309546674767
 40
46.198077572145287
 40
47.74817497101521
 40
47.74817497101521
 40
47.74817497101521
 40
47.74817497101521
 10
-1684409.338429207
 20
2502721.0782771101
 30
0.0
 10
-1684407.943862485
 20
2502719.7603277392
 30
0.0
 10
-1684405.6557462169
 20
2502718.0259194998
 30
0.0
 10
-1684401.3588385489
 20
2502716.5934627438
 30
0.0
 10
-1684396.77399223
 20
2502715.7949930229
 30
0.0
 10
-1684391.0994723849
 20
2502715.2187939738
 30
0.0
 10
-1684386.3550603429
 20
2502714.9918230539
 30
0.0
 10
-1684382.9320334729
 20
2502714.5489729089
 30
0.0
 10
-1684380.8152227399
 20
2502713.3642950938
 30
0.0
 10
-1684380.2178227489
 20
2502710.6999660162
 30
0.0
 10
-1684380.5245261481
 20
2502708.434669856
 30
0.0
 10
-1684381.1043834039
 20
2502706.4396415809
 30
0.0
 10
-1684382.439542125
 20
2502704.2218299881
 30
0.0
 10
-1684384.8130375079
 20
2502700.6390203438
 30
0.0
 10
-1684388.3691953269
 20
2502696.0723347971
 30
0.0
 10
-1684392.1554188521
 20
2502691.8754245141
 30
0.0
 10
-1684395.8182707659
 20
2502688.5562129379
 30
0.0
 10
-1684399.522556145
 20
2502685.7365119718
 30
0.0
 10
-1684403.1734022661
 20
2502683.4002435021
 30
0.0
 10
-1684406.0282630429
 20
2502681.6206928059
 30
0.0
 10
-1684408.0930893249
 20
2502680.617956216
 30
0.0
 10
-1684410.5646936169
 20
2502680.3565543932
 30
0.0
 10
-1684414.4992976349
 20
2502680.5288511282
 30
0.0
 10
-1684419.7894348791
 20
2502681.3084957208
 30
0.0
 10
-1684424.60141866
 20
2502682.739592826
 30
0.0
 10
-1684427.3762454339
 20
2502683.7469236762
 30
0.0
 10
-1684428.3376206551
 20
2502684.1264945059
 30
0.0
 11
-1684409.338429207
 21
2502721.0782771101
 31
0.0
 11
-1684407.1085256895
 21
2502719.2272170726
 31
0.0
 11
-1684404.6042153868
 21
2502717.7686377894
 31
0.0
 11
-1684403.3947237262
 21
2502717.2895645103
 31
0.0
 11
-1684402.1502785208
 21
2502716.9032406793
 31
0.0
 11
-1684399.6529556729
 21
2502716.3248458761
 31
0.0
 11
-1684397.1225630292
 21
2502715.9115094626
 31
0.0
 11
-1684394.046567857
 21
2502715.5353712286
 31
0.0
 11
-1684390.9582806341
 21
2502715.2619340485
 31
0.0
 11
-1684388.0605038102
 21
2502715.0655669151
 31
0.0
 11
-1684385.1751218988
 21
2502714.8227292057
 31
0.0
 11
-1684384.0911962611
 21
2502714.6789381611
 31
0.0
 11
-1684383.0166969516
 21
2502714.4163660742
 31
0.0
 11
-1684381.8835324491
 21
2502713.8894366985
 31
0.0
 11
-1684381.0005374891
 21
2502713.0660735192
 31
0.0
 11
-1684380.5888462304
 21
2502712.1640783693
 31
0.0
 11
-1684380.4102017619
 21
2502711.1578074717
 31
0.0
 11
-1684380.4259211894
 21
2502709.501081381
 31
0.0
 11
-1684380.711459137
 21
2502707.8802100508
 31
0.0
 11
-1684380.9178246525
 21
2502707.1249596984
 31
0.0
 11
-1684381.192501266
 21
2502706.3954012129
 31
0.0
 11
-1684381.4951549268
 21
2502705.8043019278
 31
0.0
 11
-1684381.8364156801
 21
2502705.2316624378
 31
0.0
 11
-1684383.139880609
 21
2502703.1887876615
 31
0.0
 11
-1684384.5075369182
 21
2502701.1937596947
 31
0.0
 11
-1684386.5160777068
 21
2502698.4901800458
 31
0.0
 11
-1684388.6373293563
 21
2502695.8707046313
 31
0.0
 11
-1684390.5344770981
 21
2502693.704454565
 31
0.0
 11
-1684392.5262368654
 21
2502691.6269311053
 31
0.0
 11
-1684394.1395014157
 21
2502690.0989209842
 31
0.0
 11
-1684395.8170161399
 21
2502688.6413103323
 31
0.0
 11
-1684397.6194807196
 21
2502687.205170068
 31
0.0
 11
-1684399.4801025849
 21
2502685.8449862693
 31
0.0
 11
-1684401.5123733059
 21
2502684.475017379
 31
0.0
 11
-1684403.5762707079
 21
2502683.1558472058
 31
0.0
 11
-1684405.0522665528
 21
2502682.2420024029
 31
0.0
 11
-1684406.5662442162
 21
2502681.382070011
 31
0.0
 11
-1684407.3527120757
 21
2502680.9948662268
 31
0.0
 11
-1684408.1701426269
 21
2502680.696800496
 31
0.0
 11
-1684408.9457553145
 21
2502680.5414281911
 31
0.0
 11
-1684409.7386158658
 21
2502680.4661415536
 31
0.0
 11
-1684411.7658670379
 21
2502680.4342444208
 31
0.0
 11
-1684413.7865173453
 21
2502680.5526013188
 31
0.0
 11
-1684416.8572161733
 21
2502680.911667679
 31
0.0
 11
-1684419.8960903012
 21
2502681.477925255
 31
0.0
 11
-1684422.6813925933
 21
2502682.1953952117
 31
0.0
 11
-1684425.4253262987
 21
2502683.06150229
 31
0.0
 11
-1684426.8881108593
 21
2502683.5763910343
 31
0.0
 11
-1684428.3376206551
 21
2502684.1264945059
 31
0.0
  0
SPLINE
  5
22E
100
AcDbEntity
  8
1
  6
CONTINUOUS
 62
             3
100
AcDbSpline
210
0.0
220
0.0
230
1.0
 70
             0
 71
             3
 72
             8
 73
             4
 74
             3
 42
0.00000000001
 43
0.00000000001
 44
0.00000000001
 40
3.1287076811162939
 40
3.1287076811162939
 40
3.1287076811162939
 40
3.1287076811162939
 40
3.1287128442425658
 40
3.1287128442425658
 40
3.1287128442425658
 40
3.1287128442425658
 10
-1684407.396681603
 20
2502771.7152686501
 30
0.0
 10
-1684407.396679377
 20
2502771.7152712741
 30
0.0
 10
-1684407.3966771499
 20
2502771.715273899
 30
0.0
 10
-1684407.3966749229
 20
2502771.715276524
 30
0.0
 11
-1684407.396681603
 21
2502771.7152686501
 31
0.0
 11
-1684407.3966782631
 21
2502771.7152725863
 31
0.0
 11
-1684407.3966749229
 21
2502771.715276524
 31
0.0
  0
SPLINE
  5
22D
100
AcDbEntity
  8
1
  6
CONTINUOUS
 62
             3
100
AcDbSpline
210
0.0
220
0.0
230
1.0
 70
             0
 71
             3
 72
            17
 73
            13
 74
            21
 42
0.00000000001
 43
0.00000000001
 44
0.00000000001
 40
9.3610209533463546
 40
9.3610209533463546
 40
9.3610209533463546
 40
9.3610209533463546
 40
9.8607690400309025
 40
12.76067532510816
 40
13.858847584964771
 40
15.07212712415849
 40
16.070873285628188
 40
17.7165798855948
 40
18.496973827613271
 40
19.161976404589112
 40
21.582696712161582
 40
23.24675990196986
 40
23.24675990196986
 40
23.24675990196986
 40
23.24675990196986
 10
-1684401.2569933271
 20
2502782.3378407191
 30
0.0
 10
-1684401.1281200501
 20
2502782.6453000428
 30
0.0
 10
-1684400.2611079609
 20
2502784.7416471001
 30
0.0
 10
-1684399.195180374
 20
2502787.5567577952
 30
0.0
 10
-1684397.716231378
 20
2502790.6754015861
 30
0.0
 10
-1684395.9354053349
 20
2502792.3225226519
 30
0.0
 10
-1684393.216871052
 20
2502792.0673608389
 30
0.0
 10
-1684391.1572229459
 20
2502791.0756535628
 30
0.0
 10
-1684389.43902405
 20
2502789.9076789012
 30
0.0
 10
-1684387.742346613
 20
2502787.9525260259
 30
0.0
 10
-1684385.7745290571
 20
2502785.47658455
 30
0.0
 10
-1684384.197474187
 20
2502783.2557828482
 30
0.0
 10
-1684383.5736964489
 20
2502782.337835894
 30
0.0
 11
-1684401.2569933271
 21
2502782.3378407191
 31
0.0
 11
-1684401.0647383295
 21
2502782.799554002
 31
0.0
 11
-1684400.8745444925
 21
2502783.2623040308
 31
0.0
 11
-1684399.7923259672
 21
2502785.957572781
 31
0.0
 11
-1684398.6697415346
 21
2502788.6266930695
 31
0.0
 11
-1684398.1980366807
 21
2502789.6131337336
 31
0.0
 11
-1684397.6162772388
 21
2502790.5539040677
 31
0.0
 11
-1684396.764970534
 21
2502791.4687774209
 31
0.0
 11
-1684395.7090451694
 21
2502792.0541223167
 31
0.0
 11
-1684394.7239772081
 21
2502792.1669321391
 31
0.0
 11
-1684393.7117525374
 21
2502792.0258783167
 31
0.0
 11
-1684392.1409699654
 21
2502791.4989717351
 31
0.0
 11
-1684390.6876658048
 21
2502790.7265322232
 31
0.0
 11
-1684390.0331504866
 21
2502790.2968817619
 31
0.0
 11
-1684389.424178876
 21
2502789.8102028091
 31
0.0
 11
-1684388.9555351727
 21
2502789.3397023473
 31
0.0
 11
-1684388.516378026
 21
2502788.8381887507
 31
0.0
 11
-1684386.9762814711
 21
2502786.9672369137
 31
0.0
 11
-1684385.501526166
 21
2502785.0500209229
 31
0.0
 11
-1684384.5234317891
 21
2502783.7045863965
 31
0.0
 11
-1684383.5736964489
 21
2502782.337835894
 31
0.0
  0
SPLINE
  5
22C
100
AcDbEntity
  8
1
  6
CONTINUOUS
 62
             3
100
AcDbSpline
210
0.0
220
0.0
230
1.0
 70
             0
 71
             3
 72
            21
 73
            17
 74
            29
 42
0.00000000001
 43
0.00000000001
 44
0.00000000001
 40
29.00765755992828
 40
29.00765755992828
 40
29.00765755992828
 40
29.00765755992828
 40
30.051042213799452
 40
32.355257404272699
 40
34.805260577398982
 40
36.543523151821532
 40
37.415601763428
 40
38.208273172462839
 40
40.232685536976788
 40
43.322309546674767
 40
46.198077572145287
 40
49.305481906115403
 40
53.556824133726117
 40
55.714810116028382
 40
57.11397722744664
 40
60.193514157359843
 40
60.193514157359843
 40
60.193514157359843
 40
60.193514157359843
 10
-1684377.870975079
 20
2502772.337835894
 30
0.0
 10
-1684377.5872972549
 20
2502771.7024415759
 30
0.0
 10
-1684376.7181017301
 20
2502769.645423233
 30
0.0
 10
-1684375.4407061071
 20
2502765.9933368079
 30
0.0
 10
-1684374.34695625
 20
2502761.7992291548
 30
0.0
 10
-1684373.5367034611
 20
2502758.5341838039
 30
0.0
 10
-1684373.2211107039
 20
2502756.260554668
 30
0.0
 10
-1684373.736270529
 20
2502753.8291416941
 30
0.0
 10
-1684375.1159939689
 20
2502750.1403535218
 30
0.0
 10
-1684377.492222351
 20
2502745.3500574529
 30
0.0
 10
-1684380.9304119779
 20
2502740.3591550649
 30
0.0
 10
-1684385.2411476329
 20
2502735.0634170421
 30
0.0
 10
-1684390.0512186489
 20
2502730.820093601
 30
0.0
 10
-1684394.603307795
 20
2502728.2571248198
 30
0.0
 10
-1684398.689812613
 20
2502726.5484850649
 30
0.0
 10
-1684401.6170345549
 20
2502725.8396937819
 30
0.0
 10
-1684403.8272725099
 20
2502725.5843092948
 30
0.0
 11
-1684377.870975079
 21
2502772.337835894
 31
0.0
 11
-1684377.455035127
 21
2502771.3805286284
 31
0.0
 11
-1684377.0582586804
 21
2502770.4151468365
 31
0.0
 11
-1684376.2494003111
 21
2502768.2571094041
 31
0.0
 11
-1684375.5307524228
 21
2502766.067232945
 31
0.0
 11
-1684374.8558407726
 21
2502763.7110849642
 31
0.0
 11
-1684374.239014755
 21
2502761.3405558895
 31
0.0
 11
-1684373.8260045
 21
2502759.6544068493
 31
0.0
 11
-1684373.4760050219
 21
2502757.9487948054
 31
0.0
 11
-1684373.3507842734
 21
2502757.0811668737
 31
0.0
 11
-1684373.3199068501
 21
2502756.2116368455
 31
0.0
 11
-1684373.4118165097
 21
2502755.4259726624
 31
0.0
 11
-1684373.5852220475
 21
2502754.6486526178
 31
0.0
 11
-1684374.1813411361
 21
2502752.7107654237
 31
0.0
 11
-1684374.9183205201
 21
2502750.8255870738
 31
0.0
 11
-1684376.2087110442
 21
2502748.0161365513
 31
0.0
 11
-1684377.6863177507
 21
2502745.3009787239
 31
0.0
 11
-1684379.2293779701
 21
2502742.8737092391
 31
0.0
 11
-1684380.9010168978
 21
2502740.531715014
 31
0.0
 11
-1684382.8184245708
 21
2502738.085498984
 31
0.0
 11
-1684384.8698595099
 21
2502735.7492329073
 31
0.0
 11
-1684387.9393086827
 21
2502732.7935328577
 31
0.0
 11
-1684391.3279089069
 21
2502730.2184788049
 31
0.0
 11
-1684393.1710299107
 21
2502729.0927944356
 31
0.0
 11
-1684395.0885856489
 21
2502728.100714786
 31
0.0
 11
-1684396.3671628439
 21
2502727.5317219435
 31
0.0
 11
-1684397.6716754264
 21
2502727.0244612731
 31
0.0
 11
-1684400.6453651246
 21
2502726.1386273042
 31
0.0
 11
-1684403.8272725099
 21
2502725.5843092948
 31
0.0
  0
SPLINE
  5
22B
100
AcDbEntity
  8
1
  6
CONTINUOUS
 62
             3
100
AcDbSpline
210
0.0
220
0.0
230
1.0
 70
             0
 71
             3
 72
             8
 73
             4
 74
             3
 42
0.00000000001
 43
0.00000000001
 44
0.00000000001
 40
58.278239030249779
 40
58.278239030249779
 40
58.278239030249779
 40
58.278239030249779
 40
58.278243534547542
 40
58.278243534547542
 40
58.278243534547542
 40
58.278243534547542
 10
-1684414.7486323901
 20
2502778.37353219
 30
0.0
 10
-1684414.7486325491
 20
2502778.373529186
 30
0.0
 10
-1684414.7486327051
 20
2502778.373526183
 30
0.0
 10
-1684414.7486328629
 20
2502778.3735231818
 30
0.0
 11
-1684414.7486323901
 21
2502778.37353219
 31
0.0
 11
-1684414.7486326271
 21
2502778.3735276852
 31
0.0
 11
-1684414.7486328629
 21
2502778.3735231818
 31
0.0
  0
SPLINE
  5
22A
100
AcDbEntity
  8
1
  6
CONTINUOUS
 62
             3
100
AcDbSpline
210
0.0
220
0.0
230
1.0
 70
             0
 71
             3
 72
            14
 73
            10
 74
            15
 42
0.00000000001
 43
0.00000000001
 44
0.00000000001
 40
42.344106316369107
 40
42.344106316369107
 40
42.344106316369107
 40
42.344106316369107
 40
43.322309546674767
 40
46.198077572145287
 40
49.305481906115403
 40
53.556824133726117
 40
55.714810116028382
 40
57.11397722744664
 40
60.193514157359843
 40
60.193514157359843
 40
60.193514157359843
 40
60.193514157359843
 10
-1684499.3729912429
 20
2502777.33391034
 30
0.0
 10
-1684498.786359689
 20
2502777.6199935232
 30
0.0
 10
-1684496.450555315
 20
2502778.6956680408
 30
0.0
 10
-1684492.0654480809
 20
2502780.2431243341
 30
0.0
 10
-1684485.465232969
 20
2502781.9936795472
 30
0.0
 10
-1684479.0796408351
 20
2502782.599311518
 30
0.0
 10
-1684473.890448103
 20
2502781.9971459489
 30
0.0
 10
-1684469.58008301
 20
2502780.9774772818
 30
0.0
 10
-1684466.7952936471
 20
2502779.8303235909
 30
0.0
 10
-1684465.0088777449
 20
2502778.8192538559
 30
0.0
 11
-1684499.3729912429
 21
2502777.33391034
 31
0.0
 11
-1684498.4884069574
 21
2502777.7531100637
 31
0.0
 11
-1684497.5947065104
 21
2502778.1519357539
 31
0.0
 11
-1684494.9196313617
 21
2502779.2086499776
 31
0.0
 11
-1684492.1906573942
 21
2502780.1207983969
 31
0.0
 11
-1684489.2015922952
 21
2502780.9728047834
 31
0.0
 11
-1684486.1687238216
 21
2502781.6570805404
 31
0.0
 11
-1684481.9481703788
 21
2502782.2441151547
 31
0.0
 11
-1684477.6931564142
 21
2502782.335608406
 31
0.0
 11
-1684475.5403795287
 21
2502782.1629468463
 31
0.0
 11
-1684473.4059145616
 21
2502781.8384451587
 31
0.0
 11
-1684472.0370782809
 21
2502781.5472412189
 31
0.0
 11
-1684470.6835450912
 21
2502781.1908504642
 31
0.0
 11
-1684467.7760763706
 21
2502780.1697973935
 31
0.0
 11
-1684465.0088777449
 21
2502778.8192538559
 31
0.0
  0
SPLINE
  5
229
100
AcDbEntity
  8
1
  6
CONTINUOUS
 62
             3
100
AcDbSpline
210
0.0
220
0.0
230
1.0
 70
             0
 71
             3
 72
            11
 73
             7
 74
             9
 42
0.00000000001
 43
0.00000000001
 44
0.00000000001
 40
50.768399155755063
 40
50.768399155755063
 40
50.768399155755063
 40
50.768399155755063
 40
53.556824133726117
 40
55.714810116028382
 40
57.11397722744664
 40
60.193514157359843
 40
60.193514157359843
 40
60.193514157359843
 40
60.193514157359843
 10
-1684433.810718589
 20
2502686.6955921939
 30
0.0
 10
-1684435.4385539349
 20
2502687.6050392268
 30
0.0
 10
-1684438.209403899
 20
2502689.425515132
 30
0.0
 10
-1684441.3333960371
 20
2502692.300098368
 30
0.0
 10
-1684444.221208446
 20
2502695.6585966819
 30
0.0
 10
-1684445.799870342
 20
2502698.223521634
 30
0.0
 10
-1684446.6508192869
 20
2502700.0915231509
 30
0.0
 11
-1684433.810718589
 21
2502686.6955921939
 31
0.0
 11
-1684436.197991739
 21
2502688.1494602459
 31
0.0
 11
-1684438.4558836287
 21
2502689.7911006259
 31
0.0
 11
-1684440.0960287964
 21
2502691.1961572664
 31
0.0
 11
-1684441.6321099228
 21
2502692.7132916749
 31
0.0
 11
-1684442.5683563554
 21
2502693.7534623896
 31
0.0
 11
-1684443.4539064788
 21
2502694.8373754136
 31
0.0
 11
-1684445.2059381464
 21
2502697.372391935
 31
0.0
 11
-1684446.6508192869
 21
2502700.0915231509
 31
0.0
  0
SPLINE
  5
228
100
AcDbEntity
  8
1
  6
CONTINUOUS
 62
             3
100
AcDbSpline
210
0.0
220
0.0
230
1.0
 70
             0
 71
             3
 72
             8
 73
             4
 74
             3
 42
0.00000000001
 43
0.00000000001
 44
0.00000000001
 40
47.74817497101521
 40
47.74817497101521
 40
47.74817497101521
 40
47.74817497101521
 40
47.748179624193327
 40
47.748179624193327
 40
47.748179624193327
 40
47.748179624193327
 10
-1684428.3376206551
 20
2502684.1264945059
 30
0.0
 10
-1684428.337623541
 20
2502684.1264956458
 30
0.0
 10
-1684428.3376264269
 20
2502684.1264967839
 30
0.0
 10
-1684428.3376293131
 20
2502684.1264979239
 30
0.0
 11
-1684428.3376206551
 21
2502684.1264945059
 31
0.0
 11
-1684428.3376249834
 21
2502684.126496214
 31
0.0
 11
-1684428.3376293131
 21
2502684.1264979239
 31
0.0
  0
SPLINE
  5
227
100
AcDbEntity
  8
1
  6
CONTINUOUS
 62
             3
100
AcDbSpline
210
0.0
220
0.0
230
1.0
 70
             0
 71
             3
 72
             9
 73
             5
 74
             6
 42
0.00000000001
 43
0.00000000001
 44
0.00000000001
 40
0.7587697514259717
 40
0.7587697514259717
 40
0.7587697514259717
 40
0.7587697514259717
 40
1.816862833011968
 40
1.869218984922054
 40
1.869218984922054
 40
1.869218984922054
 40
1.869218984922054
 10
-1684367.3891779489
 20
2502876.060853532
 30
0.0
 10
-1684367.829729337
 20
2502875.4974556901
 30
0.0
 10
-1684368.247060383
 20
2502874.8720241748
 30
0.0
 10
-1684368.4917568029
 20
2502874.177673622
 30
0.0
 10
-1684368.5029222909
 20
2502874.1447912459
 30
0.0
 11
-1684367.3891779489
 21
2502876.060853532
 31
0.0
 11
-1684367.8112139732
 21
2502875.4854950653
 31
0.0
 11
-1684368.179353714
 21
2502874.8817667654
 31
0.0
 11
-1684368.4682988389
 21
2502874.2429957599
 31
0.0
 11
-1684368.4858938311
 21
2502874.1940052193
 31
0.0
 11
-1684368.5029222909
 21
2502874.1447912459
 31
0.0
  0
SPLINE
  5
226
100
AcDbEntity
  8
1
  6
CONTINUOUS
 62
             2
100
AcDbSpline
210
0.0
220
0.0
230
1.0
 70
             0
 71
             3
 72
            10
 73
             6
 74
             8
 42
0.00000000001
 43
0.00000000001
 44
0.00000000001
 40
0.0
 40
0.0
 40
0.0
 40
0.0
 40
1.7703423177969231
 40
2.3316093008978149
 40
3.87616184329306
 40
3.87616184329306
 40
3.87616184329306
 40
3.87616184329306
 10
-1684361.2076890841
 20
2502892.4508632859
 30
0.0
 10
-1684361.3055740329
 20
2502890.6197464769
 30
0.0
 10
-1684358.5709312649
 20
2502893.6026438219
 30
0.0
 10
-1684357.137957073
 20
2502890.5847810181
 30
0.0
 10
-1684354.824422955
 20
2502893.0040305872
 30
0.0
 10
-1684354.687054809
 20
2502891.5097991819
 30
0.0
 11
-1684361.2076890841
 21
2502892.4508632859
 31
0.0
 11
-1684360.7013394916
 21
2502891.7309150915
 31
0.0
 11
-1684359.4685722159
 21
2502892.2166871764
 31
0.0
 11
-1684358.2324643545
 21
2502892.3832541145
 31
0.0
 11
-1684357.8126416141
 21
2502892.0071022739
 31
0.0
 11
-1684357.3924194966
 21
2502891.6386688999
 31
0.0
 11
-1684355.7645907588
 21
2502891.9811650841
 31
0.0
 11
-1684354.687054809
 21
2502891.5097991819
 31
0.0
  0
CIRCLE
  5
225
100
AcDbEntity
  8
1
  6
CONTINUOUS
 62
             3
100
AcDbCircle
 10
-1684442.876702911
 20
2502661.4378358931
 40
2.25
  0
CIRCLE
  5
224
100
AcDbEntity
  8
1
  6
CONTINUOUS
 62
             3
100
AcDbCircle
 10
-1684442.876702911
 20
2502661.4378358931
 40
2.75000000093132
  0
CIRCLE
  5
223
100
AcDbEntity
  8
0
  6
CONTINUOUS
 62
             3
100
AcDbCircle
 10
-1684376.1224816339
 20
2502696.558930702
 40
2.75000000093132
  0
CIRCLE
  5
222
100
AcDbEntity
  8
0
  6
CONTINUOUS
 62
             3
100
AcDbCircle
 10
-1684376.1224816339
 20
2502696.558930702
 40
2.25
  0
CIRCLE
  5
221
100
AcDbEntity
  8
0
  6
CONTINUOUS
 62
             3
100
AcDbCircle
 10
-1684509.630924189
 20
2502696.558930702
 40
2.75
  0
CIRCLE
  5
220
100
AcDbEntity
  8
0
  6
CONTINUOUS
 62
             3
100
AcDbCircle
 10
-1684509.630924189
 20
2502696.558930702
 40
2.25
  0
CIRCLE
  5
21F
100
AcDbEntity
  8
0
  6
CONTINUOUS
 62
             3
100
AcDbCircle
 10
-1684442.876702911
 20
2502823.4378358931
 40
2.75
  0
CIRCLE
  5
21E
100
AcDbEntity
  8
0
  6
CONTINUOUS
 62
             3
100
AcDbCircle
 10
-1684442.876702911
 20
2502823.4378358931
 40
2.25
  0
CIRCLE
  5
21D
100
AcDbEntity
  8
1
  6
DASH_CENTER
 62
            40
100
AcDbCircle
 10
-1684442.876702911
 20
2502742.4378358931
 40
81.0
  0
CIRCLE
  5
21C
100
AcDbEntity
  8
0
  6
CONTINUOUS
 62
             3
100
AcDbCircle
 10
-1684461.876702911
 20
2502900.3447912452
 40
5.60000000009313
  0
CIRCLE
  5
21B
100
AcDbEntity
  8
0
  6
CONTINUOUS
 62
             3
100
AcDbCircle
 10
-1684461.876702911
 20
2502900.3447912452
 40
2.80000000004657
  0
CIRCLE
  5
21A
100
AcDbEntity
  8
0
  6
CONTINUOUS
 62
             2
100
AcDbCircle
 10
-1684461.876702911
 20
2502900.3447912452
 40
1.78223484288901
  0
CIRCLE
  5
219
100
AcDbEntity
  8
0
  6
CONTINUOUS
 62
             3
100
AcDbCircle
 10
-1684461.876702911
 20
2502900.3447912452
 40
1.64290441689081
  0
ARC
  5
218
100
AcDbEntity
  8
1
  6
CONTINUOUS
 62
             3
100
AcDbCircle
 10
-1684479.923702911
 20
2502732.2608935768
 40
17.99999999849559
100
AcDbArc
 50
-44.99999999266326
 51
-5.62092604467098
  0
ARC
  5
217
100
AcDbEntity
  8
1
  6
CONTINUOUS
 62
             3
100
AcDbCircle
 10
-1684479.923702911
 20
2502732.2608935768
 40
20.00000000032236
100
AcDbArc
 50
-44.99999999952836
 51
-5.62092604261307
  0
ARC
  5
216
100
AcDbEntity
  8
1
  6
CONTINUOUS
 62
             3
100
AcDbCircle
 10
-1684452.0583354919
 20
2502729.5183949792
 40
7.99999999931107
100
AcDbArc
 50
116.58744116187378
 51
174.37907395914968
  0
ARC
  5
215
100
AcDbEntity
  8
1
  6
CONTINUOUS
 62
             3
100
AcDbCircle
 10
-1684471.1160197051
 20
2502716.3880498898
 40
18.00000000021213
100
AcDbArc
 50
-17.66999999951964
 51
21.70907395357925
  0
ARC
  5
214
100
AcDbEntity
  8
1
  6
CONTINUOUS
 62
             3
100
AcDbCircle
 10
-1684471.1160197051
 20
2502716.3880498898
 40
20.00000000120379
100
AcDbArc
 50
-17.66999999894727
 51
21.70907395938605
  0
ARC
  5
213
100
AcDbEntity
  8
1
  6
CONTINUOUS
 62
             3
100
AcDbCircle
 10
-1684445.1019476219
 20
2502726.745079082
 40
10.00000000182244
100
AcDbArc
 50
141.57431940265533
 51
-158.29092604480246
  0
ARC
  5
212
100
AcDbEntity
  8
1
  6
CONTINUOUS
 62
             3
100
AcDbCircle
 10
-1684445.1019476219
 20
2502726.745079082
 40
8.00000000160711
100
AcDbArc
 50
143.9174411773667
 51
-158.29092605891489
  0
ARC
  5
211
100
AcDbEntity
  8
1
  6
CONTINUOUS
 62
             3
100
AcDbCircle
 10
-1684456.0040198669
 20
2502706.3307186812
 40
18.0000000001475
100
AcDbArc
 50
9.65999999924022
 51
49.03907395344599
  0
ARC
  5
210
100
AcDbEntity
  8
1
  6
CONTINUOUS
 62
             3
100
AcDbCircle
 10
-1684456.0040198669
 20
2502706.3307186812
 40
20.00000000078736
100
AcDbArc
 50
9.65999999427514
 51
49.0390739500537
  0
ARC
  5
20F
100
AcDbEntity
  8
1
  6
CONTINUOUS
 62
             3
100
AcDbCircle
 10
-1684437.6487826069
 20
2502727.4751095488
 40
10.0000000007632
100
AcDbArc
 50
168.90431940795972
 51
-130.96092605021207
  0
ARC
  5
20E
100
AcDbEntity
  8
1
  6
CONTINUOUS
 62
             3
100
AcDbCircle
 10
-1684437.6487826069
 20
2502727.4751095488
 40
8.00000000132101
100
AcDbArc
 50
171.41133714802783
 51
-130.96092604264587
  0
ARC
  5
20D
100
AcDbEntity
  8
1
  6
CONTINUOUS
 62
             3
100
AcDbCircle
 10
-1684437.9613980411
 20
2502704.3341596681
 40
17.99999999949013
100
AcDbArc
 50
36.98999999509306
 51
76.36907395404097
  0
ARC
  5
20C
100
AcDbEntity
  8
1
  6
CONTINUOUS
 62
             3
100
AcDbCircle
 10
-1684437.9613980411
 20
2502704.3341596681
 40
20.0000000012589
100
AcDbArc
 50
36.99000000080358
 51
76.36907395208515
  0
ARC
  5
20B
100
AcDbEntity
  8
1
  6
CONTINUOUS
 62
             3
100
AcDbCircle
 10
-1684431.3627302791
 20
2502731.5455099419
 40
9.99999999992161
100
AcDbArc
 50
-161.35892140128104
 51
-103.63092604756157
  0
ARC
  5
20A
100
AcDbEntity
  8
1
  6
CONTINUOUS
 62
             3
100
AcDbCircle
 10
-1684431.3627302791
 20
2502731.5455099419
 40
8.00000000008174
100
AcDbArc
 50
-141.13000369367609
 51
-103.63092604307263
  0
ARC
  5
209
100
AcDbEntity
  8
1
  6
CONTINUOUS
 62
             3
100
AcDbCircle
 10
-1684480.4607887759
 20
2502750.4056996941
 40
18.00000000056549
100
AcDbArc
 50
-72.32999999694958
 51
-32.95092604552129
  0
ARC
  5
208
100
AcDbEntity
  8
1
  6
CONTINUOUS
 62
             3
100
AcDbCircle
 10
-1684480.4607887759
 20
2502750.4056996941
 40
20.00000000180849
100
AcDbArc
 50
-72.33000000440474
 51
-32.95092604288966
  0
ARC
  5
207
100
AcDbEntity
  8
1
  6
CONTINUOUS
 62
             3
100
AcDbCircle
 10
-1684456.9649599229
 20
2502735.1759253498
 40
8.00000000008877
100
AcDbArc
 50
90.66669319417146
 51
147.04907394086314
  0
ARC
  5
206
100
AcDbEntity
  8
1
  6
CONTINUOUS
 62
             3
100
AcDbCircle
 10
-1684452.0583354919
 20
2502729.5183949792
 40
10.00000000019324
100
AcDbArc
 50
114.24431940636607
 51
174.37907396250139
  0
ARC
  5
205
100
AcDbEntity
  8
1
  6
CONTINUOUS
 62
             3
100
AcDbCircle
 10
-1684472.607374992
 20
2502766.771711492
 40
18.00000000006448
100
AcDbArc
 50
-99.65999999327094
 51
-60.28092604181413
  0
ARC
  5
204
100
AcDbEntity
  8
1
  6
CONTINUOUS
 62
             3
100
AcDbCircle
 10
-1684472.607374992
 20
2502766.771711492
 40
20.00000000079224
100
AcDbArc
 50
-99.6599999983324
 51
-60.2809260426616
  0
ARC
  5
203
100
AcDbEntity
  8
1
  6
CONTINUOUS
 62
             3
100
AcDbCircle
 10
-1684458.726436273
 20
2502742.454648749
 40
8.00000000168735
100
AcDbArc
 50
86.73639357288373
 51
119.71907396214159
  0
ARC
  5
202
100
AcDbEntity
  8
1
  6
CONTINUOUS
 62
             3
100
AcDbCircle
 10
-1684456.9649599229
 20
2502735.1759253498
 40
10.00000000222666
100
AcDbArc
 50
94.07630792052719
 51
147.04907394884953
  0
ARC
  5
201
100
AcDbEntity
  8
1
  6
CONTINUOUS
 62
             3
100
AcDbCircle
 10
-1684458.726436273
 20
2502742.454648749
 40
10.00000000122049
100
AcDbArc
 50
91.6046993457739
 51
119.71907395965552
  0
ARC
  5
200
100
AcDbEntity
  8
1
  6
CONTINUOUS
 62
             3
100
AcDbCircle
 10
-1684442.876702911
 20
2502742.4378358931
 40
37.49999999933655
100
AcDbArc
 50
173.48106791619443
 51
180.0
  0
ARC
  5
1FF
100
AcDbEntity
  8
1
  6
CONTINUOUS
 62
             3
100
AcDbCircle
 10
-1684442.876702911
 20
2502742.4378358931
 40
37.49999999975052
100
AcDbArc
 50
122.55447433853652
 51
139.86893208405638
  0
ARC
  5
1FE
100
AcDbEntity
  8
1
  6
CONTINUOUS
 62
             3
100
AcDbCircle
 10
-1684458.1167053559
 20
2502777.7052810718
 40
18.00000000237878
100
AcDbArc
 50
-126.98999999744539
 51
-97.51292191895323
  0
ARC
  5
1FD
100
AcDbEntity
  8
1
  6
CONTINUOUS
 62
             3
100
AcDbCircle
 10
-1684458.1167053559
 20
2502777.7052810718
 40
20.00000000236985
100
AcDbArc
 50
-126.98999999172554
 51
-94.0992679557975
  0
ARC
  5
1FC
100
AcDbEntity
  8
1
  6
CONTINUOUS
 62
             3
100
AcDbCircle
 10
-1684442.876702911
 20
2502742.4378358931
 40
37.4999999999827
100
AcDbArc
 50
146.15106791891122
 51
167.19893208282136
  0
ARC
  5
1FB
100
AcDbEntity
  8
1
  6
CONTINUOUS
 62
             3
100
AcDbCircle
 10
-1684442.876702911
 20
2502742.4378358931
 40
37.5
100
AcDbArc
 50
180.0
 51
-165.47106791815668
  0
ARC
  5
1FA
100
AcDbEntity
  8
1
  6
CONTINUOUS
 62
             3
100
AcDbCircle
 10
-1684442.876702911
 20
2502742.4378358931
 40
37.49999999995035
100
AcDbArc
 50
-28.66292488466139
 51
118.66292488312573
  0
ARC
  5
1F9
100
AcDbEntity
  8
1
  6
CONTINUOUS
 62
             3
100
AcDbCircle
 10
-1684442.876702911
 20
2502742.4378358931
 40
37.49999999927223
100
AcDbArc
 50
-159.18893208085291
 51
-138.14106791922549
  0
ARC
  5
1F8
100
AcDbEntity
  8
1
  6
CONTINUOUS
 62
             3
100
AcDbCircle
 10
-1684442.876702911
 20
2502742.4378358931
 40
37.50000000024522
100
AcDbArc
 50
-131.85893208180676
 51
-110.81106791737767
  0
ARC
  5
1F7
100
AcDbEntity
  8
1
  6
CONTINUOUS
 62
             3
100
AcDbCircle
 10
-1684442.876702911
 20
2502742.4378358931
 40
37.49999999953351
100
AcDbArc
 50
-104.52893208012154
 51
-83.48106791797167
  0
ARC
  5
1F6
100
AcDbEntity
  8
1
  6
CONTINUOUS
 62
             3
100
AcDbCircle
 10
-1684442.876702911
 20
2502742.4378358931
 40
37.49999999863589
100
AcDbArc
 50
-77.19893207935238
 51
-56.15106791732603
  0
ARC
  5
1F5
100
AcDbEntity
  8
1
  6
CONTINUOUS
 62
             3
100
AcDbCircle
 10
-1684442.876702911
 20
2502742.4378358931
 40
37.50000000074365
100
AcDbArc
 50
-49.8689320816085
 51
-32.55447434031017
  0
ARC
  5
1F4
100
AcDbEntity
  8
1
  6
CONTINUOUS
 62
             2
100
AcDbCircle
 10
-1684442.876702911
 20
2502742.4378358931
 40
36.80000000066333
100
AcDbArc
 50
-28.20995686221937
 51
118.20995686349717
  0
ARC
  5
1F3
100
AcDbEntity
  8
1
  6
CONTINUOUS
 62
             3
100
AcDbCircle
 10
-1684442.876702911
 20
2502661.4378358931
 40
6.3999999994407
100
AcDbArc
 50
109.56910167857573
 51
162.48998456316244
  0
ARC
  5
1F2
100
AcDbEntity
  8
1
  6
CONTINUOUS
 62
             3
100
AcDbCircle
 10
-1684442.876702911
 20
2502742.4378358931
 40
85.75000000063439
100
AcDbArc
 50
28.72125797341531
 51
151.27874202628564
  0
ARC
  5
1F1
100
AcDbEntity
  8
1
  6
CONTINUOUS
 62
             3
100
AcDbCircle
 10
-1684442.876702911
 20
2502742.4378358931
 40
85.75000000138405
100
AcDbArc
 50
-151.27874202437565
 51
-28.72125797532534
  0
ARC
  5
1F0
100
AcDbEntity
  8
1
  6
CONTINUOUS
 62
             3
100
AcDbCircle
 10
-1684442.876702911
 20
2502742.4378358931
 40
82.50000000027553
100
AcDbArc
 50
-85.41823659883458
 51
-41.75845430720936
  0
ARC
  5
1EF
100
AcDbEntity
  8
1
  6
CONTINUOUS
 62
             3
100
AcDbCircle
 10
-1684442.876702911
 20
2502742.4378358931
 40
82.50000000026523
100
AcDbArc
 50
-138.24154569235989
 51
-94.58176339971477
  0
ARC
  5
1EE
100
AcDbEntity
  8
0
  6
CONTINUOUS
 62
             3
100
AcDbCircle
 10
-1684368.676702911
 20
2502776.837835894
 40
1.00000000093132
100
AcDbArc
 50
0.0
 51
90.0
  0
ARC
  5
1ED
100
AcDbEntity
  8
0
  6
CONTINUOUS
 62
             3
100
AcDbCircle
 10
-1684415.0763037431
 20
2502775.8950893092
 40
2.50000000043579
100
AcDbArc
 50
50.2760306074961
 51
135.00000001509272
  0
ARC
  5
1EC
100
AcDbEntity
  8
0
  6
CONTINUOUS
 62
             3
100
AcDbCircle
 10
-1684442.876702911
 20
2502742.4378358931
 40
45.99999999940429
100
AcDbArc
 50
39.34842844349302
 51
50.27603059978536
  0
ARC
  5
1EB
100
AcDbEntity
  8
0
  6
CONTINUOUS
 62
             3
100
AcDbCircle
 10
-1684402.750844674
 20
2502762.5854288181
 40
5.00000000074136
100
AcDbArc
 50
115.49999998476366
 51
-153.33831718144731
  0
ARC
  5
1EA
100
AcDbEntity
  8
0
  6
CONTINUOUS
 62
             3
100
AcDbCircle
 10
-1684368.676702911
 20
2502781.837835894
 40
1.0
100
AcDbArc
 50
-90.0
 51
-29.99999999172479
  0
ARC
  5
1E9
100
AcDbEntity
  8
0
  6
CONTINUOUS
 62
             3
100
AcDbCircle
 10
-1684368.676702911
 20
2502781.837835894
 40
1.00000000025016
100
AcDbArc
 50
-29.99999999172479
 51
0.0
  0
ARC
  5
1E8
100
AcDbEntity
  8
0
  6
CONTINUOUS
 62
             3
100
AcDbCircle
 10
-1684391.655831547
 20
2502762.337835894
 40
10.0
100
AcDbArc
 50
90.0
 51
115.4999999977866
  0
ARC
  5
1E7
100
AcDbEntity
  8
0
  6
CONTINUOUS
 62
             3
100
AcDbCircle
 10
-1684400.3574006839
 20
2502763.837835894
 40
10.0
100
AcDbArc
 50
90.0
 51
115.50000000862323
  0
ARC
  5
1E6
100
AcDbEntity
  8
0
  6
CONTINUOUS
 62
             3
100
AcDbCircle
 10
-1684442.876702911
 20
2502742.4378358931
 40
79.93695175338283
100
AcDbArc
 50
24.0458457312491
 51
25.41648757765718
  0
ARC
  5
1E5
100
AcDbEntity
  8
1
  6
CONTINUOUS
 62
             3
100
AcDbCircle
 10
-1684442.876702911
 20
2502742.4378358908
 40
79.23793859381736
100
AcDbArc
 50
-85.62312776152228
 51
-83.95623992385094
  0
ARC
  5
1E4
100
AcDbEntity
  8
1
  6
CONTINUOUS
 62
             3
100
AcDbCircle
 10
-1684442.876702911
 20
2502742.4378358908
 40
79.23793859377494
100
AcDbArc
 50
-96.98393697055052
 51
-94.40131802876762
  0
ARC
  5
1E3
100
AcDbEntity
  8
1
  6
CONTINUOUS
 62
             3
100
AcDbCircle
 10
-1684442.876702911
 20
2502742.4378358931
 40
71.87500000007033
100
AcDbArc
 50
151.31969927547934
 51
180.0
  0
ARC
  5
1E2
100
AcDbEntity
  8
1
  6
CONTINUOUS
 62
             3
100
AcDbCircle
 10
-1684442.876702911
 20
2502742.4378358931
 40
71.875
100
AcDbArc
 50
180.0
 51
-89.45840373294242
  0
ARC
  5
1E1
100
AcDbEntity
  8
1
  6
CONTINUOUS
 62
             3
100
AcDbCircle
 10
-1684442.876702911
 20
2502742.4378358931
 40
39.8999999988637
100
AcDbArc
 50
174.47048369482062
 51
-83.48466998586443
  0
ARC
  5
1E0
100
AcDbEntity
  8
1
  6
CONTINUOUS
 62
             3
100
AcDbCircle
 10
-1684442.876702911
 20
2502742.4378358931
 40
82.50000000150067
100
AcDbArc
 50
94.58176339963727
 51
141.8619552722636
  0
ARC
  5
1DF
100
AcDbEntity
  8
1
  6
CONTINUOUS
 62
             3
100
AcDbCircle
 10
-1684442.876702911
 20
2502742.4378358931
 40
39.90000000047679
100
AcDbArc
 50
54.37568493930232
 51
151.71533001408812
  0
ARC
  5
1DE
100
AcDbEntity
  8
1
  6
CONTINUOUS
 62
             3
100
AcDbCircle
 10
-1684442.876702911
 20
2502742.4378358931
 40
71.87500000066565
100
AcDbArc
 50
33.7196992747678
 51
145.74159626725756
  0
ARC
  5
1DD
100
AcDbEntity
  8
1
  6
CONTINUOUS
 62
             3
100
AcDbCircle
 10
-1684442.876702911
 20
2502742.4378358931
 40
79.2379385960722
100
AcDbArc
 50
141.33987473379869
 51
142.92963130242006
  0
ARC
  5
1DC
100
AcDbEntity
  8
1
  6
CONTINUOUS
 62
             3
100
AcDbCircle
 10
-1684442.876702911
 20
2502742.4378358931
 40
71.87499999968834
100
AcDbArc
 50
-83.88030072451306
 51
24.58230704456212
  0
ARC
  5
1DB
100
AcDbEntity
  8
0
  6
CONTINUOUS
 62
             3
100
AcDbCircle
 10
-1684442.876702911
 20
2502742.4378358931
 40
79.70394736988285
100
AcDbArc
 50
-41.05101257011549
 51
-38.99514754950666
  0
ARC
  5
1DA
100
AcDbEntity
  8
0
  6
CONTINUOUS
 62
             3
100
AcDbCircle
 10
-1684376.1224816339
 20
2502696.558930702
 40
6.40000000027264
100
AcDbArc
 50
73.01001542854068
 51
97.58190808240265
  0
ARC
  5
1D9
100
AcDbEntity
  8
0
  6
CONTINUOUS
 62
             3
100
AcDbCircle
 10
-1684373.08355446
 20
2502706.505031528
 40
4.0000000000962
100
AcDbArc
 50
-106.98998455086057
 51
-36.70601621788968
  0
ARC
  5
1D8
100
AcDbEntity
  8
0
  6
CONTINUOUS
 62
             3
100
AcDbCircle
 10
-1684376.1224816339
 20
2502696.558930702
 40
6.39999999924158
100
AcDbArc
 50
97.58190808240265
 51
-166.58190807965832
  0
ARC
  5
1D7
100
AcDbEntity
  8
0
  6
CONTINUOUS
 62
             3
100
AcDbCircle
 10
-1684376.1224816339
 20
2502696.558930702
 40
7.30000000053093
100
AcDbArc
 50
71.96929804611918
 51
177.00000001287776
  0
ARC
  5
1D6
100
AcDbEntity
  8
0
  6
CONTINUOUS
 62
             3
100
AcDbCircle
 10
-1684442.876702911
 20
2502742.4378358931
 40
79.70394736727295
100
AcDbArc
 50
-141.00485245007209
 51
-138.94898742889526
  0
ARC
  5
1D5
100
AcDbEntity
  8
0
  6
CONTINUOUS
 62
             3
100
AcDbCircle
 10
-1684512.6698513611
 20
2502706.505031528
 40
3.9999999990422
100
AcDbArc
 50
-143.29398379805747
 51
-73.01001543319195
  0
ARC
  5
1D4
100
AcDbEntity
  8
0
  6
CONTINUOUS
 62
             3
100
AcDbCircle
 10
-1684509.630924189
 20
2502696.558930702
 40
6.39999999961022
100
AcDbArc
 50
82.41809189280315
 51
106.98998454554467
  0
ARC
  5
1D3
100
AcDbEntity
  8
0
  6
CONTINUOUS
 62
             3
100
AcDbCircle
 10
-1684501.4344932369
 20
2502690.1574840201
 40
3.9999999987728
100
AcDbArc
 50
142.01001544695782
 51
-138.24154567902778
  0
ARC
  5
1D2
100
AcDbEntity
  8
0
  6
CONTINUOUS
 62
             3
100
AcDbCircle
 10
-1684509.630924189
 20
2502696.558930702
 40
6.39999999995183
100
AcDbArc
 50
-37.98998453436062
 51
-13.41809191598841
  0
ARC
  5
1D1
100
AcDbEntity
  8
0
  6
CONTINUOUS
 62
             3
100
AcDbCircle
 10
-1684509.630924189
 20
2502696.558930702
 40
6.40000000116152
100
AcDbArc
 50
-13.41809191598841
 51
82.41809189280315
  0
ARC
  5
1D0
100
AcDbEntity
  8
0
  6
CONTINUOUS
 62
             3
100
AcDbCircle
 10
-1684509.630924189
 20
2502696.558930702
 40
7.30000000016273
100
AcDbArc
 50
2.99999998635712
 51
108.03070194693011
  0
ARC
  5
1CF
100
AcDbEntity
  8
0
  6
CONTINUOUS
 62
             3
100
AcDbCircle
 10
-1684442.876702911
 20
2502742.4378358931
 40
79.70394736900919
100
AcDbArc
 50
94.4951475503519
 51
94.67776855589801
  0
ARC
  5
1CE
100
AcDbEntity
  8
0
  6
CONTINUOUS
 62
             3
100
AcDbCircle
 10
-1684442.876702911
 20
2502742.4378358931
 40
79.70394736660126
100
AcDbArc
 50
85.32223144476924
 51
85.50485245031554
  0
ARC
  5
1CD
100
AcDbEntity
  8
0
  6
CONTINUOUS
 62
             3
100
AcDbCircle
 10
-1684436.126702911
 20
2502826.6678038361
 40
2.00000000093132
100
AcDbArc
 50
180.0
 51
-94.58176336119951
  0
ARC
  5
1CC
100
AcDbEntity
  8
0
  6
CONTINUOUS
 62
             3
100
AcDbCircle
 10
-1684452.7948123789
 20
2502820.3087618202
 40
3.9999999987113
100
AcDbArc
 50
17.51001544570494
 51
97.25845429262634
  0
ARC
  5
1CB
100
AcDbEntity
  8
0
  6
CONTINUOUS
 62
             3
100
AcDbCircle
 10
-1684442.876702911
 20
2502823.4378358931
 40
6.39999999995022
100
AcDbArc
 50
-162.48998455123544
 51
-17.51001544625598
  0
ARC
  5
1CA
100
AcDbEntity
  8
0
  6
CONTINUOUS
 62
             3
100
AcDbCircle
 10
-1684432.9585934409
 20
2502820.3087618202
 40
3.99999999870535
100
AcDbArc
 50
82.74154569414037
 51
162.48998455931221
  0
ARC
  5
1C9
100
AcDbEntity
  8
0
  6
CONTINUOUS
 62
             3
100
AcDbCircle
 10
-1684436.376702911
 20
2502817.4378358931
 40
0.99999999906868
100
AcDbArc
 50
-90.0
 51
0.0
  0
ARC
  5
1C8
100
AcDbEntity
  8
0
  6
CONTINUOUS
 62
             3
100
AcDbCircle
 10
-1684449.3767029119
 20
2502817.4378358931
 40
0.99999999906868
100
AcDbArc
 50
180.0
 51
-90.0
  0
ARC
  5
1C7
100
AcDbEntity
  8
1
  6
CONTINUOUS
 62
             3
100
AcDbCircle
 10
-1684442.876702911
 20
2502742.4378358931
 40
82.49999999944136
100
AcDbArc
 50
35.40517821438068
 51
85.41823659891209
  0
ARC
  5
1C6
100
AcDbEntity
  8
0
  6
CONTINUOUS
 62
             3
100
AcDbCircle
 10
-1684376.1224816339
 20
2502696.558930702
 40
6.39999999912324
100
AcDbArc
 50
-166.58190807965832
 51
-142.01001544896036
  0
ARC
  5
1C5
100
AcDbEntity
  8
1
  6
CONTINUOUS
 62
             3
100
AcDbCircle
 10
-1684442.876702911
 20
2502742.4378358931
 40
39.89999999949582
100
AcDbArc
 50
-60.72951630524514
 51
26.66168279960177
  0
ARC
  5
1C4
100
AcDbEntity
  8
0
  6
CONTINUOUS
 62
             3
100
AcDbCircle
 10
-1684210.4945604389
 20
2502657.6878358931
 40
0.99999999906868
100
AcDbArc
 50
-90.0
 51
0.0
  0
ARC
  5
1C3
100
AcDbEntity
  8
0
  6
CONTINUOUS
 62
             3
100
AcDbCircle
 10
-1684210.4945604389
 20
2502827.1878358931
 40
1.0
100
AcDbArc
 50
0.0
 51
90.0
  0
ARC
  5
1C2
100
AcDbEntity
  8
0
  6
CONTINUOUS
 62
             3
100
AcDbCircle
 10
-1684096.188350071
 20
2502742.7603486278
 40
80.50685636710485
100
AcDbArc
 50
-179.77047087918189
 51
-164.30769261045526
  0
ARC
  5
1C1
100
AcDbEntity
  8
0
  6
CONTINUOUS
 62
             3
100
AcDbCircle
 10
-1684096.1321806691
 20
2502742.1074681319
 40
80.56305714638963
100
AcDbArc
 50
164.31311896940343
 51
179.76504452381218
  0
ARC
  5
1C0
100
AcDbEntity
  8
0
  6
CONTINUOUS
 62
             3
100
AcDbCircle
 10
-1684208.6425927875
 20
2502775.8553028526
 40
1.98501777749676
100
AcDbArc
 50
41.5627611327492
 51
92.8670870675946
  0
ARC
  5
1BF
100
AcDbEntity
  8
0
  6
CONTINUOUS
 62
             3
100
AcDbCircle
 10
-1684216.494560437
 20
2502781.337835894
 40
0.5
100
AcDbArc
 50
180.0
 51
-90.0
  0
ARC
  5
1BE
100
AcDbEntity
  8
0
  6
CONTINUOUS
 62
             3
100
AcDbCircle
 10
-1684207.1648287589
 20
2502830.5714525562
 40
7.38577337549971
100
AcDbArc
 50
-116.79697851684769
 51
-108.3870784193124
  0
ARC
  5
1BD
100
AcDbEntity
  8
0
  6
CONTINUOUS
 62
             3
100
AcDbCircle
 10
-1684200.57591982
 20
2502700.3285769778
 40
4.01056856258928
100
AcDbArc
 50
-59.79614845986318
 51
-6.93846821160039
  0
ARC
  5
1BC
100
AcDbEntity
  8
0
  6
CONTINUOUS
 62
             3
100
AcDbCircle
 10
-1684208.443653276
 20
2502657.3776029772
 40
4.07322831426263
100
AcDbArc
 50
104.95162983520484
 51
120.23242714809811
  0
ARC
  5
1BB
100
AcDbEntity
  8
1
  6
CONTINUOUS
 62
             3
100
AcDbCircle
 10
-1684207.800823126
 20
2502780.3396088919
 40
6.71251780910983
100
AcDbArc
 50
147.20147849015427
 51
175.74338849007734
  0
LINE
  5
1BA
100
AcDbEntity
  8
1
  6
CONTINUOUS
 62
             3
100
AcDbLine
 10
-1684207.157344037
 20
2502777.172243142
 11
-1684204.4258850911
 21
2502774.127135762
  0
ARC
  5
1B9
100
AcDbEntity
  8
1
  6
CONTINUOUS
 62
             3
100
AcDbCircle
 10
-1684402.5972182751
 20
2502762.991268062
 40
18.39112916993641
100
AcDbArc
 50
93.98933285494675
 51
126.27515017167732
  0
ARC
  5
1B8
100
AcDbEntity
  8
1
  6
CONTINUOUS
 62
             3
100
AcDbCircle
 10
-1684443.039753367
 20
2502742.4378358619
 40
41.00000004131884
100
AcDbArc
 50
54.12196460476569
 51
57.27441453200803
  0
ARC
  5
1B7
100
AcDbEntity
  8
1
  6
CONTINUOUS
 62
             3
100
AcDbCircle
 10
-1684443.0397533211
 20
2502742.4378358619
 40
41.00000004002654
100
AcDbArc
 50
124.63000728969162
 51
129.27441453314714
  0
ARC
  5
1B6
100
AcDbEntity
  8
1
  6
CONTINUOUS
 62
             3
100
AcDbCircle
 10
-1684443.0397533069
 20
2502742.4378359048
 40
41.00000003802388
100
AcDbArc
 50
-161.87803539248935
 51
-158.72558546737298
  0
ARC
  5
1B5
100
AcDbEntity
  8
1
  6
CONTINUOUS
 62
             3
100
AcDbCircle
 10
-1684443.039753342
 20
2502742.4378359318
 40
41.00000004051976
100
AcDbArc
 50
-89.87803539510753
 51
-86.72558546761992
  0
ARC
  5
1B4
100
AcDbEntity
  8
1
  6
CONTINUOUS
 62
             3
100
AcDbCircle
 10
-1684443.0397533809
 20
2502742.4378359048
 40
41.00000003957985
100
AcDbArc
 50
-19.36999270864773
 51
-14.72558546725133
  0
ARC
  5
1B3
100
AcDbEntity
  8
0
  6
CONTINUOUS
 62
             3
100
AcDbCircle
 10
-1684446.6336898529
 20
2502878.1820108341
 40
0.96282311442766
100
AcDbArc
 50
89.46038538551763
 51
-177.78458093017738
  0
ARC
  5
1B2
100
AcDbEntity
  8
0
  6
CONTINUOUS
 62
             3
100
AcDbCircle
 10
-1684439.1127151251
 20
2502878.1888098498
 40
0.95611643085595
100
AcDbArc
 50
-2.63877065406067
 51
90.96296624208962
  0
ARC
  5
1B1
100
AcDbEntity
  8
0
  6
CONTINUOUS
 62
             3
100
AcDbCircle
 10
-1684375.465289731
 20
2502890.9968516468
 40
1.30956272965981
100
AcDbArc
 50
18.8935850902785
 51
53.13936644655021
  0
LINE
  5
1B0
100
AcDbEntity
  8
1
  6
CONTINUOUS
 62
             3
100
AcDbLine
 10
-1684308.821149512
 20
2502775.194609697
 11
-1684265.6766469851
 21
2502775.194609697
  0
LINE
  5
1AF
100
AcDbEntity
  8
1
  6
CONTINUOUS
 62
             2
100
AcDbLine
 10
-1684265.6766469851
 20
2502776.1454128739
 11
-1684259.6766469851
 21
2502776.1454128739
  0
LINE
  5
1AE
100
AcDbEntity
  8
1
  6
CONTINUOUS
 62
             2
100
AcDbLine
 10
-1684265.6766469851
 20
2502776.6078117769
 11
-1684259.6766469851
 21
2502776.6078117769
  0
LINE
  5
1AD
100
AcDbEntity
  8
1
  6
CONTINUOUS
 62
             3
100
AcDbLine
 10
-1684359.676702911
 20
2502775.194609697
 11
-1684310.382335919
 21
2502775.194609697
  0
LINE
  5
1AC
100
AcDbEntity
  8
1
  6
CONTINUOUS
 62
             3
100
AcDbLine
 10
-1684309.0179547679
 20
2502773.3932240079
 11
-1684265.6766469851
 21
2502773.3932240079
  0
LINE
  5
1AB
100
AcDbEntity
  8
1
  6
CONTINUOUS
 62
             3
100
AcDbLine
 10
-1684359.676702911
 20
2502773.3932240079
 11
-1684310.382335919
 21
2502773.3932240079
  0
LINE
  5
1AA
100
AcDbEntity
  8
1
  6
CONTINUOUS
 62
             2
100
AcDbLine
 10
-1684265.6766469851
 20
2502774.366773529
 11
-1684259.6766469851
 21
2502774.366773529
  0
LINE
  5
1A9
100
AcDbEntity
  8
1
  6
CONTINUOUS
 62
             2
100
AcDbLine
 10
-1684265.6766469851
 20
2502773.822998825
 11
-1684259.6766469851
 21
2502773.822998825
  0
LINE
  5
1A8
100
AcDbEntity
  8
1
  6
CONTINUOUS
 62
             2
100
AcDbLine
 10
-1684265.6766469851
 20
2502774.8405087059
 11
-1684259.6766469851
 21
2502774.8405087059
  0
LINE
  5
1A7
100
AcDbEntity
  8
1
  6
CONTINUOUS
 62
             3
100
AcDbLine
 10
-1684309.433213738
 20
2502776.8415085622
 11
-1684265.6766469851
 21
2502776.8415085608
  0
LINE
  5
1A6
100
AcDbEntity
  8
1
  6
CONTINUOUS
 62
             3
100
AcDbLine
 10
-1684311.6888941971
 20
2502779.0415085619
 11
-1684265.6766469851
 21
2502779.0415085629
  0
LINE
  5
1A5
100
AcDbEntity
  8
1
  6
CONTINUOUS
 62
             3
100
AcDbLine
 10
-1684312.9971658529
 20
2502781.0268458859
 11
-1684265.6766469851
 21
2502781.0268458859
  0
LINE
  5
1A4
100
AcDbEntity
  8
1
  6
CONTINUOUS
 62
             3
100
AcDbLine
 10
-1684359.676702911
 20
2502779.0415085629
 11
-1684313.0532753479
 21
2502779.041508561
  0
LINE
  5
1A3
100
AcDbEntity
  8
1
  6
CONTINUOUS
 62
             2
100
AcDbLine
 10
-1684265.6766469851
 20
2502779.8991205329
 11
-1684259.6766469851
 21
2502779.8991205329
  0
LINE
  5
1A2
100
AcDbEntity
  8
1
  6
CONTINUOUS
 62
             2
100
AcDbLine
 10
-1684265.6766469851
 20
2502779.4022330539
 11
-1684259.6766469851
 21
2502779.4022330539
  0
LINE
  5
1A1
100
AcDbEntity
  8
1
  6
CONTINUOUS
 62
             2
100
AcDbLine
 10
-1684265.6766469851
 20
2502778.3650740748
 11
-1684259.6766469851
 21
2502778.3650740748
  0
LINE
  5
1A0
100
AcDbEntity
  8
1
  6
CONTINUOUS
 62
             2
100
AcDbLine
 10
-1684265.6766469851
 20
2502777.2856964949
 11
-1684259.6766469851
 21
2502777.2856964949
  0
LINE
  5
19F
100
AcDbEntity
  8
1
  6
CONTINUOUS
 62
             2
100
AcDbLine
 10
-1684265.6766469851
 20
2502777.8253852972
 11
-1684259.6766469851
 21
2502777.8253852972
  0
LINE
  5
19E
100
AcDbEntity
  8
1
  6
CONTINUOUS
 62
             2
100
AcDbLine
 10
-1684265.6766469851
 20
2502780.4619615711
 11
-1684259.6766469851
 21
2502780.4619615711
  0
LINE
  5
19D
100
AcDbEntity
  8
1
  6
CONTINUOUS
 62
             3
100
AcDbLine
 10
-1684265.6766469851
 20
2502781.0268458859
 11
-1684265.6766469851
 21
2502773.3932240079
  0
LINE
  5
19C
100
AcDbEntity
  8
1
  6
CONTINUOUS
 62
             3
100
AcDbLine
 10
-1684359.676702911
 20
2502781.0268458859
 11
-1684314.3615470021
 21
2502781.0268458859
  0
LINE
  5
19B
100
AcDbEntity
  8
1
  6
CONTINUOUS
 62
             3
100
AcDbLine
 10
-1684359.676702911
 20
2502777.0561712328
 11
-1684310.9535746961
 21
2502777.0561712319
  0
LINE
  5
19A
100
AcDbEntity
  8
1
  6
CONTINUOUS
 62
             2
100
AcDbLine
 10
-1684265.6766469851
 20
2502775.661636936
 11
-1684259.6766469851
 21
2502775.661636936
  0
LINE
  5
199
100
AcDbEntity
  8
1
  6
CONTINUOUS
 62
             3
100
AcDbLine
 10
-1684454.694395947
 20
2502740.35405776
 11
-1684460.8637958129
 21
2502775.3424630612
  0
LINE
  5
198
100
AcDbEntity
  8
1
  6
CONTINUOUS
 62
             3
100
AcDbLine
 10
-1684409.972075745
 20
2502724.4507429912
 11
-1684444.960481043
 21
2502730.6201428552
  0
LINE
  5
197
100
AcDbEntity
  8
1
  6
CONTINUOUS
 62
             3
100
AcDbLine
 10
-1684455.6792036991
 20
2502740.1804095851
 11
-1684456.0616022709
 21
2502742.3490996491
  0
LINE
  5
196
100
AcDbEntity
  8
1
  6
CONTINUOUS
 62
             3
100
AcDbLine
 10
-1684411.937926573
 20
2502723.7819489199
 11
-1684436.639085283
 21
2502728.137429656
  0
LINE
  5
195
100
AcDbEntity
  8
1
  6
CONTINUOUS
 62
             3
100
AcDbLine
 10
-1684467.940218939
 20
2502715.9601063021
 11
-1684465.7815672869
 21
2502718.1187579529
  0
LINE
  5
194
100
AcDbEntity
  8
1
  6
CONTINUOUS
 62
             3
100
AcDbLine
 10
-1684469.3544325009
 20
2502717.374319864
 11
-1684467.1957808491
 21
2502719.5329715181
  0
LINE
  5
193
100
AcDbEntity
  8
1
  6
CONTINUOUS
 62
             3
100
AcDbLine
 10
-1684452.9862364051
 20
2502707.4086004961
 11
-1684452.0596088639
 21
2502710.3173657521
  0
LINE
  5
192
100
AcDbEntity
  8
1
  6
CONTINUOUS
 62
             3
100
AcDbLine
 10
-1684454.8918774889
 20
2502708.0156689091
 11
-1684453.9652499489
 21
2502710.9244341659
  0
LINE
  5
191
100
AcDbEntity
  8
1
  6
CONTINUOUS
 62
             3
100
AcDbLine
 10
-1684435.7753401999
 20
2502706.677234001
 11
-1684436.2876027329
 21
2502709.6867424338
  0
LINE
  5
190
100
AcDbEntity
  8
1
  6
CONTINUOUS
 62
             3
100
AcDbLine
 10
-1684437.7469819139
 20
2502706.3416316258
 11
-1684438.2592444471
 21
2502709.35114006
  0
LINE
  5
18F
100
AcDbEntity
  8
1
  6
CONTINUOUS
 62
             3
100
AcDbLine
 10
-1684420.149795345
 20
2502713.9292815169
 11
-1684421.9865873519
 21
2502716.3676721849
  0
LINE
  5
18E
100
AcDbEntity
  8
1
  6
CONTINUOUS
 62
             3
100
AcDbLine
 10
-1684421.7472764149
 20
2502712.725930267
 11
-1684423.584068421
 21
2502715.1643209308
  0
LINE
  5
18D
100
AcDbEntity
  8
1
  6
CONTINUOUS
 62
             3
100
AcDbLine
 10
-1684477.298869893
 20
2502730.4226613138
 11
-1684474.3901046391
 21
2502731.349288852
  0
LINE
  5
18C
100
AcDbEntity
  8
1
  6
CONTINUOUS
 62
             3
100
AcDbLine
 10
-1684477.9059383071
 20
2502732.3283023979
 11
-1684474.9971730509
 21
2502733.2549299379
  0
LINE
  5
18B
100
AcDbEntity
  8
1
  6
CONTINUOUS
 62
             3
100
AcDbLine
 10
-1684478.9729071769
 20
2502747.5675568902
 11
-1684475.963398746
 21
2502747.0552943582
  0
LINE
  5
18A
100
AcDbEntity
  8
1
  6
CONTINUOUS
 62
             3
100
AcDbLine
 10
-1684478.6373048029
 20
2502749.5391986039
 11
-1684475.6277963689
 21
2502749.0269360719
  0
LINE
  5
189
100
AcDbEntity
  8
1
  6
CONTINUOUS
 62
             3
100
AcDbLine
 10
-1684472.5886085371
 20
2502763.5672623869
 11
-1684470.1502178709
 21
2502761.7304703798
  0
LINE
  5
188
100
AcDbEntity
  8
1
  6
CONTINUOUS
 62
             3
100
AcDbLine
 10
-1684471.3852572839
 20
2502765.1647434579
 11
-1684468.946866621
 21
2502763.3279514499
  0
LINE
  5
187
100
AcDbEntity
  8
1
  6
CONTINUOUS
 62
             3
100
AcDbLine
 10
-1684441.6120164511
 20
2502729.0142915938
 11
-1684444.396636083
 21
2502729.5052951658
  0
LINE
  5
186
100
AcDbEntity
  8
1
  6
CONTINUOUS
 62
             3
100
AcDbLine
 10
-1684456.7620870811
 20
2502746.3217464131
 11
-1684457.3431193519
 21
2502749.6169441799
  0
LINE
  5
185
100
AcDbEntity
  8
1
  6
CONTINUOUS
 62
             3
100
AcDbLine
 10
-1684458.0496684031
 20
2502753.6239829641
 11
-1684458.6330763111
 21
2502756.9326536232
  0
LINE
  5
184
100
AcDbEntity
  8
1
  6
CONTINUOUS
 62
             3
100
AcDbLine
 10
-1684459.3546440231
 20
2502761.0248674718
 11
-1684461.5325898831
 21
2502773.3766122321
  0
LINE
  5
183
100
AcDbEntity
  8
1
  6
CONTINUOUS
 62
             2
100
AcDbLine
 10
-1684410.4477583759
 20
2502725.0423319801
 11
-1684444.8736569539
 21
2502731.112546734
  0
LINE
  5
182
100
AcDbEntity
  8
1
  6
CONTINUOUS
 62
             2
100
AcDbLine
 10
-1684454.201992071
 20
2502740.4408818502
 11
-1684460.272206825
 21
2502774.8667804282
  0
LINE
  5
181
100
AcDbEntity
  8
1
  6
CONTINUOUS
 62
             3
100
AcDbLine
 10
-1684442.815300897
 20
2502669.3839292121
 11
-1684434.1915004819
 21
2502685.8797379709
  0
LINE
  5
180
100
AcDbEntity
  8
1
  6
CONTINUOUS
 62
             3
100
AcDbLine
 10
-1684436.7828245789
 20
2502667.9723093258
 11
-1684427.548393769
 21
2502685.6361463042
  0
LINE
  5
17F
100
AcDbEntity
  8
1
  6
CONTINUOUS
 62
             3
100
AcDbLine
 10
-1684426.4171456229
 20
2502689.9026695681
 11
-1684425.920247141
 21
2502703.4538296219
  0
LINE
  5
17E
100
AcDbEntity
  8
1
  6
CONTINUOUS
 62
             3
100
AcDbLine
 10
-1684433.060252337
 20
2502690.1462612338
 11
-1684432.785300642
 21
2502697.6446025828
  0
LINE
  5
17D
100
AcDbEntity
  8
1
  6
CONTINUOUS
 62
             3
100
AcDbLine
 10
-1684438.1267029119
 20
2502658.207867946
 11
-1684438.1267029119
 21
2502656.8194967359
  0
LINE
  5
17C
100
AcDbEntity
  8
1
  6
CONTINUOUS
 62
             3
100
AcDbLine
 10
-1684447.1659336111
 20
2502666.1878358941
 11
-1684437.323423004
 21
2502666.1878358941
  0
LINE
  5
17B
100
AcDbEntity
  8
0
  6
CONTINUOUS
 62
             3
100
AcDbLine
 10
-1684407.304692361
 20
2502771.6034331848
 11
-1684404.662511654
 21
2502772.8636887381
  0
LINE
  5
17A
100
AcDbEntity
  8
0
  6
CONTINUOUS
 62
             3
100
AcDbLine
 10
-1684369.8767029119
 20
2502775.0095453318
 11
-1684369.8767029119
 21
2502704.1141941999
  0
LINE
  5
179
100
AcDbEntity
  8
0
  6
CONTINUOUS
 62
             3
100
AcDbLine
 10
-1684369.8767029119
 20
2502777.837835894
 11
-1684368.676702911
 21
2502777.837835894
  0
LINE
  5
178
100
AcDbEntity
  8
0
  6
CONTINUOUS
 62
             3
100
AcDbLine
 10
-1684416.844070697
 20
2502777.6628562622
 11
-1684419.6362305209
 21
2502774.870696438
  0
LINE
  5
177
100
AcDbEntity
  8
0
  6
CONTINUOUS
 62
             3
100
AcDbLine
 10
-1684393.8767029119
 20
2502775.337835894
 11
-1684393.8767029119
 21
2502773.837835894
  0
LINE
  5
176
100
AcDbEntity
  8
0
  6
CONTINUOUS
 62
             3
100
AcDbLine
 10
-1684387.8767029119
 20
2502775.337835894
 11
-1684393.8767029119
 21
2502775.337835894
  0
LINE
  5
175
100
AcDbEntity
  8
0
  6
CONTINUOUS
 62
             3
100
AcDbLine
 10
-1684387.8767029119
 20
2502775.337835894
 11
-1684387.8767029119
 21
2502773.837835894
  0
LINE
  5
174
100
AcDbEntity
  8
0
  6
CONTINUOUS
 62
             3
100
AcDbLine
 10
-1684395.9609425149
 20
2502771.3636887381
 11
-1684404.9034001571
 21
2502767.0983552411
  0
LINE
  5
173
100
AcDbEntity
  8
0
  6
CONTINUOUS
 62
             3
100
AcDbLine
 10
-1684368.676702911
 20
2502780.837835894
 11
-1684403.876702911
 21
2502780.837835894
  0
LINE
  5
172
100
AcDbEntity
  8
0
  6
CONTINUOUS
 62
             3
100
AcDbLine
 10
-1684367.6767029101
 20
2502783.6449044612
 11
-1684367.6767029101
 21
2502781.837835894
  0
LINE
  5
171
100
AcDbEntity
  8
0
  6
CONTINUOUS
 62
             3
100
AcDbLine
 10
-1684403.876702911
 20
2502781.337835894
 11
-1684403.876702911
 21
2502780.837835894
  0
LINE
  5
170
100
AcDbEntity
  8
0
  6
CONTINUOUS
 62
             3
100
AcDbLine
 10
-1684369.8767029119
 20
2502772.337835894
 11
-1684391.655831547
 21
2502772.337835894
  0
LINE
  5
16F
100
AcDbEntity
  8
0
  6
CONTINUOUS
 62
             3
100
AcDbLine
 10
-1684387.8767029119
 20
2502773.837835894
 11
-1684369.8767029119
 21
2502773.837835894
  0
LINE
  5
16E
100
AcDbEntity
  8
0
  6
CONTINUOUS
 62
             3
100
AcDbLine
 10
-1684400.3574006839
 20
2502773.837835894
 11
-1684393.8767029119
 21
2502773.837835894
  0
LINE
  5
16D
100
AcDbEntity
  8
0
  6
CONTINUOUS
 62
             3
100
AcDbLine
 10
-1684370.6767029101
 20
2502776.746380832
 11
-1684370.6767029101
 21
2502777.337835894
  0
LINE
  5
169
100
AcDbEntity
  8
0
  6
CONTINUOUS
 62
             3
100
AcDbLine
 10
-1684370.176702911
 20
2502777.837835894
 11
-1684369.8767029119
 21
2502777.837835894
  0
LINE
  5
168
100
AcDbEntity
  8
0
  6
CONTINUOUS
 62
             3
100
AcDbLine
 10
-1684375.7083564079
 20
2502784.337835894
 11
-1684384.4780246289
 21
2502784.337835894
  0
LINE
  5
167
100
AcDbEntity
  8
0
  6
CONTINUOUS
 62
             3
100
AcDbLine
 10
-1684376.6376991069
 20
2502770.337835894
 11
-1684369.8767029119
 21
2502770.337835894
  0
LINE
  5
166
100
AcDbEntity
  8
1
  6
CONTINUOUS
 62
             3
100
AcDbLine
 10
-1684434.5338983431
 20
2502663.6403199108
 11
-1684430.3387772909
 21
2502671.66484637
  0
LINE
  5
165
100
AcDbEntity
  8
1
  6
CONTINUOUS
 62
             3
100
AcDbLine
 10
-1684452.5113290909
 20
2502663.7878206908
 11
-1684448.8398908831
 21
2502670.8106342568
  0
LINE
  5
164
100
AcDbEntity
  8
1
  6
CONTINUOUS
 62
             3
100
AcDbLine
 10
-1684493.2277712571
 20
2502765.5791886658
 11
-1684485.4179312091
 21
2502759.7153948918
  0
LINE
  5
163
100
AcDbEntity
  8
1
  6
CONTINUOUS
 62
             3
100
AcDbLine
 10
-1684497.2191074931
 20
2502760.2632279079
 11
-1684484.5656681971
 21
2502750.7627569512
  0
LINE
  5
162
100
AcDbEntity
  8
1
  6
CONTINUOUS
 62
             3
100
AcDbLine
 10
-1684507.765026395
 20
2502793.3863930418
 11
-1684493.2277712571
 21
2502765.5791886658
  0
LINE
  5
161
100
AcDbEntity
  8
1
  6
CONTINUOUS
 62
             3
100
AcDbLine
 10
-1684507.5018702031
 20
2502779.932338858
 11
-1684497.2191074931
 21
2502760.2632279079
  0
LINE
  5
160
100
AcDbEntity
  8
1
  6
CONTINUOUS
 62
             3
100
AcDbLine
 10
-1684504.750863808
 20
2502791.9377260571
 11
-1684500.9866226451
 21
2502784.737396806
  0
LINE
  5
15F
100
AcDbEntity
  8
1
  6
CONTINUOUS
 62
             3
100
AcDbLine
 10
-1684511.1274615021
 20
2502782.550561104
 11
-1684507.064508985
 21
2502774.7788497368
  0
LINE
  5
15E
100
AcDbEntity
  8
0
  6
CONTINUOUS
 62
             3
100
AcDbLine
 10
-1684518.0767029109
 20
2502701.2307673218
 11
-1684518.0767029109
 21
2502783.6449044612
  0
LINE
  5
15D
100
AcDbEntity
  8
0
  6
CONTINUOUS
 62
             3
100
AcDbLine
 10
-1684515.876702911
 20
2502704.1141941999
 11
-1684515.876702911
 21
2502780.689346069
  0
LINE
  5
15C
100
AcDbEntity
  8
0
  6
CONTINUOUS
 62
             3
100
AcDbLine
 10
-1684367.6767029101
 20
2502776.837835894
 11
-1684367.6767029101
 21
2502701.2307673218
  0
LINE
  5
15B
100
AcDbEntity
  8
1
  6
CONTINUOUS
 62
             3
100
AcDbLine
 10
-1684402.8767029119
 20
2502782.337835894
 11
-1684379.708356407
 21
2502782.337835894
  0
LINE
  5
14E
100
AcDbEntity
  8
0
  6
CONTINUOUS
 62
             3
100
AcDbLine
 10
-1684369.6259577591
 20
2502697.8576739961
 11
-1684376.9669193551
 21
2502702.9029771178
  0
LINE
  5
14D
100
AcDbEntity
  8
0
  6
CONTINUOUS
 62
             3
100
AcDbLine
 10
-1684382.3477786069
 20
2502695.0737783238
 11
-1684375.0068170109
 21
2502690.028475204
  0
LINE
  5
14C
100
AcDbEntity
  8
0
  6
CONTINUOUS
 62
             3
100
AcDbLine
 10
-1684383.7953186959
 20
2502689.6359329689
 11
-1684383.4714568621
 21
2502695.815584851
  0
LINE
  5
14B
100
AcDbEntity
  8
0
  6
CONTINUOUS
 62
             3
100
AcDbLine
 10
-1684383.4714568621
 20
2502695.815584851
 11
-1684383.412477236
 21
2502696.9409831809
  0
LINE
  5
13E
100
AcDbEntity
  8
0
  6
CONTINUOUS
 62
             3
100
AcDbLine
 10
-1684508.786486465
 20
2502702.9029771178
 11
-1684516.127448061
 21
2502697.8576739961
  0
LINE
  5
13D
100
AcDbEntity
  8
0
  6
CONTINUOUS
 62
             3
100
AcDbLine
 10
-1684510.746588811
 20
2502690.028475204
 11
-1684503.4056272139
 21
2502695.0737783238
  0
LINE
  5
13C
100
AcDbEntity
  8
0
  6
CONTINUOUS
 62
             3
100
AcDbLine
 10
-1684502.2819489569
 20
2502695.815584851
 11
-1684501.958087127
 21
2502689.6359329689
  0
LINE
  5
13B
100
AcDbEntity
  8
0
  6
CONTINUOUS
 62
             3
100
AcDbLine
 10
-1684502.340928585
 20
2502696.9409831809
 11
-1684502.2819489569
 21
2502695.815584851
  0
LINE
  5
130
100
AcDbEntity
  8
0
  6
CONTINUOUS
 62
             3
100
AcDbLine
 10
-1684447.626702911
 20
2502828.0561750499
 11
-1684447.626702911
 21
2502826.6678038361
  0
LINE
  5
12F
100
AcDbEntity
  8
0
  6
CONTINUOUS
 62
             3
100
AcDbLine
 10
-1684438.1267029119
 20
2502826.6678038361
 11
-1684438.1267029119
 21
2502828.0561750499
  0
LINE
  5
12E
100
AcDbEntity
  8
0
  6
CONTINUOUS
 62
             3
100
AcDbLine
 10
-1684440.6495971649
 20
2502816.4378358941
 11
-1684445.1038086561
 21
2502816.4378358941
  0
LINE
  5
12D
100
AcDbEntity
  8
0
  6
CONTINUOUS
 62
             3
100
AcDbLine
 10
-1684445.1038086561
 20
2502816.4378358941
 11
-1684449.3767029119
 21
2502816.4378358941
  0
LINE
  5
12C
100
AcDbEntity
  8
0
  6
CONTINUOUS
 62
             3
100
AcDbLine
 10
-1684435.376702911
 20
2502821.3200323209
 11
-1684435.376702911
 21
2502817.4378358931
  0
LINE
  5
12B
100
AcDbEntity
  8
0
  6
CONTINUOUS
 62
             3
100
AcDbLine
 10
-1684436.376702911
 20
2502816.4378358941
 11
-1684440.6495971649
 21
2502816.4378358941
  0
LINE
  5
12A
100
AcDbEntity
  8
0
  6
CONTINUOUS
 62
             3
100
AcDbLine
 10
-1684450.376702911
 20
2502817.4378358931
 11
-1684450.376702911
 21
2502821.3200323209
  0
LINE
  5
129
100
AcDbEntity
  8
1
  6
DOT_CENTER
 62
             1
100
AcDbLine
 10
-1684442.876702911
 20
2502833.4263229179
 11
-1684442.876702911
 21
2502650.7193401088
  0
LINE
  5
128
100
AcDbEntity
  8
1
  6
DOT_CENTER
 62
             1
100
AcDbLine
 10
-1684524.8380459619
 20
2502742.4378358931
 11
-1684361.2414607231
 21
2502742.4378358931
  0
LINE
  5
127
100
AcDbEntity
  8
1
  6
CONTINUOUS
 62
             3
100
AcDbLine
 10
-1684447.626702911
 20
2502656.8194967359
 11
-1684447.626702911
 21
2502658.207867946
  0
LINE
  5
126
100
AcDbEntity
  8
0
  6
CONTINUOUS
 62
             3
100
AcDbLine
 10
-1684173.6945604379
 20
2502656.6878358941
 11
-1684166.894560437
 21
2502656.6878358941
  0
LINE
  5
125
100
AcDbEntity
  8
0
  6
CONTINUOUS
 62
             3
100
AcDbLine
 10
-1684166.894560437
 20
2502828.1878358941
 11
-1684173.6945604379
 21
2502828.1878358941
  0
LINE
  5
124
100
AcDbEntity
  8
0
  6
CONTINUOUS
 62
             3
100
AcDbLine
 10
-1684197.025761279
 20
2502667.2378358939
 11
-1684176.4946003309
 21
2502667.2378358939
  0
LINE
  5
123
100
AcDbEntity
  8
0
  6
CONTINUOUS
 62
             3
100
AcDbLine
 10
-1684176.493689006
 20
2502817.6378358938
 11
-1684197.025761279
 21
2502817.6378358938
  0
LINE
  5
122
100
AcDbEntity
  8
0
  6
CONTINUOUS
 62
             3
100
AcDbLine
 10
-1684216.2945604359
 20
2502656.6878358941
 11
-1684214.494560438
 21
2502656.6878358941
  0
LINE
  5
121
100
AcDbEntity
  8
0
  6
CONTINUOUS
 62
             3
100
AcDbLine
 10
-1684214.494560438
 20
2502828.1878358941
 11
-1684216.2945604359
 21
2502828.1878358941
  0
LINE
  5
120
100
AcDbEntity
  8
0
  6
CONTINUOUS
 62
             3
100
AcDbLine
 10
-1684210.4945604389
 20
2502828.1878358941
 11
-1684214.494560438
 21
2502828.1878358941
  0
LINE
  5
11F
100
AcDbEntity
  8
0
  6
CONTINUOUS
 62
             3
100
AcDbLine
 10
-1684214.494560438
 20
2502656.6878358941
 11
-1684210.4945604389
 21
2502656.6878358941
  0
LINE
  5
11E
100
AcDbEntity
  8
0
  6
CONTINUOUS
 62
             3
100
AcDbLine
 10
-1684193.894560437
 20
2502824.0378358942
 11
-1684193.894560437
 21
2502817.6378358938
  0
LINE
  5
11D
100
AcDbEntity
  8
0
  6
CONTINUOUS
 62
             3
100
AcDbLine
 10
-1684182.6945604379
 20
2502817.6378358938
 11
-1684182.6945604379
 21
2502824.0378358942
  0
LINE
  5
11C
100
AcDbEntity
  8
0
  6
CONTINUOUS
 62
             3
100
AcDbLine
 10
-1684166.1945604379
 20
2502701.2307673218
 11
-1684166.1945604379
 21
2502783.6449044612
  0
LINE
  5
11B
100
AcDbEntity
  8
0
  6
CONTINUOUS
 62
             3
100
AcDbLine
 10
-1684173.6945604379
 20
2502701.2307673218
 11
-1684166.1945604379
 21
2502701.2307673218
  0
LINE
  5
11A
100
AcDbEntity
  8
0
  6
CONTINUOUS
 62
             3
100
AcDbLine
 10
-1684173.6945604379
 20
2502720.9855632852
 11
-1684173.6945604379
 21
2502701.2307673218
  0
LINE
  5
119
100
AcDbEntity
  8
0
  6
CONTINUOUS
 62
             3
100
AcDbLine
 10
-1684173.6945604379
 20
2502783.6449044612
 11
-1684173.6945604379
 21
2502763.8901084992
  0
LINE
  5
118
100
AcDbEntity
  8
0
  6
CONTINUOUS
 62
             3
100
AcDbLine
 10
-1684166.1945604379
 20
2502783.6449044612
 11
-1684173.6945604379
 21
2502783.6449044612
  0
LINE
  5
117
100
AcDbEntity
  8
0
  6
CONTINUOUS
 62
             3
100
AcDbLine
 10
-1684166.1945604379
 20
2502656.8194967359
 11
-1684166.1945604379
 21
2502690.028475204
  0
LINE
  5
116
100
AcDbEntity
  8
0
  6
CONTINUOUS
 62
             3
100
AcDbLine
 10
-1684166.894560437
 20
2502656.8194967359
 11
-1684166.1945604379
 21
2502656.8194967359
  0
LINE
  5
115
100
AcDbEntity
  8
0
  6
CONTINUOUS
 62
             3
100
AcDbLine
 10
-1684166.894560437
 20
2502656.6878358941
 11
-1684166.894560437
 21
2502656.8194967359
  0
LINE
  5
114
100
AcDbEntity
  8
0
  6
CONTINUOUS
 62
             3
100
AcDbLine
 10
-1684173.6945604379
 20
2502656.6878358941
 11
-1684173.6945604379
 21
2502701.2307673218
  0
LINE
  5
113
100
AcDbEntity
  8
0
  6
CONTINUOUS
 62
             3
100
AcDbLine
 10
-1684166.1945604379
 20
2502697.8576739961
 11
-1684166.1945604379
 21
2502701.2307673218
  0
LINE
  5
112
100
AcDbEntity
  8
0
  6
CONTINUOUS
 62
             3
100
AcDbLine
 10
-1684166.894560437
 20
2502697.8576739961
 11
-1684166.1945604379
 21
2502697.8576739961
  0
LINE
  5
111
100
AcDbEntity
  8
0
  6
CONTINUOUS
 62
             3
100
AcDbLine
 10
-1684166.894560437
 20
2502697.8576739961
 11
-1684166.894560437
 21
2502690.028475204
  0
LINE
  5
110
100
AcDbEntity
  8
0
  6
CONTINUOUS
 62
             3
100
AcDbLine
 10
-1684166.1945604379
 20
2502690.028475204
 11
-1684166.894560437
 21
2502690.028475204
  0
LINE
  5
10F
100
AcDbEntity
  8
0
  6
CONTINUOUS
 62
             3
100
AcDbLine
 10
-1684166.1945604379
 20
2502828.0561750499
 11
-1684166.894560437
 21
2502828.0561750499
  0
LINE
  5
10E
100
AcDbEntity
  8
0
  6
CONTINUOUS
 62
             3
100
AcDbLine
 10
-1684173.6945604379
 20
2502783.6449044612
 11
-1684173.6945604379
 21
2502828.1878358941
  0
LINE
  5
10D
100
AcDbEntity
  8
0
  6
CONTINUOUS
 62
             3
100
AcDbLine
 10
-1684166.894560437
 20
2502828.0561750499
 11
-1684166.894560437
 21
2502828.1878358941
  0
LINE
  5
10C
100
AcDbEntity
  8
0
  6
CONTINUOUS
 62
             3
100
AcDbLine
 10
-1684166.1945604379
 20
2502783.6449044612
 11
-1684166.1945604379
 21
2502828.0561750499
  0
LINE
  5
10B
100
AcDbEntity
  8
0
  6
CONTINUOUS
 62
             3
100
AcDbLine
 10
-1684176.6945604379
 20
2502704.4908551369
 11
-1684176.6945604379
 21
2502742.4378358931
  0
LINE
  5
10A
100
AcDbEntity
  8
0
  6
CONTINUOUS
 62
             3
100
AcDbLine
 10
-1684173.6945604379
 20
2502704.4908551369
 11
-1684176.6945604379
 21
2502704.4908551369
  0
LINE
  5
109
100
AcDbEntity
  8
0
  6
CONTINUOUS
 62
             3
100
AcDbLine
 10
-1684176.6945604379
 20
2502742.4378358931
 11
-1684176.6945604379
 21
2502817.4364358801
  0
LINE
  5
106
100
AcDbEntity
  8
0
  6
CONTINUOUS
 62
             3
100
AcDbLine
 10
-1684174.694560437
 20
2502695.4254670618
 11
-1684174.694560437
 21
2502704.4908551369
  0
LINE
  5
105
100
AcDbEntity
  8
0
  6
CONTINUOUS
 62
             3
100
AcDbLine
 10
-1684176.6945604379
 20
2502695.4254670618
 11
-1684174.694560437
 21
2502695.4254670618
  0
LINE
  5
104
100
AcDbEntity
  8
0
  6
CONTINUOUS
 62
             3
100
AcDbLine
 10
-1684176.6945604379
 20
2502667.4383118399
 11
-1684176.6945604379
 21
2502695.4254670618
  0
LINE
  5
103
100
AcDbEntity
  8
0
  6
CONTINUOUS
 62
             3
100
AcDbLine
 10
-1684196.594722823
 20
2502780.837835894
 11
-1684196.594722823
 21
2502817.4364358801
  0
LINE
  5
102
100
AcDbEntity
  8
0
  6
CONTINUOUS
 62
             3
100
AcDbLine
 10
-1684196.594722823
 20
2502667.4392359061
 11
-1684196.594722823
 21
2502699.8440868761
  0
LINE
  5
101
100
AcDbEntity
  8
0
  6
CONTINUOUS
 62
             3
100
AcDbLine
 10
-1684196.594722823
 20
2502699.8440868761
 11
-1684196.594722823
 21
2502742.4378358931
  0
LINE
  5
100
100
AcDbEntity
  8
0
  6
CONTINUOUS
 62
             3
100
AcDbLine
 10
-1684196.594722823
 20
2502742.4378358931
 11
-1684196.594722823
 21
2502774.127135762
  0
LINE
  5
F0
100
AcDbEntity
  8
0
  6
CONTINUOUS
 62
             3
100
AcDbLine
 10
-1684202.3064230189
 20
2502702.3589307019
 11
-1684209.4945604389
 21
2502702.3589307019
  0
LINE
  5
EF
100
AcDbEntity
  8
0
  6
CONTINUOUS
 62
             3
100
AcDbLine
 10
-1684209.4945604389
 20
2502704.7565053729
 11
-1684214.494560438
 21
2502699.504248742
  0
LINE
  5
DE
100
AcDbEntity
  8
0
  6
CONTINUOUS
 62
             3
100
AcDbLine
 10
-1684214.494560438
 20
2502706.0491136648
 11
-1684214.494560438
 21
2502701.2307673218
  0
LINE
  5
DD
100
AcDbEntity
  8
0
  6
CONTINUOUS
 62
             3
100
AcDbLine
 10
-1684216.9945604389
 20
2502701.2307673218
 11
-1684214.494560438
 21
2502701.2307673218
  0
LINE
  5
DC
100
AcDbEntity
  8
0
  6
CONTINUOUS
 62
             3
100
AcDbLine
 10
-1684216.9945604389
 20
2502776.837835894
 11
-1684216.9945604389
 21
2502701.2307673218
  0
LINE
  5
DB
100
AcDbEntity
  8
0
  6
CONTINUOUS
 62
             3
100
AcDbLine
 10
-1684214.494560438
 20
2502783.6449044612
 11
-1684216.9945604389
 21
2502783.6449044612
  0
LINE
  5
DA
100
AcDbEntity
  8
0
  6
CONTINUOUS
 62
             3
100
AcDbLine
 10
-1684214.494560438
 20
2502781.837835894
 11
-1684216.9945604389
 21
2502781.837835894
  0
LINE
  5
D9
100
AcDbEntity
  8
0
  6
CONTINUOUS
 62
             3
100
AcDbLine
 10
-1684216.9945604389
 20
2502783.6449044612
 11
-1684216.9945604389
 21
2502781.837835894
  0
LINE
  5
D8
100
AcDbEntity
  8
0
  6
CONTINUOUS
 62
             3
100
AcDbLine
 10
-1684214.494560438
 20
2502783.6449044612
 11
-1684214.494560438
 21
2502781.837835894
  0
LINE
  5
D7
100
AcDbEntity
  8
0
  6
CONTINUOUS
 62
             3
100
AcDbLine
 10
-1684216.9945604389
 20
2502777.837835894
 11
-1684216.9945604389
 21
2502776.837835894
  0
LINE
  5
D6
100
AcDbEntity
  8
0
  6
CONTINUOUS
 62
             3
100
AcDbLine
 10
-1684214.494560438
 20
2502693.868501076
 11
-1684214.494560438
 21
2502701.2307673218
  0
LINE
  5
D5
100
AcDbEntity
  8
0
  6
CONTINUOUS
 62
             3
100
AcDbLine
 10
-1684214.494560438
 20
2502656.6878358941
 11
-1684214.494560438
 21
2502693.868501076
  0
LINE
  5
D4
100
AcDbEntity
  8
0
  6
CONTINUOUS
 62
             3
100
AcDbLine
 10
-1684216.2945604359
 20
2502656.6878358941
 11
-1684216.2945604359
 21
2502656.8194967359
  0
LINE
  5
D3
100
AcDbEntity
  8
0
  6
CONTINUOUS
 62
             3
100
AcDbLine
 10
-1684216.2945604359
 20
2502656.8194967359
 11
-1684216.9945604389
 21
2502656.8194967359
  0
LINE
  5
D2
100
AcDbEntity
  8
0
  6
CONTINUOUS
 62
             3
100
AcDbLine
 10
-1684216.9945604389
 20
2502656.8194967359
 11
-1684216.9945604389
 21
2502690.028475204
  0
LINE
  5
D1
100
AcDbEntity
  8
0
  6
CONTINUOUS
 62
             3
100
AcDbLine
 10
-1684216.9945604389
 20
2502690.028475204
 11
-1684216.2945604359
 21
2502690.028475204
  0
LINE
  5
D0
100
AcDbEntity
  8
0
  6
CONTINUOUS
 62
             3
100
AcDbLine
 10
-1684216.2945604359
 20
2502690.028475204
 11
-1684216.2945604359
 21
2502697.8576739961
  0
LINE
  5
CF
100
AcDbEntity
  8
0
  6
CONTINUOUS
 62
             3
100
AcDbLine
 10
-1684216.2945604359
 20
2502697.8576739961
 11
-1684216.9945604389
 21
2502697.8576739961
  0
LINE
  5
CE
100
AcDbEntity
  8
0
  6
CONTINUOUS
 62
             3
100
AcDbLine
 10
-1684216.9945604389
 20
2502697.8576739961
 11
-1684216.9945604389
 21
2502701.2307673218
  0
LINE
  5
CD
100
AcDbEntity
  8
0
  6
CONTINUOUS
 62
             3
100
AcDbLine
 10
-1684216.9945604389
 20
2502783.6449044612
 11
-1684216.9945604389
 21
2502828.0561750499
  0
LINE
  5
CC
100
AcDbEntity
  8
0
  6
CONTINUOUS
 62
             3
100
AcDbLine
 10
-1684216.2945604359
 20
2502828.0561750499
 11
-1684216.9945604389
 21
2502828.0561750499
  0
LINE
  5
CB
100
AcDbEntity
  8
0
  6
CONTINUOUS
 62
             3
100
AcDbLine
 10
-1684216.2945604359
 20
2502828.0561750499
 11
-1684216.2945604359
 21
2502828.1878358941
  0
LINE
  5
CA
100
AcDbEntity
  8
0
  6
CONTINUOUS
 62
             3
100
AcDbLine
 10
-1684214.494560438
 20
2502783.6449044612
 11
-1684214.494560438
 21
2502828.1878358941
  0
LINE
  5
C9
100
AcDbEntity
  8
0
  6
CONTINUOUS
 62
             3
100
AcDbLine
 10
-1684214.494825308
 20
2502780.837835894
 11
-1684216.4945604389
 21
2502780.837835894
  0
LINE
  5
C8
100
AcDbEntity
  8
0
  6
CONTINUOUS
 62
             3
100
AcDbLine
 10
-1684216.9945604389
 20
2502781.837835894
 11
-1684216.9945604389
 21
2502781.337835894
  0
LINE
  5
C7
100
AcDbEntity
  8
0
  6
CONTINUOUS
 62
             3
100
AcDbLine
 10
-1684214.494560438
 20
2502780.837835894
 11
-1684214.494560438
 21
2502781.837835894
  0
LINE
  5
C2
100
AcDbEntity
  8
0
  6
CONTINUOUS
 62
             3
100
AcDbLine
 10
-1684209.4945604389
 20
2502823.5627437821
 11
-1684209.4945604389
 21
2502823.4628170938
  0
LINE
  5
C1
100
AcDbEntity
  8
0
  6
CONTINUOUS
 62
             3
100
AcDbLine
 10
-1684196.594722823
 20
2502780.837835894
 11
-1684207.8274264929
 21
2502780.837835894
  0
LINE
  5
C0
100
AcDbEntity
  8
0
  6
CONTINUOUS
 62
             3
100
AcDbLine
 10
-1684209.4945604389
 20
2502704.7565053729
 11
-1684209.4945604389
 21
2502696.362670864
  0
LINE
  5
BF
100
AcDbEntity
  8
0
  6
CONTINUOUS
 62
             3
100
AcDbLine
 10
-1684209.4945604389
 20
2502696.362670864
 11
-1684209.4945604389
 21
2502693.188453028
  0
LINE
  5
BE
100
AcDbEntity
  8
0
  6
CONTINUOUS
 62
             3
100
AcDbLine
 10
-1684214.494560438
 20
2502690.7121227649
 11
-1684209.557779961
 21
2502688.2284038658
  0
LINE
  5
BD
100
AcDbEntity
  8
0
  6
CONTINUOUS
 62
             3
100
AcDbLine
 10
-1684209.557779961
 20
2502688.2284038658
 11
-1684209.4945604389
 21
2502688.2284038658
  0
LINE
  5
BC
100
AcDbEntity
  8
0
  6
CONTINUOUS
 62
             3
100
AcDbLine
 10
-1684209.4945604389
 20
2502693.188453028
 11
-1684209.4945604389
 21
2502688.2284038658
  0
LINE
  5
BB
100
AcDbEntity
  8
0
  6
CONTINUOUS
 62
             3
100
AcDbLine
 10
-1684216.2945604359
 20
2502695.0737783238
 11
-1684216.9945604389
 21
2502695.0737783238
  0
LINE
  5
BA
100
AcDbEntity
  8
0
  6
CONTINUOUS
 62
             3
100
AcDbLine
 10
-1684166.894560437
 20
2502692.808392968
 11
-1684166.1945604379
 21
2502692.4112284649
  0
LINE
  5
B9
100
AcDbEntity
  8
0
  6
CONTINUOUS
 62
             3
100
AcDbLine
 10
-1684166.1945604379
 20
2502692.4112284649
 11
-1684166.1945604379
 21
2502690.028475204
  0
LINE
  5
B8
100
AcDbEntity
  8
0
  6
CONTINUOUS
 62
             3
100
AcDbLine
 10
-1684216.9945604389
 20
2502695.0737783238
 11
-1684216.9945604389
 21
2502690.028475204
  0
LINE
  5
B3
100
AcDbEntity
  8
0
  6
CONTINUOUS
 62
             3
100
AcDbLine
 10
-1684209.4945604389
 20
2502661.412854692
 11
-1684209.4945604389
 21
2502661.312928
  0
LINE
  5
B0
100
AcDbEntity
  8
0
  6
CONTINUOUS
 62
             3
100
AcDbLine
 10
-1684173.6945604379
 20
2502694.6297526532
 11
-1684174.694560437
 21
2502695.4254670618
  0
LINE
  5
AB
100
AcDbEntity
  8
0
  6
CONTINUOUS
 62
             3
100
AcDbLine
 10
-1684216.9945604389
 20
2502777.8179199658
 11
-1684216.9945604389
 21
2502778.3950893101
  0
LINE
  5
AA
100
AcDbEntity
  8
0
  6
CONTINUOUS
 62
             3
100
AcDbLine
 10
-1684216.9945604389
 20
2502778.3950893101
 11
-1684216.9945604389
 21
2502781.31920359
  0
LINE
  5
A9
100
AcDbEntity
  8
0
  6
CONTINUOUS
 62
             3
100
AcDbLine
 10
-1684216.9945604389
 20
2502695.0737783238
 11
-1684216.9945604389
 21
2502697.8576739961
  0
LINE
  5
A8
100
AcDbEntity
  8
0
  6
CONTINUOUS
 62
             3
100
AcDbLine
 10
-1684209.4945604389
 20
2502661.312928
 11
-1684209.4945604389
 21
2502657.6878358931
  0
LINE
  5
A7
100
AcDbEntity
  8
0
  6
CONTINUOUS
 62
             3
100
AcDbLine
 10
-1684209.4945604389
 20
2502827.1878358931
 11
-1684209.4945604389
 21
2502823.5627437821
  0
LINE
  5
A4
100
AcDbEntity
  8
0
  6
CONTINUOUS
 62
             3
100
AcDbLine
 10
-1684193.894560437
 20
2502824.0378358942
 11
-1684182.6945604379
 21
2502824.0378358942
  0
LINE
  5
A3
100
AcDbEntity
  8
0
  6
CONTINUOUS
 62
             3
100
AcDbLine
 10
-1684204.4258850911
 20
2502774.127135762
 11
-1684196.594722823
 21
2502774.127135762
  0
LINE
  5
A2
100
AcDbEntity
  8
0
  6
CONTINUOUS
 62
             3
100
AcDbLine
 10
-1684216.4945604389
 20
2502697.8576739961
 11
-1684216.4945604389
 21
2502695.0737783238
  0
LINE
  5
A1
100
AcDbEntity
  8
1
  6
DOT_CENTER
 62
             1
100
AcDbLine
 10
-1684221.550424631
 20
2502742.4378358931
 11
-1684160.5133411069
 21
2502742.4378358931
  0
LINE
  5
A0
100
AcDbEntity
  8
1
  6
CONTINUOUS
 62
             3
100
AcDbLine
 10
-1684210.276949412
 20
2502788.4976141141
 11
-1684205.0343763269
 21
2502784.8267249232
  0
LINE
  5
9F
100
AcDbEntity
  8
1
  6
CONTINUOUS
 62
             3
100
AcDbLine
 10
-1684208.0204711091
 20
2502791.7201991039
 11
-1684210.276949412
 21
2502788.4976141141
  0
LINE
  5
9E
100
AcDbEntity
  8
1
  6
CONTINUOUS
 62
             3
100
AcDbLine
 10
-1684210.276949412
 20
2502788.4976141141
 11
-1684213.4432352509
 21
2502783.9756893022
  0
LINE
  5
9D
100
AcDbEntity
  8
1
  6
CONTINUOUS
 62
             3
100
AcDbLine
 10
-1684205.0343763269
 20
2502784.8267249232
 11
-1684209.3308791211
 21
2502778.6906830198
  0
LINE
  5
9C
100
AcDbEntity
  8
1
  6
CONTINUOUS
 62
             3
100
AcDbLine
 10
-1684200.3987780691
 20
2502791.4470453318
 11
-1684205.0343763269
 21
2502784.8267249232
  0
LINE
  5
9B
100
AcDbEntity
  8
1
  6
CONTINUOUS
 62
             3
100
AcDbLine
 10
-1684203.7821261929
 20
2502792.194153199
 11
-1684207.6556628691
 21
2502786.662169517
  0
LINE
  5
9A
100
AcDbEntity
  8
1
  6
CONTINUOUS
 62
             3
100
AcDbLine
 10
-1684216.9945604389
 20
2502777.837835894
 11
-1684208.7418818451
 21
2502777.837835894
  0
LINE
  5
99
100
AcDbEntity
  8
1
  6
CONTINUOUS
 62
             3
100
AcDbLine
 10
-1684367.810677507
 20
2502781.337835894
 11
-1684359.676702911
 21
2502781.337835894
  0
LINE
  5
98
100
AcDbEntity
  8
1
  6
CONTINUOUS
 62
             3
100
AcDbLine
 10
-1684359.676702911
 20
2502781.337835894
 11
-1684359.676702911
 21
2502773.337835894
  0
LINE
  5
97
100
AcDbEntity
  8
1
  6
CONTINUOUS
 62
             3
100
AcDbLine
 10
-1684359.676702911
 20
2502773.337835894
 11
-1684367.6767029101
 21
2502773.337835894
  0
LINE
  5
96
100
AcDbEntity
  8
1
  6
CONTINUOUS
 62
             3
100
AcDbLine
 10
-1684420.9814565431
 20
2502775.7408174528
 11
-1684420.8744955501
 21
2502776.9298834838
  0
LINE
  5
95
100
AcDbEntity
  8
1
  6
CONTINUOUS
 62
             3
100
AcDbLine
 10
-1684466.3390187121
 20
2502776.1742292009
 11
-1684465.0088777449
 21
2502778.8192538559
  0
LINE
  5
94
100
AcDbEntity
  8
1
  6
CONTINUOUS
 62
             3
100
AcDbLine
 10
-1684444.020006154
 20
2502701.4495558059
 11
-1684446.6508192869
 21
2502700.0915231509
  0
LINE
  5
93
100
AcDbEntity
  8
1
  6
CONTINUOUS
 62
             3
100
AcDbLine
 10
-1684404.360497253
 20
2502728.8394849519
 11
-1684403.8272725099
 21
2502725.5843092948
  0
LINE
  5
92
100
AcDbEntity
  8
1
  6
CONTINUOUS
 62
             3
100
AcDbLine
 10
-1684467.8963823889
 20
2502773.707710071
 11
-1684468.994198621
 21
2502774.1768776299
  0
LINE
  5
91
100
AcDbEntity
  8
1
  6
CONTINUOUS
 62
             3
100
AcDbLine
 10
-1684480.4602917421
 20
2502728.4606993999
 11
-1684481.245740477
 21
2502727.5615948662
  0
LINE
  5
90
100
AcDbEntity
  8
1
  6
CONTINUOUS
 62
             3
100
AcDbLine
 10
-1684441.3102889049
 20
2502702.5296162982
 11
-1684440.6979066869
 21
2502701.5047715781
  0
LINE
  5
8F
100
AcDbEntity
  8
1
  6
CONTINUOUS
 62
             3
100
AcDbLine
 10
-1684404.550347138
 20
2502731.7503362489
 11
-1684403.386425379
 21
2502732.016051909
  0
LINE
  5
8E
100
AcDbEntity
  8
1
  6
CONTINUOUS
 62
             3
100
AcDbLine
 10
-1684482.006012406
 20
2502729.685163442
 11
-1684482.285323269
 21
2502730.5777563299
  0
LINE
  5
8D
100
AcDbEntity
  8
1
  6
CONTINUOUS
 62
             3
100
AcDbLine
 10
-1684442.9524773669
 20
2502701.4379287828
 11
-1684444.020006154
 21
2502701.4495558059
  0
LINE
  5
8C
100
AcDbEntity
  8
1
  6
CONTINUOUS
 62
             3
100
AcDbLine
 10
-1684482.285323269
 20
2502730.5777563299
 11
-1684484.4750663149
 21
2502732.7444681739
  0
LINE
  5
8B
100
AcDbEntity
  8
1
  6
DOTTED
 62
             2
100
AcDbLine
 10
-1684216.9945604389
 20
2502659.1878358931
 11
-1684209.4945604389
 21
2502659.1878358931
  0
LINE
  5
8A
100
AcDbEntity
  8
1
  6
DOTTED
 62
             2
100
AcDbLine
 10
-1684216.9945604389
 20
2502663.6878358931
 11
-1684204.6246651751
 21
2502663.6878358931
  0
LINE
  5
89
100
AcDbEntity
  8
1
  6
DOTTED
 62
             2
100
AcDbLine
 10
-1684173.6945604379
 20
2502663.6878358931
 11
-1684166.1945604379
 21
2502663.6878358931
  0
LINE
  5
88
100
AcDbEntity
  8
1
  6
DOTTED
 62
             2
100
AcDbLine
 10
-1684173.6945604379
 20
2502698.808930702
 11
-1684166.1945604379
 21
2502698.808930702
  0
LINE
  5
87
100
AcDbEntity
  8
1
  6
DOTTED
 62
             2
100
AcDbLine
 10
-1684166.894560437
 20
2502694.308930702
 11
-1684173.6945604379
 21
2502694.308930702
  0
LINE
  5
86
100
AcDbEntity
  8
1
  6
DOTTED
 62
             2
100
AcDbLine
 10
-1684216.9945604389
 20
2502698.808930702
 11
-1684209.4945604389
 21
2502698.808930702
  0
LINE
  5
85
100
AcDbEntity
  8
1
  6
DOTTED
 62
             2
100
AcDbLine
 10
-1684216.9945604389
 20
2502825.6878358931
 11
-1684209.4945604389
 21
2502825.6878358931
  0
LINE
  5
84
100
AcDbEntity
  8
1
  6
DOTTED
 62
             2
100
AcDbLine
 10
-1684216.9945604389
 20
2502821.1878358931
 11
-1684204.6246651751
 21
2502821.1878358931
  0
LINE
  5
83
100
AcDbEntity
  8
1
  6
DOTTED
 62
             2
100
AcDbLine
 10
-1684173.6945604379
 20
2502825.6878358931
 11
-1684166.1945604379
 21
2502825.6878358931
  0
LINE
  5
82
100
AcDbEntity
  8
1
  6
DOTTED
 62
             2
100
AcDbLine
 10
-1684173.6945604379
 20
2502821.1878358931
 11
-1684166.1945604379
 21
2502821.1878358931
  0
LINE
  5
81
100
AcDbEntity
  8
1
  6
DOT_CENTER
 62
             1
100
AcDbLine
 10
-1684177.083146503
 20
2502823.4378358931
 11
-1684162.9230889899
 21
2502823.4378358931
  0
LINE
  5
80
100
AcDbEntity
  8
1
  6
DOT_CENTER
 62
             1
100
AcDbLine
 10
-1684220.1955719809
 20
2502823.4378358931
 11
-1684205.2219426951
 21
2502823.4378358931
  0
LINE
  5
7F
100
AcDbEntity
  8
1
  6
DOT_CENTER
 62
             1
100
AcDbLine
 10
-1684177.083146503
 20
2502696.558930702
 11
-1684162.9230889899
 21
2502696.558930702
  0
LINE
  5
7E
100
AcDbEntity
  8
1
  6
DOT_CENTER
 62
             1
100
AcDbLine
 10
-1684177.083146503
 20
2502661.4378358931
 11
-1684162.9230889899
 21
2502661.4378358931
  0
LINE
  5
7D
100
AcDbEntity
  8
1
  6
DOT_CENTER
 62
             1
100
AcDbLine
 10
-1684220.1955719809
 20
2502696.558930702
 11
-1684205.2219426951
 21
2502696.558930702
  0
LINE
  5
7C
100
AcDbEntity
  8
1
  6
DOT_CENTER
 62
             1
100
AcDbLine
 10
-1684220.1955719809
 20
2502661.4378358931
 11
-1684205.2219426951
 21
2502661.4378358931
  0
LINE
  5
7B
100
AcDbEntity
  8
1
  6
DOTTED
 62
             2
100
AcDbLine
 10
-1684166.1945604379
 20
2502659.1878358931
 11
-1684173.6945604379
 21
2502659.1878358931
  0
LINE
  5
7A
100
AcDbEntity
  8
1
  6
DOTTED
 62
             2
100
AcDbLine
 10
-1684216.2945604359
 20
2502694.308930702
 11
-1684209.4945604389
 21
2502694.308930702
  0
LINE
  5
79
100
AcDbEntity
  8
1
  6
DOT_CENTER
 62
            40
100
AcDbLine
 10
-1684515.692191557
 20
2502692.3931370559
 11
-1684442.876702911
 21
2502742.4378358931
  0
LINE
  5
78
100
AcDbEntity
  8
1
  6
DOT_CENTER
 62
            40
100
AcDbLine
 10
-1684442.876702911
 20
2502742.4378358931
 11
-1684370.0612142631
 21
2502692.3931370559
  0
LINE
  5
77
100
AcDbEntity
  8
1
  6
DOT_CENTER
 62
             1
100
AcDbLine
 10
-1684188.2945604371
 20
2502827.73918295
 11
-1684188.2945604371
 21
2502811.61367465
  0
LINE
  5
76
100
AcDbEntity
  8
0
  6
CONTINUOUS
 62
             3
100
AcDbLine
 10
-1684367.6767029101
 20
2502892.0446288618
 11
-1684367.6767029101
 21
2502911.9447912462
  0
LINE
  5
75
100
AcDbEntity
  8
0
  6
CONTINUOUS
 62
             3
100
AcDbLine
 10
-1684518.0767029109
 20
2502911.9447912462
 11
-1684518.0767029109
 21
2502892.0446288618
  0
LINE
  5
74
100
AcDbEntity
  8
0
  6
CONTINUOUS
 62
             3
100
AcDbLine
 10
-1684438.1267029119
 20
2502922.4447912462
 11
-1684438.1267029119
 21
2502921.744791247
  0
LINE
  5
73
100
AcDbEntity
  8
0
  6
CONTINUOUS
 62
             3
100
AcDbLine
 10
-1684367.6767029101
 20
2502922.4447912462
 11
-1684438.1267029119
 21
2502922.4447912462
  0
LINE
  5
72
100
AcDbEntity
  8
0
  6
CONTINUOUS
 62
             3
100
AcDbLine
 10
-1684367.6767029101
 20
2502922.4447912462
 11
-1684367.6767029101
 21
2502914.9447912462
  0
LINE
  5
71
100
AcDbEntity
  8
0
  6
CONTINUOUS
 62
             3
100
AcDbLine
 10
-1684367.6767029101
 20
2502914.9447912462
 11
-1684518.0767029109
 21
2502914.9447912462
  0
LINE
  5
70
100
AcDbEntity
  8
0
  6
CONTINUOUS
 62
             3
100
AcDbLine
 10
-1684518.0767029109
 20
2502914.9447912462
 11
-1684518.0767029109
 21
2502922.4447912462
  0
LINE
  5
6F
100
AcDbEntity
  8
0
  6
CONTINUOUS
 62
             3
100
AcDbLine
 10
-1684447.626702911
 20
2502922.4447912462
 11
-1684518.0767029109
 21
2502922.4447912462
  0
LINE
  5
6E
100
AcDbEntity
  8
0
  6
CONTINUOUS
 62
             3
100
AcDbLine
 10
-1684447.626702911
 20
2502921.744791247
 11
-1684447.626702911
 21
2502922.4447912462
  0
LINE
  5
6D
100
AcDbEntity
  8
0
  6
CONTINUOUS
 62
             3
100
AcDbLine
 10
-1684438.1267029119
 20
2502921.744791247
 11
-1684447.626702911
 21
2502921.744791247
  0
LINE
  5
6C
100
AcDbEntity
  8
0
  6
CONTINUOUS
 62
             3
100
AcDbLine
 10
-1684438.157612517
 20
2502878.1447912478
 11
-1684447.595793305
 21
2502878.1447912478
  0
LINE
  5
6B
100
AcDbEntity
  8
0
  6
CONTINUOUS
 62
             3
100
AcDbLine
 10
-1684446.6246220691
 20
2502879.1447912478
 11
-1684439.128783752
 21
2502879.1447912478
  0
LINE
  5
66
100
AcDbEntity
  8
0
  6
CONTINUOUS
 62
             3
100
AcDbLine
 10
-1684367.6767029101
 20
2502871.6447912478
 11
-1684438.1267029119
 21
2502871.6447912478
  0
LINE
  5
65
100
AcDbEntity
  8
0
  6
CONTINUOUS
 62
             3
100
AcDbLine
 10
-1684438.1267029119
 20
2502872.3447912461
 11
-1684438.1267029119
 21
2502871.6447912478
  0
LINE
  5
64
100
AcDbEntity
  8
0
  6
CONTINUOUS
 62
             3
100
AcDbLine
 10
-1684438.1267029119
 20
2502872.3447912461
 11
-1684447.626702911
 21
2502872.3447912461
  0
LINE
  5
63
100
AcDbEntity
  8
0
  6
CONTINUOUS
 62
             3
100
AcDbLine
 10
-1684447.626702911
 20
2502872.3447912461
 11
-1684447.626702911
 21
2502871.6447912478
  0
LINE
  5
62
100
AcDbEntity
  8
0
  6
CONTINUOUS
 62
             3
100
AcDbLine
 10
-1684447.626702911
 20
2502871.6447912478
 11
-1684518.0767029109
 21
2502871.6447912478
  0
LINE
  5
61
100
AcDbEntity
  8
0
  6
CONTINUOUS
 62
             3
100
AcDbLine
 10
-1684518.0767029109
 20
2502871.6447912478
 11
-1684518.0767029109
 21
2502874.1447912478
  0
LINE
  5
60
100
AcDbEntity
  8
0
  6
CONTINUOUS
 62
             3
100
AcDbLine
 10
-1684442.876702911
 20
2502874.1447912478
 11
-1684518.0767029109
 21
2502874.1447912478
  0
LINE
  5
5F
100
AcDbEntity
  8
0
  6
CONTINUOUS
 62
             3
100
AcDbLine
 10
-1684367.6767029101
 20
2502874.1447912478
 11
-1684442.876702911
 21
2502874.1447912478
  0
LINE
  5
5E
100
AcDbEntity
  8
0
  6
CONTINUOUS
 62
             3
100
AcDbLine
 10
-1684518.0767029109
 20
2502892.0446288618
 11
-1684518.0767029109
 21
2502874.1447912478
  0
LINE
  5
5D
100
AcDbEntity
  8
0
  6
CONTINUOUS
 62
             3
100
AcDbLine
 10
-1684448.376702911
 20
2502892.0446288618
 11
-1684518.0767029109
 21
2502892.0446288618
  0
LINE
  5
5C
100
AcDbEntity
  8
0
  6
CONTINUOUS
 62
             3
100
AcDbLine
 10
-1684448.376702911
 20
2502879.1447912478
 11
-1684448.376702911
 21
2502892.0446288618
  0
LINE
  5
5B
100
AcDbEntity
  8
0
  6
CONTINUOUS
 62
             3
100
AcDbLine
 10
-1684448.376702911
 20
2502879.1447912478
 11
-1684446.6246220691
 21
2502879.1447912478
  0
LINE
  5
5A
100
AcDbEntity
  8
0
  6
CONTINUOUS
 62
             3
100
AcDbLine
 10
-1684437.3767029119
 20
2502892.0446288618
 11
-1684437.3767029119
 21
2502879.1447912478
  0
LINE
  5
59
100
AcDbEntity
  8
0
  6
CONTINUOUS
 62
             3
100
AcDbLine
 10
-1684378.2200713879
 20
2502892.0446288618
 11
-1684437.3767029119
 21
2502892.0446288618
  0
LINE
  5
56
100
AcDbEntity
  8
0
  6
CONTINUOUS
 62
             3
100
AcDbLine
 10
-1684439.128783752
 20
2502879.1447912478
 11
-1684437.3767029119
 21
2502879.1447912478
  0
LINE
  5
55
100
AcDbEntity
  8
0
  6
CONTINUOUS
 62
             3
100
AcDbLine
 10
-1684448.3640876969
 20
2502911.9447912462
 11
-1684518.0767029109
 21
2502911.9447912462
  0
LINE
  5
54
100
AcDbEntity
  8
0
  6
CONTINUOUS
 62
             3
100
AcDbLine
 10
-1684518.0767029109
 20
2502911.9447912462
 11
-1684518.0767029109
 21
2502914.9447912462
  0
LINE
  5
53
100
AcDbEntity
  8
0
  6
CONTINUOUS
 62
             3
100
AcDbLine
 10
-1684448.3640876969
 20
2502914.9447912462
 11
-1684448.3640876969
 21
2502911.9447912462
  0
LINE
  5
52
100
AcDbEntity
  8
0
  6
CONTINUOUS
 62
             3
100
AcDbLine
 10
-1684367.6767029101
 20
2502914.9447912462
 11
-1684367.6767029101
 21
2502911.9447912462
  0
LINE
  5
51
100
AcDbEntity
  8
0
  6
CONTINUOUS
 62
             3
100
AcDbLine
 10
-1684367.6767029101
 20
2502911.9447912462
 11
-1684437.3767029119
 21
2502911.9447912462
  0
LINE
  5
50
100
AcDbEntity
  8
0
  6
CONTINUOUS
 62
             3
100
AcDbLine
 10
-1684437.3767029119
 20
2502911.9447912462
 11
-1684437.3767029119
 21
2502914.9447912462
  0
LINE
  5
4F
100
AcDbEntity
  8
0
  6
CONTINUOUS
 62
             3
100
AcDbLine
 10
-1684437.3767029119
 20
2502913.9447912471
 11
-1684448.3640876969
 21
2502913.9447912471
  0
LINE
  5
4E
100
AcDbEntity
  8
0
  6
CONTINUOUS
 62
             3
100
AcDbLine
 10
-1684367.6767029101
 20
2502892.0446288618
 11
-1684374.679721497
 21
2502892.0446288618
  0
LINE
  5
4D
100
AcDbEntity
  8
0
  6
CONTINUOUS
 62
             3
100
AcDbLine
 10
-1684438.362189437
 20
2502871.6447912478
 11
-1684447.626702911
 21
2502871.6447912478
  0
LINE
  5
4A
100
AcDbEntity
  8
0
  6
CONTINUOUS
 62
             3
100
AcDbLine
 10
-1684447.617894795
 20
2502921.744791247
 11
-1684447.0141876829
 21
2502921.744791247
  0
LINE
  5
49
100
AcDbEntity
  8
0
  6
CONTINUOUS
 62
             3
100
AcDbLine
 10
-1684374.679721497
 20
2502885.4311069241
 11
-1684374.679721497
 21
2502892.0446288618
  0
LINE
  5
48
100
AcDbEntity
  8
0
  6
CONTINUOUS
 62
             3
100
AcDbLine
 10
-1684374.2262841209
 20
2502891.4209031072
 11
-1684374.2262841209
 21
2502884.5776181319
  0
LINE
  5
47
100
AcDbEntity
  8
1
  6
CONTINUOUS
 62
             3
100
AcDbLine
 10
-1684463.298241941
 20
2502911.4447912471
 11
-1684460.45516388
 21
2502911.4447912471
  0
LINE
  5
46
100
AcDbEntity
  8
1
  6
CONTINUOUS
 62
             3
100
AcDbLine
 10
-1684464.3374724269
 20
2502909.6447912478
 11
-1684459.415933395
 21
2502909.6447912478
  0
LINE
  5
45
100
AcDbEntity
  8
1
  6
CONTINUOUS
 62
             3
100
AcDbLine
 10
-1684465.376702911
 20
2502907.8447912452
 11
-1684458.3767029119
 21
2502907.8447912452
  0
LINE
  5
44
100
AcDbEntity
  8
1
  6
CONTINUOUS
 62
             3
100
AcDbLine
 10
-1684461.876702911
 20
2502905.9447912462
 11
-1684461.876702911
 21
2502907.8447912452
  0
LINE
  5
43
100
AcDbEntity
  8
1
  6
DOT_CENTER
 62
             1
100
AcDbLine
 10
-1684442.876702911
 20
2502926.244772254
 11
-1684442.876702911
 21
2502868.1514505371
  0
LINE
  5
42
100
AcDbEntity
  8
1
  6
CONTINUOUS
 62
             3
100
AcDbLine
 10
-1684367.3891779489
 20
2502876.060853532
 11
-1684361.3578719001
 21
2502883.248684186
  0
LINE
  5
41
100
AcDbEntity
  8
1
  6
CONTINUOUS
 62
             3
100
AcDbLine
 10
-1684365.9541385579
 20
2502887.1054098429
 11
-1684361.3578719001
 21
2502883.248684186
  0
LINE
  5
40
100
AcDbEntity
  8
1
  6
CONTINUOUS
 62
             3
100
AcDbLine
 10
-1684361.5110807871
 20
2502883.377241706
 11
-1684354.687054809
 21
2502891.5097991819
  0
LINE
  5
3F
100
AcDbEntity
  8
1
  6
CONTINUOUS
 62
             3
100
AcDbLine
 10
-1684363.6560052261
 20
2502885.1770470161
 11
-1684357.870419581
 21
2502892.0720394938
  0
LINE
  5
3E
100
AcDbEntity
  8
1
  6
CONTINUOUS
 62
             3
100
AcDbLine
 10
-1684365.8009296691
 20
2502886.9768523229
 11
-1684361.2076890841
 21
2502892.4508632859
  0
LINE
  5
3D
100
AcDbEntity
  8
0
  6
CONTINUOUS
 62
             3
100
AcDbLine
 10
-1684367.6767029101
 20
2502885.0525375861
 11
-1684367.6767029101
 21
2502892.0446288618
  0
LINE
  5
3C
100
AcDbEntity
  8
1
  6
CONTINUOUS
 62
             3
100
AcDbLine
 10
-1684367.6767029101
 20
2502875.6781134009
 11
-1684367.6767029101
 21
2502871.6447912478
  0
LINE
  5
3B
100
AcDbEntity
  8
1
  6
CONTINUOUS
 62
             3
100
AcDbLine
 10
-1684371.8415977729
 20
2502880.0890091709
 11
-1684365.9541385579
 21
2502887.1054098429
  0
LINE
  5
3A
100
AcDbEntity
  8
0
  6
CONTINUOUS
 62
             3
100
AcDbLine
 10
-1684370.6767029101
 20
2502881.47727681
 11
-1684370.6767029101
 21
2502884.4643887989
  0
LINE
  5
39
100
AcDbEntity
  8
1
  6
DOTTED
 62
             2
100
AcDbLine
 10
-1684511.880924189
 20
2502922.4447912462
 11
-1684511.880924189
 21
2502914.9447912462
  0
LINE
  5
38
100
AcDbEntity
  8
1
  6
DOTTED
 62
             2
100
AcDbLine
 10
-1684511.880924189
 20
2502874.1447912478
 11
-1684511.880924189
 21
2502871.6447912478
  0
LINE
  5
37
100
AcDbEntity
  8
1
  6
DOT_CENTER
 62
             1
100
AcDbLine
 10
-1684509.630924189
 20
2502924.2723102658
 11
-1684509.630924189
 21
2502913.2792731021
  0
LINE
  5
36
100
AcDbEntity
  8
1
  6
DOT_CENTER
 62
             1
100
AcDbLine
 10
-1684509.630924189
 20
2502875.6259568259
 11
-1684509.630924189
 21
2502869.999599224
  0
LINE
  5
35
100
AcDbEntity
  8
1
  6
DOTTED
 62
             2
100
AcDbLine
 10
-1684507.380924189
 20
2502922.4447912462
 11
-1684507.380924189
 21
2502914.9447912462
  0
LINE
  5
34
100
AcDbEntity
  8
1
  6
DOTTED
 62
             2
100
AcDbLine
 10
-1684378.3724816339
 20
2502922.4447912462
 11
-1684378.3724816339
 21
2502914.9447912462
  0
LINE
  5
33
100
AcDbEntity
  8
1
  6
DOTTED
 62
             2
100
AcDbLine
 10
-1684373.8724816339
 20
2502922.4447912462
 11
-1684373.8724816339
 21
2502914.9447912462
  0
LINE
  5
32
100
AcDbEntity
  8
1
  6
DOTTED
 62
             2
100
AcDbLine
 10
-1684507.380924189
 20
2502874.1447912478
 11
-1684507.380924189
 21
2502871.6447912478
  0
LINE
  5
31
100
AcDbEntity
  8
1
  6
DOT_CENTER
 62
             1
100
AcDbLine
 10
-1684376.1224816339
 20
2502913.2792731021
 11
-1684376.1224816339
 21
2502924.2723102658
  0
LINE
  5
30
100
AcDbEntity
  8
1
  6
DOTTED
 62
             2
100
AcDbLine
 10
-1684373.8724816339
 20
2502871.6447912478
 11
-1684373.8724816339
 21
2502874.1447912478
  0
LINE
  5
2F
100
AcDbEntity
  8
1
  6
DOT_CENTER
 62
             1
100
AcDbLine
 10
-1684376.1224816339
 20
2502869.999599224
 11
-1684376.1224816339
 21
2502875.6259568259
  0
LINE
  5
2E
100
AcDbEntity
  8
1
  6
DOTTED
 62
             2
100
AcDbLine
 10
-1684378.3724816339
 20
2502871.6447912478
 11
-1684378.3724816339
 21
2502874.1447912478
  0
LINE
  5
2D
100
AcDbEntity
  8
1
  6
DOTTED
 62
             2
100
AcDbLine
 10
-1684445.126702911
 20
2502879.1447912478
 11
-1684445.126702911
 21
2502871.6447912478
  0
LINE
  5
2C
100
AcDbEntity
  8
1
  6
DOTTED
 62
             2
100
AcDbLine
 10
-1684440.626702911
 20
2502879.1447912478
 11
-1684440.626702911
 21
2502871.6447912478
  0
LINE
  5
2B
100
AcDbEntity
  8
1
  6
DOTTED
 62
             2
100
AcDbLine
 10
-1684445.126702911
 20
2502921.744791247
 11
-1684445.126702911
 21
2502914.9447912462
  0
LINE
  5
2A
100
AcDbEntity
  8
1
  6
DOTTED
 62
             2
100
AcDbLine
 10
-1684440.626702911
 20
2502921.744791247
 11
-1684440.626702911
 21
2502914.9447912462
  0
LINE
  5
29
100
AcDbEntity
  8
1
  6
DOT_CENTER
 62
             1
100
AcDbLine
 10
-1684469.0017717991
 20
2502900.3447912452
 11
-1684454.5565902451
 21
2502900.3447912452
  0
LINE
  5
28
100
AcDbEntity
  8
1
  6
DOT_CENTER
 62
             1
100
AcDbLine
 10
-1684461.876702911
 20
2502913.579136746
 11
-1684461.876702911
 21
2502892.9609960699
  0
INSERT
  5
2EA
100
AcDbEntity
  8
0
100
AcDbBlockReference
  2
*D6
 10
0.0
 20
0.0
  0
INSERT
  5
2F3
100
AcDbEntity
  8
0
100
AcDbBlockReference
  2
*D7
 10
0.0
 20
0.0
  0
ENDSEC
  0
SECTION
  2
OBJECTS
  0
DICTIONARY
  5
19
100
AcDbDictionary
  3
ACAD_GROUP
350
1A
  3
ACAD_MLINESTYLE
350
1B
  0
DICTIONARY
  5
1A
102
{ACAD_REACTORS
330
19
102
}
100
AcDbDictionary
  0
DICTIONARY
  5
1B
102
{ACAD_REACTORS
330
19
102
}
100
AcDbDictionary
  3
STANDARD
350
1C
  0
MLINESTYLE
  5
1C
102
{ACAD_REACTORS
330
1B
102
}
100
AcDbMlineStyle
  2
STANDARD
 70
             0
  3

 62
             0
 51
90.0
 52
90.0
 71
             2
 49
0.5
 62
           256
  6
BYLAYER
 49
-0.5
 62
           256
  6
BYLAYER
  0
ENDSEC
  0
EOF
