  0
SECTION
  2
HEADER
  9
$ACADVER
  1
AC1009
  9
$INSBASE
 10
0
 20
0
  9
$EXTMIN
 10
2648.870003308897
 20
-1124.518822587543
  9
$EXTMAX
 10
2899.55457557201
 20
-940.2875102269103
  9
$LIMMIN
 10
2648.870003308897
 20
-1124.518822587543
  9
$LIMMAX
 10
2899.55457557201
 20
-940.2875102269103
  9
$VIEWCTR
 10
10
 20
10
  9
$VIEWSIZE
 40
10
  9
$SNAPMODE
 70
0
  9
$SNAPUNIT
 10
1
 20
1
  9
$SNAPBASE
 10
0
 20
0
  9
$SNAPANG
 50
0
  9
$SNAPSTYLE
 70
0
  9
$SNAPISOPAIR
 70
0
  9
$GRIDMODE
 70
0
  9
$GRIDUNIT
 10
0
 20
0
  9
$ORTHOMODE
 70
0
  9
$REGENMODE
 70
1
  9
$FILLMODE
 70
1
  9
$QTEXTMODE
 70
0
  9
$DRAGMODE
 70
2
  9
$LTSCALE
 40
1
  9
$OSMODE
 70
0
  9
$ATTMODE
 70
1
  9
$TEXTSIZE
 40
3.5
  9
$TRACEWID
 40
0.5
  9
$TEXTSTYLE
  7
STANDARD
  9
$CLAYER
  8
0
  9
$CELTYPE
  6
BYLAYER
  9
$CECOLOR
 62
256
  9
$DIMSCALE
 40
1
  9
$DIMASZ
 40
0.18
  9
$DIMEXO
 40
0.0625
  9
$DIMDLI
 40
0.38
  9
$DIMRND
 40
0
  9
$DIMDLE
 40
0
  9
$DIMEXE
 40
0.18
  9
$DIMTP
 40
0
  9
$DIMTM
 40
0
  9
$DIMTXT
 40
0.18
  9
$DIMCEN
 40
0.09
  9
$DIMTSZ
 40
0
  9
$DIMTOL
 70
0
  9
$DIMLIM
 70
0
  9
$DIMTIH
 70
1
  9
$DIMTOH
 70
1
  9
$DIMSE1
 70
0
  9
$DIMSE2
 70
0
  9
$DIMTAD
 70
0
  9
$DIMZIN
 70
0
  9
$DIMBLK
  1

  9
$DIMASO
 70
1
  9
$DIMSHO
 70
1
  9
$DIMPOST
  1

  9
$DIMAPOST
  1

  9
$DIMALT
 70
0
  9
$DIMALTD
 70
2
  9
$DIMALTF
 40
25.4
  9
$DIMLFAC
 40
1
  9
$DIMTOFL
 70
0
  9
$DIMTVP
 40
0
  9
$DIMTIX
 70
0
  9
$DIMSOXD
 70
0
  9
$DIMSAH
 70
0
  9
$DIMBLK1
  1

  9
$DIMBLK2
  1

  9
$DIMSTYLE
  2
*UNNAMED
  9
$DIMCLRD
 70
0
  9
$DIMCLRE
 70
0
  9
$DIMCLRT
 70
0
  9
$DIMTFAC
 40
1
  9
$DIMGAP
 40
0.09
  9
$LUNITS
 70
2
  9
$LUPREC
 70
4
  9
$AXISMODE
 70
0
  9
$AXISUNIT
 10
0
 20
0
  9
$SKETCHINC
 40
0.1
  9
$FILLETRAD
 40
2
  9
$AUNITS
 70
0
  9
$AUPREC
 70
0
  9
$MENU
  1
ACAD
  9
$ELEVATION
 40
0
  9
$THICKNESS
 40
0
  9
$VIEWDIR
 10
0
 20
0
 30
1
  9
$LIMCHECK
 70
0
  9
$BLIPMODE
 70
1
  9
$CHAMFERA
 40
0
  9
$CHAMFERB
 40
0
  9
$FASTZOOM
 70
1
  9
$SKPOLY
 70
0
  9
$ANGBASE
 50
0
  9
$ANGDIR
 70
0
  9
$PDMODE
 70
0
  9
$PDSIZE
 40
0
  9
$PLINEWID
 40
0
  9
$COORDS
 70
2
  0
ENDSEC
  0
SECTION
  2
TABLES
  0
TABLE
  2
DIMSTYLE
 70
5
  0
DIMSTYLE
  2
DMST_1
 70
0
  3

  4

  5

  6

  7

 40
1
 41
3.5
 42
0
 43
7
 44
1
 45
0
 46
0
 47
0
 48
0
140
4.5
141
0
142
0
143
25.4
144
1
145
0
146
1
147
0.09
 71
0
 72
0
 73
1
 74
1
 75
0
 76
0
 77
0
 78
9
170
0
171
2
172
0
173
0
174
0
175
0
176
2
177
2
178
2
  0
DIMSTYLE
  2
DMST_2
 70
0
  3

  4

  5

  6

  7

 40
1
 41
3.5
 42
0
 43
7
 44
1
 45
0
 46
0
 47
0.5
 48
0.5
140
4.5
141
0
142
0
143
25.4
144
1
145
0
146
1
147
0.09
 71
1
 72
0
 73
1
 74
1
 75
0
 76
0
 77
0
 78
9
170
0
171
2
172
0
173
0
174
0
175
0
176
2
177
2
178
2
  0
DIMSTYLE
  2
DMST_3
 70
0
  3

  4

  5

  6

  7

 40
1
 41
3.5
 42
0
 43
7
 44
1
 45
0
 46
0
 47
1
 48
1
140
4.5
141
0
142
0
143
25.4
144
1
145
0
146
1
147
0.09
 71
1
 72
0
 73
1
 74
1
 75
0
 76
0
 77
0
 78
9
170
0
171
2
172
0
173
0
174
0
175
0
176
2
177
2
178
2
  0
DIMSTYLE
  2
DMST_4
 70
0
  3

  4

  5

  6

  7

 40
1
 41
3.5
 42
0
 43
7
 44
1
 45
0
 46
0
 47
0.3
 48
0.3
140
4.5
141
0
142
0
143
25.4
144
1
145
0
146
1
147
0.09
 71
1
 72
0
 73
1
 74
1
 75
0
 76
0
 77
0
 78
9
170
0
171
2
172
0
173
0
174
0
175
0
176
2
177
2
178
2
  0
DIMSTYLE
  2
DMST_5
 70
0
  3

  4

  5

  6

  7

 40
1
 41
3.5
 42
0
 43
7
 44
1
 45
0
 46
0
 47
0.3
 48
0.3
140
4.5
141
0
142
0
143
25.4
144
1
145
0
146
1
147
0.09
 71
1
 72
0
 73
1
 74
1
 75
0
 76
0
 77
1
 78
9
170
0
171
2
172
0
173
0
174
0
175
0
176
2
177
2
178
2
  0
ENDTAB
  0
TABLE
  2
LTYPE
 70
9
  0
LTYPE
  2
CONTINUOUS
 70
64
  3
Solid line
 72
65
 73
0
 40
0
  0
LTYPE
  2
BORDER
 70
64
  3
__ __ . __ __ .
 72
65
 73
6
 40
11.54468424895914
 49
3.298481213988327
 49
-1.649240606994163
 49
3.298481213988327
 49
-1.649240606994163
 49
0
 49
-1.649240606994163
  0
LTYPE
  2
CENTER
 70
64
  3
____ _ ____ _
 72
65
 73
4
 40
13.19392485595331
 49
8.246203034970817
 49
-1.649240606994163
 49
1.649240606994163
 49
-1.649240606994163
  0
LTYPE
  2
DASHDOT
 70
64
  3
__ . __ . __ .
 72
65
 73
4
 40
6.596962427976654
 49
3.298481213988327
 49
-1.649240606994163
 49
0
 49
-1.649240606994163
  0
LTYPE
  2
DASHED
 70
64
  3
__ __ __ __ __
 72
65
 73
2
 40
4.947721820982491
 49
3.298481213988327
 49
-1.649240606994163
  0
LTYPE
  2
DIVIDE
 70
64
  3
__ . . __ . . 
 72
65
 73
6
 40
8.246203034970817
 49
3.298481213988327
 49
-1.649240606994163
 49
0
 49
-1.649240606994163
 49
0
 49
-1.649240606994163
  0
LTYPE
  2
DOT
 70
64
  3
..............
 72
65
 73
4
 40
3.298481213988327
 49
0
 49
-1.649240606994163
 49
0
 49
-1.649240606994163
  0
LTYPE
  2
HIDDEN
 70
64
  3
_ _ _ _ _ _ _
 72
65
 73
2
 40
2.473860910491245
 49
1.649240606994163
 49
-0.8246203034970817
  0
LTYPE
  2
PHANTOM
 70
64
  3
_____ _ _ _____ _ _ 
 72
65
 73
6
 40
16.49240606994163
 49
8.246203034970817
 49
-1.649240606994163
 49
1.649240606994163
 49
-1.649240606994163
 49
1.649240606994163
 49
-1.649240606994163
  0
ENDTAB
  0
TABLE
  2
LAYER
 70
3
  0
LAYER
  2
1
 70
0
 62
7
  6
CONTINUOUS
  0
LAYER
  2
0
 70
0
 62
7
  6
CONTINUOUS
  0
ENDTAB
  0
TABLE
  2
STYLE
 70
4
  0
STYLE
  2
STANDARD
 70
0
 40
0
 41
1
 50
0
 71
0
 42
3.5
  3
txt
  4

  0
STYLE
  2
SIMPLEX
 70
0
 40
0
 41
1
 50
0
 71
0
 42
3.5
  3
simplex
  4

  0
STYLE
  2
COMPLEX
 70
0
 40
0
 41
1
 50
0
 71
0
 42
3.5
  3
complex
  4

  0
STYLE
  2
ITALIC
 70
0
 40
0
 41
1
 50
0
 71
0
 42
3.5
  3
italic
  4

  0
ENDTAB
  0
TABLE
  2
VIEW
 70
0
  0
ENDTAB
  0
ENDSEC
  0
SECTION
  2
BLOCKS
  0
BLOCK
  8
1
  2
*D0
 70
1
 10
0
 20
0
 30
0
  0
LINE
  8
1
 62
2
 10
2890.188680530041
 20
-955.7875102269103
 30
0
 11
2899.55457557201
 21
-955.7875102269103
 31
0
  0
LINE
  8
1
 62
2
 10
2886.188680530042
 20
-955.7875102269103
 30
0
 11
2890.188680530041
 21
-955.7875102269103
 31
0
  0
LINE
  8
1
 62
2
 10
2879.188680530042
 20
-955.7875102269103
 30
0
 11
2886.188680530042
 21
-955.7875102269103
 31
0
  0
LINE
  8
1
 62
2
 10
2890.188680530041
 20
-970.7875102269103
 30
0
 11
2890.188680530041
 21
-954.7875102269103
 31
0
  0
LINE
  8
1
 62
2
 10
2886.188680530042
 20
-970.7875102269103
 30
0
 11
2886.188680530042
 21
-954.7875102269103
 31
0
  0
SOLID
  8
1
 62
2
 10
2886.188680530042
 20
-955.7875102269103
 30
0
 11
2882.688680530042
 21
-956.2425102269103
 31
0
 12
2882.688680530042
 22
-955.3325102269102
 32
0
 13
2882.688680530042
 23
-955.3325102269102
 33
0
  0
SOLID
  8
1
 62
2
 10
2890.188680530041
 20
-955.7875102269103
 30
0
 11
2893.688680530041
 21
-955.3325102269102
 31
0
 12
2893.688680530041
 22
-956.2425102269103
 32
0
 13
2893.688680530041
 23
-956.2425102269103
 33
0
  0
TEXT
  8
1
 62
2
 10
2896.85457557201
 20
-954.7875102269103
 30
0
 40
4.5
  1
4
 41
0.9
  0
ENDBLK
  8
0
  0
BLOCK
  8
1
  2
*D1
 70
1
 10
0
 20
0
 30
0
  0
LINE
  8
1
 62
2
 10
2851.688680530041
 20
-955.7875102269103
 30
0
 11
2842.29069013055
 21
-955.7875102269103
 31
0
  0
LINE
  8
1
 62
2
 10
2851.688680530041
 20
-955.7875102269103
 30
0
 11
2855.688680530041
 21
-955.7875102269103
 31
0
  0
LINE
  8
1
 62
2
 10
2862.688680530041
 20
-955.7875102269103
 30
0
 11
2855.688680530041
 21
-955.7875102269103
 31
0
  0
LINE
  8
1
 62
2
 10
2855.688680530041
 20
-970.7875102269103
 30
0
 11
2855.688680530041
 21
-954.7875102269103
 31
0
  0
LINE
  8
1
 62
2
 10
2851.688680530041
 20
-970.7875102269103
 30
0
 11
2851.688680530041
 21
-954.7875102269103
 31
0
  0
SOLID
  8
1
 62
2
 10
2851.688680530041
 20
-955.7875102269103
 30
0
 11
2848.188680530041
 21
-956.2425102269103
 31
0
 12
2848.188680530041
 22
-955.3325102269102
 32
0
 13
2848.188680530041
 23
-955.3325102269102
 33
0
  0
SOLID
  8
1
 62
2
 10
2855.688680530041
 20
-955.7875102269103
 30
0
 11
2859.188680530041
 21
-955.3325102269102
 31
0
 12
2859.188680530041
 22
-956.2425102269103
 32
0
 13
2859.188680530041
 23
-956.2425102269103
 33
0
  0
TEXT
  8
1
 62
2
 10
2842.29069013055
 20
-954.7875102269103
 30
0
 40
4.5
  1
4
 41
0.9
  0
ENDBLK
  8
0
  0
BLOCK
  8
1
  2
*D2
 70
1
 10
0
 20
0
 30
0
  0
LINE
  8
1
 62
2
 10
2851.688680530041
 20
-945.7875102269103
 30
0
 11
2890.188680530041
 21
-945.7875102269103
 31
0
  0
LINE
  8
1
 62
2
 10
2890.188680530041
 20
-970.7875102269103
 30
0
 11
2890.188680530041
 21
-944.7875102269103
 31
0
  0
LINE
  8
1
 62
2
 10
2851.688680530041
 20
-970.7875102269103
 30
0
 11
2851.688680530041
 21
-944.7875102269103
 31
0
  0
SOLID
  8
1
 62
2
 10
2851.688680530041
 20
-945.7875102269103
 30
0
 11
2855.188680530041
 21
-945.3325102269102
 31
0
 12
2855.188680530041
 22
-946.2425102269103
 32
0
 13
2855.188680530041
 23
-946.2425102269103
 33
0
  0
SOLID
  8
1
 62
2
 10
2890.188680530041
 20
-945.7875102269103
 30
0
 11
2886.688680530041
 21
-946.2425102269103
 31
0
 12
2886.688680530041
 22
-945.3325102269102
 32
0
 13
2886.688680530041
 23
-945.3325102269102
 33
0
  0
TEXT
  8
1
 62
2
 10
2857.776180530041
 20
-944.7875102269103
 30
0
 40
4.5
  1
38.5
 41
0.9
  0
TEXT
  8
1
 62
2
 10
2872.513680530041
 20
-944.7875102269103
 30
0
 40
4.5
  1
%%p0.5
 41
0.9
  0
ENDBLK
  8
0
  0
BLOCK
  8
1
  2
*D3
 70
1
 10
0
 20
0
 30
0
  0
LINE
  8
1
 62
2
 10
2655.434406802775
 20
-945.7875102269103
 30
0
 11
2782.434406802777
 21
-945.7875102269103
 31
0
  0
LINE
  8
1
 62
2
 10
2782.434406802777
 20
-974.7875102269103
 30
0
 11
2782.434406802777
 21
-944.7875102269103
 31
0
  0
LINE
  8
1
 62
2
 10
2655.434406802775
 20
-974.7875102269103
 30
0
 11
2655.434406802775
 21
-944.7875102269103
 31
0
  0
SOLID
  8
1
 62
2
 10
2655.434406802775
 20
-945.7875102269103
 30
0
 11
2658.934406802775
 21
-945.3325102269102
 31
0
 12
2658.934406802775
 22
-946.2425102269103
 32
0
 13
2658.934406802775
 23
-946.2425102269103
 33
0
  0
SOLID
  8
1
 62
2
 10
2782.434406802777
 20
-945.7875102269103
 30
0
 11
2778.934406802777
 21
-946.2425102269103
 31
0
 12
2778.934406802777
 22
-945.3325102269102
 32
0
 13
2778.934406802777
 23
-945.3325102269102
 33
0
  0
TEXT
  8
1
 62
2
 10
2713.746171508658
 20
-944.7875102269103
 30
0
 40
4.5
  1
127
 41
0.9
  0
TEXT
  8
1
 62
2
 10
2725.446171508658
 20
-944.7875102269103
 30
0
 40
4.5
  1
%%p1
 41
0.9
  0
TEXT
  8
1
 62
2
 10
2707.922642096894
 20
-944.7875102269103
 30
0
 40
4.5
  1
□
 41
0.9
  0
ENDBLK
  8
0
  0
BLOCK
  8
1
  2
*D4
 70
1
 10
0
 20
0
 30
0
  0
LINE
  8
1
 62
2
 10
2662.284406802777
 20
-955.7875102269103
 30
0
 11
2775.584406802775
 21
-955.7875102269103
 31
0
  0
LINE
  8
1
 62
2
 10
2775.584406802775
 20
-974.3584315527651
 30
0
 11
2775.584406802775
 21
-954.7875102269103
 31
0
  0
LINE
  8
1
 62
2
 10
2662.284406802777
 20
-974.3584315527651
 30
0
 11
2662.284406802777
 21
-954.7875102269103
 31
0
  0
SOLID
  8
1
 62
2
 10
2662.284406802777
 20
-955.7875102269103
 30
0
 11
2665.784406802777
 21
-955.3325102269102
 31
0
 12
2665.784406802777
 22
-956.2425102269103
 32
0
 13
2665.784406802777
 23
-956.2425102269103
 33
0
  0
SOLID
  8
1
 62
2
 10
2775.584406802775
 20
-955.7875102269103
 30
0
 11
2772.084406802775
 21
-956.2425102269103
 31
0
 12
2772.084406802775
 22
-955.3325102269102
 32
0
 13
2772.084406802775
 23
-955.3325102269102
 33
0
  0
TEXT
  8
1
 62
2
 10
2708.008671508658
 20
-954.7875102269103
 30
0
 40
4.5
  1
113.3
 41
0.9
  0
TEXT
  8
1
 62
2
 10
2724.096171508658
 20
-954.7875102269103
 30
0
 40
4.5
  1
%%p0.3
 41
0.9
  0
TEXT
  8
1
 62
2
 10
2702.185142096893
 20
-954.7875102269103
 30
0
 40
4.5
  1
□
 41
0.9
  0
ENDBLK
  8
0
  0
BLOCK
  8
1
  2
*D5
 70
1
 10
0
 20
0
 30
0
  0
LINE
  8
1
 62
2
 10
2777.228851673575
 20
-1092.473186321309
 30
0
 11
2795.252909806482
 21
-1109.305076334926
 31
0
  0
LINE
  8
1
 62
2
 10
2795.252909806482
 20
-1109.305076334926
 30
0
 11
2836.077909806482
 21
-1109.305076334926
 31
0
  0
SOLID
  8
1
 62
2
 10
2777.228851673575
 20
-1092.473186321309
 30
0
 11
2780.097424860573
 21
-1094.529472505388
 31
0
 12
2779.476329195728
 22
-1095.194559097577
 32
0
 13
2779.476329195728
 23
-1095.194559097577
 33
0
  0
TEXT
  8
1
 62
2
 10
2813.802909806482
 20
-1108.305076334926
 30
0
 40
4.5
  1
4.5
 41
0.9
  0
TEXT
  8
1
 62
2
 10
2824.490409806482
 20
-1108.305076334926
 30
0
 40
4.5
  1
%%p0.3
 41
0.9
  0
TEXT
  8
1
 62
2
 10
2800.752909806482
 20
-1108.305076334926
 30
0
 40
4.5
  1
8-%%c
 41
0.9
  0
ENDBLK
  8
0
  0
ENDSEC
  0
SECTION
  2
ENTITIES
  0
LINE
  8
1
 62
7
 10
2710.951937498832
 20
-1004.332874795786
 30
0
 11
2711.335276888983
 21
-1005.265910950625
 31
0
  0
LINE
  8
1
 62
7
 10
2737.376895624643
 20
-1009.370154708009
 30
0
 11
2736.886426784898
 21
-1010.251600038996
 31
0
  0
LINE
  8
1
 62
7
 10
2730.419052005264
 20
-1006.032370436547
 30
0
 11
2730.170133197696
 21
-1006.470996204148
 31
0
  0
LINE
  8
1
 62
7
 10
2690.537941571903
 20
-1021.852046327576
 30
0
 11
2691.506426812454
 21
-1022.134078051167
 31
0
  0
LINE
  8
1
 62
7
 10
2691.507063147255
 20
-1048.735375813285
 30
0
 11
2692.331405098535
 21
-1048.154027465355
 31
0
  0
LINE
  8
1
 62
7
 10
2713.129533912136
 20
-1064.739167829142
 30
0
 11
2713.148278501786
 21
-1064.421685464976
 31
0
  0
LINE
  8
1
 62
7
 10
2739.123192361725
 20
-1057.81224056872
 30
0
 11
2738.372986289697
 21
-1057.137928768607
 31
0
  0
LINE
  8
1
 62
7
 10
2749.914283508462
 20
-1033.170711542951
 30
0
 11
2748.919339478938
 21
-1033.336819737784
 31
0
  0
LINE
  8
1
 62
7
 10
2704.004208134188
 20
-1007.691661533619
 30
0
 11
2704.191941230324
 21
-1008.159752786881
 31
0
  0
LINE
  8
1
 62
7
 10
2688.832108381693
 20
-1029.378169154221
 30
0
 11
2689.315126531075
 21
-1029.523243632098
 31
0
  0
LINE
  8
1
 62
7
 10
2696.327653316431
 20
-1054.761510735057
 30
0
 11
2696.742234000785
 21
-1054.474324396722
 31
0
  0
LINE
  8
1
 62
7
 10
2720.846544720999
 20
-1064.727512338962
 30
0
 11
2720.863150445345
 21
-1064.481430491205
 31
0
  0
LINE
  8
1
 62
7
 10
2743.925557272566
 20
-1051.771571488421
 30
0
 11
2743.553318414229
 21
-1051.431290179639
 31
0
  0
LINE
  8
1
 62
7
 10
2863.841680530042
 20
-1002.037175101132
 30
0
 11
2863.841680530042
 21
-1029.20751022691
 31
0
  0
LINE
  8
1
 62
7
 10
2869.824330220781
 20
-990.8225102269101
 30
0
 11
2874.838516723397
 21
-990.8225102269101
 31
0
  0
LINE
  8
1
 62
7
 10
2865.590996887449
 20
-998.6371751011324
 30
0
 11
2853.988680530041
 21
-998.6371751011324
 31
0
  0
LINE
  8
1
 62
7
 10
2852.288680530042
 20
-1000.337175101132
 30
0
 11
2852.288680530042
 21
-1001.112510226911
 31
0
  0
LINE
  8
1
 62
7
 10
2855.688680530041
 20
-1002.037175101132
 30
0
 11
2868.157663554114
 21
-1002.037175101132
 31
0
  0
LINE
  8
1
 62
7
 10
2866.424330220782
 20
-997.8038417677989
 30
0
 11
2866.424330220782
 21
-988.3904113478264
 31
0
  0
LINE
  8
1
 62
7
 10
2869.824330220781
 20
-988.3904113478264
 30
0
 11
2869.824330220781
 21
-1000.370508434466
 31
0
  0
LINE
  8
1
 62
7
 10
2851.688680530041
 20
-1001.18751022691
 30
0
 11
2851.688680530041
 21
-1097.78751022691
 31
0
  0
LINE
  8
1
 62
7
 10
2855.688680530041
 20
-1000.68751022691
 30
0
 11
2855.688680530041
 21
-1067.787510226907
 31
0
  0
LINE
  8
1
 62
7
 10
2851.688680530041
 20
-1001.18751022691
 30
0
 11
2855.688680530041
 21
-1000.68751022691
 31
0
  0
LINE
  8
1
 62
7
 10
2851.688680530041
 20
-996.6875102269104
 30
0
 11
2851.688680530041
 21
-1001.18751022691
 31
0
  0
LINE
  8
1
 62
7
 10
2855.688680530041
 20
-996.6875102269104
 30
0
 11
2855.688680530041
 21
-998.6371751011324
 31
0
  0
LINE
  8
1
 62
7
 10
2851.688680530041
 20
-996.6875102269104
 30
0
 11
2855.688680530041
 21
-996.6875102269104
 31
0
  0
LINE
  8
1
 62
7
 10
2851.688680530041
 20
-970.7875102269103
 30
0
 11
2851.688680530041
 21
-996.6875102269104
 31
0
  0
LINE
  8
1
 62
7
 10
2851.688680530041
 20
-970.7875102269103
 30
0
 11
2855.688680530041
 21
-970.7875102269103
 31
0
  0
LINE
  8
1
 62
7
 10
2890.188680530041
 20
-970.7875102269103
 30
0
 11
2890.188680530041
 21
-1097.78751022691
 31
0
  0
LINE
  8
1
 62
7
 10
2890.188680530041
 20
-1097.78751022691
 30
0
 11
2886.188680530043
 21
-1097.78751022691
 31
0
  0
LINE
  8
1
 62
7
 10
2855.688680530041
 20
-970.7875102269103
 30
0
 11
2855.688680530041
 21
-981.7495102269103
 31
0
  0
LINE
  8
1
 62
7
 10
2855.688680530041
 20
-970.7875102269103
 30
0
 11
2863.841680530042
 21
-970.7875102269103
 31
0
  0
LINE
  8
1
 62
7
 10
2855.688680530041
 20
-1097.78751022691
 30
0
 11
2851.688680530041
 21
-1097.78751022691
 31
0
  0
LINE
  8
1
 62
7
 10
2886.188680530043
 20
-1097.78751022691
 30
0
 11
2875.010680530041
 21
-1097.78751022691
 31
0
  0
LINE
  8
1
 62
7
 10
2886.188680530043
 20
-970.7875102269103
 30
0
 11
2890.188680530041
 21
-970.7875102269103
 31
0
  0
LINE
  8
1
 62
7
 10
2855.688680530041
 20
-981.7495102269103
 30
0
 11
2863.841680530042
 21
-981.7495102269103
 31
0
  0
LINE
  8
1
 62
7
 10
2855.688680530041
 20
-981.7495102269103
 30
0
 11
2855.688680530041
 21
-985.8266983476123
 31
0
  0
LINE
  8
1
 62
7
 10
2886.188680530043
 20
-981.8495102269102
 30
0
 11
2886.188680530043
 21
-982.0405262349608
 31
0
  0
LINE
  8
1
 62
7
 10
2863.975655126257
 20
-990.8225102269101
 30
0
 11
2866.424330220782
 21
-990.8225102269101
 31
0
  0
LINE
  8
1
 62
7
 10
2875.146347461062
 20
-990.7165156037135
 30
0
 11
2886.150246677576
 21
-982.1193273103221
 31
0
  0
LINE
  8
1
 62
7
 10
2863.725655126257
 20
-990.7555229288017
 30
0
 11
2855.938680530043
 21
-986.2597110495047
 31
0
  0
LINE
  8
1
 62
7
 10
2855.688680530041
 20
-985.8266983476123
 30
0
 11
2855.688680530041
 21
-996.6875102269104
 31
0
  0
LINE
  8
1
 62
7
 10
2886.188680530043
 20
-970.7875102269103
 30
0
 11
2886.188680530043
 21
-981.8495102269102
 31
0
  0
LINE
  8
1
 62
2
  6
CENTER
 10
2845.30770819829
 20
-1034.28751022691
 30
0
 11
2897.017824397942
 21
-1034.28751022691
 31
0
  0
LINE
  8
1
 62
7
 10
2859.688680530043
 20
-984.5775102269103
 30
0
 11
2880.062924900282
 21
-984.5775102269103
 31
0
  0
LINE
  8
1
 62
7
 10
2886.088680530041
 20
-1086.82551022691
 30
0
 11
2875.010680530041
 21
-1086.82551022691
 31
0
  0
LINE
  8
1
 62
7
 10
2855.688680530041
 20
-1082.748322106208
 30
0
 11
2855.688680530041
 21
-1086.82551022691
 31
0
  0
LINE
  8
1
 62
7
 10
2886.188680530043
 20
-1086.534494218859
 30
0
 11
2886.188680530043
 21
-1086.72551022691
 31
0
  0
LINE
  8
1
 62
7
 10
2874.838516723397
 20
-1077.75251022691
 30
0
 11
2863.975655126257
 21
-1077.75251022691
 31
0
  0
LINE
  8
1
 62
7
 10
2886.150246677576
 20
-1086.455693143498
 30
0
 11
2875.146347461062
 21
-1077.858504850107
 31
0
  0
LINE
  8
1
 62
7
 10
2855.938680530043
 20
-1082.315309404316
 30
0
 11
2863.725655126257
 21
-1077.819497525018
 31
0
  0
LINE
  8
1
 62
7
 10
2880.062924900282
 20
-1083.99751022691
 30
0
 11
2859.688680530043
 21
-1083.99751022691
 31
0
  0
LINE
  8
1
 62
2
  6
CENTER
 10
2849.217603200853
 20
-977.7875102269103
 30
0
 11
2858.119778467122
 21
-977.7875102269103
 31
0
  0
LINE
  8
1
 62
2
  6
CENTER
 10
2884.114130244642
 20
-977.7875102269103
 30
0
 11
2891.694719705681
 21
-977.7875102269103
 31
0
  0
LINE
  8
1
 62
2
  6
CENTER
 10
2858.119778467122
 20
-1090.78751022691
 30
0
 11
2849.217603200853
 21
-1090.78751022691
 31
0
  0
LINE
  8
1
 62
2
  6
CENTER
 10
2891.694719705681
 20
-1090.78751022691
 30
0
 11
2884.114130244642
 21
-1090.78751022691
 31
0
  0
LINE
  8
1
 62
7
 10
2863.841680530042
 20
-1086.82551022691
 30
0
 11
2863.841680530042
 21
-1097.78751022691
 31
0
  0
LINE
  8
1
 62
7
 10
2863.841680530042
 20
-1097.78751022691
 30
0
 11
2855.688680530041
 21
-1097.78751022691
 31
0
  0
LINE
  8
1
 62
7
 10
2863.841680530042
 20
-1086.82551022691
 30
0
 11
2855.688680530041
 21
-1086.82551022691
 31
0
  0
LINE
  8
1
 62
7
 10
2875.010680530041
 20
-1086.82551022691
 30
0
 11
2875.010680530041
 21
-1097.78751022691
 31
0
  0
LINE
  8
1
 62
7
 10
2875.010680530041
 20
-1097.78751022691
 30
0
 11
2863.841680530042
 21
-1097.78751022691
 31
0
  0
LINE
  8
1
 62
7
 10
2875.010680530041
 20
-1086.82551022691
 30
0
 11
2863.841680530042
 21
-1086.82551022691
 31
0
  0
LINE
  8
1
 62
7
 10
2863.841680530042
 20
-970.7875102269103
 30
0
 11
2863.841680530042
 21
-981.7495102269103
 31
0
  0
LINE
  8
1
 62
7
 10
2863.841680530042
 20
-970.7875102269103
 30
0
 11
2875.010680530041
 21
-970.7875102269103
 31
0
  0
LINE
  8
1
 62
7
 10
2863.841680530042
 20
-981.7495102269103
 30
0
 11
2875.010680530041
 21
-981.7495102269103
 31
0
  0
LINE
  8
1
 62
7
 10
2875.010680530041
 20
-970.7875102269103
 30
0
 11
2875.010680530041
 21
-981.7495102269103
 31
0
  0
LINE
  8
1
 62
7
 10
2875.010680530041
 20
-970.7875102269103
 30
0
 11
2886.188680530043
 21
-970.7875102269103
 31
0
  0
LINE
  8
1
 62
7
 10
2875.010680530041
 20
-981.7495102269103
 30
0
 11
2886.088680530041
 21
-981.7495102269103
 31
0
  0
LINE
  8
1
 62
7
 10
2855.688680530041
 20
-1067.787510226907
 30
0
 11
2855.688680530041
 21
-1097.78751022691
 31
0
  0
LINE
  8
1
 62
7
 10
2863.841680530042
 20
-1077.770793704909
 30
0
 11
2863.841680530042
 21
-1039.36751022691
 31
0
  0
LINE
  8
1
 62
7
 10
2863.761680530042
 20
-1039.28751022691
 30
0
 11
2863.744663327191
 21
-1039.28751022691
 31
0
  0
LINE
  8
1
 62
7
 10
2863.841680530042
 20
-990.8042267489112
 30
0
 11
2863.841680530042
 21
-998.6371751011324
 31
0
  0
LINE
  8
1
 62
7
 10
2863.761680530042
 20
-1029.28751022691
 30
0
 11
2863.744663327191
 21
-1029.28751022691
 31
0
  0
LINE
  8
1
 62
7
 10
2875.010680530041
 20
-1077.783085447333
 30
0
 11
2875.010680530041
 21
-1039.38751022691
 31
0
  0
LINE
  8
1
 62
7
 10
2875.010680530041
 20
-1029.18751022691
 30
0
 11
2875.010680530041
 21
-990.791935006488
 31
0
  0
LINE
  8
1
 62
7
 10
2875.110680530042
 20
-1029.28751022691
 30
0
 11
2875.284803503156
 21
-1029.28751022691
 31
0
  0
LINE
  8
1
 62
7
 10
2875.110680530042
 20
-1039.28751022691
 30
0
 11
2875.284803503156
 21
-1039.28751022691
 31
0
  0
LINE
  8
1
 62
7
 10
2886.188680530043
 20
-982.0405262349608
 30
0
 11
2886.188680530043
 21
-1008.711696822383
 31
0
  0
LINE
  8
1
 62
7
 10
2886.188680530043
 20
-1008.711696822383
 30
0
 11
2886.188680530043
 21
-1059.863323631438
 31
0
  0
LINE
  8
1
 62
7
 10
2886.188680530043
 20
-1059.863323631438
 30
0
 11
2886.188680530043
 21
-1097.78751022691
 31
0
  0
LINE
  8
1
 62
7
 10
2792.136077855767
 20
-1002.037175101132
 30
0
 11
2810.962842182214
 21
-1002.037175101132
 31
0
  0
LINE
  8
1
 62
7
 10
2792.136077855768
 20
-1000.337175101133
 30
0
 11
2811.056567301626
 21
-1000.337175101133
 31
0
  0
LINE
  8
1
 62
7
 10
2792.136077855767
 20
-998.6371751011324
 30
0
 11
2811.205480403884
 21
-998.6371751011324
 31
0
  0
LINE
  8
1
 62
7
 10
2792.136077855767
 20
-998.6371751011324
 30
0
 11
2792.136077855767
 21
-1002.037175101132
 31
0
  0
LINE
  8
1
 62
7
 10
2779.305389783852
 20
-1002.037175101132
 30
0
 11
2775.222775496686
 21
-1004.895852400608
 31
0
  0
LINE
  8
1
 62
7
 10
2777.669506527301
 20
-1002.037175101132
 30
0
 11
2779.305389783852
 21
-1002.037175101132
 31
0
  0
LINE
  8
1
 62
7
 10
2782.434406802778
 20
-1002.037175101132
 30
0
 11
2782.434406802778
 21
-1001.48751022691
 31
0
  0
LINE
  8
1
 62
7
 10
2792.136077855767
 20
-1002.037175101132
 30
0
 11
2782.434406802778
 21
-1002.037175101132
 31
0
  0
LINE
  8
1
 62
7
 10
2792.136077855767
 20
-998.6371751011324
 30
0
 11
2776.597490645111
 21
-998.6371751011324
 31
0
  0
LINE
  8
1
 62
7
 10
2777.115419814742
 20
-996.6875102269104
 30
0
 11
2781.434406802776
 21
-996.6875102269104
 31
0
  0
LINE
  8
1
 62
7
 10
2774.604813200325
 20
-1003.74154729346
 30
0
 11
2776.5223536546
 21
-1002.398871012554
 31
0
  0
LINE
  8
1
 62
7
 10
2772.88399627725
 20
-1000.795842673087
 30
0
 11
2775.45033777241
 21
-998.9988710125543
 31
0
  0
LINE
  8
1
 62
7
 10
2754.574711979775
 20
-1017.766775159194
 30
0
 11
2763.89133726361
 21
-1011.243203904777
 31
0
  0
LINE
  8
1
 62
7
 10
2752.520928870693
 20
-1015.054215972232
 30
0
 11
2751.488491285262
 21
-1013.579742292511
 31
0
  0
LINE
  8
1
 62
7
 10
2752.520928870693
 20
-1015.054215972232
 30
0
 11
2761.941177380018
 21
-1008.458086954194
 31
0
  0
LINE
  8
1
 62
7
 10
2780.996980169991
 20
-1000.852710761196
 30
0
 11
2780.2605593329
 21
-1001.368358182621
 31
0
  0
LINE
  8
1
 62
7
 10
2782.434406802778
 20
-1093.78751022691
 30
0
 11
2782.434406802778
 21
-1002.037175101132
 31
0
  0
LINE
  8
1
 62
7
 10
2780.2605593329
 20
-1001.368358182621
 30
0
 11
2779.305389783852
 21
-1002.037175101132
 31
0
  0
LINE
  8
1
 62
7
 10
2780.834135769253
 20
-1001.18751022691
 30
0
 11
2782.134406802777
 21
-1001.18751022691
 31
0
  0
LINE
  8
1
 62
7
 10
2772.186351145719
 20
-999.69733208779
 30
0
 11
2767.134380333855
 21
-1003.234760133073
 31
0
  0
LINE
  8
1
 62
7
 10
2775.222775496686
 20
-1004.895852400608
 30
0
 11
2768.732746852314
 21
-1009.440219380597
 31
0
  0
LINE
  8
1
 62
7
 10
2782.434406802778
 20
-995.6875102269104
 30
0
 11
2782.434406802778
 21
-974.7875102269103
 31
0
  0
LINE
  8
1
 62
7
 10
2775.968266942041
 20
-997.0492061383324
 30
0
 11
2772.186351145719
 21
-999.69733208779
 31
0
  0
LINE
  8
1
 62
7
 10
2764.430923579678
 20
-1003.296579048429
 30
0
 11
2760.335163358233
 21
-1006.164461230185
 31
0
  0
LINE
  8
1
 62
7
 10
2764.430923579678
 20
-1003.296579048429
 30
0
 11
2765.291288234205
 21
-1004.525307114863
 31
0
  0
LINE
  8
1
 62
7
 10
2760.335163358233
 20
-1006.164461230185
 30
0
 11
2758.601951622884
 21
-1007.37806915259
 31
0
  0
LINE
  8
1
 62
7
 10
2761.19552801276
 20
-1007.393189296618
 30
0
 11
2760.581163979544
 21
-1007.823371623881
 31
0
  0
LINE
  8
1
 62
7
 10
2760.335163358233
 20
-1006.164461230185
 30
0
 11
2761.19552801276
 21
-1007.393189296618
 31
0
  0
LINE
  8
1
 62
7
 10
2764.636986630866
 20
-1012.308101562352
 30
0
 11
2760.325683745133
 21
-1015.326908342449
 31
0
  0
LINE
  8
1
 62
7
 10
2765.325278354488
 20
-1013.291084015499
 30
0
 11
2764.636986630866
 21
-1012.308101562352
 31
0
  0
LINE
  8
1
 62
7
 10
2769.421038575932
 20
-1010.423201833744
 30
0
 11
2768.732746852314
 21
-1009.440219380597
 31
0
  0
LINE
  8
1
 62
7
 10
2765.784139503568
 20
-1013.94640565093
 30
0
 11
2755.135162927812
 21
-1021.402899323494
 31
0
  0
LINE
  8
1
 62
7
 10
2765.325278354488
 20
-1013.291084015499
 30
0
 11
2765.784139503568
 21
-1013.94640565093
 31
0
  0
LINE
  8
1
 62
7
 10
2769.879899725013
 20
-1011.078523469175
 30
0
 11
2769.421038575932
 21
-1010.423201833744
 31
0
  0
LINE
  8
1
 62
7
 10
2773.680979747792
 20
-996.8196199906532
 30
0
 11
2764.430923579678
 21
-1003.296579048429
 31
0
  0
LINE
  8
1
 62
7
 10
2751.488491285262
 20
-1013.579742292511
 30
0
 11
2750.259763218828
 21
-1014.440106947037
 31
0
  0
LINE
  8
1
 62
7
 10
2754.06958524884
 20
-1017.265926491812
 30
0
 11
2752.520928870693
 21
-1015.054215972232
 31
0
  0
LINE
  8
1
 62
7
 10
2774.928677493724
 20
-1007.543331216778
 30
0
 11
2769.879899725013
 21
-1011.078523469175
 31
0
  0
LINE
  8
1
 62
7
 10
2758.419098565598
 20
-1007.95921752793
 30
0
 11
2759.560753267465
 21
-1010.124877861938
 31
0
  0
LINE
  8
1
 62
7
 10
2760.325683745133
 20
-1015.326908342449
 30
0
 11
2756.855042210123
 21
-1017.757077707687
 31
0
  0
LINE
  8
1
 62
7
 10
2774.850738736446
 20
-993.5589967513851
 30
0
 11
2767.2090257233
 21
-998.9097818080257
 31
0
  0
LINE
  8
1
 62
7
 10
2778.392742227784
 20
-1007.559316154666
 30
0
 11
2773.932720570184
 21
-1010.682256939897
 31
0
  0
LINE
  8
1
 62
7
 10
2768.888249736448
 20
-1008.354715417902
 30
0
 11
2769.347110885529
 21
-1009.010037053334
 31
0
  0
LINE
  8
1
 62
7
 10
2765.905652267423
 20
-1004.0951247876
 30
0
 11
2765.291288234205
 21
-1004.525307114863
 31
0
  0
LINE
  8
1
 62
7
 10
2769.420613562562
 20
-1007.371562959407
 30
0
 11
2769.011037540417
 21
-1007.658351177582
 31
0
  0
LINE
  8
1
 62
7
 10
2770.575838951961
 20
-1008.149672398807
 30
0
 11
2770.116977802883
 21
-1007.494350763376
 31
0
  0
LINE
  8
1
 62
7
 10
2767.134380333855
 20
-1003.234760133073
 30
0
 11
2765.905652267423
 21
-1004.0951247876
 31
0
  0
LINE
  8
1
 62
7
 10
2763.56376144857
 20
-1012.082962254184
 30
0
 11
2764.022622597652
 21
-1012.738283889615
 31
0
  0
LINE
  8
1
 62
7
 10
2760.581163979544
 20
-1007.823371623881
 30
0
 11
2759.352435913113
 21
-1008.683736278408
 31
0
  0
LINE
  8
1
 62
7
 10
2762.457821186104
 20
-1012.246962668391
 30
0
 11
2762.86739720825
 21
-1011.960174450216
 31
0
  0
LINE
  8
1
 62
7
 10
2762.793894531217
 20
-1013.598648544142
 30
0
 11
2762.335033382137
 21
-1012.943326908711
 31
0
  0
LINE
  8
1
 62
7
 10
2759.352435913113
 20
-1008.683736278408
 30
0
 11
2758.949697614081
 21
-1008.965736671314
 31
0
  0
LINE
  8
1
 62
7
 10
2746.57357901953
 20
-1017.021200910617
 30
0
 11
2747.00376134679
 21
-1017.635564943834
 31
0
  0
LINE
  8
1
 62
7
 10
2746.57357901953
 20
-1017.021200910617
 30
0
 11
2746.126689219738
 21
-1017.334116517179
 31
0
  0
LINE
  8
1
 62
7
 10
2747.00376134679
 20
-1017.635564943834
 30
0
 11
2750.689945546093
 21
-1015.054470980254
 31
0
  0
LINE
  8
1
 62
7
 10
2750.689945546093
 20
-1015.054470980254
 30
0
 11
2750.259763218828
 21
-1014.440106947037
 31
0
  0
LINE
  8
1
 62
7
 10
2750.259763218828
 20
-1014.440106947037
 30
0
 11
2746.57357901953
 21
-1017.021200910617
 31
0
  0
LINE
  8
1
 62
7
 10
2751.448978728511
 20
-1023.983993287074
 30
0
 11
2751.018796401247
 21
-1023.369629253857
 31
0
  0
LINE
  8
1
 62
7
 10
2751.448978728511
 20
-1023.983993287074
 30
0
 11
2749.020171373019
 21
-1025.684662506249
 31
0
  0
LINE
  8
1
 62
7
 10
2751.018796401247
 20
-1023.369629253857
 30
0
 11
2754.704980600548
 21
-1020.788535290277
 31
0
  0
LINE
  8
1
 62
7
 10
2754.704980600548
 20
-1020.788535290277
 30
0
 11
2755.135162927812
 21
-1021.402899323494
 31
0
  0
LINE
  8
1
 62
7
 10
2755.135162927812
 20
-1021.402899323494
 30
0
 11
2751.448978728511
 21
-1023.983993287074
 31
0
  0
LINE
  8
1
 62
7
 10
2724.476243527313
 20
-1095.002510226911
 30
0
 11
2752.501029376398
 21
-1095.002510226911
 31
0
  0
LINE
  8
1
 62
7
 10
2779.649406802776
 20
-1010.000787349645
 30
0
 11
2779.649406802776
 21
-1067.854132800532
 31
0
  0
LINE
  8
1
 62
2
  6
CENTER
 10
2659.287965274448
 20
-1090.93751022691
 30
0
 11
2665.282405818587
 21
-1090.93751022691
 31
0
  0
LINE
  8
1
 62
2
  6
CENTER
 10
2662.284406802777
 20
-1087.658431552765
 30
0
 11
2662.284406802777
 21
-1094.113982907995
 31
0
  0
LINE
  8
1
 62
2
  6
CENTER
 10
2772.587965274445
 20
-1090.93751022691
 30
0
 11
2778.582405818586
 21
-1090.93751022691
 31
0
  0
LINE
  8
1
 62
2
  6
CENTER
 10
2775.584406802775
 20
-1087.658431552765
 30
0
 11
2775.584406802775
 21
-1094.113982907995
 31
0
  0
LINE
  8
1
 62
2
  6
CENTER
 10
2772.587965274445
 20
-977.6375102269102
 30
0
 11
2778.582405818586
 21
-977.6375102269102
 31
0
  0
LINE
  8
1
 62
2
  6
CENTER
 10
2775.584406802775
 20
-974.358431552765
 30
0
 11
2775.584406802775
 21
-980.8139829079952
 31
0
  0
LINE
  8
1
 62
2
  6
CENTER
 10
2659.287965274448
 20
-977.6375102269102
 30
0
 11
2665.282405818587
 21
-977.6375102269102
 31
0
  0
LINE
  8
1
 62
2
  6
CENTER
 10
2662.284406802777
 20
-974.358431552765
 30
0
 11
2662.284406802777
 21
-980.8139829079952
 31
0
  0
LINE
  8
1
 62
7
 10
2713.769487098221
 20
-1066.002915513068
 30
0
 11
2716.021281473595
 21
-1091.741042998667
 31
0
  0
LINE
  8
1
 62
7
 10
2685.367292890592
 20
-973.57278186874
 30
0
 11
2752.501520714962
 21
-973.57278186874
 31
0
  0
LINE
  8
1
 62
7
 10
2778.434406802778
 20
-970.7875102269103
 30
0
 11
2659.434406802776
 21
-970.7875102269103
 31
0
  0
LINE
  8
1
 62
7
 10
2659.434406802776
 20
-1097.78751022691
 30
0
 11
2778.434406802778
 21
-1097.78751022691
 31
0
  0
LINE
  8
1
 62
7
 10
2655.434406802776
 20
-974.7875102269103
 30
0
 11
2655.434406802776
 21
-1093.78751022691
 31
0
  0
LINE
  8
1
 62
7
 10
2721.487659433038
 20
-1092.263977455154
 30
0
 11
2719.310332382738
 21
-1067.377015389998
 31
0
  0
LINE
  8
1
 62
7
 10
2685.367784229154
 20
-1095.002510226911
 30
0
 11
2713.032697379318
 21
-1095.002510226911
 31
0
  0
LINE
  8
1
 62
7
 10
2723.842340486673
 20
-1093.935935914044
 30
0
 11
2723.931286960127
 21
-1094.952598757765
 31
0
  0
LINE
  8
1
 62
7
 10
2714.004749348326
 20
-1093.934144477139
 30
0
 11
2714.081652329081
 21
-1094.813149569368
 31
0
  0
LINE
  8
1
 62
7
 10
2658.219406802778
 20
-1007.915830927407
 30
0
 11
2658.219406802778
 21
-1067.854132800532
 31
0
  0
LINE
  8
1
 62
7
 10
2694.05051998593
 20
-1013.956855911178
 30
0
 11
2665.788027556187
 21
-1000.777839252642
 31
0
  0
LINE
  8
1
 62
7
 10
2690.090091942909
 20
-1018.068318747551
 30
0
 11
2664.025239443244
 21
-1005.914078418271
 31
0
  0
LINE
  8
1
 62
7
 10
2664.823388020024
 20
-1008.713692633687
 30
0
 11
2663.095479267414
 21
-1007.907955549751
 31
0
  0
LINE
  8
1
 62
7
 10
2669.743735019055
 20
-1000.19498451428
 30
0
 11
2661.247383229497
 21
-996.2330706084312
 31
0
  0
LINE
  8
1
 62
7
 10
2663.505888942785
 20
-1005.671901302641
 30
0
 11
2662.487261587999
 21
-1005.196907566298
 31
0
  0
LINE
  8
1
 62
7
 10
2664.025239443244
 20
-1005.914078418271
 30
0
 11
2663.505888942785
 21
-1005.671901302641
 31
0
  0
LINE
  8
1
 62
7
 10
2663.095479267414
 20
-1007.907955549751
 30
0
 11
2662.576128766955
 21
-1007.665778434121
 31
0
  0
LINE
  8
1
 62
7
 10
2662.576128766955
 20
-1007.665778434121
 30
0
 11
2658.937033475238
 21
-1005.968840430837
 31
0
  0
LINE
  8
1
 62
7
 10
2665.788027556187
 20
-1000.777839252642
 30
0
 11
2662.9380909906
 21
-999.4488920068528
 31
0
  0
LINE
  8
1
 62
2
  6
CENTER
 10
2718.934406802776
 20
-962.9619924891316
 30
0
 11
2718.934406802776
 21
-1106.586545676673
 31
0
  0
LINE
  8
1
 62
2
  6
CENTER
 10
2648.870003308897
 20
-1034.28751022691
 30
0
 11
2789.784659266476
 21
-1034.28751022691
 31
0
  0
LINE
  8
1
 62
7
 10
2761.19552801276
 20
-1007.393189296618
 30
0
 11
2764.636986630866
 21
-1012.308101562352
 31
0
  0
LINE
  8
1
 62
7
 10
2765.291288234205
 20
-1004.525307114863
 30
0
 11
2768.732746852314
 21
-1009.440219380597
 31
0
  0
LINE
  8
1
 62
7
 10
2765.784139503568
 20
-1013.94640565093
 30
0
 11
2769.879899725013
 21
-1011.078523469175
 31
0
  0
LINE
  8
1
 62
7
 10
2766.036937601462
 20
-1005.590204772438
 30
0
 11
2772.88399627725
 21
-1000.795842673087
 31
0
  0
LINE
  8
1
 62
7
 10
2767.987097485057
 20
-1008.375321723021
 30
0
 11
2774.604813200325
 21
-1003.74154729346
 31
0
  0
ARC
  8
1
 62
7
 10
2718.934406802773
 20
-1034.2875102269
 30
0
 40
30.99999999998881
 50
104.9217138310447
 51
112.3353876325699
  0
ARC
  8
1
 62
7
 10
2718.934406802782
 20
-1034.287510226901
 30
0
 40
30.99999999998918
 50
53.49314240104526
 51
60.9068162025748
  0
ARC
  8
1
 62
7
 10
2718.934406802969
 20
-1034.287510225944
 30
0
 40
59.84999999906655
 50
61.85795632515305
 51
94.44092758648478
  0
ARC
  8
1
 62
7
 10
2718.934406803134
 20
-1034.287510226718
 30
0
 40
59.84999999961481
 50
34.32081578644483
 51
43.01235615633904
  0
ARC
  8
1
 62
7
 10
2718.934406803134
 20
-1034.287510226718
 30
0
 40
59.84999999961747
 50
10.42938489529314
 51
25.17823109252488
  0
ARC
  8
1
 62
7
 10
2718.934406802767
 20
-1034.287510226907
 30
0
 40
30.99999999998774
 50
156.3502852610462
 51
163.7639590625748
  0
ARC
  8
1
 62
7
 10
2718.934406802767
 20
-1034.287510226916
 30
0
 40
30.99999999998948
 50
207.7788566910486
 51
215.1925304925768
  0
ARC
  8
1
 62
7
 10
2718.934406802783
 20
-1034.287510226919
 30
0
 40
30.99999999999028
 50
310.6359995510508
 51
318.0496733525789
  0
ARC
  8
1
 62
7
 10
2718.934406802787
 20
-1034.28751022691
 30
0
 40
30.99999999998898
 50
2.064570981049451
 51
9.478244782577104
  0
ARC
  8
1
 62
7
 10
2718.934406802143
 20
-1034.287510226157
 30
0
 40
59.84999999906682
 50
113.2865277551545
 51
145.8694990164865
  0
ARC
  8
1
 62
7
 10
2718.934406801794
 20
-1034.287510226937
 30
0
 40
59.84999999906857
 50
164.7150991851553
 51
197.2980704464862
  0
ARC
  8
1
 62
7
 10
2718.934406802181
 20
-1034.287510227698
 30
0
 40
59.84999999906522
 50
216.1436706151562
 51
248.7266418764882
  0
ARC
  8
1
 62
7
 10
2718.934406803022
 20
-1034.287510227866
 30
0
 40
59.8499999990235
 50
273.2025907094509
 51
300.155213306488
  0
ARC
  8
1
 62
7
 10
2718.934406803675
 20
-1034.287510227315
 30
0
 40
59.84999999906852
 50
319.0008134751597
 51
351.5837847364896
  0
ARC
  8
1
 62
7
 10
2718.934406802774
 20
-1034.287510226921
 30
0
 40
30.99999999998963
 50
259.2074281210487
 51
259.701892237308
  0
ARC
  8
1
 62
7
 10
2790.94082139842
 20
-1034.28751022691
 30
0
 40
72.90085913161863
 50
3.991431710410865
 51
26.25623042220209
  0
ARC
  8
1
 62
7
 10
2790.940821398434
 20
-1034.28751022691
 30
0
 40
72.90085913160587
 50
332.6433332075281
 51
356.0085682895875
  0
ARC
  8
1
 62
7
 10
2909.859039596898
 20
-1034.287510226799
 30
0
 40
34.84835906683934
 50
132.7841920877854
 51
171.6088861333023
  0
ARC
  8
1
 62
7
 10
2909.859039596883
 20
-1034.28751022703
 30
0
 40
34.84835906682326
 50
188.3911138666869
 51
227.215807912224
  0
ARC
  8
1
 62
7
 10
2718.934406802912
 20
-1034.287510226835
 30
0
 40
63.49999999984478
 50
27.57186129801388
 51
28.75326878666697
  0
ARC
  8
1
 62
7
 10
2781.520929325877
 20
-1001.600987703809
 30
0
 40
0.9134774768988972
 50
16.42755606167124
 51
125.0000000000141
  0
ARC
  8
1
 62
7
 10
2718.934406802912
 20
-1034.287510226835
 30
0
 40
63.49999999984558
 50
31.83182820570649
 51
33.00602441723071
  0
ARC
  8
1
 62
7
 10
2718.934406802792
 20
-1034.287510226901
 30
0
 40
59.84999999999983
 50
274.7037595589731
 51
25.17823109254418
  0
ARC
  8
1
 62
7
 10
2718.934406802792
 20
-1034.287510226901
 30
0
 40
59.85000000000044
 50
34.32081578640496
 51
62.15958017002379
  0
ARC
  8
1
 62
7
 10
2718.934406803998
 20
-1034.287510226593
 30
0
 40
29.99999999875495
 50
12.57057328112065
 51
12.57057328112404
  0
ARC
  8
1
 62
7
 10
2718.93440680254
 20
-1034.287510227067
 30
0
 40
30.000000000298
 50
35.52024328321876
 51
37.31135610173706
  0
ARC
  8
1
 62
7
 10
2718.934406802779
 20
-1034.287510226908
 30
0
 40
69.37599999999718
 50
36.9775999926602
 51
61.06328259621671
  0
ARC
  8
1
 62
7
 10
2718.934406802776
 20
-1034.28751022691
 30
0
 40
69.37600000000097
 50
298.9362537343616
 51
331.0637462656383
  0
ARC
  8
1
 62
7
 10
2718.934406802773
 20
-1034.287510226914
 30
0
 40
69.3759999999937
 50
208.9362537343608
 51
241.0637462656391
  0
ARC
  8
1
 62
7
 10
2718.934406802789
 20
-1034.287510226903
 30
0
 40
29.99999999999924
 50
285.9615646178173
 51
12.57057328119573
  0
ARC
  8
1
 62
7
 10
2718.934406802789
 20
-1034.287510226903
 30
0
 40
29.99999999999854
 50
164.3045446077397
 51
243.7456743664005
  0
ARC
  8
1
 62
7
 10
2718.934406802703
 20
-1034.287510226491
 30
0
 40
30.00000000041906
 50
275.8517499233767
 51
285.9615646177587
  0
ARC
  8
1
 62
7
 10
2718.934406802782
 20
-1034.287510227036
 30
0
 40
29.99999999987725
 50
243.7456743662998
 51
255.6954553922174
  0
ARC
  8
1
 62
7
 10
2718.934406802792
 20
-1034.287510226901
 30
0
 40
59.8499999999998
 50
273.2025907096188
 51
274.7037595589731
  0
ARC
  8
1
 62
7
 10
2718.934406802792
 20
-1034.287510226901
 30
0
 40
59.85000000000018
 50
265.275373183715
 51
266.4700209807105
  0
ARC
  8
1
 62
7
 10
2718.93440680278
 20
-1034.287510226912
 30
0
 40
69.37600000000293
 50
118.9367174037849
 51
144.5765492334189
  0
ARC
  8
1
 62
7
 10
2718.934406802792
 20
-1034.287510226901
 30
0
 40
59.8500000000092
 50
145.2753731837452
 51
147.403054105614
  0
ARC
  8
1
 62
7
 10
2718.934406802792
 20
-1034.287510226901
 30
0
 40
59.85000000000054
 50
154.7037595590021
 51
265.275373183715
  0
ARC
  8
1
 62
7
 10
2718.934406804181
 20
-1034.287510227431
 30
0
 40
30.00000000148409
 50
155.8517499235103
 51
164.3045446074877
  0
ARC
  8
1
 62
7
 10
2718.934406802789
 20
-1034.287510226903
 30
0
 40
30.00000000000195
 50
37.31135610177619
 51
120.9956303253942
  0
ARC
  8
1
 62
7
 10
2718.934406803302
 20
-1034.287510227523
 30
0
 40
30.00000000079607
 50
120.9956303256242
 51
135.6954553921499
  0
ARC
  8
1
 62
7
 10
2718.934406802587
 20
-1034.287510226786
 30
0
 40
69.3759999997734
 50
144.5765492334115
 51
145.5400421929373
  0
ARC
  8
1
 62
7
 10
2718.934406802792
 20
-1034.287510226901
 30
0
 40
59.85000000001089
 50
152.5941089777132
 51
154.7037595590021
  0
ARC
  8
1
 62
7
 10
2718.934406802792
 20
-1034.287510226901
 30
0
 40
59.84999999999978
 50
62.15958017002379
 51
145.2753731837452
  0
ARC
  8
1
 62
2
 10
2718.934406802776
 20
-1034.28751022691
 30
0
 40
90.2313123606324
 50
253.5602612377297
 51
286.4397387622717
  0
CIRCLE
  8
1
 62
7
 10
2662.284406802777
 20
-1090.93751022691
 30
0
 40
2.25
  0
CIRCLE
  8
1
 62
7
 10
2775.584406802775
 20
-1090.93751022691
 30
0
 40
2.25000000000091
  0
CIRCLE
  8
1
 62
7
 10
2775.584406802775
 20
-977.6375102269102
 30
0
 40
2.25000000000091
  0
CIRCLE
  8
1
 62
7
 10
2662.284406802777
 20
-977.6375102269102
 30
0
 40
2.25
  0
CIRCLE
  8
1
 62
7
 10
2718.934406802776
 20
-1034.28751022691
 30
0
 40
27.00000000000227
  0
CIRCLE
  8
1
 62
7
 10
2718.934406802776
 20
-1034.28751022691
 30
0
 40
26.49999999999948
  0
POLYLINE
  8
1
 62
7
 66
1
  0
VERTEX
  8
1
 10
2707.153553526346
 20
-1005.613279704005
 30
0
 42
-0.009337928707294808
  0
VERTEX
  8
1
 10
2706.910509013861
 20
-999.2981870840649
 30
0
 42
-0.01439185393883832
  0
VERTEX
  8
1
 10
2706.986024603753
 20
-993.4992082146425
 30
0
 42
-0.01314987576666872
  0
VERTEX
  8
1
 10
2707.35647399107
 20
-988.2091767508651
 30
0
 42
-0.01938654744491879
  0
VERTEX
  8
1
 10
2707.973626375268
 20
-983.9494320153599
 30
0
 42
-0.04670145125290315
  0
VERTEX
  8
1
 10
2708.915776186244
 20
-980.7767695525871
 30
0
 42
-0.06047992972957092
  0
VERTEX
  8
1
 10
2710.515537014473
 20
-977.8690472557548
 30
0
 42
-0.07685565377066909
  0
VERTEX
  8
1
 10
2712.842844631993
 20
-975.5082602941128
 30
0
  0
VERTEX
  8
1
 10
2714.300148025697
 20
-974.6171981312676
 30
0
  0
SEQEND
  8
1
  0
POLYLINE
  8
1
 62
7
 66
1
  0
VERTEX
  8
1
 10
2730.419052005243
 20
-1006.032370436581
 30
0
 42
-0.02233281162076047
  0
VERTEX
  8
1
 10
2733.825215924297
 20
-1000.5789553218
 30
0
 42
-0.01992045644031916
  0
VERTEX
  8
1
 10
2737.317123135727
 20
-995.9601334654486
 30
0
 42
-0.02413030607510441
  0
VERTEX
  8
1
 10
2740.834090593885
 20
-992.1191644133534
 30
0
 42
-0.01037394141599255
  0
VERTEX
  8
1
 10
2743.88170604524
 20
-989.2411984243274
 30
0
 42
-0.01082127311775862
  0
VERTEX
  8
1
 10
2745.680508071591
 20
-987.7597251223507
 30
0
 42
0.0126697210782544
  0
VERTEX
  8
1
 10
2746.797807176864
 20
-986.8609881570026
 30
0
 42
0.04285233357810986
  0
VERTEX
  8
1
 10
2747.744848152157
 20
-985.9108642967395
 30
0
 42
0.08811115518678636
  0
VERTEX
  8
1
 10
2748.344626164468
 20
-984.863096114861
 30
0
 42
0.1318827044102041
  0
VERTEX
  8
1
 10
2748.420136380799
 20
-983.6714261846671
 30
0
 42
0.1126171909424845
  0
VERTEX
  8
1
 10
2747.794373968149
 20
-982.2895970794571
 30
0
  0
VERTEX
  8
1
 10
2747.163201515642
 20
-981.5129173903769
 30
0
  0
SEQEND
  8
1
  0
POLYLINE
  8
1
 62
7
 66
1
  0
VERTEX
  8
1
 10
2734.007581086763
 20
-1007.198777938248
 30
0
 42
-0.01740716817477855
  0
VERTEX
  8
1
 10
2741.260764327856
 20
-1001.09814808097
 30
0
 42
-0.01326173148248353
  0
VERTEX
  8
1
 10
2745.529766688389
 20
-997.9875538557687
 30
0
 42
-0.02075328468242142
  0
VERTEX
  8
1
 10
2750.011331999864
 20
-995.118329481198
 30
0
 42
-0.03332345282407422
  0
VERTEX
  8
1
 10
2752.951508663691
 20
-993.6447152845944
 30
0
 42
-0.04527887672359029
  0
VERTEX
  8
1
 10
2755.678789627
 20
-992.7998400949398
 30
0
 42
-0.05568441701086622
  0
VERTEX
  8
1
 10
2758.50508877497
 20
-992.5194360492858
 30
0
 42
-0.06785426688517415
  0
VERTEX
  8
1
 10
2761.323857851151
 20
-992.942134634266
 30
0
  0
VERTEX
  8
1
 10
2762.697122282179
 20
-993.460469752817
 30
0
  0
SEQEND
  8
1
  0
POLYLINE
  8
1
 62
7
 66
1
  0
VERTEX
  8
1
 10
2730.419052005265
 20
-1006.032370436542
 30
0
 42
-0.0223328116206471
  0
VERTEX
  8
1
 10
2733.825215924305
 20
-1000.578955321788
 30
0
 42
-0.01992045644017496
  0
VERTEX
  8
1
 10
2737.317123135726
 20
-995.9601334654487
 30
0
 42
-0.02413030607485969
  0
VERTEX
  8
1
 10
2740.834090593885
 20
-992.1191644133534
 30
0
 42
-0.01037394141602386
  0
VERTEX
  8
1
 10
2743.88170604524
 20
-989.2411984243274
 30
0
 42
-0.01082127311787688
  0
VERTEX
  8
1
 10
2745.68050807159
 20
-987.7597251223513
 30
0
 42
0.0126697210775737
  0
VERTEX
  8
1
 10
2746.797807176861
 20
-986.8609881570045
 30
0
 42
0.04285233357749984
  0
VERTEX
  8
1
 10
2747.744848152152
 20
-985.9108642967428
 30
0
 42
0.08811115518568578
  0
VERTEX
  8
1
 10
2748.344626164465
 20
-984.863096114867
 30
0
 42
0.1318827044100127
  0
VERTEX
  8
1
 10
2748.420136380798
 20
-983.6714261846753
 30
0
 42
0.1126171909429797
  0
VERTEX
  8
1
 10
2747.794373968153
 20
-982.2895970794683
 30
0
  0
VERTEX
  8
1
 10
2747.163201515651
 20
-981.5129173903905
 30
0
  0
SEQEND
  8
1
  0
POLYLINE
  8
1
 62
7
 66
1
  0
VERTEX
  8
1
 10
2714.300148025672
 20
-974.6171981312805
 30
0
  0
VERTEX
  8
1
 10
2714.300148025697
 20
-974.6171981312676
 30
0
  0
SEQEND
  8
1
  0
POLYLINE
  8
1
 62
7
 66
1
  0
VERTEX
  8
1
 10
2762.697122282147
 20
-993.4604697528019
 30
0
  0
VERTEX
  8
1
 10
2762.697122282179
 20
-993.460469752817
 30
0
  0
SEQEND
  8
1
  0
POLYLINE
  8
1
 62
7
 66
1
  0
VERTEX
  8
1
 10
2777.795610579313
 20
-1023.453250216212
 30
0
  0
VERTEX
  8
1
 10
2777.79561057932
 20
-1023.453250216167
 30
0
  0
SEQEND
  8
1
  0
POLYLINE
  8
1
 62
7
 66
1
  0
VERTEX
  8
1
 10
2689.170748769158
 20
-1025.620061902328
 30
0
 42
-0.009337928707219141
  0
VERTEX
  8
1
 10
2684.081874769162
 20
-1021.872685907629
 30
0
 42
-0.01439185393897627
  0
VERTEX
  8
1
 10
2679.595133722969
 20
-1018.198041255866
 30
0
 42
-0.01314987576662672
  0
VERTEX
  8
1
 10
2675.690191996348
 20
-1014.610131593121
 30
0
 42
-0.01938654744494886
  0
VERTEX
  8
1
 10
2672.744577672514
 20
-1011.47171502864
 30
0
 42
-0.01515004290142265
  0
VERTEX
  8
1
 10
2671.424914542998
 20
-1009.7012453522
 30
0
  0
VERTEX
  8
1
 10
2671.124299229178
 20
-1009.224424362142
 30
0
  0
SEQEND
  8
1
  0
POLYLINE
  8
1
 62
7
 66
1
  0
VERTEX
  8
1
 10
2693.600585580426
 20
-1052.153609473124
 30
0
 42
-0.01740716817500107
  0
VERTEX
  8
1
 10
2684.418729193727
 20
-1054.503048784667
 30
0
 42
-0.01326173148249343
  0
VERTEX
  8
1
 10
2679.222854716648
 20
-1055.45334663615
 30
0
 42
-0.02075328468233297
  0
VERTEX
  8
1
 10
2673.94019409158
 20
-1056.093950158619
 30
0
 42
-0.03332345282426154
  0
VERTEX
  8
1
 10
2670.651809213704
 20
-1056.145935828736
 30
0
 42
-0.05368370026954201
  0
VERTEX
  8
1
 10
2667.368328382741
 20
-1055.601969805794
 30
0
 42
-0.06846263194986106
  0
VERTEX
  8
1
 10
2664.332198168569
 20
-1054.289458531577
 30
0
 42
-0.08429477546598345
  0
VERTEX
  8
1
 10
2661.791373604291
 20
-1052.083472040797
 30
0
  0
SEQEND
  8
1
  0
POLYLINE
  8
1
 62
7
 66
1
  0
VERTEX
  8
1
 10
2741.989871199833
 20
-1055.010578567231
 30
0
 42
-0.01740716817483349
  0
VERTEX
  8
1
 10
2746.323560421677
 20
-1063.439427214174
 30
0
 42
-0.0132617314826785
  0
VERTEX
  8
1
 10
2748.406223163576
 20
-1068.293569104519
 30
0
 42
-0.02075328468230127
  0
VERTEX
  8
1
 10
2750.206267994585
 20
-1073.301234704277
 30
0
 42
-0.03332345282454905
  0
VERTEX
  8
1
 10
2750.988684749808
 20
-1076.495605007809
 30
0
 42
-0.04527887672366525
  0
VERTEX
  8
1
 10
2751.205500047752
 20
-1079.342509759552
 30
0
 42
-0.05568441701116995
  0
VERTEX
  8
1
 10
2750.849963052854
 20
-1082.160343457252
 30
0
 42
-0.06785426688508137
  0
VERTEX
  8
1
 10
2749.810627276811
 20
-1084.814380823834
 30
0
  0
VERTEX
  8
1
 10
2748.999707818262
 20
-1086.037874233869
 30
0
  0
SEQEND
  8
1
  0
POLYLINE
  8
1
 62
7
 66
1
  0
VERTEX
  8
1
 10
2749.51120097313
 20
-1029.18264409102
 30
0
 42
-0.009337928707240364
  0
VERTEX
  8
1
 10
2755.722043528379
 20
-1030.350933518932
 30
0
 42
-0.01439185393894806
  0
VERTEX
  8
1
 10
2761.358826090911
 20
-1031.714949968637
 30
0
 42
-0.01314987576679898
  0
VERTEX
  8
1
 10
2766.433792677809
 20
-1033.253254157728
 30
0
 42
-0.0193865474449754
  0
VERTEX
  8
1
 10
2770.449407394491
 20
-1034.802815619611
 30
0
 42
-0.03972774306833721
  0
VERTEX
  8
1
 10
2773.136552390391
 20
-1036.292060849015
 30
0
 42
-0.05006703532054219
  0
VERTEX
  8
1
 10
2775.329594315126
 20
-1038.111851103556
 30
0
 42
-0.06180771787047102
  0
VERTEX
  8
1
 10
2777.055642650929
 20
-1040.362565162418
 30
0
 42
-0.07296876125378123
  0
VERTEX
  8
1
 10
2778.139879185786
 20
-1043.047335562465
 30
0
  0
SEQEND
  8
1
  0
POLYLINE
  8
1
 62
7
 66
1
  0
VERTEX
  8
1
 10
2704.004208134185
 20
-1007.691661533615
 30
0
 42
-0.02233281162043629
  0
VERTEX
  8
1
 10
2701.864264977333
 20
-1001.628466637964
 30
0
 42
-0.01992045644029931
  0
VERTEX
  8
1
 10
2700.430293173356
 20
-996.0185953222241
 30
0
 42
-0.02413030607488203
  0
VERTEX
  8
1
 10
2699.620095988744
 20
-990.8741144074033
 30
0
 42
-0.01037394141575475
  0
VERTEX
  8
1
 10
2699.270168726852
 20
-986.6970102568346
 30
0
 42
-0.01160005308582829
  0
VERTEX
  8
1
 10
2699.234270101537
 20
-984.3011453821149
 30
0
 42
0.01642410122896781
  0
VERTEX
  8
1
 10
2699.218512253643
 20
-982.7429306386856
 30
0
 42
0.05418511478897148
  0
VERTEX
  8
1
 10
2699.00483063264
 20
-981.3227799739296
 30
0
 42
0.1116668277687081
  0
VERTEX
  8
1
 10
2698.402994352393
 20
-980.18291508048
 30
0
 42
0.1455966093571061
  0
VERTEX
  8
1
 10
2697.222772526766
 20
-979.4655576509691
 30
0
 42
0.09925527315545675
  0
VERTEX
  8
1
 10
2695.273934269623
 20
-979.3129293780297
 30
0
  0
SEQEND
  8
1
  0
POLYLINE
  8
1
 62
7
 66
1
  0
VERTEX
  8
1
 10
2688.832108381688
 20
-1029.37816915422
 30
0
 42
-0.02233281162064152
  0
VERTEX
  8
1
 10
2682.757478993021
 20
-1027.270903900971
 30
0
 42
-0.0199204564401953
  0
VERTEX
  8
1
 10
2677.477438189788
 20
-1024.894330647321
 30
0
 42
-0.02413030607483038
  0
VERTEX
  8
1
 10
2672.950171367462
 20
-1022.320236927122
 30
0
 42
-0.01037394141596485
  0
VERTEX
  8
1
 10
2669.46620375776
 20
-1019.989439237949
 30
0
 42
-0.01012708965356527
  0
VERTEX
  8
1
 10
2667.664699122106
 20
-1018.60066142232
 30
0
 42
0.00985732255850438
  0
VERTEX
  8
1
 10
2666.627079340803
 20
-1017.77312360167
 30
0
 42
0.03459330041786397
  0
VERTEX
  8
1
 10
2665.579615045882
 20
-1017.07878561863
 30
0
 42
0.0704603936216328
  0
VERTEX
  8
1
 10
2664.517814872224
 20
-1016.661471971278
 30
0
 42
0.1133501790733885
  0
VERTEX
  8
1
 10
2663.437187454714
 20
-1016.665007157689
 30
0
 42
0.1177630978671111
  0
VERTEX
  8
1
 10
2662.333241428233
 20
-1017.233215675939
 30
0
 42
0.07918905328397781
  0
VERTEX
  8
1
 10
2661.201485427665
 20
-1018.509922024104
 30
0
  0
SEQEND
  8
1
  0
POLYLINE
  8
1
 62
7
 66
1
  0
VERTEX
  8
1
 10
2696.327653316427
 20
-1054.761510735061
 30
0
 42
-0.02233281162083469
  0
VERTEX
  8
1
 10
2690.892657525707
 20
-1058.196988840369
 30
0
 42
-0.01992045644012628
  0
VERTEX
  8
1
 10
2685.742526141464
 20
-1060.843321782161
 30
0
 42
-0.02413030607487606
  0
VERTEX
  8
1
 10
2680.907313938223
 20
-1062.777960329937
 30
0
 42
-0.01037394141584353
  0
VERTEX
  8
1
 10
2676.91280465094
 20
-1064.048607301805
 30
0
 42
-0.01160005308555244
  0
VERTEX
  8
1
 10
2674.584997306421
 20
-1064.616735963305
 30
0
 42
0.01642410122897167
  0
VERTEX
  8
1
 10
2673.069356710927
 20
-1064.978834129141
 30
0
 42
0.05418511478868993
  0
VERTEX
  8
1
 10
2671.732360822254
 20
-1065.503171558124
 30
0
 42
0.1116668277691547
  0
VERTEX
  8
1
 10
2670.754995892725
 20
-1066.343562347024
 30
0
 42
0.1455966093566683
  0
VERTEX
  8
1
 10
2670.318248174664
 20
-1067.653820592611
 30
0
 42
0.09925527315521872
  0
VERTEX
  8
1
 10
2670.603103920393
 20
-1069.587760391655
 30
0
  0
SEQEND
  8
1
  0
POLYLINE
  8
1
 62
7
 66
1
  0
VERTEX
  8
1
 10
2720.846544720999
 20
-1064.727512338967
 30
0
 42
-0.01439196146642292
  0
VERTEX
  8
1
 10
2720.45158206894
 20
-1068.917040728077
 30
0
 42
-0.01527322347541385
  0
VERTEX
  8
1
 10
2719.808949344498
 20
-1073.07623334209
 30
0
  0
SEQEND
  8
1
  0
POLYLINE
  8
1
 62
7
 66
1
  0
VERTEX
  8
1
 10
2743.925557272572
 20
-1051.771571488424
 30
0
 42
-0.02233281162083158
  0
VERTEX
  8
1
 10
2748.484301108753
 20
-1056.305834790581
 30
0
 42
-0.01992045644005204
  0
VERTEX
  8
1
 10
2752.210297004473
 20
-1060.73797715053
 30
0
 42
-0.02413030607474382
  0
VERTEX
  8
1
 10
2755.172366060237
 20
-1065.021462912124
 30
0
 42
-0.01037394141577085
  0
VERTEX
  8
1
 10
2757.300017197124
 20
-1068.633075960753
 30
0
 42
-0.01082127311779149
  0
VERTEX
  8
1
 10
2758.344075763726
 20
-1070.716437087388
 30
0
 42
0.01266972107750061
  0
VERTEX
  8
1
 10
2758.9716570767
 20
-1072.005710960205
 30
0
 42
0.0428523335771562
  0
VERTEX
  8
1
 10
2759.687222905924
 20
-1073.140430089667
 30
0
 42
0.08811115518582785
  0
VERTEX
  8
1
 10
2760.575258188567
 20
-1073.958320769274
 30
0
 42
0.1318827044102404
  0
VERTEX
  8
1
 10
2761.720247861798
 20
-1074.297109292523
 30
0
 42
0.1126171909435448
  0
VERTEX
  8
1
 10
2763.206676862788
 20
-1073.994521952915
 30
0
  0
VERTEX
  8
1
 10
2764.104332654058
 20
-1073.552001801257
 30
0
  0
SEQEND
  8
1
  0
POLYLINE
  8
1
 62
7
 66
1
  0
VERTEX
  8
1
 10
2749.316081324433
 20
-1025.477464127626
 30
0
 42
-0.01989453723177873
  0
VERTEX
  8
1
 10
2754.953563354078
 20
-1024.887234555106
 30
0
 42
-0.01998012061345782
  0
VERTEX
  8
1
 10
2760.361392759594
 20
-1024.762968047555
 30
0
 42
-0.02413030607479339
  0
VERTEX
  8
1
 10
2765.55717663133
 20
-1025.117838896052
 30
0
 42
-0.01037394141587505
  0
VERTEX
  8
1
 10
2769.707418200913
 20
-1025.706178158224
 30
0
 42
-0.01082127311784935
  0
VERTEX
  8
1
 10
2771.987215387817
 20
-1026.188854717702
 30
0
 42
0.01266972107828447
  0
VERTEX
  8
1
 10
2773.386500839543
 20
-1026.502041001125
 30
0
 42
0.04285233357774368
  0
VERTEX
  8
1
 10
2774.719807975778
 20
-1026.650074913452
 30
0
 42
0.0881111551865723
  0
VERTEX
  8
1
 10
2775.91294160076
 20
-1026.465727469883
 30
0
 42
0.1318827044110291
  0
VERTEX
  8
1
 10
2776.891706518732
 20
-1025.781769685618
 30
0
 42
0.1126171909432312
  0
VERTEX
  8
1
 10
2777.581907533933
 20
-1024.430972575858
 30
0
  0
VERTEX
  8
1
 10
2777.79561057932
 20
-1023.453250216167
 30
0
  0
SEQEND
  8
1
  0
POLYLINE
  8
1
 62
7
 66
1
  0
VERTEX
  8
1
 10
2714.268882232625
 20
-1071.71102801864
 30
0
 42
-0.006361125987562565
  0
VERTEX
  8
1
 10
2713.219378289779
 20
-1073.877135750369
 30
0
 42
-0.01326173148262363
  0
VERTEX
  8
1
 10
2710.722776319709
 20
-1078.531935014691
 30
0
 42
-0.02075328468207816
  0
VERTEX
  8
1
 10
2707.929935295056
 20
-1083.061495165927
 30
0
 42
-0.03332345282414752
  0
VERTEX
  8
1
 10
2705.920304892714
 20
-1085.664870525133
 30
0
 42
-0.03914860486645606
  0
VERTEX
  8
1
 10
2704.110022178082
 20
-1087.38828691247
 30
0
 42
-0.04682403612718844
  0
VERTEX
  8
1
 10
2702.040492719851
 20
-1088.771599642985
 30
0
 42
-0.0561219681218333
  0
VERTEX
  8
1
 10
2699.735731016006
 20
-1089.700163506034
 30
0
 42
-0.0642661095862669
  0
VERTEX
  8
1
 10
2697.219751564531
 20
-1090.059333290969
 30
0
  0
SEQEND
  8
1
  0
POLYLINE
  8
1
 62
7
 66
1
  0
VERTEX
  8
1
 10
2715.577298646383
 20
-1086.666296064259
 30
0
 42
-0.004783236740241005
  0
VERTEX
  8
1
 10
2715.34278054923
 20
-1087.165674156777
 30
0
 42
-0.003177561826137589
  0
VERTEX
  8
1
 10
2715.023548278493
 20
-1087.814513469113
 30
0
 42
0.003174784814347104
  0
VERTEX
  8
1
 10
2714.70342350227
 20
-1088.465237786133
 30
0
 42
0.009779265093604318
  0
VERTEX
  8
1
 10
2714.405080734924
 20
-1089.113411495104
 30
0
 42
0.01738937131830104
  0
VERTEX
  8
1
 10
2714.151194490817
 20
-1089.754598983291
 30
0
 42
0.02677913436878791
  0
VERTEX
  8
1
 10
2713.964439284313
 20
-1090.384364637962
 30
0
 42
0.03848292233288368
  0
VERTEX
  8
1
 10
2713.867489629777
 20
-1090.998272846382
 30
0
 42
0.05182007091014183
  0
VERTEX
  8
1
 10
2713.883020041571
 20
-1091.591887995819
 30
0
 42
0.06318442010350635
  0
VERTEX
  8
1
 10
2714.033705034058
 20
-1092.160774473538
 30
0
 42
0.06660002870623817
  0
VERTEX
  8
1
 10
2714.342219121603
 20
-1092.700496666807
 30
0
 42
0.0599664670871535
  0
VERTEX
  8
1
 10
2714.831236818568
 20
-1093.206618962891
 30
0
 42
0.04807080146500543
  0
VERTEX
  8
1
 10
2715.523432639317
 20
-1093.674705749056
 30
0
  0
SEQEND
  8
1
  0
POLYLINE
  8
1
 62
7
 66
1
  0
VERTEX
  8
1
 10
2669.18258221186
 20
-1002.360746084531
 30
0
 42
-0.01660440335895314
  0
VERTEX
  8
1
 10
2669.232601665531
 20
-1001.701602495808
 30
0
 42
-0.0169395640459593
  0
VERTEX
  8
1
 10
2669.327767074907
 20
-1001.039116106494
 30
0
  0
VERTEX
  8
1
 10
2669.39286515019
 20
-1000.70688857261
 30
0
  0
SEQEND
  8
1
  0
POLYLINE
  8
1
 62
7
 66
1
  0
VERTEX
  8
1
 10
2866.424330220782
 20
-988.3904113478264
 30
0
 42
-0.04365732533636483
  0
VERTEX
  8
1
 10
2866.637353380885
 20
-988.0399756723576
 30
0
 42
-0.07392979999905898
  0
VERTEX
  8
1
 10
2866.846660341436
 20
-987.8352499431645
 30
0
 42
-0.1106985927691173
  0
VERTEX
  8
1
 10
2867.053558472878
 20
-987.7541616124955
 30
0
 42
-0.1089877115635399
  0
VERTEX
  8
1
 10
2867.259355145655
 20
-987.7746381325994
 30
0
 42
-0.06887267603831825
  0
VERTEX
  8
1
 10
2867.465357730207
 20
-987.8746069557245
 30
0
 42
-0.03518648908245543
  0
VERTEX
  8
1
 10
2867.672873596978
 20
-988.0319955341196
 30
0
 42
-0.01387882016153692
  0
VERTEX
  8
1
 10
2867.883210116411
 20
-988.2247313200329
 30
0
 42
0.001433697093119957
  0
VERTEX
  8
1
 10
2868.097674658947
 20
-988.4307417657133
 30
0
 42
0.01581833157256472
  0
VERTEX
  8
1
 10
2868.317574595029
 20
-988.6279543234091
 30
0
 42
0.03334437098917423
  0
VERTEX
  8
1
 10
2868.544217295101
 20
-988.794296445369
 30
0
 42
0.05761631743405078
  0
VERTEX
  8
1
 10
2868.778910129604
 20
-988.9076955838414
 30
0
 42
0.08673954677493624
  0
VERTEX
  8
1
 10
2869.02296046898
 20
-988.9460791910744
 30
0
 42
0.1009093671372179
  0
VERTEX
  8
1
 10
2869.277675683675
 20
-988.8873747193177
 30
0
 42
0.08396405897784891
  0
VERTEX
  8
1
 10
2869.544363144127
 20
-988.7095096208187
 30
0
 42
0.05697908325450713
  0
VERTEX
  8
1
 10
2869.824330220781
 20
-988.3904113478264
 30
0
  0
SEQEND
  8
1
  0
POLYLINE
  8
1
 62
7
 66
1
  0
VERTEX
  8
1
 10
2811.205480403884
 20
-998.6371751011324
 30
0
 42
0.0272879358826569
  0
VERTEX
  8
1
 10
2810.643171918458
 20
-998.8383546786329
 30
0
 42
0.04998917792205618
  0
VERTEX
  8
1
 10
2810.284858985088
 20
-999.0371734343191
 30
0
 42
0.09926752611031664
  0
VERTEX
  8
1
 10
2810.102954621178
 20
-999.2342501196297
 30
0
 42
0.1591021669666789
  0
VERTEX
  8
1
 10
2810.06987184413
 20
-999.4302034860023
 30
0
 42
0.1190415993972154
  0
VERTEX
  8
1
 10
2810.158023671348
 20
-999.6256522848751
 30
0
 42
0.05727246906046093
  0
VERTEX
  8
1
 10
2810.339823120233
 20
-999.8212152676862
 30
0
 42
0.0258487755044431
  0
VERTEX
  8
1
 10
2810.58768320819
 20
-1000.017511185874
 30
0
 42
0.009232257501495105
  0
VERTEX
  8
1
 10
2810.874016952623
 20
-1000.215158790876
 30
0
 42
-0.002451201373938421
  0
VERTEX
  8
1
 10
2811.171237370932
 20
-1000.414776834131
 30
0
 42
-0.01434955276500043
  0
VERTEX
  8
1
 10
2811.451757480522
 20
-1000.616984067077
 30
0
 42
-0.03148376907282116
  0
VERTEX
  8
1
 10
2811.687990298795
 20
-1000.822399241152
 30
0
 42
-0.06256546684168117
  0
VERTEX
  8
1
 10
2811.852348843154
 20
-1001.031641107793
 30
0
 42
-0.1176956935683465
  0
VERTEX
  8
1
 10
2811.917246131004
 20
-1001.24532841844
 30
0
 42
-0.15175540115828
  0
VERTEX
  8
1
 10
2811.855095179746
 20
-1001.46407992453
 30
0
 42
-0.1028945992438546
  0
VERTEX
  8
1
 10
2811.638309006784
 20
-1001.688514377501
 30
0
 42
-0.0551676970203171
  0
VERTEX
  8
1
 10
2811.239300629521
 20
-1001.919250528793
 30
0
  0
VERTEX
  8
1
 10
2810.962842182214
 20
-1002.037175101132
 30
0
  0
SEQEND
  8
1
  0
ARC
  8
1
 62
7
 10
2853.988680530041
 20
-1000.337175101132
 30
0
 40
1.699999999999591
 50
90
 51
180
  0
ARC
  8
1
 62
7
 10
2868.157663554114
 20
-1000.370508434466
 30
0
 40
1.666666666665947
 50
270
 51
0
  0
ARC
  8
1
 62
7
 10
2865.590996887449
 20
-997.8038417677989
 30
0
 40
0.8333333333334849
 50
270
 51
0
  0
ARC
  8
1
 62
7
 10
2886.088680530041
 20
-981.8495102269102
 30
0
 40
0.100000000001728
 50
0
 51
90
  0
ARC
  8
1
 62
7
 10
2886.088680530041
 20
-982.0405262349608
 30
0
 40
0.1000000000019328
 50
308.0000000008351
 51
0
  0
ARC
  8
1
 62
7
 10
2856.188680530043
 20
-985.8266983476123
 30
0
 40
0.500000000001819
 50
180
 51
240.0000000000158
  0
ARC
  8
1
 62
7
 10
2863.975655126257
 20
-990.3225102269097
 30
0
 40
0.5000000000002298
 50
254.4577317766955
 51
270
  0
ARC
  8
1
 62
7
 10
2874.838516723397
 20
-990.3225102269097
 30
0
 40
0.5000000000003415
 50
290.1407561939536
 51
308.0000000001652
  0
ARC
  8
1
 62
7
 10
2886.088680530041
 20
-1086.72551022691
 30
0
 40
0.09999999999990905
 50
270
 51
0
  0
ARC
  8
1
 62
7
 10
2886.088680530041
 20
-1086.534494218859
 30
0
 40
0.100000000001728
 50
0
 51
51.99999999908473
  0
ARC
  8
1
 62
7
 10
2856.188680530043
 20
-1082.748322106208
 30
0
 40
0.4999999999998441
 50
120.0000000000103
 51
180
  0
ARC
  8
1
 62
7
 10
2863.975655126257
 20
-1078.25251022691
 30
0
 40
0.4999999999997917
 50
105.5422682233184
 51
120.0000000000103
  0
ARC
  8
1
 62
7
 10
2874.838516723397
 20
-1078.25251022691
 30
0
 40
0.4999999999992743
 50
69.85924380600153
 51
90
  0
ARC
  8
1
 62
7
 10
2863.975655126257
 20
-1078.25251022691
 30
0
 40
0.5
 50
90
 51
105.5422682233184
  0
ARC
  8
1
 62
7
 10
2863.744663327191
 20
-1039.36751022691
 30
0
 40
0.08000000000015461
 50
90
 51
176.0085682900622
  0
ARC
  8
1
 62
7
 10
2863.761680530042
 20
-1039.36751022691
 30
0
 40
0.07999999999992724
 50
0
 51
90
  0
ARC
  8
1
 62
7
 10
2863.975655126257
 20
-990.3225102269097
 30
0
 40
0.4999999999998441
 50
239.9999999999897
 51
254.4577317766955
  0
ARC
  8
1
 62
7
 10
2863.744663327191
 20
-1029.20751022691
 30
0
 40
0.08000000000202673
 50
183.9914317105876
 51
270
  0
ARC
  8
1
 62
7
 10
2863.761680530042
 20
-1029.20751022691
 30
0
 40
0.07999999999992724
 50
270
 51
0
  0
ARC
  8
1
 62
7
 10
2874.838516723397
 20
-990.3225102269097
 30
0
 40
0.5000000000004548
 50
270
 51
290.1407561939536
  0
ARC
  8
1
 62
7
 10
2874.838516723397
 20
-1078.25251022691
 30
0
 40
0.5000000000010972
 50
51.99999999978665
 51
69.85924380600153
  0
ARC
  8
1
 62
7
 10
2875.110680530042
 20
-1029.18751022691
 30
0
 40
0.1000000000008186
 50
180
 51
270
  0
ARC
  8
1
 62
7
 10
2875.284803503156
 20
-1029.18751022691
 30
0
 40
0.09999999999990905
 50
270
 51
351.6088861332702
  0
ARC
  8
1
 62
7
 10
2875.110680530042
 20
-1039.38751022691
 30
0
 40
0.1000000000001364
 50
90
 51
180
  0
ARC
  8
1
 62
7
 10
2875.284803503156
 20
-1039.38751022691
 30
0
 40
0.09999999999919013
 50
8.391113866729803
 51
90
  0
ARC
  8
1
 62
7
 10
2777.669506527301
 20
-1004.037175101132
 30
0
 40
2
 50
90
 51
124.999999999976
  0
ARC
  8
1
 62
7
 10
2776.597490645111
 20
-1000.637175101132
 30
0
 40
1.999999999999659
 50
90
 51
124.9999999999816
  0
ARC
  8
1
 62
7
 10
2759.17853087243
 20
-1013.688604253871
 30
0
 40
2.000000000000508
 50
305.0000000000187
 51
14.51268488526784
  0
ARC
  8
1
 62
7
 10
2755.707889337419
 20
-1016.118773619109
 30
0
 40
2.000000000001318
 50
215.0000000000064
 51
235.487315114753
  0
ARC
  8
1
 62
7
 10
2782.134406802777
 20
-1001.48751022691
 30
0
 40
0.3000000000010914
 50
0
 51
90
  0
ARC
  8
1
 62
7
 10
2780.834135769253
 20
-1002.18751022691
 30
0
 40
1
 50
90
 51
125.0000000000934
  0
ARC
  8
1
 62
7
 10
2771.960250438739
 20
-994.3621638577864
 30
0
 40
2.999999999999923
 50
305.0000000000034
 51
36.97759999265275
  0
ARC
  8
1
 62
7
 10
2776.649406802778
 20
-1010.000787349645
 30
0
 40
2.999999999998181
 50
0
 51
125.0000000000093
  0
ARC
  8
1
 62
7
 10
2758.88873984106
 20
-1007.787645174735
 30
0
 40
0.5000000000008255
 50
125.0000000000422
 51
200.0685828218614
  0
ARC
  8
1
 62
7
 10
2755.707889337419
 20
-1016.118773619109
 30
0
 40
1.999999999999888
 50
235.487315114753
 51
305.0000000000401
  0
ARC
  8
1
 62
7
 10
2769.707401780737
 20
-1007.781138981551
 30
0
 40
0.5000000000006948
 50
34.99999999986181
 51
125.0000000000241
  0
ARC
  8
1
 62
7
 10
2769.297825758591
 20
-1008.067927199727
 30
0
 40
0.4999999999996143
 50
124.9999999998213
 51
215.0000000000411
  0
ARC
  8
1
 62
7
 10
2763.154185426425
 20
-1012.36975047236
 30
0
 40
0.5000000000005367
 50
35.00000000001764
 51
124.9999999999739
  0
ARC
  8
1
 62
7
 10
2762.74460940428
 20
-1012.656538690535
 30
0
 40
0.4999999999997264
 50
125.0000000000667
 51
215.0000000001778
  0
ARC
  8
1
 62
7
 10
2659.434406802776
 20
-1093.78751022691
 30
0
 40
4
 50
180
 51
270
  0
ARC
  8
1
 62
7
 10
2778.434406802778
 20
-1093.78751022691
 30
0
 40
4
 50
270
 51
0
  0
ARC
  8
1
 62
7
 10
2778.434406802778
 20
-974.7875102269103
 30
0
 40
4
 50
0
 51
90
  0
ARC
  8
1
 62
7
 10
2659.434406802776
 20
-974.7875102269103
 30
0
 40
4
 50
90
 51
180
  0
ARC
  8
1
 62
7
 10
2777.115419814742
 20
-998.6875102269099
 30
0
 40
1.999999999999545
 50
90
 51
124.9999999999835
  0
ARC
  8
1
 62
7
 10
2781.434406802776
 20
-995.6875102269104
 30
0
 40
1
 50
270
 51
0
  0
ARC
  8
1
 62
7
 10
2744.979536347038
 20
-1015.6958124286
 30
0
 40
2.000000000002275
 50
215.5202432831944
 51
304.9999999999379
  0
ARC
  8
1
 62
7
 10
2750.167324245718
 20
-1027.322966594827
 30
0
 40
1.999999999998421
 50
124.9999999999333
 51
192.5705732811763
  0
ARC
  8
1
 62
7
 10
2710.780903003945
 20
-1066.264382741312
 30
0
 40
3.000000000000959
 50
5.000000000015628
 51
75.69545539227363
  0
ARC
  8
1
 62
7
 10
2722.298916477013
 20
-1067.115548161756
 30
0
 40
3.000000000000979
 50
95.85174992342537
 51
184.9999999999833
  0
ARC
  8
1
 62
7
 10
2724.476243527313
 20
-1092.00251022691
 30
0
 40
2.999999999999992
 50
259.533990046607
 51
270
  0
ARC
  8
1
 62
7
 10
2713.032697379318
 20
-1092.00251022691
 30
0
 40
3.000000000000795
 50
290.4660099534794
 51
5.000000000001136
  0
ARC
  8
1
 62
7
 10
2724.476243527313
 20
-1092.00251022691
 30
0
 40
2.9999999999996
 50
185.0000000000179
 51
259.533990046607
  0
ARC
  8
1
 62
7
 10
2713.032697379318
 20
-1092.00251022691
 30
0
 40
3.00000000000091
 50
270
 51
290.4660099534794
  0
ARC
  8
1
 62
7
 10
2688.822237157689
 20
-1020.787242108661
 30
0
 40
2.999999999997667
 50
335.8517499234695
 51
65.00000000003409
  0
ARC
  8
1
 62
7
 10
2695.318374771153
 20
-1011.237932550068
 30
0
 40
3.000000000000377
 50
244.9999999999869
 51
315.6954553921627
  0
ARC
  8
1
 62
7
 10
2664.205945775822
 20
-996.7299686457426
 30
0
 40
3.000000000000254
 50
170.4660099534283
 51
245.0000000000045
  0
ARC
  8
1
 62
7
 10
2661.219406802776
 20
-1007.915830927407
 30
0
 40
2.999999999998604
 50
139.5339900465667
 51
180
  0
ARC
  8
1
 62
7
 10
2661.219406802776
 20
-1007.915830927407
 30
0
 40
2.999999999999449
 50
64.99999999997861
 51
139.5339900465667
  0
ARC
  8
1
 62
7
 10
2664.205945775822
 20
-996.7299686457426
 30
0
 40
2.999999999999998
 50
145.5400421929326
 51
170.4660099534283
  0
LINE
  8
1
 62
2
 10
2699.265806493647
 20
-1122.349056273987
 30
0
 11
2693.398337026879
 21
-1120.8299788231
 31
0
  0
SOLID
  8
1
 62
2
 10
2696.902111519293
 20
-1121.261123767164
 30
0
 11
2696.671134775871
 21
-1122.153276427826
 31
0
 12
2693.398337026879
 22
-1120.8299788231
 32
0
 13
2693.398337026879
 23
-1120.8299788231
 33
0
  0
LINE
  8
1
 62
2
 10
2894.929647249545
 20
-1121.148710361732
 30
0
 11
2845.442981684895
 21
-1121.148710361732
 31
0
  0
SOLID
  8
1
 62
2
 10
2848.942981684895
 20
-1120.687926620176
 30
0
 11
2848.942981684895
 21
-1121.609494103288
 31
0
 12
2845.442981684895
 22
-1121.148710361732
 32
0
 13
2845.442981684895
 23
-1121.148710361732
 33
0
  0
TEXT
  8
1
 62
2
 10
2706.028938402361
 20
-1119.808211029832
 30
0
 40
8.333333333333334
  1
回転方向
 41
0.72
  0
TEXT
  8
1
 62
2
 10
2860.613857803129
 20
-1117.0007632473
 30
0
 40
8.333333333333334
  1
風　量
 41
0.9
  0
DIMENSION
  8
1
  6
CONTINUOUS
 62
2
  2
*D0
  3
DMST_1
 10
2890.188680530041
 20
-955.7875102269103
 30
0
 11
2898.20457557201
 21
-952.5375102269103
 31
0
 12
0
 22
0
 32
0
 70
0
 13
2886.188680530043
 23
-970.7875102269103
 33
0
 14
2890.188680530041
 24
-970.7875102269103
 34
0
 50
180
 53
0
  0
DIMENSION
  8
1
  6
CONTINUOUS
 62
2
  2
*D1
  3
DMST_1
 10
2851.688680530041
 20
-955.7875102269103
 30
0
 11
2843.64069013055
 21
-952.5375102269103
 31
0
 12
0
 22
0
 32
0
 70
0
 13
2855.688680530041
 23
-970.7875102269103
 33
0
 14
2851.688680530041
 24
-970.7875102269103
 34
0
 50
180
 53
0
  0
DIMENSION
  8
1
  6
CONTINUOUS
 62
2
  2
*D2
  3
DMST_2
 10
2890.188680530041
 20
-945.7875102269103
 30
0
 11
2870.938680530041
 21
-942.5375102269103
 31
0
 12
0
 22
0
 32
0
 70
0
 13
2851.688680530041
 23
-970.7875102269103
 33
0
 14
2890.188680530041
 24
-970.7875102269103
 34
0
 50
180
 53
0
  0
DIMENSION
  8
1
  6
CONTINUOUS
 62
2
  2
*D3
  3
DMST_3
 10
2782.434406802777
 20
-945.7875102269103
 30
0
 11
2718.934406802776
 21
-942.5375102269103
 31
0
 12
0
 22
0
 32
0
 70
0
  1
□<>
 13
2655.434406802776
 23
-974.7875102269103
 33
0
 14
2782.434406802778
 24
-974.7875102269103
 34
0
 50
180
 53
0
  0
DIMENSION
  8
1
  6
CONTINUOUS
 62
2
  2
*D4
  3
DMST_4
 10
2775.584406802775
 20
-955.7875102269103
 30
0
 11
2718.934406802776
 21
-952.5375102269103
 31
0
 12
0
 22
0
 32
0
 70
0
  1
□<>
 13
2662.284406802777
 23
-974.358431552765
 33
0
 14
2775.584406802775
 24
-974.358431552765
 34
0
 50
180
 53
0
  0
DIMENSION
  8
1
  6
CONTINUOUS
 62
2
  2
*D5
  3
DMST_5
 10
2773.939961931976
 20
-1089.401834132512
 30
0
 11
2818.415409806482
 21
-1106.055076334926
 31
0
 12
0
 22
0
 32
0
 70
3
  1
8-%%c<>
 15
2777.228851673574
 25
-1092.473186321308
 35
0
 40
0
 53
0
  0
ENDSEC
  0
EOF
