  0
SECTION
  2
HEADER
  9
$ACADVER
  1
AC1009
  9
$INSBASE
 10
0
 20
0
  9
$EXTMIN
 10
2652.441077766849
 20
-916.212644268727
  9
$EXTMAX
 10
2897.96099637611
 20
-735.4813319080903
  9
$LIMMIN
 10
2652.441077766849
 20
-916.212644268727
  9
$LIMMAX
 10
2897.96099637611
 20
-735.4813319080903
  9
$VIEWCTR
 10
10
 20
10
  9
$VIEWSIZE
 40
10
  9
$SNAPMODE
 70
0
  9
$SNAPUNIT
 10
1
 20
1
  9
$SNAPBASE
 10
0
 20
0
  9
$SNAPANG
 50
0
  9
$SNAPSTYLE
 70
0
  9
$SNAPISOPAIR
 70
0
  9
$GRIDMODE
 70
0
  9
$GRIDUNIT
 10
0
 20
0
  9
$ORTHOMODE
 70
0
  9
$REGENMODE
 70
1
  9
$FILLMODE
 70
1
  9
$QTEXTMODE
 70
0
  9
$DRAGMODE
 70
2
  9
$LTSCALE
 40
1
  9
$OSMODE
 70
0
  9
$ATTMODE
 70
1
  9
$TEXTSIZE
 40
3.5
  9
$TRACEWID
 40
0.5
  9
$TEXTSTYLE
  7
STANDARD
  9
$CLAYER
  8
0
  9
$CELTYPE
  6
BYLAYER
  9
$CECOLOR
 62
256
  9
$DIMSCALE
 40
1
  9
$DIMASZ
 40
0.18
  9
$DIMEXO
 40
0.0625
  9
$DIMDLI
 40
0.38
  9
$DIMRND
 40
0
  9
$DIMDLE
 40
0
  9
$DIMEXE
 40
0.18
  9
$DIMTP
 40
0
  9
$DIMTM
 40
0
  9
$DIMTXT
 40
0.18
  9
$DIMCEN
 40
0.09
  9
$DIMTSZ
 40
0
  9
$DIMTOL
 70
0
  9
$DIMLIM
 70
0
  9
$DIMTIH
 70
1
  9
$DIMTOH
 70
1
  9
$DIMSE1
 70
0
  9
$DIMSE2
 70
0
  9
$DIMTAD
 70
0
  9
$DIMZIN
 70
0
  9
$DIMBLK
  1

  9
$DIMASO
 70
1
  9
$DIMSHO
 70
1
  9
$DIMPOST
  1

  9
$DIMAPOST
  1

  9
$DIMALT
 70
0
  9
$DIMALTD
 70
2
  9
$DIMALTF
 40
25.4
  9
$DIMLFAC
 40
1
  9
$DIMTOFL
 70
0
  9
$DIMTVP
 40
0
  9
$DIMTIX
 70
0
  9
$DIMSOXD
 70
0
  9
$DIMSAH
 70
0
  9
$DIMBLK1
  1

  9
$DIMBLK2
  1

  9
$DIMSTYLE
  2
*UNNAMED
  9
$DIMCLRD
 70
0
  9
$DIMCLRE
 70
0
  9
$DIMCLRT
 70
0
  9
$DIMTFAC
 40
1
  9
$DIMGAP
 40
0.09
  9
$LUNITS
 70
2
  9
$LUPREC
 70
4
  9
$AXISMODE
 70
0
  9
$AXISUNIT
 10
0
 20
0
  9
$SKETCHINC
 40
0.1
  9
$FILLETRAD
 40
2
  9
$AUNITS
 70
0
  9
$AUPREC
 70
0
  9
$MENU
  1
ACAD
  9
$ELEVATION
 40
0
  9
$THICKNESS
 40
0
  9
$VIEWDIR
 10
0
 20
0
 30
1
  9
$LIMCHECK
 70
0
  9
$BLIPMODE
 70
1
  9
$CHAMFERA
 40
0
  9
$CHAMFERB
 40
0
  9
$FASTZOOM
 70
1
  9
$SKPOLY
 70
0
  9
$ANGBASE
 50
0
  9
$ANGDIR
 70
0
  9
$PDMODE
 70
0
  9
$PDSIZE
 40
0
  9
$PLINEWID
 40
0
  9
$COORDS
 70
2
  0
ENDSEC
  0
SECTION
  2
TABLES
  0
TABLE
  2
DIMSTYLE
 70
5
  0
DIMSTYLE
  2
DMST_1
 70
0
  3

  4

  5

  6

  7

 40
1
 41
3.5
 42
0
 43
7
 44
1
 45
0
 46
0
 47
0
 48
0
140
4.5
141
0
142
0
143
25.4
144
1
145
0
146
1
147
0.09
 71
0
 72
0
 73
1
 74
1
 75
0
 76
0
 77
0
 78
9
170
0
171
2
172
0
173
0
174
0
175
0
176
2
177
2
178
2
  0
DIMSTYLE
  2
DMST_2
 70
0
  3

  4

  5

  6

  7

 40
1
 41
3.5
 42
0
 43
7
 44
1
 45
0
 46
0
 47
0.5
 48
0.5
140
4.5
141
0
142
0
143
25.4
144
1
145
0
146
1
147
0.09
 71
1
 72
0
 73
1
 74
1
 75
0
 76
0
 77
0
 78
9
170
0
171
2
172
0
173
0
174
0
175
0
176
2
177
2
178
2
  0
DIMSTYLE
  2
DMST_3
 70
0
  3

  4

  5

  6

  7

 40
1
 41
3.5
 42
0
 43
7
 44
1
 45
0
 46
0
 47
0.3
 48
0.3
140
4.5
141
0
142
0
143
25.4
144
1
145
0
146
1
147
0.09
 71
1
 72
0
 73
1
 74
1
 75
0
 76
0
 77
0
 78
9
170
0
171
2
172
0
173
0
174
0
175
0
176
2
177
2
178
2
  0
DIMSTYLE
  2
DMST_4
 70
0
  3

  4

  5

  6

  7

 40
1
 41
3.5
 42
0
 43
7
 44
1
 45
0
 46
0
 47
1
 48
1
140
4.5
141
0
142
0
143
25.4
144
1
145
0
146
1
147
0.09
 71
1
 72
0
 73
1
 74
1
 75
0
 76
0
 77
0
 78
9
170
0
171
2
172
0
173
0
174
0
175
0
176
2
177
2
178
2
  0
DIMSTYLE
  2
DMST_5
 70
0
  3

  4

  5

  6

  7

 40
1
 41
3.5
 42
0
 43
7
 44
1
 45
0
 46
0
 47
0.3
 48
0.3
140
4.5
141
0
142
0
143
25.4
144
1
145
0
146
1
147
0.09
 71
1
 72
0
 73
1
 74
1
 75
0
 76
0
 77
1
 78
9
170
0
171
2
172
0
173
0
174
0
175
0
176
2
177
2
178
2
  0
ENDTAB
  0
TABLE
  2
LTYPE
 70
9
  0
LTYPE
  2
CONTINUOUS
 70
64
  3
Solid line
 72
65
 73
0
 40
0
  0
LTYPE
  2
BORDER
 70
64
  3
__ __ . __ __ .
 72
65
 73
6
 40
11.30683835700544
 49
3.230525244858696
 49
-1.615262622429348
 49
3.230525244858696
 49
-1.615262622429348
 49
0
 49
-1.615262622429348
  0
LTYPE
  2
CENTER
 70
64
  3
____ _ ____ _
 72
65
 73
4
 40
12.92210097943478
 49
8.076313112146741
 49
-1.615262622429348
 49
1.615262622429348
 49
-1.615262622429348
  0
LTYPE
  2
DASHDOT
 70
64
  3
__ . __ . __ .
 72
65
 73
4
 40
6.461050489717392
 49
3.230525244858696
 49
-1.615262622429348
 49
0
 49
-1.615262622429348
  0
LTYPE
  2
DASHED
 70
64
  3
__ __ __ __ __
 72
65
 73
2
 40
4.845787867288044
 49
3.230525244858696
 49
-1.615262622429348
  0
LTYPE
  2
DIVIDE
 70
64
  3
__ . . __ . . 
 72
65
 73
6
 40
8.076313112146741
 49
3.230525244858696
 49
-1.615262622429348
 49
0
 49
-1.615262622429348
 49
0
 49
-1.615262622429348
  0
LTYPE
  2
DOT
 70
64
  3
..............
 72
65
 73
4
 40
3.230525244858696
 49
0
 49
-1.615262622429348
 49
0
 49
-1.615262622429348
  0
LTYPE
  2
HIDDEN
 70
64
  3
_ _ _ _ _ _ _
 72
65
 73
2
 40
2.422893933644022
 49
1.615262622429348
 49
-0.807631311214674
  0
LTYPE
  2
PHANTOM
 70
64
  3
_____ _ _ _____ _ _ 
 72
65
 73
6
 40
16.15262622429348
 49
8.076313112146741
 49
-1.615262622429348
 49
1.615262622429348
 49
-1.615262622429348
 49
1.615262622429348
 49
-1.615262622429348
  0
ENDTAB
  0
TABLE
  2
LAYER
 70
3
  0
LAYER
  2
1
 70
0
 62
7
  6
CONTINUOUS
  0
LAYER
  2
0
 70
0
 62
7
  6
CONTINUOUS
  0
ENDTAB
  0
TABLE
  2
STYLE
 70
4
  0
STYLE
  2
STANDARD
 70
0
 40
0
 41
1
 50
0
 71
0
 42
3.5
  3
txt
  4

  0
STYLE
  2
SIMPLEX
 70
0
 40
0
 41
1
 50
0
 71
0
 42
3.5
  3
simplex
  4

  0
STYLE
  2
COMPLEX
 70
0
 40
0
 41
1
 50
0
 71
0
 42
3.5
  3
complex
  4

  0
STYLE
  2
ITALIC
 70
0
 40
0
 41
1
 50
0
 71
0
 42
3.5
  3
italic
  4

  0
ENDTAB
  0
TABLE
  2
VIEW
 70
0
  0
ENDTAB
  0
ENDSEC
  0
SECTION
  2
BLOCKS
  0
BLOCK
  8
1
  2
*D0
 70
1
 10
0
 20
0
 30
0
  0
LINE
  8
1
 62
2
 10
2876.717603200853
 20
-751.4813319080903
 30
0
 11
2883.717603200853
 21
-751.4813319080903
 31
0
  0
LINE
  8
1
 62
2
 10
2883.717603200853
 20
-751.4813319080903
 30
0
 11
2887.717603200853
 21
-751.4813319080903
 31
0
  0
LINE
  8
1
 62
2
 10
2887.717603200853
 20
-751.4813319080903
 30
0
 11
2897.96099637611
 21
-751.4813319080903
 31
0
  0
LINE
  8
1
 62
2
 10
2883.717603200853
 20
-766.4813319080903
 30
0
 11
2883.717603200853
 21
-750.4813319080903
 31
0
  0
LINE
  8
1
 62
2
 10
2887.717603200853
 20
-766.4813319080903
 30
0
 11
2887.717603200853
 21
-750.4813319080903
 31
0
  0
SOLID
  8
1
 62
2
 10
2883.717603200853
 20
-751.4813319080903
 30
0
 11
2880.217603200853
 21
-751.9363319080903
 31
0
 12
2880.217603200853
 22
-751.0263319080902
 32
0
 13
2880.217603200853
 23
-751.0263319080902
 33
0
  0
SOLID
  8
1
 62
2
 10
2887.717603200853
 20
-751.4813319080903
 30
0
 11
2891.217603200853
 21
-751.0263319080902
 31
0
 12
2891.217603200853
 22
-751.9363319080903
 32
0
 13
2891.217603200853
 23
-751.9363319080903
 33
0
  0
TEXT
  8
1
 62
2
 10
2895.26099637611
 20
-750.4813319080903
 30
0
 40
4.5
  1
4
 41
0.9
  0
ENDBLK
  8
0
  0
BLOCK
  8
1
  2
*D1
 70
1
 10
0
 20
0
 30
0
  0
LINE
  8
1
 62
2
 10
2860.217603200853
 20
-751.4813319080903
 30
0
 11
2853.217603200853
 21
-751.4813319080903
 31
0
  0
LINE
  8
1
 62
2
 10
2849.217603200853
 20
-751.4813319080903
 30
0
 11
2853.217603200853
 21
-751.4813319080903
 31
0
  0
LINE
  8
1
 62
2
 10
2849.217603200853
 20
-751.4813319080903
 30
0
 11
2837.36814609839
 21
-751.4813319080903
 31
0
  0
LINE
  8
1
 62
2
 10
2849.217603200853
 20
-766.4813319080903
 30
0
 11
2849.217603200853
 21
-750.4813319080903
 31
0
  0
LINE
  8
1
 62
2
 10
2853.217603200853
 20
-766.4813319080903
 30
0
 11
2853.217603200853
 21
-750.4813319080903
 31
0
  0
SOLID
  8
1
 62
2
 10
2853.217603200853
 20
-751.4813319080903
 30
0
 11
2856.717603200853
 21
-751.0263319080902
 31
0
 12
2856.717603200853
 22
-751.9363319080903
 32
0
 13
2856.717603200853
 23
-751.9363319080903
 33
0
  0
SOLID
  8
1
 62
2
 10
2849.217603200853
 20
-751.4813319080903
 30
0
 11
2845.717603200853
 21
-751.9363319080903
 31
0
 12
2845.717603200853
 22
-751.0263319080902
 32
0
 13
2845.717603200853
 23
-751.0263319080902
 33
0
  0
TEXT
  8
1
 62
2
 10
2837.36814609839
 20
-750.4813319080903
 30
0
 40
4.5
  1
4
 41
0.9
  0
ENDBLK
  8
0
  0
BLOCK
  8
1
  2
*D2
 70
1
 10
0
 20
0
 30
0
  0
LINE
  8
1
 62
2
 10
2849.217603200853
 20
-741.4813319080903
 30
0
 11
2887.717603200853
 21
-741.4813319080903
 31
0
  0
LINE
  8
1
 62
2
 10
2849.217603200853
 20
-766.4813319080903
 30
0
 11
2849.217603200853
 21
-740.4813319080903
 31
0
  0
LINE
  8
1
 62
2
 10
2887.717603200853
 20
-766.4813319080903
 30
0
 11
2887.717603200853
 21
-740.4813319080903
 31
0
  0
SOLID
  8
1
 62
2
 10
2849.217603200853
 20
-741.4813319080903
 30
0
 11
2852.717603200853
 21
-741.0263319080902
 31
0
 12
2852.717603200853
 22
-741.9363319080903
 32
0
 13
2852.717603200853
 23
-741.9363319080903
 33
0
  0
SOLID
  8
1
 62
2
 10
2887.717603200853
 20
-741.4813319080903
 30
0
 11
2884.217603200853
 21
-741.9363319080903
 31
0
 12
2884.217603200853
 22
-741.0263319080902
 32
0
 13
2884.217603200853
 23
-741.0263319080902
 33
0
  0
TEXT
  8
1
 62
2
 10
2855.305103200853
 20
-740.4813319080903
 30
0
 40
4.5
  1
38.5
 41
0.9
  0
TEXT
  8
1
 62
2
 10
2870.042603200853
 20
-740.4813319080903
 30
0
 40
4.5
  1
%%p0.5
 41
0.9
  0
ENDBLK
  8
0
  0
BLOCK
  8
1
  2
*D3
 70
1
 10
0
 20
0
 30
0
  0
LINE
  8
1
 62
2
 10
2666.434406802776
 20
-750.9813319080903
 30
0
 11
2771.434406802776
 21
-750.9813319080903
 31
0
  0
LINE
  8
1
 62
2
 10
2666.434406802776
 20
-768.0997085426442
 30
0
 11
2666.434406802776
 21
-749.9813319080903
 31
0
  0
LINE
  8
1
 62
2
 10
2771.434406802776
 20
-769.2925942885094
 30
0
 11
2771.434406802776
 21
-749.9813319080903
 31
0
  0
SOLID
  8
1
 62
2
 10
2771.434406802776
 20
-750.9813319080903
 30
0
 11
2767.934406802776
 21
-751.4363319080903
 31
0
 12
2767.934406802776
 22
-750.5263319080902
 32
0
 13
2767.934406802776
 23
-750.5263319080902
 33
0
  0
SOLID
  8
1
 62
2
 10
2666.434406802776
 20
-750.9813319080903
 30
0
 11
2669.934406802776
 21
-750.5263319080902
 31
0
 12
2669.934406802776
 22
-751.4363319080903
 32
0
 13
2669.934406802776
 23
-751.4363319080903
 33
0
  0
TEXT
  8
1
 62
2
 10
2710.202421508658
 20
-749.9813319080903
 30
0
 40
4.5
  1
105
 41
0.9
  0
TEXT
  8
1
 62
2
 10
2721.902421508658
 20
-749.9813319080903
 30
0
 40
4.5
  1
%%p0.3
 41
0.9
  0
TEXT
  8
1
 62
2
 10
2704.378892096894
 20
-749.9813319080903
 30
0
 40
4.5
  1
□
 41
0.9
  0
ENDBLK
  8
0
  0
BLOCK
  8
1
  2
*D4
 70
1
 10
0
 20
0
 30
0
  0
LINE
  8
1
 62
2
 10
2659.434406802776
 20
-740.9813319080903
 30
0
 11
2778.434406802776
 21
-740.9813319080903
 31
0
  0
LINE
  8
1
 62
2
 10
2659.434406802776
 20
-770.4813319080906
 30
0
 11
2659.434406802776
 21
-739.9813319080903
 31
0
  0
LINE
  8
1
 62
2
 10
2778.434406802776
 20
-770.4813319080906
 30
0
 11
2778.434406802776
 21
-739.9813319080903
 31
0
  0
SOLID
  8
1
 62
2
 10
2659.434406802776
 20
-740.9813319080903
 30
0
 11
2662.934406802776
 21
-740.5263319080902
 31
0
 12
2662.934406802776
 22
-741.4363319080903
 32
0
 13
2662.934406802776
 23
-741.4363319080903
 33
0
  0
SOLID
  8
1
 62
2
 10
2778.434406802776
 20
-740.9813319080903
 30
0
 11
2774.934406802776
 21
-741.4363319080903
 31
0
 12
2774.934406802776
 22
-740.5263319080902
 32
0
 13
2774.934406802776
 23
-740.5263319080902
 33
0
  0
TEXT
  8
1
 62
2
 10
2714.421171508658
 20
-739.9813319080903
 30
0
 40
4.5
  1
119
 41
0.9
  0
TEXT
  8
1
 62
2
 10
2724.771171508658
 20
-739.9813319080903
 30
0
 40
4.5
  1
%%p1
 41
0.9
  0
TEXT
  8
1
 62
2
 10
2708.597642096894
 20
-739.9813319080903
 30
0
 40
4.5
  1
□
 41
0.9
  0
ENDBLK
  8
0
  0
BLOCK
  8
1
  2
*D5
 70
1
 10
0
 20
0
 30
0
  0
LINE
  8
1
 62
2
 10
2772.82525081914
 20
-880.2499621470452
 30
0
 11
2784.11730285734
 21
-894.6092033413401
 31
0
  0
LINE
  8
1
 62
2
 10
2784.11730285734
 20
-894.6092033413401
 30
0
 11
2824.94230285734
 21
-894.6092033413401
 31
0
  0
SOLID
  8
1
 62
2
 10
2772.82525081914
 20
-880.2499621470452
 30
0
 11
2775.346442292916
 21
-882.7199051732213
 31
0
 12
2774.631129618495
 22
-883.2824243087283
 32
0
 13
2774.631129618495
 23
-883.2824243087283
 33
0
  0
TEXT
  8
1
 62
2
 10
2802.66730285734
 20
-893.6092033413401
 30
0
 40
4.5
  1
4.5
 41
0.9
  0
TEXT
  8
1
 62
2
 10
2813.35480285734
 20
-893.6092033413401
 30
0
 40
4.5
  1
%%p0.3
 41
0.9
  0
TEXT
  8
1
 62
2
 10
2789.61730285734
 20
-893.6092033413401
 30
0
 40
4.5
  1
8-%%c
 41
0.9
  0
ENDBLK
  8
0
  0
ENDSEC
  0
SECTION
  2
ENTITIES
  0
LINE
  8
1
 62
2
  6
CENTER
 10
2668.684406802776
 20
-878.4813319080905
 30
0
 11
2671.731890375269
 21
-878.4813319080905
 31
0
  0
LINE
  8
1
 62
2
  6
CENTER
 10
2668.684406802776
 20
-773.4813319080905
 30
0
 11
2671.705731124038
 21
-773.4813319080905
 31
0
  0
LINE
  8
1
 62
2
  6
CENTER
 10
2773.684406802776
 20
-878.4813319080905
 30
0
 11
2776.261415417188
 21
-878.4813319080905
 31
0
  0
LINE
  8
1
 62
2
  6
CENTER
 10
2773.684406802776
 20
-773.4813319080905
 30
0
 11
2776.315764546457
 21
-773.4813319080905
 31
0
  0
LINE
  8
1
 62
2
 10
2764.430923579663
 20
-794.9904007296194
 30
0
 11
2760.335163358218
 21
-797.8582829113747
 31
0
  0
LINE
  8
1
 62
2
 10
2764.430923579663
 20
-794.9904007296194
 30
0
 11
2768.732746852297
 21
-801.1340410617846
 31
0
  0
LINE
  8
1
 62
2
 10
2760.335163358218
 20
-797.8582829113747
 30
0
 11
2758.601951622872
 21
-799.071890833778
 31
0
  0
LINE
  8
1
 62
2
 10
2760.335163358218
 20
-797.8582829113747
 30
0
 11
2764.636986630853
 21
-804.0019232435401
 31
0
  0
LINE
  8
1
 62
2
 10
2763.891337263596
 20
-802.9370255859639
 30
0
 11
2754.574711979758
 21
-809.4605968403797
 31
0
  0
LINE
  8
1
 62
2
 10
2766.036937601446
 20
-797.2840264536281
 30
0
 11
2772.450748349044
 21
-792.7930278195123
 31
0
  0
LINE
  8
1
 62
2
 10
2761.195528012746
 20
-799.087010977806
 30
0
 11
2760.581163979529
 21
-799.5171933050693
 31
0
  0
LINE
  8
1
 62
2
 10
2765.784139503554
 20
-805.6402273321177
 30
0
 11
2769.879899725
 21
-802.7723451503626
 31
0
  0
LINE
  8
1
 62
2
 10
2849.217603200853
 20
-766.4813319080903
 30
0
 11
2849.217603200853
 21
-790.4813319080905
 31
0
  0
LINE
  8
1
 62
2
 10
2849.217603200853
 20
-885.4813319080903
 30
0
 11
2853.217603200853
 21
-885.4813319080903
 31
0
  0
LINE
  8
1
 62
2
 10
2887.717603200853
 20
-885.4813319080903
 30
0
 11
2887.717603200853
 21
-766.4813319080903
 31
0
  0
LINE
  8
1
 62
2
 10
2887.717603200853
 20
-766.4813319080903
 30
0
 11
2883.717603200853
 21
-766.4813319080903
 31
0
  0
LINE
  8
1
 62
2
  6
CENTER
 10
2843.175034386932
 20
-825.9813319080942
 30
0
 11
2894.037722057653
 21
-825.9813319080942
 31
0
  0
LINE
  8
1
 62
2
 10
2853.217603200853
 20
-766.4813319080903
 30
0
 11
2853.217603200853
 21
-777.5445173968202
 31
0
  0
LINE
  8
1
 62
2
 10
2853.217603200853
 20
-885.4813319080903
 30
0
 11
2883.717603200853
 21
-885.4813319080903
 31
0
  0
LINE
  8
1
 62
2
 10
2853.217603200853
 20
-766.4813319080903
 30
0
 11
2849.217603200853
 21
-766.4813319080903
 31
0
  0
LINE
  8
1
 62
2
 10
2883.717603200853
 20
-885.4813319080903
 30
0
 11
2883.717603200853
 21
-798.8479115560562
 31
0
  0
LINE
  8
1
 62
2
 10
2883.717603200853
 20
-766.4813319080903
 30
0
 11
2853.217603200853
 21
-766.4813319080903
 31
0
  0
LINE
  8
1
 62
2
 10
2883.717603200853
 20
-885.4813319080903
 30
0
 11
2887.717603200853
 21
-885.4813319080903
 31
0
  0
LINE
  8
1
 62
2
 10
2853.217603200853
 20
-777.5445173968202
 30
0
 11
2883.717603200853
 21
-777.5445173968202
 31
0
  0
LINE
  8
1
 62
2
 10
2853.217603200853
 20
-777.5445173968202
 30
0
 11
2853.217603200853
 21
-778.6662233811063
 31
0
  0
LINE
  8
1
 62
2
 10
2883.717603200853
 20
-777.5445173968202
 30
0
 11
2883.717603200853
 21
-766.4813319080903
 31
0
  0
LINE
  8
1
 62
2
 10
2864.962577797068
 20
-785.6585124912618
 30
0
 11
2866.167591075909
 21
-785.6585124912618
 31
0
  0
LINE
  8
1
 62
2
 10
2853.467603200853
 20
-779.0992360829986
 30
0
 11
2864.712577797069
 21
-785.5915251931541
 31
0
  0
LINE
  8
1
 62
2
 10
2853.217603200853
 20
-778.6662233811063
 30
0
 11
2853.217603200853
 21
-790.4813319080905
 31
0
  0
LINE
  8
1
 62
2
 10
2875.852256785926
 20
-785.5551891614072
 30
0
 11
2883.521983915358
 21
-779.6700005445597
 31
0
  0
LINE
  8
1
 62
2
 10
2883.717603200853
 20
-779.2733238744141
 30
0
 11
2883.717603200853
 21
-777.5445173968202
 31
0
  0
LINE
  8
1
 62
2
 10
2864.828603200853
 20
-785.6402290132631
 30
0
 11
2864.828603200853
 21
-792.4313319080903
 31
0
  0
LINE
  8
1
 62
2
 10
2864.581205358879
 20
-820.9813319080942
 30
0
 11
2864.728603200852
 21
-820.9813319080942
 31
0
  0
LINE
  8
1
 62
2
 10
2853.217603200851
 20
-798.8479115560562
 30
0
 11
2853.217603200853
 21
-885.4813319080903
 31
0
  0
LINE
  8
1
 62
2
 10
2883.717603200853
 20
-798.8479115560562
 30
0
 11
2883.717603200853
 21
-779.2733238744141
 31
0
  0
LINE
  8
1
 62
2
 10
2875.877787427004
 20
-820.9813319080942
 30
0
 11
2875.817603200853
 21
-820.9813319080942
 31
0
  0
LINE
  8
1
 62
2
 10
2875.717603200853
 20
-820.8813319080942
 30
0
 11
2875.717603200853
 21
-785.6288237727923
 31
0
  0
LINE
  8
1
 62
2
 10
2883.717603200853
 20
-874.4181464193681
 30
0
 11
2853.217603200853
 21
-874.4181464193681
 31
0
  0
LINE
  8
1
 62
2
 10
2853.217603200853
 20
-873.296440435082
 30
0
 11
2853.217603200853
 21
-874.4181464193681
 31
0
  0
LINE
  8
1
 62
2
 10
2875.547876071421
 20
-866.3041513249265
 30
0
 11
2864.962577797068
 21
-866.3041513249265
 31
0
  0
LINE
  8
1
 62
2
 10
2864.712577797069
 20
-866.371138623034
 30
0
 11
2853.467603200853
 21
-872.8634277331897
 31
0
  0
LINE
  8
1
 62
2
 10
2853.217603200851
 20
-853.1147522601324
 30
0
 11
2853.217603200853
 21
-873.296440435082
 31
0
  0
LINE
  8
1
 62
2
 10
2883.521983915358
 20
-872.2926632716284
 30
0
 11
2875.852256785926
 21
-866.4074746547809
 31
0
  0
LINE
  8
1
 62
2
 10
2883.717603200853
 20
-874.4181464193681
 30
0
 11
2883.717603200853
 21
-872.6893399417739
 31
0
  0
LINE
  8
1
 62
2
 10
2864.828603200853
 20
-831.0813319080941
 30
0
 11
2864.828603200853
 21
-866.3224348029254
 31
0
  0
LINE
  8
1
 62
2
 10
2864.728603200852
 20
-830.9813319080942
 30
0
 11
2864.581205358879
 21
-830.9813319080942
 31
0
  0
LINE
  8
1
 62
2
 10
2883.717603200853
 20
-872.6893399417739
 30
0
 11
2883.717603200853
 21
-853.1147522601324
 31
0
  0
LINE
  8
1
 62
2
 10
2875.817603200853
 20
-830.9813319080942
 30
0
 11
2875.877787427004
 21
-830.9813319080942
 31
0
  0
LINE
  8
1
 62
2
 10
2875.717603200853
 20
-866.333840043396
 30
0
 11
2875.717603200853
 21
-831.0813319080941
 31
0
  0
LINE
  8
1
 62
2
  6
CENTER
 10
2847.220713565193
 20
-773.4813319080903
 30
0
 11
2855.056383731843
 21
-773.4813319080903
 31
0
  0
LINE
  8
1
 62
2
  6
CENTER
 10
2881.727799491393
 20
-773.4813319080903
 30
0
 11
2890.166213517013
 21
-773.4813319080903
 31
0
  0
LINE
  8
1
 62
2
  6
CENTER
 10
2855.056383731843
 20
-878.4813319080978
 30
0
 11
2847.220713565193
 21
-878.4813319080978
 31
0
  0
LINE
  8
1
 62
2
  6
CENTER
 10
2890.166213517013
 20
-878.4813319080978
 30
0
 11
2881.727799491393
 21
-878.4813319080978
 31
0
  0
LINE
  8
1
 62
2
 10
2712.385188541866
 20
-795.1696824852226
 30
0
 11
2712.697056078039
 21
-796.6369038860802
 31
0
  0
LINE
  8
1
 62
2
 10
2738.940553553322
 20
-801.650197693128
 30
0
 11
2737.987879898537
 21
-802.8088231319306
 31
0
  0
LINE
  8
1
 62
2
 10
2729.130679421282
 20
-797.2361405766009
 30
0
 11
2728.882641472513
 21
-797.6788121096191
 31
0
  0
LINE
  8
1
 62
2
 10
2712.385188541886
 20
-795.1696824854365
 30
0
 11
2712.697056078135
 21
-796.6369038865192
 31
0
  0
LINE
  8
1
 62
2
 10
2729.130679421373
 20
-797.2361405767152
 30
0
 11
2728.882641472605
 21
-797.6788121097374
 31
0
  0
LINE
  8
1
 62
2
 10
2690.761518460938
 20
-811.8909677373107
 30
0
 11
2692.103084572236
 21
-812.5619374596307
 31
0
  0
LINE
  8
1
 62
2
 10
2690.761518461118
 20
-811.8909677374273
 30
0
 11
2692.103084572636
 21
-812.5619374598319
 31
0
  0
LINE
  8
1
 62
2
 10
2690.352607924994
 20
-839.2225846017431
 30
0
 11
2691.713645966581
 21
-838.5920487592977
 31
0
  0
LINE
  8
1
 62
2
 10
2690.3526079252
 20
-839.2225846016742
 30
0
 11
2691.713645966989
 21
-838.5920487591089
 31
0
  0
LINE
  8
1
 62
2
 10
2711.466374907876
 20
-856.5832681148728
 30
0
 11
2711.821995474254
 21
-855.1260330576416
 31
0
  0
LINE
  8
1
 62
2
 10
2711.46637490795
 20
-856.5832681146707
 30
0
 11
2711.821995474361
 21
-855.1260330572053
 31
0
  0
LINE
  8
1
 62
2
 10
2738.203722228076
 20
-850.9000694970515
 30
0
 11
2737.286135779406
 21
-849.7134629453791
 31
0
  0
LINE
  8
1
 62
2
 10
2738.203722227963
 20
-850.9000694968676
 30
0
 11
2737.286135779132
 21
-849.7134629450237
 31
0
  0
LINE
  8
1
 62
2
 10
2750.430882009671
 20
-826.4525532239019
 30
0
 11
2748.9310498572
 21
-826.4301141136194
 31
0
  0
LINE
  8
1
 62
2
 10
2750.430882009458
 20
-826.452553223876
 30
0
 11
2748.931049856751
 21
-826.4301141136126
 31
0
  0
LINE
  8
1
 62
2
 10
2702.81778324404
 20
-800.0872313239619
 30
0
 11
2703.009228653429
 21
-800.5571563875623
 31
0
  0
LINE
  8
1
 62
2
 10
2702.817783244186
 20
-800.0872313239651
 30
0
 11
2703.009228653581
 21
-800.5571563875625
 31
0
  0
LINE
  8
1
 62
2
 10
2688.641033326528
 20
-822.4371079558442
 30
0
 11
2689.127799796023
 21
-822.5804233923881
 31
0
  0
LINE
  8
1
 62
2
 10
2688.641033326621
 20
-822.4371079557335
 30
0
 11
2689.127799796118
 21
-822.5804233922701
 31
0
  0
LINE
  8
1
 62
2
 10
2697.275811510331
 20
-847.4558575129391
 30
0
 11
2697.691353960149
 21
-847.1646438755996
 31
0
  0
LINE
  8
1
 62
2
 10
2697.275811510299
 20
-847.4558575127977
 30
0
 11
2697.691353960116
 21
-847.1646438754518
 31
0
  0
LINE
  8
1
 62
2
 10
2722.219953705241
 20
-856.3038512880345
 30
0
 11
2722.251360195132
 21
-855.7973983854184
 31
0
  0
LINE
  8
1
 62
2
 10
2722.219953705111
 20
-856.303851287969
 30
0
 11
2722.251360194996
 21
-855.7973983853523
 31
0
  0
LINE
  8
1
 62
2
 10
2744.690012069493
 20
-842.3183695018651
 30
0
 11
2744.313632871986
 21
-841.9780466994242
 31
0
  0
LINE
  8
1
 62
2
 10
2744.690012069359
 20
-842.3183695019249
 30
0
 11
2744.313632871851
 21
-841.9780466994895
 31
0
  0
LINE
  8
1
 62
2
 10
2788.909044486883
 20
-795.8313319080902
 30
0
 11
2804.2029297913
 21
-795.8313319080907
 31
0
  0
LINE
  8
1
 62
2
 10
2788.909044486883
 20
-794.1313319080902
 30
0
 11
2804.296654910712
 21
-794.1313319080904
 31
0
  0
LINE
  8
1
 62
2
 10
2788.909044486883
 20
-792.4313319080906
 30
0
 11
2804.445568012967
 21
-792.4313319080906
 31
0
  0
LINE
  8
1
 62
2
 10
2788.909044486883
 20
-792.4313319080906
 30
0
 11
2788.909044486883
 21
-795.8313319080902
 31
0
  0
LINE
  8
1
 62
2
 10
2788.909044486883
 20
-792.4313319080906
 30
0
 11
2788.909044486883
 21
-795.8313319080902
 31
0
  0
LINE
  8
1
 62
2
 10
2773.522764231231
 20
-796.1930278195122
 30
0
 11
2767.987097485041
 21
-800.0691434042095
 31
0
  0
LINE
  8
1
 62
2
 10
2776.305800360478
 20
-795.8313319080902
 30
0
 11
2771.916546433108
 21
-798.9047205951521
 31
0
  0
LINE
  8
1
 62
2
 10
2774.669917103931
 20
-795.8313319080902
 30
0
 11
2776.305800360478
 21
-795.8313319080902
 31
0
  0
LINE
  8
1
 62
2
 10
2778.434406802776
 20
-795.8313319080902
 30
0
 11
2778.434406802776
 21
-803.7102744567704
 31
0
  0
LINE
  8
1
 62
2
 10
2788.909044486883
 20
-795.8313319080902
 30
0
 11
2778.434406802776
 21
-795.8313319080902
 31
0
  0
LINE
  8
1
 62
2
 10
2773.597901221744
 20
-792.4313319080906
 30
0
 11
2788.909044486883
 21
-792.4313319080906
 31
0
  0
LINE
  8
1
 62
2
 10
2752.520928870677
 20
-806.7480376534162
 30
0
 11
2751.488491285248
 21
-805.2735639736985
 31
0
  0
LINE
  8
1
 62
2
 10
2752.520928870677
 20
-806.7480376534162
 30
0
 11
2761.941177380001
 21
-800.1519086353825
 31
0
  0
LINE
  8
1
 62
2
 10
2776.860830366426
 20
-795.0925919448899
 30
0
 11
2776.305800360478
 21
-795.8313319080902
 31
0
  0
LINE
  8
1
 62
2
 10
2778.134406802776
 20
-795.6117439891792
 30
0
 11
2776.934703198056
 21
-795.6117439891792
 31
0
  0
LINE
  8
1
 62
2
 10
2755.135162927798
 20
-813.0967210046816
 30
0
 11
2751.448978728499
 21
-815.677814968261
 31
0
  0
LINE
  8
1
 62
2
 10
2754.704980600534
 20
-812.4823569714646
 30
0
 11
2755.135162927798
 21
-813.0967210046816
 31
0
  0
LINE
  8
1
 62
2
 10
2751.018796401235
 20
-815.0634509350444
 30
0
 11
2754.704980600534
 21
-812.4823569714646
 31
0
  0
LINE
  8
1
 62
2
 10
2751.448978728499
 20
-815.677814968261
 30
0
 11
2749.020171373003
 21
-817.3784841874368
 31
0
  0
LINE
  8
1
 62
2
 10
2751.448978728499
 20
-815.677814968261
 30
0
 11
2751.018796401235
 21
-815.0634509350444
 31
0
  0
LINE
  8
1
 62
2
 10
2750.259763218814
 20
-806.1339286282249
 30
0
 11
2746.573579019514
 21
-808.7150225918045
 31
0
  0
LINE
  8
1
 62
2
 10
2750.689945546078
 20
-806.7482926614417
 30
0
 11
2750.259763218814
 21
-806.1339286282249
 31
0
  0
LINE
  8
1
 62
2
 10
2747.003761346778
 20
-809.3293866250214
 30
0
 11
2750.689945546078
 21
-806.7482926614417
 31
0
  0
LINE
  8
1
 62
2
 10
2746.573579019514
 20
-808.7150225918045
 30
0
 11
2746.126689219726
 21
-809.0279381983656
 31
0
  0
LINE
  8
1
 62
2
 10
2746.573579019514
 20
-808.7150225918045
 30
0
 11
2747.003761346778
 21
-809.3293866250214
 31
0
  0
LINE
  8
1
 62
2
 10
2774.116309000581
 20
-790.4813319080905
 30
0
 11
2777.434406802776
 21
-790.4813319080905
 31
0
  0
LINE
  8
1
 62
2
 10
2759.352435913094
 20
-800.3775579595957
 30
0
 11
2758.949697614067
 21
-800.6595583525017
 31
0
  0
LINE
  8
1
 62
2
 10
2762.793894531203
 20
-805.2924702253298
 30
0
 11
2762.335033382121
 21
-804.6371485898986
 31
0
  0
LINE
  8
1
 62
2
 10
2762.457821186091
 20
-803.9407843495789
 30
0
 11
2762.867397208234
 21
-803.653996131403
 31
0
  0
LINE
  8
1
 62
2
 10
2760.581163979529
 20
-799.5171933050693
 30
0
 11
2759.352435913094
 21
-800.3775579595957
 31
0
  0
LINE
  8
1
 62
2
 10
2763.563761448554
 20
-803.7767839353718
 30
0
 11
2764.022622597636
 21
-804.4321055708032
 31
0
  0
LINE
  8
1
 62
2
 10
2767.134380333842
 20
-794.9285818142608
 30
0
 11
2765.905652267407
 21
-795.7889464687875
 31
0
  0
LINE
  8
1
 62
2
 10
2770.575838951948
 20
-799.8434940799947
 30
0
 11
2770.116977802868
 21
-799.1881724445635
 31
0
  0
LINE
  8
1
 62
2
 10
2769.420613562546
 20
-799.0653846405947
 30
0
 11
2769.011037540403
 21
-799.3521728587701
 31
0
  0
LINE
  8
1
 62
2
 10
2765.905652267407
 20
-795.7889464687875
 30
0
 11
2765.291288234191
 21
-796.219128796051
 31
0
  0
LINE
  8
1
 62
2
 10
2768.888249736434
 20
-800.0485370990904
 30
0
 11
2769.347110885515
 21
-800.7038587345215
 31
0
  0
LINE
  8
1
 62
2
 10
2778.434406802776
 20
-789.4813319080903
 30
0
 11
2778.434406802776
 21
-792.4313319080906
 31
0
  0
LINE
  8
1
 62
2
 10
2668.140879567868
 20
-801.237290382166
 30
0
 11
2661.793599536292
 21
-798.2775050949882
 31
0
  0
LINE
  8
1
 62
2
 10
2664.201592934686
 20
-790.0216585462648
 30
0
 11
2672.448528482928
 21
-793.8672677487199
 31
0
  0
LINE
  8
1
 62
2
 10
2775.677742227783
 20
-801.1542013020843
 30
0
 11
2771.125995948736
 21
-804.3413683586911
 31
0
  0
LINE
  8
1
 62
2
 10
2771.960590635783
 20
-787.2765219191919
 30
0
 11
2764.464190322787
 21
-792.525557927789
 31
0
  0
LINE
  8
1
 62
2
 10
2714.365750581921
 20
-882.2963155299973
 30
0
 11
2714.489592949696
 21
-883.7118402709538
 31
0
  0
LINE
  8
1
 62
2
 10
2722.902201866481
 20
-882.3418376042997
 30
0
 11
2723.037311847717
 21
-883.8861517564493
 31
0
  0
LINE
  8
1
 62
2
 10
2760.325683745119
 20
-807.020730023636
 30
0
 11
2756.855042210108
 21
-809.4508993888748
 31
0
  0
LINE
  8
1
 62
2
 10
2758.419098565582
 20
-799.6530392091175
 30
0
 11
2759.560753267451
 21
-801.8186995431253
 31
0
  0
LINE
  8
1
 62
2
 10
2772.213677493721
 20
-801.1382163641969
 30
0
 11
2769.879899725
 21
-802.7723451503626
 31
0
  0
LINE
  8
1
 62
2
 10
2771.916546433108
 20
-798.9047205951521
 30
0
 11
2768.732746852297
 21
-801.1340410617846
 31
0
  0
LINE
  8
1
 62
2
 10
2772.969156127878
 20
-790.8430278195125
 30
0
 11
2768.907624158469
 21
-793.6869431211729
 31
0
  0
LINE
  8
1
 62
2
 10
2713.24688458474
 20
-883.9813319080903
 30
0
 11
2687.753924125304
 21
-883.9813319080903
 31
0
  0
LINE
  8
1
 62
2
 10
2718.862360394532
 20
-859.1136647763796
 30
0
 11
2720.798408784669
 21
-881.2427991363333
 31
0
  0
LINE
  8
1
 62
2
 10
2714.231196360376
 20
-857.8109272488176
 30
0
 11
2716.235468679015
 21
-880.7198646798473
 31
0
  0
LINE
  8
1
 62
2
 10
2665.202261587998
 20
-797.6602344758356
 30
0
 11
2690.276988056317
 21
-809.3527714541541
 31
0
  0
LINE
  8
1
 62
2
 10
2693.720773866728
 20
-805.9934345152632
 30
0
 11
2665.919781939428
 21
-793.0296190752587
 31
0
  0
LINE
  8
1
 62
2
 10
2754.069585248828
 20
-808.959748172999
 30
0
 11
2752.520928870677
 21
-806.7480376534162
 31
0
  0
LINE
  8
1
 62
2
 10
2751.488491285248
 20
-805.2735639736985
 30
0
 11
2750.259763218814
 21
-806.1339286282249
 31
0
  0
LINE
  8
1
 62
2
  6
CENTER
 10
2666.434406802776
 20
-768.0997085426442
 30
0
 11
2666.434406802776
 21
-778.72915596206
 31
0
  0
LINE
  8
1
 62
2
  6
CENTER
 10
2771.434406802776
 20
-769.2925942885094
 30
0
 11
2771.434406802776
 21
-778.0133002879599
 31
0
  0
LINE
  8
1
 62
2
 10
2778.434406802776
 20
-770.4813319080906
 30
0
 11
2778.434406802776
 21
-789.4813319080903
 31
0
  0
LINE
  8
1
 62
2
 10
2741.205464254096
 20
-766.4813319080905
 30
0
 11
2663.434406802776
 21
-766.4813319080905
 31
0
  0
LINE
  8
1
 62
2
 10
2659.434406802776
 20
-803.7102744567704
 30
0
 11
2659.434406802776
 21
-770.4813319080906
 31
0
  0
LINE
  8
1
 62
2
 10
2659.434406802776
 20
-881.4813319080903
 30
0
 11
2659.434406802776
 21
-803.7102744567704
 31
0
  0
LINE
  8
1
 62
2
 10
2774.434406802777
 20
-766.4813319080906
 30
0
 11
2741.205464254096
 21
-766.4813319080905
 31
0
  0
LINE
  8
1
 62
2
 10
2778.434406802776
 20
-881.4813319080903
 30
0
 11
2778.434406802776
 21
-803.7102744567704
 31
0
  0
LINE
  8
1
 62
2
 10
2663.434406802776
 20
-885.4813319080905
 30
0
 11
2774.434406802777
 21
-885.4813319080905
 31
0
  0
LINE
  8
1
 62
2
  6
CENTER
 10
2661.33940515947
 20
-878.4813319080905
 30
0
 11
2668.684406802776
 21
-878.4813319080905
 31
0
  0
LINE
  8
1
 62
2
  6
CENTER
 10
2666.434406802776
 20
-873.2335078541208
 30
0
 11
2666.434406802776
 21
-883.8629552735366
 31
0
  0
LINE
  8
1
 62
2
  6
CENTER
 10
2766.632302542793
 20
-878.4813319080905
 30
0
 11
2773.684406802776
 21
-878.4813319080905
 31
0
  0
LINE
  8
1
 62
2
  6
CENTER
 10
2771.434406802776
 20
-873.9493635282209
 30
0
 11
2771.434406802776
 21
-882.6700695276714
 31
0
  0
LINE
  8
1
 62
2
  6
CENTER
 10
2766.318630425293
 20
-773.4813319080905
 30
0
 11
2773.684406802776
 21
-773.4813319080905
 31
0
  0
LINE
  8
1
 62
2
  6
CENTER
 10
2661.345234252896
 20
-773.4813319080905
 30
0
 11
2668.684406802776
 21
-773.4813319080905
 31
0
  0
LINE
  8
1
 62
2
 10
2768.907624158469
 20
-793.6869431211729
 30
0
 11
2767.134380333842
 21
-794.9285818142608
 31
0
  0
LINE
  8
1
 62
2
 10
2770.790831647127
 20
-790.5371451584605
 30
0
 11
2764.430923579663
 21
-794.9904007296194
 31
0
  0
LINE
  8
1
 62
2
 10
2750.114889480263
 20
-883.9813319080903
 30
0
 11
2723.786992878945
 21
-883.9813319080903
 31
0
  0
LINE
  8
1
 62
2
 10
2776.934406802776
 20
-857.1618145855802
 30
0
 11
2776.934406802776
 21
-803.5956724970637
 31
0
  0
LINE
  8
1
 62
2
 10
2687.753924125324
 20
-767.9813319080905
 30
0
 11
2750.114889480243
 21
-767.9813319080905
 31
0
  0
LINE
  8
1
 62
2
 10
2660.934406802776
 20
-857.1618145855515
 30
0
 11
2660.934406802776
 21
-800.3791578369454
 31
0
  0
LINE
  8
1
 62
2
 10
2769.879899725
 20
-802.7723451503626
 30
0
 11
2768.732746852297
 21
-801.1340410617846
 31
0
  0
LINE
  8
1
 62
2
 10
2765.325278354475
 20
-804.9849056966867
 30
0
 11
2765.784139503554
 21
-805.6402273321177
 31
0
  0
LINE
  8
1
 62
2
 10
2765.784139503554
 20
-805.6402273321177
 30
0
 11
2755.135162927798
 21
-813.0967210046816
 31
0
  0
LINE
  8
1
 62
2
 10
2765.325278354475
 20
-804.9849056966867
 30
0
 11
2764.636986630853
 21
-804.0019232435401
 31
0
  0
LINE
  8
1
 62
2
 10
2764.636986630853
 20
-804.0019232435401
 30
0
 11
2760.325683745119
 21
-807.020730023636
 31
0
  0
LINE
  8
1
 62
2
  6
CENTER
 10
2718.934406802776
 20
-758.8226457397253
 30
0
 11
2718.934406802776
 21
-892.7445043540475
 31
0
  0
LINE
  8
1
 62
2
  6
CENTER
 10
2652.441077766849
 20
-825.9813319080942
 30
0
 11
2785.369669866939
 21
-825.9813319080942
 31
0
  0
LINE
  8
1
 62
2
 10
2849.217603200853
 20
-790.4813319080905
 30
0
 11
2853.217603200853
 21
-790.4813319080905
 31
0
  0
LINE
  8
1
 62
2
 10
2849.217603200853
 20
-790.4813319080905
 30
0
 11
2849.217603200853
 21
-795.6117439891792
 31
0
  0
LINE
  8
1
 62
2
 10
2853.217603200853
 20
-790.4813319080905
 30
0
 11
2853.217603200851
 21
-792.4313319080906
 31
0
  0
LINE
  8
1
 62
2
 10
2849.217603200853
 20
-795.6117439891792
 30
0
 11
2853.217603200851
 21
-794.9117439891799
 31
0
  0
LINE
  8
1
 62
2
 10
2849.217603200853
 20
-795.6117439891792
 30
0
 11
2849.217603200853
 21
-885.4813319080903
 31
0
  0
LINE
  8
1
 62
2
 10
2853.217603200851
 20
-794.9117439891799
 30
0
 11
2853.217603200851
 21
-798.8479115560562
 31
0
  0
LINE
  8
1
 62
2
 10
2869.567591075908
 20
-782.1845681547849
 30
0
 11
2869.567591075908
 21
-794.1646652414235
 31
0
  0
LINE
  8
1
 62
2
 10
2866.167591075909
 20
-791.5979985747568
 30
0
 11
2866.167591075909
 21
-782.1845681547849
 31
0
  0
LINE
  8
1
 62
2
 10
2853.217603200851
 20
-795.8313319080902
 30
0
 11
2867.900924409241
 21
-795.8313319080902
 31
0
  0
LINE
  8
1
 62
2
 10
2849.817603200853
 20
-794.1313319080902
 30
0
 11
2849.817603200853
 21
-795.5067439891792
 31
0
  0
LINE
  8
1
 62
2
 10
2865.334257742576
 20
-792.4313319080903
 30
0
 11
2851.517603200853
 21
-792.4313319080903
 31
0
  0
LINE
  8
1
 62
2
 10
2869.567591075908
 20
-785.6585124912618
 30
0
 11
2875.547876071421
 21
-785.6585124912618
 31
0
  0
LINE
  8
1
 62
2
 10
2864.828603200853
 20
-795.8313319080902
 30
0
 11
2864.828603200853
 21
-820.8813319080942
 31
0
  0
ARC
  8
1
 62
2
 10
2827.319438572506
 20
-825.9813319080732
 30
0
 40
37.50916462834388
 50
7.793619745559943
 51
46.33433960136782
  0
ARC
  8
1
 62
2
 10
2925.731509451155
 20
-825.9813319081305
 30
0
 40
50.01390625027747
 50
147.1448177026423
 51
174.1590019318463
  0
ARC
  8
1
 62
2
 10
2827.319438572506
 20
-825.9813319081148
 30
0
 40
37.50916462834307
 50
313.6656603986317
 51
352.2063802544397
  0
ARC
  8
1
 62
2
 10
2925.731509451155
 20
-825.9813319080578
 30
0
 40
50.01390625027825
 50
185.8409980681534
 51
212.8551822973579
  0
ARC
  8
1
 62
2
 10
2718.934406802776
 20
-825.981331908094
 30
0
 40
90.23131236063256
 50
253.5602612377291
 51
286.4397387622717
  0
ARC
  8
1
 62
2
 10
2718.9344068028
 20
-825.981331908349
 30
0
 40
31.50000000004768
 50
102.0000000003065
 51
109.3283234028303
  0
ARC
  8
1
 62
2
 10
2718.934406802787
 20
-825.9813319083474
 30
0
 40
31.50000000004689
 50
50.57142857030687
 51
57.8654972050936
  0
ARC
  8
1
 62
2
 10
2718.93440680316
 20
-825.9813319078784
 30
0
 40
56.49999999956383
 50
34.28054351458717
 51
43.92872354375135
  0
ARC
  8
1
 62
2
 10
2718.934406803292
 20
-825.9813319084618
 30
0
 40
31.50000000004685
 50
102.0000000011846
 51
109.2940686359697
  0
ARC
  8
1
 62
2
 10
2718.93440680316
 20
-825.9813319078784
 30
0
 40
56.49999999956782
 50
68.12840526994054
 51
95.35729497462978
  0
ARC
  8
1
 62
2
 10
2718.93440680299
 20
-825.9813319082344
 30
0
 40
31.50000000004725
 50
153.4285714306861
 51
160.7568948332116
  0
ARC
  8
1
 62
2
 10
2718.934406803386
 20
-825.9813319079188
 30
0
 40
31.5000000000471
 50
153.4285714315651
 51
160.7226400663508
  0
ARC
  8
1
 62
2
 10
2718.934406803018
 20
-825.9813319080143
 30
0
 40
31.50000000004755
 50
204.8571428610668
 51
212.185466263593
  0
ARC
  8
1
 62
2
 10
2718.934406803018
 20
-825.9813319075075
 30
0
 40
31.50000000004472
 50
204.857142861947
 51
212.1512114967335
  0
ARC
  8
1
 62
2
 10
2718.934406802645
 20
-825.981331907875
 30
0
 40
31.50000000004761
 50
307.7142857218259
 51
315.0426091243521
  0
ARC
  8
1
 62
2
 10
2718.93440680215
 20
-825.9813319079882
 30
0
 40
31.50000000004619
 50
307.7142857227062
 51
315.0083543574934
  0
ARC
  8
1
 62
2
 10
2718.934406802523
 20
-825.9813319080612
 30
0
 40
31.50000000004773
 50
359.1428571522089
 51
6.471180554733565
  0
ARC
  8
1
 62
2
 10
2718.934406802303
 20
-825.9813319085175
 30
0
 40
31.50000000004734
 50
359.1428571530862
 51
6.436925787873804
  0
ARC
  8
1
 62
2
 10
2718.934406802848
 20
-825.9813319076599
 30
0
 40
56.49999999957007
 50
119.5569767003222
 51
146.7858664050107
  0
ARC
  8
1
 62
2
 10
2718.934406802479
 20
-825.9813319077681
 30
0
 40
56.49999999956773
 50
170.9855481306995
 51
198.2144378353905
  0
ARC
  8
1
 62
2
 10
2718.934406802337
 20
-825.9813319081219
 30
0
 40
56.49999999956822
 50
222.4141195610804
 51
249.6430092657689
  0
ARC
  8
1
 62
2
 10
2718.934406802524
 20
-825.9813319084555
 30
0
 40
56.49999999956838
 50
273.8426909914618
 51
301.0715806961497
  0
ARC
  8
1
 62
2
 10
2718.9344068029
 20
-825.9813319085168
 30
0
 40
56.49999999956886
 50
325.2712624218419
 51
352.5001521265318
  0
ARC
  8
1
 62
2
 10
2718.93440680316
 20
-825.9813319078784
 30
0
 40
56.49999999956803
 50
16.69983383906091
 51
24.58957244968354
  0
ARC
  8
1
 62
2
 10
2718.934406802864
 20
-825.9813319078536
 30
0
 40
31.50000000004815
 50
256.2857142914462
 51
261.1395273586044
  0
ARC
  8
1
 62
2
 10
2718.934406802469
 20
-825.9813319075382
 30
0
 40
31.50000000004689
 50
256.2857142923243
 51
261.139527359403
  0
ARC
  8
1
 62
2
 10
2718.934406802771
 20
-825.9813319080923
 30
0
 40
59.50000000000508
 50
27.0693801838456
 51
28.3314748382071
  0
ARC
  8
1
 62
2
 10
2776.934703198056
 20
-796.6117439891792
 30
0
 40
1
 50
90
 51
124.999999999944
  0
ARC
  8
1
 62
2
 10
2778.134406802776
 20
-795.9117439891789
 30
0
 40
0.2999999999997272
 50
0
 51
90
  0
ARC
  8
1
 62
2
 10
2777.434406802776
 20
-795.9117439891789
 30
0
 40
1
 50
0
 51
124.999999999944
  0
ARC
  8
1
 62
2
 10
2718.934406802776
 20
-825.981331908088
 30
0
 40
29.99999999999798
 50
35.52024328323671
 51
37.31135610177519
  0
ARC
  8
1
 62
2
 10
2744.979536347023
 20
-807.3896341097878
 30
0
 40
2.000000000001032
 50
215.5202432832118
 51
305.0000000000225
  0
ARC
  8
1
 62
2
 10
2718.934406802776
 20
-825.9813319080904
 30
0
 40
56.50000000000034
 50
151.9974980643903
 51
154.0269945054809
  0
ARC
  8
1
 62
2
 10
2718.934406802776
 20
-825.9813319080904
 30
0
 40
56.49999999999949
 50
38.24941032356529
 51
145.3619323630699
  0
ARC
  8
1
 62
2
 10
2718.934406802776
 20
-825.9813319080904
 30
0
 40
56.50000000000004
 50
274.0269945054798
 51
22.52014269435531
  0
ARC
  8
1
 62
2
 10
2718.934406802776
 20
-825.9813319080904
 30
0
 40
56.50000000000077
 50
34.28054351454536
 51
36.3088454375919
  0
ARC
  8
1
 62
2
 10
2718.934406802776
 20
-825.9813319080904
 30
0
 40
56.49999999999989
 50
154.0269945054809
 51
265.3619323630695
  0
ARC
  8
1
 62
2
 10
2718.934406802776
 20
-825.9813319080904
 30
0
 40
56.49999999999994
 50
272.261583583474
 51
274.0269945054798
  0
ARC
  8
1
 62
2
 10
2718.934406802776
 20
-825.9813319080904
 30
0
 40
56.50000000000045
 50
22.52014269435531
 51
24.5895724497169
  0
ARC
  8
1
 62
2
 10
2718.934406802776
 20
-825.9813319080904
 30
0
 40
30.00000000000026
 50
275.0704124853029
 51
12.57057328119703
  0
ARC
  8
1
 62
2
 10
2718.934406802776
 20
-825.9813319080904
 30
0
 40
56.49999999999996
 50
265.3619323630695
 51
266.9118614946619
  0
ARC
  8
1
 62
2
 10
2718.934406802776
 20
-825.9813319080904
 30
0
 40
56.49999999999883
 50
145.3619323630699
 51
147.4133413842914
  0
ARC
  8
1
 62
2
 10
2718.934406802771
 20
-825.9813319080923
 30
0
 40
59.50000000000527
 50
31.6186020759259
 51
32.87191590830241
  0
ARC
  8
1
 62
2
 10
2718.934406802776
 20
-825.9813319080904
 30
0
 40
29.99999999999891
 50
155.0704124852997
 51
256.5212517631344
  0
ARC
  8
1
 62
2
 10
2718.934406802776
 20
-825.9813319080904
 30
0
 40
30.00000000000072
 50
37.31135610177881
 51
136.5212517631385
  0
ARC
  8
1
 62
2
 10
2718.934406802776
 20
-825.9813319080904
 30
0
 40
56.5000000000009
 50
36.3088454375919
 51
38.24941032356529
  0
ARC
  8
1
 62
2
 10
2718.934406802784
 20
-825.9813319080957
 30
0
 40
65.8499999999996
 50
298.2622315454305
 51
331.7377684545643
  0
ARC
  8
1
 62
2
 10
2718.934406802784
 20
-825.9813319080957
 30
0
 40
65.84999999999791
 50
37.08859483160256
 51
61.73776845458926
  0
ARC
  8
1
 62
2
 10
2718.934406802784
 20
-825.9813319080957
 30
0
 40
65.84999999999995
 50
118.2622315454114
 51
145.4203126766425
  0
ARC
  8
1
 62
2
 10
2718.934406802784
 20
-825.9813319080957
 30
0
 40
65.85000000000052
 50
208.2622315454069
 51
241.7377684545688
  0
ARC
  8
1
 62
2
  6
DASHED
 10
2718.934406798931
 20
-825.9813319110102
 30
0
 40
59.100000004813
 50
37.06935000219895
 51
37.618934618582
  0
CIRCLE
  8
1
 62
2
 10
2666.434406802776
 20
-878.4813319080905
 30
0
 40
2.25
  0
CIRCLE
  8
1
 62
2
 10
2666.434406802776
 20
-773.4813319080905
 30
0
 40
2.25
  0
CIRCLE
  8
1
 62
2
 10
2771.434406802776
 20
-878.4813319080905
 30
0
 40
2.25
  0
CIRCLE
  8
1
 62
2
 10
2771.434406802776
 20
-773.4813319080905
 30
0
 40
2.25
  0
CIRCLE
  8
1
 62
2
 10
2718.934406802763
 20
-825.9813319080978
 30
0
 40
26.99999999999773
  0
CIRCLE
  8
1
 62
2
 10
2718.934406802776
 20
-825.981331908094
 30
0
 40
26.50000000000037
  0
POLYLINE
  8
1
 62
2
 66
1
  0
VERTEX
  8
1
 10
2735.689527994523
 20
-799.3070762701242
 30
0
 42
-0.0134642537482238
  0
VERTEX
  8
1
 10
2742.519180365859
 20
-793.6740810815613
 30
0
 42
-0.01050647356533082
  0
VERTEX
  8
1
 10
2746.719559096345
 20
-790.5837993388716
 30
0
 42
-0.01578019091250715
  0
VERTEX
  8
1
 10
2749.632674023751
 20
-788.6322162063799
 30
0
 42
-0.0197740282183422
  0
VERTEX
  8
1
 10
2752.055122059314
 20
-787.299989681246
 30
0
 42
-0.03308597028618134
  0
VERTEX
  8
1
 10
2753.90314059735
 20
-786.5570896144741
 30
0
 42
-0.04920852418795908
  0
VERTEX
  8
1
 10
2755.802664733561
 20
-786.1371685552153
 30
0
 42
-0.06719633035262684
  0
VERTEX
  8
1
 10
2757.721111809358
 20
-786.1695916911999
 30
0
 42
-0.07926971990668108
  0
VERTEX
  8
1
 10
2759.625899166151
 20
-786.783724210157
 30
0
  0
SEQEND
  8
1
  0
POLYLINE
  8
1
 62
2
 66
1
  0
VERTEX
  8
1
 10
2773.051424846205
 20
-809.7456194787568
 30
0
  0
VERTEX
  8
1
 10
2773.051424846208
 20
-809.7456194787334
 30
0
  0
SEQEND
  8
1
  0
POLYLINE
  8
1
 62
2
 66
1
  0
VERTEX
  8
1
 10
2708.526281164687
 20
-796.2505243060092
 30
0
 42
-0.01346425374806282
  0
VERTEX
  8
1
 10
2708.38044678909
 20
-787.398772013804
 30
0
 42
-0.01050647356549964
  0
VERTEX
  8
1
 10
2708.583260535152
 20
-782.188024532576
 30
0
 42
-0.01578019091289034
  0
VERTEX
  8
1
 10
2708.873748850256
 20
-778.6936673896819
 30
0
 42
-0.02247249834333763
  0
VERTEX
  8
1
 10
2709.371446829198
 20
-775.8471279709981
 30
0
 42
-0.03926051878541815
  0
VERTEX
  8
1
 10
2710.050329146639
 20
-773.718041881964
 30
0
 42
-0.0603639926934726
  0
VERTEX
  8
1
 10
2711.108624830243
 20
-771.8180404657949
 30
0
 42
-0.08215901618511616
  0
VERTEX
  8
1
 10
2712.66141738123
 20
-770.2982374825567
 30
0
  0
VERTEX
  8
1
 10
2713.659213576123
 20
-769.7281334533069
 30
0
  0
SEQEND
  8
1
  0
POLYLINE
  8
1
 62
2
 66
1
  0
VERTEX
  8
1
 10
2729.130679421373
 20
-797.2361405767152
 30
0
 42
-0.008366357958824107
  0
VERTEX
  8
1
 10
2733.919595242881
 20
-788.8943513437115
 30
0
 42
-0.01440485957188754
  0
VERTEX
  8
1
 10
2735.678100318809
 20
-785.9923729677681
 30
0
 42
-0.03128381604039723
  0
VERTEX
  8
1
 10
2737.48877159136
 20
-783.629890284897
 30
0
 42
0.01415973492381516
  0
VERTEX
  8
1
 10
2739.163057888485
 20
-781.658233505103
 30
0
 42
0.03902778222332243
  0
VERTEX
  8
1
 10
2740.323446957462
 20
-779.8530164146475
 30
0
 42
0.05066303091846115
  0
VERTEX
  8
1
 10
2740.93411602038
 20
-778.2782066509045
 30
0
 42
0.06654113032462171
  0
VERTEX
  8
1
 10
2741.156682091497
 20
-776.6466494836825
 30
0
 42
0.08615375340744713
  0
VERTEX
  8
1
 10
2740.877324991354
 20
-775.0420572628318
 30
0
 42
0.09632501562074286
  0
VERTEX
  8
1
 10
2739.982224540493
 20
-773.5481423382022
 30
0
  0
SEQEND
  8
1
  0
POLYLINE
  8
1
 62
2
 66
1
  0
VERTEX
  8
1
 10
2739.982224540509
 20
-773.54814233822
 30
0
  0
VERTEX
  8
1
 10
2739.982224540493
 20
-773.5481423382022
 30
0
  0
SEQEND
  8
1
  0
POLYLINE
  8
1
 62
2
 66
1
  0
VERTEX
  8
1
 10
2689.200565228126
 20
-815.5818768654486
 30
0
 42
-0.01346425374811519
  0
VERTEX
  8
1
 10
2682.189060364955
 20
-810.1769174889683
 30
0
 42
-0.01050647356528226
  0
VERTEX
  8
1
 10
2678.241586239179
 20
-806.7695034027386
 30
0
 42
-0.01578019091241431
  0
VERTEX
  8
1
 10
2675.690704315827
 20
-804.3636944501345
 30
0
 42
-0.02132245091087194
  0
VERTEX
  8
1
 10
2673.808182214837
 20
-802.2416425142945
 30
0
  0
VERTEX
  8
1
 10
2673.173916098334
 20
-801.3774780221523
 30
0
  0
SEQEND
  8
1
  0
POLYLINE
  8
1
 62
2
 66
1
  0
VERTEX
  8
1
 10
2692.265038458577
 20
-842.7442311827368
 30
0
 42
-0.01346425374803253
  0
VERTEX
  8
1
 10
2683.667669278781
 20
-844.8561093738163
 30
0
 42
-0.01050647356516116
  0
VERTEX
  8
1
 10
2678.542435811869
 20
-845.8178809882645
 30
0
 42
-0.01578019091260813
  0
VERTEX
  8
1
 10
2675.07104976698
 20
-846.3122434369393
 30
0
 42
-0.02247249834333447
  0
VERTEX
  8
1
 10
2672.185130815487
 20
-846.4604383956047
 30
0
 42
-0.0392605187849923
  0
VERTEX
  8
1
 10
2669.958359832514
 20
-846.2723433003906
 30
0
 42
-0.06036399269293859
  0
VERTEX
  8
1
 10
2667.87050247475
 20
-845.6633713888788
 30
0
 42
-0.0821590161850341
  0
VERTEX
  8
1
 10
2666.043275276614
 20
-844.4876985684687
 30
0
  0
VERTEX
  8
1
 10
2665.265434404411
 20
-843.6417792884885
 30
0
  0
SEQEND
  8
1
  0
POLYLINE
  8
1
 62
2
 66
1
  0
VERTEX
  8
1
 10
2741.2115179481
 20
-848.2519475032972
 30
0
 42
-0.01346425374804811
  0
VERTEX
  8
1
 10
2745.183541563667
 20
-856.1638255802805
 30
0
 42
-0.01050647356519987
  0
VERTEX
  8
1
 10
2747.26167129384
 20
-860.9465444255907
 30
0
 42
-0.01578019091276096
  0
VERTEX
  8
1
 10
2748.516095108826
 20
-864.2208895808399
 30
0
 42
-0.02247249834337032
  0
VERTEX
  8
1
 10
2749.302751891057
 20
-867.0014760382859
 30
0
 42
-0.03926051878496173
  0
VERTEX
  8
1
 10
2749.614875891566
 20
-869.2142723198629
 30
0
 42
-0.06036399269304225
  0
VERTEX
  8
1
 10
2749.485764146652
 20
-871.3852917331121
 30
0
 42
-0.08215901618491915
  0
VERTEX
  8
1
 10
2748.74616420125
 20
-873.4283183445447
 30
0
  0
VERTEX
  8
1
 10
2748.094539761156
 20
-874.3748918703637
 30
0
  0
SEQEND
  8
1
  0
POLYLINE
  8
1
 62
2
 66
1
  0
VERTEX
  8
1
 10
2750.235826822921
 20
-822.4498867799772
 30
0
 42
-0.01346425374807105
  0
VERTEX
  8
1
 10
2758.898098406061
 20
-824.2774089624963
 30
0
 42
-0.01050647356533556
  0
VERTEX
  8
1
 10
2763.933071264862
 20
-825.634638139844
 30
0
 42
-0.01578019091245268
  0
VERTEX
  8
1
 10
2767.275177847588
 20
-826.695410920888
 30
0
 42
-0.02247249834318012
  0
VERTEX
  8
1
 10
2769.939600361064
 20
-827.8140451819625
 30
0
 42
-0.0392605187850583
  0
VERTEX
  8
1
 10
2771.864240289557
 20
-828.949672727024
 30
0
 42
-0.06036399269315662
  0
VERTEX
  8
1
 10
2773.481111759676
 20
-830.4042248177005
 30
0
 42
-0.08215901618520054
  0
VERTEX
  8
1
 10
2774.61728126066
 20
-832.2562735965664
 30
0
  0
VERTEX
  8
1
 10
2774.95106105061
 20
-833.3559130386244
 30
0
  0
SEQEND
  8
1
  0
POLYLINE
  8
1
 62
2
 66
1
  0
VERTEX
  8
1
 10
2702.817783244186
 20
-800.0872313239651
 30
0
 42
-0.009076979872272848
  0
VERTEX
  8
1
 10
2700.434963484642
 20
-794.1362701420162
 30
0
 42
-0.000149573697230043
  0
VERTEX
  8
1
 10
2698.671979544989
 20
-789.5568456579224
 30
0
 42
-0.03162384340199678
  0
VERTEX
  8
1
 10
2697.650837185072
 20
-786.3327548302964
 30
0
 42
-0.01164611604869341
  0
VERTEX
  8
1
 10
2697.160477472902
 20
-783.7972951882426
 30
0
 42
0.03981632463771859
  0
VERTEX
  8
1
 10
2696.52527543722
 20
-781.2842309796787
 30
0
 42
0.04536251147549305
  0
VERTEX
  8
1
 10
2695.815889311084
 20
-779.7438312468651
 30
0
 42
0.05776420660550734
  0
VERTEX
  8
1
 10
2694.822916406186
 20
-778.4008902261087
 30
0
 42
0.07644001922253131
  0
VERTEX
  8
1
 10
2693.540839951974
 20
-777.3965899134714
 30
0
 42
0.09354866137431527
  0
VERTEX
  8
1
 10
2691.964143177899
 20
-776.8721123050157
 30
0
  0
VERTEX
  8
1
 10
2691.063588180116
 20
-776.8339263886254
 30
0
  0
SEQEND
  8
1
  0
POLYLINE
  8
1
 62
2
 66
1
  0
VERTEX
  8
1
 10
2688.641033326621
 20
-822.4371079557335
 30
0
 42
-0.008366357958839471
  0
VERTEX
  8
1
 10
2679.44275614441
 20
-819.6244829838312
 30
0
 42
-0.01440485957189842
  0
VERTEX
  8
1
 10
2676.222232233224
 20
-818.5558182403338
 30
0
 42
-0.0312838160405706
  0
VERTEX
  8
1
 10
2673.516069660912
 20
-817.3162461301569
 30
0
 42
0.01415973492386387
  0
VERTEX
  8
1
 10
2671.221282682427
 20
-816.1226725943325
 30
0
 42
0.04416891763912886
  0
VERTEX
  8
1
 10
2669.099778651247
 20
-815.3680594147641
 30
0
 42
0.05878152936748063
  0
VERTEX
  8
1
 10
2667.218781089604
 20
-815.1429660621182
 30
0
 42
0.08024873457581357
  0
VERTEX
  8
1
 10
2665.402441559601
 20
-815.4346444002151
 30
0
 42
0.1035600956110262
  0
VERTEX
  8
1
 10
2663.80302549262
 20
-816.3745688951124
 30
0
  0
VERTEX
  8
1
 10
2663.13224670507
 20
-817.1287092220038
 30
0
  0
SEQEND
  8
1
  0
POLYLINE
  8
1
 62
2
 66
1
  0
VERTEX
  8
1
 10
2697.275811510299
 20
-847.4558575127977
 30
0
 42
-0.009076979872253331
  0
VERTEX
  8
1
 10
2692.004280628282
 20
-851.1031484465535
 30
0
 42
-0.0001495736972441542
  0
VERTEX
  8
1
 10
2687.931972709984
 20
-853.8409485114891
 30
0
 42
-0.03162384340184475
  0
VERTEX
  8
1
 10
2685.015942122461
 20
-855.55391640279
 30
0
 42
-0.01164611604836082
  0
VERTEX
  8
1
 10
2682.653167048405
 20
-856.5961746209018
 30
0
 42
0.03981632463771197
  0
VERTEX
  8
1
 10
2680.344456356676
 20
-857.7746602102892
 30
0
 42
0.04536251147520498
  0
VERTEX
  8
1
 10
2679.000530924627
 20
-858.8090317324704
 30
0
 42
0.05776420660510546
  0
VERTEX
  8
1
 10
2677.912217497349
 20
-860.0759412237527
 30
0
 42
0.07644001922232542
  0
VERTEX
  8
1
 10
2677.218385940434
 20
-861.5493511881
 30
0
 42
0.09354866137362512
  0
VERTEX
  8
1
 10
2677.057906119473
 20
-863.2032241294761
 30
0
  0
VERTEX
  8
1
 10
2677.221069942974
 20
-864.0896974990386
 30
0
  0
SEQEND
  8
1
  0
POLYLINE
  8
1
 62
2
 66
1
  0
VERTEX
  8
1
 10
2722.219953705111
 20
-856.303851287969
 30
0
 42
-0.00907697987238055
  0
VERTEX
  8
1
 10
2721.784774837923
 20
-862.699348793956
 30
0
 42
0.0003960845701538438
  0
VERTEX
  8
1
 10
2721.423152367377
 20
-867.1672175776801
 30
0
 42
-0.01723044169154885
  0
VERTEX
  8
1
 10
2721.13849347825
 20
-869.6932923076638
 30
0
 42
-0.03529347227990032
  0
VERTEX
  8
1
 10
2720.541181431224
 20
-872.3782333644319
 30
0
  0
VERTEX
  8
1
 10
2720.148559346321
 20
-873.814986066716
 30
0
  0
SEQEND
  8
1
  0
POLYLINE
  8
1
 62
2
 66
1
  0
VERTEX
  8
1
 10
2744.690012069359
 20
-842.3183695019249
 30
0
 42
-0.008366357958978308
  0
VERTEX
  8
1
 10
2751.757021209943
 20
-848.8434399352826
 30
0
 42
-0.01440485957189312
  0
VERTEX
  8
1
 10
2754.194936737708
 20
-851.2036065556705
 30
0
 42
-0.0312838160405375
  0
VERTEX
  8
1
 10
2756.095274784992
 20
-853.4945823718141
 30
0
 42
0.01415973492397298
  0
VERTEX
  8
1
 10
2757.644934262636
 20
-855.5656257237007
 30
0
 42
0.03902778222361403
  0
VERTEX
  8
1
 10
2759.14667993253
 20
-857.0986200087617
 30
0
 42
0.05066303091806924
  0
VERTEX
  8
1
 10
2760.546119277511
 20
-858.0444064625167
 30
0
 42
0.06654113032482445
  0
VERTEX
  8
1
 10
2762.087244290236
 20
-858.6244479619631
 30
0
 42
0.08615375340718817
  0
VERTEX
  8
1
 10
2763.713768836856
 20
-858.7091502869134
 30
0
 42
0.09632501562088131
  0
VERTEX
  8
1
 10
2765.369406783526
 20
-858.1689192171804
 30
0
  0
SEQEND
  8
1
  0
POLYLINE
  8
1
 62
2
 66
1
  0
VERTEX
  8
1
 10
2751.914636804808
 20
-815.3517576729918
 30
0
 42
-0.0008177738805592678
  0
VERTEX
  8
1
 10
2757.273287969463
 20
-814.5738698388216
 30
0
 42
-0.01440485957204862
  0
VERTEX
  8
1
 10
2760.638556006593
 20
-814.1393705467829
 30
0
 42
-0.03128381604042639
  0
VERTEX
  8
1
 10
2763.614554417804
 20
-814.0820264923455
 30
0
 42
0.01415973492398215
  0
VERTEX
  8
1
 10
2766.199958192514
 20
-814.1617283352392
 30
0
 42
0.03902778222347075
  0
VERTEX
  8
1
 10
2768.334824497225
 20
-813.943422595323
 30
0
 42
0.05066303091799479
  0
VERTEX
  8
1
 10
2769.946806282478
 20
-813.4389850665847
 30
0
 42
0.06654113032458667
  0
VERTEX
  8
1
 10
2771.361176716874
 20
-812.5957349730572
 30
0
 42
0.08615375340713077
  0
VERTEX
  8
1
 10
2772.441521128691
 20
-811.3768779115153
 30
0
 42
0.0963250156208314
  0
VERTEX
  8
1
 10
2773.051424846208
 20
-809.7456194787334
 30
0
  0
SEQEND
  8
1
  0
POLYLINE
  8
1
 62
2
 66
1
  0
VERTEX
  8
1
 10
2720.760617983478
 20
-880.8108483014922
 30
0
 42
0.03297133173530458
  0
VERTEX
  8
1
 10
2721.145968926921
 20
-881.2747392035062
 30
0
 42
0.03450562485933989
  0
VERTEX
  8
1
 10
2721.59893445902
 20
-881.6907518457197
 30
0
 42
0.03500514642384382
  0
VERTEX
  8
1
 10
2722.122808916322
 20
-882.0526779442512
 30
0
 42
0.03434410104888718
  0
VERTEX
  8
1
 10
2722.720886635373
 20
-882.35430921522
 30
0
  0
SEQEND
  8
1
  0
POLYLINE
  8
1
 62
2
 66
1
  0
VERTEX
  8
1
 10
2714.388419579274
 20
-859.6079968637886
 30
0
 42
-0.01137197815875574
  0
VERTEX
  8
1
 10
2711.702850860257
 20
-865.3222088507496
 30
0
 42
-0.01050647356540021
  0
VERTEX
  8
1
 10
2709.259263388757
 20
-869.9289325235832
 30
0
 42
-0.01578019091279374
  0
VERTEX
  8
1
 10
2707.481397717673
 20
-872.9512013665041
 30
0
 42
-0.01977402821846553
  0
VERTEX
  8
1
 10
2705.876878879901
 20
-875.2025568023481
 30
0
 42
-0.03308597028537847
  0
VERTEX
  8
1
 10
2704.534203968785
 20
-876.673711827895
 30
0
 42
-0.04920852418724434
  0
VERTEX
  8
1
 10
2703.004988777717
 20
-877.8762202642334
 30
0
 42
-0.06719633035188379
  0
VERTEX
  8
1
 10
2701.262459816338
 20
-878.6793910188933
 30
0
 42
-0.07926971990684513
  0
VERTEX
  8
1
 10
2699.279843594291
 20
-878.9525329994032
 30
0
  0
SEQEND
  8
1
  0
POLYLINE
  8
1
 62
2
 66
1
  0
VERTEX
  8
1
 10
2671.54320203861
 20
-795.651862932452
 30
0
 42
-0.0119891177532496
  0
VERTEX
  8
1
 10
2671.596102305173
 20
-795.3434237034229
 30
0
 42
-0.01193776601698383
  0
VERTEX
  8
1
 10
2671.664856080671
 20
-795.0323484917905
 30
0
  0
SEQEND
  8
1
  0
POLYLINE
  8
1
 62
2
 66
1
  0
VERTEX
  8
1
 10
2804.445568012967
 20
-792.4313319080906
 30
0
 42
0.02728793588281051
  0
VERTEX
  8
1
 10
2803.883259527541
 20
-792.632511485591
 30
0
 42
0.04998917792072311
  0
VERTEX
  8
1
 10
2803.524946594171
 20
-792.8313302412772
 30
0
 42
0.09926752610898222
  0
VERTEX
  8
1
 10
2803.343042230261
 20
-793.0284069265878
 30
0
 42
0.1591021669704275
  0
VERTEX
  8
1
 10
2803.309959453214
 20
-793.2243602929605
 30
0
 42
0.1190415993975768
  0
VERTEX
  8
1
 10
2803.39811128043
 20
-793.4198090918333
 30
0
 42
0.05727246905990782
  0
VERTEX
  8
1
 10
2803.579910729317
 20
-793.6153720746445
 30
0
 42
0.02584877550314288
  0
VERTEX
  8
1
 10
2803.827770817275
 20
-793.8116679928321
 30
0
 42
0.009232257502006822
  0
VERTEX
  8
1
 10
2804.114104561706
 20
-794.0093155978343
 30
0
 42
-0.002451201373848615
  0
VERTEX
  8
1
 10
2804.411324980016
 20
-794.2089336410893
 30
0
 42
-0.01434955276693217
  0
VERTEX
  8
1
 10
2804.691845089606
 20
-794.4111408740353
 30
0
 42
-0.03148376907159098
  0
VERTEX
  8
1
 10
2804.92807790788
 20
-794.6165560481098
 30
0
 42
-0.06256546684248586
  0
VERTEX
  8
1
 10
2805.092436452239
 20
-794.8257979147514
 30
0
 42
-0.1176956935699535
  0
VERTEX
  8
1
 10
2805.157333740089
 20
-795.0394852253983
 30
0
 42
-0.1517554011564138
  0
VERTEX
  8
1
 10
2805.095182788832
 20
-795.2582367314886
 30
0
 42
-0.1028945992411177
  0
VERTEX
  8
1
 10
2804.87839661587
 20
-795.4826711844601
 30
0
 42
-0.05516769701864021
  0
VERTEX
  8
1
 10
2804.479388238607
 20
-795.7134073357512
 30
0
  0
VERTEX
  8
1
 10
2804.2029297913
 20
-795.8313319080907
 30
0
  0
SEQEND
  8
1
  0
POLYLINE
  8
1
 62
2
 66
1
  0
VERTEX
  8
1
 10
2866.167591075909
 20
-782.1845681547849
 30
0
 42
-0.04365732533576752
  0
VERTEX
  8
1
 10
2866.380614236013
 20
-781.8341324793161
 30
0
 42
-0.07392980000216025
  0
VERTEX
  8
1
 10
2866.589921196563
 20
-781.6294067501227
 30
0
 42
-0.1106985927711606
  0
VERTEX
  8
1
 10
2866.796819328006
 20
-781.5483184194538
 30
0
 42
-0.1089877115637637
  0
VERTEX
  8
1
 10
2867.002616000782
 20
-781.5687949395575
 30
0
 42
-0.06887267603404902
  0
VERTEX
  8
1
 10
2867.208618585335
 20
-781.6687637626826
 30
0
 42
-0.03518648908424145
  0
VERTEX
  8
1
 10
2867.416134452105
 20
-781.8261523410777
 30
0
 42
-0.01387882016261351
  0
VERTEX
  8
1
 10
2867.626470971537
 20
-782.018888126991
 30
0
 42
0.001433697089642126
  0
VERTEX
  8
1
 10
2867.840935514074
 20
-782.2248985726715
 30
0
 42
0.01581833157415273
  0
VERTEX
  8
1
 10
2868.060835450156
 20
-782.4221111303673
 30
0
 42
0.03334437098825207
  0
VERTEX
  8
1
 10
2868.287478150228
 20
-782.5884532523271
 30
0
 42
0.05761631743608301
  0
VERTEX
  8
1
 10
2868.522170984731
 20
-782.7018523907993
 30
0
 42
0.08673954677534145
  0
VERTEX
  8
1
 10
2868.766221324107
 20
-782.7402359980327
 30
0
 42
0.1009093671363428
  0
VERTEX
  8
1
 10
2869.020936538802
 20
-782.681531526276
 30
0
 42
0.08396405897833582
  0
VERTEX
  8
1
 10
2869.287623999254
 20
-782.5036664277772
 30
0
 42
0.05697908325450713
  0
VERTEX
  8
1
 10
2869.567591075908
 20
-782.1845681547849
 30
0
  0
SEQEND
  8
1
  0
ARC
  8
1
 62
2
 10
2875.547876071421
 20
-785.1585124912616
 30
0
 40
0.5000000000002797
 50
289.8436280678956
 51
307.5000000000615
  0
ARC
  8
1
 62
2
 10
2864.962577797068
 20
-785.1585124912616
 30
0
 40
0.5000000000002298
 50
254.4577317766955
 51
270
  0
ARC
  8
1
 62
2
 10
2883.217603200853
 20
-779.2733238744141
 30
0
 40
0.5000000000003299
 50
307.5000000000615
 51
0
  0
ARC
  8
1
 62
2
 10
2853.717603200853
 20
-778.6662233811063
 30
0
 40
0.5
 50
180
 51
240.0000000000027
  0
ARC
  8
1
 62
2
 10
2864.962577797068
 20
-785.1585124912616
 30
0
 40
0.4999999999997832
 50
240.000000000106
 51
254.4577317766955
  0
ARC
  8
1
 62
2
 10
2875.547876071421
 20
-785.1585124912616
 30
0
 40
0.5000000000002274
 50
270
 51
289.8436280678956
  0
ARC
  8
1
 62
2
 10
2864.581205358879
 20
-820.8813319080942
 30
0
 40
0.09999999999935579
 50
187.7936197455232
 51
270
  0
ARC
  8
1
 62
2
 10
2864.728603200852
 20
-820.8813319080942
 30
0
 40
0.09999999999990905
 50
270
 51
0
  0
ARC
  8
1
 62
2
 10
2875.817603200853
 20
-820.8813319080942
 30
0
 40
0.09999999999990905
 50
180
 51
270
  0
ARC
  8
1
 62
2
 10
2875.877787427004
 20
-820.8813319080942
 30
0
 40
0.09999999999990905
 50
270
 51
354.1590019320279
  0
ARC
  8
1
 62
2
 10
2875.547876071421
 20
-866.8041513249265
 30
0
 40
0.5000000000003299
 50
52.49999999993851
 51
70.1563719320955
  0
ARC
  8
1
 62
2
 10
2864.962577797068
 20
-866.8041513249265
 30
0
 40
0.5
 50
90
 51
105.5422682233184
  0
ARC
  8
1
 62
2
 10
2883.217603200853
 20
-872.6893399417739
 30
0
 40
0.5
 50
0
 51
52.49999999993851
  0
ARC
  8
1
 62
2
 10
2853.717603200853
 20
-873.296440435082
 30
0
 40
0.5000000000000411
 50
119.9999999999973
 51
180
  0
ARC
  8
1
 62
2
 10
2864.962577797068
 20
-866.8041513249265
 30
0
 40
0.4999999999997917
 50
105.5422682233184
 51
119.999999999894
  0
ARC
  8
1
 62
2
 10
2875.547876071421
 20
-866.8041513249265
 30
0
 40
0.5000000000000657
 50
70.1563719320955
 51
90
  0
ARC
  8
1
 62
2
 10
2864.581205358879
 20
-831.0813319080941
 30
0
 40
0.09999999999990905
 50
90
 51
172.2063802544768
  0
ARC
  8
1
 62
2
 10
2864.728603200852
 20
-831.0813319080941
 30
0
 40
0.1000000000012733
 50
0
 51
90
  0
ARC
  8
1
 62
2
 10
2875.817603200853
 20
-831.0813319080941
 30
0
 40
0.09999999999990905
 50
90
 51
180
  0
ARC
  8
1
 62
2
 10
2875.877787427004
 20
-831.0813319080941
 30
0
 40
0.1000000000001185
 50
5.840998068101625
 51
90
  0
ARC
  8
1
 62
2
 10
2773.597901221744
 20
-794.4313319080903
 30
0
 40
1.999999999999773
 50
90
 51
124.9999999999547
  0
ARC
  8
1
 62
2
 10
2774.669917103931
 20
-797.8313319080902
 30
0
 40
2
 50
90
 51
124.999999999944
  0
ARC
  8
1
 62
2
 10
2759.178530872416
 20
-805.3824259350582
 30
0
 40
2.000000000000321
 50
305.0000000000225
 51
14.51268488531559
  0
ARC
  8
1
 62
2
 10
2755.707889337405
 20
-807.812595300297
 30
0
 40
1.999999999999241
 50
215.0000000000123
 51
235.487315114641
  0
ARC
  8
1
 62
2
 10
2774.116309000581
 20
-792.4813319080905
 30
0
 40
2
 50
90
 51
125.0000000000294
  0
ARC
  8
1
 62
2
 10
2777.434406802776
 20
-789.4813319080903
 30
0
 40
1.000000000000227
 50
270
 51
0
  0
ARC
  8
1
 62
2
 10
2762.744609404266
 20
-804.3503603717232
 30
0
 40
0.4999999999995773
 50
124.9999999999515
 51
214.9999999999344
  0
ARC
  8
1
 62
2
 10
2763.15418542641
 20
-804.0635721535474
 30
0
 40
0.499999999999596
 50
35.0000000000454
 51
125.0000000000795
  0
ARC
  8
1
 62
2
 10
2769.297825758577
 20
-799.7617488809145
 30
0
 40
0.4999999999990556
 50
124.9999999998661
 51
215.0000000001265
  0
ARC
  8
1
 62
2
 10
2769.707401780723
 20
-799.4749606627394
 30
0
 40
0.5000000000004715
 50
35.00000000000696
 51
125.00000000015
  0
ARC
  8
1
 62
2
 10
2667.187636724652
 20
-790.3106957141491
 30
0
 40
3.000000000001053
 50
145.4203126766516
 51
174.4712206344855
  0
ARC
  8
1
 62
2
 10
2773.934406802776
 20
-803.5956724970637
 30
0
 40
3
 50
0
 51
54.47122063449264
  0
ARC
  8
1
 62
2
 10
2769.070102338071
 20
-788.0796890255937
 30
0
 40
3.000000000001488
 50
305.0000000000461
 51
15.52877936550165
  0
ARC
  8
1
 62
2
 10
2713.24688458474
 20
-880.9813319080905
 30
0
 40
2.999999999999773
 50
270
 51
294.4712206344789
  0
ARC
  8
1
 62
2
 10
2773.934406802776
 20
-803.5956724970637
 30
0
 40
2.999999999999728
 50
54.47122063449264
 51
125.0000000000247
  0
ARC
  8
1
 62
2
 10
2750.167324245706
 20
-819.0167882760146
 30
0
 40
2.000000000000321
 50
125.0000000000225
 51
192.5705732811988
  0
ARC
  8
1
 62
2
 10
2755.707889337405
 20
-807.812595300297
 30
0
 40
1.999999999999819
 50
235.487315114641
 51
305.0000000000225
  0
ARC
  8
1
 62
2
 10
2723.786992878945
 20
-880.9813319080905
 30
0
 40
3.00000000000086
 50
184.999999999994
 51
255.5287793654853
  0
ARC
  8
1
 62
2
 10
2663.934406802776
 20
-800.3791578369454
 30
0
 40
2.999999999999786
 50
65.00000000000078
 51
135.528779365529
  0
ARC
  8
1
 62
2
 10
2723.786992878945
 20
-880.9813319080905
 30
0
 40
3.000000000000419
 50
255.5287793654853
 51
270
  0
ARC
  8
1
 62
2
 10
2713.24688458474
 20
-880.9813319080905
 30
0
 40
2.999999999999578
 50
294.4712206344789
 51
5.000000000004921
  0
ARC
  8
1
 62
2
 10
2663.934406802776
 20
-800.3791578369454
 30
0
 40
3.000000000001141
 50
135.528779365529
 51
180
  0
ARC
  8
1
 62
2
 10
2689.009133271096
 20
-812.0716948152639
 30
0
 40
3.000000000001117
 50
335.070412485307
 51
65.00000000001653
  0
ARC
  8
1
 62
2
 10
2694.988628651951
 20
-803.2745111541534
 30
0
 40
3.000000000000171
 50
244.9999999999851
 51
316.5212517631042
  0
ARC
  8
1
 62
2
 10
2721.850944488808
 20
-858.8521975481364
 30
0
 40
2.999999999999763
 50
95.07041248532252
 51
185.0000000000026
  0
ARC
  8
1
 62
2
 10
2711.242612266101
 20
-858.0723944770608
 30
0
 40
2.999999999999994
 50
5.000000000004163
 51
76.52125176318357
  0
ARC
  8
1
 62
2
 10
2663.434406802776
 20
-770.4813319080909
 30
0
 40
4.000000000000341
 50
90
 51
180
  0
ARC
  8
1
 62
2
 10
2774.434406802777
 20
-770.4813319080907
 30
0
 40
3.999999999998636
 50
0
 51
90
  0
ARC
  8
1
 62
2
 10
2774.434406802778
 20
-881.4813319080904
 30
0
 40
4.000000000000114
 50
270
 51
0
  0
ARC
  8
1
 62
2
 10
2663.434406802776
 20
-881.4813319080901
 30
0
 40
4
 50
180
 51
270
  0
ARC
  8
1
 62
2
 10
2758.888739841046
 20
-799.4814668559226
 30
0
 40
0.4999999999992419
 50
124.9999999998512
 51
200.0685828217777
  0
ARC
  8
1
 62
2
 10
2769.070102338071
 20
-788.0796890255937
 30
0
 40
3.000000000002384
 50
15.52877936550165
 51
37.08859483160226
  0
ARC
  8
1
 62
2
 10
2667.187636724652
 20
-790.3106957141491
 30
0
 40
3.000000000002244
 50
174.4712206344855
 51
244.9999999999675
  0
ARC
  8
1
 62
2
 10
2865.334257742576
 20
-791.5979985747568
 30
0
 40
0.8333333333334849
 50
270
 51
0
  0
ARC
  8
1
 62
2
 10
2867.900924409241
 20
-794.1646652414235
 30
0
 40
1.666666666666743
 50
270
 51
0
  0
ARC
  8
1
 62
2
 10
2851.517603200853
 20
-794.1313319080902
 30
0
 40
1.699999999999818
 50
90
 51
180
  0
LINE
  8
1
 62
2
 10
2890.458569920356
 20
-912.8425320429157
 30
0
 11
2847.971904355706
 21
-912.8425320429157
 31
0
  0
SOLID
  8
1
 62
2
 10
2851.471904355706
 20
-912.3817483013597
 30
0
 11
2851.471904355706
 21
-913.3033157844716
 31
0
 12
2847.971904355706
 22
-912.8425320429157
 32
0
 13
2847.971904355706
 23
-912.8425320429157
 33
0
  0
LINE
  8
1
 62
2
 10
2699.265806493646
 20
-914.0428779551711
 30
0
 11
2693.398337026878
 21
-912.5238005042839
 31
0
  0
SOLID
  8
1
 62
2
 10
2696.902111519292
 20
-912.954945448348
 30
0
 11
2696.67113477587
 21
-913.8470981090105
 31
0
 12
2693.398337026878
 22
-912.5238005042839
 32
0
 13
2693.398337026878
 23
-912.5238005042839
 33
0
  0
TEXT
  8
1
 62
2
 10
2857.52298572133
 20
-909.1488150267344
 30
0
 40
8
  1
風　向
 41
0.9
  0
TEXT
  8
1
 62
2
 10
2707.085405599958
 20
-910.9694096988974
 30
0
 40
8
  1
回転方向
 41
0.7200000000000001
  0
DIMENSION
  8
1
  6
CONTINUOUS
 62
2
  2
*D0
  3
DMST_1
 10
2887.717603200853
 20
-751.4813319080903
 30
0
 11
2896.61099637611
 21
-748.2313319080903
 31
0
 12
0
 22
0
 32
0
 70
0
 13
2883.717603200853
 23
-766.4813319080903
 33
0
 14
2887.717603200853
 24
-766.4813319080903
 34
0
 50
180
 53
0
  0
DIMENSION
  8
1
  6
CONTINUOUS
 62
2
  2
*D1
  3
DMST_1
 10
2849.217603200853
 20
-751.4813319080903
 30
0
 11
2838.71814609839
 21
-748.2313319080903
 31
0
 12
0
 22
0
 32
0
 70
0
 13
2853.217603200853
 23
-766.4813319080903
 33
0
 14
2849.217603200853
 24
-766.4813319080903
 34
0
 50
180
 53
0
  0
DIMENSION
  8
1
  6
CONTINUOUS
 62
2
  2
*D2
  3
DMST_2
 10
2849.217603200853
 20
-741.4813319080903
 30
0
 11
2868.467603200853
 21
-738.2313319080903
 31
0
 12
0
 22
0
 32
0
 70
0
 13
2887.717603200853
 23
-766.4813319080903
 33
0
 14
2849.217603200853
 24
-766.4813319080903
 34
0
 50
180
 53
0
  0
DIMENSION
  8
1
  6
CONTINUOUS
 62
2
  2
*D3
  3
DMST_3
 10
2666.434406802776
 20
-750.9813319080903
 30
0
 11
2718.934406802776
 21
-747.7313319080903
 31
0
 12
0
 22
0
 32
0
 70
0
  1
□<>
 13
2771.434406802776
 23
-769.2925942885094
 33
0
 14
2666.434406802776
 24
-768.0997085426442
 34
0
 53
0
  0
DIMENSION
  8
1
  6
CONTINUOUS
 62
2
  2
*D4
  3
DMST_4
 10
2659.434406802776
 20
-740.9813319080903
 30
0
 11
2718.934406802776
 21
-737.7313319080903
 31
0
 12
0
 22
0
 32
0
 70
0
  1
□<>
 13
2778.434406802776
 23
-770.4813319080906
 33
0
 14
2659.434406802776
 24
-770.4813319080906
 34
0
 53
0
  0
DIMENSION
  8
1
  6
CONTINUOUS
 62
2
  2
*D5
  3
DMST_5
 10
2770.043562786412
 20
-876.7127016691358
 30
0
 11
2807.27980285734
 21
-891.3592033413401
 31
0
 12
0
 22
0
 32
0
 70
3
  1
8-%%c<>
 15
2772.82525081914
 25
-880.249962147045
 35
0
 40
0
 53
0
  0
ENDSEC
  0
EOF
