  0
SECTION
  2
HEADER
  9
$ACADVER
  1
AC1014
  9
$ACADMAINTVER
 70
             0
  9
$DWGCODEPAGE
  3
ANSI_1252
  9
$INSBASE
 10
0.0
 20
0.0
 30
0.0
  9
$EXTMIN
 10
7.9074005654713
 20
2.06784423964035
 30
0.0
  9
$EXTMAX
 10
283.39947991062411
 20
165.50000000000031
 30
0.0
  9
$LIMMIN
 10
0.0
 20
0.0
  9
$LIMMAX
 10
0.0
 20
0.0
  9
$ORTHOMODE
 70
             0
  9
$REGENMODE
 70
             1
  9
$FILLMODE
 70
             1
  9
$QTEXTMODE
 70
             0
  9
$MIRRTEXT
 70
             1
  9
$DRAGMODE
 70
             2
  9
$LTSCALE
 40
1.0
  9
$OSMODE
 70
             0
  9
$ATTMODE
 70
             1
  9
$TEXTSIZE
 40
0.2
  9
$TRACEWID
 40
0.05
  9
$TEXTSTYLE
  7
STANDARD
  9
$CLAYER
  8
0
  9
$CELTYPE
  6
CONTINUOUS
  9
$CECOLOR
 62
           256
  9
$CELTSCALE
 40
1.0
  9
$DELOBJ
 70
             1
  9
$DISPSILH
 70
             0
  9
$DIMSCALE
 40
1.0
  9
$DIMASZ
 40
0.18
  9
$DIMEXO
 40
0.0625
  9
$DIMDLI
 40
0.38
  9
$DIMRND
 40
0.0
  9
$DIMDLE
 40
0.0
  9
$DIMEXE
 40
0.18
  9
$DIMTP
 40
0.0
  9
$DIMTM
 40
0.0
  9
$DIMTXT
 40
0.18
  9
$DIMCEN
 40
0.09
  9
$DIMTSZ
 40
0.0
  9
$DIMTOL
 70
             0
  9
$DIMLIM
 70
             0
  9
$DIMTIH
 70
             1
  9
$DIMTOH
 70
             1
  9
$DIMSE1
 70
             0
  9
$DIMSE2
 70
             0
  9
$DIMTAD
 70
             0
  9
$DIMZIN
 70
             0
  9
$DIMBLK
  1

  9
$DIMASO
 70
             1
  9
$DIMSHO
 70
             1
  9
$DIMPOST
  1

  9
$DIMAPOST
  1

  9
$DIMALT
 70
             0
  9
$DIMALTD
 70
             2
  9
$DIMALTF
 40
25.4
  9
$DIMLFAC
 40
1.0
  9
$DIMTOFL
 70
             0
  9
$DIMTVP
 40
0.0
  9
$DIMTIX
 70
             0
  9
$DIMSOXD
 70
             0
  9
$DIMSAH
 70
             0
  9
$DIMBLK1
  1

  9
$DIMBLK2
  1

  9
$DIMSTYLE
  2
STANDARD
  9
$DIMCLRD
 70
             0
  9
$DIMCLRE
 70
             0
  9
$DIMCLRT
 70
             0
  9
$DIMTFAC
 40
1.0
  9
$DIMGAP
 40
0.09
  9
$DIMJUST
 70
             0
  9
$DIMSD1
 70
             0
  9
$DIMSD2
 70
             0
  9
$DIMTOLJ
 70
             1
  9
$DIMTZIN
 70
             0
  9
$DIMALTZ
 70
             0
  9
$DIMALTTZ
 70
             0
  9
$DIMFIT
 70
             3
  9
$DIMUPT
 70
             0
  9
$DIMUNIT
 70
             2
  9
$DIMDEC
 70
             4
  9
$DIMTDEC
 70
             4
  9
$DIMALTU
 70
             2
  9
$DIMALTTD
 70
             2
  9
$DIMTXSTY
  7
STANDARD
  9
$DIMAUNIT
 70
             0
  9
$LUNITS
 70
             2
  9
$LUPREC
 70
             4
  9
$SKETCHINC
 40
0.1
  9
$FILLETRAD
 40
0.0
  9
$AUNITS
 70
             0
  9
$AUPREC
 70
             0
  9
$MENU
  1
acad
  9
$ELEVATION
 40
0.0
  9
$PELEVATION
 40
0.0
  9
$THICKNESS
 40
0.0
  9
$LIMCHECK
 70
             0
  9
$BLIPMODE
 70
             1
  9
$CHAMFERA
 40
0.0
  9
$CHAMFERB
 40
0.0
  9
$CHAMFERC
 40
0.0
  9
$CHAMFERD
 40
0.0
  9
$SKPOLY
 70
             0
  9
$TDCREATE
 40
0.000000000
  9
$TDUPDATE
 40
0.000000000
  9
$TDINDWG
 40
0.0000000000
  9
$TDUSRTIMER
 40
0.0000000000
  9
$USRTIMER
 70
             1
  9
$ANGBASE
 50
0.0
  9
$ANGDIR
 70
             0
  9
$PDMODE
 70
             0
  9
$PDSIZE
 40
0.0
  9
$PLINEWID
 40
0.0
  9
$COORDS
 70
             0
  9
$SPLFRAME
 70
             0
  9
$SPLINETYPE
 70
             6
  9
$SPLINESEGS
 70
             8
  9
$ATTDIA
 70
             0
  9
$ATTREQ
 70
             1
  9
$HANDLING
 70
             1
  9
$HANDSEED
  5
30D
  9
$SURFTAB1
 70
             6
  9
$SURFTAB2
 70
             6
  9
$SURFTYPE
 70
             6
  9
$SURFU
 70
             6
  9
$SURFV
 70
             6
  9
$UCSNAME
  2

  9
$UCSORG
 10
0.0
 20
0.0
 30
0.0
  9
$UCSXDIR
 10
1.0
 20
0.0
 30
0.0
  9
$UCSYDIR
 10
0.0
 20
1.0
 30
0.0
  9
$PUCSNAME
  2

  9
$PUCSORG
 10
0.0
 20
0.0
 30
0.0
  9
$PUCSXDIR
 10
1.0
 20
0.0
 30
0.0
  9
$PUCSYDIR
 10
0.0
 20
1.0
 30
0.0
  9
$USERI1
 70
             0
  9
$USERI2
 70
             0
  9
$USERI3
 70
             0
  9
$USERI4
 70
             0
  9
$USERI5
 70
             0
  9
$USERR1
 40
12.01
  9
$USERR2
 40
0.0
  9
$USERR3
 40
0.0
  9
$USERR4
 40
0.0
  9
$USERR5
 40
0.0
  9
$WORLDVIEW
 70
             1
  9
$SHADEDGE
 70
             3
  9
$SHADEDIF
 70
            70
  9
$TILEMODE
 70
             1
  9
$MAXACTVP
 70
            16
  9
$PINSBASE
 10
0.0
 20
0.0
 30
0.0
  9
$PLIMCHECK
 70
             0
  9
$PEXTMIN
 10
1.00000000000000E+20
 20
1.00000000000000E+20
 30
1.00000000000000E+20
  9
$PEXTMAX
 10
-1.00000000000000E+20
 20
-1.00000000000000E+20
 30
-1.00000000000000E+20
  9
$PLIMMIN
 10
0.0
 20
0.0
  9
$PLIMMAX
 10
12.0
 20
9.0
  9
$UNITMODE
 70
             0
  9
$VISRETAIN
 70
             0
  9
$PLINEGEN
 70
             1
  9
$PSLTSCALE
 70
             0
  9
$TREEDEPTH
 70
          3020
  9
$PICKSTYLE
 70
             1
  9
$CMLSTYLE
  2
STANDARD
  9
$CMLJUST
 70
             0
  9
$CMLSCALE
 40
1.0
  9
$PROXYGRAPHICS
 70
             0
  9
$MEASUREMENT
 70
             1
  0
ENDSEC
  0
SECTION
  2
CLASSES
  0
CLASS
  1
LWPOLYLINE
  2
AcDbPolyline
  3
"AutoCAD"
 90
        0
280
             0
281
             1
  0
CLASS
  1
IMAGE
  2
AcDbRasterImage
  3
ISM
 90
      127
280
             0
281
             1
  0
CLASS
  1
OLE2FRAME
  2
AcDbOle2Frame
  3
""
 90
        0
280
             0
281
             1
  0
CLASS
  1
HATCH
  2
AcDbHatch
  3
"ACAD_SEDONA"
 90
        0
280
             0
281
             1
  0
CLASS
  1
DICTIONARYVAR
  2
AcDbDictionaryVar
  3
"AutoCAD"
 90
        0
280
             0
281
             0
  0
CLASS
  1
RASTERVARIABLES
  2
AcDbRasterVariables
  3
ISM
 90
        0
280
             0
281
             0
  0
CLASS
  1
IMAGEDEF
  2
AcDbRasterImageDef
  3
ISM
 90
        0
280
             0
281
             0
  0
CLASS
  1
IMAGEDEF_REACTOR
  2
AcDbRasterImageDefReactor
  3
ISM
 90
        1
280
             0
281
             0
  0
CLASS
  1
IDBUFFER
  2
AcDbIdBuffer
  3
"Acad"
 90
        0
280
             0
281
             0
  0
CLASS
  1
SPATIAL_FILTER
  2
AcDbSpatialFilter
  3
"Acad"
 90
        0
280
             0
281
             0
  0
CLASS
  1
XRECORD
  2
AcDbXrecord
  3
"<Built In>"
 90
        0
280
             0
281
             0
  0
CLASS
  1
SORTENTSTABLE
  2
AcDbSortentsTable
  3
"AutoCAD"
 90
        0
280
             0
281
             0
  0
CLASS
  1
LAYER_INDEX
  2
AcDbLayerIndex
  3
"Acad"
 90
        0
280
             0
281
             0
  0
CLASS
  1
SPATIAL_INDEX
  2
AcDbSpatialIndex
  3
"Acad"
 90
        0
280
             0
281
             0
  0
CLASS
  1
OBJECT_PTR
  2
CAseDLPNTableRecord
  3
"ASE-LPNTableRecord"
 90
        1
280
             0
281
             0
  0
CLASS
  1
LAYOUT
  2
AcDbLayout
  3
"AutoCAD 2000"
 90
        0
280
             0
281
             0
  0
CLASS
  1
PLOTSETTINGS
  2
AcDbPlotSettings
  3
"AutoCAD 2000"
 90
        0
280
             0
281
             0
  0
CLASS
  1
ACDBDICTIONARYWDFLT
  2
AcDbDictionaryWithDefault
  3
"AutoCAD 2000"
 90
        0
280
             0
281
             0
  0
CLASS
  1
ACDBPLACEHOLDER
  2
AcDbPlaceHolder
  3
"AutoCAD 2000"
 90
        0
280
             0
281
             0
  0
ENDSEC
  0
SECTION
  2
TABLES
  0
TABLE
  2
VPORT
  5
7
100
AcDbSymbolTable
 70
             1
  0
VPORT
  5
15
100
AcDbSymbolTableRecord
100
AcDbViewportTableRecord
  2
*ACTIVE
 70
             0
 10
0.0
 20
0.0
 11
1.0
 21
1.0
 12
145.65344023804769
 22
83.78392211982033
 13
0.0
 23
0.0
 14
1.0
 24
1.0
 15
0.0
 25
0.0
 16
0.0
 26
0.0
 36
1.0
 17
0.0
 27
0.0
 37
0.0
 40
189.08425724413843
 41
1.60267857142857
 42
50.0
 43
0.0
 44
0.0
 50
0.0
 51
0.0
 71
             0
 72
           100
 73
             1
 74
             1
 75
             0
 76
             0
 77
             0
 78
             0
  0
ENDTAB
  0
TABLE
  2
LTYPE
  5
4
100
AcDbSymbolTable
 70
            10
  0
LTYPE
  5
11
100
AcDbSymbolTableRecord
100
AcDbLinetypeTableRecord
  2
BYBLOCK
 70
            64
  3

 72
            65
 73
             0
 40
0.0
  0
LTYPE
  5
12
100
AcDbSymbolTableRecord
100
AcDbLinetypeTableRecord
  2
BYLAYER
 70
            64
  3

 72
            65
 73
             0
 40
0.0
  0
LTYPE
  5
13
100
AcDbSymbolTableRecord
100
AcDbLinetypeTableRecord
  2
CONTINUOUS
 70
            64
  3
Solid line
 72
            65
 73
             0
 40
0.0
  0
LTYPE
  5
1D
100
AcDbSymbolTableRecord
100
AcDbLinetypeTableRecord
  2
DASHED
 70
            64
  3
Dashed
 72
            65
 73
             2
 40
15.0
 49
7.0
 74
             0
 49
-8.0
 74
             0
  0
LTYPE
  5
1E
100
AcDbSymbolTableRecord
100
AcDbLinetypeTableRecord
  2
DOTTED
 70
            64
  3
Dotted
 72
            65
 73
             2
 40
1.0
 49
0.0
 74
             0
 49
-1.0
 74
             0
  0
LTYPE
  5
1F
100
AcDbSymbolTableRecord
100
AcDbLinetypeTableRecord
  2
DOT_CENTER
 70
            64
  3
Dot_Center
 72
            65
 73
             4
 40
14.0
 49
12.0
 74
             0
 49
-1.0
 74
             0
 49
0.0
 74
             0
 49
-1.0
 74
             0
  0
LTYPE
  5
20
100
AcDbSymbolTableRecord
100
AcDbLinetypeTableRecord
  2
LONG_DASHED
 70
            64
  3
Long_Dashed
 72
            65
 73
             2
 40
15.0
 49
10.0
 74
             0
 49
-5.0
 74
             0
  0
LTYPE
  5
21
100
AcDbSymbolTableRecord
100
AcDbLinetypeTableRecord
  2
DASH_CENTER
 70
            64
  3
Dash_Center
 72
            65
 73
             4
 40
14.0
 49
11.0
 74
             0
 49
-1.0
 74
             0
 49
1.0
 74
             0
 49
-1.0
 74
             0
  0
LTYPE
  5
22
100
AcDbSymbolTableRecord
100
AcDbLinetypeTableRecord
  2
PHANTOM
 70
            64
  3
Phantom
 72
            65
 73
             6
 40
13.0
 49
10.0
 74
             0
 49
-1.0
 74
             0
 49
0.0
 74
             0
 49
-1.0
 74
             0
 49
0.0
 74
             0
 49
-1.0
 74
             0
  0
LTYPE
  5
23
100
AcDbSymbolTableRecord
100
AcDbLinetypeTableRecord
  2
CENTER_DASH_DASH
 70
            64
  3
Center_Dash_Dash
 72
            65
 73
             6
 40
14.0
 49
9.0
 74
             0
 49
-1.0
 74
             0
 49
1.0
 74
             0
 49
-1.0
 74
             0
 49
1.0
 74
             0
 49
-1.0
 74
             0
  0
ENDTAB
  0
TABLE
  2
LAYER
  5
2
100
AcDbSymbolTable
 70
             3
  0
LAYER
  5
14
100
AcDbSymbolTableRecord
100
AcDbLayerTableRecord
  2
0
 70
             0
 62
             7
  6
CONTINUOUS
  0
LAYER
  5
24
100
AcDbSymbolTableRecord
100
AcDbLayerTableRecord
  2
1
 70
             0
 62
             7
  6
CONTINUOUS
  0
LAYER
  5
25
100
AcDbSymbolTableRecord
100
AcDbLayerTableRecord
  2
___C_____1
 70
             0
 62
             7
  6
CONTINUOUS
  0
ENDTAB
  0
TABLE
  2
STYLE
  5
3
100
AcDbSymbolTable
 70
             2
  0
STYLE
  5
17
100
AcDbSymbolTableRecord
100
AcDbTextStyleTableRecord
  2
STANDARD
 70
             0
 40
0.0
 41
1.0
 50
0.0
 71
             0
 42
0.0
  3
txt
  4

  0
STYLE
  5
2AA
100
AcDbSymbolTableRecord
100
AcDbTextStyleTableRecord
  2
CONVERTER_1
 70
             0
 40
0.0
 41
0.9
 50
0.0
 71
             0
 42
0.0
  3
txt.shx
  4

  0
ENDTAB
  0
TABLE
  2
VIEW
  5
5
100
AcDbSymbolTable
 70
             0
  0
ENDTAB
  0
TABLE
  2
UCS
  5
6
100
AcDbSymbolTable
 70
             0
  0
ENDTAB
  0
TABLE
  2
APPID
  5
8
100
AcDbSymbolTable
 70
             1
  0
APPID
  5
16
100
AcDbSymbolTableRecord
100
AcDbRegAppTableRecord
  2
ACAD
 70
             0
  0
ENDTAB
  0
TABLE
  2
DIMSTYLE
  5
9
100
AcDbSymbolTable
 70
             7
  0
DIMSTYLE
105
18
100
AcDbSymbolTableRecord
100
AcDbDimStyleTableRecord
  2
STANDARD
 70
             0
  3

  4

  5

  6

  7

 40
1.0
 41
0.18
 42
0.0625
 43
0.38
 44
0.18
 45
0.0
 46
0.0
 47
0.0
 48
0.0
 71
             0
 72
             0
 73
             1
 74
             1
 75
             0
 76
             0
 77
             0
 78
             0
140
0.18
141
0.09
142
0.0
143
25.4
144
1.0
145
0.0
146
1.0
147
0.09
170
             0
171
             2
172
             0
173
             0
174
             0
175
             0
176
             0
177
             0
178
             0
270
             2
271
             4
272
             4
273
             2
274
             2
275
             0
280
             0
281
             0
282
             0
283
             1
284
             0
285
             0
286
             0
287
             3
288
             0
340
17
  0
DIMSTYLE
105
2B6
100
AcDbSymbolTableRecord
100
AcDbDimStyleTableRecord
  2
ME10_DIM_0
 70
             0
  3

  4

  5

  6

  7

 40
1.0
 41
4.0
 42
1.0
 43
0.38
 44
1.5
 45
0.0
 46
0.0
 47
30.0
 48
30.0
 71
             1
 72
             0
 73
             1
 74
             1
 75
             0
 76
             0
 77
             1
 78
             8
140
4.0
141
0.09
142
0.0
143
25.4
144
1.0
145
0.0
146
0.625
147
0.625
170
             0
171
             2
172
             1
173
             1
174
             0
175
             0
176
             2
177
             2
178
             2
270
             2
271
             4
272
             0
273
             2
274
             2
275
             0
280
             0
281
             0
282
             0
283
             1
284
             0
285
             0
286
             0
287
             3
288
             0
340
2AA
  0
DIMSTYLE
105
2C3
100
AcDbSymbolTableRecord
100
AcDbDimStyleTableRecord
  2
ME10_DIM_1
 70
             0
  3

  4

  5

  6

  7

 40
1.0
 41
4.0
 42
1.0
 43
0.38
 44
1.5
 45
0.0
 46
0.0
 47
0.5
 48
0.5
 71
             1
 72
             0
 73
             1
 74
             1
 75
             0
 76
             0
 77
             1
 78
             8
140
4.0
141
0.09
142
0.0
143
25.4
144
1.0
145
0.0
146
0.625
147
0.625
170
             0
171
             2
172
             1
173
             1
174
             0
175
             0
176
             2
177
             2
178
             2
270
             2
271
             4
272
             1
273
             2
274
             2
275
             0
280
             0
281
             0
282
             0
283
             1
284
             0
285
             0
286
             0
287
             3
288
             0
340
2AA
  0
DIMSTYLE
105
2D0
100
AcDbSymbolTableRecord
100
AcDbDimStyleTableRecord
  2
ME10_DIM_2
 70
             0
  3

  4

  5

  6

  7

 40
1.0
 41
4.0
 42
1.0
 43
0.38
 44
1.5
 45
0.0
 46
0.0
 47
0.5
 48
0.5
 71
             1
 72
             0
 73
             1
 74
             1
 75
             0
 76
             0
 77
             1
 78
             8
140
4.0
141
0.09
142
0.0
143
25.4
144
1.0
145
0.0
146
0.625
147
0.625
170
             0
171
             2
172
             1
173
             1
174
             0
175
             0
176
             2
177
             2
178
             2
270
             2
271
             4
272
             1
273
             2
274
             2
275
             0
280
             0
281
             0
282
             0
283
             1
284
             0
285
             0
286
             0
287
             3
288
             0
340
2AA
  0
DIMSTYLE
105
2DB
100
AcDbSymbolTableRecord
100
AcDbDimStyleTableRecord
  2
ME10_DIM_3
 70
             0
  3

  4

  5

  6

  7

 40
1.0
 41
4.0
 42
1.0
 43
0.38
 44
1.5
 45
0.0
 46
0.0
 47
0.5
 48
0.5
 71
             1
 72
             0
 73
             1
 74
             1
 75
             0
 76
             0
 77
             1
 78
             8
140
4.0
141
0.09
142
0.0
143
25.4
144
1.0
145
0.0
146
0.625
147
0.625
170
             0
171
             2
172
             1
173
             1
174
             0
175
             0
176
             2
177
             2
178
             2
270
             2
271
             4
272
             1
273
             2
274
             2
275
             0
280
             0
281
             0
282
             0
283
             1
284
             0
285
             0
286
             0
287
             3
288
             0
340
2AA
  0
DIMSTYLE
105
2E6
100
AcDbSymbolTableRecord
100
AcDbDimStyleTableRecord
  2
ME10_DIM_4
 70
             0
  3
 <>
  4

  5

  6

  7

 40
1.0
 41
4.0
 42
1.0
 43
0.38
 44
1.5
 45
0.0
 46
0.0
 47
0.3
 48
0.3
 71
             1
 72
             0
 73
             1
 74
             1
 75
             0
 76
             0
 77
             1
 78
             8
140
4.0
141
0.09
142
0.0
143
25.4
144
1.0
145
0.0
146
0.625
147
0.625
170
             0
171
             2
172
             1
173
             1
174
             0
175
             0
176
             2
177
             2
178
             2
270
             2
271
             4
272
             1
273
             2
274
             2
275
             0
280
             0
281
             0
282
             0
283
             1
284
             0
285
             0
286
             0
287
             3
288
             0
340
2AA
  0
DIMSTYLE
105
2F1
100
AcDbSymbolTableRecord
100
AcDbDimStyleTableRecord
  2
ME10_DIM_5
 70
             0
  3
 <>
  4

  5

  6

  7

 40
1.0
 41
4.0
 42
1.0
 43
0.38
 44
1.5
 45
0.0
 46
0.0
 47
1.0
 48
1.0
 71
             1
 72
             0
 73
             1
 74
             1
 75
             0
 76
             0
 77
             1
 78
             8
140
4.0
141
0.09
142
0.0
143
25.4
144
1.0
145
0.0
146
0.625
147
0.625
170
             0
171
             2
172
             1
173
             1
174
             0
175
             0
176
             2
177
             2
178
             2
270
             2
271
             4
272
             0
273
             2
274
             2
275
             0
280
             0
281
             0
282
             0
283
             1
284
             0
285
             0
286
             0
287
             3
288
             0
340
2AA
  0
ENDTAB
  0
TABLE
  2
BLOCK_RECORD
  5
1
100
AcDbSymbolTable
 70
             8
  0
BLOCK_RECORD
  5
A
100
AcDbSymbolTableRecord
100
AcDbBlockTableRecord
  2
*MODEL_SPACE
  0
BLOCK_RECORD
  5
B
100
AcDbSymbolTableRecord
100
AcDbBlockTableRecord
  2
*PAPER_SPACE
  0
BLOCK_RECORD
  5
2AD
100
AcDbSymbolTableRecord
100
AcDbBlockTableRecord
  2
*D0
  0
BLOCK_RECORD
  5
2B8
100
AcDbSymbolTableRecord
100
AcDbBlockTableRecord
  2
*D1
  0
BLOCK_RECORD
  5
2C5
100
AcDbSymbolTableRecord
100
AcDbBlockTableRecord
  2
*D2
  0
BLOCK_RECORD
  5
2D2
100
AcDbSymbolTableRecord
100
AcDbBlockTableRecord
  2
*D3
  0
BLOCK_RECORD
  5
2DD
100
AcDbSymbolTableRecord
100
AcDbBlockTableRecord
  2
*D4
  0
BLOCK_RECORD
  5
2E8
100
AcDbSymbolTableRecord
100
AcDbBlockTableRecord
  2
*D5
  0
BLOCK_RECORD
  5
2F3
100
AcDbSymbolTableRecord
100
AcDbBlockTableRecord
  2
*D6
  0
BLOCK_RECORD
  5
2FB
100
AcDbSymbolTableRecord
100
AcDbBlockTableRecord
  2
*D7
  0
ENDTAB
  0
ENDSEC
  0
SECTION
  2
BLOCKS
  0
BLOCK
  5
D
100
AcDbEntity
  8
0
100
AcDbBlockBegin
  2
*MODEL_SPACE
 70
             0
 10
0.0
 20
0.0
 30
0.0
  3
*MODEL_SPACE
  1

  0
ENDBLK
  5
E
100
AcDbEntity
  8
0
100
AcDbBlockEnd
  0
BLOCK
  5
F
100
AcDbEntity
 67
             1
  8
0
100
AcDbBlockBegin
  2
*PAPER_SPACE
 70
             0
 10
0.0
 20
0.0
 30
0.0
  3
*PAPER_SPACE
  1

  0
ENDBLK
  5
10
100
AcDbEntity
 67
             1
  8
0
100
AcDbBlockEnd
  0
BLOCK
  5
2AE
100
AcDbEntity
  8
0
100
AcDbBlockBegin
  2
*D0
 70
             1
 10
0.0
 20
0.0
 30
0.0
  3
*D0
  1

  0
LINE
  5
2AF
100
AcDbEntity
  8
0
  6
CONTINUOUS
 62
             2
100
AcDbLine
 10
149.5
 20
159.50000000000031
 11
198.15728638004569
 21
159.50000000000031
  0
LINE
  5
2B0
100
AcDbEntity
  8
0
  6
CONTINUOUS
 62
             2
100
AcDbLine
 10
198.15728638004569
 20
123.40000000000052
 11
198.15728638004569
 21
161.00000000000031
  0
LINE
  5
2B1
100
AcDbEntity
  8
0
  6
CONTINUOUS
 62
             2
100
AcDbLine
 10
149.5
 20
133.70436414567584
 11
149.5
 21
161.00000000000031
  0
SOLID
  5
2B2
100
AcDbEntity
  8
0
 62
             2
100
AcDbTrace
 10
153.5
 20
160.0266099903499
 11
153.5
 21
158.97339000965073
 12
149.5
 22
159.50000000000031
 13
149.5
 23
159.50000000000031
  0
SOLID
  5
2B3
100
AcDbEntity
  8
0
 62
             2
100
AcDbTrace
 10
194.15728638004569
 20
158.97339000965073
 11
194.15728638004569
 21
160.0266099903499
 12
198.15728638004569
 22
159.50000000000031
 13
198.15728638004569
 23
159.50000000000031
  0
MTEXT
  5
2B4
100
AcDbEntity
  8
0
 62
             2
100
AcDbMText
 10
165.38959988585808
 20
161.50000000000031
 30
0.0
 40
4.0
 41
0.0
 71
             7
 72
             1
  1
\C2;300\C2;\H2.500000;{\Fgdt;`}30
  7
CONVERTER_1
 11
0.99999999999706
 21
0.00000242406841
 31
0.0
  0
ENDBLK
  5
2B5
100
AcDbEntity
  8
0
100
AcDbBlockEnd
  0
BLOCK
  5
2B9
100
AcDbEntity
  8
0
100
AcDbBlockBegin
  2
*D1
 70
             1
 10
0.0
 20
0.0
 30
0.0
  3
*D1
  1

  0
LINE
  5
2BA
100
AcDbEntity
  8
0
  6
CONTINUOUS
 62
             2
100
AcDbLine
 10
245.89852161261848
 20
149.50000000000031
 11
231.3714532114501
 21
149.50000000000031
  0
LINE
  5
2BB
100
AcDbEntity
  8
0
  6
CONTINUOUS
 62
             2
100
AcDbLine
 10
250.89852161261848
 20
149.50000000000031
 11
245.89852161261848
 21
149.50000000000031
  0
LINE
  5
2BC
100
AcDbEntity
  8
0
  6
CONTINUOUS
 62
             2
100
AcDbLine
 10
258.89852161261848
 20
149.50000000000031
 11
250.89852161261848
 21
149.50000000000031
  0
LINE
  5
2BD
100
AcDbEntity
  8
0
  6
CONTINUOUS
 62
             2
100
AcDbLine
 10
245.89852161261848
 20
140.00000000000003
 11
245.89852161261848
 21
151.00000000000031
  0
LINE
  5
2BE
100
AcDbEntity
  8
0
  6
CONTINUOUS
 62
             2
100
AcDbLine
 10
250.89852161261848
 20
140.50000000000003
 11
250.89852161261848
 21
151.00000000000031
  0
SOLID
  5
2BF
100
AcDbEntity
  8
0
 62
             2
100
AcDbTrace
 10
254.89852161261848
 20
150.0266099903499
 11
254.89852161261848
 21
148.97339000965073
 12
250.89852161261848
 22
149.50000000000031
 13
250.89852161261848
 23
149.50000000000031
  0
SOLID
  5
2C0
100
AcDbEntity
  8
0
 62
             2
100
AcDbTrace
 10
241.89852161261848
 20
148.97339000965073
 11
241.89852161261848
 21
150.0266099903499
 12
245.89852161261848
 22
149.50000000000031
 13
245.89852161261848
 23
149.50000000000031
  0
MTEXT
  5
2C1
100
AcDbEntity
  8
0
 62
             2
100
AcDbMText
 10
231.3714532114501
 20
151.50000000000031
 30
0.0
 40
4.0
 41
0.0
 71
             7
 72
             1
  1
\C2;5\C2;\H2.500000;{\Fgdt;`}0.5
  7
CONVERTER_1
 11
0.99999999999706
 21
0.00000242406841
 31
0.0
  0
ENDBLK
  5
2C2
100
AcDbEntity
  8
0
100
AcDbBlockEnd
  0
BLOCK
  5
2C6
100
AcDbEntity
  8
0
100
AcDbBlockBegin
  2
*D2
 70
             1
 10
0.0
 20
0.0
 30
0.0
  3
*D2
  1

  0
LINE
  5
2C7
100
AcDbEntity
  8
0
  6
CONTINUOUS
 62
             2
100
AcDbLine
 10
266.39852161261854
 20
149.50000000000031
 11
258.39852161261854
 21
149.50000000000031
  0
LINE
  5
2C8
100
AcDbEntity
  8
0
  6
CONTINUOUS
 62
             2
100
AcDbLine
 10
271.39852161261854
 20
149.50000000000031
 11
266.39852161261854
 21
149.50000000000031
  0
LINE
  5
2C9
100
AcDbEntity
  8
0
  6
CONTINUOUS
 62
             2
100
AcDbLine
 10
283.39947991062411
 20
149.50000000000031
 11
271.39852161261854
 21
149.50000000000031
  0
LINE
  5
2CA
100
AcDbEntity
  8
0
  6
CONTINUOUS
 62
             2
100
AcDbLine
 10
266.39852161261854
 20
140.50000000000003
 11
266.39852161261854
 21
151.00000000000031
  0
LINE
  5
2CB
100
AcDbEntity
  8
0
  6
CONTINUOUS
 62
             2
100
AcDbLine
 10
271.39852161261854
 20
140.00000000000011
 11
271.39852161261854
 21
151.00000000000031
  0
SOLID
  5
2CC
100
AcDbEntity
  8
0
 62
             2
100
AcDbTrace
 10
275.39852161261854
 20
150.0266099903499
 11
275.39852161261854
 21
148.97339000965073
 12
271.39852161261854
 22
149.50000000000031
 13
271.39852161261854
 23
149.50000000000031
  0
SOLID
  5
2CD
100
AcDbEntity
  8
0
 62
             2
100
AcDbTrace
 10
262.39852161261854
 20
148.97339000965073
 11
262.39852161261854
 21
150.0266099903499
 12
266.39852161261854
 22
149.50000000000031
 13
266.39852161261854
 23
149.50000000000031
  0
MTEXT
  5
2CE
100
AcDbEntity
  8
0
 62
             2
100
AcDbMText
 10
272.56197991062413
 20
151.50000000000031
 30
0.0
 40
4.0
 41
0.0
 71
             7
 72
             1
  1
\C2;5\C2;\H2.500000;{\Fgdt;`}0.5
  7
CONVERTER_1
 11
0.99999999999706
 21
0.00000242406841
 31
0.0
  0
ENDBLK
  5
2CF
100
AcDbEntity
  8
0
100
AcDbBlockEnd
  0
BLOCK
  5
2D3
100
AcDbEntity
  8
0
100
AcDbBlockBegin
  2
*D3
 70
             1
 10
0.0
 20
0.0
 30
0.0
  3
*D3
  1

  0
LINE
  5
2D4
100
AcDbEntity
  8
0
  6
CONTINUOUS
 62
             2
100
AcDbLine
 10
271.39852161261848
 20
159.50000000000031
 11
245.89852161261848
 21
159.50000000000031
  0
LINE
  5
2D5
100
AcDbEntity
  8
0
  6
CONTINUOUS
 62
             2
100
AcDbLine
 10
245.89852161261848
 20
140.00000000000003
 11
245.89852161261848
 21
161.00000000000031
  0
LINE
  5
2D6
100
AcDbEntity
  8
0
  6
CONTINUOUS
 62
             2
100
AcDbLine
 10
271.39852161261848
 20
140.00000000000011
 11
271.39852161261848
 21
161.00000000000031
  0
SOLID
  5
2D7
100
AcDbEntity
  8
0
 62
             2
100
AcDbTrace
 10
267.39852161261848
 20
158.97339000965073
 11
267.39852161261848
 21
160.0266099903499
 12
271.39852161261848
 22
159.50000000000031
 13
271.39852161261848
 23
159.50000000000031
  0
SOLID
  5
2D8
100
AcDbEntity
  8
0
 62
             2
100
AcDbTrace
 10
249.89852161261848
 20
160.0266099903499
 11
249.89852161261848
 21
158.97339000965073
 12
245.89852161261848
 22
159.50000000000031
 13
245.89852161261848
 23
159.50000000000031
  0
MTEXT
  5
2D9
100
AcDbEntity
  8
0
 62
             2
100
AcDbMText
 10
248.87977161261847
 20
161.50000000000031
 30
0.0
 40
4.0
 41
0.0
 71
             7
 72
             1
  1
\C2;25.5\C2;\H2.500000;{\Fgdt;`}0.5
  7
CONVERTER_1
 11
0.99999999999706
 21
0.00000242406841
 31
0.0
  0
ENDBLK
  5
2DA
100
AcDbEntity
  8
0
100
AcDbBlockEnd
  0
BLOCK
  5
2DE
100
AcDbEntity
  8
0
100
AcDbBlockBegin
  2
*D4
 70
             1
 10
0.0
 20
0.0
 30
0.0
  3
*D4
  1

  0
LINE
  5
2DF
100
AcDbEntity
  8
0
  6
CONTINUOUS
 62
             2
100
AcDbLine
 10
142.40000000000009
 20
149.50000000000031
 11
37.59999999999988
 21
149.50000000000031
  0
LINE
  5
2E0
100
AcDbEntity
  8
0
  6
CONTINUOUS
 62
             2
100
AcDbLine
 10
142.40000000000009
 20
138.40000000000089
 11
142.40000000000009
 21
151.00000000000031
  0
LINE
  5
2E1
100
AcDbEntity
  8
0
  6
CONTINUOUS
 62
             2
100
AcDbLine
 10
37.59999999999988
 20
138.40000000000089
 11
37.59999999999988
 21
151.00000000000031
  0
SOLID
  5
2E2
100
AcDbEntity
  8
0
 62
             2
100
AcDbTrace
 10
138.40000000000009
 20
148.97339000965073
 11
138.40000000000009
 21
150.0266099903499
 12
142.40000000000009
 22
149.50000000000031
 13
142.40000000000009
 23
149.50000000000031
  0
SOLID
  5
2E3
100
AcDbEntity
  8
0
 62
             2
100
AcDbTrace
 10
41.59999999999988
 20
150.0266099903499
 11
41.59999999999988
 21
148.97339000965073
 12
37.59999999999988
 22
149.50000000000031
 13
37.59999999999988
 23
149.50000000000031
  0
MTEXT
  5
2E4
100
AcDbEntity
  8
0
 62
             2
100
AcDbMText
 10
75.08236111113038
 20
151.49998409811158
 30
0.0
 40
4.0
 41
0.0
 71
             7
 72
             1
  1
\C2; \C2;\C2;104.8\C2;\H2.500000;{\Fgdt;`}0.3
  7
CONVERTER_1
 11
0.99999999999706
 21
0.00000242406841
 31
0.0
  0
ENDBLK
  5
2E5
100
AcDbEntity
  8
0
100
AcDbBlockEnd
  0
BLOCK
  5
2E9
100
AcDbEntity
  8
0
100
AcDbBlockBegin
  2
*D5
 70
             1
 10
0.0
 20
0.0
 30
0.0
  3
*D5
  1

  0
LINE
  5
2EA
100
AcDbEntity
  8
0
  6
CONTINUOUS
 62
             2
100
AcDbLine
 10
149.5
 20
159.50000000000031
 11
30.50000000000048
 21
159.50000000000031
  0
LINE
  5
2EB
100
AcDbEntity
  8
0
  6
CONTINUOUS
 62
             2
100
AcDbLine
 10
149.5
 20
133.70436414567581
 11
149.5
 21
161.00000000000031
  0
LINE
  5
2EC
100
AcDbEntity
  8
0
  6
CONTINUOUS
 62
             2
100
AcDbLine
 10
30.50000000000048
 20
133.70436414567601
 11
30.50000000000048
 21
161.00000000000031
  0
SOLID
  5
2ED
100
AcDbEntity
  8
0
 62
             2
100
AcDbTrace
 10
145.5
 20
158.97339000965073
 11
145.5
 21
160.0266099903499
 12
149.5
 22
159.50000000000031
 13
149.5
 23
159.50000000000031
  0
SOLID
  5
2EE
100
AcDbEntity
  8
0
 62
             2
100
AcDbTrace
 10
34.50000000000048
 20
160.0266099903499
 11
34.50000000000048
 21
158.97339000965073
 12
30.50000000000048
 22
159.50000000000031
 13
30.50000000000048
 23
159.50000000000031
  0
MTEXT
  5
2EF
100
AcDbEntity
  8
0
 62
             2
100
AcDbMText
 10
80.20111111113037
 20
161.49998409811158
 30
0.0
 40
4.0
 41
0.0
 71
             7
 72
             1
  1
\C2; \C2;\C2;119\C2;\H2.500000;{\Fgdt;`}1
  7
CONVERTER_1
 11
0.99999999999706
 21
0.00000242406841
 31
0.0
  0
ENDBLK
  5
2F0
100
AcDbEntity
  8
0
100
AcDbBlockEnd
  0
BLOCK
  5
2F4
100
AcDbEntity
  8
0
100
AcDbBlockBegin
  2
*D6
 70
             1
 10
0.0
 20
0.0
 30
0.0
  3
*D6
  1

  0
LINE
  5
2F5
100
AcDbEntity
  8
0
  6
CONTINUOUS
 62
             2
100
AcDbLine
 10
162.0456800775851
 20
5.5
 11
190.89084374116311
 21
5.5
  0
LINE
  5
2F6
100
AcDbEntity
  8
0
  6
CONTINUOUS
 62
             2
100
AcDbLine
 10
143.89487115888079
 20
25.91837572021987
 11
162.0456800775851
 21
5.5
  0
SOLID
  5
2F7
100
AcDbEntity
  8
0
 62
             2
100
AcDbTrace
 10
146.94600217277835
 20
23.2786943724113
 11
146.15883759878125
 21
22.57894851769839
 12
143.89487115888079
 22
25.91837572021987
 13
143.89487115888079
 23
25.91837572021987
  0
MTEXT
  5
2F8
100
AcDbEntity
  8
0
 62
             2
100
AcDbMText
 10
165.11334374119201
 20
6.93981388249136
 30
0.0
 40
4.0
 41
0.0
 71
             7
 72
             1
  1
\C2;4x{\Fgdt;n}\C2;\C2;4.5\C2;\H2.500000;{\Fgdt;`}0.3
  7
CONVERTER_1
 11
0.99999999999706
 21
0.00000242406841
 31
0.0
  0
ENDBLK
  5
2F9
100
AcDbEntity
  8
0
100
AcDbBlockEnd
  0
BLOCK
  5
2FC
100
AcDbEntity
  8
0
100
AcDbBlockBegin
  2
*D7
 70
             1
 10
0.0
 20
0.0
 30
0.0
  3
*D7
  1

  0
LINE
  5
2FD
100
AcDbEntity
  8
0
  6
CONTINUOUS
 62
             2
100
AcDbLine
 10
27.1874005654713
 20
145.90000000000032
 11
7.9074005654713
 21
145.90000000000032
  0
LINE
  5
2FE
100
AcDbEntity
  8
0
  6
CONTINUOUS
 62
             2
100
AcDbLine
 10
34.80423117104902
 20
137.90878261007572
 11
27.1874005654713
 21
145.90000000000032
  0
SOLID
  5
2FF
100
AcDbEntity
  8
0
 62
             2
100
AcDbTrace
 10
31.03505488954022
 20
140.94730991732496
 11
31.94991519308366
 21
141.81930921603552
 12
34.80423117104902
 22
137.90878261007572
 13
34.80423117104902
 23
137.90878261007572
  0
MTEXT
  5
300
100
AcDbEntity
  8
0
 62
             2
100
AcDbMText
 10
6.49940056548672
 20
147.89998727848933
 30
0.0
 40
3.2
 41
0.0
 71
             7
 72
             1
  1
\C2;{\Fgdt;n}\C2;\C2;160\C2;\H1.920000;{\Fgdt;`}1
  7
CONVERTER_1
 11
0.99999999999706
 21
0.00000242406841
 31
0.0
  0
ENDBLK
  5
301
100
AcDbEntity
  8
0
100
AcDbBlockEnd
  0
ENDSEC
  0
SECTION
  2
ENTITIES
  0
HATCH
  5
30B
100
AcDbEntity
  8
1
  6
CONTINUOUS
 62
             2
100
AcDbHatch
 10
0.0
 20
0.0
 30
0.0
210
0.0
220
0.0
230
1.0
  2
USER
 70
             0
 71
             1
 91
        1
 92
        1
 93
        1
 72
             4
 94
        3
 73
             0
 74
             0
 95
       71
 96
       67
 40
0.0
 40
0.0
 40
0.0
 40
0.0
 40
0.54546021220747
 40
0.65715841500927
 40
0.78730782028349
 40
1.08713325339447
 40
1.42070810108772
 40
1.65214888510626
 40
1.91005077549841
 40
2.32982772248668
 40
2.83612134513939
 40
3.48020916904883
 40
4.17534101721557
 40
4.67616342109472
 40
5.05787631566511
 40
5.22203531401852
 40
5.40988197383046
 40
5.87949862336027
 40
6.49000026774907
 40
7.10050191213785
 40
7.57011856166769
 40
7.75796522147961
 40
7.88139999755975
 40
8.15295650493606
 40
8.42451301231237
 40
8.54794778839251
 40
8.76279144729022
 40
9.27511094158478
 40
9.88658904767826
 40
10.39890854197281
 40
10.61375220087051
 40
10.73165384064812
 40
10.97463787632614
 40
11.29602057552803
 40
11.61242548379426
 40
11.85171319002145
 40
11.96986589892753
 40
12.33199602745862
 40
12.75015883591838
 40
13.09552866854957
 40
13.23927986959492
 40
13.44190608713128
 40
13.79223718996623
 40
14.25732665602702
 40
14.94131828417128
 40
15.63128275462023
 40
16.14794376284395
 40
16.55034116380988
 40
16.72391396494417
 40
16.91421659914138
 40
17.38997318463441
 40
18.00845674577533
 40
18.62694030691625
 40
19.10269689240927
 40
19.29299952660648
 40
19.43979632498004
 40
19.76274928140185
 40
20.08570223782367
 40
20.23249903619723
 40
20.41413114104056
 40
20.84725385259003
 40
21.36420676637489
 40
21.79732947792439
 40
21.97896158276772
 40
22.08281999493425
 40
22.60371792373714
 40
22.60371792373714
 40
22.60371792373714
 40
22.60371792373714
 10
81.534067592832798
 20
96.824745816571763
 10
81.504346800862805
 20
96.61124363598303
 10
81.696233696137654
 20
96.434415256583378
 10
81.956704919431559
 20
96.394237937543494
 10
82.137605200597335
 20
96.403700813516579
 10
82.391953737896884
 20
96.401463341090434
 10
82.680121801277096
 20
96.401387041530498
 10
82.954928928821147
 20
96.405468410976709
 10
83.255351518310164
 20
96.354964762677341
 10
83.627628601033479
 20
96.210422856908508
 10
84.0276458772166
 20
95.838369203852935
 10
84.184802639169078
 20
95.218405706730195
 10
84.101190293257289
 20
94.579732385086643
 10
83.72575927208905
 20
94.173025550478116
 10
83.397463061743508
 20
94.03982289165674
 10
83.156189354063329
 20
93.992195077703741
 10
82.88148250384107
 20
94.006123528501178
 10
82.457987163583596
 20
93.995799039126382
 10
81.902032258705731
 20
94.007318479104441
 10
81.310407961643989
 20
93.97830480404383
 10
80.954821656505956
 20
94.045149129839189
 10
80.595383520894444
 20
93.94662969704676
 10
80.645328399203848
 20
94.189285809733605
 10
80.615900226235951
 20
94.39451620919256
 10
80.644039842188647
 20
94.60207879140286
 10
80.595746982847487
 20
94.851901189304115
 10
80.993746867942264
 20
94.738184373352169
 10
81.365237424262148
 20
94.81288729685474
 10
81.938864075907475
 20
94.782502228907674
 10
82.378578628975063
 20
94.7951470437296
 10
82.661536595554196
 20
94.784459714439777
 10
82.851967090993497
 20
94.805188745425767
 10
83.074023226012116
 20
94.903742280652949
 10
83.184663999683536
 20
95.210755346393398
 10
83.074248854151278
 20
95.519873068136604
 10
82.847823718678882
 20
95.606603466559307
 10
82.608974217140428
 20
95.614679032615442
 10
82.308945851816162
 20
95.610470309218016
 10
81.933793616814086
 20
95.610192317744037
 10
81.631711947439669
 20
95.615135197231126
 10
81.400413919855708
 20
95.605415767219327
 10
81.171968316957333
 20
95.656768979240368
 10
80.856214226689687
 20
95.799564873594079
 10
80.541763543376447
 20
96.220101471031924
 10
80.46137509834378
 20
96.843857679317978
 10
80.594575997449056
 20
97.493934845512683
 10
81.021525363626012
 20
97.864092620867893
 10
81.372167503602014
 20
97.978413065613552
 10
81.626533225779283
 20
98.009226561780707
 10
81.906523196851069
 20
98.000606782948111
 10
82.336630740541921
 20
98.007196251082746
 10
82.896225353114005
 20
97.998679629280076
 10
83.508006883147814
 20
98.021703300806308
 10
83.838758564748218
 20
97.968244902795661
 10
84.2576645036917
 20
98.049253272374045
 10
84.045516766136842
 20
97.812661857515423
 10
83.954866119082553
 20
97.60735748044452
 10
83.785383724977848
 20
97.402986906279779
 10
83.699689573086474
 20
97.168038488148852
 10
83.40395739767402
 20
97.242918586056916
 10
83.052515190863147
 20
97.19666994714575
 10
82.58179859087744
 20
97.214575671802436
 10
82.206511165772824
 20
97.209350851626894
 10
81.966987123536484
 20
97.211993982771361
 10
81.697496235334668
 20
97.204080430613942
 10
81.506661970407919
 20
97.023850078230694
 10
81.534067592832798
 20
96.824745816571763
 97
        1
330
220
 75
             1
 76
             0
 52
45.0
 41
0.04
 77
             0
 78
             1
 53
45.0
 43
0.0
 44
0.0
 45
-0.0282842712474619
 46
0.0282842712474619
 79
             0
 98
        1
 10
0.0
 20
0.0
  0
HATCH
  5
30A
100
AcDbEntity
  8
1
  6
CONTINUOUS
 62
             2
100
AcDbHatch
 10
0.0
 20
0.0
 30
0.0
210
0.0
220
0.0
230
1.0
  2
USER
 70
             0
 71
             1
 91
        1
 92
        1
 93
        1
 72
             4
 94
        3
 73
             0
 74
             0
 95
       69
 96
       65
 40
0.0
 40
0.0
 40
0.0
 40
0.0
 40
0.43561630869524
 40
0.80193002282536
 40
1.10884151304246
 40
1.2375463315206
 40
1.43107664519081
 40
1.91490242936631
 40
2.54387594879446
 40
3.17284946822259
 40
3.65667525239809
 40
3.85020556606829
 40
4.02017324020708
 40
4.3941021233124
 40
4.76803100641772
 40
4.9379986805565
 40
5.07037182585999
 40
5.34709071116764
 40
5.72283423149763
 40
6.08864635789116
 40
6.35019627703314
 40
6.53492928804654
 40
6.81871796308823
 40
7.25582813390625
 40
7.60129841879154
 40
7.77810652347888
 40
8.23408531977782
 40
8.85756653104373
 40
9.53688188063195
 40
10.16036309189785
 40
10.6163418881968
 40
10.79314999288414
 40
10.95378626628786
 40
11.30718606777609
 40
11.66058586926429
 40
11.82122214266803
 40
11.99309693441043
 40
12.44622138536761
 40
13.08684560913467
 40
13.82121971930668
 40
14.55559382947868
 40
15.19621805324574
 40
15.64934250420295
 40
15.82121729594533
 40
16.00533353814515
 40
16.46562414364468
 40
17.06400193079405
 40
17.66237971794343
 40
18.12267032344296
 40
18.30678656564277
 40
18.42413516643821
 40
18.71213126153586
 40
19.09731949872754
 40
19.56472511745491
 40
20.19131512567538
 40
20.85172278708251
 40
21.33112609673691
 40
21.72321302274105
 40
22.01858559726533
 40
22.13995517301614
 40
22.33443516995781
 40
22.79819516266491
 40
23.35171515396048
 40
24.00995514360925
 40
24.00995514360925
 40
24.00995514360925
 40
24.00995514360925
 10
91.254008802748103
 20
94.002447228604368
 10
91.108510308980613
 20
94.001910681752562
 10
90.843026275248661
 20
94.005253781367514
 10
90.468014627025696
 20
93.995371154580184
 10
90.213514196290731
 20
94.018823676034089
 10
89.97954073467379
 20
93.974410857853243
 10
89.880696851038266
 20
94.285369503523654
 10
89.611526854273222
 20
94.595073052135263
 10
89.321315879534026
 20
95.101369588800452
 10
88.963956919512228
 20
95.604225691020574
 10
88.822626356265999
 20
95.920479297517986
 10
88.523733974086412
 20
96.237365593500328
 10
88.882670322256899
 20
96.175862582841276
 10
89.130610612690106
 20
96.20603827670304
 10
89.453205160968366
 20
96.201905773489344
 10
89.677361261837973
 20
96.193763073895639
 10
89.868642813736841
 20
96.221571322356738
 10
90.119929245018668
 20
96.345081568343119
 10
90.231108195127419
 20
96.699012150534742
 10
90.140842187966669
 20
97.056072467854904
 10
89.878379103220794
 20
97.188813421532899
 10
89.636339852898629
 20
97.195330120189723
 10
89.32504342294375
 20
97.201584479538084
 10
89.022990529614262
 20
97.149511666055105
 10
88.556171958692744
 20
97.296240246451845
 10
88.627342211408461
 20
96.899028779662842
 10
88.588780144615242
 20
96.518813584749466
 10
88.607839624673915
 20
95.913489755971781
 10
88.594413712833216
 20
95.284888584640683
 10
88.621365368409741
 20
94.671459876078458
 10
88.563831309783595
 20
94.310727992544656
 10
88.650346159253303
 20
93.958998883352919
 10
88.351410993373321
 20
94.030209692738609
 10
88.087751023202173
 20
93.98323575616115
 10
87.824750374239812
 20
94.030572684304843
 10
87.526954602171813
 20
93.958904927220487
 10
87.611213512454299
 20
94.305739397024695
 10
87.554146442821818
 20
94.670231985509048
 10
87.58125802623087
 20
95.305921810332677
 10
87.570007012979886
 20
96.002295585307337
 10
87.580828450913401
 20
96.699526581188991
 10
87.555435778100957
 20
97.333177314578691
 10
87.60874929128255
 20
97.701956719353404
 10
87.527696160905478
 20
98.052638918540282
 10
87.887862063077407
 20
97.964843164659271
 10
88.246246555583923
 20
98.021077037790292
 10
88.822043712646661
 20
97.99764315613325
 10
89.367876691995747
 20
98.006139818081337
 10
89.783308368995506
 20
98.001582848579645
 10
90.037191231525213
 20
98.007272180200928
 10
90.233513216583361
 20
97.993870104795278
 10
90.491596048163458
 20
97.931164815288554
 10
90.833551496579418
 20
97.748938334554452
 10
91.144574720918712
 20
97.341499387697013
 10
91.241936480257195
 20
96.749165993588718
 10
91.170145057200529
 20
96.149908281205782
 10
90.872573623224099
 20
95.709706406522798
 10
90.503437302427585
 20
95.529436859801777
 10
90.282300782086281
 20
95.446358181761255
 10
89.998099776122345
 20
95.474762945015996
 10
90.327037327205559
 20
95.19877482421866
 10
90.475866694370097
 20
94.933464019390939
 10
90.873196872600303
 20
94.480123649072084
 10
91.113061787868048
 20
94.173705584435965
 10
91.254008802748103
 20
94.002447228604368
 97
        1
330
21F
 75
             1
 76
             0
 52
45.0
 41
0.04
 77
             0
 78
             1
 53
45.0
 43
0.0
 44
0.0
 45
-0.0282842712474619
 46
0.0282842712474619
 79
             0
 98
        1
 10
0.0
 20
0.0
  0
HATCH
  5
309
100
AcDbEntity
  8
1
  6
CONTINUOUS
 62
             2
100
AcDbHatch
 10
0.0
 20
0.0
 30
0.0
210
0.0
220
0.0
230
1.0
  2
USER
 70
             0
 71
             1
 91
        2
 92
        1
 93
        1
 72
             2
 10
97.466148348129096
 20
95.961732769226074
 40
2.2249386621607101
 50
0.0
 51
360.0
 73
             1
 97
        1
330
1FA
 92
       16
 93
        1
 72
             2
 10
97.466148348129096
 20
95.962205090634072
 40
1.2602368907715089
 50
0.0
 51
360.0
 73
             1
 97
        1
330
1F9
 75
             1
 76
             0
 52
45.0
 41
0.04
 77
             0
 78
             1
 53
45.0
 43
0.0
 44
0.0
 45
-0.0282842712474619
 46
0.0282842712474619
 79
             0
 98
        1
 10
0.0
 20
0.0
  0
HATCH
  5
308
100
AcDbEntity
  8
1
  6
CONTINUOUS
 62
             2
100
AcDbHatch
 10
0.0
 20
0.0
 30
0.0
210
0.0
220
0.0
230
1.0
  2
USER
 70
             0
 71
             1
 91
        1
 92
        1
 93
        4
 72
             1
 10
93.9484504129546
 20
94.541073656771275
 11
92.211003960949697
 21
97.999243828147272
 72
             1
 10
92.211003960949697
 20
97.999243828147272
 11
90.993056971912196
 21
97.999243828147272
 72
             1
 10
90.993056971912196
 20
97.999243828147272
 11
93.336256876579696
 21
93.302239281582274
 72
             1
 10
93.336256876579696
 20
93.302239281582274
 11
93.9484504129546
 21
94.541073656771275
 97
        1
330
29B
 75
             1
 76
             0
 52
45.0
 41
0.04
 77
             0
 78
             1
 53
45.0
 43
0.0
 44
0.0
 45
-0.0282842712474619
 46
0.0282842712474619
 79
             0
 98
        1
 10
0.0
 20
0.0
  0
HATCH
  5
307
100
AcDbEntity
  8
1
  6
CONTINUOUS
 62
             2
100
AcDbHatch
 10
0.0
 20
0.0
 30
0.0
210
0.0
220
0.0
230
1.0
  2
USER
 70
             0
 71
             1
 91
        1
 92
        1
 93
        4
 72
             1
 10
94.421323714712798
 20
95.489052757838564
 11
93.170188793965792
 21
97.999243828147272
 72
             1
 10
93.170188793965792
 20
97.999243828147272
 11
92.655712637419199
 21
97.999243828147272
 72
             1
 10
92.655712637419199
 20
97.999243828147272
 11
94.1614451852938
 21
94.968394113451069
 72
             1
 10
94.1614451852938
 20
94.968394113451069
 11
94.421323714712798
 21
95.489052757838564
 97
        1
330
29D
 75
             1
 76
             0
 52
45.0
 41
0.04
 77
             0
 78
             1
 53
45.0
 43
0.0
 44
0.0
 45
-0.0282842712474619
 46
0.0282842712474619
 79
             0
 98
        1
 10
0.0
 20
0.0
  0
HATCH
  5
306
100
AcDbEntity
  8
1
  6
CONTINUOUS
 62
             2
100
AcDbHatch
 10
0.0
 20
0.0
 30
0.0
210
0.0
220
0.0
230
1.0
  2
USER
 70
             0
 71
             1
 91
        1
 92
        1
 93
        3
 72
             1
 10
95.679929040344703
 20
97.999243828147272
 11
94.921631662169204
 21
97.999243828147272
 72
             1
 10
94.921631662169204
 20
97.999243828147272
 11
95.297646174691693
 21
97.237898107540275
 72
             1
 10
95.297646174691693
 20
97.237898107540275
 11
95.679929040344703
 21
97.999243828147272
 97
        1
330
29F
 75
             1
 76
             0
 52
45.0
 41
0.04
 77
             0
 78
             1
 53
45.0
 43
0.0
 44
0.0
 45
-0.0282842712474619
 46
0.0282842712474619
 79
             0
 98
        1
 10
0.0
 20
0.0
  0
HATCH
  5
305
100
AcDbEntity
  8
1
  6
CONTINUOUS
 62
             2
100
AcDbHatch
 10
0.0
 20
0.0
 30
0.0
210
0.0
220
0.0
230
1.0
  2
USER
 70
             0
 71
             1
 91
        1
 92
        1
 93
        4
 72
             1
 10
95.138189906369504
 20
96.919651058053475
 11
94.604865820096705
 21
97.999243828147272
 72
             1
 10
94.604865820096705
 20
97.999243828147272
 11
94.193817272121592
 21
97.999243828147272
 72
             1
 10
94.193817272121592
 20
97.999243828147272
 11
94.931162958645103
 21
96.506820774147272
 72
             1
 10
94.931162958645103
 20
96.506820774147272
 11
95.138189906369504
 21
96.919651058053475
 97
        1
330
2A1
 75
             1
 76
             0
 52
45.0
 41
0.04
 77
             0
 78
             1
 53
45.0
 43
0.0
 44
0.0
 45
-0.0282842712474619
 46
0.0282842712474619
 79
             0
 98
        1
 10
0.0
 20
0.0
  0
HATCH
  5
304
100
AcDbEntity
  8
1
  6
CONTINUOUS
 62
             2
100
AcDbHatch
 10
0.0
 20
0.0
 30
0.0
210
0.0
220
0.0
230
1.0
  2
USER
 70
             0
 71
             1
 91
        1
 92
        1
 93
        4
 72
             1
 10
94.771234431226802
 20
96.188917185822277
 11
93.876536238306997
 21
97.999243828147272
 72
             1
 10
93.876536238306997
 20
97.999243828147272
 11
93.558611214814405
 21
97.999243828147272
 72
             1
 10
93.558611214814405
 20
97.999243828147272
 11
94.6111341732272
 21
95.870970664851868
 72
             1
 10
94.6111341732272
 20
95.870970664851868
 11
94.771234431226802
 21
96.188917185822277
 97
        1
330
2A3
 75
             1
 76
             0
 52
45.0
 41
0.04
 77
             0
 78
             1
 53
45.0
 43
0.0
 44
0.0
 45
-0.0282842712474619
 46
0.0282842712474619
 79
             0
 98
        1
 10
0.0
 20
0.0
  0
HATCH
  5
303
100
AcDbEntity
  8
1
  6
CONTINUOUS
 62
             2
100
AcDbHatch
 10
0.0
 20
0.0
 30
0.0
210
0.0
220
0.0
230
1.0
  2
USER
 70
             0
 71
             1
 91
        1
 92
        1
 93
       12
 72
             1
 10
87.459763332772596
 20
98.004374435024374
 11
84.381793762603593
 21
98.002442403680377
 72
             1
 10
84.381793762603593
 20
98.002442403680377
 11
84.381793762603593
 21
94.002447233040073
 72
             1
 10
84.381793762603593
 20
94.002447233040073
 11
87.334611182623604
 21
94.005001818895167
 72
             1
 10
87.334611182623604
 20
94.005001818895167
 11
87.334611182623604
 21
94.805438741079669
 72
             1
 10
87.334611182623604
 20
94.805438741079669
 11
85.410220104059604
 21
94.805438741079669
 72
             1
 10
85.410220104059604
 20
94.805438741079669
 11
85.410220104059604
 21
95.604695046677463
 72
             1
 10
85.410220104059604
 20
95.604695046677463
 11
87.334611182623604
 21
95.604695046677463
 72
             1
 10
87.334611182623604
 20
95.604695046677463
 11
87.334611182623604
 21
96.404810005177964
 72
             1
 10
87.334611182623604
 20
96.404810005177964
 11
85.410220104059604
 21
96.404810005177964
 72
             1
 10
85.410220104059604
 20
96.404810005177964
 11
85.410220104059604
 21
97.203314896018369
 72
             1
 10
85.410220104059604
 20
97.203314896018369
 11
86.974052858547495
 21
97.203314896018369
 72
             1
 10
86.974052858547495
 20
97.203314896018369
 11
87.459763332772596
 21
98.004374435024374
 97
        1
330
2A5
 75
             1
 76
             0
 52
45.0
 41
0.04
 77
             0
 78
             1
 53
45.0
 43
0.0
 44
0.0
 45
-0.0282842712474619
 46
0.0282842712474619
 79
             0
 98
        1
 10
0.0
 20
0.0
  0
DIMENSION
  5
2F2
100
AcDbEntity
  8
1
100
AcDbDimension
  2
*D5
 10
149.5
 20
159.50000000000031
 11
90.0
 21
163.50000000000031
 31
0.0
 53
0.00013888888889
  1
<>
  3
ME10_DIM_5
100
AcDbAlignedDimension
 13
30.50000000000048
 23
132.70436414567601
 14
149.5
 24
132.70436414567581
100
AcDbRotatedDimension
  0
DIMENSION
  5
2E7
100
AcDbEntity
  8
1
100
AcDbDimension
  2
*D4
 10
142.40000000000009
 20
149.50000000000031
 11
90.0
 21
153.50000000000031
 31
0.0
 53
0.00013888888889
  1
<>
  3
ME10_DIM_4
100
AcDbAlignedDimension
 13
37.59999999999988
 23
137.40000000000089
 14
142.40000000000009
 24
137.40000000000089
100
AcDbRotatedDimension
  0
DIMENSION
  5
2DC
100
AcDbEntity
  8
1
100
AcDbDimension
  2
*D3
 10
271.39852161261848
 20
159.50000000000031
 11
258.64852161261848
 21
163.50000000000031
 31
0.0
 53
0.00013888888889
  1
<>
  3
ME10_DIM_3
100
AcDbAlignedDimension
 13
245.89852161261851
 23
139.0
 14
271.39852161261848
 24
139.00000000000011
100
AcDbRotatedDimension
  0
DIMENSION
  5
2D1
100
AcDbEntity
  8
1
100
AcDbDimension
  2
*D2
 10
271.39852161261854
 20
149.50000000000031
 11
277.98072991062412
 21
153.50000000000031
 31
0.0
 53
0.00013888888889
  1
<>
  3
ME10_DIM_2
100
AcDbAlignedDimension
 13
266.39852161261848
 23
139.5
 14
271.39852161261848
 24
139.00000000000011
100
AcDbRotatedDimension
  0
DIMENSION
  5
2C4
100
AcDbEntity
  8
1
100
AcDbDimension
  2
*D1
 10
250.89852161261848
 20
149.50000000000031
 11
236.79020321145009
 21
153.50000000000031
 31
0.0
 53
0.00013888888889
  1
<>
  3
ME10_DIM_1
100
AcDbAlignedDimension
 13
245.89852161261851
 23
139.0
 14
250.89852161261851
 24
139.5
100
AcDbRotatedDimension
  0
DIMENSION
  5
2B7
100
AcDbEntity
  8
1
100
AcDbDimension
  2
*D0
 10
149.5
 20
159.50000000000031
 11
173.93959988585809
 21
163.50000000000031
 31
0.0
 53
0.00013888888889
  1
300
  3
ME10_DIM_0
100
AcDbAlignedDimension
 13
198.15728638004569
 23
122.4000000000005
 14
149.5
 24
132.70436414567581
100
AcDbRotatedDimension
  0
MTEXT
  5
2AC
100
AcDbEntity
  8
1
 62
             2
100
AcDbMText
 10
89.99999999999997
 20
5.50000000000029
 30
0.0
 40
4.0
 41
0.0
 71
             8
 72
             1
  1
%%p]«*
  7
CONVERTER_1
  0
MTEXT
  5
2AB
100
AcDbEntity
  8
1
 62
             2
100
AcDbMText
 10
258.47816694696809
 20
8.53048887395393
 30
0.0
 40
4.0
 41
0.0
 71
             8
 72
             1
  1
%%d *
  7
CONVERTER_1
  0
LEADER
  5
2A9
100
AcDbEntity
  8
1
  6
CONTINUOUS
 62
             2
100
AcDbLeader
  3
Standard
 71
             0
 73
             3
 74
             0
 75
             0
 40
0.0
 76
             2
 10
74.9072435413361
 20
5.8653656506957
 30
0.0
 10
77.34736388322889
 20
4.83307045278361
 30
0.0
 77
             2
  0
LEADER
  5
2A7
100
AcDbEntity
  8
1
  6
CONTINUOUS
 62
             2
100
AcDbLeader
  3
Standard
 71
             0
 73
             3
 74
             0
 75
             0
 40
0.0
 76
             2
 10
245.02388862947649
 20
5.5
 30
0.0
 10
269.71284769953712
 20
5.5
 30
0.0
 77
             2
  0
LWPOLYLINE
  5
2A5
102
{ACAD_REACTORS
330
303
330
303
330
303
330
303
330
303
330
303
330
303
330
303
330
303
330
303
330
303
330
303
102
}
100
AcDbEntity
  8
___C_____1
  6
CONTINUOUS
 62
             2
100
AcDbPolyline
 90
       24
 70
             1
 10
87.3346111826236
 20
94.00500181889517
 10
84.38179376260359
 20
94.00244723304007
 10
84.38179376260359
 20
94.00244723304007
 10
84.38179376260359
 20
98.00244240368038
 10
84.38179376260359
 20
98.00244240368038
 10
87.4597633327726
 20
98.00437443502437
 10
87.4597633327726
 20
98.00437443502437
 10
86.9740528585475
 20
97.20331489601837
 10
86.9740528585475
 20
97.20331489601837
 10
85.4102201040596
 20
97.20331489601837
 10
85.4102201040596
 20
97.20331489601837
 10
85.4102201040596
 20
96.40481000517796
 10
85.4102201040596
 20
96.40481000517796
 10
87.3346111826236
 20
96.40481000517796
 10
87.3346111826236
 20
96.40481000517796
 10
87.3346111826236
 20
95.60469504667746
 10
87.3346111826236
 20
95.60469504667746
 10
85.4102201040596
 20
95.60469504667746
 10
85.4102201040596
 20
95.60469504667746
 10
85.4102201040596
 20
94.80543874107967
 10
85.4102201040596
 20
94.80543874107967
 10
87.3346111826236
 20
94.80543874107967
 10
87.3346111826236
 20
94.80543874107967
 10
87.3346111826236
 20
94.00500181889517
  0
LWPOLYLINE
  5
2A3
102
{ACAD_REACTORS
330
304
330
304
330
304
330
304
102
}
100
AcDbEntity
  8
___C_____1
  6
CONTINUOUS
 62
             2
100
AcDbPolyline
 90
        8
 70
             1
 10
94.7712344312268
 20
96.18891718582228
 10
94.6111341732272
 20
95.87097066485187
 10
94.6111341732272
 20
95.87097066485187
 10
93.55861121481441
 20
97.99924382814727
 10
93.55861121481441
 20
97.99924382814727
 10
93.876536238307
 20
97.99924382814727
 10
93.876536238307
 20
97.99924382814727
 10
94.7712344312268
 20
96.18891718582228
  0
LWPOLYLINE
  5
2A1
102
{ACAD_REACTORS
330
305
330
305
330
305
330
305
102
}
100
AcDbEntity
  8
___C_____1
  6
CONTINUOUS
 62
             2
100
AcDbPolyline
 90
        8
 70
             1
 10
94.19381727212159
 20
97.99924382814727
 10
94.60486582009671
 20
97.99924382814727
 10
94.60486582009671
 20
97.99924382814727
 10
95.1381899063695
 20
96.91965105805348
 10
95.1381899063695
 20
96.91965105805348
 10
94.9311629586451
 20
96.50682077414727
 10
94.9311629586451
 20
96.50682077414727
 10
94.19381727212159
 20
97.99924382814727
  0
LWPOLYLINE
  5
29F
102
{ACAD_REACTORS
330
306
330
306
330
306
102
}
100
AcDbEntity
  8
___C_____1
  6
CONTINUOUS
 62
             2
100
AcDbPolyline
 90
        6
 70
             1
 10
94.9216316621692
 20
97.99924382814727
 10
95.6799290403447
 20
97.99924382814727
 10
95.6799290403447
 20
97.99924382814727
 10
95.29764617469169
 20
97.23789810754028
 10
95.29764617469169
 20
97.23789810754028
 10
94.9216316621692
 20
97.99924382814727
  0
LWPOLYLINE
  5
29D
102
{ACAD_REACTORS
330
307
330
307
330
307
330
307
102
}
100
AcDbEntity
  8
___C_____1
  6
CONTINUOUS
 62
             2
100
AcDbPolyline
 90
        8
 70
             1
 10
92.6557126374192
 20
97.99924382814727
 10
93.17018879396579
 20
97.99924382814727
 10
93.17018879396579
 20
97.99924382814727
 10
94.4213237147128
 20
95.48905275783856
 10
94.4213237147128
 20
95.48905275783856
 10
94.1614451852938
 20
94.96839411345107
 10
94.1614451852938
 20
94.96839411345107
 10
92.6557126374192
 20
97.99924382814727
  0
LWPOLYLINE
  5
29B
102
{ACAD_REACTORS
330
308
330
308
330
308
330
308
102
}
100
AcDbEntity
  8
___C_____1
  6
CONTINUOUS
 62
             2
100
AcDbPolyline
 90
        8
 70
             1
 10
93.9484504129546
 20
94.54107365677128
 10
93.3362568765797
 20
93.30223928158227
 10
93.3362568765797
 20
93.30223928158227
 10
90.9930569719122
 20
97.99924382814727
 10
90.9930569719122
 20
97.99924382814727
 10
92.2110039609497
 20
97.99924382814727
 10
92.2110039609497
 20
97.99924382814727
 10
93.9484504129546
 20
94.54107365677128
  0
ARC
  5
299
100
AcDbEntity
  8
1
  6
CONTINUOUS
 62
             3
100
AcDbCircle
 10
246.39852161261851
 20
20.99999999999989
 40
0.5
100
AcDbArc
 50
180.0
 51
-90.0
  0
ARC
  5
298
100
AcDbEntity
  8
1
  6
CONTINUOUS
 62
             3
100
AcDbCircle
 10
270.89852161261848
 20
20.99999999999989
 40
0.5
100
AcDbArc
 50
-90.0
 51
0.00000000001262
  0
ARC
  5
297
100
AcDbEntity
  8
1
  6
CONTINUOUS
 62
             3
100
AcDbCircle
 10
270.89852161261848
 20
139.0
 40
0.5
100
AcDbArc
 50
0.00000000001303
 51
90.0
  0
ARC
  5
296
100
AcDbEntity
  8
1
  6
CONTINUOUS
 62
             3
100
AcDbCircle
 10
246.39852161261851
 20
139.0
 40
0.5
100
AcDbArc
 50
90.0
 51
180.0
  0
ARC
  5
295
100
AcDbEntity
  8
1
  6
CONTINUOUS
 62
             3
100
AcDbCircle
 10
270.89852161261848
 20
120.4500000000001
 40
0.5
100
AcDbArc
 50
0.0
 51
90.0
  0
ARC
  5
294
100
AcDbEntity
  8
1
  6
CONTINUOUS
 62
             3
100
AcDbCircle
 10
270.89852161261848
 20
122.55
 40
0.5
100
AcDbArc
 50
-90.0
 51
0.0
  0
ARC
  5
293
100
AcDbEntity
  8
1
  6
CONTINUOUS
 62
             3
100
AcDbCircle
 10
246.39852161261851
 20
120.4500000000001
 40
0.5
100
AcDbArc
 50
90.0
 51
180.0
  0
ARC
  5
292
100
AcDbEntity
  8
1
  6
CONTINUOUS
 62
             3
100
AcDbCircle
 10
246.39852161261851
 20
122.55
 40
0.5
100
AcDbArc
 50
180.0
 51
-90.0
  0
ARC
  5
291
100
AcDbEntity
  8
1
  6
CONTINUOUS
 62
             3
100
AcDbCircle
 10
254.49852161261839
 20
23.65233405953018
 40
0.2000000000001
100
AcDbArc
 50
90.0
 51
180.0
  0
ARC
  5
290
100
AcDbEntity
  8
1
  6
CONTINUOUS
 62
             3
100
AcDbCircle
 10
254.0985216126183
 20
23.16845058322798
 40
0.19999999999999
100
AcDbArc
 50
-90.0
 51
0.0
  0
ARC
  5
28F
100
AcDbEntity
  8
1
  6
CONTINUOUS
 62
             3
100
AcDbCircle
 10
263.19852161261872
 20
23.16845058322798
 40
0.20000000000022
100
AcDbArc
 50
180.0
 51
-90.0
  0
ARC
  5
28E
100
AcDbEntity
  8
1
  6
CONTINUOUS
 62
             3
100
AcDbCircle
 10
262.79852161261857
 20
23.65233405953018
 40
0.19999999999993
100
AcDbArc
 50
0.0
 51
90.0
  0
ARC
  5
28D
100
AcDbEntity
  8
1
  6
CONTINUOUS
 62
             3
100
AcDbCircle
 10
262.79852161261857
 20
27.67195814342659
 40
0.2000000000001
100
AcDbArc
 50
-90.0
 51
0.0
  0
ARC
  5
28C
100
AcDbEntity
  8
1
  6
CONTINUOUS
 62
             3
100
AcDbCircle
 10
254.49852161261839
 20
27.67195814342659
 40
0.19999999999979
100
AcDbArc
 50
180.0
 51
-90.0
  0
ARC
  5
28B
100
AcDbEntity
  8
1
  6
CONTINUOUS
 62
             3
100
AcDbCircle
 10
254.0985216126183
 20
28.1545941546018
 40
0.2000000000003
100
AcDbArc
 50
0.0
 51
90.0
  0
ARC
  5
28A
100
AcDbEntity
  8
1
  6
CONTINUOUS
 62
             3
100
AcDbCircle
 10
263.19852161261872
 20
28.1545941546018
 40
0.19999999999998
100
AcDbArc
 50
90.0
 51
180.0
  0
ARC
  5
289
100
AcDbEntity
  8
1
  6
CONTINUOUS
 62
             3
100
AcDbCircle
 10
143.35897136924979
 20
115.1529895516106
 40
0.49999999999978
100
AcDbArc
 50
47.00000000001203
 51
137.00000000002885
  0
ARC
  5
288
100
AcDbEntity
  8
1
  6
CONTINUOUS
 62
             3
100
AcDbCircle
 10
140.6529626732586
 20
117.6763834838417
 40
0.50000000000013
100
AcDbArc
 50
-42.99999999999513
 51
46.99999999998821
  0
ARC
  5
287
100
AcDbEntity
  8
1
  6
CONTINUOUS
 62
             3
100
AcDbCircle
 10
140.0934550249147
 20
115.4634778845346
 40
0.50000000000013
100
AcDbArc
 50
137.00000000000486
 51
-132.99999999999511
  0
ARC
  5
286
100
AcDbEntity
  8
1
  6
CONTINUOUS
 62
             3
100
AcDbCircle
 10
141.19048557734351
 20
114.4404803444411
 40
0.50000000000014
100
AcDbArc
 50
-132.99999999996294
 51
-43.00000000001403
  0
ARC
  5
285
100
AcDbEntity
  8
1
  6
CONTINUOUS
 62
             2
100
AcDbCircle
 10
113.75596322288681
 20
90.28449927349537
 40
2.48000000000013
100
AcDbArc
 50
-71.00000000000482
 51
-43.00000000000251
  0
ARC
  5
284
100
AcDbEntity
  8
1
  6
CONTINUOUS
 62
             2
100
AcDbCircle
 10
113.75596322288681
 20
90.28449927349537
 40
1.50000000000029
100
AcDbArc
 50
-71.00000000001744
 51
-43.00000000001677
  0
ARC
  5
283
100
AcDbEntity
  8
1
  6
CONTINUOUS
 62
             2
100
AcDbCircle
 10
147.561555606826
 20
118.5600000000011
 40
3.94000000000016
100
AcDbArc
 50
90.89518273327252
 51
136.99999999999821
  0
ARC
  5
282
100
AcDbEntity
  8
1
  6
CONTINUOUS
 62
             2
100
AcDbCircle
 10
147.54290530510301
 20
118.5400000000011
 40
2.95999999999979
100
AcDbArc
 50
89.99999999999616
 51
136.99999999999844
  0
ARC
  5
281
100
AcDbEntity
  8
1
  6
CONTINUOUS
 62
             2
100
AcDbCircle
 10
147.5242550033804
 20
118.5200000000012
 40
1.98000000000001
100
AcDbArc
 50
90.70189095219138
 51
136.99999999999562
  0
ARC
  5
280
100
AcDbEntity
  8
1
  6
DASHED
 62
             2
100
AcDbCircle
 10
144.41990098767249
 20
137.30000000000021
 40
0.19999999999977
100
AcDbArc
 50
67.59733409949592
 51
90.0
  0
ARC
  5
27F
100
AcDbEntity
  8
1
  6
DASHED
 62
             2
100
AcDbCircle
 10
147.30000000000021
 20
134.41990098767241
 40
0.19999999999979
100
AcDbArc
 50
0.0
 51
22.40266590046552
  0
ARC
  5
27E
100
AcDbEntity
  8
1
  6
DASHED
 62
             2
100
AcDbCircle
 10
44.25434737398629
 20
117.2603712517751
 40
0.5000000000002
100
AcDbArc
 50
-39.16322039882005
 51
44.99999999997927
  0
ARC
  5
27D
100
AcDbEntity
  8
1
  6
DASHED
 62
             2
100
AcDbCircle
 10
46.89046295884779
 20
120.281109916405
 40
0.49999999999992
100
AcDbArc
 50
-135.00000000001842
 51
-43.05739802573757
  0
ARC
  5
27C
100
AcDbEntity
  8
1
  6
DASHED
 62
             2
100
AcDbCircle
 10
49.71889008359378
 20
123.1095370411514
 40
0.5
100
AcDbArc
 50
-46.94260197428579
 51
44.99999999997122
  0
ARC
  5
27B
100
AcDbEntity
  8
1
  6
DASHED
 62
             2
100
AcDbCircle
 10
147.29999999999981
 20
130.38009901232789
 40
0.20000000000043
100
AcDbArc
 50
-22.40266590045219
 51
0.0
  0
ARC
  5
27A
100
AcDbEntity
  8
1
  6
DASHED
 62
             2
100
AcDbCircle
 10
136.91992244580439
 20
132.29393398282221
 40
0.19999999999971
100
AcDbArc
 50
45.0000000000403
 51
135.00000000005758
  0
ARC
  5
279
100
AcDbEntity
  8
1
  6
DASHED
 62
             2
100
AcDbCircle
 10
135.9653282912023
 20
131.3393398282202
 40
0.19999999999983
100
AcDbArc
 50
134.9999999999597
 51
-134.99999999999426
  0
ARC
  5
278
100
AcDbEntity
  8
1
  6
DASHED
 62
             2
100
AcDbCircle
 10
40.19533188057764
 20
137.2999999999999
 40
0.20000000000018
100
AcDbArc
 50
45.00000000003311
 51
90.0
  0
ARC
  5
277
100
AcDbEntity
  8
1
  6
DASHED
 62
             2
100
AcDbCircle
 10
32.69999999999979
 20
129.8046681194225
 40
0.19999999999982
100
AcDbArc
 50
180.0
 51
-134.9999999999813
  0
ARC
  5
276
100
AcDbEntity
  8
1
  6
DASHED
 62
             2
100
AcDbCircle
 10
32.69999999999979
 20
129.8046681194225
 40
0.19999999999982
100
AcDbArc
 50
180.0
 51
-134.9999999999813
  0
ARC
  5
275
100
AcDbEntity
  8
1
  6
DASHED
 62
             2
100
AcDbCircle
 10
32.69999999999979
 20
131.17695526217031
 40
0.19999999999984
100
AcDbArc
 50
134.99999999991797
 51
180.0
  0
ARC
  5
274
100
AcDbEntity
  8
1
  6
DASHED
 62
             2
100
AcDbCircle
 10
32.96845058322785
 20
131.4454058453984
 40
0.20000000000007
100
AcDbArc
 50
44.99999999993523
 51
134.99999999994819
  0
ARC
  5
273
100
AcDbEntity
  8
1
  6
DASHED
 62
             2
100
AcDbCircle
 10
40.19533188057764
 20
137.2999999999999
 40
0.20000000000018
100
AcDbArc
 50
45.00000000003311
 51
90.0
  0
ARC
  5
272
100
AcDbEntity
  8
1
  6
DASHED
 62
             2
100
AcDbCircle
 10
38.55459415460197
 20
137.0315494167719
 40
0.20000000000021
100
AcDbArc
 50
135.00000000002302
 51
-135.00000000004604
  0
ARC
  5
271
100
AcDbEntity
  8
1
  6
DASHED
 62
             2
100
AcDbCircle
 10
38.82304473783009
 20
137.3000000000003
 40
0.20000000000002
100
AcDbArc
 50
90.0
 51
134.9999999999597
  0
ARC
  5
270
100
AcDbEntity
  8
1
  6
DASHED
 62
             2
100
AcDbCircle
 10
41.42795527438378
 20
132.39042134402351
 40
0.19999999999978
100
AcDbArc
 50
165.00000000001364
 51
-134.99999999994242
  0
ARC
  5
26F
100
AcDbEntity
  8
1
  6
DASHED
 62
             2
100
AcDbCircle
 10
41.35538635912738
 20
133.66507178729739
 40
0.19999999999968
100
AcDbArc
 50
-15.0000000000189
 51
45.00000000008061
  0
ARC
  5
26E
100
AcDbEntity
  8
1
  6
DASHED
 62
             2
100
AcDbCircle
 10
37.60957865597649
 20
128.57204472561619
 40
0.19999999999999
100
AcDbArc
 50
45.00000000000576
 51
104.99999999992339
  0
ARC
  5
26D
100
AcDbEntity
  8
1
  6
DASHED
 62
             2
100
AcDbCircle
 10
36.33492821270235
 20
128.64461364087299
 40
0.19999999999981
100
AcDbArc
 50
-134.99999999995396
 51
-75.00000000001904
  0
ARC
  5
26C
100
AcDbEntity
  8
1
  6
DASHED
 62
             2
100
AcDbCircle
 10
143.35459415460181
 20
137.03154941677181
 40
0.20000000000027
100
AcDbArc
 50
135.0000000000403
 51
-135.00000000005758
  0
ARC
  5
26B
100
AcDbEntity
  8
1
  6
DASHED
 62
             2
100
AcDbCircle
 10
143.62304473782979
 20
137.30000000000021
 40
0.19999999999979
100
AcDbArc
 50
90.0
 51
134.99999999995396
  0
ARC
  5
26A
100
AcDbEntity
  8
1
  6
DASHED
 62
             2
100
AcDbCircle
 10
146.15538635912711
 20
133.66507178729751
 40
0.19999999999977
100
AcDbArc
 50
-14.99999999998687
 51
45.0000000000403
  0
ARC
  5
269
100
AcDbEntity
  8
1
  6
DASHED
 62
             2
100
AcDbCircle
 10
145.09443871706119
 20
129.7055612829385
 40
0.20000000000001
100
AcDbArc
 50
-74.99999999987999
 51
-14.99999999995737
  0
ARC
  5
268
100
AcDbEntity
  8
1
  6
DASHED
 62
             2
100
AcDbCircle
 10
141.13492821270259
 20
128.64461364087299
 40
0.20000000000011
100
AcDbArc
 50
-135.0000000000403
 51
-74.99999999998167
  0
ARC
  5
267
100
AcDbEntity
  8
1
  6
DASHED
 62
             2
100
AcDbCircle
 10
143.66507178729771
 20
31.3553863591265
 40
0.19999999999977
100
AcDbArc
 50
45.00000000005829
 51
104.99999999999699
  0
ARC
  5
266
100
AcDbEntity
  8
1
  6
DASHED
 62
             2
100
AcDbCircle
 10
142.39042134402331
 20
31.42795527438329
 40
0.19999999999984
100
AcDbArc
 50
-134.99999999996689
 51
-74.99999999999743
  0
ARC
  5
265
100
AcDbEntity
  8
1
  6
DASHED
 62
             2
100
AcDbCircle
 10
138.6446136408731
 20
26.3349282127021
 40
0.20000000000018
100
AcDbArc
 50
165.00000000002001
 51
-135.0000000000216
  0
ARC
  5
264
100
AcDbEntity
  8
1
  6
DASHED
 62
             2
100
AcDbCircle
 10
138.57204472561631
 20
27.60957865597618
 40
0.19999999999971
100
AcDbArc
 50
-15.00000000005036
 51
45.00000000004606
  0
ARC
  5
263
100
AcDbEntity
  8
1
  6
DASHED
 62
             2
100
AcDbCircle
 10
141.17695526217
 20
22.69999999999919
 40
0.19999999999999
100
AcDbArc
 50
-90.0
 51
-44.9999999999525
  0
ARC
  5
262
100
AcDbEntity
  8
1
  6
DASHED
 62
             2
100
AcDbCircle
 10
141.44540584539851
 20
22.96845058322759
 40
0.1999999999999
100
AcDbArc
 50
-45.00000000010795
 51
45.00000000006405
  0
ARC
  5
261
100
AcDbEntity
  8
1
  6
DASHED
 62
             2
100
AcDbCircle
 10
139.80466811942279
 20
22.69999999999959
 40
0.20000000000019
100
AcDbArc
 50
-135.00000000001728
 51
-90.0
  0
ARC
  5
260
100
AcDbEntity
  8
1
  6
DASHED
 62
             2
100
AcDbCircle
 10
147.03154941677221
 20
28.55459415460109
 40
0.20000000000011
100
AcDbArc
 50
-135.00000000008708
 51
-45.00000000008061
  0
ARC
  5
25F
100
AcDbEntity
  8
1
  6
DASHED
 62
             2
100
AcDbCircle
 10
147.30000000000021
 20
28.82304473782921
 40
0.19999999999983
100
AcDbArc
 50
-45.00000000004102
 51
0.0
  0
ARC
  5
25E
100
AcDbEntity
  8
1
  6
DASHED
 62
             2
100
AcDbCircle
 10
147.30000000000021
 20
30.19533188057699
 40
0.19999999999979
100
AcDbArc
 50
0.0
 51
45.00000000000432
  0
ARC
  5
25D
100
AcDbEntity
  8
1
  6
DASHED
 62
             2
100
AcDbCircle
 10
147.30000000000021
 20
30.19533188057699
 40
0.19999999999979
100
AcDbArc
 50
0.0
 51
45.00000000000432
  0
ARC
  5
25C
100
AcDbEntity
  8
1
  6
DASHED
 62
             2
100
AcDbCircle
 10
139.80466811942279
 20
22.69999999999959
 40
0.20000000000019
100
AcDbArc
 50
-135.00000000001728
 51
-90.0
  0
ARC
  5
25B
100
AcDbEntity
  8
1
  6
DASHED
 62
             2
100
AcDbCircle
 10
130.28110991640651
 20
36.8904629588481
 40
0.50000000000035
100
AcDbArc
 50
133.05739802575761
 51
-135.00000000001728
  0
ARC
  5
25A
100
AcDbEntity
  8
1
  6
DASHED
 62
             2
100
AcDbCircle
 10
133.10953704115269
 20
39.71889008359449
 40
0.4999999999999
100
AcDbArc
 50
44.9999999999833
 51
136.94260197429358
  0
ARC
  5
259
100
AcDbEntity
  8
1
  6
DASHED
 62
             2
100
AcDbCircle
 10
135.74565262601351
 20
42.73962874822439
 40
0.50000000000004
100
AcDbArc
 50
140.83677960116555
 51
-135.00000000001668
  0
ARC
  5
258
100
AcDbEntity
  8
1
  6
DASHED
 62
             2
100
AcDbCircle
 10
38.86507178729787
 20
31.3553863591265
 40
0.19999999999985
100
AcDbArc
 50
45.00000000003671
 51
105.00000000012255
  0
ARC
  5
257
100
AcDbEntity
  8
1
  6
DASHED
 62
             2
100
AcDbCircle
 10
34.90556128293858
 20
30.29443871706098
 40
0.20000000000003
100
AcDbArc
 50
105.00000000000658
 51
164.99999999998758
  0
ARC
  5
256
100
AcDbEntity
  8
1
  6
DASHED
 62
             2
100
AcDbCircle
 10
33.84461364087335
 20
26.33492821270198
 40
0.20000000000013
100
AcDbArc
 50
165.00000000006426
 51
-135.00000000003456
  0
ARC
  5
255
100
AcDbEntity
  8
1
  6
DASHED
 62
             2
100
AcDbCircle
 10
36.37695526217019
 20
22.69999999999948
 40
0.19999999999999
100
AcDbArc
 50
-90.0
 51
-45.00000000004678
  0
ARC
  5
254
100
AcDbEntity
  8
1
  6
DASHED
 62
             2
100
AcDbCircle
 10
36.64540584539825
 20
22.96845058322771
 40
0.20000000000013
100
AcDbArc
 50
-44.9999999999561
 51
44.99999999995539
  0
ARC
  5
253
100
AcDbEntity
  8
1
  6
DASHED
 62
             2
100
AcDbCircle
 10
44.03467170879779
 20
28.66066017177928
 40
0.20000000000009
100
AcDbArc
 50
-44.99999999996258
 51
44.9999999999302
  0
ARC
  5
252
100
AcDbEntity
  8
1
  6
DASHED
 62
             2
100
AcDbCircle
 10
43.08007755419604
 20
27.70606601717748
 40
0.20000000000009
100
AcDbArc
 50
-135.00000000003385
 51
-45.00000000003383
  0
ARC
  5
251
100
AcDbEntity
  8
1
  6
DASHED
 62
             2
100
AcDbCircle
 10
32.70000000000025
 20
29.6199009876716
 40
0.20000000000004
100
AcDbArc
 50
157.5973340995011
 51
180.0
  0
ARC
  5
250
100
AcDbEntity
  8
1
  6
DASHED
 62
             2
100
AcDbCircle
 10
32.70000000000025
 20
25.58009901232708
 40
0.20000000000028
100
AcDbArc
 50
180.0
 51
-157.59733409958292
  0
ARC
  5
24F
100
AcDbEntity
  8
1
  6
DASHED
 62
             2
100
AcDbCircle
 10
35.58009901232774
 20
22.69999999999948
 40
0.20000000000005
100
AcDbArc
 50
-112.4026659005516
 51
-90.0
  0
ARC
  5
24E
100
AcDbEntity
  8
1
  6
CONTINUOUS
 62
             3
100
AcDbCircle
 10
147.0
 20
119.8639682796329
 40
0.49999999999992
100
AcDbArc
 50
-42.99999999997012
 51
0.0000000000342
  0
ARC
  5
24D
100
AcDbEntity
  8
1
  6
CONTINUOUS
 62
             3
100
AcDbCircle
 10
112.9248631878641
 20
84.55453228842578
 40
2.00000000000026
100
AcDbArc
 50
-60.99999999999714
 51
-42.99999999999199
  0
ARC
  5
24C
100
AcDbEntity
  8
1
  6
CONTINUOUS
 62
             3
100
AcDbCircle
 10
116.7684791835359
 20
95.50916682061516
 40
2.00000000000014
100
AcDbArc
 50
-80.99999999999672
 51
-43.00000000000273
  0
ARC
  5
24B
100
AcDbEntity
  8
1
  6
CONTINUOUS
 62
             3
100
AcDbCircle
 10
141.2017016111181
 20
122.2237877520015
 40
0.20000000000013
100
AcDbArc
 50
47.00000000002883
 51
136.99999999994847
  0
ARC
  5
24A
100
AcDbEntity
  8
1
  6
CONTINUOUS
 62
             3
100
AcDbCircle
 10
139.08750669492429
 20
119.956591276982
 40
0.19999999999998
100
AcDbArc
 50
137.0000000000332
 51
-132.99999999995805
  0
ARC
  5
249
100
AcDbEntity
  8
1
  6
CONTINUOUS
 62
             3
100
AcDbCircle
 10
145.74282537965891
 20
113.75040620041339
 40
0.2000000000002
100
AcDbArc
 50
-132.99999999995174
 51
-42.99999999998603
  0
ARC
  5
248
100
AcDbEntity
  8
1
  6
CONTINUOUS
 62
             3
100
AcDbCircle
 10
147.85702029585269
 20
116.017602675433
 40
0.20000000000012
100
AcDbArc
 50
-43.00000000004597
 51
46.99999999997491
  0
ARC
  5
247
100
AcDbEntity
  8
1
  6
CONTINUOUS
 62
             3
100
AcDbCircle
 10
147.6999999999999
 20
122.2500000000009
 40
0.1999999999999
100
AcDbArc
 50
180.0
 51
-90.0
  0
ARC
  5
246
100
AcDbEntity
  8
1
  6
CONTINUOUS
 62
             3
100
AcDbCircle
 10
149.0
 20
122.55000000000069
 40
0.5
100
AcDbArc
 50
-90.0
 51
0.0
  0
ARC
  5
245
100
AcDbEntity
  8
1
  6
CONTINUOUS
 62
             3
100
AcDbCircle
 10
149.0
 20
120.4500000000008
 40
0.5
100
AcDbArc
 50
0.0
 51
90.0
  0
ARC
  5
244
100
AcDbEntity
  8
1
  6
CONTINUOUS
 62
             3
100
AcDbCircle
 10
147.6999999999999
 20
120.7500000000009
 40
0.1999999999999
100
AcDbArc
 50
90.0
 51
180.0
  0
ARC
  5
243
100
AcDbEntity
  8
1
  6
CONTINUOUS
 62
             3
100
AcDbCircle
 10
41.38035067040025
 20
54.47477658592402
 40
0.99999999999989
100
AcDbArc
 50
-152.30061263063371
 51
-42.99999999999368
  0
ARC
  5
242
100
AcDbEntity
  8
1
  6
CONTINUOUS
 62
             3
100
AcDbCircle
 10
115.52522341407619
 20
31.38035067040039
 40
1.00000000000008
100
AcDbArc
 50
-62.30061263062736
 51
47.00000000000156
  0
ARC
  5
241
100
AcDbEntity
  8
1
  6
CONTINUOUS
 62
             3
100
AcDbCircle
 10
138.61964932960021
 20
105.525223414076
 40
0.99999999999978
100
AcDbArc
 50
27.69938736937516
 51
137.00000000000043
  0
ARC
  5
240
100
AcDbEntity
  8
1
  6
CONTINUOUS
 62
             3
100
AcDbCircle
 10
64.47477658592445
 20
128.61964932959981
 40
1.00000000000025
100
AcDbArc
 50
117.69938736937753
 51
-133.00000000000293
  0
ARC
  5
23F
100
AcDbEntity
  8
1
  6
CONTINUOUS
 62
             3
100
AcDbCircle
 10
32.50000000000048
 20
132.70436414567601
 40
2.00000000000024
100
AcDbArc
 50
137.4917021771283
 51
180.0
  0
ARC
  5
23E
100
AcDbEntity
  8
1
  6
CONTINUOUS
 62
             3
100
AcDbCircle
 10
37.29563585432467
 20
137.50000000000031
 40
2.0
100
AcDbArc
 50
90.0
 51
132.50829782287695
  0
ARC
  5
23D
100
AcDbEntity
  8
1
  6
CONTINUOUS
 62
             3
100
AcDbCircle
 10
142.70436414567601
 20
137.50000000000031
 40
1.99999999999977
100
AcDbArc
 50
47.4917021771283
 51
90.0
  0
ARC
  5
23C
100
AcDbEntity
  8
1
  6
CONTINUOUS
 62
             3
100
AcDbCircle
 10
142.70436414567621
 20
22.5
 40
2.0
100
AcDbArc
 50
-90.0
 51
-47.49170217712582
  0
ARC
  5
23B
100
AcDbEntity
  8
1
  6
CONTINUOUS
 62
             3
100
AcDbCircle
 10
147.5
 20
27.29563585432419
 40
2.00000000000014
100
AcDbArc
 50
-42.50829782286986
 51
0.0
  0
ARC
  5
23A
100
AcDbEntity
  8
1
  6
CONTINUOUS
 62
             3
100
AcDbCircle
 10
32.50000000000048
 20
27.29563585432419
 40
2.0
100
AcDbArc
 50
180.0
 51
-137.49170217713069
  0
ARC
  5
239
100
AcDbEntity
  8
1
  6
CONTINUOUS
 62
             3
100
AcDbCircle
 10
37.29563585432445
 20
22.5
 40
2.0000000000001
100
AcDbArc
 50
-132.50829782288213
 51
-90.0
  0
ARC
  5
238
100
AcDbEntity
  8
1
  6
CONTINUOUS
 62
             3
100
AcDbCircle
 10
147.5
 20
132.70436414567581
 40
2.0
100
AcDbArc
 50
0.0
 51
42.50829782287646
  0
ARC
  5
237
100
AcDbEntity
  8
1
  6
CONTINUOUS
 62
             3
100
AcDbCircle
 10
72.60561822219867
 20
104.38617400430191
 40
0.49999999999996
100
AcDbArc
 50
-39.9999999999951
 51
50.00000000000313
  0
ARC
  5
236
100
AcDbEntity
  8
1
  6
CONTINUOUS
 62
             3
100
AcDbCircle
 10
72.46910966750417
 20
101.8899037035342
 40
0.49999999999982
100
AcDbArc
 50
-40.00000000000642
 51
50.00000000001576
  0
ARC
  5
235
100
AcDbEntity
  8
1
  6
CONTINUOUS
 62
             3
100
AcDbCircle
 10
62.49999999999997
 20
85.49999999999997
 40
0.5
100
AcDbArc
 50
0.0
 51
90.0
  0
ARC
  5
234
100
AcDbEntity
  8
1
  6
CONTINUOUS
 62
             3
100
AcDbCircle
 10
60.99999999999997
 20
87.49999999999997
 40
0.5
100
AcDbArc
 50
0.0
 51
90.0
  0
ARC
  5
233
100
AcDbEntity
  8
1
  6
CONTINUOUS
 62
             3
100
AcDbCircle
 10
79.8082324725922
 20
53.8728517693321
 40
0.50000000000012
100
AcDbArc
 50
79.99999999999724
 51
169.99999999999895
  0
ARC
  5
232
100
AcDbEntity
  8
1
  6
CONTINUOUS
 62
             3
100
AcDbCircle
 10
77.5781447000677
 20
52.74293649514777
 40
0.50000000000002
100
AcDbArc
 50
79.99999999999527
 51
170.00000000000574
  0
ARC
  5
231
100
AcDbEntity
  8
1
  6
CONTINUOUS
 62
             3
100
AcDbCircle
 10
114.6859349278491
 20
63.03372118766123
 40
0.50000000000006
100
AcDbArc
 50
159.99999999999909
 51
-110.00000000001455
  0
ARC
  5
230
100
AcDbEntity
  8
1
  6
CONTINUOUS
 62
             3
100
AcDbCircle
 10
113.9604362833216
 20
65.4261366442214
 40
0.49999999999988
100
AcDbArc
 50
159.9999999999846
 51
-109.99999999999383
  0
ARC
  5
22F
100
AcDbEntity
  8
1
  6
CONTINUOUS
 62
             3
100
AcDbCircle
 10
119.8162370777341
 20
82.87088950055011
 40
0.49999999999984
100
AcDbArc
 50
-159.99999999999685
 51
-69.99999999998767
  0
ARC
  5
22E
100
AcDbEntity
  8
1
  6
CONTINUOUS
 62
             3
100
AcDbCircle
 10
117.7226578599041
 20
84.23724452713337
 40
0.49999999999989
100
AcDbArc
 50
-146.7571856897932
 51
-70.00000000000617
  0
ARC
  5
22D
100
AcDbEntity
  8
1
  6
CONTINUOUS
 62
             3
100
AcDbCircle
 10
110.9951905283836
 20
101.3647367097491
 40
0.50000000000015
100
AcDbArc
 50
-119.99999999998997
 51
-30.00000000000136
  0
ARC
  5
22C
100
AcDbEntity
  8
1
  6
CONTINUOUS
 62
             3
100
AcDbCircle
 10
108.51313972081471
 20
101.0656986040724
 40
0.50000000000024
100
AcDbArc
 50
-119.99999999998427
 51
-29.99999999998426
  0
ARC
  5
22B
100
AcDbEntity
  8
1
  6
CONTINUOUS
 62
             3
100
AcDbCircle
 10
92.35026099525091
 20
109.8617861698565
 40
0.5
100
AcDbArc
 50
-79.99999999999659
 51
10.00000000000172
  0
ARC
  5
22A
100
AcDbEntity
  8
1
  6
CONTINUOUS
 62
             3
100
AcDbCircle
 10
90.641117755727
 20
108.0372781850042
 40
0.49999999999973
100
AcDbArc
 50
-79.99999999997782
 51
10.00000000004068
  0
ARC
  5
229
100
AcDbEntity
  8
1
  6
CONTINUOUS
 62
             3
100
AcDbCircle
 10
112.9248631878641
 20
84.55453228842578
 40
2.00000000000026
100
AcDbArc
 50
-60.99999999999714
 51
-42.99999999999199
  0
SPLINE
  5
228
100
AcDbEntity
  8
1
  6
CONTINUOUS
 62
             2
100
AcDbSpline
210
0.0
220
0.0
230
1.0
 70
             0
 71
             3
 72
             8
 73
             4
 74
             3
 42
0.00000000001
 43
0.00000000001
 44
0.00000000001
 40
2.4398078258579639
 40
2.4398078258579639
 40
2.4398078258579639
 40
2.4398078258579639
 40
3.368895536838366
 40
3.368895536838366
 40
3.368895536838366
 40
3.368895536838366
 10
171.82519463108201
 20
121.551309755472
 30
0.0
 10
171.73430447959441
 20
121.77760026363249
 30
0.0
 10
171.742089231683
 20
122.0633573351558
 30
0.0
 10
172.02197587956289
 20
122.55000000000069
 30
0.0
 11
171.82519463108201
 21
121.551309755472
 31
0.0
 11
171.78454395555966
 21
121.9530228189797
 31
0.0
 11
172.02197587956289
 21
122.55000000000069
 31
0.0
  0
SPLINE
  5
227
100
AcDbEntity
  8
1
  6
CONTINUOUS
 62
             2
100
AcDbSpline
210
0.0
220
0.0
230
1.0
 70
             0
 71
             3
 72
             9
 73
             5
 74
             5
 42
0.00000000001
 43
0.00000000001
 44
0.00000000001
 40
1.0958595158061299
 40
1.0958595158061299
 40
1.0958595158061299
 40
1.0958595158061299
 40
1.6035687737676121
 40
2.4398078258579639
 40
2.4398078258579639
 40
2.4398078258579639
 40
2.4398078258579639
 10
172.33332686737279
 20
120.5498514325209
 30
0.0
 10
172.30674522701801
 20
120.7059026568747
 30
0.0
 10
172.16694784656011
 20
121.09772228290279
 30
0.0
 10
171.90700164803641
 20
121.34763365707489
 30
0.0
 10
171.82519463108201
 20
121.551309755472
 30
0.0
 11
172.33332686737279
 21
120.5498514325209
 31
0.0
 11
172.27491715573137
 21
120.77637686458371
 31
0.0
 11
172.18397462829014
 21
120.98168927794143
 31
0.0
 11
171.99205183631935
 21
121.26903715086227
 31
0.0
 11
171.82519463108201
 21
121.551309755472
 31
0.0
  0
SPLINE
  5
226
100
AcDbEntity
  8
1
  6
CONTINUOUS
 62
             2
100
AcDbSpline
210
0.0
220
0.0
230
1.0
 70
             0
 71
             3
 72
             8
 73
             4
 74
             3
 42
0.00000000001
 43
0.00000000001
 44
0.00000000001
 40
2.4380144167006512
 40
2.4380144167006512
 40
2.4380144167006512
 40
2.4380144167006512
 40
3.368895536838366
 40
3.368895536838366
 40
3.368895536838366
 40
3.368895536838366
 10
172.54277288329791
 20
121.5499999999396
 30
0.0
 10
172.4513262570745
 20
121.77649782383089
 30
0.0
 10
172.45859978644111
 20
122.06241797345599
 30
0.0
 10
172.739026696851
 20
122.55000000000069
 30
0.0
 11
172.54277288329791
 21
121.5499999999396
 31
0.0
 11
172.50144721383697
 21
121.95209342397513
 31
0.0
 11
172.739026696851
 21
122.55000000000069
 31
0.0
  0
SPLINE
  5
225
100
AcDbEntity
  8
1
  6
CONTINUOUS
 62
             2
100
AcDbSpline
210
0.0
220
0.0
230
1.0
 70
             0
 71
             3
 72
             9
 73
             5
 74
             5
 42
0.00000000001
 43
0.00000000001
 44
0.00000000001
 40
1.095859515742335
 40
1.095859515742335
 40
1.095859515742335
 40
1.095859515742335
 40
1.6035687737676121
 40
2.4380144167006512
 40
2.4380144167006512
 40
2.4380144167006512
 40
2.4380144167006512
 10
173.05037768467091
 20
120.54985143246201
 30
0.0
 10
173.0237960443192
 20
120.7059026568374
 30
0.0
 10
172.88418521411731
 20
121.09719942579871
 30
0.0
 10
172.62474601301579
 20
121.3469664243399
 30
0.0
 10
172.54277288329791
 20
121.5499999999396
 30
0.0
 11
173.05037768467091
 21
120.54985143246201
 31
0.0
 11
172.99196797302892
 21
120.7763768645563
 31
0.0
 11
172.9010254455782
 21
120.98168927794134
 31
0.0
 11
172.70952133299707
 21
121.26845397449731
 31
0.0
 11
172.54277288329791
 21
121.5499999999396
 31
0.0
  0
SPLINE
  5
224
100
AcDbEntity
  8
1
  6
CONTINUOUS
 62
             2
100
AcDbSpline
210
0.0
220
0.0
230
1.0
 70
             0
 71
             3
 72
             9
 73
             5
 74
             5
 42
0.00000000001
 43
0.00000000001
 44
0.00000000001
 40
1.2245474841749051
 40
1.2245474841749051
 40
1.2245474841749051
 40
1.2245474841749051
 40
1.4687405018857429
 40
1.692717462619638
 40
1.692717462619638
 40
1.692717462619638
 40
1.692717462619638
 10
137.80916896745961
 20
113.8789857113964
 30
0.0
 10
137.7235729005252
 20
113.9265336691853
 30
0.0
 10
137.52663489468981
 20
113.9750952033496
 30
0.0
 10
137.3604278681928
 20
113.9915539803704
 30
0.0
 10
137.28618716182839
 20
113.9926448124241
 30
0.0
 11
137.80916896745961
 21
113.8789857113964
 31
0.0
 11
137.67111685805705
 21
113.93532922545118
 31
0.0
 11
137.52649147840935
 21
113.96845837102308
 31
0.0
 11
137.40172386323218
 21
113.98585062003701
 31
0.0
 11
137.28618716182839
 21
113.9926448124241
 31
0.0
  0
SPLINE
  5
223
100
AcDbEntity
  8
1
  6
CONTINUOUS
 62
             3
100
AcDbSpline
210
0.0
220
0.0
230
1.0
 70
             0
 71
             2
 72
            15
 73
            12
 74
            21
 42
0.00000000001
 43
0.00000000001
 44
0.00000000001
 40
10.247861466494831
 40
10.247861466494831
 40
10.247861466494831
 40
10.443868108769349
 40
10.83514661948322
 40
11.22430189888974
 40
11.610182180699949
 40
11.99200784714294
 40
12.36947231333469
 40
12.74279364904252
 40
13.112704287189199
 40
13.480372274429
 40
13.663815288597929
 40
13.663815288597929
 40
13.663815288597929
 10
128.28402878742421
 20
27.891636064428891
 30
0.0
 10
128.35086716908819
 20
27.963311453554809
 30
0.0
 10
128.53359059192741
 20
28.19442632994361
 30
0.0
 10
128.72314586596119
 20
28.53702038877088
 30
0.0
 10
128.85279359009979
 20
28.903639683712811
 30
0.0
 10
128.91855507580209
 20
29.283229572593712
 30
0.0
 10
128.91835347379771
 20
29.664315126339091
 30
0.0
 10
128.85209192099279
 20
30.035330456592991
 30
0.0
 10
128.72168275486911
 20
30.384959158039582
 30
0.0
 10
128.53102175216009
 20
30.702483591669822
 30
0.0
 10
128.34711239871331
 20
30.909296432669411
 30
0.0
 10
128.280033165031
 20
30.971848830047978
 30
0.0
 11
128.28402878742421
 21
27.891636064428891
 31
0.0
 11
128.34940357656933
 21
27.9646762756587
 31
0.0
 11
128.41185118067673
 21
28.040446131096292
 31
0.0
 11
128.52691461086684
 21
28.198872044334486
 31
0.0
 11
128.62862607893578
 21
28.366189386354424
 31
0.0
 11
128.7157903648033
 21
28.540333698779449
 31
0.0
 11
128.78824364835504
 21
28.7211046312216
 31
0.0
 11
128.84491970503456
 21
28.905705255741363
 31
0.0
 11
128.8858479915836
 21
29.094437024318225
 31
0.0
 11
128.91035295975206
 21
29.283940738990207
 31
0.0
 11
128.91845369582046
 21
29.474866786455177
 31
0.0
 11
128.9100501280486
 21
29.663585883661117
 31
0.0
 11
128.88503986877845
 21
29.850846495511117
 31
0.0
 11
128.84395295608351
 21
30.033113610121976
 31
0.0
 11
128.78658811356996
 21
30.210947031790798
 31
0.0
 11
128.71400400471583
 21
30.38126736213033
 31
0.0
 11
128.6260623955551
 21
30.544204100651335
 31
0.0
 11
128.52410860870015
 21
30.697406979252637
 31
0.0
 11
128.40832853492526
 21
30.840456633019564
 31
0.0
 11
128.3456466243457
 21
30.90772458210159
 31
0.0
 11
128.280033165031
 21
30.971848830047978
 31
0.0
  0
SPLINE
  5
222
100
AcDbEntity
  8
1
  6
CONTINUOUS
 62
             3
100
AcDbSpline
210
0.0
220
0.0
230
1.0
 70
             0
 71
             2
 72
            15
 73
            12
 74
            21
 42
0.00000000001
 43
0.00000000001
 44
0.00000000001
 40
10.247861466467681
 40
10.247861466467681
 40
10.247861466467681
 40
10.443868108769999
 40
10.83514661948387
 40
11.22430189889042
 40
11.61018218070064
 40
11.99200784714365
 40
12.3694723133354
 40
12.74279364904327
 40
13.112704287190059
 40
13.48037227442985
 40
13.663815288628451
 40
13.663815288628451
 40
13.663815288628451
 10
51.715971212595178
 20
132.1083639355937
 30
0.0
 10
51.649132830920252
 20
132.03668854645801
 30
0.0
 10
51.466409408073083
 20
131.80557367005881
 30
0.0
 10
51.276854134039439
 20
131.46297961122951
 30
0.0
 10
51.147206409900292
 20
131.09636031628821
 30
0.0
 10
51.081444924197939
 20
130.71677042740731
 30
0.0
 10
51.081646526202377
 20
130.3356848736619
 30
0.0
 10
51.147908079007692
 20
129.96466954340809
 30
0.0
 10
51.278317245130857
 20
129.6150408419615
 30
0.0
 10
51.468978247839893
 20
129.29751640833121
 30
0.0
 10
51.652887601297181
 20
129.0907035673211
 30
0.0
 10
51.719966834991247
 20
129.02815116993341
 30
0.0
 11
51.715971212595178
 21
132.1083639355937
 31
0.0
 11
51.650596423439737
 21
132.03532372435387
 31
0.0
 11
51.588148819323294
 21
131.95955386890577
 31
0.0
 11
51.473085389133558
 21
131.8011279556676
 31
0.0
 11
51.371373921064759
 21
131.63381061364697
 31
0.0
 11
51.284209635197243
 21
131.45966630122129
 31
0.0
 11
51.21175635164532
 21
131.2788953687791
 31
0.0
 11
51.155080294965593
 21
131.09429474425957
 31
0.0
 11
51.114152008416468
 21
130.90556297568281
 31
0.0
 11
51.089647040247982
 21
130.7160592610108
 31
0.0
 11
51.081546304179568
 21
130.52513321354581
 31
0.0
 11
51.089949871951546
 21
130.33641411633988
 31
0.0
 11
51.114960131221828
 21
130.14915350448996
 31
0.0
 11
51.156047043916871
 21
129.96688638987914
 31
0.0
 11
51.213411886430222
 21
129.78905296821029
 31
0.0
 11
51.285995995284203
 21
129.61873263787075
 31
0.0
 11
51.373937604444876
 21
129.45579589934968
 31
0.0
 11
51.475891391299953
 21
129.30259302074847
 31
0.0
 11
51.591671465075137
 21
129.15954336698189
 31
0.0
 11
51.654353375665181
 21
129.09227541788937
 31
0.0
 11
51.719966834991247
 21
129.02815116993341
 31
0.0
  0
SPLINE
  5
221
100
AcDbEntity
  8
1
  6
CONTINUOUS
 62
             3
100
AcDbSpline
210
0.0
220
0.0
230
1.0
 70
             0
 71
             2
 72
            15
 73
            12
 74
            21
 42
0.00000000001
 43
0.00000000001
 44
0.00000000001
 40
10.24786146650049
 40
10.24786146650049
 40
10.24786146650049
 40
10.4438681087655
 40
10.83514661947882
 40
11.22430189888532
 40
11.61018218069551
 40
11.9920078471384
 40
12.369472313329981
 40
12.742793649037621
 40
13.11270428718411
 40
13.480372274424131
 40
13.66381528864239
 40
13.66381528864239
 40
13.66381528864239
 10
37.891636064435687
 20
41.715971212572022
 30
0.0
 10
37.963311453558191
 20
41.649132830911022
 30
0.0
 10
38.194426329942388
 20
41.466409408074981
 30
0.0
 10
38.537020388770969
 20
41.276854134041798
 30
0.0
 10
38.903639683712271
 20
41.147206409902083
 30
0.0
 10
39.283229572592937
 20
41.0814449241999
 30
0.0
 10
39.66431512633838
 20
41.081646526203599
 30
0.0
 10
40.035330456592852
 20
41.147908079008907
 30
0.0
 10
40.384959158038747
 20
41.278317245131582
 30
0.0
 10
40.702483591669278
 20
41.468978247841108
 30
0.0
 10
40.909296432686489
 20
41.652887601303973
 30
0.0
 10
40.971848830081143
 20
41.719966835005607
 30
0.0
 11
37.891636064435687
 21
41.715971212572022
 31
0.0
 11
37.964676275661944
 21
41.650596423429882
 31
0.0
 11
38.040446131095713
 21
41.588148819325454
 31
0.0
 11
38.198872044333562
 21
41.473085389135591
 31
0.0
 11
38.366189386353739
 21
41.371373921066947
 31
0.0
 11
38.540333698779257
 21
41.284209635199481
 31
0.0
 11
38.721104631221372
 21
41.211756351647395
 31
0.0
 11
38.905705255740877
 21
41.155080294967476
 31
0.0
 11
39.094437024317585
 21
41.114152008418344
 31
0.0
 11
39.283940738989479
 21
41.089647040249822
 31
0.0
 11
39.474866786454456
 21
41.08154630418116
 31
0.0
 11
39.663585883660474
 21
41.089949871952847
 31
0.0
 11
39.850846495510694
 21
41.114960131223043
 31
0.0
 11
40.033113610121674
 21
41.156047043918015
 31
0.0
 11
40.210947031790312
 21
41.21341188643121
 31
0.0
 11
40.381267362129584
 21
41.285995995285035
 31
0.0
 11
40.54420410065056
 21
41.373937604445786
 31
0.0
 11
40.697406979251895
 21
41.475891391300934
 31
0.0
 11
40.840456633018448
 21
41.59167146507572
 31
0.0
 11
40.907724582118149
 21
41.654353375672315
 31
0.0
 11
40.971848830081143
 21
41.719966835005607
 31
0.0
  0
SPLINE
  5
220
102
{ACAD_REACTORS
330
30B
102
}
100
AcDbEntity
  8
___C_____1
  6
CONTINUOUS
 62
             2
100
AcDbSpline
210
0.0
220
0.0
230
1.0
 70
             1
 71
             3
 72
            53
 73
            49
 74
            67
 42
0.00000000001
 43
0.00000000001
 44
0.00000000001
 40
0.0
 40
0.0
 40
0.0
 40
0.0
 40
1.0
 40
1.0
 40
1.0
 40
2.0
 40
2.0
 40
2.0
 40
3.0
 40
3.0
 40
3.0
 40
4.0
 40
4.0
 40
4.0
 40
5.0
 40
5.0
 40
5.0
 40
6.0
 40
6.0
 40
6.0
 40
7.0
 40
7.0
 40
7.0
 40
8.0
 40
8.0
 40
8.0
 40
9.0
 40
9.0
 40
9.0
 40
10.0
 40
10.0
 40
10.0
 40
11.0
 40
11.0
 40
11.0
 40
12.0
 40
12.0
 40
12.0
 40
13.0
 40
13.0
 40
13.0
 40
14.0
 40
14.0
 40
14.0
 40
15.0
 40
15.0
 40
15.0
 40
16.0
 40
16.0
 40
16.0
 40
16.0
 10
81.534067592832798
 20
96.824745816571763
 30
0.0
 10
81.523924474276996
 20
96.407386004997875
 30
0.0
 10
81.950761929961899
 20
96.39871337029517
 30
0.0
 10
81.950761929961899
 20
96.39871337029517
 30
0.0
 10
81.950761929961899
 20
96.39871337029517
 30
0.0
 10
82.765678321643506
 20
96.407386004997875
 30
0.0
 10
82.945710625921095
 20
96.39871337029517
 30
0.0
 10
83.125753663657605
 20
96.388409249857773
 30
0.0
 10
84.083199654605792
 20
96.265661415139476
 30
0.0
 10
84.140001118520104
 20
95.232093734455972
 30
0.0
 10
84.204337470504399
 20
94.067749591880272
 30
0.0
 10
83.163556905514199
 20
94.00000000000027
 30
0.0
 10
83.163556905514199
 20
94.00000000000027
 30
0.0
 10
83.163556905514199
 20
94.00000000000027
 30
0.0
 10
80.627626998053103
 20
94.00000000000027
 30
0.0
 10
80.627626998053103
 20
94.00000000000027
 30
0.0
 10
80.627626998053103
 20
94.00000000000027
 30
0.0
 10
80.627626998053103
 20
94.789982566913167
 30
0.0
 10
80.627626998053103
 20
94.789982566913167
 30
0.0
 10
80.627626998053103
 20
94.789982566913167
 30
0.0
 10
82.693431410531105
 20
94.789982566913167
 30
0.0
 10
82.693431410531105
 20
94.789982566913167
 30
0.0
 10
82.693431410531105
 20
94.789982566913167
 30
0.0
 10
83.144558683456992
 20
94.786419058595371
 30
0.0
 10
83.144558683456992
 20
95.213116979316766
 30
0.0
 10
83.144558683456992
 20
95.641403451937776
 30
0.0
 10
82.689900102589093
 20
95.611478568832567
 30
0.0
 10
82.689900102589093
 20
95.611478568832567
 30
0.0
 10
82.301670898170002
 20
95.611478568832567
 30
0.0
 10
81.420486131921706
 20
95.611478568832567
 30
0.0
 10
81.420486131921706
 20
95.611478568832567
 30
0.0
 10
81.296278546808892
 20
95.630798794654069
 30
0.0
 10
80.481855894231998
 20
95.696423161693275
 30
0.0
 10
80.500510645607903
 20
96.843422034865668
 30
0.0
 10
80.5196484026295
 20
97.990227705779375
 30
0.0
 10
81.621105210157893
 20
98.004374404464471
 30
0.0
 10
81.621105210157893
 20
98.004374404464471
 30
0.0
 10
81.621105210157893
 20
98.004374404464471
 30
0.0
 10
84.190190771820198
 20
98.004374404464471
 30
0.0
 10
84.190190771820198
 20
98.004374404464471
 30
0.0
 10
84.190190771820198
 20
98.004374404464471
 30
0.0
 10
83.687424828657697
 20
97.21072099464557
 30
0.0
 10
83.687424828657697
 20
97.21072099464557
 30
0.0
 10
83.687424828657697
 20
97.21072099464557
 30
0.0
 10
81.940962282087199
 20
97.21072099464557
 30
0.0
 10
81.940962282087199
 20
97.21072099464557
 30
0.0
 10
81.940962282087199
 20
97.21072099464557
 30
0.0
 10
81.542589959111794
 20
97.241933892805065
 30
0.0
 10
81.534067592832798
 20
96.824745816571763
 30
0.0
 11
81.534067592832798
 21
96.824745816571763
 31
0.0
 11
81.637591405322951
 21
96.528799710541279
 31
0.0
 11
81.840476038434545
 21
96.416419601943048
 31
0.0
 11
81.950761929961899
 21
96.39871337029517
 31
0.0
 11
82.080905620916482
 21
96.399932959550227
 31
0.0
 11
82.380724163837385
 21
96.401965608308672
 31
0.0
 11
82.714298763810362
 21
96.402372138060372
 31
0.0
 11
82.945710625921095
 21
96.39871337029517
 31
0.0
 11
83.200286466071816
 21
96.357427456481872
 31
0.0
 11
83.589071462403922
 21
96.199127387467854
 31
0.0
 11
83.954748663644352
 21
95.848965400907687
 31
0.0
 11
84.140001118520104
 21
95.232093734455972
 31
0.0
 11
84.014573608731311
 21
94.548371403298148
 31
0.0
 11
83.675905144011253
 21
94.179417813762228
 31
0.0
 11
83.325173613294169
 21
94.028778750959262
 31
0.0
 11
83.163556905514199
 21
94.00000000000027
 31
0.0
 11
82.97571024570226
 21
94.00000000000027
 31
0.0
 11
82.506093596172448
 21
94.00000000000027
 31
0.0
 11
81.895591951783643
 21
94.000000000000256
 31
0.0
 11
81.285090307394867
 21
94.00000000000027
 31
0.0
 11
80.815473657865027
 21
94.00000000000027
 31
0.0
 11
80.627626998053103
 21
94.00000000000027
 31
0.0
 11
80.627626998053117
 21
94.123434776080401
 31
0.0
 11
80.627626998053103
 21
94.394991283456719
 31
0.0
 11
80.627626998053103
 21
94.666547790833022
 31
0.0
 11
80.627626998053103
 21
94.789982566913167
 31
0.0
 11
80.842470656950809
 21
94.789982566913167
 31
0.0
 11
81.354790151245368
 21
94.789982566913167
 31
0.0
 11
81.966268257338854
 21
94.789982566913181
 31
0.0
 11
82.478587751633398
 21
94.789982566913181
 31
0.0
 11
82.693431410531105
 21
94.789982566913167
 31
0.0
 11
82.810390333141527
 21
94.804862321079725
 31
0.0
 11
83.027599760846584
 21
94.913771944669278
 31
0.0
 11
83.144558683456992
 21
95.213116979316766
 31
0.0
 11
83.026684236565302
 21
95.506745453319098
 31
0.0
 11
82.807774549480769
 21
95.603374409910913
 31
0.0
 11
82.689900102589093
 21
95.611478568832567
 31
0.0
 11
82.327769974058
 21
95.611478568832567
 31
0.0
 11
81.909607165598246
 21
95.611478568832567
 31
0.0
 11
81.564237332967053
 21
95.611478568832581
 31
0.0
 11
81.420486131921706
 21
95.611478568832567
 31
0.0
 11
81.221716562803465
 21
95.650823739128825
 31
0.0
 11
80.906925012581524
 21
95.804570809092525
 31
0.0
 11
80.618920150451231
 21
96.169757625434542
 31
0.0
 11
80.500510645607903
 21
96.843422034865668
 31
0.0
 11
80.683677287562332
 21
97.508629485032188
 31
0.0
 11
81.067984586766002
 21
97.853950346257704
 31
0.0
 11
81.448703556528116
 21
97.9842451441869
 31
0.0
 11
81.621105210157893
 21
98.004374404464471
 31
0.0
 11
81.811407844355102
 21
98.004374404464485
 31
0.0
 11
82.287164429848133
 21
98.004374404464471
 31
0.0
 11
82.905647990989053
 21
98.004374404464471
 31
0.0
 11
83.524131552129973
 21
98.004374404464471
 31
0.0
 11
83.999888137622989
 21
98.004374404464471
 31
0.0
 11
84.190190771820198
 21
98.004374404464471
 31
0.0
 11
84.111633593201063
 21
97.880366059180261
 31
0.0
 11
83.938807800238948
 21
97.607547699555028
 31
0.0
 11
83.765982007276833
 21
97.33472933992978
 31
0.0
 11
83.687424828657697
 21
97.21072099464557
 31
0.0
 11
83.505792723814366
 21
97.21072099464557
 31
0.0
 11
83.072670012264894
 21
97.21072099464557
 31
0.0
 11
82.555717098480031
 21
97.21072099464557
 31
0.0
 11
82.12259438693053
 21
97.21072099464557
 31
0.0
 11
81.940962282087199
 21
97.21072099464557
 31
0.0
 11
81.83736492552768
 21
97.20336181727086
 31
0.0
 11
81.643346526911643
 21
97.110230378102003
 31
0.0
 11
81.534067592832798
 21
96.824745816571763
 31
0.0
  0
SPLINE
  5
21F
102
{ACAD_REACTORS
330
30A
102
}
100
AcDbEntity
  8
___C_____1
  6
CONTINUOUS
 62
             2
100
AcDbSpline
210
0.0
220
0.0
230
1.0
 70
             1
 71
             3
 72
            44
 73
            40
 74
            65
 42
0.00000000001
 43
0.00000000001
 44
0.00000000001
 40
0.0
 40
0.0
 40
0.0
 40
0.0
 40
1.0
 40
1.0
 40
1.0
 40
2.0
 40
2.0
 40
2.0
 40
3.0
 40
3.0
 40
3.0
 40
4.0
 40
4.0
 40
4.0
 40
5.0
 40
5.0
 40
5.0
 40
6.0
 40
6.0
 40
6.0
 40
7.0
 40
7.0
 40
7.0
 40
8.0
 40
8.0
 40
8.0
 40
9.0
 40
9.0
 40
9.0
 40
10.0
 40
10.0
 40
10.0
 40
11.0
 40
11.0
 40
11.0
 40
12.0
 40
12.0
 40
12.0
 40
13.0
 40
13.0
 40
13.0
 40
13.0
 10
91.254008802748103
 20
94.002447228604368
 30
0.0
 10
91.254008802748103
 20
94.002447228604368
 30
0.0
 10
90.016462471227499
 20
94.002447228604368
 30
0.0
 10
90.016462471227499
 20
94.002447228604368
 30
0.0
 10
90.016462471227499
 20
94.002447228604368
 30
0.0
 10
88.601921404266292
 20
96.199049569891372
 30
0.0
 10
88.601921404266292
 20
96.199049569891372
 30
0.0
 10
88.601921404266292
 20
96.199049569891372
 30
0.0
 10
89.689714518754499
 20
96.199049569891372
 30
0.0
 10
89.689714518754499
 20
96.199049569891372
 30
0.0
 10
89.689714518754499
 20
96.199049569891372
 30
0.0
 10
90.194272949535403
 20
96.206112185775268
 30
0.0
 10
90.194272949535403
 20
96.704058805941969
 30
0.0
 10
90.194272949535403
 20
97.201232617074567
 30
0.0
 10
89.775431920648302
 20
97.194298802696963
 30
0.0
 10
89.668290535011295
 20
97.194298802696963
 30
0.0
 10
89.542816401760803
 20
97.194298802696963
 30
0.0
 10
88.819917952282196
 20
97.194298802696963
 30
0.0
 10
88.601921404266292
 20
97.194298802696963
 30
0.0
 10
88.601921404266292
 20
97.194298802696963
 30
0.0
 10
88.601921404266292
 20
94.002447228604368
 30
0.0
 10
88.601921404266292
 20
94.002447228604368
 30
0.0
 10
88.601921404266292
 20
94.002447228604368
 30
0.0
 10
87.573849254482397
 20
94.002447228604368
 30
0.0
 10
87.573849254482397
 20
94.002447228604368
 30
0.0
 10
87.573849254482397
 20
94.002447228604368
 30
0.0
 10
87.573849254482397
 20
98.002442381881664
 30
0.0
 10
87.573849254482397
 20
98.002442381881664
 30
0.0
 10
87.573849254482397
 20
98.002442381881664
 30
0.0
 10
90.059417773303196
 20
98.004374404464471
 30
0.0
 10
90.059417773303196
 20
98.004374404464471
 30
0.0
 10
90.059417773303196
 20
98.004374404464471
 30
0.0
 10
91.182609834879699
 20
98.019036309170971
 30
0.0
 10
91.210731496908494
 20
96.760087460822774
 30
0.0
 10
91.240828115354901
 20
95.416966828647972
 30
0.0
 10
90.073457137400098
 20
95.452687779500067
 30
0.0
 10
90.073457137400098
 20
95.452687779500067
 30
0.0
 10
90.073457137400098
 20
95.452687779500067
 30
0.0
 10
91.254008802748103
 20
94.002447228604368
 30
0.0
 10
91.254008802748103
 20
94.002447228604368
 30
0.0
 11
91.254008802748103
 21
94.002447228604368
 31
0.0
 11
91.125303984269962
 21
94.002447228604368
 31
0.0
 11
90.818392494052858
 21
94.002447228604353
 31
0.0
 11
90.452078779922743
 21
94.002447228604368
 31
0.0
 11
90.14516728970564
 21
94.002447228604368
 31
0.0
 11
90.016462471227499
 21
94.002447228604368
 31
0.0
 11
89.911681651452582
 21
94.165158513144149
 31
0.0
 11
89.649729602015327
 21
94.571936724493597
 31
0.0
 11
89.309191937746888
 21
95.100748399247877
 31
0.0
 11
88.96865427347845
 21
95.629560074002143
 31
0.0
 11
88.706702224041194
 21
96.03633828535159
 31
0.0
 11
88.601921404266292
 21
96.199049569891372
 31
0.0
 11
88.771889078405081
 21
96.199049569891358
 31
0.0
 11
89.145817961510403
 21
96.199049569891372
 31
0.0
 11
89.519746844615725
 21
96.199049569891372
 31
0.0
 11
89.689714518754499
 21
96.199049569891372
 31
0.0
 11
89.820525963771772
 21
96.219323085867458
 31
0.0
 11
90.063461504518131
 21
96.35182087652143
 31
0.0
 11
90.194272949535403
 21
96.704058805941969
 31
0.0
 11
90.081716335170711
 21
97.052124202641082
 31
0.0
 11
89.852274739800663
 21
97.177682613419577
 31
0.0
 11
89.668290535011295
 21
97.194298802696963
 31
0.0
 11
89.384501859969603
 21
97.194298802696963
 31
0.0
 11
88.947391689151587
 21
97.194298802696963
 31
0.0
 11
88.601921404266292
 21
97.194298802696963
 31
0.0
 11
88.601921404266278
 21
97.017490698009624
 31
0.0
 11
88.601921404266292
 21
96.561511901710688
 31
0.0
 11
88.601921404266292
 21
95.938030690444776
 31
0.0
 11
88.601921404266307
 21
95.258715340856554
 31
0.0
 11
88.601921404266292
 21
94.635234129590657
 31
0.0
 11
88.601921404266278
 21
94.179255333291707
 31
0.0
 11
88.601921404266292
 21
94.002447228604368
 31
0.0
 11
88.441285130862568
 21
94.002447228604368
 31
0.0
 11
88.087885329374345
 21
94.002447228604368
 31
0.0
 11
87.734485527886136
 21
94.002447228604382
 31
0.0
 11
87.573849254482397
 21
94.002447228604368
 31
0.0
 11
87.573849254482397
 21
94.174322020346764
 31
0.0
 11
87.573849254482397
 21
94.627446471303941
 31
0.0
 11
87.573849254482397
 21
95.268070695071003
 31
0.0
 11
87.573849254482397
 21
96.002444805243016
 31
0.0
 11
87.573849254482411
 21
96.736818915415014
 31
0.0
 11
87.573849254482397
 21
97.377443139182077
 31
0.0
 11
87.573849254482397
 21
97.830567590139282
 31
0.0
 11
87.573849254482397
 21
98.002442381881664
 31
0.0
 11
87.757965441061728
 21
98.002585494665581
 31
0.0
 11
88.218255907510027
 21
98.002943276625359
 31
0.0
 11
88.816633513892796
 21
98.003408393173061
 31
0.0
 11
89.41501112027558
 21
98.00387350972079
 31
0.0
 11
89.875301586723879
 21
98.004231291680554
 31
0.0
 11
90.059417773303196
 21
98.004374404464471
 31
0.0
 11
90.176454721003395
 21
97.995827651767172
 31
0.0
 11
90.456581165347984
 21
97.92896266862688
 31
0.0
 11
90.793320508202996
 21
97.741942367471069
 31
0.0
 11
91.080196151434492
 21
97.372929660727209
 31
0.0
 11
91.210731496908494
 21
96.760087460822774
 31
0.0
 11
91.104012065003033
 21
96.108359571210087
 31
0.0
 11
90.823412661530398
 21
95.719654659897671
 31
0.0
 11
90.482445538059636
 21
95.526073725259323
 31
0.0
 11
90.194622946159825
 21
95.459717765668842
 31
0.0
 11
90.073457137400098
 21
95.452687779500067
 31
0.0
 11
90.196234510596284
 21
95.301862762206923
 31
0.0
 11
90.489011323602597
 21
94.942203105584781
 31
0.0
 11
90.838454616545619
 21
94.512931902519654
 31
0.0
 11
91.131231429551917
 21
94.153272245897512
 31
0.0
 11
91.254008802748103
 21
94.002447228604368
 31
0.0
  0
SPLINE
  5
21E
100
AcDbEntity
  8
1
  6
CONTINUOUS
 62
             3
100
AcDbSpline
210
0.0
220
0.0
230
1.0
 70
             0
 71
             3
 72
            11
 73
             7
 74
             9
 42
0.00000000001
 43
0.00000000001
 44
0.00000000001
 40
14.341829107265671
 40
14.341829107265671
 40
14.341829107265671
 40
14.341829107265671
 40
16.791965295251849
 40
25.662250144962879
 40
33.733809697011957
 40
44.236395734808291
 40
44.236395734808291
 40
44.236395734808291
 40
44.236395734808291
 10
116.832626681824
 20
41.646728072785208
 30
0.0
 10
117.05022875805849
 20
42.43651027441598
 30
0.0
 10
117.9393175554781
 20
46.125724309233192
 30
0.0
 10
119.19178508800231
 20
52.504976378821077
 30
0.0
 10
118.3080615074078
 20
61.721158142286299
 30
0.0
 10
116.1266276909887
 20
67.616105526818785
 30
0.0
 10
114.2289137418161
 20
70.568152943794985
 30
0.0
 11
116.832626681824
 21
41.646728072785208
 31
0.0
 11
117.14237243999627
 21
42.837038289370966
 31
0.0
 11
117.42769028539425
 21
44.035090635336218
 31
0.0
 11
118.31570705150487
 21
48.397375162244089
 31
0.0
 11
118.7938687929466
 21
52.799536402212375
 31
0.0
 11
118.69230414902418
 21
56.834201632237026
 31
0.0
 11
118.08734201285625
 21
60.840114336122951
 31
0.0
 11
116.59705489573295
 21
65.888145393865017
 31
0.0
 11
114.2289137418161
 21
70.568152943794985
 31
0.0
  0
SPLINE
  5
21D
100
AcDbEntity
  8
1
  6
CONTINUOUS
 62
             3
100
AcDbSpline
210
0.0
220
0.0
230
1.0
 70
             0
 71
             3
 72
            12
 73
             8
 74
            11
 42
0.00000000001
 43
0.00000000001
 44
0.00000000001
 40
1.026236167929617
 40
1.026236167929617
 40
1.026236167929617
 40
1.026236167929617
 40
5.9705030210750154
 40
10.03347099530251
 40
20.155048612932251
 40
29.464912018558248
 40
36.709429549148723
 40
36.709429549148723
 40
36.709429549148723
 40
36.709429549148723
 10
37.654699319692583
 20
98.414928636516564
 30
0.0
 10
37.956128799621382
 20
96.794482856189674
 30
0.0
 10
38.64910227082666
 20
93.867578309831174
 30
0.0
 10
40.682787272784282
 20
87.819571228067872
 30
0.0
 10
44.306711565873663
 20
80.790316033850104
 30
0.0
 10
50.166161298860089
 20
73.993253836839187
 30
0.0
 10
54.641668011050093
 20
70.688435252717909
 30
0.0
 10
56.739250417843238
 20
69.478900909855895
 30
0.0
 11
37.654699319692583
 21
98.414928636516564
 31
0.0
 11
38.16615998004248
 21
95.99586552356898
 31
0.0
 11
38.796643149288549
 21
93.605022867261567
 31
0.0
 11
39.404434469585873
 21
91.666518400877791
 31
0.0
 11
40.09444566733621
 21
89.754903728358514
 31
0.0
 11
42.176469017899329
 21
85.134434505505496
 31
0.0
 11
44.776751665400354
 21
80.781479409281545
 31
0.0
 11
47.622062216206423
 21
77.086099221484673
 31
0.0
 11
50.885264317680594
 21
73.755838526889164
 31
0.0
 11
53.699852212653013
 21
71.463013587283541
 31
0.0
 11
56.739250417843238
 21
69.478900909855895
 31
0.0
  0
SPLINE
  5
21C
100
AcDbEntity
  8
1
  6
CONTINUOUS
 62
             3
100
AcDbSpline
210
0.0
220
0.0
230
1.0
 70
             0
 71
             3
 72
            13
 73
             9
 74
            13
 42
0.00000000001
 43
0.00000000001
 44
0.00000000001
 40
0.7231990473008848
 40
0.7231990473008848
 40
0.7231990473008848
 40
0.7231990473008848
 40
3.291226745111091
 40
7.1029719336026034
 40
16.791965295251849
 40
25.662250144962879
 40
33.733809697011957
 40
44.236395734808291
 40
44.236395734808291
 40
44.236395734808291
 40
44.236395734808291
 10
51.189743440309464
 20
119.6598548379969
 30
0.0
 10
52.026901969081081
 20
119.48433183713109
 30
0.0
 10
53.688692210459443
 20
117.4800371563239
 30
0.0
 10
51.144935936470091
 20
112.151911455733
 30
0.0
 10
51.784825102053652
 20
104.67321199026929
 30
0.0
 10
53.164843045577953
 20
95.852692285425675
 30
0.0
 10
57.147391380733069
 20
87.494565556171167
 30
0.0
 10
61.213459390109591
 20
82.701221305551883
 30
0.0
 10
64.00638686516848
 20
80.576260528496107
 30
0.0
 11
51.189743440309464
 21
119.6598548379969
 31
0.0
 11
52.286216917498209
 21
118.99978290185541
 31
0.0
 11
52.931836219601749
 21
117.85276256694591
 31
0.0
 11
52.886380022577498
 21
115.99124432799968
 31
0.0
 11
52.276479096750379
 21
114.0977780898121
 31
0.0
 11
51.569670630699882
 21
109.25769252914522
 31
0.0
 11
51.925678378016769
 21
104.4151373747063
 31
0.0
 11
52.583204754888854
 21
100.01221117338164
 31
0.0
 11
53.639507513150619
 21
95.711991793332999
 31
0.0
 11
55.114883839821402
 21
91.955383803408552
 31
0.0
 11
57.053465132166444
 21
88.397966432573227
 31
0.0
 11
60.180405244860765
 21
84.164077111509812
 31
0.0
 11
64.00638686516848
 21
80.576260528496107
 31
0.0
  0
SPLINE
  5
21B
100
AcDbEntity
  8
1
  6
CONTINUOUS
 62
             3
100
AcDbSpline
210
0.0
220
0.0
230
1.0
 70
             0
 71
             3
 72
            12
 73
             8
 74
            11
 42
0.00000000001
 43
0.00000000001
 44
0.00000000001
 40
0.7231990473055586
 40
0.7231990473055586
 40
0.7231990473055586
 40
0.7231990473055586
 40
3.291226745111091
 40
7.1029719336026034
 40
16.791965295251849
 40
25.662250144962879
 40
28.620120775967049
 40
28.620120775967049
 40
28.620120775967049
 40
28.620120775967049
 10
34.776755334600843
 20
85.434459368230563
 30
0.0
 10
35.530879983746651
 20
85.83811607841217
 30
0.0
 10
38.092220950764357
 20
85.370915452861965
 30
0.0
 10
39.568443775617169
 20
79.654239352703883
 30
0.0
 10
44.865842668094253
 20
74.336536012638192
 30
0.0
 10
50.301014865349742
 20
69.593821074802918
 30
0.0
 10
53.737389520862479
 20
67.650617294005599
 30
0.0
 10
54.619099185436681
 20
67.205317067693613
 30
0.0
 11
34.776755334600843
 21
85.434459368230563
 31
0.0
 11
36.040988810880066
 21
85.633614494974509
 31
0.0
 11
37.272852348962807
 21
85.169942029239493
 31
0.0
 11
38.434591741027191
 21
83.714717646299476
 31
0.0
 11
39.184477163210872
 21
81.872201598044484
 31
0.0
 11
41.754177493662795
 21
77.710153225676393
 31
0.0
 11
45.139629702699281
 21
74.229378128048992
 31
0.0
 11
48.473470538481926
 21
71.279190786156803
 31
0.0
 11
52.046773133128632
 21
68.664009950966403
 31
0.0
 11
53.314025438776213
 21
67.903855444873983
 31
0.0
 11
54.619099185436681
 21
67.205317067693613
 31
0.0
  0
SPLINE
  5
21A
100
AcDbEntity
  8
1
  6
CONTINUOUS
 62
             3
100
AcDbSpline
210
0.0
220
0.0
230
1.0
 70
             0
 71
             3
 72
             9
 73
             5
 74
             5
 42
0.00000000001
 43
0.00000000001
 44
0.00000000001
 40
1.0262361679253169
 40
1.0262361679253169
 40
1.0262361679253169
 40
1.0262361679253169
 40
5.9705030210750154
 40
8.6107182725238598
 40
8.6107182725238598
 40
8.6107182725238598
 40
8.6107182725238598
 10
38.064285329641081
 20
60.459743049820418
 30
0.0
 10
39.336796177496382
 20
59.412164699317323
 30
0.0
 10
41.367995399354157
 20
57.899261890675291
 30
0.0
 10
43.506897230499561
 20
56.549911924107619
 30
0.0
 10
44.264274367094657
 20
56.101126934718707
 30
0.0
 11
38.064285329641081
 21
60.459743049820418
 31
0.0
 11
40.011030722429773
 21
58.935393769906717
 31
0.0
 11
42.030812886896811
 21
57.509168807976536
 31
0.0
 11
43.13784590060974
 21
56.789865487047315
 31
0.0
 11
44.264274367094657
 21
56.101126934718707
 31
0.0
  0
SPLINE
  5
219
100
AcDbEntity
  8
1
  6
CONTINUOUS
 62
             3
100
AcDbSpline
210
0.0
220
0.0
230
1.0
 70
             0
 71
             3
 72
             8
 73
             4
 74
             3
 42
0.00000000001
 43
0.00000000001
 44
0.00000000001
 40
38.224098757562501
 40
38.224098757562501
 40
38.224098757562501
 40
38.224098757562501
 40
43.252221752251863
 40
43.252221752251863
 40
43.252221752251863
 40
43.252221752251863
 10
63.728505048527467
 20
64.147273280924992
 30
0.0
 10
65.381107548233985
 20
63.850435206711893
 30
0.0
 10
67.054673889531188
 20
63.693352176057317
 30
0.0
 10
68.73205396062346
 20
63.705946804810033
 30
0.0
 11
63.728505048527467
 21
64.147273280924992
 31
0.0
 11
66.220987915305798
 21
63.810572779255324
 31
0.0
 11
68.73205396062346
 21
63.705946804810033
 31
0.0
  0
SPLINE
  5
218
100
AcDbEntity
  8
1
  6
CONTINUOUS
 62
             3
100
AcDbSpline
210
0.0
220
0.0
230
1.0
 70
             0
 71
             3
 72
            11
 73
             7
 74
             9
 42
0.00000000001
 43
0.00000000001
 44
0.00000000001
 40
16.35172554290785
 40
16.35172554290785
 40
16.35172554290785
 40
16.35172554290785
 40
20.155048612932251
 40
29.464912018558248
 40
38.006897626036967
 40
42.591733930666472
 40
42.591733930666472
 40
42.591733930666472
 40
42.591733930666472
 10
51.235973728271091
 20
52.726893211614481
 30
0.0
 10
52.423574037035877
 20
52.274206936335077
 30
0.0
 10
56.586861061210783
 20
50.893159323142299
 30
0.0
 10
63.777391326462777
 20
49.723805783997307
 30
0.0
 10
71.309128239654484
 20
50.323237451071009
 30
0.0
 10
75.532561759920796
 20
51.582324651494503
 30
0.0
 10
76.962961237370493
 20
52.13344294899008
 30
0.0
 11
51.235973728271091
 21
52.726893211614481
 31
0.0
 11
53.031826195796469
 21
52.087521251003771
 31
0.0
 11
54.854656631978855
 21
51.529704259633917
 31
0.0
 11
59.40963556616866
 21
50.527809169328698
 31
0.0
 11
64.050043714289245
 21
50.074227348826945
 31
0.0
 11
68.328497888571576
 21
50.175959688720582
 31
0.0
 11
72.559969121970994
 21
50.813610655420121
 31
0.0
 11
74.786614364026178
 21
51.390213546453687
 31
0.0
 11
76.962961237370493
 21
52.13344294899008
 31
0.0
  0
SPLINE
  5
217
100
AcDbEntity
  8
1
  6
CONTINUOUS
 62
             3
100
AcDbSpline
210
0.0
220
0.0
230
1.0
 70
             0
 71
             3
 72
            12
 73
             8
 74
            11
 42
0.00000000001
 43
0.00000000001
 44
0.00000000001
 40
5.4245237477842974
 40
5.4245237477842974
 40
5.4245237477842974
 40
5.4245237477842974
 40
7.1029719336026034
 40
16.791965295251849
 40
25.662250144962879
 40
33.733809697011957
 40
44.236395734808291
 40
44.236395734808291
 40
44.236395734808291
 40
44.236395734808291
 10
48.321784869096092
 20
49.601808263933087
 30
0.0
 10
48.839754654618652
 20
49.3515286931584
 30
0.0
 10
52.302366117492937
 20
47.254604955756577
 30
0.0
 10
59.065634060018077
 20
46.649857777085117
 30
0.0
 10
67.991787851985436
 20
46.477242974342289
 30
0.0
 10
76.914498116484097
 20
48.94791397630479
 30
0.0
 10
82.341085997448602
 20
52.119853782163318
 30
0.0
 10
84.9187506119397
 20
54.501354846652589
 30
0.0
 11
48.321784869096092
 21
49.601808263933087
 31
0.0
 11
49.095467648284796
 21
49.194090509674943
 31
0.0
 11
49.86962311663391
 21
48.770601171348972
 31
0.0
 11
54.513440899931879
 21
47.234058676725908
 31
0.0
 11
59.34424685696947
 21
46.743756988596097
 31
0.0
 11
63.794460973086295
 21
46.626733951087708
 31
0.0
 11
68.212775407248245
 21
46.920263838038586
 31
0.0
 11
72.168508491252751
 21
47.720897751495265
 31
0.0
 11
76.008511807426629
 21
49.012288594394903
 31
0.0
 11
80.721066288448512
 21
51.356516295534981
 31
0.0
 11
84.9187506119397
 21
54.501354846652589
 31
0.0
  0
SPLINE
  5
216
100
AcDbEntity
  8
1
  6
CONTINUOUS
 62
             3
100
AcDbSpline
210
0.0
220
0.0
230
1.0
 70
             0
 71
             3
 72
            13
 73
             9
 74
            13
 42
0.00000000001
 43
0.00000000001
 44
0.00000000001
 40
1.0262361679236749
 40
1.0262361679236749
 40
1.0262361679236749
 40
1.0262361679236749
 40
5.9705030210750154
 40
10.03347099530251
 40
20.155048612932251
 40
29.464912018558248
 40
38.006897626036967
 40
41.758028241431603
 40
41.758028241431603
 40
41.758028241431603
 40
41.758028241431603
 10
62.775169435023336
 20
31.647660855875809
 30
0.0
 10
64.423339682711884
 20
31.663123487934399
 30
0.0
 10
67.426111552740878
 20
31.837317494328719
 30
0.0
 10
73.735381511674376
 20
32.789880843176213
 30
0.0
 10
81.287134374339303
 20
35.138132228508312
 30
0.0
 10
89.373478852063201
 20
39.951521713031923
 30
0.0
 10
94.5577447824285
 20
45.055063467734222
 30
0.0
 10
96.872748001536195
 20
48.466284867145589
 30
0.0
 10
97.510431267834605
 20
49.54674358150379
 30
0.0
 11
62.775169435023336
 21
31.647660855875809
 31
0.0
 11
65.246295755301077
 21
31.731285378324568
 31
0.0
 11
67.710298392857155
 21
31.937024621185731
 31
0.0
 11
69.724894475772075
 21
32.198964457641196
 31
0.0
 11
71.727286613100034
 21
32.54654443056652
 31
0.0
 11
76.639100087005204
 21
33.794601107638883
 31
0.0
 11
81.37745835743803
 21
35.599496898995802
 31
0.0
 11
85.510780408752041
 21
37.759884753759742
 31
0.0
 11
89.35709605862138
 21
40.395217782164963
 31
0.0
 11
92.569189816381567
 21
43.22328660766626
 31
0.0
 11
95.400810700245927
 21
46.43169286693
 31
0.0
 11
96.503565571476301
 21
47.95667971955524
 31
0.0
 11
97.510431267834605
 21
49.54674358150379
 31
0.0
  0
SPLINE
  5
215
100
AcDbEntity
  8
1
  6
CONTINUOUS
 62
             3
100
AcDbSpline
210
0.0
220
0.0
230
1.0
 70
             0
 71
             3
 72
            13
 73
             9
 74
            17
 42
0.00000000001
 43
0.00000000001
 44
0.00000000001
 40
0.7231990472970096
 40
0.7231990472970096
 40
0.7231990472970096
 40
0.7231990472970096
 40
3.291226745111091
 40
7.1029719336026034
 40
16.791965295251849
 40
25.662250144962879
 40
33.733809697011957
 40
34.263807909788191
 40
34.263807909788191
 40
34.263807909788191
 40
34.263807909788191
 10
75.058686479737901
 20
26.559404472915219
 30
0.0
 10
74.792114593048183
 20
27.37216652625921
 30
0.0
 10
75.696989582607998
 20
29.813466431460601
 30
0.0
 10
81.583159930872498
 20
30.274571727444989
 30
0.0
 10
87.739959072441295
 20
34.568081733178822
 30
0.0
 10
94.688744239655094
 20
40.173472182370801
 30
0.0
 10
98.029170074074301
 20
45.029689319644383
 30
0.0
 10
99.366369102896698
 20
47.582450150985778
 30
0.0
 10
99.447557889734796
 20
47.740343782813
 30
0.0
 11
75.058686479737901
 21
26.559404472915222
 31
0.0
 11
74.987614793761566
 21
27.408963259737863
 31
0.0
 11
75.248466904259629
 21
28.252734619474552
 31
0.0
 11
75.752627903803543
 21
28.971647211060414
 31
0.0
 11
76.785530406982033
 21
29.65481070188018
 31
0.0
 11
78.023858004869766
 21
30.01873068591588
 31
0.0
 11
79.332218413243368
 21
30.281583532686852
 31
0.0
 11
81.69720392729387
 21
31.021538788454745
 31
0.0
 11
83.877259698296328
 21
32.089512225810587
 31
0.0
 11
85.924998125363771
 21
33.387900822470499
 31
0.0
 11
87.893031607609217
 21
34.819101556150557
 31
0.0
 11
91.377314360508478
 21
37.589999202842399
 31
0.0
 11
94.573262206345987
 21
40.654893915608923
 31
0.0
 11
97.088891994344749
 21
43.810911289610196
 31
0.0
 11
99.200415163179741
 21
47.268480621499954
 31
0.0
 11
99.324875868136147
 21
47.503956056778449
 31
0.0
 11
99.447557889734796
 21
47.740343782813
 31
0.0
  0
SPLINE
  5
214
100
AcDbEntity
  8
1
  6
CONTINUOUS
 62
             3
100
AcDbSpline
210
0.0
220
0.0
230
1.0
 70
             0
 71
             3
 72
            10
 73
             6
 74
             7
 42
0.00000000001
 43
0.00000000001
 44
0.00000000001
 40
1.026236167924325
 40
1.026236167924325
 40
1.026236167924325
 40
1.026236167924325
 40
5.9705030210750154
 40
10.03347099530251
 40
16.868925903080839
 40
16.868925903080839
 40
16.868925903080839
 40
16.868925903080839
 10
100.2248543320496
 20
25.46017552385803
 30
0.0
 10
101.4774868033044
 20
26.531444001089881
 30
0.0
 10
103.6657737593016
 20
28.595028904482721
 30
0.0
 10
107.1615566782603
 20
32.558205271918098
 30
0.0
 10
109.2425155635092
 20
35.561007157971801
 30
0.0
 10
110.390798634207
 20
37.535606697368912
 30
0.0
 11
100.2248543320496
 21
25.46017552385803
 31
0.0
 11
102.06409411104661
 21
27.112645005232409
 31
0.0
 11
103.81938300323907
 21
28.854080774613486
 31
0.0
 11
105.19428145632835
 21
30.349695731382511
 31
0.0
 11
106.50478272610201
 21
31.903070293789607
 31
0.0
 11
108.55439538511233
 21
34.644334700507045
 31
0.0
 11
110.390798634207
 21
37.535606697368912
 31
0.0
  0
SPLINE
  5
213
100
AcDbEntity
  8
1
  6
CONTINUOUS
 62
             3
100
AcDbSpline
210
0.0
220
0.0
230
1.0
 70
             0
 71
             3
 72
            10
 73
             6
 74
             7
 42
0.00000000001
 43
0.00000000001
 44
0.00000000001
 40
24.650234769035048
 40
24.650234769035048
 40
24.650234769035048
 40
24.650234769035048
 40
29.464912018558248
 40
38.006897626036967
 40
42.591733930664859
 40
42.591733930664859
 40
42.591733930664859
 40
42.591733930664859
 10
113.6598978323227
 20
44.605345589174078
 30
0.0
 10
114.191277473461
 20
46.123659579468608
 30
0.0
 10
115.40648309485169
 20
50.425277581164721
 30
0.0
 10
115.9802700222972
 20
56.439768844178623
 30
0.0
 10
115.47370271989401
 20
60.817677117145202
 30
0.0
 10
115.1793434102883
 20
62.322046300480913
 30
0.0
 11
113.6598978323227
 21
44.605345589174078
 31
0.0
 11
114.38583359454867
 21
46.905855339817883
 31
0.0
 11
114.96497030220576
 21
49.247725973353312
 31
0.0
 11
115.60772927574199
 21
53.478846450526262
 31
0.0
 11
115.71455292855055
 21
57.756759056180989
 31
0.0
 11
115.53336281964532
 21
60.049702595029331
 31
0.0
 11
115.1793434102883
 21
62.322046300480913
 31
0.0
  0
SPLINE
  5
212
100
AcDbEntity
  8
1
  6
CONTINUOUS
 62
             3
100
AcDbSpline
210
0.0
220
0.0
230
1.0
 70
             0
 71
             3
 72
             9
 73
             5
 74
             5
 42
0.00000000001
 43
0.00000000001
 44
0.00000000001
 40
0.7231990472954409
 40
0.7231990472954409
 40
0.7231990472954409
 40
0.7231990472954409
 40
3.291226745111091
 40
6.6229501667127177
 40
6.6229501667127177
 40
6.6229501667127177
 40
6.6229501667127177
 10
112.9052424639863
 20
29.458037556240409
 30
0.0
 10
112.1786031739821
 20
29.909300304927509
 30
0.0
 10
111.3684563225975
 20
32.176611592917709
 30
0.0
 10
112.7378344176359
 20
33.751774040793691
 30
0.0
 10
113.4731313575692
 20
34.661284932341523
 30
0.0
 11
112.9052424639863
 21
29.458037556240409
 31
0.0
 11
112.10065232678585
 21
30.453318299641435
 31
0.0
 11
111.88627269210447
 21
31.751979650489158
 31
0.0
 11
112.43330673026279
 21
33.281914852993971
 31
0.0
 11
113.4731313575692
 21
34.661284932341523
 31
0.0
  0
SPLINE
  5
211
100
AcDbEntity
  8
1
  6
CONTINUOUS
 62
             3
100
AcDbSpline
210
0.0
220
0.0
230
1.0
 70
             0
 71
             3
 72
            13
 73
             9
 74
            13
 42
0.00000000001
 43
0.00000000001
 44
0.00000000001
 40
1.026236167922562
 40
1.026236167922562
 40
1.026236167922562
 40
1.026236167922562
 40
5.9705030210750154
 40
10.03347099530251
 40
20.155048612932251
 40
29.464912018558248
 40
38.006897626036967
 40
42.591733930666443
 40
42.591733930666443
 40
42.591733930666443
 40
42.591733930666443
 10
132.89021625051009
 20
44.7924802068556
 30
0.0
 10
133.1611902905729
 20
46.418296102942577
 30
0.0
 10
133.5110685457276
 20
49.405697592845229
 30
0.0
 10
133.66857000532491
 20
55.78452645389018
 30
0.0
 10
132.66734195782061
 20
63.62932079564149
 30
0.0
 10
129.33125765773849
 20
72.428651843220109
 30
0.0
 10
125.046266149624
 20
78.651611511128181
 30
0.0
 10
121.84414788834449
 20
81.679668630661808
 30
0.0
 10
120.65166570349911
 20
82.642871766944495
 30
0.0
 11
132.89021625051009
 21
44.7924802068556
 31
0.0
 11
133.23696875476176
 21
47.240585811669632
 31
0.0
 11
133.46222472107138
 21
49.702880957175331
 31
0.0
 11
133.55409527784042
 21
51.732356174076862
 31
0.0
 11
133.55950757133337
 21
53.764684104380159
 31
0.0
 11
133.18333913833729
 21
58.818598862430512
 31
0.0
 11
132.22867104842345
 21
63.798387688750118
 31
0.0
 11
130.8188481814598
 21
68.244062704613981
 31
0.0
 11
128.89145748664887
 21
72.489564955065504
 31
0.0
 11
126.66412760877344
 21
76.143948788974711
 31
0.0
 11
123.99617005616432
 21
79.489684889131894
 31
0.0
 11
122.38349468360634
 21
81.129714788450528
 31
0.0
 11
120.65166570349911
 21
82.642871766944495
 31
0.0
  0
SPLINE
  5
210
100
AcDbEntity
  8
1
  6
CONTINUOUS
 62
             3
100
AcDbSpline
210
0.0
220
0.0
230
1.0
 70
             0
 71
             3
 72
            13
 73
             9
 74
            13
 42
0.00000000001
 43
0.00000000001
 44
0.00000000001
 40
0.7231990472974115
 40
0.7231990472974115
 40
0.7231990472974115
 40
0.7231990472974115
 40
3.291226745111091
 40
7.1029719336026034
 40
16.791965295251849
 40
25.662250144962879
 40
33.733809697011957
 40
39.086208428887979
 40
39.086208428887979
 40
39.086208428887979
 40
39.086208428887979
 10
140.03418093591841
 20
56.005816578346007
 30
0.0
 10
139.1874768420906
 20
55.884429167039123
 30
0.0
 10
136.94039566097399
 20
57.19948435194101
 30
0.0
 10
137.5084183449467
 20
63.076300640822687
 30
0.0
 10
134.34925335485929
 20
69.885124357469124
 30
0.0
 10
130.03566526312011
 20
77.701707700771124
 30
0.0
 10
124.6733852008397
 20
82.97539323602939
 30
0.0
 10
120.9260649052312
 20
85.482184240328664
 30
0.0
 10
119.356590976392
 20
86.334401562354472
 30
0.0
 11
140.03418093591841
 21
56.005816578346007
 31
0.0
 11
138.77807500231125
 21
56.25106529010386
 31
0.0
 11
137.77908724894286
 21
57.108097028471363
 31
0.0
 11
137.18512536696781
 21
58.872898916088829
 31
0.0
 11
137.11064117221082
 21
60.860773569886824
 31
0.0
 11
136.1194171148997
 21
65.650708988080325
 31
0.0
 11
134.12862785381972
 21
70.079460511692986
 31
0.0
 11
132.00486571907157
 21
73.991970507284478
 31
0.0
 11
129.54150416312123
 21
77.671578105700775
 31
0.0
 11
126.87026831293414
 21
80.69702649031089
 31
0.0
 11
123.83188937868158
 21
83.376871491284078
 31
0.0
 11
121.6534078534317
 21
84.950732055097561
 31
0.0
 11
119.356590976392
 21
86.334401562354472
 31
0.0
  0
SPLINE
  5
20F
100
AcDbEntity
  8
1
  6
CONTINUOUS
 62
             3
100
AcDbSpline
210
0.0
220
0.0
230
1.0
 70
             0
 71
             3
 72
            11
 73
             7
 74
             9
 42
0.00000000001
 43
0.00000000001
 44
0.00000000001
 40
1.0262361679252769
 40
1.0262361679252769
 40
1.0262361679252769
 40
1.0262361679252769
 40
5.9705030210750154
 40
10.03347099530251
 40
20.155048612932251
 40
24.289513970142831
 40
24.289513970142831
 40
24.289513970142831
 40
24.289513970142831
 10
145.4867693136994
 20
80.598774689067398
 30
0.0
 10
144.64929315768379
 20
82.018400677297109
 30
0.0
 10
142.997050787945
 20
84.531780395313774
 30
0.0
 10
139.0174717496628
 20
89.519486784659975
 30
0.0
 10
134.4876836963067
 20
93.703362622112863
 30
0.0
 10
130.47850289911261
 20
96.289071826188575
 30
0.0
 10
129.27995358400409
 20
96.975905120993971
 30
0.0
 11
145.4867693136994
 21
80.598774689067398
 31
0.0
 11
144.1787851927414
 21
82.697020597162748
 31
0.0
 11
142.76860846309066
 21
84.728039854846784
 31
0.0
 11
141.53446386899967
 21
86.341761322787988
 31
0.0
 11
140.23225471393567
 21
87.902093795589522
 31
0.0
 11
136.69549918927567
 21
91.531820704105883
 31
0.0
 11
132.76323444756054
 21
94.732911442854288
 31
0.0
 11
131.05029654183716
 21
95.899195583917589
 31
0.0
 11
129.27995358400409
 21
96.975905120993971
 31
0.0
  0
SPLINE
  5
20E
100
AcDbEntity
  8
1
  6
CONTINUOUS
 62
             3
100
AcDbSpline
210
0.0
220
0.0
230
1.0
 70
             0
 71
             3
 72
             9
 73
             5
 74
             5
 42
0.00000000001
 43
0.00000000001
 44
0.00000000001
 40
32.114657564699428
 40
32.114657564699428
 40
32.114657564699428
 40
32.114657564699428
 40
38.006897626036967
 40
42.591733930661292
 40
42.591733930661292
 40
42.591733930661292
 40
42.591733930661292
 10
122.12346745849671
 20
100.1519793000034
 30
0.0
 10
120.2486834589013
 20
100.7548822797785
 30
0.0
 10
116.8256811736628
 20
101.5471344242538
 30
0.0
 10
113.31436235156011
 20
101.7557245244533
 30
0.0
 10
111.7817329587277
 20
101.7270681614071
 30
0.0
 11
122.12346745849671
 21
100.1519793000034
 31
0.0
 11
119.27636831100703
 21
100.93491728447987
 31
0.0
 11
116.37060138915432
 21
101.46139283397892
 31
0.0
 11
114.08102948265636
 21
101.68112087697389
 31
0.0
 11
111.7817329587277
 21
101.7270681614071
 31
0.0
  0
SPLINE
  5
20D
100
AcDbEntity
  8
1
  6
CONTINUOUS
 62
             3
100
AcDbSpline
210
0.0
220
0.0
230
1.0
 70
             0
 71
             3
 72
            10
 73
             6
 74
             7
 42
0.00000000001
 43
0.00000000001
 44
0.00000000001
 40
22.691090606784648
 40
22.691090606784648
 40
22.691090606784648
 40
22.691090606784648
 40
25.662250144962879
 40
33.733809697011957
 40
44.236395734808291
 40
44.236395734808291
 40
44.236395734808291
 40
44.236395734808291
 10
124.6507080958086
 20
102.86211308215761
 30
0.0
 10
123.70669605948871
 20
103.159507340102
 30
0.0
 10
120.1625234841747
 20
104.13076376196091
 30
0.0
 10
112.9167884716053
 20
104.7039108667875
 30
0.0
 10
106.7325965767964
 20
103.57926480246201
 30
0.0
 10
103.49586282429139
 20
102.2229990466613
 30
0.0
 11
124.6507080958086
 21
102.86211308215761
 31
0.0
 11
123.22716552249059
 21
103.27953145427055
 31
0.0
 11
121.78723028050328
 21
103.63311429105852
 31
0.0
 11
117.79622416583378
 21
104.23370490698174
 31
0.0
 11
113.74611970465384
 21
104.33355294592735
 31
0.0
 11
108.51599393945405
 21
103.74248803275327
 31
0.0
 11
103.49586282429139
 21
102.2229990466613
 31
0.0
  0
SPLINE
  5
20C
100
AcDbEntity
  8
1
  6
CONTINUOUS
 62
             3
100
AcDbSpline
210
0.0
220
0.0
230
1.0
 70
             0
 71
             3
 72
            13
 73
             9
 74
            13
 42
0.00000000001
 43
0.00000000001
 44
0.00000000001
 40
1.026236167930018
 40
1.026236167930018
 40
1.026236167930018
 40
1.026236167930018
 40
5.9705030210750154
 40
10.03347099530251
 40
20.155048612932251
 40
29.464912018558248
 40
38.006897626036967
 40
42.591733930659338
 40
42.591733930659338
 40
42.591733930659338
 40
42.591733930659338
 10
132.12044634825389
 20
116.12489583962299
 30
0.0
 10
130.56638439707109
 20
116.6740731427184
 30
0.0
 10
127.68512396986991
 20
117.5373927856852
 30
0.0
 10
121.43055369381619
 20
118.8001734515765
 30
0.0
 10
113.53107797939541
 20
119.1763905494782
 30
0.0
 10
104.2861235831663
 20
117.41897666715499
 30
0.0
 10
97.413623688827997
 20
114.27968941440029
 30
0.0
 10
93.875527560203693
 20
111.6520351253105
 30
0.0
 10
92.719885285568594
 20
110.64492789368531
 30
0.0
 11
132.12044634825389
 21
116.12489583962299
 31
0.0
 11
129.7697459089085
 21
116.89148947119727
 31
0.0
 11
127.38397384747201
 21
117.54089635812537
 31
0.0
 11
125.4012840740854
 21
117.98378586774017
 31
0.0
 11
123.40077160656151
 21
118.34202597785237
 31
0.0
 11
118.35831620688522
 21
118.84917547641888
 31
0.0
 11
113.28840518827194
 21
118.77374219477504
 31
0.0
 11
108.66545679359514
 21
118.15732107001948
 31
0.0
 11
104.14976538011356
 21
116.99643549975779
 31
0.0
 11
100.16412807364109
 21
115.43752086076411
 31
0.0
 11
96.4059352555701
 21
113.39107655499387
 31
0.0
 11
94.510782955938865
 21
112.08768954834488
 31
0.0
 11
92.719885285568594
 21
110.64492789368531
 31
0.0
  0
SPLINE
  5
20B
100
AcDbEntity
  8
1
  6
CONTINUOUS
 62
             3
100
AcDbSpline
210
0.0
220
0.0
230
1.0
 70
             0
 71
             3
 72
            10
 73
             6
 74
             7
 42
0.00000000001
 43
0.00000000001
 44
0.00000000001
 40
0.723199047302473
 40
0.723199047302473
 40
0.723199047302473
 40
0.723199047302473
 40
3.291226745111091
 40
7.1029719336026034
 40
14.762497565156639
 40
14.762497565156639
 40
14.762497565156639
 40
14.762497565156639
 10
143.75157007995179
 20
93.780740689083473
 30
0.0
 10
143.18098343786781
 20
93.14350163660707
 30
0.0
 10
140.61431820693051
 20
92.706496412216765
 30
0.0
 10
137.6940474011376
 20
96.958817424196567
 30
0.0
 10
134.37409844491961
 20
98.868875421999974
 30
0.0
 10
132.04778883174421
 20
99.944045035168074
 30
0.0
 11
143.75157007995179
 21
93.780740689083473
 31
0.0
 11
142.63169427633426
 21
93.161202771334573
 31
0.0
 11
141.31553587659434
 21
93.175590221994426
 31
0.0
 11
139.72614189057106
 21
94.14571556285
 31
0.0
 11
138.3913024900061
 21
95.620638377501706
 31
0.0
 11
135.41675112737306
 21
98.118977474004708
 31
0.0
 11
132.04778883174421
 21
99.944045035168074
 31
0.0
  0
SPLINE
  5
20A
100
AcDbEntity
  8
1
  6
CONTINUOUS
 62
             3
100
AcDbSpline
210
0.0
220
0.0
230
1.0
 70
             0
 71
             3
 72
            12
 73
             8
 74
            11
 42
0.00000000001
 43
0.00000000001
 44
0.00000000001
 40
1.0262361679247141
 40
1.0262361679247141
 40
1.0262361679247141
 40
1.0262361679247141
 40
5.9705030210750154
 40
10.03347099530251
 40
20.155048612932251
 40
29.464912018558248
 40
30.89606751923375
 40
30.89606751923375
 40
30.89606751923375
 40
30.89606751923375
 10
99.045498419849793
 20
134.74777674332131
 30
0.0
 10
97.502013531930999
 20
134.1695391977386
 30
0.0
 10
94.7399088227953
 20
132.978841909983
 30
0.0
 10
89.136930252938996
 20
129.92582774460541
 30
0.0
 10
82.843753089270194
 20
125.1363416496098
 30
0.0
 10
78.404448443245698
 20
119.70035125545159
 30
0.0
 10
76.558870411578496
 20
116.6204570089867
 30
0.0
 10
76.321213226235599
 20
116.205340984435
 30
0.0
 11
99.045498419849793
 21
134.74777674332131
 31
0.0
 11
96.752000522808842
 21
133.82402041842244
 31
0.0
 11
94.506962392031994
 21
132.7879502348481
 31
0.0
 11
92.703450019459879
 21
131.85277486241912
 31
0.0
 11
90.940696256250092
 21
130.84129808092516
 31
0.0
 11
86.751961903715483
 21
127.9885692828237
 31
0.0
 11
82.916672319597723
 21
124.67190805161627
 31
0.0
 11
79.771516252371597
 21
121.22812812605756
 31
0.0
 11
77.05849879906205
 21
117.43620769610762
 31
0.0
 11
76.683832544880389
 21
116.82442563867455
 31
0.0
 11
76.321213226235599
 21
116.205340984435
 31
0.0
  0
SPLINE
  5
209
100
AcDbEntity
  8
1
  6
CONTINUOUS
 62
             3
100
AcDbSpline
210
0.0
220
0.0
230
1.0
 70
             0
 71
             3
 72
            13
 73
             9
 74
            13
 42
0.00000000001
 43
0.00000000001
 44
0.00000000001
 40
0.7231990472993235
 40
0.7231990472993235
 40
0.7231990472993235
 40
0.7231990472993235
 40
3.291226745111091
 40
7.1029719336026034
 40
16.791965295251849
 40
25.662250144962879
 40
33.733809697011957
 40
42.86089454820609
 40
42.86089454820609
 40
42.86089454820609
 40
42.86089454820609
 10
122.31800220142171
 20
125.10750307552929
 30
0.0
 10
122.2905168422776
 20
124.25258361665659
 30
0.0
 10
120.60523874837691
 20
122.2679975842362
 30
0.0
 10
114.91634060800411
 20
123.847889166347
 30
0.0
 10
107.6623749794794
 20
121.91905882151519
 30
0.0
 10
99.215496389593298
 20
119.02833927861531
 30
0.0
 10
92.053790929630196
 20
113.9242343580372
 30
0.0
 10
88.261999686773805
 20
109.5280424140895
 30
0.0
 10
86.718801584404005
 20
106.9046469242731
 30
0.0
 11
122.31800220142171
 21
125.10750307552929
 31
0.0
 11
121.85835886233829
 21
123.91306720538184
 31
0.0
 11
120.84087495893299
 21
123.0780783202715
 31
0.0
 11
118.99974397906813
 21
122.79959468563671
 31
0.0
 11
117.02913556330695
 21
123.07143288422556
 31
0.0
 11
112.13984577583061
 21
122.92703130412502
 31
0.0
 11
107.4326800119068
 21
121.735531236615
 31
0.0
 11
103.21082241001351
 21
120.32343405159935
 31
0.0
 11
99.159358073924977
 21
118.53645364682154
 31
0.0
 11
95.716017810919098
 21
116.43116347004603
 31
0.0
 11
92.549276712095093
 21
113.90429453985391
 31
0.0
 11
89.359603917259662
 21
110.62202404663893
 31
0.0
 11
86.718801584404005
 21
106.9046469242731
 31
0.0
  0
SPLINE
  5
208
100
AcDbEntity
  8
1
  6
CONTINUOUS
 62
             3
100
AcDbSpline
210
0.0
220
0.0
230
1.0
 70
             0
 71
             3
 72
            11
 73
             7
 74
             9
 42
0.00000000001
 43
0.00000000001
 44
0.00000000001
 40
0.7231990473044143
 40
0.7231990473044143
 40
0.7231990473044143
 40
0.7231990473044143
 40
3.291226745111091
 40
7.1029719336026034
 40
16.791965295251849
 40
22.130453229069161
 40
22.130453229069161
 40
22.130453229069161
 40
22.130453229069161
 10
85.762481918261102
 20
135.32796345887391
 30
0.0
 10
86.290958547062004
 20
134.65538990978399
 30
0.0
 10
86.275627940114404
 20
132.0518329301247
 30
0.0
 10
80.902144398584696
 20
129.60534685993139
 30
0.0
 10
77.266658501555796
 20
124.43441450938489
 30
0.0
 10
74.60730243433855
 20
120.1569202505337
 30
0.0
 10
73.764365884773639
 20
118.58963970330809
 30
0.0
 11
85.762481918261102
 21
135.32796345887391
 31
0.0
 11
86.17814327043277
 21
134.11751945464869
 31
0.0
 11
85.935425889840943
 21
132.82385481298198
 31
0.0
 11
84.704043563504982
 21
131.4270677905032
 31
0.0
 11
83.019735711155221
 21
130.36862525876438
 31
0.0
 11
79.367141985168359
 21
127.11523233519398
 31
0.0
 11
76.527125289210744
 21
123.17678249971119
 31
0.0
 11
75.0961876680351
 21
120.90833275476204
 31
0.0
 11
73.764365884773639
 21
118.58963970330809
 31
0.0
  0
SPLINE
  5
207
100
AcDbEntity
  8
1
  6
CONTINUOUS
 62
             3
100
AcDbSpline
210
0.0
220
0.0
230
1.0
 70
             0
 71
             3
 72
            12
 73
             8
 74
            11
 42
0.00000000001
 43
0.00000000001
 44
0.00000000001
 40
7.2007180964289947
 40
7.2007180964289947
 40
7.2007180964289947
 40
7.2007180964289947
 40
10.03347099530251
 40
20.155048612932251
 40
29.464912018558248
 40
38.006897626036967
 40
42.591733930672632
 40
42.591733930672632
 40
42.591733930672632
 40
42.591733930672632
 10
59.039045515763263
 20
122.2029998834783
 30
0.0
 10
58.680104770189267
 20
121.32954523070271
 30
0.0
 10
57.155919973346073
 20
117.2867045353461
 30
0.0
 10
55.504915661500462
 20
109.9764968573284
 30
0.0
 10
55.630260994544393
 20
100.5668223736056
 30
0.0
 10
57.528458337322689
 20
93.253599684467673
 30
0.0
 10
59.50180870831079
 20
89.312967807253273
 30
0.0
 10
60.29294054310796
 20
87.999999999993676
 30
0.0
 11
59.039045515763263
 21
122.2029998834783
 31
0.0
 11
58.520030243499811
 21
120.88493269364844
 31
0.0
 11
58.040458672964526
 21
119.55136177384429
 31
0.0
 11
56.665400723719451
 21
114.67357818825559
 31
0.0
 11
55.859307195001769
 21
109.66759165815016
 31
0.0
 11
55.663596933597596
 21
105.00783583230782
 31
0.0
 11
56.022704458693944
 21
100.35916225434474
 31
0.0
 11
56.865837026348835
 21
96.163373048036448
 31
0.0
 11
58.228587910599998
 21
92.106914299091599
 31
0.0
 11
59.183083796694035
 21
90.014222842770593
 31
0.0
 11
60.29294054310796
 21
87.999999999993676
 31
0.0
  0
SPLINE
  5
206
100
AcDbEntity
  8
1
  6
CONTINUOUS
 62
             3
100
AcDbSpline
210
0.0
220
0.0
230
1.0
 70
             0
 71
             3
 72
             9
 73
             5
 74
             5
 42
0.00000000001
 43
0.00000000001
 44
0.00000000001
 40
30.11005083392822
 40
30.11005083392822
 40
30.11005083392822
 40
30.11005083392822
 40
33.733809697011957
 40
44.236395734808291
 40
44.236395734808291
 40
44.236395734808291
 40
44.236395734808291
 10
70.857726970871141
 20
111.1819011283406
 30
0.0
 10
70.561655677725668
 20
110.00657973360489
 30
0.0
 10
69.65892224148476
 20
105.3532742546265
 30
0.0
 10
69.684542115404582
 20
100.5728872005286
 30
0.0
 10
70.458150229146469
 20
97.149813629698173
 30
0.0
 11
70.857726970871141
 21
111.1819011283406
 31
0.0
 11
70.461567388104697
 21
109.40639420276935
 31
0.0
 11
70.159598813891961
 21
107.61083991432125
 31
0.0
 11
69.833482314823513
 21
102.3575341664682
 31
0.0
 11
70.458150229146469
 21
97.149813629698173
 31
0.0
  0
SPLINE
  5
205
100
AcDbEntity
  8
1
  6
CONTINUOUS
 62
             3
100
AcDbSpline
210
0.0
220
0.0
230
1.0
 70
             0
 71
             3
 72
             8
 73
             4
 74
             3
 42
0.00000000001
 43
0.00000000001
 44
0.00000000001
 40
39.061615486287032
 40
39.061615486287032
 40
39.061615486287032
 40
39.061615486287032
 40
42.591733930668177
 40
42.591733930668177
 40
42.591733930668177
 40
42.591733930668177
 10
73.140890813093591
 20
108.682706624407
 30
0.0
 10
72.82217263114714
 20
107.5455617768767
 30
0.0
 10
72.56855871005817
 20
106.3896449103005
 30
0.0
 10
72.385373059131751
 20
105.22368528406309
 30
0.0
 11
73.140890813093591
 21
108.682706624407
 31
0.0
 11
72.712307236980166
 21
106.96400149625021
 31
0.0
 11
72.385373059131751
 21
105.22368528406309
 31
0.0
  0
SPLINE
  5
204
100
AcDbEntity
  8
1
  6
CONTINUOUS
 62
             3
100
AcDbSpline
210
0.0
220
0.0
230
1.0
 70
             0
 71
             3
 72
             8
 73
             4
 74
             3
 42
0.00000000001
 43
0.00000000001
 44
0.00000000001
 40
47.224818088026829
 40
47.224818088026829
 40
47.224818088026829
 40
47.224818088026829
 40
48.95767066260607
 40
48.95767066260607
 40
48.95767066260607
 40
48.95767066260607
 10
72.040086359201638
 20
100.6007517211449
 30
0.0
 10
72.045413050947872
 20
100.0228502898166
 30
0.0
 10
72.069393826608092
 20
99.445289553510264
 30
0.0
 10
72.112658418268637
 20
98.869102022578076
 30
0.0
 11
72.040086359201638
 21
100.6007517211449
 31
0.0
 11
72.062145676267278
 21
99.734284159212947
 31
0.0
 11
72.112658418268637
 21
98.869102022578076
 31
0.0
  0
SPLINE
  5
203
100
AcDbEntity
  8
1
  6
CONTINUOUS
 62
             3
100
AcDbSpline
210
0.0
220
0.0
230
1.0
 70
             0
 71
             3
 72
             8
 73
             4
 74
             3
 42
0.00000000001
 43
0.00000000001
 44
0.00000000001
 40
47.224818088064048
 40
47.224818088064048
 40
47.224818088064048
 40
47.224818088064048
 40
48.95767066260607
 40
48.95767066260607
 40
48.95767066260607
 40
48.95767066260607
 10
63.000000000013159
 20
84.236681420682871
 30
0.0
 10
63.375548362296257
 20
83.797407172008064
 30
0.0
 10
63.765167587363777
 20
83.370384524872009
 30
0.0
 10
64.168676393119284
 20
82.956809212073324
 30
0.0
 11
63.000000000013159
 21
84.236681420682871
 31
0.0
 11
63.573853030264075
 21
83.587108215424536
 31
0.0
 11
64.168676393119284
 21
82.956809212073324
 31
0.0
  0
SPLINE
  5
202
100
AcDbEntity
  8
1
  6
CONTINUOUS
 62
             3
100
AcDbSpline
210
0.0
220
0.0
230
1.0
 70
             0
 71
             3
 72
             8
 73
             4
 74
             3
 42
0.00000000001
 43
0.00000000001
 44
0.00000000001
 40
47.224818088041943
 40
47.224818088041943
 40
47.224818088041943
 40
47.224818088041943
 40
48.95767066260607
 40
48.95767066260607
 40
48.95767066260607
 40
48.95767066260607
 10
81.139182492844597
 20
54.145882676728782
 30
0.0
 10
81.636996467381195
 20
54.439446442761209
 30
0.0
 10
82.125188349415893
 20
54.74899477183618
 30
0.0
 10
82.602549092712692
 20
55.074556772761809
 30
0.0
 11
81.139182492844597
 21
54.145882676728782
 31
0.0
 11
81.878535754493569
 21
54.598220386660337
 31
0.0
 11
82.602549092712692
 21
55.074556772761809
 31
0.0
  0
SPLINE
  5
201
100
AcDbEntity
  8
1
  6
CONTINUOUS
 62
             3
100
AcDbSpline
210
0.0
220
0.0
230
1.0
 70
             0
 71
             3
 72
             8
 73
             4
 74
             3
 42
0.00000000001
 43
0.00000000001
 44
0.00000000001
 40
47.224818088072787
 40
47.224818088072787
 40
47.224818088072787
 40
47.224818088072787
 40
48.95767066260607
 40
48.95767066260607
 40
48.95767066260607
 40
48.95767066260607
 10
113.92267037447741
 20
66.784277862583281
 30
0.0
 10
113.7200109911835
 20
67.325505737255185
 30
0.0
 10
113.4999390274491
 20
67.860033390874889
 30
0.0
 10
113.2622158680188
 20
68.386675200026104
 30
0.0
 11
113.92267037447741
 21
66.784277862583281
 31
0.0
 11
113.60559203729923
 21
67.590946305874922
 31
0.0
 11
113.2622158680188
 21
68.386675200026104
 31
0.0
  0
SPLINE
  5
200
100
AcDbEntity
  8
1
  6
CONTINUOUS
 62
             3
100
AcDbSpline
210
0.0
220
0.0
230
1.0
 70
             0
 71
             3
 72
             8
 73
             4
 74
             3
 42
0.00000000001
 43
0.00000000001
 44
0.00000000001
 40
47.224818088041687
 40
47.224818088041687
 40
47.224818088041687
 40
47.224818088041687
 40
48.95767066260607
 40
48.95767066260607
 40
48.95767066260607
 40
48.95767066260607
 10
107.16907373806841
 20
101.2643451918314
 30
0.0
 10
106.6008768983388
 20
101.1587478940813
 30
0.0
 10
106.03625482538639
 20
101.0348390709367
 30
0.0
 10
105.4763336952397
 20
100.8921778508991
 30
0.0
 11
107.16907373806841
 21
101.2643451918314
 31
0.0
 11
106.31960032556044
 21
101.09216049222304
 31
0.0
 11
105.4763336952397
 21
100.8921778508991
 31
0.0
  0
SPLINE
  5
1FF
100
AcDbEntity
  8
1
  6
CONTINUOUS
 62
             3
100
AcDbSpline
210
0.0
220
0.0
230
1.0
 70
             0
 71
             3
 72
             8
 73
             4
 74
             3
 42
0.00000000001
 43
0.00000000001
 44
0.00000000001
 40
47.224818088072723
 40
47.224818088072723
 40
47.224818088072723
 40
47.224818088072723
 40
48.645665267167573
 40
48.645665267167573
 40
48.645665267167573
 40
48.645665267167573
 10
89.483815913120495
 20
107.32550133936719
 30
0.0
 10
89.182577738325605
 20
106.9597048757262
 30
0.0
 10
88.891094053207198
 20
106.586022431754
 30
0.0
 10
88.609996651163797
 20
106.20466688505989
 30
0.0
 11
89.483815913120495
 21
107.32550133936719
 31
0.0
 11
89.039353492360334
 21
106.77091876835846
 31
0.0
 11
88.609996651163797
 21
106.20466688505989
 31
0.0
  0
CIRCLE
  5
1FE
100
AcDbEntity
  8
1
  6
CONTINUOUS
 62
             3
100
AcDbCircle
 10
142.40000000000009
 20
27.60000000000019
 40
2.25
  0
CIRCLE
  5
1FD
100
AcDbEntity
  8
1
  6
CONTINUOUS
 62
             3
100
AcDbCircle
 10
37.60000000000034
 20
27.60000000000019
 40
2.25
  0
CIRCLE
  5
1FC
100
AcDbEntity
  8
1
  6
CONTINUOUS
 62
             3
100
AcDbCircle
 10
142.40000000000009
 20
132.40000000000089
 40
2.25
  0
CIRCLE
  5
1FB
100
AcDbEntity
  8
1
  6
CONTINUOUS
 62
             3
100
AcDbCircle
 10
37.59999999999988
 20
132.40000000000089
 40
2.25
  0
CIRCLE
  5
1FA
102
{ACAD_REACTORS
330
309
102
}
100
AcDbEntity
  8
___C_____1
  6
CONTINUOUS
 62
             2
100
AcDbCircle
 10
97.4661483481291
 20
95.96173276922607
 40
2.22493866216071
  0
CIRCLE
  5
1F9
102
{ACAD_REACTORS
330
309
102
}
100
AcDbEntity
  8
___C_____1
  6
CONTINUOUS
 62
             2
100
AcDbCircle
 10
97.4661483481291
 20
95.96220509063407
 40
1.26023689077151
  0
ARC
  5
1F8
100
AcDbEntity
  8
1
  6
CONTINUOUS
 62
             3
100
AcDbCircle
 10
266.19852161261849
 20
21.30000000000001
 40
0.19999999999999
100
AcDbArc
 50
0.0
 51
90.0
  0
ARC
  5
1F7
100
AcDbEntity
  8
1
  6
CONTINUOUS
 62
             3
100
AcDbCircle
 10
251.09852161261861
 20
21.30000000000001
 40
0.19999999999999
100
AcDbArc
 50
90.0
 51
180.0
  0
ARC
  5
1F6
100
AcDbEntity
  8
1
  6
CONTINUOUS
 62
             3
100
AcDbCircle
 10
266.19852161261849
 20
138.6999999999999
 40
0.20000000000002
100
AcDbArc
 50
-90.0
 51
0.0
  0
ARC
  5
1F5
100
AcDbEntity
  8
1
  6
CONTINUOUS
 62
             3
100
AcDbCircle
 10
251.09852161261861
 20
138.6999999999999
 40
0.2000000000001
100
AcDbArc
 50
180.0
 51
-90.0
  0
ARC
  5
1F4
100
AcDbEntity
  8
1
  6
CONTINUOUS
 62
             3
100
AcDbCircle
 10
266.19852161261849
 20
137.7000000000001
 40
0.2000000000001
100
AcDbArc
 50
-90.0
 51
0.0
  0
ARC
  5
1F3
100
AcDbEntity
  8
1
  6
CONTINUOUS
 62
             3
100
AcDbCircle
 10
251.09852161261861
 20
137.7000000000001
 40
0.2000000000001
100
AcDbArc
 50
180.0
 51
-90.0
  0
ARC
  5
1F2
100
AcDbEntity
  8
1
  6
CONTINUOUS
 62
             3
100
AcDbCircle
 10
266.19852161261849
 20
126.7000000000001
 40
0.19999999999999
100
AcDbArc
 50
0.0
 51
90.0
  0
ARC
  5
1F1
100
AcDbEntity
  8
1
  6
CONTINUOUS
 62
             3
100
AcDbCircle
 10
251.09852161261861
 20
126.7000000000001
 40
0.1999999999999
100
AcDbArc
 50
90.0
 51
180.0
  0
ARC
  5
1F0
100
AcDbEntity
  8
1
  6
CONTINUOUS
 62
             3
100
AcDbCircle
 10
251.09852161261861
 20
120.6313492975769
 40
0.2000000000001
100
AcDbArc
 50
90.0
 51
180.0
  0
ARC
  5
1EF
100
AcDbEntity
  8
1
  6
CONTINUOUS
 62
             3
100
AcDbCircle
 10
266.19852161261849
 20
120.6313492975772
 40
0.19999999999999
100
AcDbArc
 50
0.0
 51
90.0
  0
ARC
  5
1EE
100
AcDbEntity
  8
1
  6
CONTINUOUS
 62
             2
100
AcDbCircle
 10
263.84852161261858
 20
26.6695347341975
 40
0.14999999999992
100
AcDbArc
 50
0.0
 51
180.0
  0
ARC
  5
1ED
100
AcDbEntity
  8
1
  6
CONTINUOUS
 62
             2
100
AcDbCircle
 10
265.54852161261857
 20
26.6695347341975
 40
0.14999999999992
100
AcDbArc
 50
0.0
 51
180.0
  0
ARC
  5
1EC
100
AcDbEntity
  8
1
  6
CONTINUOUS
 62
             2
100
AcDbCircle
 10
253.44852161261849
 20
26.6695347341975
 40
0.14999999999981
100
AcDbArc
 50
0.0
 51
180.0
  0
ARC
  5
1EB
100
AcDbEntity
  8
1
  6
CONTINUOUS
 62
             2
100
AcDbCircle
 10
251.74852161261839
 20
26.6695347341975
 40
0.15000000000012
100
AcDbArc
 50
0.0
 51
180.0
  0
ARC
  5
1EA
100
AcDbEntity
  8
1
  6
CONTINUOUS
 62
             2
100
AcDbCircle
 10
263.84852161261858
 20
28.2925715853246
 40
0.14999999999986
100
AcDbArc
 50
180.0
 51
0.0
  0
ARC
  5
1E9
100
AcDbEntity
  8
1
  6
CONTINUOUS
 62
             2
100
AcDbCircle
 10
265.54852161261857
 20
28.2925715853246
 40
0.15000000000009
100
AcDbArc
 50
180.0
 51
0.0
  0
ARC
  5
1E8
100
AcDbEntity
  8
1
  6
CONTINUOUS
 62
             2
100
AcDbCircle
 10
253.44852161261849
 20
28.2925715853246
 40
0.14999999999989
100
AcDbArc
 50
180.0
 51
0.0
  0
ARC
  5
1E7
100
AcDbEntity
  8
1
  6
CONTINUOUS
 62
             2
100
AcDbCircle
 10
251.74852161261839
 20
28.2925715853246
 40
0.14999999999978
100
AcDbArc
 50
180.0
 51
0.0
  0
ARC
  5
1E6
100
AcDbEntity
  8
1
  6
CONTINUOUS
 62
             3
100
AcDbCircle
 10
266.19852161261849
 20
42.93962874822501
 40
0.19999999999999
100
AcDbArc
 50
-90.0
 51
0.0
  0
ARC
  5
1E5
100
AcDbEntity
  8
1
  6
CONTINUOUS
 62
             3
100
AcDbCircle
 10
251.09852161261861
 20
42.93962874822501
 40
0.2000000000001
100
AcDbArc
 50
180.0
 51
-90.0
  0
ARC
  5
1E4
100
AcDbEntity
  8
1
  6
CONTINUOUS
 62
             3
100
AcDbCircle
 10
266.19852161261849
 20
28.15459415460168
 40
0.19999999999999
100
AcDbArc
 50
0.0
 51
90.0
  0
ARC
  5
1E3
100
AcDbEntity
  8
1
  6
CONTINUOUS
 62
             3
100
AcDbCircle
 10
266.19852161261849
 20
22.30000000000001
 40
0.19999999999999
100
AcDbArc
 50
0.0
 51
90.0
  0
ARC
  5
1E2
100
AcDbEntity
  8
1
  6
CONTINUOUS
 62
             3
100
AcDbCircle
 10
266.19852161261849
 20
22.76845058322812
 40
0.19999999999999
100
AcDbArc
 50
0.0
 51
90.0
  0
ARC
  5
1E1
100
AcDbEntity
  8
1
  6
CONTINUOUS
 62
             3
100
AcDbCircle
 10
251.09852161261861
 20
28.15459415460168
 40
0.2000000000001
100
AcDbArc
 50
90.0
 51
180.0
  0
ARC
  5
1E0
100
AcDbEntity
  8
1
  6
CONTINUOUS
 62
             3
100
AcDbCircle
 10
251.09852161261861
 20
22.30000000000001
 40
0.19999999999988
100
AcDbArc
 50
90.0
 51
180.0
  0
ARC
  5
1DF
100
AcDbEntity
  8
1
  6
CONTINUOUS
 62
             3
100
AcDbCircle
 10
251.09852161261861
 20
22.76845058322812
 40
0.19999999999987
100
AcDbArc
 50
90.0
 51
180.0
  0
ARC
  5
1DE
100
AcDbEntity
  8
1
  6
CONTINUOUS
 62
             2
100
AcDbCircle
 10
113.75596322288681
 20
90.28449927349537
 40
3.45999999999998
100
AcDbArc
 50
-70.99999999999935
 51
-42.99999999999993
  0
ARC
  5
1DD
100
AcDbEntity
  8
1
  6
DASHED
 62
             2
100
AcDbCircle
 10
142.40000000000009
 20
132.40000000000089
 40
5.49999999999979
100
AcDbArc
 50
22.40266590046065
 51
67.59733409952631
  0
ARC
  5
1DC
100
AcDbEntity
  8
1
  6
DASHED
 62
             2
100
AcDbCircle
 10
90.0
 20
80.0
 40
58.50000000000004
100
AcDbArc
 50
133.05739802573484
 51
136.94260197426678
  0
ARC
  5
1DB
100
AcDbEntity
  8
1
  6
DASHED
 62
             2
100
AcDbCircle
 10
132.59381934313251
 20
120.8260523901662
 40
0.49999999999997
100
AcDbArc
 50
135.00000000000807
 51
-136.21398446452497
  0
ARC
  5
1DA
100
AcDbEntity
  8
1
  6
DASHED
 62
             2
100
AcDbCircle
 10
130.8260523901663
 20
122.5938193431324
 40
0.49999999999997
100
AcDbArc
 50
-133.78601553548361
 51
-44.99999999997582
  0
ARC
  5
1D9
100
AcDbEntity
  8
1
  6
DASHED
 62
             2
100
AcDbCircle
 10
142.40000000000009
 20
132.40000000000089
 40
5.50000000000084
100
AcDbArc
 50
-122.97530081943141
 51
-22.40266590047598
  0
ARC
  5
1D8
100
AcDbEntity
  8
1
  6
DASHED
 62
             2
100
AcDbCircle
 10
137.27347583639721
 20
129.04124278936399
 40
0.50000000000031
100
AcDbArc
 50
-44.99999999995163
 51
44.99999999998618
  0
ARC
  5
1D7
100
AcDbEntity
  8
1
  6
DASHED
 62
             2
100
AcDbCircle
 10
139.13433530830849
 20
127.36656835534239
 40
0.50000000000005
100
AcDbArc
 50
57.0246991805573
 51
134.9999999999597
  0
ARC
  5
1D6
100
AcDbEntity
  8
1
  6
DASH_CENTER
 62
             2
100
AcDbCircle
 10
52.73962874822516
 20
125.74565262601369
 40
0.49999999999987
100
AcDbArc
 50
-135.00000000001498
 51
-50.83677960118222
  0
ARC
  5
1D5
100
AcDbEntity
  8
1
  6
DASH_CENTER
 62
             2
100
AcDbCircle
 10
127.2603712517748
 20
34.25434737398598
 40
0.49999999999998
100
AcDbArc
 50
44.9999999999764
 51
129.16322039882294
  0
ARC
  5
1D4
100
AcDbEntity
  8
1
  6
DASHED
 62
             2
100
AcDbCircle
 10
90.0
 20
80.0
 40
58.50000000000026
100
AcDbArc
 50
-46.94260197426566
 51
-43.05739802573353
  0
ARC
  5
1D3
100
AcDbEntity
  8
1
  6
DASHED
 62
             2
100
AcDbCircle
 10
40.86566469169159
 20
32.63343164465709
 40
0.5000000000001
100
AcDbArc
 50
-122.97530081945409
 51
-44.99999999999942
  0
ARC
  5
1D2
100
AcDbEntity
  8
1
  6
DASHED
 62
             2
100
AcDbCircle
 10
42.72652416360276
 20
30.9587572106355
 40
0.50000000000009
100
AcDbArc
 50
134.99999999999136
 51
-135.0000000000052
  0
ARC
  5
1D1
100
AcDbEntity
  8
1
  6
DASHED
 62
             2
100
AcDbCircle
 10
37.60000000000034
 20
27.60000000000019
 40
5.49999999999926
100
AcDbArc
 50
57.02469918056362
 51
157.5973340995391
  0
ARC
  5
1D0
100
AcDbEntity
  8
1
  6
DASHED
 62
             2
100
AcDbCircle
 10
49.17394760983419
 20
37.40618065686709
 40
0.49999999999985
100
AcDbArc
 50
46.21398446453395
 51
135.00000000002763
  0
ARC
  5
1CF
100
AcDbEntity
  8
1
  6
DASHED
 62
             2
100
AcDbCircle
 10
47.40618065686769
 20
39.17394760983331
 40
0.50000000000004
100
AcDbArc
 50
-44.99999999998618
 51
43.78601553545133
  0
ARC
  5
1CE
100
AcDbEntity
  8
1
  6
DASHED
 62
             2
100
AcDbCircle
 10
37.60000000000034
 20
27.60000000000019
 40
5.50000000000076
100
AcDbArc
 50
-157.59733409952568
 51
-112.40266590047185
  0
ARC
  5
1CD
100
AcDbEntity
  8
1
  6
CONTINUOUS
 62
             3
100
AcDbCircle
 10
90.0
 20
80.0
 40
24.50000000000024
100
AcDbArc
 50
7.2801336754447
 51
15.560187232485
  0
ARC
  5
1CC
100
AcDbEntity
  8
1
  6
CONTINUOUS
 62
             3
100
AcDbCircle
 10
90.0
 20
80.0
 40
24.50000000000016
100
AcDbArc
 50
20.14599199838848
 51
30.88112238387843
  0
ARC
  5
1CB
100
AcDbEntity
  8
1
  6
CONTINUOUS
 62
             3
100
AcDbCircle
 10
90.0
 20
80.0
 40
25.99999999999909
100
AcDbArc
 50
-45.95035114300875
 51
-0.70636728517502
  0
ARC
  5
1CA
100
AcDbEntity
  8
1
  6
CONTINUOUS
 62
             3
100
AcDbCircle
 10
90.0
 20
80.0
 40
25.99999999999994
100
AcDbArc
 50
44.04964885698936
 51
89.29363271482769
  0
ARC
  5
1C9
100
AcDbEntity
  8
1
  6
CONTINUOUS
 62
             3
100
AcDbCircle
 10
113.5492849991775
 20
85.99342773607248
 40
0.19999999999967
100
AcDbArc
 50
14.27895763211187
 51
27.62692655846657
  0
ARC
  5
1C8
100
AcDbEntity
  8
1
  6
CONTINUOUS
 62
             3
100
AcDbCircle
 10
90.0
 20
80.0
 40
64.66025403784192
100
AcDbArc
 50
-53.69526520146501
 51
-27.2191633468436
  0
ARC
  5
1C7
100
AcDbEntity
  8
1
  6
CONTINUOUS
 62
             3
100
AcDbCircle
 10
90.0
 20
80.0
 40
64.66025403784506
100
AcDbArc
 50
126.30473479852593
 51
152.78083665315614
  0
ARC
  5
1C6
100
AcDbEntity
  8
1
  6
CONTINUOUS
 62
             3
100
AcDbCircle
 10
90.0
 20
80.0
 40
64.66025403784241
100
AcDbArc
 50
-143.69526520147468
 51
-117.21916334684207
  0
ARC
  5
1C5
100
AcDbEntity
  8
1
  6
CONTINUOUS
 62
             3
100
AcDbCircle
 10
147.0
 20
123.6762941622957
 40
0.5
100
AcDbArc
 50
0.0
 51
137.0000000000222
  0
ARC
  5
1C4
100
AcDbEntity
  8
1
  6
CONTINUOUS
 62
             3
100
AcDbCircle
 10
90.0
 20
80.0
 40
64.6602540378445
100
AcDbArc
 50
-62.7808366531561
 51
-59.7640254642833
  0
ARC
  5
1C3
100
AcDbEntity
  8
1
  6
CONTINUOUS
 62
             3
100
AcDbCircle
 10
90.0
 20
80.0
 40
64.66025403784488
100
AcDbArc
 50
39.49093436102891
 51
62.78083665315686
  0
ARC
  5
1C2
100
AcDbEntity
  8
1
  6
CONTINUOUS
 62
             3
100
AcDbCircle
 10
90.0
 20
80.0
 40
64.66025403784437
100
AcDbArc
 50
27.21916334684367
 51
30.23597453571678
  0
ARC
  5
1C1
100
AcDbEntity
  8
1
  6
CONTINUOUS
 62
             3
100
AcDbCircle
 10
90.0
 20
80.0
 40
64.66025403784455
100
AcDbArc
 50
117.21916334684339
 51
120.23597453571641
  0
ARC
  5
1C0
100
AcDbEntity
  8
1
  6
CONTINUOUS
 62
             3
100
AcDbCircle
 10
90.0
 20
80.0
 40
64.66025403784389
100
AcDbArc
 50
-152.7808366531562
 51
-149.76402546428341
  0
ARC
  5
1BF
100
AcDbEntity
  8
1
  6
CONTINUOUS
 62
             3
100
AcDbCircle
 10
90.0
 20
80.0
 40
62.20225515408225
100
AcDbArc
 50
37.98188515019658
 51
39.37829670692577
  0
ARC
  5
1BE
100
AcDbEntity
  8
1
  6
CONTINUOUS
 62
             3
100
AcDbCircle
 10
90.0
 20
80.0
 40
62.20225515408193
100
AcDbArc
 50
-52.01811484980285
 51
-50.6217032930738
  0
ARC
  5
1BD
100
AcDbEntity
  8
1
  6
CONTINUOUS
 62
             3
100
AcDbCircle
 10
90.0
 20
80.0
 40
62.20225515408173
100
AcDbArc
 50
-142.01811484980306
 51
-140.62170329307409
  0
ARC
  5
1BC
100
AcDbEntity
  8
1
  6
CONTINUOUS
 62
             3
100
AcDbCircle
 10
90.0
 20
80.0
 40
62.20225515408208
100
AcDbArc
 50
127.98188515019699
 51
129.37829670692605
  0
ARC
  5
1BB
100
AcDbEntity
  8
1
  6
CONTINUOUS
 62
             3
100
AcDbCircle
 10
140.67965929002821
 20
117.924953978175
 40
0.19999999999985
100
AcDbArc
 50
-42.99999999992511
 51
47.00000000005422
  0
ARC
  5
1BA
100
AcDbEntity
  8
1
  6
CONTINUOUS
 62
             3
100
AcDbCircle
 10
143.60507409650521
 20
115.19696053792519
 40
0.19999999999986
100
AcDbArc
 50
47.00000000007767
 51
137.00000000007208
  0
ARC
  5
1B9
100
AcDbEntity
  8
1
  6
CONTINUOUS
 62
             3
100
AcDbCircle
 10
143.3394528942722
 20
120.7772334144898
 40
0.20000000000031
100
AcDbArc
 50
-133.00000000006804
 51
-43.0000000000265
  0
ARC
  5
1B8
100
AcDbEntity
  8
1
  6
CONTINUOUS
 62
             3
100
AcDbCircle
 10
146.26486770074871
 20
118.0492399742398
 40
0.20000000000005
100
AcDbArc
 50
136.99999999997488
 51
-133.00000000000568
  0
ARC
  5
1B7
100
AcDbEntity
  8
1
  6
CONTINUOUS
 62
             3
100
AcDbCircle
 10
142.00619068289919
 20
121.47358955593251
 40
0.20000000000044
100
AcDbArc
 50
-13.00000000009693
 51
47.00000000000658
  0
ARC
  5
1B6
100
AcDbEntity
  8
1
  6
CONTINUOUS
 62
             3
100
AcDbCircle
 10
144.93833630787779
 20
114.5006043964826
 40
0.20000000000026
100
AcDbArc
 50
167.00000000012523
 51
-132.99999999998747
  0
ARC
  5
1B5
100
AcDbEntity
  8
1
  6
CONTINUOUS
 62
             3
100
AcDbCircle
 10
90.0
 20
80.0
 40
55.99999999999984
100
AcDbArc
 50
-141.47173118000188
 51
-62.45313493167255
  0
ARC
  5
1B4
100
AcDbEntity
  8
1
  6
CONTINUOUS
 62
             3
100
AcDbCircle
 10
90.0
 20
80.0
 40
55.99999999999984
100
AcDbArc
 50
-51.47173118000166
 51
27.54686506832731
  0
ARC
  5
1B3
100
AcDbEntity
  8
1
  6
CONTINUOUS
 62
             3
100
AcDbCircle
 10
90.0
 20
80.0
 40
56.00000000000035
100
AcDbArc
 50
38.52826881999834
 51
117.54686506832736
  0
ARC
  5
1B2
100
AcDbEntity
  8
1
  6
CONTINUOUS
 62
             3
100
AcDbCircle
 10
90.0
 20
80.0
 40
55.99999999999997
100
AcDbArc
 50
128.52826881999817
 51
-152.45313493167356
  0
ARC
  5
1B1
100
AcDbEntity
  8
1
  6
CONTINUOUS
 62
             3
100
AcDbCircle
 10
90.0
 20
80.0
 40
25.99999999999977
100
AcDbArc
 50
-135.95035114301018
 51
-90.70636728517211
  0
ARC
  5
1B0
100
AcDbEntity
  8
1
  6
CONTINUOUS
 62
             3
100
AcDbCircle
 10
90.0
 20
80.0
 40
26.00000000000082
100
AcDbArc
 50
134.04964885698769
 51
179.29363271482234
  0
ARC
  5
1AF
100
AcDbEntity
  8
1
  6
CONTINUOUS
 62
             3
100
AcDbCircle
 10
90.0
 20
80.0
 40
55.91272467535843
100
AcDbArc
 50
-62.48472600545895
 51
-62.30061263063128
  0
ARC
  5
1AE
100
AcDbEntity
  8
1
  6
CONTINUOUS
 62
             3
100
AcDbCircle
 10
90.0
 20
80.0
 40
55.9127246753586
100
AcDbArc
 50
-152.48472600545907
 51
-152.30061263063166
  0
ARC
  5
1AD
100
AcDbEntity
  8
1
  6
CONTINUOUS
 62
             3
100
AcDbCircle
 10
123.7091074846813
 20
36.6016334456865
 40
1.00000000000007
100
AcDbArc
 50
-133.00000000000344
 51
-52.16219839509346
  0
ARC
  5
1AC
100
AcDbEntity
  8
1
  6
CONTINUOUS
 62
             3
100
AcDbCircle
 10
90.0
 20
80.0
 40
55.95199857144727
100
AcDbArc
 50
-52.16219839509527
 51
-51.47905261177581
  0
ARC
  5
1AB
100
AcDbEntity
  8
1
  6
CONTINUOUS
 62
             3
100
AcDbCircle
 10
46.60163344568625
 20
46.290892515319
 40
1.00000000000022
100
AcDbArc
 50
136.99999999996317
 51
-142.16219839508813
  0
ARC
  5
1AA
100
AcDbEntity
  8
1
  6
CONTINUOUS
 62
             3
100
AcDbCircle
 10
90.0
 20
80.0
 40
55.95199857144715
100
AcDbArc
 50
-142.16219839509557
 51
-141.47905261177678
  0
ARC
  5
1A9
100
AcDbEntity
  8
1
  6
CONTINUOUS
 62
             3
100
AcDbCircle
 10
56.29089251531914
 20
123.39836655431441
 40
0.99999999999998
100
AcDbArc
 50
47.00000000000369
 51
127.83780160490961
  0
ARC
  5
1A8
100
AcDbEntity
  8
1
  6
CONTINUOUS
 62
             3
100
AcDbCircle
 10
90.0
 20
80.0
 40
55.9519985714479
100
AcDbArc
 50
127.83780160490386
 51
128.52094738822365
  0
ARC
  5
1A7
100
AcDbEntity
  8
1
  6
CONTINUOUS
 62
             3
100
AcDbCircle
 10
113.6395690765371
 20
55.56292214941362
 40
8.00000000000074
100
AcDbArc
 50
134.04964885698558
 51
-132.9999999999998
  0
ARC
  5
1A6
100
AcDbEntity
  8
1
  6
CONTINUOUS
 62
             3
100
AcDbCircle
 10
65.56292214941365
 20
56.36043092346318
 40
7.99999999999985
100
AcDbArc
 50
44.04964885698898
 51
137.0000000000004
  0
ARC
  5
1A5
100
AcDbEntity
  8
1
  6
CONTINUOUS
 62
             3
100
AcDbCircle
 10
66.36043092346338
 20
104.4370778505875
 40
7.99999999999948
100
AcDbArc
 50
-45.95035114301081
 51
46.99999999999771
  0
ARC
  5
1A4
100
AcDbEntity
  8
1
  6
CONTINUOUS
 62
             3
100
AcDbCircle
 10
133.39836655431381
 20
113.70910748468189
 40
1.0000000000005
100
AcDbArc
 50
-43.00000000001982
 51
37.83780160489955
  0
ARC
  5
1A3
100
AcDbEntity
  8
1
  6
CONTINUOUS
 62
             3
100
AcDbCircle
 10
90.0
 20
80.0
 40
55.95199857144804
100
AcDbArc
 50
37.83780160490489
 51
38.5209473882249
  0
ARC
  5
1A2
100
AcDbEntity
  8
1
  6
CONTINUOUS
 62
             3
100
AcDbCircle
 10
114.4370778505868
 20
103.6395690765378
 40
8.00000000000068
100
AcDbArc
 50
-135.95035114300677
 51
-43.00000000000276
  0
ARC
  5
1A1
100
AcDbEntity
  8
1
  6
CONTINUOUS
 62
             3
100
AcDbCircle
 10
137.91641884204091
 20
136.0
 40
1.50000000000059
100
AcDbArc
 50
-38.76201171573716
 51
90.0
  0
ARC
  5
1A0
100
AcDbEntity
  8
1
  6
CONTINUOUS
 62
             3
100
AcDbCircle
 10
128.5746030439719
 20
136.0
 40
1.5
100
AcDbArc
 50
90.0
 51
-124.56032178000298
  0
ARC
  5
19F
100
AcDbEntity
  8
1
  6
CONTINUOUS
 62
             3
100
AcDbCircle
 10
90.0
 20
80.0
 40
66.50000000000007
100
AcDbArc
 50
124.56032177999782
 51
145.43967822000135
  0
ARC
  5
19E
100
AcDbEntity
  8
1
  6
CONTINUOUS
 62
             3
100
AcDbCircle
 10
51.42539695602815
 20
136.0
 40
1.49999999999994
100
AcDbArc
 50
-55.43967822000038
 51
90.0
  0
ARC
  5
19D
100
AcDbEntity
  8
1
  6
CONTINUOUS
 62
             3
100
AcDbCircle
 10
42.08358115795855
 20
136.0
 40
1.5
100
AcDbArc
 50
90.0
 51
-141.23798828423836
  0
ARC
  5
19C
100
AcDbEntity
  8
1
  6
CONTINUOUS
 62
             3
100
AcDbCircle
 10
37.59999999999988
 20
132.40000000000089
 40
4.25000000000032
100
AcDbArc
 50
-128.76201171573379
 51
38.76201171573586
  0
ARC
  5
19B
100
AcDbEntity
  8
1
  6
CONTINUOUS
 62
             3
100
AcDbCircle
 10
33.99999999999997
 20
127.91641884204159
 40
1.50000000000028
100
AcDbArc
 50
51.23798828422378
 51
180.0
  0
ARC
  5
19A
100
AcDbEntity
  8
1
  6
CONTINUOUS
 62
             3
100
AcDbCircle
 10
34.00000000000048
 20
118.5746030439719
 40
1.50000000000051
100
AcDbArc
 50
179.99999999996581
 51
-34.56032177997451
  0
ARC
  5
199
100
AcDbEntity
  8
1
  6
CONTINUOUS
 62
             3
100
AcDbCircle
 10
90.0
 20
80.0
 40
66.49999999999959
100
AcDbArc
 50
-145.43967822000269
 51
-124.56032177999792
  0
ARC
  5
198
100
AcDbEntity
  8
1
  6
CONTINUOUS
 62
             3
100
AcDbCircle
 10
33.99999999999997
 20
41.42539695602909
 40
1.49999999999992
100
AcDbArc
 50
34.56032177999203
 51
180.0
  0
ARC
  5
197
100
AcDbEntity
  8
1
  6
CONTINUOUS
 62
             3
100
AcDbCircle
 10
33.99999999999997
 20
32.08358115795909
 40
1.5
100
AcDbArc
 50
180.0
 51
-51.23798828423562
  0
ARC
  5
196
100
AcDbEntity
  8
1
  6
CONTINUOUS
 62
             3
100
AcDbCircle
 10
37.60000000000034
 20
27.60000000000019
 40
4.24999999999921
100
AcDbArc
 50
-38.76201171574401
 51
128.76201171574616
  0
ARC
  5
195
100
AcDbEntity
  8
1
  6
CONTINUOUS
 62
             3
100
AcDbCircle
 10
42.08358115795855
 20
24.00000000000028
 40
1.50000000000055
100
AcDbArc
 50
141.23798828422673
 51
-90.0
  0
ARC
  5
194
100
AcDbEntity
  8
1
  6
CONTINUOUS
 62
             3
100
AcDbCircle
 10
51.42539695602889
 20
24.00000000000028
 40
1.5
100
AcDbArc
 50
-90.0
 51
55.43967822002193
  0
ARC
  5
193
100
AcDbEntity
  8
1
  6
CONTINUOUS
 62
             3
100
AcDbCircle
 10
90.0
 20
80.0
 40
66.49999999999913
100
AcDbArc
 50
-55.43967822000167
 51
-34.56032177999753
  0
ARC
  5
192
100
AcDbEntity
  8
1
  6
CONTINUOUS
 62
             3
100
AcDbCircle
 10
128.5746030439719
 20
24.0
 40
1.50000000000092
100
AcDbArc
 50
124.56032177997888
 51
-90.0
  0
ARC
  5
191
100
AcDbEntity
  8
1
  6
CONTINUOUS
 62
             3
100
AcDbCircle
 10
137.91641884204191
 20
24.0
 40
1.5
100
AcDbArc
 50
-90.0
 51
38.76201171579523
  0
ARC
  5
190
100
AcDbEntity
  8
1
  6
CONTINUOUS
 62
             3
100
AcDbCircle
 10
142.40000000000009
 20
27.60000000000019
 40
4.25000000000053
100
AcDbArc
 50
51.23798828426344
 51
-141.23798828426061
  0
ARC
  5
18F
100
AcDbEntity
  8
1
  6
CONTINUOUS
 62
             3
100
AcDbCircle
 10
146.0
 20
32.08358115795932
 40
1.49999999999994
100
AcDbArc
 50
-128.76201171577222
 51
0.0
  0
ARC
  5
18E
100
AcDbEntity
  8
1
  6
CONTINUOUS
 62
             3
100
AcDbCircle
 10
146.0
 20
41.42539695602909
 40
1.5
100
AcDbArc
 50
0.0
 51
145.43967822001702
  0
ARC
  5
18D
100
AcDbEntity
  8
1
  6
CONTINUOUS
 62
             3
100
AcDbCircle
 10
56.00258380247576
 20
80.4191561669262
 40
7.99999999999996
100
AcDbArc
 50
-43.00000000000326
 51
-0.70636728517445
  0
ARC
  5
18C
100
AcDbEntity
  8
1
  6
CONTINUOUS
 62
             3
100
AcDbCircle
 10
89.5808438330767
 20
46.00258380247442
 40
8.0000000000001
100
AcDbArc
 50
46.99999999999854
 51
89.29363271482836
  0
ARC
  5
18B
100
AcDbEntity
  8
1
  6
CONTINUOUS
 62
             3
100
AcDbCircle
 10
90.0
 20
80.0
 40
55.91272467535922
100
AcDbArc
 50
27.51527399454108
 51
27.6993873693683
  0
ARC
  5
18A
100
AcDbEntity
  8
1
  6
CONTINUOUS
 62
             3
100
AcDbCircle
 10
123.9974161975229
 20
79.58084383307431
 40
7.99999999999992
100
AcDbArc
 50
136.99999999999673
 51
179.29363271482052
  0
ARC
  5
189
100
AcDbEntity
  8
1
  6
CONTINUOUS
 62
             3
100
AcDbCircle
 10
90.4191561669236
 20
113.9974161975268
 40
8.00000000000069
100
AcDbArc
 50
-132.99999999999756
 51
-90.70636728517302
  0
ARC
  5
188
100
AcDbEntity
  8
1
  6
CONTINUOUS
 62
             3
100
AcDbCircle
 10
90.0
 20
80.0
 40
55.91272467535867
100
AcDbArc
 50
117.51527399454088
 51
117.69938736936814
  0
ARC
  5
187
100
AcDbEntity
  8
1
  6
CONTINUOUS
 62
             3
100
AcDbCircle
 10
90.0
 20
80.0
 40
79.99999999999983
100
AcDbArc
 50
132.50829782287494
 51
137.49170217712444
  0
ARC
  5
186
100
AcDbEntity
  8
1
  6
CONTINUOUS
 62
             3
100
AcDbCircle
 10
90.0
 20
80.0
 40
79.9999999999998
100
AcDbArc
 50
-137.49170217712461
 51
-132.50829782287536
  0
ARC
  5
185
100
AcDbEntity
  8
1
  6
CONTINUOUS
 62
             3
100
AcDbCircle
 10
90.0
 20
80.0
 40
80.00000000000011
100
AcDbArc
 50
-47.49170217712451
 51
-42.50829782287517
  0
ARC
  5
184
100
AcDbEntity
  8
1
  6
CONTINUOUS
 62
             3
100
AcDbCircle
 10
90.0
 20
80.0
 40
80.00000000000034
100
AcDbArc
 50
42.50829782287534
 51
47.49170217712483
  0
ARC
  5
183
100
AcDbEntity
  8
1
  6
CONTINUOUS
 62
             3
100
AcDbCircle
 10
139.89199576670561
 20
119.2063930809135
 40
0.19999999999999
100
AcDbArc
 50
-132.99999999988623
 51
-73.00000000017403
  0
ARC
  5
182
100
AcDbEntity
  8
1
  6
CONTINUOUS
 62
             3
100
AcDbCircle
 10
147.0525312240714
 20
116.76780087150181
 40
0.19999999999974
100
AcDbArc
 50
46.99999999989157
 51
107.00000000000898
  0
ARC
  5
181
100
AcDbEntity
  8
1
  6
CONTINUOUS
 62
             3
100
AcDbCircle
 10
145.99999999999909
 20
127.91641884204159
 40
1.5
100
AcDbArc
 50
-0.0000000000038
 51
128.76201171573902
  0
ARC
  5
180
100
AcDbEntity
  8
1
  6
CONTINUOUS
 62
             3
100
AcDbCircle
 10
142.40000000000009
 20
132.40000000000089
 40
4.24999999999943
100
AcDbArc
 50
141.23798828425984
 51
-51.23798828426263
  0
ARC
  5
17F
100
AcDbEntity
  8
1
  6
CONTINUOUS
 62
             3
100
AcDbCircle
 10
90.0
 20
80.0
 40
66.5000000000002
100
AcDbArc
 50
42.58566088523993
 51
55.43967822000221
  0
ARC
  5
17E
100
AcDbEntity
  8
1
  6
CONTINUOUS
 62
             2
100
AcDbCircle
 10
115.4449638178003
 20
89.69103279824437
 40
1.0000000000003
100
AcDbArc
 50
136.9999999999921
 51
-142.45292196874613
  0
ARC
  5
17D
100
AcDbEntity
  8
1
  6
CONTINUOUS
 62
             3
100
AcDbCircle
 10
112.4821422506482
 20
89.22189133646637
 40
0.1999999999999
100
AcDbArc
 50
-71.00000000002855
 51
22.3028202962625
  0
ARC
  5
17C
100
AcDbEntity
  8
1
  6
CONTINUOUS
 62
             3
100
AcDbCircle
 10
111.9917888184641
 20
88.31271463266357
 40
0.49999999999989
100
AcDbArc
 50
108.99999999998211
 51
-161.00000000001455
  0
ARC
  5
17B
100
AcDbEntity
  8
1
  6
CONTINUOUS
 62
             3
100
AcDbCircle
 10
90.0
 20
80.0
 40
23.0
100
AcDbArc
 50
90.0
 51
179.37720752393378
  0
ARC
  5
17A
100
AcDbEntity
  8
1
  6
CONTINUOUS
 62
             3
100
AcDbCircle
 10
90.0
 20
80.0
 40
22.99999999999995
100
AcDbArc
 50
-89.37720752393379
 51
90.0
  0
ARC
  5
179
100
AcDbEntity
  8
1
  6
CONTINUOUS
 62
             3
100
AcDbCircle
 10
90.0
 20
80.0
 40
22.99999999999998
100
AcDbArc
 50
-179.37720752393378
 51
-90.62279247606622
  0
ARC
  5
178
100
AcDbEntity
  8
1
  6
CONTINUOUS
 62
             3
100
AcDbCircle
 10
90.0
 20
80.0
 40
55.4899999999999
100
AcDbArc
 50
134.37968109393884
 51
160.61827227212135
  0
ARC
  5
177
100
AcDbEntity
  8
1
  6
CONTINUOUS
 62
             3
100
AcDbCircle
 10
90.0
 20
80.0
 40
55.48999999999975
100
AcDbArc
 50
174.37968109393887
 51
-159.38172772787934
  0
ARC
  5
176
100
AcDbEntity
  8
1
  6
CONTINUOUS
 62
             3
100
AcDbCircle
 10
90.0
 20
80.0
 40
55.49
100
AcDbArc
 50
-143.03683253741733
 51
-119.38172772787944
  0
ARC
  5
175
100
AcDbEntity
  8
1
  6
CONTINUOUS
 62
             3
100
AcDbCircle
 10
90.0
 20
80.0
 40
55.48999999999997
100
AcDbArc
 50
-105.620318906061
 51
-79.38172772787988
  0
ARC
  5
174
100
AcDbEntity
  8
1
  6
CONTINUOUS
 62
             3
100
AcDbCircle
 10
90.0
 20
80.0
 40
55.48999999999989
100
AcDbArc
 50
-65.62031890606056
 51
-61.45306271049618
  0
ARC
  5
173
100
AcDbEntity
  8
1
  6
CONTINUOUS
 62
             3
100
AcDbCircle
 10
90.0
 20
80.0
 40
55.49000000000001
100
AcDbArc
 50
-53.03683253741697
 51
-39.38172772787948
  0
ARC
  5
172
100
AcDbEntity
  8
1
  6
CONTINUOUS
 62
             3
100
AcDbCircle
 10
90.0
 20
80.0
 40
55.48999999999992
100
AcDbArc
 50
-25.62031890606096
 51
0.61827227212094
  0
ARC
  5
171
100
AcDbEntity
  8
1
  6
CONTINUOUS
 62
             3
100
AcDbCircle
 10
90.0
 20
80.0
 40
55.49000000000014
100
AcDbArc
 50
14.3796810939396
 51
28.54693728950419
  0
ARC
  5
170
100
AcDbEntity
  8
1
  6
CONTINUOUS
 62
             3
100
AcDbCircle
 10
90.0
 20
80.0
 40
55.49
100
AcDbArc
 50
36.96316746258304
 51
40.61827227212094
  0
ARC
  5
16F
100
AcDbEntity
  8
1
  6
CONTINUOUS
 62
             3
100
AcDbCircle
 10
90.0
 20
80.0
 40
55.48999999999985
100
AcDbArc
 50
54.37968109393891
 51
80.61827227211944
  0
ARC
  5
16E
100
AcDbEntity
  8
1
  6
CONTINUOUS
 62
             3
100
AcDbCircle
 10
90.0
 20
80.0
 40
55.48999999999984
100
AcDbArc
 50
94.37968109393881
 51
118.54693728950359
  0
ARC
  5
16D
100
AcDbEntity
  8
1
  6
CONTINUOUS
 62
             3
100
AcDbCircle
 10
114.0882624503888
 20
64.31543395177272
 40
0.49999999999978
100
AcDbArc
 50
-19.9999999999848
 51
70.0000000000091
  0
ARC
  5
16C
100
AcDbEntity
  8
1
  6
CONTINUOUS
 62
             3
100
AcDbCircle
 10
118.5345243136224
 20
83.46856197801031
 40
0.49999999999998
100
AcDbArc
 50
19.99999999997853
 51
109.99999999996338
  0
ARC
  5
16B
100
AcDbEntity
  8
1
  6
CONTINUOUS
 62
             3
100
AcDbCircle
 10
109.629165124599
 20
100.99871130596421
 40
0.49999999999997
100
AcDbArc
 50
60.0000000000241
 51
149.99999999999866
  0
ARC
  5
16A
100
AcDbEntity
  8
1
  6
CONTINUOUS
 62
             3
100
AcDbCircle
 10
91.53910141990539
 20
108.70333023917701
 40
0.49999999999979
100
AcDbArc
 50
100.00000000000766
 51
-169.99999999998545
  0
ARC
  5
169
100
AcDbEntity
  8
1
  6
CONTINUOUS
 62
             3
100
AcDbCircle
 10
72.72887505563128
 20
102.9773419514964
 40
0.50000000000008
100
AcDbArc
 50
139.99999999998866
 51
-130.00000000001154
  0
ARC
  5
168
100
AcDbEntity
  8
1
  6
CONTINUOUS
 62
             3
100
AcDbCircle
 10
62.00000000000014
 20
86.49999999999997
 40
0.49999999999966
100
AcDbArc
 50
180.0
 51
-90.0
  0
ARC
  5
167
100
AcDbEntity
  8
1
  6
CONTINUOUS
 62
             3
100
AcDbCircle
 10
78.73660063074659
 20
53.5540960704937
 40
0.50000000000006
100
AcDbArc
 50
-99.99999999996749
 51
-9.99999999999513
  0
ARC
  5
166
100
AcDbEntity
  8
1
  6
CONTINUOUS
 62
             3
100
AcDbCircle
 10
113.5492849991775
 20
85.99342773607248
 40
0.19999999999967
100
AcDbArc
 50
14.27895763211187
 51
27.62692655846657
  0
ARC
  5
165
100
AcDbEntity
  8
1
  6
CONTINUOUS
 62
             2
100
AcDbCircle
 10
115.4449638178003
 20
89.69103279824437
 40
1.0000000000003
100
AcDbArc
 50
136.9999999999921
 51
-142.45292196874613
  0
ARC
  5
164
100
AcDbEntity
  8
1
  6
CONTINUOUS
 62
             3
100
AcDbCircle
 10
112.4821422506482
 20
89.22189133646637
 40
0.1999999999999
100
AcDbArc
 50
-71.00000000002855
 51
22.3028202962625
  0
ARC
  5
163
100
AcDbEntity
  8
1
  6
CONTINUOUS
 62
             3
100
AcDbCircle
 10
111.9917888184641
 20
88.31271463266357
 40
0.49999999999989
100
AcDbArc
 50
108.99999999998211
 51
-161.00000000001455
  0
ARC
  5
162
100
AcDbEntity
  8
1
  6
CONTINUOUS
 62
             2
100
AcDbCircle
 10
89.55816247311722
 20
30.41092833661823
 40
28.34308409697963
100
AcDbArc
 50
-115.51968032525893
 51
-61.51076697188825
  0
LINE
  5
161
100
AcDbEntity
  8
1
  6
CONTINUOUS
 62
             2
100
AcDbLine
 10
251.09852161261861
 20
28.74650805135678
 11
266.19852161261849
 21
28.74650805135678
  0
LINE
  5
160
100
AcDbEntity
  8
1
  6
CONTINUOUS
 62
             2
100
AcDbLine
 10
266.19852161261849
 20
30.27186856705038
 11
251.09852161261861
 21
30.27186856705038
  0
LINE
  5
15F
100
AcDbEntity
  8
1
  6
CONTINUOUS
 62
             3
100
AcDbLine
 10
270.89852161261848
 20
20.49999999999989
 11
266.39852161261848
 21
20.49999999999989
  0
LINE
  5
15E
100
AcDbEntity
  8
1
  6
CONTINUOUS
 62
             3
100
AcDbLine
 10
245.89852161261851
 20
20.99999999999989
 11
245.89852161261851
 21
120.4500000000001
  0
LINE
  5
15D
100
AcDbEntity
  8
1
  6
CONTINUOUS
 62
             3
100
AcDbLine
 10
246.39852161261851
 20
139.5
 11
250.89852161261851
 21
139.5
  0
LINE
  5
15C
100
AcDbEntity
  8
1
  6
CONTINUOUS
 62
             3
100
AcDbLine
 10
271.39852161261848
 20
139.00000000000011
 11
271.39852161261848
 21
122.55
  0
LINE
  5
15B
100
AcDbEntity
  8
1
  6
CONTINUOUS
 62
             3
100
AcDbLine
 10
250.89852161261851
 20
139.5
 11
250.89852161261851
 21
122.05
  0
LINE
  5
15A
100
AcDbEntity
  8
1
  6
CONTINUOUS
 62
             3
100
AcDbLine
 10
266.39852161261848
 20
20.49999999999989
 11
266.39852161261848
 21
120.9500000000001
  0
LINE
  5
159
100
AcDbEntity
  8
1
  6
CONTINUOUS
 62
             2
100
AcDbLine
 10
266.39852161261848
 20
26.57062480224221
 11
270.89852161261848
 21
26.57062480224221
  0
LINE
  5
158
100
AcDbEntity
  8
1
  6
CONTINUOUS
 62
             2
100
AcDbLine
 10
250.89852161261851
 20
20.6360367561673
 11
246.39852161261851
 21
20.6360367561673
  0
LINE
  5
157
100
AcDbEntity
  8
1
  6
DASH_CENTER
 62
             1
100
AcDbLine
 10
240.89852161261851
 20
80.0
 11
276.39852161261848
 21
80.0
  0
LINE
  5
156
100
AcDbEntity
  8
1
  6
CONTINUOUS
 62
             2
100
AcDbLine
 10
266.39852161261848
 20
139.3639632438327
 11
270.89852161261848
 21
139.3639632438327
  0
LINE
  5
155
100
AcDbEntity
  8
1
  6
CONTINUOUS
 62
             2
100
AcDbLine
 10
250.89852161261851
 20
133.42937519775791
 11
246.39852161261851
 21
133.42937519775791
  0
LINE
  5
154
100
AcDbEntity
  8
1
  6
CONTINUOUS
 62
             3
100
AcDbLine
 10
250.89852161261851
 20
20.49999999999989
 11
246.39852161261851
 21
20.49999999999989
  0
LINE
  5
153
100
AcDbEntity
  8
1
  6
CONTINUOUS
 62
             3
100
AcDbLine
 10
266.39852161261848
 20
139.5
 11
270.89852161261848
 21
139.5
  0
LINE
  5
152
100
AcDbEntity
  8
1
  6
CONTINUOUS
 62
             2
100
AcDbLine
 10
270.89852161261848
 20
133.42937519775791
 11
266.39852161261848
 21
133.42937519775791
  0
LINE
  5
151
100
AcDbEntity
  8
1
  6
CONTINUOUS
 62
             2
100
AcDbLine
 10
246.39852161261851
 20
139.3639632438327
 11
250.89852161261851
 21
139.3639632438327
  0
LINE
  5
150
100
AcDbEntity
  8
1
  6
CONTINUOUS
 62
             2
100
AcDbLine
 10
246.39852161261851
 20
26.57062480224221
 11
250.89852161261851
 21
26.57062480224221
  0
LINE
  5
14F
100
AcDbEntity
  8
1
  6
CONTINUOUS
 62
             2
100
AcDbLine
 10
270.89852161261848
 20
20.6360367561673
 11
266.39852161261848
 21
20.6360367561673
  0
LINE
  5
14E
100
AcDbEntity
  8
1
  6
CONTINUOUS
 62
             3
100
AcDbLine
 10
251.09852161261861
 20
21.5
 11
266.19852161261849
 21
21.5
  0
LINE
  5
14D
100
AcDbEntity
  8
1
  6
CONTINUOUS
 62
             3
100
AcDbLine
 10
266.19852161261849
 20
138.49999999999989
 11
251.09852161261861
 21
138.49999999999989
  0
LINE
  5
14C
100
AcDbEntity
  8
1
  6
CONTINUOUS
 62
             3
100
AcDbLine
 10
270.89852161261848
 20
120.9500000000001
 11
266.39852161261848
 21
120.9500000000001
  0
LINE
  5
14B
100
AcDbEntity
  8
1
  6
CONTINUOUS
 62
             3
100
AcDbLine
 10
266.39852161261848
 20
122.05
 11
270.89852161261848
 21
122.05
  0
LINE
  5
14A
100
AcDbEntity
  8
1
  6
CONTINUOUS
 62
             3
100
AcDbLine
 10
250.89852161261851
 20
120.9500000000001
 11
246.39852161261851
 21
120.9500000000001
  0
LINE
  5
149
100
AcDbEntity
  8
1
  6
CONTINUOUS
 62
             3
100
AcDbLine
 10
246.39852161261851
 20
122.05
 11
250.89852161261851
 21
122.05
  0
LINE
  5
148
100
AcDbEntity
  8
1
  6
CONTINUOUS
 62
             3
100
AcDbLine
 10
271.39852161261848
 20
120.4500000000001
 11
271.39852161261848
 21
21.0
  0
LINE
  5
147
100
AcDbEntity
  8
1
  6
CONTINUOUS
 62
             3
100
AcDbLine
 10
266.39852161261848
 20
120.9500000000001
 11
266.39852161261848
 21
122.05
  0
LINE
  5
146
100
AcDbEntity
  8
1
  6
CONTINUOUS
 62
             3
100
AcDbLine
 10
266.39852161261848
 20
122.05
 11
266.39852161261848
 21
139.5
  0
LINE
  5
145
100
AcDbEntity
  8
1
  6
CONTINUOUS
 62
             3
100
AcDbLine
 10
269.39852161261848
 20
120.9500000000001
 11
269.39852161261848
 21
122.05
  0
LINE
  5
144
100
AcDbEntity
  8
1
  6
CONTINUOUS
 62
             3
100
AcDbLine
 10
271.39852161261848
 20
120.4500000000001
 11
271.39852161261848
 21
122.55
  0
LINE
  5
143
100
AcDbEntity
  8
1
  6
CONTINUOUS
 62
             3
100
AcDbLine
 10
245.89852161261851
 20
122.55
 11
245.89852161261851
 21
139.0
  0
LINE
  5
142
100
AcDbEntity
  8
1
  6
CONTINUOUS
 62
             3
100
AcDbLine
 10
250.89852161261851
 20
120.9500000000001
 11
250.89852161261851
 21
20.49999999999989
  0
LINE
  5
141
100
AcDbEntity
  8
1
  6
CONTINUOUS
 62
             3
100
AcDbLine
 10
250.89852161261851
 20
122.05
 11
250.89852161261851
 21
120.9500000000001
  0
LINE
  5
140
100
AcDbEntity
  8
1
  6
CONTINUOUS
 62
             3
100
AcDbLine
 10
245.89852161261851
 20
120.4500000000001
 11
245.89852161261851
 21
122.55
  0
LINE
  5
13F
100
AcDbEntity
  8
1
  6
CONTINUOUS
 62
             3
100
AcDbLine
 10
266.19852161261849
 20
126.90000000000001
 11
251.09852161261861
 21
126.90000000000001
  0
LINE
  5
13E
100
AcDbEntity
  8
1
  6
CONTINUOUS
 62
             3
100
AcDbLine
 10
266.19852161261849
 20
137.5
 11
251.09852161261861
 21
137.5
  0
LINE
  5
13D
100
AcDbEntity
  8
1
  6
CONTINUOUS
 62
             3
100
AcDbLine
 10
251.09852161261861
 20
120.83134929757701
 11
266.19852161261849
 21
120.83134929757701
  0
LINE
  5
13C
100
AcDbEntity
  8
1
  6
CONTINUOUS
 62
             3
100
AcDbLine
 10
266.19852161261849
 20
22.49999999999989
 11
251.09852161261861
 21
22.49999999999989
  0
LINE
  5
13B
100
AcDbEntity
  8
1
  6
CONTINUOUS
 62
             3
100
AcDbLine
 10
251.09852161261861
 20
28.35459415460178
 11
254.0985216126183
 21
28.35459415460178
  0
LINE
  5
13A
100
AcDbEntity
  8
1
  6
CONTINUOUS
 62
             3
100
AcDbLine
 10
262.9985216126185
 20
27.67195814342659
 11
262.9985216126185
 21
28.1545941546018
  0
LINE
  5
139
100
AcDbEntity
  8
1
  6
CONTINUOUS
 62
             3
100
AcDbLine
 10
254.2985216126186
 20
27.67195814342659
 11
254.2985216126186
 21
28.1545941546018
  0
LINE
  5
138
100
AcDbEntity
  8
1
  6
CONTINUOUS
 62
             3
100
AcDbLine
 10
262.79852161261857
 20
27.47195814342649
 11
254.49852161261839
 21
27.47195814342649
  0
LINE
  5
137
100
AcDbEntity
  8
1
  6
CONTINUOUS
 62
             3
100
AcDbLine
 10
263.19852161261872
 20
28.35459415460178
 11
266.19852161261849
 21
28.35459415460178
  0
LINE
  5
136
100
AcDbEntity
  8
1
  6
CONTINUOUS
 62
             3
100
AcDbLine
 10
254.49852161261839
 20
23.85233405953028
 11
262.79852161261857
 21
23.85233405953028
  0
LINE
  5
135
100
AcDbEntity
  8
1
  6
CONTINUOUS
 62
             3
100
AcDbLine
 10
262.9985216126185
 20
23.65233405953018
 11
262.9985216126185
 21
23.16845058322798
  0
LINE
  5
134
100
AcDbEntity
  8
1
  6
CONTINUOUS
 62
             3
100
AcDbLine
 10
254.2985216126186
 20
23.65233405953018
 11
254.2985216126186
 21
23.16845058322798
  0
LINE
  5
133
100
AcDbEntity
  8
1
  6
CONTINUOUS
 62
             3
100
AcDbLine
 10
254.0985216126183
 20
22.96845058322799
 11
251.09852161261861
 21
22.96845058322799
  0
LINE
  5
132
100
AcDbEntity
  8
1
  6
CONTINUOUS
 62
             3
100
AcDbLine
 10
263.19852161261872
 20
22.96845058322799
 11
266.19852161261849
 21
22.96845058322799
  0
LINE
  5
131
100
AcDbEntity
  8
1
  6
CONTINUOUS
 62
             3
100
AcDbLine
 10
262.9985216126185
 20
23.65233405953018
 11
262.9985216126185
 21
27.67195814342659
  0
LINE
  5
130
100
AcDbEntity
  8
1
  6
CONTINUOUS
 62
             3
100
AcDbLine
 10
254.2985216126186
 20
23.65233405953018
 11
254.2985216126186
 21
27.67195814342659
  0
LINE
  5
12F
100
AcDbEntity
  8
1
  6
CONTINUOUS
 62
             2
100
AcDbLine
 10
265.69852161261849
 20
22.96845058322799
 11
265.69852161261849
 21
26.6695347341975
  0
LINE
  5
12E
100
AcDbEntity
  8
1
  6
CONTINUOUS
 62
             2
100
AcDbLine
 10
265.39852161261848
 20
26.6695347341975
 11
265.39852161261848
 21
22.96845058322799
  0
LINE
  5
12D
100
AcDbEntity
  8
1
  6
CONTINUOUS
 62
             2
100
AcDbLine
 10
263.9985216126185
 20
26.6695347341975
 11
263.9985216126185
 21
22.96845058322799
  0
LINE
  5
12C
100
AcDbEntity
  8
1
  6
CONTINUOUS
 62
             2
100
AcDbLine
 10
266.39852161261848
 20
26.33492821270249
 11
265.69852161261849
 21
26.33492821270249
  0
LINE
  5
12B
100
AcDbEntity
  8
1
  6
CONTINUOUS
 62
             2
100
AcDbLine
 10
265.39852161261848
 20
26.33492821270249
 11
263.9985216126185
 21
26.33492821270249
  0
LINE
  5
12A
100
AcDbEntity
  8
1
  6
CONTINUOUS
 62
             2
100
AcDbLine
 10
263.69852161261872
 20
26.33492821270249
 11
262.9985216126185
 21
26.33492821270249
  0
LINE
  5
129
100
AcDbEntity
  8
1
  6
CONTINUOUS
 62
             2
100
AcDbLine
 10
251.59852161261861
 20
26.6695347341975
 11
251.59852161261861
 21
22.96845058322799
  0
LINE
  5
128
100
AcDbEntity
  8
1
  6
CONTINUOUS
 62
             2
100
AcDbLine
 10
251.89852161261851
 20
22.96845058322799
 11
251.89852161261851
 21
26.6695347341975
  0
LINE
  5
127
100
AcDbEntity
  8
1
  6
CONTINUOUS
 62
             2
100
AcDbLine
 10
253.2985216126186
 20
22.96845058322799
 11
253.2985216126186
 21
26.6695347341975
  0
LINE
  5
126
100
AcDbEntity
  8
1
  6
CONTINUOUS
 62
             2
100
AcDbLine
 10
253.5985216126183
 20
26.6695347341975
 11
253.5985216126183
 21
22.96845058322799
  0
LINE
  5
125
100
AcDbEntity
  8
1
  6
CONTINUOUS
 62
             2
100
AcDbLine
 10
253.2985216126186
 20
26.33492821270249
 11
251.89852161261851
 21
26.33492821270249
  0
LINE
  5
124
100
AcDbEntity
  8
1
  6
CONTINUOUS
 62
             2
100
AcDbLine
 10
254.2985216126186
 20
26.33492821270249
 11
253.5985216126183
 21
26.33492821270249
  0
LINE
  5
123
100
AcDbEntity
  8
1
  6
CONTINUOUS
 62
             2
100
AcDbLine
 10
251.59852161261861
 20
26.33492821270249
 11
250.89852161261851
 21
26.33492821270249
  0
LINE
  5
122
100
AcDbEntity
  8
1
  6
CONTINUOUS
 62
             2
100
AcDbLine
 10
266.39852161261848
 20
27.60957873304579
 11
262.9985216126185
 21
27.60957873304579
  0
LINE
  5
121
100
AcDbEntity
  8
1
  6
CONTINUOUS
 62
             2
100
AcDbLine
 10
254.2985216126186
 20
27.60957873304579
 11
250.89852161261851
 21
27.60957873304579
  0
LINE
  5
120
100
AcDbEntity
  8
1
  6
CONTINUOUS
 62
             2
100
AcDbLine
 10
263.69852161261872
 20
28.2925715853246
 11
263.69852161261872
 21
28.35459415460178
  0
LINE
  5
11F
100
AcDbEntity
  8
1
  6
CONTINUOUS
 62
             2
100
AcDbLine
 10
263.9985216126185
 20
28.2925715853246
 11
263.9985216126185
 21
28.35459415460178
  0
LINE
  5
11E
100
AcDbEntity
  8
1
  6
CONTINUOUS
 62
             2
100
AcDbLine
 10
265.39852161261848
 20
28.2925715853246
 11
265.39852161261848
 21
28.35459415460178
  0
LINE
  5
11D
100
AcDbEntity
  8
1
  6
CONTINUOUS
 62
             2
100
AcDbLine
 10
265.69852161261849
 20
28.2925715853246
 11
265.69852161261849
 21
28.35459415460178
  0
LINE
  5
11C
100
AcDbEntity
  8
1
  6
CONTINUOUS
 62
             2
100
AcDbLine
 10
263.69852161261872
 20
22.96845058322799
 11
263.69852161261872
 21
26.6695347341975
  0
LINE
  5
11B
100
AcDbEntity
  8
1
  6
CONTINUOUS
 62
             2
100
AcDbLine
 10
253.5985216126183
 20
28.35459415460178
 11
253.5985216126183
 21
28.2925715853246
  0
LINE
  5
11A
100
AcDbEntity
  8
1
  6
CONTINUOUS
 62
             2
100
AcDbLine
 10
253.2985216126186
 20
28.35459415460178
 11
253.2985216126186
 21
28.2925715853246
  0
LINE
  5
119
100
AcDbEntity
  8
1
  6
CONTINUOUS
 62
             2
100
AcDbLine
 10
251.89852161261851
 20
28.35459415460178
 11
251.89852161261851
 21
28.2925715853246
  0
LINE
  5
118
100
AcDbEntity
  8
1
  6
CONTINUOUS
 62
             2
100
AcDbLine
 10
251.59852161261861
 20
28.35459415460178
 11
251.59852161261861
 21
28.2925715853246
  0
LINE
  5
117
100
AcDbEntity
  8
1
  6
CONTINUOUS
 62
             3
100
AcDbLine
 10
266.19852161261849
 20
42.73962874822502
 11
251.09852161261861
 21
42.73962874822502
  0
LINE
  5
116
100
AcDbEntity
  8
1
  6
CONTINUOUS
 62
             3
100
AcDbLine
 10
140.9939618532899
 20
118.0420603346512
 11
138.873036118594
 21
120.01985557883251
  0
LINE
  5
115
100
AcDbEntity
  8
1
  6
CONTINUOUS
 62
             3
100
AcDbLine
 10
147.1572987451587
 20
116.80683632366051
 11
144.9067041569524
 21
114.3933691083169
  0
LINE
  5
114
100
AcDbEntity
  8
1
  6
CONTINUOUS
 62
             3
100
AcDbLine
 10
144.1753504553333
 20
115.0753674683795
 11
146.42594504353951
 21
117.4888346837227
  0
LINE
  5
113
100
AcDbEntity
  8
1
  6
CONTINUOUS
 62
             3
100
AcDbLine
 10
142.76917653544351
 20
120.8988264840353
 11
140.51858194723721
 21
118.48535926869179
  0
LINE
  5
112
100
AcDbEntity
  8
1
  6
CONTINUOUS
 62
             3
100
AcDbLine
 10
139.78722824561811
 20
119.1673576287542
 11
142.03782283382429
 21
121.58082484409761
  0
LINE
  5
111
100
AcDbEntity
  8
1
  6
CONTINUOUS
 62
             3
100
AcDbLine
 10
145.82089628397651
 20
113.5408711582391
 11
148.07149087218249
 21
115.9543383735823
  0
LINE
  5
110
100
AcDbEntity
  8
1
  6
CONTINUOUS
 62
             3
100
AcDbLine
 10
138.873036118594
 20
120.01985557883251
 11
141.12363070680021
 21
122.43332279417569
  0
LINE
  5
10F
100
AcDbEntity
  8
1
  6
CONTINUOUS
 62
             3
100
AcDbLine
 10
141.55616242815319
 20
114.0994811644096
 11
142.99329451844011
 21
115.49398873164159
  0
LINE
  5
10E
100
AcDbEntity
  8
1
  6
CONTINUOUS
 62
             3
100
AcDbLine
 10
139.7524558448836
 20
115.0978010337251
 11
140.8494863973124
 21
114.07480349363119
  0
LINE
  5
10D
100
AcDbEntity
  8
1
  6
CONTINUOUS
 62
             3
100
AcDbLine
 10
141.01863952406831
 20
117.3353843038104
 11
139.727778174105
 21
115.8044770645659
  0
LINE
  5
10C
100
AcDbEntity
  8
1
  6
CONTINUOUS
 62
             3
100
AcDbLine
 10
141.12363070680021
 20
122.43332279417569
 11
148.07149087218249
 21
115.9543383735823
  0
LINE
  5
10B
100
AcDbEntity
  8
1
  6
CONTINUOUS
 62
             3
100
AcDbLine
 10
145.82089628397651
 20
113.5408711582391
 11
143.69997054928081
 21
115.5186664024201
  0
LINE
  5
10A
100
AcDbEntity
  8
1
  6
CONTINUOUS
 62
             2
100
AcDbLine
 10
115.56972040290231
 20
88.59314334054027
 11
140.0376837885149
 21
114.83182167330111
  0
LINE
  5
109
100
AcDbEntity
  8
1
  6
CONTINUOUS
 62
             2
100
AcDbLine
 10
114.8529937753154
 20
89.26150173340118
 11
140.8895533890759
 21
117.1822935798907
  0
LINE
  5
108
100
AcDbEntity
  8
1
  6
CONTINUOUS
 62
             2
100
AcDbLine
 10
116.2864470304892
 20
87.92478494767907
 11
140.75441041610159
 21
114.1634632804396
  0
LINE
  5
107
100
AcDbEntity
  8
1
  6
CONTINUOUS
 62
             2
100
AcDbLine
 10
111.9015198784807
 20
87.02306393339197
 11
114.5633722459404
 21
87.93961320600887
  0
LINE
  5
106
100
AcDbEntity
  8
1
  6
CONTINUOUS
 62
             2
100
AcDbLine
 10
111.5824630871128
 20
87.94967213747937
 11
114.2443154545722
 21
88.86622141009597
  0
LINE
  5
105
100
AcDbEntity
  8
1
  6
CONTINUOUS
 62
             2
100
AcDbLine
 10
143.61754682932161
 20
120.1077083863627
 11
144.68002202244659
 21
121.2470735386474
  0
LINE
  5
104
100
AcDbEntity
  8
1
  6
CONTINUOUS
 62
             2
100
AcDbLine
 10
144.3908305029434
 20
119.5000000000009
 11
145.37809834831049
 21
120.558715145786
  0
LINE
  5
103
100
AcDbEntity
  8
1
  6
CONTINUOUS
 62
             2
100
AcDbLine
 10
145.0510000844952
 20
118.7709916006404
 11
146.07617467417461
 21
119.87035675292501
  0
LINE
  5
102
100
AcDbEntity
  8
1
  6
CONTINUOUS
 62
             2
100
AcDbLine
 10
190.99566835718269
 20
120.54985143251049
 11
190.99566835718269
 21
121.54970286502081
  0
LINE
  5
101
100
AcDbEntity
  8
1
  6
CONTINUOUS
 62
             2
100
AcDbLine
 10
190.99566835718321
 20
121.5500000000004
 11
190.99566835718321
 21
122.5500000000002
  0
LINE
  5
100
100
AcDbEntity
  8
1
  6
CONTINUOUS
 62
             2
100
AcDbLine
 10
190.99566835718321
 20
121.39977714876591
 11
198.15728638004569
 21
121.39977714876591
  0
LINE
  5
FF
100
AcDbEntity
  8
1
  6
CONTINUOUS
 62
             2
100
AcDbLine
 10
198.15728638004569
 20
121.0497771487659
 11
190.99566835718269
 21
121.0497771487657
  0
LINE
  5
FE
100
AcDbEntity
  8
1
  6
CONTINUOUS
 62
             2
100
AcDbLine
 10
190.99566835718321
 20
120.699777148766
 11
198.15728638004569
 21
120.699777148766
  0
LINE
  5
FD
100
AcDbEntity
  8
1
  6
CONTINUOUS
 62
             2
100
AcDbLine
 10
198.15728638004569
 20
121.7000000000005
 11
190.99566835718321
 21
121.7000000000005
  0
LINE
  5
FC
100
AcDbEntity
  8
1
  6
CONTINUOUS
 62
             2
100
AcDbLine
 10
190.99566835718321
 20
122.0500000000003
 11
198.15728638004569
 21
122.0500000000003
  0
LINE
  5
FB
100
AcDbEntity
  8
1
  6
CONTINUOUS
 62
             2
100
AcDbLine
 10
198.15728638004569
 20
122.4000000000005
 11
190.99566835718321
 21
122.4000000000005
  0
LINE
  5
FA
100
AcDbEntity
  8
1
  6
CONTINUOUS
 62
             2
100
AcDbLine
 10
172.739026696851
 20
122.55000000000069
 11
190.99566835718321
 21
122.5500000000002
  0
LINE
  5
F9
100
AcDbEntity
  8
1
  6
CONTINUOUS
 62
             2
100
AcDbLine
 10
172.5375891548224
 20
121.5500000000004
 11
190.99566835718321
 21
121.5500000000004
  0
LINE
  5
F8
100
AcDbEntity
  8
1
  6
CONTINUOUS
 62
             2
100
AcDbLine
 10
173.05037768466269
 20
120.54985143251049
 11
190.99566835718269
 21
120.54985143251049
  0
LINE
  5
F7
100
AcDbEntity
  8
1
  6
CONTINUOUS
 62
             2
100
AcDbLine
 10
149.5025062814471
 20
120.54985143251049
 11
172.33332686737461
 21
120.54985143251049
  0
LINE
  5
F6
100
AcDbEntity
  8
1
  6
CONTINUOUS
 62
             2
100
AcDbLine
 10
171.82321578453821
 20
121.5000000000009
 11
147.5429053051032
 21
121.5000000000009
  0
LINE
  5
F5
100
AcDbEntity
  8
1
  6
CONTINUOUS
 62
             2
100
AcDbLine
 10
149.5
 20
122.55000000000069
 11
172.02197587956289
 21
122.55000000000069
  0
LINE
  5
F4
100
AcDbEntity
  8
1
  6
CONTINUOUS
 62
             2
100
AcDbLine
 10
114.8824290373086
 20
87.01300500192177
 11
112.1810502108747
 21
86.08284567802437
  0
LINE
  5
F3
100
AcDbEntity
  8
1
  6
DASHED
 62
             2
100
AcDbLine
 10
131.17960578075969
 20
122.2402659525393
 11
137.627029226991
 21
128.6876893987708
  0
LINE
  5
F2
100
AcDbEntity
  8
1
  6
DASHED
 62
             2
100
AcDbLine
 10
145.2876238823192
 20
129.6537974739181
 11
146.34857152438471
 21
133.61330797827711
  0
LINE
  5
F1
100
AcDbEntity
  8
1
  6
DASHED
 62
             2
100
AcDbLine
 10
145.14620252608211
 20
129.51237611768079
 11
141.1866920217231
 21
128.45142847561539
  0
LINE
  5
F0
100
AcDbEntity
  8
1
  6
DASHED
 62
             2
100
AcDbLine
 10
146.2968077153642
 20
133.80649314353479
 11
143.21317279836421
 21
136.89012806053449
  0
LINE
  5
EF
100
AcDbEntity
  8
1
  6
DASHED
 62
             2
100
AcDbLine
 10
137.06134380204139
 20
132.43535533905941
 11
140.9935068564651
 21
128.5031922846357
  0
LINE
  5
EE
100
AcDbEntity
  8
1
  6
DASHED
 62
             2
100
AcDbLine
 10
138.78078191771559
 20
127.7201217459358
 11
132.2402659525392
 21
121.1796057807594
  0
LINE
  5
ED
100
AcDbEntity
  8
1
  6
DASHED
 62
             2
100
AcDbLine
 10
147.5
 20
134.41990098767241
 11
147.5
 21
130.38009901232789
  0
LINE
  5
EC
100
AcDbEntity
  8
1
  6
DASHED
 62
             2
100
AcDbLine
 10
144.41990098767249
 20
137.5
 11
143.62304473782979
 21
137.5
  0
LINE
  5
EB
100
AcDbEntity
  8
1
  6
DASHED
 62
             2
100
AcDbLine
 10
135.82390693496521
 20
131.19791847198309
 11
137.6270292269906
 21
129.39479617995721
  0
LINE
  5
EA
100
AcDbEntity
  8
1
  6
DASHED
 62
             2
100
AcDbLine
 10
136.7785010895669
 20
132.43535533905941
 11
135.82390693496521
 21
131.48076118445749
  0
LINE
  5
E9
100
AcDbEntity
  8
1
  6
DASHED
 62
             2
100
AcDbLine
 10
44.60790076457985
 20
117.6139246423684
 11
32.55857864376279
 21
129.66324676318541
  0
LINE
  5
E8
100
AcDbEntity
  8
1
  6
DASHED
 62
             2
100
AcDbLine
 10
46.53690956825446
 20
119.92755652581189
 11
37.75100001221378
 21
128.71346608185351
  0
LINE
  5
E7
100
AcDbEntity
  8
1
  6
DASHED
 62
             2
100
AcDbLine
 10
41.28653391814666
 20
132.24899998778611
 11
50.07244347418734
 21
123.4630904317446
  0
LINE
  5
E6
100
AcDbEntity
  8
1
  6
DASHED
 62
             2
100
AcDbLine
 10
52.38607535763188
 20
125.3920992354206
 11
40.33675323681499
 21
137.44142135623741
  0
LINE
  5
E5
100
AcDbEntity
  8
1
  6
DASHED
 62
             2
100
AcDbLine
 10
41.54857152438487
 20
133.61330797827691
 11
41.23477010912617
 21
132.44218515304391
  0
LINE
  5
E4
100
AcDbEntity
  8
1
  6
DASHED
 62
             2
100
AcDbLine
 10
33.10987193946537
 20
131.5868272016356
 11
36.19350685646529
 21
128.5031922846357
  0
LINE
  5
E3
100
AcDbEntity
  8
1
  6
DASHED
 62
             2
100
AcDbLine
 10
36.38669202172284
 20
128.45142847561499
 11
37.55781484695629
 21
128.76522989087391
  0
LINE
  5
E2
100
AcDbEntity
  8
1
  6
DASHED
 62
             2
100
AcDbLine
 10
32.82702922699079
 20
131.58682720163571
 11
32.55857864376279
 21
131.31837661840771
  0
LINE
  5
E1
100
AcDbEntity
  8
1
  6
DASHED
 62
             2
100
AcDbLine
 10
32.49999999999997
 20
129.8046681194225
 11
32.49999999999997
 21
131.17695526217031
  0
LINE
  5
E0
100
AcDbEntity
  8
1
  6
DASHED
 62
             2
100
AcDbLine
 10
38.68162338159297
 20
137.44142135623761
 11
38.41317279836446
 21
137.1729707730093
  0
LINE
  5
DF
100
AcDbEntity
  8
1
  6
DASHED
 62
             2
100
AcDbLine
 10
40.19533188057764
 20
137.5
 11
38.82304473783009
 21
137.50000000000031
  0
LINE
  5
DE
100
AcDbEntity
  8
1
  6
DASHED
 62
             2
100
AcDbLine
 10
41.49680771536438
 20
133.80649314353479
 11
38.41317279836446
 21
136.89012806053461
  0
LINE
  5
DD
100
AcDbEntity
  8
1
  6
DASHED
 62
             2
100
AcDbLine
 10
143.21317279836421
 20
137.17297077300921
 11
143.48162338159281
 21
137.44142135623741
  0
LINE
  5
DC
100
AcDbEntity
  8
1
  6
DASHED
 62
             2
100
AcDbLine
 10
138.50319228463559
 20
26.19350685646469
 11
141.58682720163549
 21
23.10987193946488
  0
LINE
  5
DB
100
AcDbEntity
  8
1
  6
DASHED
 62
             2
100
AcDbLine
 10
139.80466811942279
 20
22.49999999999949
 11
141.17695526217
 21
22.4999999999992
  0
LINE
  5
DA
100
AcDbEntity
  8
1
  6
DASHED
 62
             2
100
AcDbLine
 10
141.31837661840751
 20
22.55857864376191
 11
141.58682720163549
 21
22.82702922699008
  0
LINE
  5
D9
100
AcDbEntity
  8
1
  6
DASHED
 62
             2
100
AcDbLine
 10
147.5
 20
30.19533188057699
 11
147.5
 21
28.82304473782921
  0
LINE
  5
D8
100
AcDbEntity
  8
1
  6
DASHED
 62
             2
100
AcDbLine
 10
147.17297077300921
 20
28.41317279836369
 11
147.4414213562373
 21
28.68162338159192
  0
LINE
  5
D7
100
AcDbEntity
  8
1
  6
DASHED
 62
             2
100
AcDbLine
 10
143.61330797827719
 20
31.54857152438439
 11
142.44218515304379
 21
31.23477010912558
  0
LINE
  5
D6
100
AcDbEntity
  8
1
  6
DASHED
 62
             2
100
AcDbLine
 10
146.89012806053461
 20
28.41317279836392
 11
143.80649314353471
 21
31.49680771536379
  0
LINE
  5
D5
100
AcDbEntity
  8
1
  6
DASHED
 62
             2
100
AcDbLine
 10
138.4514284756151
 20
26.38669202172258
 11
138.7652298908738
 21
27.55781484695558
  0
LINE
  5
D4
100
AcDbEntity
  8
1
  6
DASHED
 62
             2
100
AcDbLine
 10
127.6139246423682
 20
34.60790076457909
 11
139.6632467631853
 21
22.55857864376219
  0
LINE
  5
D3
100
AcDbEntity
  8
1
  6
DASHED
 62
             2
100
AcDbLine
 10
138.71346608185331
 20
27.75100001221341
 11
129.92755652581309
 21
36.53690956825489
  0
LINE
  5
D2
100
AcDbEntity
  8
1
  6
DASHED
 62
             2
100
AcDbLine
 10
133.463090431746
 20
40.07244347418759
 11
142.24899998778619
 21
31.28653391814601
  0
LINE
  5
D1
100
AcDbEntity
  8
1
  6
DASHED
 62
             2
100
AcDbLine
 10
135.3920992354202
 20
42.38607535763129
 11
147.4414213562373
 21
30.3367532368141
  0
LINE
  5
D0
100
AcDbEntity
  8
1
  6
DASHED
 62
             2
100
AcDbLine
 10
36.78682720163576
 20
22.82702922699042
 11
36.51837661840725
 21
22.55857864376219
  0
LINE
  5
CF
100
AcDbEntity
  8
1
  6
DASHED
 62
             2
100
AcDbLine
 10
43.22149891043316
 20
27.56464466094019
 11
44.17609306503525
 21
28.519238815542
  0
LINE
  5
CE
100
AcDbEntity
  8
1
  6
DASHED
 62
             2
100
AcDbLine
 10
44.17609306503525
 20
28.8020815280164
 11
42.37297077300948
 21
30.60520382004228
  0
LINE
  5
CD
100
AcDbEntity
  8
1
  6
DASHED
 62
             2
100
AcDbLine
 10
35.58009901232774
 20
22.49999999999949
 11
36.37695526217019
 21
22.49999999999949
  0
LINE
  5
CC
100
AcDbEntity
  8
1
  6
DASHED
 62
             2
100
AcDbLine
 10
32.49999999999997
 20
25.58009901232708
 11
32.49999999999997
 21
29.6199009876716
  0
LINE
  5
CB
100
AcDbEntity
  8
1
  6
DASHED
 62
             2
100
AcDbLine
 10
41.21921808228487
 20
32.27987825406382
 11
47.75973404746108
 21
38.82039421924009
  0
LINE
  5
CA
100
AcDbEntity
  8
1
  6
DASHED
 62
             2
100
AcDbLine
 10
42.93865619795858
 20
27.56464466094019
 11
39.00649314353498
 21
31.49680771536379
  0
LINE
  5
C9
100
AcDbEntity
  8
1
  6
DASHED
 62
             2
100
AcDbLine
 10
33.70319228463589
 20
26.19350685646469
 11
36.78682720163576
 21
23.109871939465
  0
LINE
  5
C8
100
AcDbEntity
  8
1
  6
DASHED
 62
             2
100
AcDbLine
 10
34.85379747391804
 20
30.48762388231882
 11
38.81330797827698
 21
31.5485715243841
  0
LINE
  5
C7
100
AcDbEntity
  8
1
  6
DASHED
 62
             2
100
AcDbLine
 10
34.71237611768058
 20
30.34620252608158
 11
33.65142847561535
 21
26.3866920217223
  0
LINE
  5
C6
100
AcDbEntity
  8
1
  6
DASHED
 62
             2
100
AcDbLine
 10
48.82039421924074
 20
37.7597340474602
 11
42.37297077300948
 21
31.31231060122889
  0
LINE
  5
C5
100
AcDbEntity
  8
1
  6
CONTINUOUS
 62
             3
100
AcDbLine
 10
111.5873988431008
 20
87.95137165455847
 11
111.5190295306643
 21
88.14993055543508
  0
LINE
  5
C4
100
AcDbEntity
  8
1
  6
CONTINUOUS
 62
             2
100
AcDbLine
 10
114.713610116181
 20
90.37303115830717
 11
118.2311865867742
 21
94.14517010049008
  0
LINE
  5
C3
100
AcDbEntity
  8
1
  6
CONTINUOUS
 62
             2
100
AcDbLine
 10
137.59616068153861
 20
110.77665508665029
 11
137.0415057675059
 21
108.4516510729252
  0
LINE
  5
C2
100
AcDbEntity
  8
1
  6
CONTINUOUS
 62
             2
100
AcDbLine
 10
138.2297597848283
 20
114.3300141435719
 11
137.89333708208369
 21
114.64373338920019
  0
LINE
  5
C1
100
AcDbEntity
  8
1
  6
CONTINUOUS
 62
             3
100
AcDbLine
 10
149.5
 20
120.4500000000008
 11
149.5
 21
27.29563585432419
  0
LINE
  5
C0
100
AcDbEntity
  8
1
  6
CONTINUOUS
 62
             3
100
AcDbLine
 10
147.36567685080971
 20
119.52296909960189
 11
145.91399745240599
 21
117.96623353576641
  0
LINE
  5
BF
100
AcDbEntity
  8
1
  6
CONTINUOUS
 62
             3
100
AcDbLine
 10
114.3875705911026
 20
83.19053556830102
 11
144.07789647126219
 21
115.0295120326206
  0
LINE
  5
BE
100
AcDbEntity
  8
1
  6
CONTINUOUS
 62
             3
100
AcDbLine
 10
117.0813481136165
 20
93.53379013942477
 11
109.421696860753
 21
92.32062056265907
  0
LINE
  5
BD
100
AcDbEntity
  8
1
  6
CONTINUOUS
 62
             2
100
AcDbLine
 10
137.89333708208369
 20
114.64373338920019
 11
137.286187161827
 21
113.9926448124244
  0
LINE
  5
BC
100
AcDbEntity
  8
1
  6
CONTINUOUS
 62
             3
100
AcDbLine
 10
140.52621040791271
 20
112.18853929297519
 11
137.0415057675059
 21
108.4516510729252
  0
LINE
  5
BB
100
AcDbEntity
  8
1
  6
CONTINUOUS
 62
             3
100
AcDbLine
 10
143.74147376851741
 20
115.34323127824911
 11
145.60642570764639
 21
113.6041354600893
  0
LINE
  5
BA
100
AcDbEntity
  8
1
  6
CONTINUOUS
 62
             3
100
AcDbLine
 10
143.20305322225931
 20
120.6309626741659
 11
141.33810128313061
 21
122.3700584923255
  0
LINE
  5
B9
100
AcDbEntity
  8
1
  6
CONTINUOUS
 62
             3
100
AcDbLine
 10
147.5
 20
123.6762941622957
 11
147.5
 21
122.2500000000009
  0
LINE
  5
B8
100
AcDbEntity
  8
1
  6
CONTINUOUS
 62
             3
100
AcDbLine
 10
37.29563585432467
 20
139.50000000000031
 11
142.70436414567601
 21
139.50000000000031
  0
LINE
  5
B7
100
AcDbEntity
  8
1
  6
CONTINUOUS
 62
             3
100
AcDbLine
 10
147.6999999999999
 20
122.05000000000069
 11
149.0
 21
122.05000000000069
  0
LINE
  5
B6
100
AcDbEntity
  8
1
  6
CONTINUOUS
 62
             3
100
AcDbLine
 10
149.0
 20
120.9500000000008
 11
147.6999999999999
 21
120.9500000000008
  0
LINE
  5
B5
100
AcDbEntity
  8
1
  6
CONTINUOUS
 62
             3
100
AcDbLine
 10
147.5
 20
120.7500000000009
 11
147.5
 21
119.8639682796332
  0
LINE
  5
B4
100
AcDbEntity
  8
1
  6
CONTINUOUS
 62
             3
100
AcDbLine
 10
137.89333708208369
 20
114.64373338920019
 11
141.02882025853441
 21
118.0061274384349
  0
LINE
  5
B3
100
AcDbEntity
  8
1
  6
CONTINUOUS
 62
             2
100
AcDbLine
 10
140.52621040791271
 20
112.18853929297519
 11
139.66321304000169
 21
112.9932973578492
  0
LINE
  5
B2
100
AcDbEntity
  8
1
  6
CONTINUOUS
 62
             3
100
AcDbLine
 10
138.95110702291211
 20
119.8103205366583
 11
140.8160589620407
 21
118.0712247184991
  0
LINE
  5
B1
100
AcDbEntity
  8
1
  6
CONTINUOUS
 62
             3
100
AcDbLine
 10
141.05543087079431
 20
122.3601874240142
 11
138.94123595460039
 21
120.0929909489944
  0
LINE
  5
B0
100
AcDbEntity
  8
1
  6
CONTINUOUS
 62
             3
100
AcDbLine
 10
147.99341996786509
 20
116.1638734157566
 11
146.12846802873631
 21
117.9029692339161
  0
LINE
  5
AF
100
AcDbEntity
  8
1
  6
CONTINUOUS
 62
             3
100
AcDbLine
 10
145.8890961199827
 20
113.61400652840101
 11
148.00329103617651
 21
115.8812030034203
  0
LINE
  5
AE
100
AcDbEntity
  8
1
  6
CONTINUOUS
 62
             3
100
AcDbLine
 10
129.463459482307
 20
31.91927712750328
 11
124.8469448429483
 21
36.22424667408041
  0
LINE
  5
AD
100
AcDbEntity
  8
1
  6
CONTINUOUS
 62
             3
100
AcDbLine
 10
41.91927712750314
 20
40.53654051769331
 11
46.22424667408038
 21
45.1530551570529
  0
LINE
  5
AC
100
AcDbEntity
  8
1
  6
CONTINUOUS
 62
             3
100
AcDbLine
 10
50.53654051769306
 20
128.08072287249689
 11
55.15305515705214
 21
123.77575332591989
  0
LINE
  5
AB
100
AcDbEntity
  8
1
  6
CONTINUOUS
 62
             3
100
AcDbLine
 10
108.18358219603699
 20
49.71209253646009
 11
128.28003316499471
 21
30.97184883008112
  0
LINE
  5
AA
100
AcDbEntity
  8
1
  6
CONTINUOUS
 62
             3
100
AcDbLine
 10
59.71209253646018
 20
61.81641780396319
 11
40.97184883008114
 21
41.71996683500561
  0
LINE
  5
A9
100
AcDbEntity
  8
1
  6
CONTINUOUS
 62
             3
100
AcDbLine
 10
71.81641780396328
 20
110.28790746354029
 11
51.71996683500535
 21
129.02815116991911
  0
LINE
  5
A8
100
AcDbEntity
  8
1
  6
CONTINUOUS
 62
             3
100
AcDbLine
 10
120.28790746354029
 20
98.18358219603717
 11
139.7555960946934
 21
119.0601223405894
  0
LINE
  5
A7
100
AcDbEntity
  8
1
  6
CONTINUOUS
 62
             3
100
AcDbLine
 10
118.2311865867742
 20
94.14517010049008
 11
140.73798805772279
 21
118.28075976067331
  0
LINE
  5
A6
100
AcDbEntity
  8
1
  6
CONTINUOUS
 62
             3
100
AcDbLine
 10
142.70436414567621
 20
20.5
 11
37.29563585432445
 21
20.5
  0
LINE
  5
A5
100
AcDbEntity
  8
1
  6
CONTINUOUS
 62
             3
100
AcDbLine
 10
149.5
 20
132.70436414567581
 11
149.5
 21
122.55000000000069
  0
LINE
  5
A4
100
AcDbEntity
  8
1
  6
CONTINUOUS
 62
             3
100
AcDbLine
 10
30.50000000000048
 20
27.29563585432419
 11
30.50000000000048
 21
132.70436414567601
  0
LINE
  5
A3
100
AcDbEntity
  8
1
  6
DASH_CENTER
 62
             1
100
AcDbLine
 10
147.40000000000009
 20
27.60000000000019
 11
137.40000000000009
 21
27.60000000000019
  0
LINE
  5
A2
100
AcDbEntity
  8
1
  6
DASH_CENTER
 62
             1
100
AcDbLine
 10
142.40000000000009
 20
32.60000000000019
 11
142.40000000000009
 21
22.60000000000019
  0
LINE
  5
A1
100
AcDbEntity
  8
1
  6
DASH_CENTER
 62
             1
100
AcDbLine
 10
37.60000000000034
 20
22.60000000000019
 11
37.60000000000034
 21
32.60000000000019
  0
LINE
  5
A0
100
AcDbEntity
  8
1
  6
DASH_CENTER
 62
             1
100
AcDbLine
 10
42.60000000000034
 20
27.60000000000019
 11
32.60000000000034
 21
27.60000000000019
  0
LINE
  5
9F
100
AcDbEntity
  8
1
  6
DASH_CENTER
 62
             1
100
AcDbLine
 10
142.40000000000009
 20
137.40000000000089
 11
142.40000000000009
 21
127.4000000000004
  0
LINE
  5
9E
100
AcDbEntity
  8
1
  6
DASH_CENTER
 62
             1
100
AcDbLine
 10
137.40000000000009
 20
132.40000000000089
 11
147.40000000000009
 21
132.40000000000089
  0
LINE
  5
9D
100
AcDbEntity
  8
1
  6
DASH_CENTER
 62
             1
100
AcDbLine
 10
32.59999999999988
 20
132.40000000000089
 11
42.59999999999988
 21
132.40000000000089
  0
LINE
  5
9C
100
AcDbEntity
  8
1
  6
DASH_CENTER
 62
             1
100
AcDbLine
 10
37.59999999999988
 20
127.4000000000009
 11
37.59999999999988
 21
137.40000000000089
  0
LINE
  5
9B
100
AcDbEntity
  8
1
  6
CONTINUOUS
 62
             3
100
AcDbLine
 10
60.42469861119886
 20
22.5000000000008
 11
119.57530138880389
 21
22.5
  0
LINE
  5
9A
100
AcDbEntity
  8
1
  6
CONTINUOUS
 62
             3
100
AcDbLine
 10
32.50000000000048
 20
50.4246986111965
 11
32.50000000000048
 21
109.5753013888036
  0
LINE
  5
99
100
AcDbEntity
  8
1
  6
CONTINUOUS
 62
             3
100
AcDbLine
 10
60.42469861119659
 20
137.50000000000031
 11
119.5753013888034
 21
137.50000000000091
  0
LINE
  5
98
100
AcDbEntity
  8
1
  6
CONTINUOUS
 62
             3
100
AcDbLine
 10
147.5
 20
109.5753013888036
 11
147.5
 21
50.4246986111965
  0
LINE
  5
97
100
AcDbEntity
  8
1
  6
CONTINUOUS
 62
             3
100
AcDbLine
 10
32.99999999999997
 20
49.47216921826322
 11
33.00000000000048
 21
110.52783078174051
  0
LINE
  5
96
100
AcDbEntity
  8
1
  6
CONTINUOUS
 62
             3
100
AcDbLine
 10
59.47216921825978
 20
137.00000000000091
 11
120.52783078174009
 21
137.00000000000091
  0
LINE
  5
95
100
AcDbEntity
  8
1
  6
CONTINUOUS
 62
             3
100
AcDbLine
 10
147.0
 20
110.5278307817413
 11
147.0
 21
49.47216921826072
  0
LINE
  5
94
100
AcDbEntity
  8
1
  6
CONTINUOUS
 62
             3
100
AcDbLine
 10
120.5278307817389
 20
23.00000000000068
 11
59.47216921826228
 21
23.00000000000068
  0
LINE
  5
93
100
AcDbEntity
  8
1
  6
CONTINUOUS
 62
             3
100
AcDbLine
 10
138.08072287249709
 20
119.4634594823067
 11
133.7757533259196
 21
114.8469448429492
  0
LINE
  5
92
100
AcDbEntity
  8
1
  6
CONTINUOUS
 62
             3
100
AcDbLine
 10
137.91641884204091
 20
137.5
 11
128.5746030439719
 21
137.5
  0
LINE
  5
91
100
AcDbEntity
  8
1
  6
CONTINUOUS
 62
             3
100
AcDbLine
 10
51.42539695602815
 20
137.5
 11
42.08358115795855
 21
137.5
  0
LINE
  5
90
100
AcDbEntity
  8
1
  6
CONTINUOUS
 62
             3
100
AcDbLine
 10
32.49999999999997
 20
127.91641884204159
 11
32.49999999999997
 21
118.5746030439728
  0
LINE
  5
8F
100
AcDbEntity
  8
1
  6
CONTINUOUS
 62
             3
100
AcDbLine
 10
32.49999999999997
 20
41.42539695602909
 11
32.49999999999997
 21
32.08358115795909
  0
LINE
  5
8E
100
AcDbEntity
  8
1
  6
CONTINUOUS
 62
             3
100
AcDbLine
 10
42.08358115795855
 20
22.50000000000028
 11
51.42539695602889
 21
22.50000000000028
  0
LINE
  5
8D
100
AcDbEntity
  8
1
  6
CONTINUOUS
 62
             3
100
AcDbLine
 10
128.5746030439719
 20
22.5
 11
137.91641884204191
 21
22.5
  0
LINE
  5
8C
100
AcDbEntity
  8
1
  6
CONTINUOUS
 62
             3
100
AcDbLine
 10
147.5
 20
32.08358115795932
 11
147.5
 21
41.42539695602909
  0
LINE
  5
8B
100
AcDbEntity
  8
1
  6
CONTINUOUS
 62
             3
100
AcDbLine
 10
34.13620461587468
 20
47.43952061902189
 11
40.41169176317229
 21
54.16915667594611
  0
LINE
  5
8A
100
AcDbEntity
  8
1
  6
CONTINUOUS
 62
             3
100
AcDbLine
 10
61.85341341542878
 20
74.96316928642591
 11
42.11170437201915
 21
53.79277822586192
  0
LINE
  5
89
100
AcDbEntity
  8
1
  6
CONTINUOUS
 62
             3
100
AcDbLine
 10
95.0368307135769
 20
51.85341341542772
 11
116.2072217741384
 21
32.11170437201929
  0
LINE
  5
88
100
AcDbEntity
  8
1
  6
CONTINUOUS
 62
             3
100
AcDbLine
 10
122.56047938097829
 20
24.13620461587459
 11
115.8308433240539
 21
30.41169176317249
  0
LINE
  5
87
100
AcDbEntity
  8
1
  6
CONTINUOUS
 62
             3
100
AcDbLine
 10
145.86379538412561
 20
112.56047938097851
 11
139.5883082368282
 21
105.8308433240543
  0
LINE
  5
86
100
AcDbEntity
  8
1
  6
CONTINUOUS
 62
             3
100
AcDbLine
 10
137.88829562798091
 20
106.2072217741386
 11
118.1465865845699
 21
85.03683071357457
  0
LINE
  5
85
100
AcDbEntity
  8
1
  6
CONTINUOUS
 62
             3
100
AcDbLine
 10
84.96316928642339
 20
108.1465865845727
 11
63.79277822586184
 21
127.8882956279806
  0
LINE
  5
84
100
AcDbEntity
  8
1
  6
CONTINUOUS
 62
             3
100
AcDbLine
 10
64.16915667594614
 20
129.5883082368278
 11
57.43952061902198
 21
135.86379538412561
  0
LINE
  5
83
100
AcDbEntity
  8
1
  6
CONTINUOUS
 62
             2
100
AcDbLine
 10
119.9947812185838
 20
89.20353279572967
 11
117.179431889143
 21
88.88239396862547
  0
LINE
  5
82
100
AcDbEntity
  8
1
  6
CONTINUOUS
 62
             3
100
AcDbLine
 10
90.5
 20
55.00000000000091
 11
89.5
 21
55.00000000000091
  0
LINE
  5
81
100
AcDbEntity
  8
1
  6
CONTINUOUS
 62
             3
100
AcDbLine
 10
89.5
 20
55.00000000000091
 11
89.5
 21
57.00000000000091
  0
LINE
  5
80
100
AcDbEntity
  8
1
  6
CONTINUOUS
 62
             3
100
AcDbLine
 10
89.5
 20
57.00000000000091
 11
90.5
 21
57.00000000000091
  0
LINE
  5
7F
100
AcDbEntity
  8
1
  6
CONTINUOUS
 62
             3
100
AcDbLine
 10
90.5
 20
57.00000000000091
 11
90.5
 21
55.00000000000091
  0
LINE
  5
7E
100
AcDbEntity
  8
1
  6
CONTINUOUS
 62
             3
100
AcDbLine
 10
64.99999999999997
 20
79.50000000000102
 11
64.99999999999997
 21
80.50000000000102
  0
LINE
  5
7D
100
AcDbEntity
  8
1
  6
CONTINUOUS
 62
             3
100
AcDbLine
 10
64.99999999999997
 20
80.50000000000102
 11
66.99999999999997
 21
80.50000000000102
  0
LINE
  5
7C
100
AcDbEntity
  8
1
  6
CONTINUOUS
 62
             3
100
AcDbLine
 10
66.99999999999997
 20
80.50000000000102
 11
66.99999999999997
 21
79.50000000000102
  0
LINE
  5
7B
100
AcDbEntity
  8
1
  6
CONTINUOUS
 62
             3
100
AcDbLine
 10
66.99999999999997
 20
79.50000000000102
 11
64.99999999999997
 21
79.50000000000102
  0
LINE
  5
7A
100
AcDbEntity
  8
1
  6
CONTINUOUS
 62
             3
100
AcDbLine
 10
142.988582645929
 20
120.69422697601679
 11
143.05678248193519
 21
120.7673623461788
  0
LINE
  5
79
100
AcDbEntity
  8
1
  6
CONTINUOUS
 62
             3
100
AcDbLine
 10
143.281124126577
 20
120.42142763199141
 11
146.63432314919041
 21
124.0172933423267
  0
LINE
  5
78
100
AcDbEntity
  8
1
  6
CONTINUOUS
 62
             3
100
AcDbLine
 10
143.6616935843636
 20
115.5509333422099
 11
140.52621040791271
 21
112.18853929297519
  0
LINE
  5
77
100
AcDbEntity
  8
1
  6
CONTINUOUS
 62
             3
100
AcDbLine
 10
147.49999999999869
 20
125.0000000000003
 11
138.96171974103851
 21
125.0000000000003
  0
LINE
  5
76
100
AcDbEntity
  8
1
  6
CONTINUOUS
 62
             3
100
AcDbLine
 10
147.49999999999869
 20
125.0000000000003
 11
147.49999999999909
 21
127.91641884204149
  0
LINE
  5
75
100
AcDbEntity
  8
1
  6
CONTINUOUS
 62
             3
100
AcDbLine
 10
112.5472558815395
 20
89.03278762134657
 11
111.82900474123571
 21
88.78547392046318
  0
LINE
  5
74
100
AcDbEntity
  8
1
  6
PHANTOM
 62
             2
100
AcDbLine
 10
95.0
 20
59.00000000000028
 11
95.0
 21
62.00000000000028
  0
LINE
  5
73
100
AcDbEntity
  8
1
  6
PHANTOM
 62
             2
100
AcDbLine
 10
85.0
 20
59.00000000000028
 11
85.0
 21
62.00000000000028
  0
LINE
  5
72
100
AcDbEntity
  8
1
  6
PHANTOM
 62
             2
100
AcDbLine
 10
85.0
 20
59.00000000000028
 11
95.0
 21
59.00000000000028
  0
LINE
  5
71
100
AcDbEntity
  8
1
  6
PHANTOM
 62
             2
100
AcDbLine
 10
85.0
 20
62.00000000000028
 11
95.0
 21
62.00000000000028
  0
LINE
  5
70
100
AcDbEntity
  8
1
  6
PHANTOM
 62
             2
100
AcDbLine
 10
99.0
 20
65.00000000000028
 11
99.0
 21
63.00000000000011
  0
LINE
  5
6F
100
AcDbEntity
  8
1
  6
PHANTOM
 62
             2
100
AcDbLine
 10
81.0
 20
65.00000000000028
 11
81.0
 21
63.00000000000011
  0
LINE
  5
6E
100
AcDbEntity
  8
1
  6
PHANTOM
 62
             2
100
AcDbLine
 10
81.0
 20
63.00000000000011
 11
99.0
 21
63.00000000000011
  0
LINE
  5
6D
100
AcDbEntity
  8
1
  6
PHANTOM
 62
             2
100
AcDbLine
 10
81.0
 20
65.00000000000028
 11
99.0
 21
65.00000000000028
  0
LINE
  5
4D
100
AcDbEntity
  8
1
  6
DASH_CENTER
 62
             1
100
AcDbLine
 10
90.0
 20
144.50000000000031
 11
90.0
 21
15.50000000000001
  0
LINE
  5
4C
100
AcDbEntity
  8
1
  6
CONTINUOUS
 62
             3
100
AcDbLine
 10
72.85213188906349
 20
101.568509898691
 11
72.04008635920164
 21
100.60075172112791
  0
LINE
  5
4B
100
AcDbEntity
  8
1
  6
CONTINUOUS
 62
             3
100
AcDbLine
 10
72.92701202704208
 20
104.76919622586161
 11
72.38537305913198
 21
105.22368528406609
  0
LINE
  5
4A
100
AcDbEntity
  8
1
  6
CONTINUOUS
 62
             3
100
AcDbLine
 10
62.99999999999997
 20
85.49999999999997
 11
62.99999999999997
 21
84.23668142069798
  0
LINE
  5
49
100
AcDbEntity
  8
1
  6
CONTINUOUS
 62
             3
100
AcDbLine
 10
79.8950565614257
 20
54.36525564583832
 11
81.1391824928464
 21
54.1458826767298
  0
LINE
  5
48
100
AcDbEntity
  8
1
  6
CONTINUOUS
 62
             3
100
AcDbLine
 10
113.4905899729288
 20
65.59714671588432
 11
113.9226703744874
 21
66.78427786255611
  0
LINE
  5
47
100
AcDbEntity
  8
1
  6
CONTINUOUS
 62
             3
100
AcDbLine
 10
108.26313972081471
 20
100.6326859021799
 11
107.1690737380666
 21
101.2643451918309
  0
LINE
  5
46
100
AcDbEntity
  8
1
  6
CONTINUOUS
 62
             3
100
AcDbLine
 10
90.7279418445606
 20
107.54487430849839
 11
89.4838159131392
 21
107.3255013393896
  0
LINE
  5
45
100
AcDbEntity
  8
1
  6
CONTINUOUS
 62
             3
100
AcDbLine
 10
60.99999999999997
 20
87.99999999999997
 11
60.29294054310404
 21
87.99999999999987
  0
LINE
  5
44
100
AcDbEntity
  8
1
  6
CONTINUOUS
 62
             3
100
AcDbLine
 10
77.0857408235613
 20
52.82976058398123
 11
76.9629612373692
 21
52.1334429489894
  0
LINE
  5
43
100
AcDbEntity
  8
1
  6
CONTINUOUS
 62
             3
100
AcDbLine
 10
114.5149248561861
 20
62.56387487726818
 11
115.1793434102883
 21
62.32204630048091
  0
LINE
  5
42
100
AcDbEntity
  8
1
  6
CONTINUOUS
 62
             3
100
AcDbLine
 10
119.98724714939711
 20
82.401043190157
 11
120.65166570349911
 21
82.6428717669445
  0
LINE
  5
41
100
AcDbEntity
  8
1
  6
CONTINUOUS
 62
             3
100
AcDbLine
 10
111.4282032302758
 20
101.1147367097491
 11
111.78173295872379
 21
101.72706816140681
  0
LINE
  5
40
100
AcDbEntity
  8
1
  6
CONTINUOUS
 62
             3
100
AcDbLine
 10
92.84266487175709
 20
109.94861025869
 11
92.7198852855647
 21
110.6449278936819
  0
LINE
  5
3F
100
AcDbEntity
  8
1
  6
CONTINUOUS
 62
             3
100
AcDbLine
 10
114.2592725220516
 20
64.78528026216583
 11
113.78942621165881
 21
64.95629033382841
  0
LINE
  5
3E
100
AcDbEntity
  8
1
  6
CONTINUOUS
 62
             3
100
AcDbLine
 10
114.55810876078159
 20
64.14442388011008
 11
114.21608861745609
 21
63.20473125932409
  0
LINE
  5
3D
100
AcDbEntity
  8
1
  6
CONTINUOUS
 62
             3
100
AcDbLine
 10
119.00437062401539
 20
83.63957204967296
 11
119.3463907673413
 21
82.6998794288873
  0
LINE
  5
3C
100
AcDbEntity
  8
1
  6
CONTINUOUS
 62
             3
100
AcDbLine
 10
118.3635142419599
 20
83.93840828840327
 11
117.8936679315669
 21
83.76739821674038
  0
LINE
  5
3B
100
AcDbEntity
  8
1
  6
CONTINUOUS
 62
             3
100
AcDbLine
 10
109.8791651245988
 20
101.4317240078565
 11
110.7451905283836
 21
100.9317240078567
  0
LINE
  5
3A
100
AcDbEntity
  8
1
  6
CONTINUOUS
 62
             3
100
AcDbLine
 10
109.1961524227068
 20
101.24871130596421
 11
108.9461524227072
 21
100.8156986040724
  0
LINE
  5
39
100
AcDbEntity
  8
1
  6
CONTINUOUS
 62
             3
100
AcDbLine
 10
91.48228716252039
 20
109.2010256586544
 11
92.4370850840844
 21
109.3693822933504
  0
LINE
  5
38
100
AcDbEntity
  8
1
  6
CONTINUOUS
 62
             3
100
AcDbLine
 10
91.04669754339921
 20
108.6165061503434
 11
91.133521632233
 21
108.12410227383801
  0
LINE
  5
37
100
AcDbEntity
  8
1
  6
CONTINUOUS
 62
             3
100
AcDbLine
 10
72.40748125078787
 20
102.5943197299369
 11
72.79050347234735
 21
102.2729259250938
  0
LINE
  5
36
100
AcDbEntity
  8
1
  6
CONTINUOUS
 62
             3
100
AcDbLine
 10
72.34585283407179
 20
103.29873575633979
 11
72.98864044375816
 21
104.0647801994587
  0
LINE
  5
35
100
AcDbEntity
  8
1
  6
CONTINUOUS
 62
             3
100
AcDbLine
 10
62.00000000000014
 20
85.99999999999997
 11
62.49999999999997
 21
85.99999999999997
  0
LINE
  5
34
100
AcDbEntity
  8
1
  6
CONTINUOUS
 62
             3
100
AcDbLine
 10
61.50000000000048
 20
86.49999999999997
 11
61.49999999999997
 21
87.49999999999997
  0
LINE
  5
33
100
AcDbEntity
  8
1
  6
CONTINUOUS
 62
             3
100
AcDbLine
 10
79.22900450725319
 20
53.46727198166019
 11
79.31582859608589
 21
53.95967585816561
  0
LINE
  5
32
100
AcDbEntity
  8
1
  6
CONTINUOUS
 62
             3
100
AcDbLine
 10
78.6497765419134
 20
53.06169219398748
 11
77.66496878890121
 21
53.23534037165388
  0
LINE
  5
31
100
AcDbEntity
  8
1
  6
CONTINUOUS
 62
             3
100
AcDbLine
 10
111.5873988431008
 20
87.95137165455847
 11
111.5190295306643
 21
88.14993055543508
  0
LINE
  5
30
100
AcDbEntity
  8
1
  6
CONTINUOUS
 62
             3
100
AcDbLine
 10
113.89448242835699
 20
82.8052928741468
 11
112.88983741209751
 21
82.24840904813721
  0
LINE
  5
2F
100
AcDbEntity
  8
1
  6
CONTINUOUS
 62
             3
100
AcDbLine
 10
89.5
 20
57.00000000000091
 11
90.5
 21
57.00000000000091
  0
LINE
  5
2E
100
AcDbEntity
  8
1
  6
CONTINUOUS
 62
             3
100
AcDbLine
 10
64.99999999999997
 20
79.50000000000102
 11
64.99999999999997
 21
80.50000000000102
  0
LINE
  5
2D
100
AcDbEntity
  8
1
  6
CONTINUOUS
 62
             3
100
AcDbLine
 10
64.99999999999997
 20
80.50000000000102
 11
66.99999999999997
 21
80.50000000000102
  0
LINE
  5
2C
100
AcDbEntity
  8
1
  6
CONTINUOUS
 62
             3
100
AcDbLine
 10
66.99999999999997
 20
80.50000000000102
 11
66.99999999999997
 21
79.50000000000102
  0
LINE
  5
2B
100
AcDbEntity
  8
1
  6
CONTINUOUS
 62
             3
100
AcDbLine
 10
66.99999999999997
 20
79.50000000000102
 11
64.99999999999997
 21
79.50000000000102
  0
LINE
  5
2A
100
AcDbEntity
  8
1
  6
CONTINUOUS
 62
             3
100
AcDbLine
 10
112.5472558815395
 20
89.03278762134657
 11
111.82900474123571
 21
88.78547392046318
  0
LINE
  5
29
100
AcDbEntity
  8
1
  6
DASH_CENTER
 62
             1
100
AcDbLine
 10
25.50000000000048
 20
80.0
 11
154.5
 21
80.0
  0
SOLID
  5
2A6
100
AcDbEntity
  8
1
 62
             2
100
AcDbTrace
 10
248.52388862947649
 20
5.96078374155588
 11
248.52388862947649
 21
5.03921625844411
 12
245.02388862947649
 22
5.5
 13
245.02388862947649
 23
5.5
  0
SOLID
  5
2A8
100
AcDbEntity
  8
1
 62
             2
100
AcDbTrace
 10
78.31018939661274
 20
4.92606742194308
 11
77.9511285577789
 21
4.07732603615769
 12
74.9072435413361
 22
5.8653656506957
 13
74.9072435413361
 23
5.8653656506957
  0
INSERT
  5
2FA
100
AcDbEntity
  8
0
100
AcDbBlockReference
  2
*D6
 10
0.0
 20
0.0
  0
INSERT
  5
302
100
AcDbEntity
  8
0
100
AcDbBlockReference
  2
*D7
 10
0.0
 20
0.0
  0
ENDSEC
  0
SECTION
  2
OBJECTS
  0
DICTIONARY
  5
19
100
AcDbDictionary
  3
ACAD_GROUP
350
1A
  3
ACAD_MLINESTYLE
350
1B
  0
DICTIONARY
  5
1A
102
{ACAD_REACTORS
330
19
102
}
100
AcDbDictionary
  0
DICTIONARY
  5
1B
102
{ACAD_REACTORS
330
19
102
}
100
AcDbDictionary
  3
STANDARD
350
1C
  0
MLINESTYLE
  5
1C
102
{ACAD_REACTORS
330
1B
102
}
100
AcDbMlineStyle
  2
STANDARD
 70
             0
  3

 62
             0
 51
90.0
 52
90.0
 71
             2
 49
0.5
 62
           256
  6
BYLAYER
 49
-0.5
 62
           256
  6
BYLAYER
  0
ENDSEC
  0
EOF
